  0
SECTION
  2
HEADER
  9
$ACADVER
  1
AC1014
  9
$ACADMAINTVER
 70
     8
  9
$DWGCODEPAGE
  3
ANSI_1252
  9
$INSBASE
 10
0.0
 20
0.0
 30
0.0
  9
$EXTMIN
 10
-0.79269
 20
-3.291789
 30
0.0
  9
$EXTMAX
 10
1.823645
 20
1.736268
 30
4.1134
  9
$LIMMIN
 10
0.0
 20
0.0
  9
$LIMMAX
 10
12.0
 20
9.0
  9
$ORTHOMODE
 70
     0
  9
$REGENMODE
 70
     1
  9
$FILLMODE
 70
     1
  9
$QTEXTMODE
 70
     0
  9
$MIRRTEXT
 70
     1
  9
$DRAGMODE
 70
     2
  9
$LTSCALE
 40
1.0
  9
$OSMODE
 70
    37
  9
$ATTMODE
 70
     1
  9
$TEXTSIZE
 40
0.12
  9
$TRACEWID
 40
0.05
  9
$TEXTSTYLE
  7
STANDARD
  9
$CLAYER
  8
0
  9
$CELTYPE
  6
BYLAYER
  9
$CECOLOR
 62
   256
  9
$CELTSCALE
 40
1.0
  9
$DELOBJ
 70
     1
  9
$DISPSILH
 70
     0
  9
$DIMSCALE
 40
1.0
  9
$DIMASZ
 40
0.18
  9
$DIMEXO
 40
0.0625
  9
$DIMDLI
 40
0.375
  9
$DIMRND
 40
0.0
  9
$DIMDLE
 40
0.0
  9
$DIMEXE
 40
0.18
  9
$DIMTP
 40
0.0
  9
$DIMTM
 40
0.0
  9
$DIMTXT
 40
0.14
  9
$DIMCEN
 40
0.09
  9
$DIMTSZ
 40
0.0
  9
$DIMTOL
 70
     0
  9
$DIMLIM
 70
     0
  9
$DIMTIH
 70
     0
  9
$DIMTOH
 70
     1
  9
$DIMSE1
 70
     0
  9
$DIMSE2
 70
     0
  9
$DIMTAD
 70
     0
  9
$DIMZIN
 70
     4
  9
$DIMBLK
  1

  9
$DIMASO
 70
     1
  9
$DIMSHO
 70
     1
  9
$DIMPOST
  1

  9
$DIMAPOST
  1

  9
$DIMALT
 70
     1
  9
$DIMALTD
 70
     2
  9
$DIMALTF
 40
25.4
  9
$DIMLFAC
 40
1.0
  9
$DIMTOFL
 70
     0
  9
$DIMTVP
 40
0.0
  9
$DIMTIX
 70
     0
  9
$DIMSOXD
 70
     0
  9
$DIMSAH
 70
     0
  9
$DIMBLK1
  1

  9
$DIMBLK2
  1

  9
$DIMSTYLE
  2
ABECAD_3D
  9
$DIMCLRD
 70
     0
  9
$DIMCLRE
 70
     0
  9
$DIMCLRT
 70
     0
  9
$DIMTFAC
 40
1.5
  9
$DIMGAP
 40
0.09
  9
$DIMJUST
 70
     0
  9
$DIMSD1
 70
     0
  9
$DIMSD2
 70
     0
  9
$DIMTOLJ
 70
     1
  9
$DIMTZIN
 70
     4
  9
$DIMALTZ
 70
     4
  9
$DIMALTTZ
 70
     4
  9
$DIMFIT
 70
     5
  9
$DIMUPT
 70
     1
  9
$DIMUNIT
 70
     7
  9
$DIMDEC
 70
     6
  9
$DIMTDEC
 70
     6
  9
$DIMALTU
 70
     2
  9
$DIMALTTD
 70
     2
  9
$DIMTXSTY
  7
STANDARD
  9
$DIMAUNIT
 70
     0
  9
$LUNITS
 70
     2
  9
$LUPREC
 70
     4
  9
$SKETCHINC
 40
0.1
  9
$FILLETRAD
 40
0.0
  9
$AUNITS
 70
     0
  9
$AUPREC
 70
     0
  9
$MENU
  1
ACAD
  9
$ELEVATION
 40
0.0
  9
$PELEVATION
 40
0.0
  9
$THICKNESS
 40
0.0
  9
$LIMCHECK
 70
     0
  9
$BLIPMODE
 70
     0
  9
$CHAMFERA
 40
0.0
  9
$CHAMFERB
 40
0.0
  9
$CHAMFERC
 40
0.0
  9
$CHAMFERD
 40
0.0
  9
$SKPOLY
 70
     0
  9
$TDCREATE
 40
2451726.438389120
  9
$TDUPDATE
 40
2452010.489829167
  9
$TDINDWG
 40
0.6542500000
  9
$TDUSRTIMER
 40
0.6542500000
  9
$USRTIMER
 70
     1
  9
$ANGBASE
 50
0.0
  9
$ANGDIR
 70
     0
  9
$PDMODE
 70
     3
  9
$PDSIZE
 40
0.09
  9
$PLINEWID
 40
0.0
  9
$COORDS
 70
     1
  9
$SPLFRAME
 70
     1
  9
$SPLINETYPE
 70
     6
  9
$SPLINESEGS
 70
     8
  9
$ATTDIA
 70
     0
  9
$ATTREQ
 70
     1
  9
$HANDLING
 70
     1
  9
$HANDSEED
  5
60E54
  9
$SURFTAB1
 70
     6
  9
$SURFTAB2
 70
     6
  9
$SURFTYPE
 70
     6
  9
$SURFU
 70
     6
  9
$SURFV
 70
     6
  9
$UCSNAME
  2

  9
$UCSORG
 10
0.0
 20
0.0
 30
0.0
  9
$UCSXDIR
 10
1.0
 20
0.0
 30
0.0
  9
$UCSYDIR
 10
0.0
 20
1.0
 30
0.0
  9
$PUCSNAME
  2

  9
$PUCSORG
 10
0.0
 20
0.0
 30
0.0
  9
$PUCSXDIR
 10
1.0
 20
0.0
 30
0.0
  9
$PUCSYDIR
 10
0.0
 20
1.0
 30
0.0
  9
$USERI1
 70
     0
  9
$USERI2
 70
     0
  9
$USERI3
 70
     0
  9
$USERI4
 70
     0
  9
$USERI5
 70
     0
  9
$USERR1
 40
0.0
  9
$USERR2
 40
0.0
  9
$USERR3
 40
0.0
  9
$USERR4
 40
0.0
  9
$USERR5
 40
0.0
  9
$WORLDVIEW
 70
     1
  9
$SHADEDGE
 70
     3
  9
$SHADEDIF
 70
    70
  9
$TILEMODE
 70
     1
  9
$MAXACTVP
 70
    16
  9
$PINSBASE
 10
0.0
 20
0.0
 30
0.0
  9
$PLIMCHECK
 70
     0
  9
$PEXTMIN
 10
1.05
 20
0.8
 30
0.0
  9
$PEXTMAX
 10
9.45
 20
7.2
 30
0.0
  9
$PLIMMIN
 10
-0.25
 20
-0.25
  9
$PLIMMAX
 10
10.75
 20
8.25
  9
$UNITMODE
 70
     0
  9
$VISRETAIN
 70
     0
  9
$PLINEGEN
 70
     0
  9
$PSLTSCALE
 70
     1
  9
$TREEDEPTH
 70
  3020
  9
$PICKSTYLE
 70
     1
  9
$CMLSTYLE
  2
STANDARD
  9
$CMLJUST
 70
     0
  9
$CMLSCALE
 40
1.0
  9
$PROXYGRAPHICS
 70
     1
  9
$MEASUREMENT
 70
     0
  0
ENDSEC
  0
SECTION
  2
CLASSES
  0
CLASS
  1
DICTIONARYVAR
  2
AcDbDictionaryVar
  3
"AutoCAD"
 90
        0
280
     0
281
     0
  0
CLASS
  1
ACDBDICTIONARYWDFLT
  2
AcDbDictionaryWithDefault
  3
AutoCAD 2000
 90
        0
280
     0
281
     0
  0
CLASS
  1
ACDBPLACEHOLDER
  2
AcDbPlaceHolder
  3
AutoCAD 2000
 90
        0
280
     0
281
     0
  0
CLASS
  1
LAYOUT
  2
AcDbLayout
  3
AutoCAD 2000
 90
        0
280
     0
281
     0
  0
CLASS
  1
LONG_TRANSACTION
  2
AcDbLongTransaction
  3
AutoCAD 2000
 90
        0
280
     0
281
     0
  0
CLASS
  1
LWPOLYLINE
  2
AcDbPolyline
  3
"AutoCAD"
 90
        0
280
     0
281
     1
  0
CLASS
  1
HATCH
  2
AcDbHatch
  3
"ACAD_SEDONA"
 90
        0
280
     0
281
     1
  0
CLASS
  1
XRECORD
  2
AcDbXrecord
  3
"<Built In>"
 90
        0
280
     0
281
     0
  0
CLASS
  1
LONG_TRANSACTION
  2
AcDbLongTransaction
  3
AutoCAD 2000
 90
        0
280
     0
281
     0
  0
CLASS
  1
LWPOLYLINE
  2
AcDbPolyline
  3
"AutoCAD"
 90
        0
280
     0
281
     1
  0
CLASS
  1
HATCH
  2
AcDbHatch
  3
"ACAD_SEDONA"
 90
        0
280
     0
281
     1
  0
CLASS
  1
XRECORD
  2
AcDbXrecord
  3
"<Built In>"
 90
        0
280
     0
281
     0
  0
CLASS
  1
LONG_TRANSACTION
  2
AcDbLongTransaction
  3
AutoCAD 2000
 90
        0
280
     0
281
     0
  0
CLASS
  1
LWPOLYLINE
  2
AcDbPolyline
  3
"AutoCAD"
 90
        0
280
     0
281
     1
  0
CLASS
  1
HATCH
  2
AcDbHatch
  3
"ACAD_SEDONA"
 90
        0
280
     0
281
     1
  0
CLASS
  1
XRECORD
  2
AcDbXrecord
  3
"<Built In>"
 90
        0
280
     0
281
     0
  0
CLASS
  1
LONG_TRANSACTION
  2
AcDbLongTransaction
  3
AutoCAD 2000
 90
        0
280
     0
281
     0
  0
CLASS
  1
LWPOLYLINE
  2
AcDbPolyline
  3
"AutoCAD"
 90
        0
280
     0
281
     1
  0
CLASS
  1
HATCH
  2
AcDbHatch
  3
"ACAD_SEDONA"
 90
        0
280
     0
281
     1
  0
CLASS
  1
XRECORD
  2
AcDbXrecord
  3
"<Built In>"
 90
        0
280
     0
281
     0
  0
CLASS
  1
LONG_TRANSACTION
  2
AcDbLongTransaction
  3
AutoCAD 2000
 90
        0
280
     0
281
     0
  0
CLASS
  1
LWPOLYLINE
  2
AcDbPolyline
  3
"AutoCAD"
 90
        0
280
     0
281
     1
  0
CLASS
  1
HATCH
  2
AcDbHatch
  3
"ACAD_SEDONA"
 90
        0
280
     0
281
     1
  0
CLASS
  1
XRECORD
  2
AcDbXrecord
  3
"<Built In>"
 90
        0
280
     0
281
     0
  0
CLASS
  1
LONG_TRANSACTION
  2
AcDbLongTransaction
  3
AutoCAD 2000
 90
        0
280
     0
281
     0
  0
CLASS
  1
LWPOLYLINE
  2
AcDbPolyline
  3
"AutoCAD"
 90
        0
280
     0
281
     1
  0
CLASS
  1
HATCH
  2
AcDbHatch
  3
"ACAD_SEDONA"
 90
        0
280
     0
281
     1
  0
CLASS
  1
XRECORD
  2
AcDbXrecord
  3
"<Built In>"
 90
        0
280
     0
281
     0
  0
CLASS
  1
LONG_TRANSACTION
  2
AcDbLongTransaction
  3
AutoCAD 2000
 90
        0
280
     0
281
     0
  0
CLASS
  1
LWPOLYLINE
  2
AcDbPolyline
  3
"AutoCAD"
 90
        0
280
     0
281
     1
  0
CLASS
  1
HATCH
  2
AcDbHatch
  3
"ACAD_SEDONA"
 90
        0
280
     0
281
     1
  0
CLASS
  1
XRECORD
  2
AcDbXrecord
  3
"<Built In>"
 90
        0
280
     0
281
     0
  0
CLASS
  1
LONG_TRANSACTION
  2
AcDbLongTransaction
  3
AutoCAD 2000
 90
        0
280
     0
281
     0
  0
CLASS
  1
LWPOLYLINE
  2
AcDbPolyline
  3
"AutoCAD"
 90
        0
280
     0
281
     1
  0
CLASS
  1
HATCH
  2
AcDbHatch
  3
"ACAD_SEDONA"
 90
        0
280
     0
281
     1
  0
CLASS
  1
XRECORD
  2
AcDbXrecord
  3
"<Built In>"
 90
        0
280
     0
281
     0
  0
CLASS
  1
LONG_TRANSACTION
  2
AcDbLongTransaction
  3
AutoCAD 2000
 90
        0
280
     0
281
     0
  0
CLASS
  1
LWPOLYLINE
  2
AcDbPolyline
  3
"AutoCAD"
 90
        0
280
     0
281
     1
  0
CLASS
  1
HATCH
  2
AcDbHatch
  3
"ACAD_SEDONA"
 90
        0
280
     0
281
     1
  0
CLASS
  1
XRECORD
  2
AcDbXrecord
  3
"<Built In>"
 90
        0
280
     0
281
     0
  0
CLASS
  1
LONG_TRANSACTION
  2
AcDbLongTransaction
  3
AutoCAD 2000
 90
        0
280
     0
281
     0
  0
CLASS
  1
LWPOLYLINE
  2
AcDbPolyline
  3
"AutoCAD"
 90
        0
280
     0
281
     1
  0
CLASS
  1
HATCH
  2
AcDbHatch
  3
"ACAD_SEDONA"
 90
        0
280
     0
281
     1
  0
CLASS
  1
XRECORD
  2
AcDbXrecord
  3
"<Built In>"
 90
        0
280
     0
281
     0
  0
CLASS
  1
LONG_TRANSACTION
  2
AcDbLongTransaction
  3
AutoCAD 2000
 90
        0
280
     0
281
     0
  0
CLASS
  1
LWPOLYLINE
  2
AcDbPolyline
  3
"AutoCAD"
 90
        0
280
     0
281
     1
  0
CLASS
  1
HATCH
  2
AcDbHatch
  3
"ACAD_SEDONA"
 90
        0
280
     0
281
     1
  0
CLASS
  1
XRECORD
  2
AcDbXrecord
  3
"<Built In>"
 90
        0
280
     0
281
     0
  0
CLASS
  1
LONG_TRANSACTION
  2
AcDbLongTransaction
  3
AutoCAD 2000
 90
        0
280
     0
281
     0
  0
CLASS
  1
LWPOLYLINE
  2
AcDbPolyline
  3
"AutoCAD"
 90
        0
280
     0
281
     1
  0
CLASS
  1
HATCH
  2
AcDbHatch
  3
"ACAD_SEDONA"
 90
        0
280
     0
281
     1
  0
CLASS
  1
XRECORD
  2
AcDbXrecord
  3
"<Built In>"
 90
        0
280
     0
281
     0
  0
CLASS
  1
LONG_TRANSACTION
  2
AcDbLongTransaction
  3
AutoCAD 2000
 90
        0
280
     0
281
     0
  0
CLASS
  1
LWPOLYLINE
  2
AcDbPolyline
  3
"AutoCAD"
 90
        0
280
     0
281
     1
  0
CLASS
  1
HATCH
  2
AcDbHatch
  3
"ACAD_SEDONA"
 90
        0
280
     0
281
     1
  0
CLASS
  1
XRECORD
  2
AcDbXrecord
  3
"<Built In>"
 90
        0
280
     0
281
     0
  0
CLASS
  1
LONG_TRANSACTION
  2
AcDbLongTransaction
  3
AutoCAD 2000
 90
        0
280
     0
281
     0
  0
CLASS
  1
LWPOLYLINE
  2
AcDbPolyline
  3
"AutoCAD"
 90
        0
280
     0
281
     1
  0
CLASS
  1
HATCH
  2
AcDbHatch
  3
"ACAD_SEDONA"
 90
        0
280
     0
281
     1
  0
CLASS
  1
XRECORD
  2
AcDbXrecord
  3
"<Built In>"
 90
        0
280
     0
281
     0
  0
CLASS
  1
LONG_TRANSACTION
  2
AcDbLongTransaction
  3
AutoCAD 2000
 90
        0
280
     0
281
     0
  0
CLASS
  1
LWPOLYLINE
  2
AcDbPolyline
  3
"AutoCAD"
 90
        0
280
     0
281
     1
  0
CLASS
  1
HATCH
  2
AcDbHatch
  3
"ACAD_SEDONA"
 90
        0
280
     0
281
     1
  0
CLASS
  1
XRECORD
  2
AcDbXrecord
  3
"<Built In>"
 90
        0
280
     0
281
     0
  0
CLASS
  1
LONG_TRANSACTION
  2
AcDbLongTransaction
  3
AutoCAD 2000
 90
        0
280
     0
281
     0
  0
CLASS
  1
LWPOLYLINE
  2
AcDbPolyline
  3
"AutoCAD"
 90
        0
280
     0
281
     1
  0
CLASS
  1
HATCH
  2
AcDbHatch
  3
"ACAD_SEDONA"
 90
        0
280
     0
281
     1
  0
CLASS
  1
XRECORD
  2
AcDbXrecord
  3
"<Built In>"
 90
        0
280
     0
281
     0
  0
CLASS
  1
LONG_TRANSACTION
  2
AcDbLongTransaction
  3
AutoCAD 2000
 90
        0
280
     0
281
     0
  0
CLASS
  1
LWPOLYLINE
  2
AcDbPolyline
  3
"AutoCAD"
 90
        0
280
     0
281
     1
  0
CLASS
  1
HATCH
  2
AcDbHatch
  3
"ACAD_SEDONA"
 90
        0
280
     0
281
     1
  0
CLASS
  1
XRECORD
  2
AcDbXrecord
  3
"<Built In>"
 90
        0
280
     0
281
     0
  0
CLASS
  1
LONG_TRANSACTION
  2
AcDbLongTransaction
  3
AutoCAD 2000
 90
        0
280
     0
281
     0
  0
CLASS
  1
LWPOLYLINE
  2
AcDbPolyline
  3
"AutoCAD"
 90
        0
280
     0
281
     1
  0
CLASS
  1
HATCH
  2
AcDbHatch
  3
"ACAD_SEDONA"
 90
        0
280
     0
281
     1
  0
CLASS
  1
XRECORD
  2
AcDbXrecord
  3
"<Built In>"
 90
        0
280
     0
281
     0
  0
CLASS
  1
LONG_TRANSACTION
  2
AcDbLongTransaction
  3
AutoCAD 2000
 90
        0
280
     0
281
     0
  0
CLASS
  1
LWPOLYLINE
  2
AcDbPolyline
  3
"AutoCAD"
 90
        0
280
     0
281
     1
  0
CLASS
  1
HATCH
  2
AcDbHatch
  3
"ACAD_SEDONA"
 90
        0
280
     0
281
     1
  0
CLASS
  1
XRECORD
  2
AcDbXrecord
  3
"<Built In>"
 90
        0
280
     0
281
     0
  0
CLASS
  1
LONG_TRANSACTION
  2
AcDbLongTransaction
  3
AutoCAD 2000
 90
        0
280
     0
281
     0
  0
CLASS
  1
LWPOLYLINE
  2
AcDbPolyline
  3
"AutoCAD"
 90
        0
280
     0
281
     1
  0
CLASS
  1
HATCH
  2
AcDbHatch
  3
"ACAD_SEDONA"
 90
        0
280
     0
281
     1
  0
CLASS
  1
XRECORD
  2
AcDbXrecord
  3
"<Built In>"
 90
        0
280
     0
281
     0
  0
CLASS
  1
LONG_TRANSACTION
  2
AcDbLongTransaction
  3
AutoCAD 2000
 90
        0
280
     0
281
     0
  0
CLASS
  1
LWPOLYLINE
  2
AcDbPolyline
  3
"AutoCAD"
 90
        0
280
     0
281
     1
  0
CLASS
  1
HATCH
  2
AcDbHatch
  3
"ACAD_SEDONA"
 90
        0
280
     0
281
     1
  0
CLASS
  1
XRECORD
  2
AcDbXrecord
  3
"<Built In>"
 90
        0
280
     0
281
     0
  0
CLASS
  1
LONG_TRANSACTION
  2
AcDbLongTransaction
  3
AutoCAD 2000
 90
        0
280
     0
281
     0
  0
CLASS
  1
LWPOLYLINE
  2
AcDbPolyline
  3
"AutoCAD"
 90
        0
280
     0
281
     1
  0
CLASS
  1
HATCH
  2
AcDbHatch
  3
"ACAD_SEDONA"
 90
        0
280
     0
281
     1
  0
CLASS
  1
XRECORD
  2
AcDbXrecord
  3
"<Built In>"
 90
        0
280
     0
281
     0
  0
ENDSEC
  0
SECTION
  2
TABLES
  0
TABLE
  2
VPORT
  5
458C7
100
AcDbSymbolTable
 70
     1
  0
VPORT
  5
60E1F
102
{ACAD_XDICTIONARY
360
60E22
102
}
100
AcDbSymbolTableRecord
100
AcDbViewportTableRecord
  2
*ACTIVE
 70
     0
 10
0.0
 20
0.0
 11
1.0
 21
1.0
 12
-0.047702
 22
0.102654
 13
0.0
 23
0.0
 14
0.25
 24
0.25
 15
0.25
 25
0.25
 16
0.0
 26
0.0
 36
1.0
 17
0.563444
 27
-0.880137
 37
1.686493
 40
5.11389
 41
1.960674
 42
50.0
 43
0.0
 44
0.0
 50
0.0
 51
0.0
 71
     0
 72
 20000
 73
     1
 74
     1
 75
     0
 76
     0
 77
     0
 78
     0
  0
ENDTAB
  0
TABLE
  2
LTYPE
  5
458C4
100
AcDbSymbolTable
 70
     1
  0
LTYPE
  5
458D0
100
AcDbSymbolTableRecord
100
AcDbLinetypeTableRecord
  2
BYBLOCK
 70
     0
  3

 72
    65
 73
     0
 40
0.0
  0
LTYPE
  5
458D1
100
AcDbSymbolTableRecord
100
AcDbLinetypeTableRecord
  2
BYLAYER
 70
     0
  3

 72
    65
 73
     0
 40
0.0
  0
LTYPE
  5
458D2
100
AcDbSymbolTableRecord
100
AcDbLinetypeTableRecord
  2
CONTINUOUS
 70
     0
  3
Solid line
 72
    65
 73
     0
 40
0.0
  0
ENDTAB
  0
TABLE
  2
LAYER
  5
458C1
100
AcDbSymbolTable
 70
     7
  0
LAYER
  5
458CD
100
AcDbSymbolTableRecord
100
AcDbLayerTableRecord
  2
0
 70
     0
 62
     7
  6
CONTINUOUS
  0
LAYER
  5
458EA
100
AcDbSymbolTableRecord
100
AcDbLayerTableRecord
  2
DIMS-MTG-HOLES
 70
     0
 62
     1
  6
CONTINUOUS
  0
LAYER
  5
458EB
100
AcDbSymbolTableRecord
100
AcDbLayerTableRecord
  2
ATTRIBUTES
 70
     0
 62
     7
  6
CONTINUOUS
  0
LAYER
  5
4593B
102
{ACAD_XDICTIONARY
360
60E4B
102
}
100
AcDbSymbolTableRecord
100
AcDbLayerTableRecord
  2
AREA1
 70
     0
 62
    -7
  6
CONTINUOUS
  0
LAYER
  5
45940
102
{ACAD_XDICTIONARY
360
60E20
102
}
100
AcDbSymbolTableRecord
100
AcDbLayerTableRecord
  2
DEFPOINTS
 70
     0
 62
    -7
  6
CONTINUOUS
  0
LAYER
  5
45954
100
AcDbSymbolTableRecord
100
AcDbLayerTableRecord
  2
SCALE
 70
     0
 62
    -7
  6
CONTINUOUS
  0
LAYER
  5
4D59A
100
AcDbSymbolTableRecord
100
AcDbLayerTableRecord
  2
SNAP_POINTS
 70
     0
 62
    -1
  6
CONTINUOUS
  0
ENDTAB
  0
TABLE
  2
STYLE
  5
458C2
100
AcDbSymbolTable
 70
     1
  0
STYLE
  5
458CE
100
AcDbSymbolTableRecord
100
AcDbTextStyleTableRecord
  2
STANDARD
 70
     0
 40
0.0
 41
1.0
 50
0.0
 71
     0
 42
0.12
  3
txt
  4

  0
ENDTAB
  0
TABLE
  2
VIEW
  5
458C5
100
AcDbSymbolTable
 70
     0
  0
ENDTAB
  0
TABLE
  2
UCS
  5
458C6
100
AcDbSymbolTable
 70
     0
  0
ENDTAB
  0
TABLE
  2
APPID
  5
458C8
100
AcDbSymbolTable
 70
     2
  0
APPID
  5
458CF
100
AcDbSymbolTableRecord
100
AcDbRegAppTableRecord
  2
ACAD
 70
     0
  0
APPID
  5
5FD5B
100
AcDbSymbolTableRecord
100
AcDbRegAppTableRecord
  2
AVE_RENDER
 70
     0
  0
ENDTAB
  0
TABLE
  2
DIMSTYLE
  5
458C9
100
AcDbSymbolTable
 70
     1
  0
DIMSTYLE
105
458F6
102
{ACAD_XDICTIONARY
360
60E47
102
}
102
{ACAD_REACTORS
330
60D77
330
60D85
102
}
100
AcDbSymbolTableRecord
100
AcDbDimStyleTableRecord
  2
ABECAD_3D
 70
     0
  3

  4

  5

  6

  7

 40
1.0
 41
0.18
 42
0.0625
 43
0.375
 44
0.18
 45
0.0
 46
0.0
 47
0.0
 48
0.0
140
0.14
141
0.09
142
0.0
143
25.4
144
1.0
145
0.0
146
1.5
147
0.09
 71
     0
 72
     0
 73
     0
 74
     1
 75
     0
 76
     0
 77
     0
 78
     4
170
     1
171
     2
172
     0
173
     0
174
     0
175
     0
176
     0
177
     0
178
     0
270
     7
271
     6
272
     6
273
     2
274
     2
340
458CE
275
     0
280
     0
281
     0
282
     0
283
     1
284
     4
285
     4
286
     4
287
     5
288
     1
  0
ENDTAB
  0
TABLE
  2
BLOCK_RECORD
  5
458C0
100
AcDbSymbolTable
 70
     2
  0
BLOCK_RECORD
  5
458D6
102
{ACAD_XDICTIONARY
360
4592C
102
}
100
AcDbSymbolTableRecord
100
AcDbBlockTableRecord
  2
*MODEL_SPACE
  0
BLOCK_RECORD
  5
458D3
102
{ACAD_XDICTIONARY
360
4592A
102
}
100
AcDbSymbolTableRecord
100
AcDbBlockTableRecord
  2
*PAPER_SPACE
  0
BLOCK_RECORD
  5
60D78
100
AcDbSymbolTableRecord
100
AcDbBlockTableRecord
  2
*D0
  0
BLOCK_RECORD
  5
60D86
100
AcDbSymbolTableRecord
100
AcDbBlockTableRecord
  2
*D1
  0
ENDTAB
  0
ENDSEC
  0
SECTION
  2
BLOCKS
  0
BLOCK
  5
458DF
100
AcDbEntity
  8
0
100
AcDbBlockBegin
  2
*MODEL_SPACE
 70
     0
 10
0.0
 20
0.0
 30
0.0
  3
*MODEL_SPACE
  1

  0
ENDBLK
  5
458E0
100
AcDbEntity
  8
0
100
AcDbBlockEnd
  0
BLOCK
  5
458DD
100
AcDbEntity
 67
     1
  8
0
100
AcDbBlockBegin
  2
*PAPER_SPACE
 70
     0
 10
0.0
 20
0.0
 30
0.0
  3
*PAPER_SPACE
  1

  0
ENDBLK
  5
458DE
100
AcDbEntity
 67
     1
  8
0
100
AcDbBlockEnd
  0
BLOCK
  5
60D83
100
AcDbEntity
  8
0
100
AcDbBlockBegin
  2
*D0
 70
     1
 10
0.0
 20
0.0
 30
0.0
  3
*D0
  1

  0
LINE
  5
60D79
100
AcDbEntity
  8
AREA1
 62
     0
100
AcDbLine
 10
0.265
 20
0.838
 30
0.0
 11
-0.79269
 21
0.838
 31
0.0
1001
ACAD
1000
RTLwPs
1070
   158
  0
LINE
  5
60D7A
100
AcDbEntity
  8
AREA1
 62
     0
100
AcDbLine
 10
0.632
 20
-2.342
 30
0.0
 11
-0.79269
 21
-2.342
 31
0.0
1001
ACAD
1000
RTLwPs
1070
   158
  0
LINE
  5
60D7B
100
AcDbEntity
  8
AREA1
 62
     0
100
AcDbLine
 10
-0.61269
 20
0.658
 30
0.0
 11
-0.61269
 21
0.097634
 31
0.0
1001
ACAD
1000
RTLwPs
1070
   158
  0
LINE
  5
60D7C
100
AcDbEntity
  8
AREA1
 62
     0
100
AcDbLine
 10
-0.61269
 20
-2.162
 30
0.0
 11
-0.61269
 21
-1.739033
 31
0.0
1001
ACAD
1000
RTLwPs
1070
   158
  0
MTEXT
  5
60D7D
100
AcDbEntity
  8
AREA1
 62
     0
100
AcDbMText
 10
-0.61269
 20
-0.820699
 30
0.0
 40
0.14
 41
0.0
 71
     5
 72
     1
  1
\A1;3 3/16 [80.77]
 11
0.0
 21
1.0
 31
0.0
1001
ACAD
1000
MTEXTBEGIN
1070
    73
1070
     1
1070
    44
1040
1.0
1070
    74
1070
     0
1000
MTEXTEND
1000
MTEXTBEGIN
1070
    73
1070
     1
1070
    44
1040
1.0
1070
    74
1070
     0
1000
MTEXTEND
1000
MTEXTBEGIN
1070
    73
1070
     1
1070
    44
1040
1.0
1070
    74
1070
     0
1000
MTEXTEND
  0
SOLID
  5
60D7E
100
AcDbEntity
  8
AREA1
 62
     0
100
AcDbTrace
 10
-0.64269
 20
0.658
 30
0.0
 11
-0.58269
 21
0.658
 31
0.0
 12
-0.61269
 22
0.838
 32
0.0
 13
-0.61269
 23
0.838
 33
0.0
  0
SOLID
  5
60D7F
100
AcDbEntity
  8
AREA1
 62
     0
100
AcDbTrace
 10
-0.64269
 20
-2.162
 30
0.0
 11
-0.58269
 21
-2.162
 31
0.0
 12
-0.61269
 22
-2.342
 32
0.0
 13
-0.61269
 23
-2.342
 33
0.0
  0
POINT
  5
60D80
100
AcDbEntity
  8
DEFPOINTS
 62
     0
100
AcDbPoint
 10
0.3275
 20
0.838
 30
1.388
  0
POINT
  5
60D81
100
AcDbEntity
  8
DEFPOINTS
 62
     0
100
AcDbPoint
 10
0.6945
 20
-2.342
 30
1.388
  0
POINT
  5
60D82
100
AcDbEntity
  8
DEFPOINTS
 62
     0
100
AcDbPoint
 10
-0.61269
 20
-2.342
 30
0.0
  0
ENDBLK
  5
60D84
100
AcDbEntity
  8
0
100
AcDbBlockEnd
  0
BLOCK
  5
60D90
100
AcDbEntity
  8
0
100
AcDbBlockBegin
  2
*D1
 70
     1
 10
0.0
 20
0.0
 30
0.0
  3
*D1
  1

  0
LINE
  5
60D92
100
AcDbEntity
  8
AREA1
 62
     0
100
AcDbLine
 10
0.0
 20
0.6605
 30
0.0
 11
0.0
 21
1.457679
 31
0.0
1001
ACAD
1000
RTLwPs
1070
   158
  0
LINE
  5
60D93
100
AcDbEntity
  8
AREA1
 62
     0
100
AcDbLine
 10
1.76
 20
0.5885
 30
0.0
 11
1.76
 21
1.457679
 31
0.0
1001
ACAD
1000
RTLwPs
1070
   158
  0
LINE
  5
60D94
100
AcDbEntity
  8
AREA1
 62
     0
100
AcDbLine
 10
0.18
 20
1.277679
 30
0.0
 11
1.58
 21
1.277679
 31
0.0
1001
ACAD
1000
RTLwPs
1070
   158
  0
MTEXT
  5
60D95
100
AcDbEntity
  8
AREA1
 62
     0
100
AcDbMText
 10
0.876331
 20
1.666268
 30
0.0
 40
0.14
 41
0.0
 71
     5
 72
     1
  1
\A1;1 49/64 [44.70]
1001
ACAD
1000
MTEXTBEGIN
1070
    73
1070
     1
1070
    44
1040
1.0
1070
    74
1070
     0
1000
MTEXTEND
1000
MTEXTBEGIN
1070
    73
1070
     1
1070
    44
1040
1.0
1070
    74
1070
     0
1000
MTEXTEND
1000
MTEXTBEGIN
1070
    73
1070
     1
1070
    44
1040
1.0
1070
    74
1070
     0
1000
MTEXTEND
  0
SOLID
  5
60D96
100
AcDbEntity
  8
AREA1
 62
     0
100
AcDbTrace
 10
0.18
 20
1.307679
 30
0.0
 11
0.18
 21
1.247679
 31
0.0
 12
0.0
 22
1.277679
 32
0.0
 13
0.0
 23
1.277679
 33
0.0
  0
SOLID
  5
60D97
100
AcDbEntity
  8
AREA1
 62
     0
100
AcDbTrace
 10
1.58
 20
1.307679
 30
0.0
 11
1.58
 21
1.247679
 31
0.0
 12
1.76
 22
1.277679
 32
0.0
 13
1.76
 23
1.277679
 33
0.0
  0
POINT
  5
60D98
100
AcDbEntity
  8
DEFPOINTS
 62
     0
100
AcDbPoint
 10
0.0
 20
0.598
 30
0.0
  0
POINT
  5
60D99
100
AcDbEntity
  8
DEFPOINTS
 62
     0
100
AcDbPoint
 10
1.76
 20
0.526
 30
1.652
  0
POINT
  5
60D9A
100
AcDbEntity
  8
DEFPOINTS
 62
     0
100
AcDbPoint
 10
1.76
 20
1.277679
 30
0.0
  0
ENDBLK
  5
60D91
100
AcDbEntity
  8
0
100
AcDbBlockEnd
  0
ENDSEC
  0
SECTION
  2
ENTITIES
  0
ATTDEF
  5
60992
100
AcDbEntity
  8
ATTRIBUTES
100
AcDbText
 10
0.098498
 20
-0.178826
 30
0.0
 40
0.08052
  1
ALLEN-BRADLEY
100
AcDbAttributeDefinition
  3
MANUFACTURER NAME?
  2
AC_VND_LABEL
 70
     1
  0
ATTDEF
  5
60993
100
AcDbEntity
  8
ATTRIBUTES
100
AcDbText
 10
0.098498
 20
-0.346576
 30
0.0
 40
0.08052
  1
100-C30, C37*00
100
AcDbAttributeDefinition
  3
CATALOG NUMBER?
  2
AC_PART_NO
 70
     1
  0
ATTDEF
  5
60994
100
AcDbEntity
  8
ATTRIBUTES
100
AcDbText
 10
0.098498
 20
-0.514327
 30
0.0
 40
0.08052
  1
MCS IEC AC CONTACTOR; 30A-37A
100
AcDbAttributeDefinition
  3
PART DESCRIPTION?
  2
AC_DESCRIPTION
 70
     1
  0
ATTDEF
  5
60995
100
AcDbEntity
  8
ATTRIBUTES
100
AcDbText
 10
0.098498
 20
-0.682078
 30
0.0
 40
0.08052
  1

100
AcDbAttributeDefinition
  3
DEVICE ID?
  2
DEVICE_ID
 70
     1
  0
ATTDEF
  5
60996
100
AcDbEntity
  8
ATTRIBUTES
100
AcDbText
 10
0.098498
 20
-0.849829
 30
0.0
 40
0.08052
  1

100
AcDbAttributeDefinition
  3
CUSTOMER PART NUMBER?
  2
AC_CPART_NO
 70
     1
  0
ATTDEF
  5
60997
100
AcDbEntity
  8
ATTRIBUTES
100
AcDbText
 10
0.098498
 20
-1.01758
 30
0.0
 40
0.08052
  1

100
AcDbAttributeDefinition
  3
CUSTOMER NOTE?
  2
AC_NOTE
 70
     1
  0
ATTDEF
  5
60998
100
AcDbEntity
  8
ATTRIBUTES
100
AcDbText
 10
0.098498
 20
-1.18533
 30
0.0
 40
0.08052
  1

100
AcDbAttributeDefinition
  3
FASTENER DATA?
  2
FASTENER
 70
     1
  0
ATTDEF
  5
60999
100
AcDbEntity
  8
ATTRIBUTES
100
AcDbText
 10
0.098498
 20
-1.353081
 30
0.0
 40
0.08052
  1
INCH
100
AcDbAttributeDefinition
  3
UNIT OF SCALE?
  2
AC_SCALE_UNIT
 70
     1
  0
ATTDEF
  5
6099A
100
AcDbEntity
  8
ATTRIBUTES
100
AcDbText
 10
0.098498
 20
-1.520832
 30
0.0
 40
0.08052
  1
0
100
AcDbAttributeDefinition
  3
VIEW CODE?
  2
AC_VIEW_CODE
 70
     1
  0
POLYLINE
  5
6099B
100
AcDbEntity
  8
0
100
AcDbPolygonMesh
 66
     1
 10
0.0
 20
0.0
 30
0.0
 70
    16
 71
     6
 72
     3
  0
VERTEX
  5
6099C
100
AcDbEntity
  8
0
100
AcDbVertex
100
AcDbPolygonMeshVertex
 10
0.391
 20
-1.806
 30
1.318
 70
    64
  0
VERTEX
  5
6099D
100
AcDbEntity
  8
0
100
AcDbVertex
100
AcDbPolygonMeshVertex
 10
0.391
 20
-1.806
 30
0.187
 70
    64
  0
VERTEX
  5
6099E
100
AcDbEntity
  8
0
100
AcDbVertex
100
AcDbPolygonMeshVertex
 10
0.391
 20
-1.806
 30
0.187
 70
    64
  0
VERTEX
  5
6099F
100
AcDbEntity
  8
0
100
AcDbVertex
100
AcDbPolygonMeshVertex
 10
0.0
 20
-1.806
 30
1.318
 70
    64
  0
VERTEX
  5
609A0
100
AcDbEntity
  8
0
100
AcDbVertex
100
AcDbPolygonMeshVertex
 10
0.0
 20
-1.806
 30
0.187
 70
    64
  0
VERTEX
  5
609A1
100
AcDbEntity
  8
0
100
AcDbVertex
100
AcDbPolygonMeshVertex
 10
0.0
 20
-1.806
 30
0.187
 70
    64
  0
VERTEX
  5
609A2
100
AcDbEntity
  8
0
100
AcDbVertex
100
AcDbPolygonMeshVertex
 10
0.0
 20
0.401
 30
1.318
 70
    64
  0
VERTEX
  5
609A3
100
AcDbEntity
  8
0
100
AcDbVertex
100
AcDbPolygonMeshVertex
 10
0.0
 20
0.401
 30
0.187
 70
    64
  0
VERTEX
  5
609A4
100
AcDbEntity
  8
0
100
AcDbVertex
100
AcDbPolygonMeshVertex
 10
0.0
 20
-1.806
 30
0.187
 70
    64
  0
VERTEX
  5
609A5
100
AcDbEntity
  8
0
100
AcDbVertex
100
AcDbPolygonMeshVertex
 10
0.391
 20
0.401
 30
1.318
 70
    64
  0
VERTEX
  5
609A6
100
AcDbEntity
  8
0
100
AcDbVertex
100
AcDbPolygonMeshVertex
 10
0.391
 20
0.401
 30
0.187
 70
    64
  0
VERTEX
  5
609A7
100
AcDbEntity
  8
0
100
AcDbVertex
100
AcDbPolygonMeshVertex
 10
0.391
 20
-1.806
 30
0.187
 70
    64
  0
VERTEX
  5
609A8
100
AcDbEntity
  8
0
100
AcDbVertex
100
AcDbPolygonMeshVertex
 10
0.391
 20
0.401
 30
1.318
 70
    64
  0
VERTEX
  5
609A9
100
AcDbEntity
  8
0
100
AcDbVertex
100
AcDbPolygonMeshVertex
 10
0.391
 20
0.401
 30
1.318
 70
    64
  0
VERTEX
  5
609AA
100
AcDbEntity
  8
0
100
AcDbVertex
100
AcDbPolygonMeshVertex
 10
0.391
 20
-1.806
 30
1.318
 70
    64
  0
VERTEX
  5
609AB
100
AcDbEntity
  8
0
100
AcDbVertex
100
AcDbPolygonMeshVertex
 10
0.0
 20
0.401
 30
1.318
 70
    64
  0
VERTEX
  5
609AC
100
AcDbEntity
  8
0
100
AcDbVertex
100
AcDbPolygonMeshVertex
 10
0.0
 20
0.401
 30
1.318
 70
    64
  0
VERTEX
  5
609AD
100
AcDbEntity
  8
0
100
AcDbVertex
100
AcDbPolygonMeshVertex
 10
0.0
 20
-1.806
 30
1.318
 70
    64
  0
SEQEND
  5
609AE
100
AcDbEntity
  8
0
  0
POLYLINE
  5
609AF
100
AcDbEntity
  8
0
100
AcDbPolygonMesh
 66
     1
 10
0.0
 20
0.0
 30
0.0
 70
    16
 71
     6
 72
     3
  0
VERTEX
  5
609B0
100
AcDbEntity
  8
0
100
AcDbVertex
100
AcDbPolygonMeshVertex
 10
1.76
 20
-2.089
 30
1.318
 70
    64
  0
VERTEX
  5
609B1
100
AcDbEntity
  8
0
100
AcDbVertex
100
AcDbPolygonMeshVertex
 10
1.76
 20
-2.089
 30
0.187
 70
    64
  0
VERTEX
  5
609B2
100
AcDbEntity
  8
0
100
AcDbVertex
100
AcDbPolygonMeshVertex
 10
1.76
 20
-2.089
 30
0.187
 70
    64
  0
VERTEX
  5
609B3
100
AcDbEntity
  8
0
100
AcDbVertex
100
AcDbPolygonMeshVertex
 10
1.369
 20
-2.089
 30
1.318
 70
    64
  0
VERTEX
  5
609B4
100
AcDbEntity
  8
0
100
AcDbVertex
100
AcDbPolygonMeshVertex
 10
1.369
 20
-2.089
 30
0.187
 70
    64
  0
VERTEX
  5
609B5
100
AcDbEntity
  8
0
100
AcDbVertex
100
AcDbPolygonMeshVertex
 10
1.369
 20
-2.089
 30
0.187
 70
    64
  0
VERTEX
  5
609B6
100
AcDbEntity
  8
0
100
AcDbVertex
100
AcDbPolygonMeshVertex
 10
1.369
 20
0.118
 30
1.318
 70
    64
  0
VERTEX
  5
609B7
100
AcDbEntity
  8
0
100
AcDbVertex
100
AcDbPolygonMeshVertex
 10
1.369
 20
0.118
 30
0.187
 70
    64
  0
VERTEX
  5
609B8
100
AcDbEntity
  8
0
100
AcDbVertex
100
AcDbPolygonMeshVertex
 10
1.369
 20
-2.089
 30
0.187
 70
    64
  0
VERTEX
  5
609B9
100
AcDbEntity
  8
0
100
AcDbVertex
100
AcDbPolygonMeshVertex
 10
1.76
 20
0.118
 30
1.318
 70
    64
  0
VERTEX
  5
609BA
100
AcDbEntity
  8
0
100
AcDbVertex
100
AcDbPolygonMeshVertex
 10
1.76
 20
0.118
 30
0.187
 70
    64
  0
VERTEX
  5
609BB
100
AcDbEntity
  8
0
100
AcDbVertex
100
AcDbPolygonMeshVertex
 10
1.76
 20
-2.089
 30
0.187
 70
    64
  0
VERTEX
  5
609BC
100
AcDbEntity
  8
0
100
AcDbVertex
100
AcDbPolygonMeshVertex
 10
1.76
 20
0.118
 30
1.318
 70
    64
  0
VERTEX
  5
609BD
100
AcDbEntity
  8
0
100
AcDbVertex
100
AcDbPolygonMeshVertex
 10
1.76
 20
0.118
 30
1.318
 70
    64
  0
VERTEX
  5
609BE
100
AcDbEntity
  8
0
100
AcDbVertex
100
AcDbPolygonMeshVertex
 10
1.76
 20
-2.089
 30
1.318
 70
    64
  0
VERTEX
  5
609BF
100
AcDbEntity
  8
0
100
AcDbVertex
100
AcDbPolygonMeshVertex
 10
1.369
 20
0.118
 30
1.318
 70
    64
  0
VERTEX
  5
609C0
100
AcDbEntity
  8
0
100
AcDbVertex
100
AcDbPolygonMeshVertex
 10
1.369
 20
0.118
 30
1.318
 70
    64
  0
VERTEX
  5
609C1
100
AcDbEntity
  8
0
100
AcDbVertex
100
AcDbPolygonMeshVertex
 10
1.369
 20
-2.089
 30
1.318
 70
    64
  0
SEQEND
  5
609C2
100
AcDbEntity
  8
0
  0
POLYLINE
  5
609C3
100
AcDbEntity
  8
0
100
AcDbPolygonMesh
 66
     1
 10
0.0
 20
0.0
 30
0.0
 70
    16
 71
     6
 72
     3
  0
VERTEX
  5
609C4
100
AcDbEntity
  8
0
100
AcDbVertex
100
AcDbPolygonMeshVertex
 10
1.369
 20
-2.089
 30
1.318
 70
    64
  0
VERTEX
  5
609C5
100
AcDbEntity
  8
0
100
AcDbVertex
100
AcDbPolygonMeshVertex
 10
1.369
 20
-2.089
 30
0.187
 70
    64
  0
VERTEX
  5
609C6
100
AcDbEntity
  8
0
100
AcDbVertex
100
AcDbPolygonMeshVertex
 10
1.369
 20
-2.089
 30
0.187
 70
    64
  0
VERTEX
  5
609C7
100
AcDbEntity
  8
0
100
AcDbVertex
100
AcDbPolygonMeshVertex
 10
0.391
 20
-2.089
 30
1.318
 70
    64
  0
VERTEX
  5
609C8
100
AcDbEntity
  8
0
100
AcDbVertex
100
AcDbPolygonMeshVertex
 10
0.391
 20
-2.089
 30
0.187
 70
    64
  0
VERTEX
  5
609C9
100
AcDbEntity
  8
0
100
AcDbVertex
100
AcDbPolygonMeshVertex
 10
0.391
 20
-2.089
 30
0.187
 70
    64
  0
VERTEX
  5
609CA
100
AcDbEntity
  8
0
100
AcDbVertex
100
AcDbPolygonMeshVertex
 10
0.391
 20
0.401
 30
1.318
 70
    64
  0
VERTEX
  5
609CB
100
AcDbEntity
  8
0
100
AcDbVertex
100
AcDbPolygonMeshVertex
 10
0.391
 20
0.401
 30
0.187
 70
    64
  0
VERTEX
  5
609CC
100
AcDbEntity
  8
0
100
AcDbVertex
100
AcDbPolygonMeshVertex
 10
0.391
 20
-2.089
 30
0.187
 70
    64
  0
VERTEX
  5
609CD
100
AcDbEntity
  8
0
100
AcDbVertex
100
AcDbPolygonMeshVertex
 10
1.369
 20
0.401
 30
1.318
 70
    64
  0
VERTEX
  5
609CE
100
AcDbEntity
  8
0
100
AcDbVertex
100
AcDbPolygonMeshVertex
 10
1.369
 20
0.401
 30
0.187
 70
    64
  0
VERTEX
  5
609CF
100
AcDbEntity
  8
0
100
AcDbVertex
100
AcDbPolygonMeshVertex
 10
1.369
 20
-2.089
 30
0.187
 70
    64
  0
VERTEX
  5
609D0
100
AcDbEntity
  8
0
100
AcDbVertex
100
AcDbPolygonMeshVertex
 10
1.369
 20
0.401
 30
1.318
 70
    64
  0
VERTEX
  5
609D1
100
AcDbEntity
  8
0
100
AcDbVertex
100
AcDbPolygonMeshVertex
 10
1.369
 20
0.401
 30
1.318
 70
    64
  0
VERTEX
  5
609D2
100
AcDbEntity
  8
0
100
AcDbVertex
100
AcDbPolygonMeshVertex
 10
1.369
 20
-2.089
 30
1.318
 70
    64
  0
VERTEX
  5
609D3
100
AcDbEntity
  8
0
100
AcDbVertex
100
AcDbPolygonMeshVertex
 10
0.391
 20
0.401
 30
1.318
 70
    64
  0
VERTEX
  5
609D4
100
AcDbEntity
  8
0
100
AcDbVertex
100
AcDbPolygonMeshVertex
 10
0.391
 20
0.401
 30
1.318
 70
    64
  0
VERTEX
  5
609D5
100
AcDbEntity
  8
0
100
AcDbVertex
100
AcDbPolygonMeshVertex
 10
0.391
 20
-2.089
 30
1.318
 70
    64
  0
SEQEND
  5
609D6
100
AcDbEntity
  8
0
  0
POLYLINE
  5
609D7
100
AcDbEntity
  8
0
100
AcDbPolygonMesh
 66
     1
 10
0.0
 20
0.0
 30
0.0
 70
    16
 71
     6
 72
     3
  0
VERTEX
  5
609D8
100
AcDbEntity
  8
0
100
AcDbVertex
100
AcDbPolygonMeshVertex
 10
1.0655
 20
-2.342
 30
2.062
 70
    64
  0
VERTEX
  5
609D9
100
AcDbEntity
  8
0
100
AcDbVertex
100
AcDbPolygonMeshVertex
 10
1.0655
 20
-2.342
 30
1.388
 70
    64
  0
VERTEX
  5
609DA
100
AcDbEntity
  8
0
100
AcDbVertex
100
AcDbPolygonMeshVertex
 10
1.0655
 20
-2.342
 30
1.388
 70
    64
  0
VERTEX
  5
609DB
100
AcDbEntity
  8
0
100
AcDbVertex
100
AcDbPolygonMeshVertex
 10
0.6945
 20
-2.342
 30
2.062
 70
    64
  0
VERTEX
  5
609DC
100
AcDbEntity
  8
0
100
AcDbVertex
100
AcDbPolygonMeshVertex
 10
0.6945
 20
-2.342
 30
1.388
 70
    64
  0
VERTEX
  5
609DD
100
AcDbEntity
  8
0
100
AcDbVertex
100
AcDbPolygonMeshVertex
 10
0.6945
 20
-2.342
 30
1.388
 70
    64
  0
VERTEX
  5
609DE
100
AcDbEntity
  8
0
100
AcDbVertex
100
AcDbPolygonMeshVertex
 10
0.6945
 20
-2.089
 30
2.062
 70
    64
  0
VERTEX
  5
609DF
100
AcDbEntity
  8
0
100
AcDbVertex
100
AcDbPolygonMeshVertex
 10
0.6945
 20
-2.089
 30
1.388
 70
    64
  0
VERTEX
  5
609E0
100
AcDbEntity
  8
0
100
AcDbVertex
100
AcDbPolygonMeshVertex
 10
0.6945
 20
-2.342
 30
1.388
 70
    64
  0
VERTEX
  5
609E1
100
AcDbEntity
  8
0
100
AcDbVertex
100
AcDbPolygonMeshVertex
 10
1.0655
 20
-2.089
 30
2.062
 70
    64
  0
VERTEX
  5
609E2
100
AcDbEntity
  8
0
100
AcDbVertex
100
AcDbPolygonMeshVertex
 10
1.0655
 20
-2.089
 30
1.388
 70
    64
  0
VERTEX
  5
609E3
100
AcDbEntity
  8
0
100
AcDbVertex
100
AcDbPolygonMeshVertex
 10
1.0655
 20
-2.342
 30
1.388
 70
    64
  0
VERTEX
  5
609E4
100
AcDbEntity
  8
0
100
AcDbVertex
100
AcDbPolygonMeshVertex
 10
1.0655
 20
-2.089
 30
2.062
 70
    64
  0
VERTEX
  5
609E5
100
AcDbEntity
  8
0
100
AcDbVertex
100
AcDbPolygonMeshVertex
 10
1.0655
 20
-2.089
 30
2.062
 70
    64
  0
VERTEX
  5
609E6
100
AcDbEntity
  8
0
100
AcDbVertex
100
AcDbPolygonMeshVertex
 10
1.0655
 20
-2.342
 30
2.062
 70
    64
  0
VERTEX
  5
609E7
100
AcDbEntity
  8
0
100
AcDbVertex
100
AcDbPolygonMeshVertex
 10
0.6945
 20
-2.089
 30
2.062
 70
    64
  0
VERTEX
  5
609E8
100
AcDbEntity
  8
0
100
AcDbVertex
100
AcDbPolygonMeshVertex
 10
0.6945
 20
-2.089
 30
2.062
 70
    64
  0
VERTEX
  5
609E9
100
AcDbEntity
  8
0
100
AcDbVertex
100
AcDbPolygonMeshVertex
 10
0.6945
 20
-2.342
 30
2.062
 70
    64
  0
SEQEND
  5
609EA
100
AcDbEntity
  8
0
  0
LINE
  5
609EB
100
AcDbEntity
  8
0
100
AcDbLine
 10
1.580833
 20
-2.089
 30
2.304
 11
1.580833
 21
-2.089
 31
3.023
  0
LINE
  5
609EC
100
AcDbEntity
  8
0
100
AcDbLine
 10
1.315833
 20
-2.089
 30
2.304
 11
1.315833
 21
-2.089
 31
3.023
  0
LINE
  5
609ED
100
AcDbEntity
  8
0
100
AcDbLine
 10
1.580833
 20
-2.089
 30
3.023
 11
1.315833
 21
-2.089
 31
3.023
  0
LINE
  5
609EE
100
AcDbEntity
  8
0
100
AcDbLine
 10
1.315833
 20
-2.089
 30
2.304
 11
1.580833
 21
-2.089
 31
2.304
  0
POLYLINE
  5
609EF
100
AcDbEntity
  8
0
100
AcDbPolygonMesh
 66
     1
 10
0.0
 20
0.0
 30
0.0
 70
    16
 71
     6
 72
     3
  0
VERTEX
  5
609F0
100
AcDbEntity
  8
0
100
AcDbVertex
100
AcDbPolygonMeshVertex
 10
0.623333
 20
-2.214
 30
3.023
 70
    64
  0
VERTEX
  5
609F1
100
AcDbEntity
  8
0
100
AcDbVertex
100
AcDbPolygonMeshVertex
 10
0.623333
 20
-2.214
 30
2.304
 70
    64
  0
VERTEX
  5
609F2
100
AcDbEntity
  8
0
100
AcDbVertex
100
AcDbPolygonMeshVertex
 10
0.623333
 20
-2.214
 30
2.304
 70
    64
  0
VERTEX
  5
609F3
100
AcDbEntity
  8
0
100
AcDbVertex
100
AcDbPolygonMeshVertex
 10
0.568333
 20
-2.214
 30
3.023
 70
    64
  0
VERTEX
  5
609F4
100
AcDbEntity
  8
0
100
AcDbVertex
100
AcDbPolygonMeshVertex
 10
0.568333
 20
-2.214
 30
2.304
 70
    64
  0
VERTEX
  5
609F5
100
AcDbEntity
  8
0
100
AcDbVertex
100
AcDbPolygonMeshVertex
 10
0.568333
 20
-2.214
 30
2.304
 70
    64
  0
VERTEX
  5
609F6
100
AcDbEntity
  8
0
100
AcDbVertex
100
AcDbPolygonMeshVertex
 10
0.568333
 20
-2.089
 30
3.023
 70
    64
  0
VERTEX
  5
609F7
100
AcDbEntity
  8
0
100
AcDbVertex
100
AcDbPolygonMeshVertex
 10
0.568333
 20
-2.089
 30
2.304
 70
    64
  0
VERTEX
  5
609F8
100
AcDbEntity
  8
0
100
AcDbVertex
100
AcDbPolygonMeshVertex
 10
0.568333
 20
-2.214
 30
2.304
 70
    64
  0
VERTEX
  5
609F9
100
AcDbEntity
  8
0
100
AcDbVertex
100
AcDbPolygonMeshVertex
 10
0.623333
 20
-2.089
 30
3.023
 70
    64
  0
VERTEX
  5
609FA
100
AcDbEntity
  8
0
100
AcDbVertex
100
AcDbPolygonMeshVertex
 10
0.623333
 20
-2.089
 30
2.304
 70
    64
  0
VERTEX
  5
609FB
100
AcDbEntity
  8
0
100
AcDbVertex
100
AcDbPolygonMeshVertex
 10
0.623333
 20
-2.214
 30
2.304
 70
    64
  0
VERTEX
  5
609FC
100
AcDbEntity
  8
0
100
AcDbVertex
100
AcDbPolygonMeshVertex
 10
0.623333
 20
-2.089
 30
3.023
 70
    64
  0
VERTEX
  5
609FD
100
AcDbEntity
  8
0
100
AcDbVertex
100
AcDbPolygonMeshVertex
 10
0.623333
 20
-2.089
 30
3.023
 70
    64
  0
VERTEX
  5
609FE
100
AcDbEntity
  8
0
100
AcDbVertex
100
AcDbPolygonMeshVertex
 10
0.623333
 20
-2.214
 30
3.023
 70
    64
  0
VERTEX
  5
609FF
100
AcDbEntity
  8
0
100
AcDbVertex
100
AcDbPolygonMeshVertex
 10
0.568333
 20
-2.089
 30
3.023
 70
    64
  0
VERTEX
  5
60A00
100
AcDbEntity
  8
0
100
AcDbVertex
100
AcDbPolygonMeshVertex
 10
0.568333
 20
-2.089
 30
3.023
 70
    64
  0
VERTEX
  5
60A01
100
AcDbEntity
  8
0
100
AcDbVertex
100
AcDbPolygonMeshVertex
 10
0.568333
 20
-2.214
 30
3.023
 70
    64
  0
SEQEND
  5
60A02
100
AcDbEntity
  8
0
  0
POLYLINE
  5
60A03
100
AcDbEntity
  8
0
100
AcDbPolygonMesh
 66
     1
 10
0.0
 20
0.0
 30
0.0
 70
    16
 71
     6
 72
     3
  0
VERTEX
  5
60A04
100
AcDbEntity
  8
0
100
AcDbVertex
100
AcDbPolygonMeshVertex
 10
1.191667
 20
-2.214
 30
3.023
 70
    64
  0
VERTEX
  5
60A05
100
AcDbEntity
  8
0
100
AcDbVertex
100
AcDbPolygonMeshVertex
 10
1.191667
 20
-2.214
 30
2.304
 70
    64
  0
VERTEX
  5
60A06
100
AcDbEntity
  8
0
100
AcDbVertex
100
AcDbPolygonMeshVertex
 10
1.191667
 20
-2.214
 30
2.304
 70
    64
  0
VERTEX
  5
60A07
100
AcDbEntity
  8
0
100
AcDbVertex
100
AcDbPolygonMeshVertex
 10
1.136667
 20
-2.214
 30
3.023
 70
    64
  0
VERTEX
  5
60A08
100
AcDbEntity
  8
0
100
AcDbVertex
100
AcDbPolygonMeshVertex
 10
1.136667
 20
-2.214
 30
2.304
 70
    64
  0
VERTEX
  5
60A09
100
AcDbEntity
  8
0
100
AcDbVertex
100
AcDbPolygonMeshVertex
 10
1.136667
 20
-2.214
 30
2.304
 70
    64
  0
VERTEX
  5
60A0A
100
AcDbEntity
  8
0
100
AcDbVertex
100
AcDbPolygonMeshVertex
 10
1.136667
 20
-2.089
 30
3.023
 70
    64
  0
VERTEX
  5
60A0B
100
AcDbEntity
  8
0
100
AcDbVertex
100
AcDbPolygonMeshVertex
 10
1.136667
 20
-2.089
 30
2.304
 70
    64
  0
VERTEX
  5
60A0C
100
AcDbEntity
  8
0
100
AcDbVertex
100
AcDbPolygonMeshVertex
 10
1.136667
 20
-2.214
 30
2.304
 70
    64
  0
VERTEX
  5
60A0D
100
AcDbEntity
  8
0
100
AcDbVertex
100
AcDbPolygonMeshVertex
 10
1.191667
 20
-2.089
 30
3.023
 70
    64
  0
VERTEX
  5
60A0E
100
AcDbEntity
  8
0
100
AcDbVertex
100
AcDbPolygonMeshVertex
 10
1.191667
 20
-2.089
 30
2.304
 70
    64
  0
VERTEX
  5
60A0F
100
AcDbEntity
  8
0
100
AcDbVertex
100
AcDbPolygonMeshVertex
 10
1.191667
 20
-2.214
 30
2.304
 70
    64
  0
VERTEX
  5
60A10
100
AcDbEntity
  8
0
100
AcDbVertex
100
AcDbPolygonMeshVertex
 10
1.191667
 20
-2.089
 30
3.023
 70
    64
  0
VERTEX
  5
60A11
100
AcDbEntity
  8
0
100
AcDbVertex
100
AcDbPolygonMeshVertex
 10
1.191667
 20
-2.089
 30
3.023
 70
    64
  0
VERTEX
  5
60A12
100
AcDbEntity
  8
0
100
AcDbVertex
100
AcDbPolygonMeshVertex
 10
1.191667
 20
-2.214
 30
3.023
 70
    64
  0
VERTEX
  5
60A13
100
AcDbEntity
  8
0
100
AcDbVertex
100
AcDbPolygonMeshVertex
 10
1.136667
 20
-2.089
 30
3.023
 70
    64
  0
VERTEX
  5
60A14
100
AcDbEntity
  8
0
100
AcDbVertex
100
AcDbPolygonMeshVertex
 10
1.136667
 20
-2.089
 30
3.023
 70
    64
  0
VERTEX
  5
60A15
100
AcDbEntity
  8
0
100
AcDbVertex
100
AcDbPolygonMeshVertex
 10
1.136667
 20
-2.214
 30
3.023
 70
    64
  0
SEQEND
  5
60A16
100
AcDbEntity
  8
0
  0
LINE
  5
60A17
100
AcDbEntity
  8
0
100
AcDbLine
 10
1.580833
 20
-2.089
 30
2.6635
 11
1.315833
 21
-2.089
 31
2.6635
  0
POLYLINE
  5
60A18
100
AcDbEntity
  8
0
100
AcDbPolygonMesh
 66
     1
 10
0.0
 20
0.0
 30
0.0
 70
    16
 71
     6
 72
     3
  0
VERTEX
  5
60A19
100
AcDbEntity
  8
0
100
AcDbVertex
100
AcDbPolygonMeshVertex
 10
1.76
 20
-2.214
 30
3.023
 70
    64
  0
VERTEX
  5
60A1A
100
AcDbEntity
  8
0
100
AcDbVertex
100
AcDbPolygonMeshVertex
 10
1.76
 20
-2.214
 30
1.652
 70
    64
  0
VERTEX
  5
60A1B
100
AcDbEntity
  8
0
100
AcDbVertex
100
AcDbPolygonMeshVertex
 10
1.76
 20
-2.214
 30
1.652
 70
    64
  0
VERTEX
  5
60A1C
100
AcDbEntity
  8
0
100
AcDbVertex
100
AcDbPolygonMeshVertex
 10
1.705
 20
-2.214
 30
3.023
 70
    64
  0
VERTEX
  5
60A1D
100
AcDbEntity
  8
0
100
AcDbVertex
100
AcDbPolygonMeshVertex
 10
1.705
 20
-2.214
 30
1.652
 70
    64
  0
VERTEX
  5
60A1E
100
AcDbEntity
  8
0
100
AcDbVertex
100
AcDbPolygonMeshVertex
 10
1.705
 20
-2.214
 30
1.652
 70
    64
  0
VERTEX
  5
60A1F
100
AcDbEntity
  8
0
100
AcDbVertex
100
AcDbPolygonMeshVertex
 10
1.705
 20
-2.089
 30
3.023
 70
    64
  0
VERTEX
  5
60A20
100
AcDbEntity
  8
0
100
AcDbVertex
100
AcDbPolygonMeshVertex
 10
1.705
 20
-2.089
 30
1.652
 70
    64
  0
VERTEX
  5
60A21
100
AcDbEntity
  8
0
100
AcDbVertex
100
AcDbPolygonMeshVertex
 10
1.705
 20
-2.214
 30
1.652
 70
    64
  0
VERTEX
  5
60A22
100
AcDbEntity
  8
0
100
AcDbVertex
100
AcDbPolygonMeshVertex
 10
1.76
 20
-2.089
 30
3.023
 70
    64
  0
VERTEX
  5
60A23
100
AcDbEntity
  8
0
100
AcDbVertex
100
AcDbPolygonMeshVertex
 10
1.76
 20
-2.089
 30
1.652
 70
    64
  0
VERTEX
  5
60A24
100
AcDbEntity
  8
0
100
AcDbVertex
100
AcDbPolygonMeshVertex
 10
1.76
 20
-2.214
 30
1.652
 70
    64
  0
VERTEX
  5
60A25
100
AcDbEntity
  8
0
100
AcDbVertex
100
AcDbPolygonMeshVertex
 10
1.76
 20
-2.089
 30
3.023
 70
    64
  0
VERTEX
  5
60A26
100
AcDbEntity
  8
0
100
AcDbVertex
100
AcDbPolygonMeshVertex
 10
1.76
 20
-2.089
 30
3.023
 70
    64
  0
VERTEX
  5
60A27
100
AcDbEntity
  8
0
100
AcDbVertex
100
AcDbPolygonMeshVertex
 10
1.76
 20
-2.214
 30
3.023
 70
    64
  0
VERTEX
  5
60A28
100
AcDbEntity
  8
0
100
AcDbVertex
100
AcDbPolygonMeshVertex
 10
1.705
 20
-2.089
 30
3.023
 70
    64
  0
VERTEX
  5
60A29
100
AcDbEntity
  8
0
100
AcDbVertex
100
AcDbPolygonMeshVertex
 10
1.705
 20
-2.089
 30
3.023
 70
    64
  0
VERTEX
  5
60A2A
100
AcDbEntity
  8
0
100
AcDbVertex
100
AcDbPolygonMeshVertex
 10
1.705
 20
-2.214
 30
3.023
 70
    64
  0
SEQEND
  5
60A2B
100
AcDbEntity
  8
0
  0
POLYLINE
  5
60A2C
100
AcDbEntity
  8
0
100
AcDbPolygonMesh
 66
     1
 10
0.0
 20
0.0
 30
0.0
 70
    16
 71
     6
 72
     3
  0
VERTEX
  5
60A2D
100
AcDbEntity
  8
0
100
AcDbVertex
100
AcDbPolygonMeshVertex
 10
0.0
 20
-2.214
 30
3.023
 70
    64
  0
VERTEX
  5
60A2E
100
AcDbEntity
  8
0
100
AcDbVertex
100
AcDbPolygonMeshVertex
 10
0.0
 20
-2.214
 30
1.652
 70
    64
  0
VERTEX
  5
60A2F
100
AcDbEntity
  8
0
100
AcDbVertex
100
AcDbPolygonMeshVertex
 10
0.0
 20
-2.214
 30
1.652
 70
    64
  0
VERTEX
  5
60A30
100
AcDbEntity
  8
0
100
AcDbVertex
100
AcDbPolygonMeshVertex
 10
0.055
 20
-2.214
 30
3.023
 70
    64
  0
VERTEX
  5
60A31
100
AcDbEntity
  8
0
100
AcDbVertex
100
AcDbPolygonMeshVertex
 10
0.055
 20
-2.214
 30
1.652
 70
    64
  0
VERTEX
  5
60A32
100
AcDbEntity
  8
0
100
AcDbVertex
100
AcDbPolygonMeshVertex
 10
0.055
 20
-2.214
 30
1.652
 70
    64
  0
VERTEX
  5
60A33
100
AcDbEntity
  8
0
100
AcDbVertex
100
AcDbPolygonMeshVertex
 10
0.055
 20
-2.089
 30
3.023
 70
    64
  0
VERTEX
  5
60A34
100
AcDbEntity
  8
0
100
AcDbVertex
100
AcDbPolygonMeshVertex
 10
0.055
 20
-2.089
 30
1.652
 70
    64
  0
VERTEX
  5
60A35
100
AcDbEntity
  8
0
100
AcDbVertex
100
AcDbPolygonMeshVertex
 10
0.055
 20
-2.214
 30
1.652
 70
    64
  0
VERTEX
  5
60A36
100
AcDbEntity
  8
0
100
AcDbVertex
100
AcDbPolygonMeshVertex
 10
0.0
 20
-2.089
 30
3.023
 70
    64
  0
VERTEX
  5
60A37
100
AcDbEntity
  8
0
100
AcDbVertex
100
AcDbPolygonMeshVertex
 10
0.0
 20
-2.089
 30
1.652
 70
    64
  0
VERTEX
  5
60A38
100
AcDbEntity
  8
0
100
AcDbVertex
100
AcDbPolygonMeshVertex
 10
0.0
 20
-2.214
 30
1.652
 70
    64
  0
VERTEX
  5
60A39
100
AcDbEntity
  8
0
100
AcDbVertex
100
AcDbPolygonMeshVertex
 10
0.0
 20
-2.089
 30
3.023
 70
    64
  0
VERTEX
  5
60A3A
100
AcDbEntity
  8
0
100
AcDbVertex
100
AcDbPolygonMeshVertex
 10
0.0
 20
-2.089
 30
3.023
 70
    64
  0
VERTEX
  5
60A3B
100
AcDbEntity
  8
0
100
AcDbVertex
100
AcDbPolygonMeshVertex
 10
0.0
 20
-2.214
 30
3.023
 70
    64
  0
VERTEX
  5
60A3C
100
AcDbEntity
  8
0
100
AcDbVertex
100
AcDbPolygonMeshVertex
 10
0.055
 20
-2.089
 30
3.023
 70
    64
  0
VERTEX
  5
60A3D
100
AcDbEntity
  8
0
100
AcDbVertex
100
AcDbPolygonMeshVertex
 10
0.055
 20
-2.089
 30
3.023
 70
    64
  0
VERTEX
  5
60A3E
100
AcDbEntity
  8
0
100
AcDbVertex
100
AcDbPolygonMeshVertex
 10
0.055
 20
-2.214
 30
3.023
 70
    64
  0
SEQEND
  5
60A3F
100
AcDbEntity
  8
0
  0
LINE
  5
60A40
100
AcDbEntity
  8
0
100
AcDbLine
 10
0.7475
 20
-2.089
 30
2.304
 11
0.7475
 21
-2.089
 31
3.023
  0
LINE
  5
60A41
100
AcDbEntity
  8
0
100
AcDbLine
 10
1.0125
 20
-2.089
 30
2.304
 11
1.0125
 21
-2.089
 31
3.023
  0
LINE
  5
60A42
100
AcDbEntity
  8
0
100
AcDbLine
 10
1.0125
 20
-2.089
 30
2.6635
 11
0.7475
 21
-2.089
 31
2.6635
  0
LINE
  5
60A43
100
AcDbEntity
  8
0
100
AcDbLine
 10
1.0125
 20
-2.089
 30
3.023
 11
0.7475
 21
-2.089
 31
3.023
  0
LINE
  5
60A44
100
AcDbEntity
  8
0
100
AcDbLine
 10
0.7475
 20
-2.089
 30
2.304
 11
1.0125
 21
-2.089
 31
2.304
  0
LINE
  5
60A45
100
AcDbEntity
  8
0
100
AcDbLine
 10
0.179167
 20
-2.119
 30
2.304
 11
0.179167
 21
-2.119
 31
3.023
  0
LINE
  5
60A46
100
AcDbEntity
  8
0
100
AcDbLine
 10
0.444167
 20
-2.089
 30
2.304
 11
0.444167
 21
-2.089
 31
3.023
  0
LINE
  5
60A47
100
AcDbEntity
  8
0
100
AcDbLine
 10
0.179167
 20
-2.089
 30
2.304
 11
0.444167
 21
-2.089
 31
2.304
  0
LINE
  5
60A48
100
AcDbEntity
  8
0
100
AcDbLine
 10
0.444167
 20
-2.089
 30
2.6635
 11
0.179167
 21
-2.089
 31
2.6635
  0
LINE
  5
60A49
100
AcDbEntity
  8
0
100
AcDbLine
 10
0.444167
 20
-2.089
 30
3.023
 11
0.179167
 21
-2.089
 31
3.023
  0
POLYLINE
  5
60A4A
100
AcDbEntity
  8
0
100
AcDbPolygonMesh
 66
     1
 10
0.0
 20
0.0
 30
0.0
 70
    16
 71
     6
 72
     3
  0
VERTEX
  5
60A4B
100
AcDbEntity
  8
0
100
AcDbVertex
100
AcDbPolygonMeshVertex
 10
1.76
 20
0.526
 30
3.023
 70
    64
  0
VERTEX
  5
60A4C
100
AcDbEntity
  8
0
100
AcDbVertex
100
AcDbPolygonMeshVertex
 10
1.76
 20
0.526
 30
1.652
 70
    64
  0
VERTEX
  5
60A4D
100
AcDbEntity
  8
0
100
AcDbVertex
100
AcDbPolygonMeshVertex
 10
1.76
 20
0.526
 30
1.652
 70
    64
  0
VERTEX
  5
60A4E
100
AcDbEntity
  8
0
100
AcDbVertex
100
AcDbPolygonMeshVertex
 10
1.705
 20
0.526
 30
3.023
 70
    64
  0
VERTEX
  5
60A4F
100
AcDbEntity
  8
0
100
AcDbVertex
100
AcDbPolygonMeshVertex
 10
1.705
 20
0.526
 30
1.652
 70
    64
  0
VERTEX
  5
60A50
100
AcDbEntity
  8
0
100
AcDbVertex
100
AcDbPolygonMeshVertex
 10
1.705
 20
0.526
 30
1.652
 70
    64
  0
VERTEX
  5
60A51
100
AcDbEntity
  8
0
100
AcDbVertex
100
AcDbPolygonMeshVertex
 10
1.705
 20
0.401
 30
3.023
 70
    64
  0
VERTEX
  5
60A52
100
AcDbEntity
  8
0
100
AcDbVertex
100
AcDbPolygonMeshVertex
 10
1.705
 20
0.401
 30
1.652
 70
    64
  0
VERTEX
  5
60A53
100
AcDbEntity
  8
0
100
AcDbVertex
100
AcDbPolygonMeshVertex
 10
1.705
 20
0.526
 30
1.652
 70
    64
  0
VERTEX
  5
60A54
100
AcDbEntity
  8
0
100
AcDbVertex
100
AcDbPolygonMeshVertex
 10
1.76
 20
0.401
 30
3.023
 70
    64
  0
VERTEX
  5
60A55
100
AcDbEntity
  8
0
100
AcDbVertex
100
AcDbPolygonMeshVertex
 10
1.76
 20
0.401
 30
1.652
 70
    64
  0
VERTEX
  5
60A56
100
AcDbEntity
  8
0
100
AcDbVertex
100
AcDbPolygonMeshVertex
 10
1.76
 20
0.526
 30
1.652
 70
    64
  0
VERTEX
  5
60A57
100
AcDbEntity
  8
0
100
AcDbVertex
100
AcDbPolygonMeshVertex
 10
1.76
 20
0.401
 30
3.023
 70
    64
  0
VERTEX
  5
60A58
100
AcDbEntity
  8
0
100
AcDbVertex
100
AcDbPolygonMeshVertex
 10
1.76
 20
0.401
 30
3.023
 70
    64
  0
VERTEX
  5
60A59
100
AcDbEntity
  8
0
100
AcDbVertex
100
AcDbPolygonMeshVertex
 10
1.76
 20
0.526
 30
3.023
 70
    64
  0
VERTEX
  5
60A5A
100
AcDbEntity
  8
0
100
AcDbVertex
100
AcDbPolygonMeshVertex
 10
1.705
 20
0.401
 30
3.023
 70
    64
  0
VERTEX
  5
60A5B
100
AcDbEntity
  8
0
100
AcDbVertex
100
AcDbPolygonMeshVertex
 10
1.705
 20
0.401
 30
3.023
 70
    64
  0
VERTEX
  5
60A5C
100
AcDbEntity
  8
0
100
AcDbVertex
100
AcDbPolygonMeshVertex
 10
1.705
 20
0.526
 30
3.023
 70
    64
  0
SEQEND
  5
60A5D
100
AcDbEntity
  8
0
  0
POLYLINE
  5
60A5E
100
AcDbEntity
  8
0
100
AcDbPolygonMesh
 66
     1
 10
0.0
 20
0.0
 30
0.0
 70
    16
 71
     6
 72
     3
  0
VERTEX
  5
60A5F
100
AcDbEntity
  8
0
100
AcDbVertex
100
AcDbPolygonMeshVertex
 10
1.191667
 20
0.526
 30
3.023
 70
    64
  0
VERTEX
  5
60A60
100
AcDbEntity
  8
0
100
AcDbVertex
100
AcDbPolygonMeshVertex
 10
1.191667
 20
0.526
 30
2.304
 70
    64
  0
VERTEX
  5
60A61
100
AcDbEntity
  8
0
100
AcDbVertex
100
AcDbPolygonMeshVertex
 10
1.191667
 20
0.526
 30
2.304
 70
    64
  0
VERTEX
  5
60A62
100
AcDbEntity
  8
0
100
AcDbVertex
100
AcDbPolygonMeshVertex
 10
1.136667
 20
0.526
 30
3.023
 70
    64
  0
VERTEX
  5
60A63
100
AcDbEntity
  8
0
100
AcDbVertex
100
AcDbPolygonMeshVertex
 10
1.136667
 20
0.526
 30
2.304
 70
    64
  0
VERTEX
  5
60A64
100
AcDbEntity
  8
0
100
AcDbVertex
100
AcDbPolygonMeshVertex
 10
1.136667
 20
0.526
 30
2.304
 70
    64
  0
VERTEX
  5
60A65
100
AcDbEntity
  8
0
100
AcDbVertex
100
AcDbPolygonMeshVertex
 10
1.136667
 20
0.401
 30
3.023
 70
    64
  0
VERTEX
  5
60A66
100
AcDbEntity
  8
0
100
AcDbVertex
100
AcDbPolygonMeshVertex
 10
1.136667
 20
0.401
 30
2.304
 70
    64
  0
VERTEX
  5
60A67
100
AcDbEntity
  8
0
100
AcDbVertex
100
AcDbPolygonMeshVertex
 10
1.136667
 20
0.526
 30
2.304
 70
    64
  0
VERTEX
  5
60A68
100
AcDbEntity
  8
0
100
AcDbVertex
100
AcDbPolygonMeshVertex
 10
1.191667
 20
0.401
 30
3.023
 70
    64
  0
VERTEX
  5
60A69
100
AcDbEntity
  8
0
100
AcDbVertex
100
AcDbPolygonMeshVertex
 10
1.191667
 20
0.401
 30
2.304
 70
    64
  0
VERTEX
  5
60A6A
100
AcDbEntity
  8
0
100
AcDbVertex
100
AcDbPolygonMeshVertex
 10
1.191667
 20
0.526
 30
2.304
 70
    64
  0
VERTEX
  5
60A6B
100
AcDbEntity
  8
0
100
AcDbVertex
100
AcDbPolygonMeshVertex
 10
1.191667
 20
0.401
 30
3.023
 70
    64
  0
VERTEX
  5
60A6C
100
AcDbEntity
  8
0
100
AcDbVertex
100
AcDbPolygonMeshVertex
 10
1.191667
 20
0.401
 30
3.023
 70
    64
  0
VERTEX
  5
60A6D
100
AcDbEntity
  8
0
100
AcDbVertex
100
AcDbPolygonMeshVertex
 10
1.191667
 20
0.526
 30
3.023
 70
    64
  0
VERTEX
  5
60A6E
100
AcDbEntity
  8
0
100
AcDbVertex
100
AcDbPolygonMeshVertex
 10
1.136667
 20
0.401
 30
3.023
 70
    64
  0
VERTEX
  5
60A6F
100
AcDbEntity
  8
0
100
AcDbVertex
100
AcDbPolygonMeshVertex
 10
1.136667
 20
0.401
 30
3.023
 70
    64
  0
VERTEX
  5
60A70
100
AcDbEntity
  8
0
100
AcDbVertex
100
AcDbPolygonMeshVertex
 10
1.136667
 20
0.526
 30
3.023
 70
    64
  0
SEQEND
  5
60A71
100
AcDbEntity
  8
0
  0
LINE
  5
60A72
100
AcDbEntity
  8
0
100
AcDbLine
 10
1.0125
 20
0.401
 30
2.304
 11
1.0125
 21
0.401
 31
3.023
  0
LINE
  5
60A73
100
AcDbEntity
  8
0
100
AcDbLine
 10
1.315833
 20
0.401
 30
2.304
 11
1.315833
 21
0.401
 31
3.023
  0
LINE
  5
60A74
100
AcDbEntity
  8
0
100
AcDbLine
 10
1.580833
 20
0.401
 30
2.304
 11
1.580833
 21
0.401
 31
3.023
  0
LINE
  5
60A75
100
AcDbEntity
  8
0
100
AcDbLine
 10
1.315833
 20
0.401
 30
2.304
 11
1.580833
 21
0.401
 31
2.304
  0
LINE
  5
60A76
100
AcDbEntity
  8
0
100
AcDbLine
 10
1.580833
 20
0.401
 30
2.6635
 11
1.315833
 21
0.401
 31
2.6635
  0
LINE
  5
60A77
100
AcDbEntity
  8
0
100
AcDbLine
 10
1.580833
 20
0.401
 30
3.023
 11
1.315833
 21
0.401
 31
3.023
  0
LINE
  5
60A78
100
AcDbEntity
  8
0
100
AcDbLine
 10
0.7475
 20
0.401
 30
2.304
 11
0.7475
 21
0.401
 31
3.023
  0
LINE
  5
60A79
100
AcDbEntity
  8
0
100
AcDbLine
 10
0.7475
 20
0.401
 30
2.304
 11
1.0125
 21
0.401
 31
2.304
  0
LINE
  5
60A7A
100
AcDbEntity
  8
0
100
AcDbLine
 10
1.0125
 20
0.401
 30
2.6635
 11
0.7475
 21
0.401
 31
2.6635
  0
LINE
  5
60A7B
100
AcDbEntity
  8
0
100
AcDbLine
 10
0.444167
 20
0.401
 30
2.6635
 11
0.179167
 21
0.401
 31
2.6635
  0
LINE
  5
60A7C
100
AcDbEntity
  8
0
100
AcDbLine
 10
1.0125
 20
0.401
 30
3.023
 11
0.7475
 21
0.401
 31
3.023
  0
LINE
  5
60A7D
100
AcDbEntity
  8
0
100
AcDbLine
 10
0.444167
 20
0.401
 30
3.023
 11
0.179167
 21
0.401
 31
3.023
  0
POLYLINE
  5
60A7E
100
AcDbEntity
  8
0
100
AcDbPolygonMesh
 66
     1
 10
0.0
 20
0.0
 30
0.0
 70
    16
 71
     6
 72
     3
  0
VERTEX
  5
60A7F
100
AcDbEntity
  8
0
100
AcDbVertex
100
AcDbPolygonMeshVertex
 10
0.623333
 20
0.526
 30
3.023
 70
    64
  0
VERTEX
  5
60A80
100
AcDbEntity
  8
0
100
AcDbVertex
100
AcDbPolygonMeshVertex
 10
0.623333
 20
0.526
 30
2.304
 70
    64
  0
VERTEX
  5
60A81
100
AcDbEntity
  8
0
100
AcDbVertex
100
AcDbPolygonMeshVertex
 10
0.623333
 20
0.526
 30
2.304
 70
    64
  0
VERTEX
  5
60A82
100
AcDbEntity
  8
0
100
AcDbVertex
100
AcDbPolygonMeshVertex
 10
0.568333
 20
0.526
 30
3.023
 70
    64
  0
VERTEX
  5
60A83
100
AcDbEntity
  8
0
100
AcDbVertex
100
AcDbPolygonMeshVertex
 10
0.568333
 20
0.526
 30
2.304
 70
    64
  0
VERTEX
  5
60A84
100
AcDbEntity
  8
0
100
AcDbVertex
100
AcDbPolygonMeshVertex
 10
0.568333
 20
0.526
 30
2.304
 70
    64
  0
VERTEX
  5
60A85
100
AcDbEntity
  8
0
100
AcDbVertex
100
AcDbPolygonMeshVertex
 10
0.568333
 20
0.401
 30
3.023
 70
    64
  0
VERTEX
  5
60A86
100
AcDbEntity
  8
0
100
AcDbVertex
100
AcDbPolygonMeshVertex
 10
0.568333
 20
0.401
 30
2.304
 70
    64
  0
VERTEX
  5
60A87
100
AcDbEntity
  8
0
100
AcDbVertex
100
AcDbPolygonMeshVertex
 10
0.568333
 20
0.526
 30
2.304
 70
    64
  0
VERTEX
  5
60A88
100
AcDbEntity
  8
0
100
AcDbVertex
100
AcDbPolygonMeshVertex
 10
0.623333
 20
0.401
 30
3.023
 70
    64
  0
VERTEX
  5
60A89
100
AcDbEntity
  8
0
100
AcDbVertex
100
AcDbPolygonMeshVertex
 10
0.623333
 20
0.401
 30
2.304
 70
    64
  0
VERTEX
  5
60A8A
100
AcDbEntity
  8
0
100
AcDbVertex
100
AcDbPolygonMeshVertex
 10
0.623333
 20
0.526
 30
2.304
 70
    64
  0
VERTEX
  5
60A8B
100
AcDbEntity
  8
0
100
AcDbVertex
100
AcDbPolygonMeshVertex
 10
0.623333
 20
0.401
 30
3.023
 70
    64
  0
VERTEX
  5
60A8C
100
AcDbEntity
  8
0
100
AcDbVertex
100
AcDbPolygonMeshVertex
 10
0.623333
 20
0.401
 30
3.023
 70
    64
  0
VERTEX
  5
60A8D
100
AcDbEntity
  8
0
100
AcDbVertex
100
AcDbPolygonMeshVertex
 10
0.623333
 20
0.526
 30
3.023
 70
    64
  0
VERTEX
  5
60A8E
100
AcDbEntity
  8
0
100
AcDbVertex
100
AcDbPolygonMeshVertex
 10
0.568333
 20
0.401
 30
3.023
 70
    64
  0
VERTEX
  5
60A8F
100
AcDbEntity
  8
0
100
AcDbVertex
100
AcDbPolygonMeshVertex
 10
0.568333
 20
0.401
 30
3.023
 70
    64
  0
VERTEX
  5
60A90
100
AcDbEntity
  8
0
100
AcDbVertex
100
AcDbPolygonMeshVertex
 10
0.568333
 20
0.526
 30
3.023
 70
    64
  0
SEQEND
  5
60A91
100
AcDbEntity
  8
0
  0
LINE
  5
60A92
100
AcDbEntity
  8
0
100
AcDbLine
 10
0.444167
 20
0.401
 30
2.304
 11
0.444167
 21
0.401
 31
3.023
  0
LINE
  5
60A93
100
AcDbEntity
  8
0
100
AcDbLine
 10
0.179167
 20
0.401
 30
2.304
 11
0.179167
 21
0.401
 31
3.023
  0
LINE
  5
60A94
100
AcDbEntity
  8
0
100
AcDbLine
 10
0.179167
 20
0.401
 30
2.304
 11
0.444167
 21
0.401
 31
2.304
  0
POLYLINE
  5
60A95
100
AcDbEntity
  8
0
100
AcDbPolygonMesh
 66
     1
 10
0.0
 20
0.0
 30
0.0
 70
    16
 71
     6
 72
     3
  0
VERTEX
  5
60A96
100
AcDbEntity
  8
0
100
AcDbVertex
100
AcDbPolygonMeshVertex
 10
0.0
 20
0.526
 30
3.023
 70
    64
  0
VERTEX
  5
60A97
100
AcDbEntity
  8
0
100
AcDbVertex
100
AcDbPolygonMeshVertex
 10
0.0
 20
0.526
 30
1.652
 70
    64
  0
VERTEX
  5
60A98
100
AcDbEntity
  8
0
100
AcDbVertex
100
AcDbPolygonMeshVertex
 10
0.0
 20
0.526
 30
1.652
 70
    64
  0
VERTEX
  5
60A99
100
AcDbEntity
  8
0
100
AcDbVertex
100
AcDbPolygonMeshVertex
 10
0.055
 20
0.526
 30
3.023
 70
    64
  0
VERTEX
  5
60A9A
100
AcDbEntity
  8
0
100
AcDbVertex
100
AcDbPolygonMeshVertex
 10
0.055
 20
0.526
 30
1.652
 70
    64
  0
VERTEX
  5
60A9B
100
AcDbEntity
  8
0
100
AcDbVertex
100
AcDbPolygonMeshVertex
 10
0.055
 20
0.526
 30
1.652
 70
    64
  0
VERTEX
  5
60A9C
100
AcDbEntity
  8
0
100
AcDbVertex
100
AcDbPolygonMeshVertex
 10
0.055
 20
0.401
 30
3.023
 70
    64
  0
VERTEX
  5
60A9D
100
AcDbEntity
  8
0
100
AcDbVertex
100
AcDbPolygonMeshVertex
 10
0.055
 20
0.401
 30
1.652
 70
    64
  0
VERTEX
  5
60A9E
100
AcDbEntity
  8
0
100
AcDbVertex
100
AcDbPolygonMeshVertex
 10
0.055
 20
0.526
 30
1.652
 70
    64
  0
VERTEX
  5
60A9F
100
AcDbEntity
  8
0
100
AcDbVertex
100
AcDbPolygonMeshVertex
 10
0.0
 20
0.401
 30
3.023
 70
    64
  0
VERTEX
  5
60AA0
100
AcDbEntity
  8
0
100
AcDbVertex
100
AcDbPolygonMeshVertex
 10
0.0
 20
0.401
 30
1.652
 70
    64
  0
VERTEX
  5
60AA1
100
AcDbEntity
  8
0
100
AcDbVertex
100
AcDbPolygonMeshVertex
 10
0.0
 20
0.526
 30
1.652
 70
    64
  0
VERTEX
  5
60AA2
100
AcDbEntity
  8
0
100
AcDbVertex
100
AcDbPolygonMeshVertex
 10
0.0
 20
0.401
 30
3.023
 70
    64
  0
VERTEX
  5
60AA3
100
AcDbEntity
  8
0
100
AcDbVertex
100
AcDbPolygonMeshVertex
 10
0.0
 20
0.401
 30
3.023
 70
    64
  0
VERTEX
  5
60AA4
100
AcDbEntity
  8
0
100
AcDbVertex
100
AcDbPolygonMeshVertex
 10
0.0
 20
0.526
 30
3.023
 70
    64
  0
VERTEX
  5
60AA5
100
AcDbEntity
  8
0
100
AcDbVertex
100
AcDbPolygonMeshVertex
 10
0.055
 20
0.401
 30
3.023
 70
    64
  0
VERTEX
  5
60AA6
100
AcDbEntity
  8
0
100
AcDbVertex
100
AcDbPolygonMeshVertex
 10
0.055
 20
0.401
 30
3.023
 70
    64
  0
VERTEX
  5
60AA7
100
AcDbEntity
  8
0
100
AcDbVertex
100
AcDbPolygonMeshVertex
 10
0.055
 20
0.526
 30
3.023
 70
    64
  0
SEQEND
  5
60AA8
100
AcDbEntity
  8
0
  0
LWPOLYLINE
  5
60AA9
100
AcDbEntity
  8
0
100
AcDbPolyline
 90
        4
 70
     1
 43
0.0
 38
2.062
 10
0.7465
 20
-2.141
 10
1.0135
 20
-2.141
 10
1.0135
 20
-2.29
 10
0.7465
 20
-2.29
  0
LWPOLYLINE
  5
60AAA
100
AcDbEntity
  8
0
100
AcDbPolyline
 90
        4
 70
     1
 43
0.0
 38
1.388
 10
0.7465
 20
-2.141
 10
1.0135
 20
-2.141
 10
1.0135
 20
-2.29
 10
0.7465
 20
-2.29
  0
POLYLINE
  5
60AAB
100
AcDbEntity
  8
0
100
AcDbPolygonMesh
 66
     1
 10
0.0
 20
0.0
 30
0.0
 70
    16
 71
     6
 72
     3
  0
VERTEX
  5
60AAC
100
AcDbEntity
  8
0
100
AcDbVertex
100
AcDbPolygonMeshVertex
 10
0.3275
 20
0.838
 30
2.062
 70
    64
  0
VERTEX
  5
60AAD
100
AcDbEntity
  8
0
100
AcDbVertex
100
AcDbPolygonMeshVertex
 10
0.3275
 20
0.838
 30
1.388
 70
    64
  0
VERTEX
  5
60AAE
100
AcDbEntity
  8
0
100
AcDbVertex
100
AcDbPolygonMeshVertex
 10
0.3275
 20
0.838
 30
1.388
 70
    64
  0
VERTEX
  5
60AAF
100
AcDbEntity
  8
0
100
AcDbVertex
100
AcDbPolygonMeshVertex
 10
1.4325
 20
0.838
 30
2.062
 70
    64
  0
VERTEX
  5
60AB0
100
AcDbEntity
  8
0
100
AcDbVertex
100
AcDbPolygonMeshVertex
 10
1.4325
 20
0.838
 30
1.388
 70
    64
  0
VERTEX
  5
60AB1
100
AcDbEntity
  8
0
100
AcDbVertex
100
AcDbPolygonMeshVertex
 10
1.4325
 20
0.838
 30
1.388
 70
    64
  0
VERTEX
  5
60AB2
100
AcDbEntity
  8
0
100
AcDbVertex
100
AcDbPolygonMeshVertex
 10
1.4325
 20
0.401
 30
2.062
 70
    64
  0
VERTEX
  5
60AB3
100
AcDbEntity
  8
0
100
AcDbVertex
100
AcDbPolygonMeshVertex
 10
1.4325
 20
0.401
 30
1.388
 70
    64
  0
VERTEX
  5
60AB4
100
AcDbEntity
  8
0
100
AcDbVertex
100
AcDbPolygonMeshVertex
 10
1.4325
 20
0.838
 30
1.388
 70
    64
  0
VERTEX
  5
60AB5
100
AcDbEntity
  8
0
100
AcDbVertex
100
AcDbPolygonMeshVertex
 10
0.3275
 20
0.401
 30
2.062
 70
    64
  0
VERTEX
  5
60AB6
100
AcDbEntity
  8
0
100
AcDbVertex
100
AcDbPolygonMeshVertex
 10
0.3275
 20
0.401
 30
1.388
 70
    64
  0
VERTEX
  5
60AB7
100
AcDbEntity
  8
0
100
AcDbVertex
100
AcDbPolygonMeshVertex
 10
0.3275
 20
0.838
 30
1.388
 70
    64
  0
VERTEX
  5
60AB8
100
AcDbEntity
  8
0
100
AcDbVertex
100
AcDbPolygonMeshVertex
 10
0.3275
 20
0.401
 30
2.062
 70
    64
  0
VERTEX
  5
60AB9
100
AcDbEntity
  8
0
100
AcDbVertex
100
AcDbPolygonMeshVertex
 10
0.3275
 20
0.401
 30
2.062
 70
    64
  0
VERTEX
  5
60ABA
100
AcDbEntity
  8
0
100
AcDbVertex
100
AcDbPolygonMeshVertex
 10
0.3275
 20
0.838
 30
2.062
 70
    64
  0
VERTEX
  5
60ABB
100
AcDbEntity
  8
0
100
AcDbVertex
100
AcDbPolygonMeshVertex
 10
1.4325
 20
0.401
 30
2.062
 70
    64
  0
VERTEX
  5
60ABC
100
AcDbEntity
  8
0
100
AcDbVertex
100
AcDbPolygonMeshVertex
 10
1.4325
 20
0.401
 30
2.062
 70
    64
  0
VERTEX
  5
60ABD
100
AcDbEntity
  8
0
100
AcDbVertex
100
AcDbPolygonMeshVertex
 10
1.4325
 20
0.838
 30
2.062
 70
    64
  0
SEQEND
  5
60ABE
100
AcDbEntity
  8
0
  0
LINE
  5
60ABF
100
AcDbEntity
  8
0
100
AcDbLine
 10
0.74
 20
0.401
 30
2.062
 11
0.74
 21
0.636
 31
2.062
  0
LINE
  5
60AC0
100
AcDbEntity
  8
0
100
AcDbLine
 10
1.02
 20
0.401
 30
2.062
 11
1.02
 21
0.636
 31
2.062
  0
LINE
  5
60AC1
100
AcDbEntity
  8
0
100
AcDbLine
 10
1.02
 20
0.636
 30
2.062
 11
0.74
 21
0.636
 31
2.062
  0
LINE
  5
60AC2
100
AcDbEntity
  8
0
100
AcDbLine
 10
0.6995
 20
0.838
 30
1.841
 11
0.3825
 21
0.838
 31
1.841
  0
LINE
  5
60AC3
100
AcDbEntity
  8
0
100
AcDbLine
 10
0.6995
 20
0.838
 30
1.641
 11
0.3825
 21
0.838
 31
1.641
  0
LINE
  5
60AC4
100
AcDbEntity
  8
0
100
AcDbLine
 10
0.3825
 20
0.838
 30
1.841
 11
0.3825
 21
0.838
 31
1.641
  0
LINE
  5
60AC5
100
AcDbEntity
  8
0
100
AcDbLine
 10
0.6995
 20
0.838
 30
1.841
 11
0.6995
 21
0.838
 31
1.641
  0
CIRCLE
  5
60AC6
100
AcDbEntity
  8
0
100
AcDbCircle
 10
0.541
 20
0.6195
 30
2.062
 40
0.12
  0
CIRCLE
  5
60AC7
100
AcDbEntity
  8
0
100
AcDbCircle
 10
1.219
 20
0.6195
 30
2.062
 40
0.12
  0
LINE
  5
60AC8
100
AcDbEntity
  8
0
100
AcDbLine
 10
1.0605
 20
0.838
 30
1.641
 11
1.3775
 21
0.838
 31
1.641
  0
LINE
  5
60AC9
100
AcDbEntity
  8
0
100
AcDbLine
 10
1.0605
 20
0.838
 30
1.841
 11
1.3775
 21
0.838
 31
1.841
  0
LINE
  5
60ACA
100
AcDbEntity
  8
0
100
AcDbLine
 10
1.3775
 20
0.838
 30
1.841
 11
1.3775
 21
0.838
 31
1.641
  0
LINE
  5
60ACB
100
AcDbEntity
  8
0
100
AcDbLine
 10
1.0605
 20
0.838
 30
1.841
 11
1.0605
 21
0.838
 31
1.641
  0
POLYLINE
  5
60ACC
100
AcDbEntity
  8
0
100
AcDb3dPolyline
 66
     1
 10
0.0
 20
0.0
 30
0.0
 70
     8
  0
VERTEX
  5
60ACD
100
AcDbEntity
  8
0
100
AcDbVertex
100
AcDb3dPolylineVertex
 10
1.76
 20
-1.473
 30
0.187
 70
    32
  0
VERTEX
  5
60ACE
100
AcDbEntity
  8
0
100
AcDbVertex
100
AcDb3dPolylineVertex
 10
1.76
 20
-1.473
 30
1.057
 70
    32
  0
VERTEX
  5
60ACF
100
AcDbEntity
  8
0
100
AcDbVertex
100
AcDb3dPolylineVertex
 10
1.76
 20
-1.628
 30
1.057
 70
    32
  0
VERTEX
  5
60AD0
100
AcDbEntity
  8
0
100
AcDbVertex
100
AcDb3dPolylineVertex
 10
1.76
 20
-1.628
 30
0.187
 70
    32
  0
SEQEND
  5
60AD1
100
AcDbEntity
  8
0
  0
POLYLINE
  5
60AD2
100
AcDbEntity
  8
0
100
AcDb3dPolyline
 66
     1
 10
0.0
 20
0.0
 30
0.0
 70
     8
  0
VERTEX
  5
60AD3
100
AcDbEntity
  8
0
100
AcDbVertex
100
AcDb3dPolylineVertex
 10
1.76
 20
-0.094
 30
0.187
 70
    32
  0
VERTEX
  5
60AD4
100
AcDbEntity
  8
0
100
AcDbVertex
100
AcDb3dPolylineVertex
 10
1.76
 20
-0.094
 30
1.057
 70
    32
  0
VERTEX
  5
60AD5
100
AcDbEntity
  8
0
100
AcDbVertex
100
AcDb3dPolylineVertex
 10
1.76
 20
-0.249
 30
1.057
 70
    32
  0
VERTEX
  5
60AD6
100
AcDbEntity
  8
0
100
AcDbVertex
100
AcDb3dPolylineVertex
 10
1.76
 20
-0.249
 30
0.187
 70
    32
  0
SEQEND
  5
60AD7
100
AcDbEntity
  8
0
  0
LINE
  5
60AD8
100
AcDbEntity
  8
0
100
AcDbLine
 10
1.76
 20
-0.75
 30
0.517
 11
1.76
 21
-0.972
 31
0.517
  0
LINE
  5
60AD9
100
AcDbEntity
  8
0
100
AcDbLine
 10
1.76
 20
-0.972
 30
0.517
 11
1.76
 21
-0.972
 31
0.187
  0
LINE
  5
60ADA
100
AcDbEntity
  8
0
100
AcDbLine
 10
1.76
 20
-0.75
 30
0.517
 11
1.76
 21
-0.75
 31
0.187
  0
POLYLINE
  5
60ADB
100
AcDbEntity
  8
0
100
AcDb3dPolyline
 66
     1
 10
0.0
 20
0.0
 30
0.0
 70
     8
  0
VERTEX
  5
60ADC
100
AcDbEntity
  8
0
100
AcDbVertex
100
AcDb3dPolylineVertex
 10
0.0
 20
-0.094
 30
0.187
 70
    32
  0
VERTEX
  5
60ADD
100
AcDbEntity
  8
0
100
AcDbVertex
100
AcDb3dPolylineVertex
 10
0.0
 20
-0.094
 30
1.057
 70
    32
  0
VERTEX
  5
60ADE
100
AcDbEntity
  8
0
100
AcDbVertex
100
AcDb3dPolylineVertex
 10
0.0
 20
-0.249
 30
1.057
 70
    32
  0
VERTEX
  5
60ADF
100
AcDbEntity
  8
0
100
AcDbVertex
100
AcDb3dPolylineVertex
 10
0.0
 20
-0.249
 30
0.187
 70
    32
  0
SEQEND
  5
60AE0
100
AcDbEntity
  8
0
  0
POLYLINE
  5
60AE1
100
AcDbEntity
  8
0
100
AcDb3dPolyline
 66
     1
 10
0.0
 20
0.0
 30
0.0
 70
     8
  0
VERTEX
  5
60AE2
100
AcDbEntity
  8
0
100
AcDbVertex
100
AcDb3dPolylineVertex
 10
0.0
 20
-1.473
 30
0.187
 70
    32
  0
VERTEX
  5
60AE3
100
AcDbEntity
  8
0
100
AcDbVertex
100
AcDb3dPolylineVertex
 10
0.0
 20
-1.473
 30
1.057
 70
    32
  0
VERTEX
  5
60AE4
100
AcDbEntity
  8
0
100
AcDbVertex
100
AcDb3dPolylineVertex
 10
0.0
 20
-1.628
 30
1.057
 70
    32
  0
VERTEX
  5
60AE5
100
AcDbEntity
  8
0
100
AcDbVertex
100
AcDb3dPolylineVertex
 10
0.0
 20
-1.628
 30
0.187
 70
    32
  0
SEQEND
  5
60AE6
100
AcDbEntity
  8
0
  0
LINE
  5
60AE7
100
AcDbEntity
  8
0
100
AcDbLine
 10
1.76
 20
-1.688
 30
0.187
 11
1.76
 21
-1.688
 31
0.0
  0
LINE
  5
60AE8
100
AcDbEntity
  8
0
100
AcDbLine
 10
1.76
 20
-1.688
 30
0.0
 11
0.88
 21
-1.688
 31
0.0
  0
POLYLINE
  5
60AE9
100
AcDbEntity
  8
0
100
AcDbPolygonMesh
 66
     1
 10
0.0
 20
0.0
 30
0.0
 70
    16
 71
     6
 72
     3
  0
VERTEX
  5
60AEA
100
AcDbEntity
  8
0
100
AcDbVertex
100
AcDbPolygonMeshVertex
 10
0.88
 20
-1.688
 30
0.187
 70
    64
  0
VERTEX
  5
60AEB
100
AcDbEntity
  8
0
100
AcDbVertex
100
AcDbPolygonMeshVertex
 10
0.88
 20
-1.688
 30
0.0
 70
    64
  0
VERTEX
  5
60AEC
100
AcDbEntity
  8
0
100
AcDbVertex
100
AcDbPolygonMeshVertex
 10
0.88
 20
-1.688
 30
0.0
 70
    64
  0
VERTEX
  5
60AED
100
AcDbEntity
  8
0
100
AcDbVertex
100
AcDbPolygonMeshVertex
 10
1.76
 20
-1.688
 30
0.187
 70
    64
  0
VERTEX
  5
60AEE
100
AcDbEntity
  8
0
100
AcDbVertex
100
AcDbPolygonMeshVertex
 10
1.76
 20
-1.688
 30
0.0
 70
    64
  0
VERTEX
  5
60AEF
100
AcDbEntity
  8
0
100
AcDbVertex
100
AcDbPolygonMeshVertex
 10
1.76
 20
-1.688
 30
0.0
 70
    64
  0
VERTEX
  5
60AF0
100
AcDbEntity
  8
0
100
AcDbVertex
100
AcDbPolygonMeshVertex
 10
1.76
 20
-2.286
 30
0.187
 70
    64
  0
VERTEX
  5
60AF1
100
AcDbEntity
  8
0
100
AcDbVertex
100
AcDbPolygonMeshVertex
 10
1.76
 20
-2.286
 30
0.0
 70
    64
  0
VERTEX
  5
60AF2
100
AcDbEntity
  8
0
100
AcDbVertex
100
AcDbPolygonMeshVertex
 10
1.76
 20
-1.688
 30
0.0
 70
    64
  0
VERTEX
  5
60AF3
100
AcDbEntity
  8
0
100
AcDbVertex
100
AcDbPolygonMeshVertex
 10
0.88
 20
-2.286
 30
0.187
 70
    64
  0
VERTEX
  5
60AF4
100
AcDbEntity
  8
0
100
AcDbVertex
100
AcDbPolygonMeshVertex
 10
0.88
 20
-2.286
 30
0.0
 70
    64
  0
VERTEX
  5
60AF5
100
AcDbEntity
  8
0
100
AcDbVertex
100
AcDbPolygonMeshVertex
 10
0.88
 20
-1.688
 30
0.0
 70
    64
  0
VERTEX
  5
60AF6
100
AcDbEntity
  8
0
100
AcDbVertex
100
AcDbPolygonMeshVertex
 10
0.88
 20
-2.286
 30
0.187
 70
    64
  0
VERTEX
  5
60AF7
100
AcDbEntity
  8
0
100
AcDbVertex
100
AcDbPolygonMeshVertex
 10
0.88
 20
-2.286
 30
0.187
 70
    64
  0
VERTEX
  5
60AF8
100
AcDbEntity
  8
0
100
AcDbVertex
100
AcDbPolygonMeshVertex
 10
0.88
 20
-1.688
 30
0.187
 70
    64
  0
VERTEX
  5
60AF9
100
AcDbEntity
  8
0
100
AcDbVertex
100
AcDbPolygonMeshVertex
 10
1.76
 20
-2.286
 30
0.187
 70
    64
  0
VERTEX
  5
60AFA
100
AcDbEntity
  8
0
100
AcDbVertex
100
AcDbPolygonMeshVertex
 10
1.76
 20
-2.286
 30
0.187
 70
    64
  0
VERTEX
  5
60AFB
100
AcDbEntity
  8
0
100
AcDbVertex
100
AcDbPolygonMeshVertex
 10
1.76
 20
-1.688
 30
0.187
 70
    64
  0
SEQEND
  5
60AFC
100
AcDbEntity
  8
0
  0
POLYLINE
  5
60AFD
100
AcDbEntity
  8
0
100
AcDbPolygonMesh
 66
     1
 10
0.0
 20
0.0
 30
0.0
 70
    16
 71
     6
 72
     3
  0
VERTEX
  5
60AFE
100
AcDbEntity
  8
0
100
AcDbVertex
100
AcDbPolygonMeshVertex
 10
0.0
 20
0.598
 30
0.187
 70
    64
  0
VERTEX
  5
60AFF
100
AcDbEntity
  8
0
100
AcDbVertex
100
AcDbPolygonMeshVertex
 10
0.0
 20
0.598
 30
0.0
 70
    64
  0
VERTEX
  5
60B00
100
AcDbEntity
  8
0
100
AcDbVertex
100
AcDbPolygonMeshVertex
 10
0.0
 20
0.598
 30
0.0
 70
    64
  0
VERTEX
  5
60B01
100
AcDbEntity
  8
0
100
AcDbVertex
100
AcDbPolygonMeshVertex
 10
0.88
 20
0.598
 30
0.187
 70
    64
  0
VERTEX
  5
60B02
100
AcDbEntity
  8
0
100
AcDbVertex
100
AcDbPolygonMeshVertex
 10
0.88
 20
0.598
 30
0.0
 70
    64
  0
VERTEX
  5
60B03
100
AcDbEntity
  8
0
100
AcDbVertex
100
AcDbPolygonMeshVertex
 10
0.88
 20
0.598
 30
0.0
 70
    64
  0
VERTEX
  5
60B04
100
AcDbEntity
  8
0
100
AcDbVertex
100
AcDbPolygonMeshVertex
 10
0.88
 20
0.0
 30
0.187
 70
    64
  0
VERTEX
  5
60B05
100
AcDbEntity
  8
0
100
AcDbVertex
100
AcDbPolygonMeshVertex
 10
0.88
 20
0.0
 30
0.0
 70
    64
  0
VERTEX
  5
60B06
100
AcDbEntity
  8
0
100
AcDbVertex
100
AcDbPolygonMeshVertex
 10
0.88
 20
0.598
 30
0.0
 70
    64
  0
VERTEX
  5
60B07
100
AcDbEntity
  8
0
100
AcDbVertex
100
AcDbPolygonMeshVertex
 10
0.0
 20
0.0
 30
0.187
 70
    64
  0
VERTEX
  5
60B08
100
AcDbEntity
  8
0
100
AcDbVertex
100
AcDbPolygonMeshVertex
 10
0.0
 20
0.0
 30
0.0
 70
    64
  0
VERTEX
  5
60B09
100
AcDbEntity
  8
0
100
AcDbVertex
100
AcDbPolygonMeshVertex
 10
0.0
 20
0.598
 30
0.0
 70
    64
  0
VERTEX
  5
60B0A
100
AcDbEntity
  8
0
100
AcDbVertex
100
AcDbPolygonMeshVertex
 10
0.0
 20
0.0
 30
0.187
 70
    64
  0
VERTEX
  5
60B0B
100
AcDbEntity
  8
0
100
AcDbVertex
100
AcDbPolygonMeshVertex
 10
0.0
 20
0.0
 30
0.187
 70
    64
  0
VERTEX
  5
60B0C
100
AcDbEntity
  8
0
100
AcDbVertex
100
AcDbPolygonMeshVertex
 10
0.0
 20
0.598
 30
0.187
 70
    64
  0
VERTEX
  5
60B0D
100
AcDbEntity
  8
0
100
AcDbVertex
100
AcDbPolygonMeshVertex
 10
0.88
 20
0.0
 30
0.187
 70
    64
  0
VERTEX
  5
60B0E
100
AcDbEntity
  8
0
100
AcDbVertex
100
AcDbPolygonMeshVertex
 10
0.88
 20
0.0
 30
0.187
 70
    64
  0
VERTEX
  5
60B0F
100
AcDbEntity
  8
0
100
AcDbVertex
100
AcDbPolygonMeshVertex
 10
0.88
 20
0.598
 30
0.187
 70
    64
  0
SEQEND
  5
60B10
100
AcDbEntity
  8
0
  0
POLYLINE
  5
60B11
100
AcDbEntity
  8
0
100
AcDb3dPolyline
 66
     1
 10
0.0
 20
0.0
 30
0.0
 70
     8
  0
VERTEX
  5
60B12
100
AcDbEntity
  8
0
100
AcDbVertex
100
AcDb3dPolylineVertex
 10
1.76
 20
-0.761
 30
1.592
 70
    32
  0
VERTEX
  5
60B13
100
AcDbEntity
  8
0
100
AcDbVertex
100
AcDb3dPolylineVertex
 10
1.76
 20
-0.761
 30
2.165
 70
    32
  0
VERTEX
  5
60B14
100
AcDbEntity
  8
0
100
AcDbVertex
100
AcDb3dPolylineVertex
 10
1.76
 20
-0.927
 30
2.165
 70
    32
  0
VERTEX
  5
60B15
100
AcDbEntity
  8
0
100
AcDbVertex
100
AcDb3dPolylineVertex
 10
1.76
 20
-0.927
 30
1.592
 70
    32
  0
VERTEX
  5
60B16
100
AcDbEntity
  8
0
100
AcDbVertex
100
AcDb3dPolylineVertex
 10
1.76
 20
-0.761
 30
1.592
 70
    32
  0
SEQEND
  5
60B17
100
AcDbEntity
  8
0
  0
LINE
  5
60B18
100
AcDbEntity
  8
0
100
AcDbLine
 10
1.76
 20
-0.927
 30
1.8785
 11
1.76
 21
-0.761
 31
1.8785
  0
LINE
  5
60B19
100
AcDbEntity
  8
0
100
AcDbLine
 10
1.76
 20
-0.927
 30
2.0685
 11
1.76
 21
-0.761
 31
2.0685
  0
POLYLINE
  5
60B1A
100
AcDbEntity
  8
0
100
AcDb3dPolyline
 66
     1
 10
0.0
 20
0.0
 30
0.0
 70
     8
  0
VERTEX
  5
60B1B
100
AcDbEntity
  8
0
100
AcDbVertex
100
AcDb3dPolylineVertex
 10
0.0
 20
-0.761
 30
1.592
 70
    32
  0
VERTEX
  5
60B1C
100
AcDbEntity
  8
0
100
AcDbVertex
100
AcDb3dPolylineVertex
 10
0.0
 20
-0.761
 30
2.165
 70
    32
  0
VERTEX
  5
60B1D
100
AcDbEntity
  8
0
100
AcDbVertex
100
AcDb3dPolylineVertex
 10
0.0
 20
-0.927
 30
2.165
 70
    32
  0
VERTEX
  5
60B1E
100
AcDbEntity
  8
0
100
AcDbVertex
100
AcDb3dPolylineVertex
 10
0.0
 20
-0.927
 30
1.592
 70
    32
  0
VERTEX
  5
60B1F
100
AcDbEntity
  8
0
100
AcDbVertex
100
AcDb3dPolylineVertex
 10
0.0
 20
-0.761
 30
1.592
 70
    32
  0
SEQEND
  5
60B20
100
AcDbEntity
  8
0
  0
LINE
  5
60B21
100
AcDbEntity
  8
0
100
AcDbLine
 10
0.0
 20
-0.927
 30
1.8785
 11
0.0
 21
-0.761
 31
1.8785
  0
LINE
  5
60B22
100
AcDbEntity
  8
0
100
AcDbLine
 10
0.0
 20
-0.927
 30
2.0685
 11
0.0
 21
-0.761
 31
2.0685
  0
CIRCLE
  5
60B23
100
AcDbEntity
  8
0
100
AcDbCircle
 10
1.57
 20
0.335
 30
0.316
 40
0.086
  0
POLYLINE
  5
60B24
100
AcDbEntity
  8
0
100
AcDb3dPolyline
 66
     1
 10
0.0
 20
0.0
 30
0.0
 70
     8
  0
VERTEX
  5
60B25
100
AcDbEntity
  8
0
100
AcDbVertex
100
AcDb3dPolylineVertex
 10
0.545333
 20
0.401
 30
0.187
 70
    32
  0
VERTEX
  5
60B26
100
AcDbEntity
  8
0
100
AcDbVertex
100
AcDb3dPolylineVertex
 10
0.545333
 20
0.536
 30
0.187
 70
    32
  0
VERTEX
  5
60B27
100
AcDbEntity
  8
0
100
AcDbVertex
100
AcDb3dPolylineVertex
 10
0.334667
 20
0.536
 30
0.187
 70
    32
  0
VERTEX
  5
60B28
100
AcDbEntity
  8
0
100
AcDbVertex
100
AcDb3dPolylineVertex
 10
0.334667
 20
0.401
 30
0.187
 70
    32
  0
SEQEND
  5
60B29
100
AcDbEntity
  8
0
  0
POLYLINE
  5
60B2A
100
AcDbEntity
  8
0
100
AcDb3dPolyline
 66
     1
 10
0.0
 20
0.0
 30
0.0
 70
     8
  0
VERTEX
  5
60B2B
100
AcDbEntity
  8
0
100
AcDbVertex
100
AcDb3dPolylineVertex
 10
0.272667
 20
0.401
 30
0.187
 70
    32
  0
VERTEX
  5
60B2C
100
AcDbEntity
  8
0
100
AcDbVertex
100
AcDb3dPolylineVertex
 10
0.272667
 20
0.536
 30
0.187
 70
    32
  0
VERTEX
  5
60B2D
100
AcDbEntity
  8
0
100
AcDbVertex
100
AcDb3dPolylineVertex
 10
0.062
 20
0.536
 30
0.187
 70
    32
  0
VERTEX
  5
60B2E
100
AcDbEntity
  8
0
100
AcDbVertex
100
AcDb3dPolylineVertex
 10
0.062
 20
0.401
 30
0.187
 70
    32
  0
SEQEND
  5
60B2F
100
AcDbEntity
  8
0
  0
POLYLINE
  5
60B30
100
AcDbEntity
  8
0
100
AcDb3dPolyline
 66
     1
 10
0.0
 20
0.0
 30
0.0
 70
     8
  0
VERTEX
  5
60B31
100
AcDbEntity
  8
0
100
AcDbVertex
100
AcDb3dPolylineVertex
 10
0.818
 20
0.401
 30
0.187
 70
    32
  0
VERTEX
  5
60B32
100
AcDbEntity
  8
0
100
AcDbVertex
100
AcDb3dPolylineVertex
 10
0.818
 20
0.536
 30
0.187
 70
    32
  0
VERTEX
  5
60B33
100
AcDbEntity
  8
0
100
AcDbVertex
100
AcDb3dPolylineVertex
 10
0.607333
 20
0.536
 30
0.187
 70
    32
  0
VERTEX
  5
60B34
100
AcDbEntity
  8
0
100
AcDbVertex
100
AcDb3dPolylineVertex
 10
0.607333
 20
0.401
 30
0.187
 70
    32
  0
SEQEND
  5
60B35
100
AcDbEntity
  8
0
  0
POLYLINE
  5
60B36
100
AcDbEntity
  8
0
100
AcDb3dPolyline
 66
     1
 10
0.0
 20
0.0
 30
0.0
 70
     8
  0
VERTEX
  5
60B37
100
AcDbEntity
  8
0
100
AcDbVertex
100
AcDb3dPolylineVertex
 10
1.487333
 20
-2.089
 30
0.187
 70
    32
  0
VERTEX
  5
60B38
100
AcDbEntity
  8
0
100
AcDbVertex
100
AcDb3dPolylineVertex
 10
1.487333
 20
-2.224
 30
0.187
 70
    32
  0
VERTEX
  5
60B39
100
AcDbEntity
  8
0
100
AcDbVertex
100
AcDb3dPolylineVertex
 10
1.698
 20
-2.224
 30
0.187
 70
    32
  0
VERTEX
  5
60B3A
100
AcDbEntity
  8
0
100
AcDbVertex
100
AcDb3dPolylineVertex
 10
1.698
 20
-2.089
 30
0.187
 70
    32
  0
SEQEND
  5
60B3B
100
AcDbEntity
  8
0
  0
POLYLINE
  5
60B3C
100
AcDbEntity
  8
0
100
AcDb3dPolyline
 66
     1
 10
0.0
 20
0.0
 30
0.0
 70
     8
  0
VERTEX
  5
60B3D
100
AcDbEntity
  8
0
100
AcDbVertex
100
AcDb3dPolylineVertex
 10
1.214667
 20
-2.089
 30
0.187
 70
    32
  0
VERTEX
  5
60B3E
100
AcDbEntity
  8
0
100
AcDbVertex
100
AcDb3dPolylineVertex
 10
1.214667
 20
-2.224
 30
0.187
 70
    32
  0
VERTEX
  5
60B3F
100
AcDbEntity
  8
0
100
AcDbVertex
100
AcDb3dPolylineVertex
 10
1.425333
 20
-2.224
 30
0.187
 70
    32
  0
VERTEX
  5
60B40
100
AcDbEntity
  8
0
100
AcDbVertex
100
AcDb3dPolylineVertex
 10
1.425333
 20
-2.089
 30
0.187
 70
    32
  0
SEQEND
  5
60B41
100
AcDbEntity
  8
0
  0
POLYLINE
  5
60B42
100
AcDbEntity
  8
0
100
AcDb3dPolyline
 66
     1
 10
0.0
 20
0.0
 30
0.0
 70
     8
  0
VERTEX
  5
60B43
100
AcDbEntity
  8
0
100
AcDbVertex
100
AcDb3dPolylineVertex
 10
0.942
 20
-2.089
 30
0.187
 70
    32
  0
VERTEX
  5
60B44
100
AcDbEntity
  8
0
100
AcDbVertex
100
AcDb3dPolylineVertex
 10
0.942
 20
-2.224
 30
0.187
 70
    32
  0
VERTEX
  5
60B45
100
AcDbEntity
  8
0
100
AcDbVertex
100
AcDb3dPolylineVertex
 10
1.152667
 20
-2.224
 30
0.187
 70
    32
  0
VERTEX
  5
60B46
100
AcDbEntity
  8
0
100
AcDbVertex
100
AcDb3dPolylineVertex
 10
1.152667
 20
-2.089
 30
0.187
 70
    32
  0
SEQEND
  5
60B47
100
AcDbEntity
  8
0
  0
CIRCLE
  5
60B48
100
AcDbEntity
  8
0
100
AcDbCircle
 10
0.19
 20
-2.025
 30
0.316
 40
0.086
  0
CIRCLE
  5
60B49
100
AcDbEntity
  8
0
100
AcDbCircle
 10
0.19
 20
-2.025
 30
0.0
 40
0.086
  0
CIRCLE
  5
60B4A
100
AcDbEntity
  8
0
100
AcDbCircle
 10
1.57
 20
0.335
 30
0.0
 40
0.086
  0
POLYLINE
  5
60B4B
100
AcDbEntity
  8
0
100
AcDb3dPolyline
 66
     1
 10
0.0
 20
0.0
 30
0.0
 70
     8
  0
VERTEX
  5
60B4C
100
AcDbEntity
  8
0
100
AcDbVertex
100
AcDb3dPolylineVertex
 10
0.942
 20
-2.089
 30
0.0
 70
    32
  0
VERTEX
  5
60B4D
100
AcDbEntity
  8
0
100
AcDbVertex
100
AcDb3dPolylineVertex
 10
0.942
 20
-2.224
 30
0.0
 70
    32
  0
VERTEX
  5
60B4E
100
AcDbEntity
  8
0
100
AcDbVertex
100
AcDb3dPolylineVertex
 10
1.152667
 20
-2.224
 30
0.0
 70
    32
  0
VERTEX
  5
60B4F
100
AcDbEntity
  8
0
100
AcDbVertex
100
AcDb3dPolylineVertex
 10
1.152667
 20
-2.089
 30
0.0
 70
    32
  0
SEQEND
  5
60B50
100
AcDbEntity
  8
0
  0
POLYLINE
  5
60B51
100
AcDbEntity
  8
0
100
AcDb3dPolyline
 66
     1
 10
0.0
 20
0.0
 30
0.0
 70
     8
  0
VERTEX
  5
60B52
100
AcDbEntity
  8
0
100
AcDbVertex
100
AcDb3dPolylineVertex
 10
1.214667
 20
-2.089
 30
0.0
 70
    32
  0
VERTEX
  5
60B53
100
AcDbEntity
  8
0
100
AcDbVertex
100
AcDb3dPolylineVertex
 10
1.214667
 20
-2.224
 30
0.0
 70
    32
  0
VERTEX
  5
60B54
100
AcDbEntity
  8
0
100
AcDbVertex
100
AcDb3dPolylineVertex
 10
1.425333
 20
-2.224
 30
0.0
 70
    32
  0
VERTEX
  5
60B55
100
AcDbEntity
  8
0
100
AcDbVertex
100
AcDb3dPolylineVertex
 10
1.425333
 20
-2.089
 30
0.0
 70
    32
  0
SEQEND
  5
60B56
100
AcDbEntity
  8
0
  0
POLYLINE
  5
60B57
100
AcDbEntity
  8
0
100
AcDb3dPolyline
 66
     1
 10
0.0
 20
0.0
 30
0.0
 70
     8
  0
VERTEX
  5
60B58
100
AcDbEntity
  8
0
100
AcDbVertex
100
AcDb3dPolylineVertex
 10
1.487333
 20
-2.089
 30
0.0
 70
    32
  0
VERTEX
  5
60B59
100
AcDbEntity
  8
0
100
AcDbVertex
100
AcDb3dPolylineVertex
 10
1.487333
 20
-2.224
 30
0.0
 70
    32
  0
VERTEX
  5
60B5A
100
AcDbEntity
  8
0
100
AcDbVertex
100
AcDb3dPolylineVertex
 10
1.698
 20
-2.224
 30
0.0
 70
    32
  0
VERTEX
  5
60B5B
100
AcDbEntity
  8
0
100
AcDbVertex
100
AcDb3dPolylineVertex
 10
1.698
 20
-2.089
 30
0.0
 70
    32
  0
SEQEND
  5
60B5C
100
AcDbEntity
  8
0
  0
POLYLINE
  5
60B5D
100
AcDbEntity
  8
0
100
AcDb3dPolyline
 66
     1
 10
0.0
 20
0.0
 30
0.0
 70
     8
  0
VERTEX
  5
60B5E
100
AcDbEntity
  8
0
100
AcDbVertex
100
AcDb3dPolylineVertex
 10
0.818
 20
0.401
 30
0.0
 70
    32
  0
VERTEX
  5
60B5F
100
AcDbEntity
  8
0
100
AcDbVertex
100
AcDb3dPolylineVertex
 10
0.818
 20
0.536
 30
0.0
 70
    32
  0
VERTEX
  5
60B60
100
AcDbEntity
  8
0
100
AcDbVertex
100
AcDb3dPolylineVertex
 10
0.607333
 20
0.536
 30
0.0
 70
    32
  0
VERTEX
  5
60B61
100
AcDbEntity
  8
0
100
AcDbVertex
100
AcDb3dPolylineVertex
 10
0.607333
 20
0.401
 30
0.0
 70
    32
  0
SEQEND
  5
60B62
100
AcDbEntity
  8
0
  0
POLYLINE
  5
60B63
100
AcDbEntity
  8
0
100
AcDb3dPolyline
 66
     1
 10
0.0
 20
0.0
 30
0.0
 70
     8
  0
VERTEX
  5
60B64
100
AcDbEntity
  8
0
100
AcDbVertex
100
AcDb3dPolylineVertex
 10
0.545333
 20
0.401
 30
0.0
 70
    32
  0
VERTEX
  5
60B65
100
AcDbEntity
  8
0
100
AcDbVertex
100
AcDb3dPolylineVertex
 10
0.545333
 20
0.536
 30
0.0
 70
    32
  0
VERTEX
  5
60B66
100
AcDbEntity
  8
0
100
AcDbVertex
100
AcDb3dPolylineVertex
 10
0.334667
 20
0.536
 30
0.0
 70
    32
  0
VERTEX
  5
60B67
100
AcDbEntity
  8
0
100
AcDbVertex
100
AcDb3dPolylineVertex
 10
0.334667
 20
0.401
 30
0.0
 70
    32
  0
SEQEND
  5
60B68
100
AcDbEntity
  8
0
  0
POLYLINE
  5
60B69
100
AcDbEntity
  8
0
100
AcDb3dPolyline
 66
     1
 10
0.0
 20
0.0
 30
0.0
 70
     8
  0
VERTEX
  5
60B6A
100
AcDbEntity
  8
0
100
AcDbVertex
100
AcDb3dPolylineVertex
 10
0.272667
 20
0.401
 30
0.0
 70
    32
  0
VERTEX
  5
60B6B
100
AcDbEntity
  8
0
100
AcDbVertex
100
AcDb3dPolylineVertex
 10
0.272667
 20
0.536
 30
0.0
 70
    32
  0
VERTEX
  5
60B6C
100
AcDbEntity
  8
0
100
AcDbVertex
100
AcDb3dPolylineVertex
 10
0.062
 20
0.536
 30
0.0
 70
    32
  0
VERTEX
  5
60B6D
100
AcDbEntity
  8
0
100
AcDbVertex
100
AcDb3dPolylineVertex
 10
0.062
 20
0.401
 30
0.0
 70
    32
  0
SEQEND
  5
60B6E
100
AcDbEntity
  8
0
  0
LINE
  5
60B6F
100
AcDbEntity
  8
0
100
AcDbLine
 10
1.698
 20
-2.089
 30
0.0
 11
1.487333
 21
-2.089
 31
0.0
  0
LINE
  5
60B70
100
AcDbEntity
  8
0
100
AcDbLine
 10
1.425333
 20
-2.089
 30
0.0
 11
1.214667
 21
-2.089
 31
0.0
  0
LINE
  5
60B71
100
AcDbEntity
  8
0
100
AcDbLine
 10
1.152667
 20
-2.089
 30
0.0
 11
0.942
 21
-2.089
 31
0.0
  0
LINE
  5
60B72
100
AcDbEntity
  8
0
100
AcDbLine
 10
0.818
 20
0.401
 30
0.0
 11
0.607333
 21
0.401
 31
0.0
  0
LINE
  5
60B73
100
AcDbEntity
  8
0
100
AcDbLine
 10
0.545333
 20
0.401
 30
0.0
 11
0.334667
 21
0.401
 31
0.0
  0
LINE
  5
60B74
100
AcDbEntity
  8
0
100
AcDbLine
 10
0.272667
 20
0.401
 30
0.0
 11
0.062
 21
0.401
 31
0.0
  0
TEXT
  5
60B75
100
AcDbEntity
  8
0
100
AcDbText
 39
0.0
 10
0.349383
 20
0.735182
 30
2.062
 40
0.083465
  1
A1
100
AcDbText
  0
TEXT
  5
60B76
100
AcDbEntity
  8
0
100
AcDbText
 39
0.0
 10
1.28187
 20
0.737185
 30
2.062
 40
0.083465
  1
A2
100
AcDbText
  0
LINE
  5
60B77
100
AcDbEntity
  8
0
100
AcDbLine
 10
0.550249
 20
-2.089
 30
0.0
 11
0.760915
 21
-2.089
 31
0.0
  0
POLYLINE
  5
60B78
100
AcDbEntity
  8
0
100
AcDb3dPolyline
 66
     1
 10
0.0
 20
0.0
 30
0.0
 70
     8
  0
VERTEX
  5
60B79
100
AcDbEntity
  8
0
100
AcDbVertex
100
AcDb3dPolylineVertex
 10
0.550249
 20
-2.089
 30
0.0
 70
    32
  0
VERTEX
  5
60B7A
100
AcDbEntity
  8
0
100
AcDbVertex
100
AcDb3dPolylineVertex
 10
0.550249
 20
-2.224
 30
0.0
 70
    32
  0
VERTEX
  5
60B7B
100
AcDbEntity
  8
0
100
AcDbVertex
100
AcDb3dPolylineVertex
 10
0.760915
 20
-2.224
 30
0.0
 70
    32
  0
VERTEX
  5
60B7C
100
AcDbEntity
  8
0
100
AcDbVertex
100
AcDb3dPolylineVertex
 10
0.760915
 20
-2.089
 30
0.0
 70
    32
  0
SEQEND
  5
60B7D
100
AcDbEntity
  8
0
  0
POLYLINE
  5
60B7E
100
AcDbEntity
  8
0
100
AcDb3dPolyline
 66
     1
 10
0.0
 20
0.0
 30
0.0
 70
     8
  0
VERTEX
  5
60B7F
100
AcDbEntity
  8
0
100
AcDbVertex
100
AcDb3dPolylineVertex
 10
0.550249
 20
-2.089
 30
0.187
 70
    32
  0
VERTEX
  5
60B80
100
AcDbEntity
  8
0
100
AcDbVertex
100
AcDb3dPolylineVertex
 10
0.550249
 20
-2.224
 30
0.187
 70
    32
  0
VERTEX
  5
60B81
100
AcDbEntity
  8
0
100
AcDbVertex
100
AcDb3dPolylineVertex
 10
0.760915
 20
-2.224
 30
0.187
 70
    32
  0
VERTEX
  5
60B82
100
AcDbEntity
  8
0
100
AcDbVertex
100
AcDb3dPolylineVertex
 10
0.760915
 20
-2.089
 30
0.187
 70
    32
  0
SEQEND
  5
60B83
100
AcDbEntity
  8
0
  0
POLYLINE
  5
60B84
100
AcDbEntity
  8
0
100
AcDbPolygonMesh
 66
     1
 10
0.0
 20
0.0
 30
0.0
 70
    16
 71
     6
 72
     3
  0
VERTEX
  5
60B85
100
AcDbEntity
  8
0
100
AcDbVertex
100
AcDbPolygonMeshVertex
 10
0.822915
 20
-2.286
 30
0.187
 70
    64
  0
VERTEX
  5
60B86
100
AcDbEntity
  8
0
100
AcDbVertex
100
AcDbPolygonMeshVertex
 10
0.822915
 20
-2.286
 30
0.0
 70
    64
  0
VERTEX
  5
60B87
100
AcDbEntity
  8
0
100
AcDbVertex
100
AcDbPolygonMeshVertex
 10
0.822915
 20
-2.286
 30
0.0
 70
    64
  0
VERTEX
  5
60B88
100
AcDbEntity
  8
0
100
AcDbVertex
100
AcDbPolygonMeshVertex
 10
0.215582
 20
-2.286
 30
0.187
 70
    64
  0
VERTEX
  5
60B89
100
AcDbEntity
  8
0
100
AcDbVertex
100
AcDbPolygonMeshVertex
 10
0.215582
 20
-2.286
 30
0.0
 70
    64
  0
VERTEX
  5
60B8A
100
AcDbEntity
  8
0
100
AcDbVertex
100
AcDbPolygonMeshVertex
 10
0.215582
 20
-2.286
 30
0.0
 70
    64
  0
VERTEX
  5
60B8B
100
AcDbEntity
  8
0
100
AcDbVertex
100
AcDbPolygonMeshVertex
 10
0.215582
 20
-2.224
 30
0.187
 70
    64
  0
VERTEX
  5
60B8C
100
AcDbEntity
  8
0
100
AcDbVertex
100
AcDbPolygonMeshVertex
 10
0.215582
 20
-2.224
 30
0.0
 70
    64
  0
VERTEX
  5
60B8D
100
AcDbEntity
  8
0
100
AcDbVertex
100
AcDbPolygonMeshVertex
 10
0.215582
 20
-2.286
 30
0.0
 70
    64
  0
VERTEX
  5
60B8E
100
AcDbEntity
  8
0
100
AcDbVertex
100
AcDbPolygonMeshVertex
 10
0.822915
 20
-2.224
 30
0.187
 70
    64
  0
VERTEX
  5
60B8F
100
AcDbEntity
  8
0
100
AcDbVertex
100
AcDbPolygonMeshVertex
 10
0.822915
 20
-2.224
 30
0.0
 70
    64
  0
VERTEX
  5
60B90
100
AcDbEntity
  8
0
100
AcDbVertex
100
AcDbPolygonMeshVertex
 10
0.822915
 20
-2.286
 30
0.0
 70
    64
  0
VERTEX
  5
60B91
100
AcDbEntity
  8
0
100
AcDbVertex
100
AcDbPolygonMeshVertex
 10
0.822915
 20
-2.224
 30
0.187
 70
    64
  0
VERTEX
  5
60B92
100
AcDbEntity
  8
0
100
AcDbVertex
100
AcDbPolygonMeshVertex
 10
0.822915
 20
-2.224
 30
0.187
 70
    64
  0
VERTEX
  5
60B93
100
AcDbEntity
  8
0
100
AcDbVertex
100
AcDbPolygonMeshVertex
 10
0.822915
 20
-2.286
 30
0.187
 70
    64
  0
VERTEX
  5
60B94
100
AcDbEntity
  8
0
100
AcDbVertex
100
AcDbPolygonMeshVertex
 10
0.215582
 20
-2.224
 30
0.187
 70
    64
  0
VERTEX
  5
60B95
100
AcDbEntity
  8
0
100
AcDbVertex
100
AcDbPolygonMeshVertex
 10
0.215582
 20
-2.224
 30
0.187
 70
    64
  0
VERTEX
  5
60B96
100
AcDbEntity
  8
0
100
AcDbVertex
100
AcDbPolygonMeshVertex
 10
0.215582
 20
-2.286
 30
0.187
 70
    64
  0
SEQEND
  5
60B97
100
AcDbEntity
  8
0
  0
POLYLINE
  5
60B98
100
AcDbEntity
  8
0
100
AcDbPolygonMesh
 66
     1
 10
0.0
 20
0.0
 30
0.0
 70
    16
 71
     6
 72
     3
  0
VERTEX
  5
60B99
100
AcDbEntity
  8
0
100
AcDbVertex
100
AcDbPolygonMeshVertex
 10
0.822915
 20
-2.224
 30
0.187
 70
    64
  0
VERTEX
  5
60B9A
100
AcDbEntity
  8
0
100
AcDbVertex
100
AcDbPolygonMeshVertex
 10
0.822915
 20
-2.224
 30
0.0
 70
    64
  0
VERTEX
  5
60B9B
100
AcDbEntity
  8
0
100
AcDbVertex
100
AcDbPolygonMeshVertex
 10
0.822915
 20
-2.224
 30
0.0
 70
    64
  0
VERTEX
  5
60B9C
100
AcDbEntity
  8
0
100
AcDbVertex
100
AcDbPolygonMeshVertex
 10
0.488249
 20
-2.224
 30
0.187
 70
    64
  0
VERTEX
  5
60B9D
100
AcDbEntity
  8
0
100
AcDbVertex
100
AcDbPolygonMeshVertex
 10
0.488249
 20
-2.224
 30
0.0
 70
    64
  0
VERTEX
  5
60B9E
100
AcDbEntity
  8
0
100
AcDbVertex
100
AcDbPolygonMeshVertex
 10
0.488249
 20
-2.224
 30
0.0
 70
    64
  0
VERTEX
  5
60B9F
100
AcDbEntity
  8
0
100
AcDbVertex
100
AcDbPolygonMeshVertex
 10
0.488249
 20
-2.027
 30
0.187
 70
    64
  0
VERTEX
  5
60BA0
100
AcDbEntity
  8
0
100
AcDbVertex
100
AcDbPolygonMeshVertex
 10
0.488249
 20
-2.027
 30
0.0
 70
    64
  0
VERTEX
  5
60BA1
100
AcDbEntity
  8
0
100
AcDbVertex
100
AcDbPolygonMeshVertex
 10
0.488249
 20
-2.224
 30
0.0
 70
    64
  0
VERTEX
  5
60BA2
100
AcDbEntity
  8
0
100
AcDbVertex
100
AcDbPolygonMeshVertex
 10
0.822915
 20
-2.027
 30
0.187
 70
    64
  0
VERTEX
  5
60BA3
100
AcDbEntity
  8
0
100
AcDbVertex
100
AcDbPolygonMeshVertex
 10
0.822915
 20
-2.027
 30
0.0
 70
    64
  0
VERTEX
  5
60BA4
100
AcDbEntity
  8
0
100
AcDbVertex
100
AcDbPolygonMeshVertex
 10
0.822915
 20
-2.224
 30
0.0
 70
    64
  0
VERTEX
  5
60BA5
100
AcDbEntity
  8
0
100
AcDbVertex
100
AcDbPolygonMeshVertex
 10
0.822915
 20
-2.027
 30
0.187
 70
    64
  0
VERTEX
  5
60BA6
100
AcDbEntity
  8
0
100
AcDbVertex
100
AcDbPolygonMeshVertex
 10
0.822915
 20
-2.027
 30
0.187
 70
    64
  0
VERTEX
  5
60BA7
100
AcDbEntity
  8
0
100
AcDbVertex
100
AcDbPolygonMeshVertex
 10
0.822915
 20
-2.224
 30
0.187
 70
    64
  0
VERTEX
  5
60BA8
100
AcDbEntity
  8
0
100
AcDbVertex
100
AcDbPolygonMeshVertex
 10
0.488249
 20
-2.027
 30
0.187
 70
    64
  0
VERTEX
  5
60BA9
100
AcDbEntity
  8
0
100
AcDbVertex
100
AcDbPolygonMeshVertex
 10
0.488249
 20
-2.027
 30
0.187
 70
    64
  0
VERTEX
  5
60BAA
100
AcDbEntity
  8
0
100
AcDbVertex
100
AcDbPolygonMeshVertex
 10
0.488249
 20
-2.224
 30
0.187
 70
    64
  0
SEQEND
  5
60BAB
100
AcDbEntity
  8
0
  0
LINE
  5
60BAC
100
AcDbEntity
  8
0
100
AcDbLine
 10
0.550249
 20
-2.089
 30
0.187
 11
0.760915
 21
-2.089
 31
0.187
  0
POLYLINE
  5
60BAD
100
AcDbEntity
  8
0
  6
CONTINUOUS
100
AcDb3dPolyline
 66
     1
 10
0.0
 20
0.0
 30
0.0
 70
     8
  0
VERTEX
  5
60BAE
100
AcDbEntity
  8
0
  6
CONTINUOUS
100
AcDbVertex
100
AcDb3dPolylineVertex
 10
0.0
 20
-2.089
 30
3.8634
 70
    32
1001
ACAD
1000
R13OBJECT
1002
{
1005
60BAD
1002
}
  0
VERTEX
  5
60BAF
100
AcDbEntity
  8
0
  6
CONTINUOUS
100
AcDbVertex
100
AcDb3dPolylineVertex
 10
0.0
 20
-2.089
 30
1.318
 70
    32
1001
ACAD
1000
R13OBJECT
1002
{
1005
60BAD
1002
}
  0
SEQEND
  5
60BB0
100
AcDbEntity
  8
0
  6
CONTINUOUS
1001
ACAD
1000
R13OBJECT
1002
{
1005
60BAD
1002
}
  0
POLYLINE
  5
60BB1
100
AcDbEntity
  8
0
  6
CONTINUOUS
100
AcDb3dPolyline
 66
     1
 10
0.0
 20
0.0
 30
0.0
 70
     8
1001
ACAD
1000
R13OBJECT
1002
{
1005
60BAD
1002
}
  0
VERTEX
  5
60BB2
100
AcDbEntity
  8
0
  6
CONTINUOUS
100
AcDbVertex
100
AcDb3dPolylineVertex
 10
1.76
 20
-2.089
 30
1.318
 70
    32
1001
ACAD
1000
R13OBJECT
1002
{
1005
60BAD
1002
}
  0
VERTEX
  5
60BB3
100
AcDbEntity
  8
0
  6
CONTINUOUS
100
AcDbVertex
100
AcDb3dPolylineVertex
 10
0.0
 20
-2.089
 30
1.318
 70
    32
1001
ACAD
1000
R13OBJECT
1002
{
1005
60BAD
1002
}
  0
SEQEND
  5
60BB4
100
AcDbEntity
  8
0
  6
CONTINUOUS
1001
ACAD
1000
R13OBJECT
1002
{
1005
60BAD
1002
}
  0
POLYLINE
  5
60BB5
100
AcDbEntity
  8
0
  6
CONTINUOUS
100
AcDb3dPolyline
 66
     1
 10
0.0
 20
0.0
 30
0.0
 70
     8
1001
ACAD
1000
R13OBJECT
1002
{
1005
60BAD
1002
}
  0
VERTEX
  5
60BB6
100
AcDbEntity
  8
0
  6
CONTINUOUS
100
AcDbVertex
100
AcDb3dPolylineVertex
 10
1.76
 20
-2.089
 30
3.8634
 70
    32
1001
ACAD
1000
R13OBJECT
1002
{
1005
60BAD
1002
}
  0
VERTEX
  5
60BB7
100
AcDbEntity
  8
0
  6
CONTINUOUS
100
AcDbVertex
100
AcDb3dPolylineVertex
 10
1.76
 20
-2.089
 30
1.318
 70
    32
1001
ACAD
1000
R13OBJECT
1002
{
1005
60BAD
1002
}
  0
SEQEND
  5
60BB8
100
AcDbEntity
  8
0
  6
CONTINUOUS
1001
ACAD
1000
R13OBJECT
1002
{
1005
60BAD
1002
}
  0
POLYLINE
  5
60BB9
100
AcDbEntity
  8
0
  6
CONTINUOUS
100
AcDb3dPolyline
 66
     1
 10
0.0
 20
0.0
 30
0.0
 70
     8
1001
ACAD
1000
R13OBJECT
1002
{
1005
60BAD
1002
}
  0
VERTEX
  5
60BBA
100
AcDbEntity
  8
0
  6
CONTINUOUS
100
AcDbVertex
100
AcDb3dPolylineVertex
 10
0.0
 20
-2.089
 30
3.8634
 70
    32
1001
ACAD
1000
R13OBJECT
1002
{
1005
60BAD
1002
}
  0
VERTEX
  5
60BBB
100
AcDbEntity
  8
0
  6
CONTINUOUS
100
AcDbVertex
100
AcDb3dPolylineVertex
 10
1.76
 20
-2.089
 30
3.8634
 70
    32
1001
ACAD
1000
R13OBJECT
1002
{
1005
60BAD
1002
}
  0
SEQEND
  5
60BBC
100
AcDbEntity
  8
0
  6
CONTINUOUS
1001
ACAD
1000
R13OBJECT
1002
{
1005
60BAD
1002
}
  0
POLYLINE
  5
60BBD
100
AcDbEntity
  8
0
  6
CONTINUOUS
100
AcDb3dPolyline
 66
     1
 10
0.0
 20
0.0
 30
0.0
 70
     8
  0
VERTEX
  5
60BBE
100
AcDbEntity
  8
0
  6
CONTINUOUS
100
AcDbVertex
100
AcDb3dPolylineVertex
 10
0.0
 20
0.401
 30
3.8634
 70
    32
1001
ACAD
1000
R13OBJECT
1002
{
1005
60BBD
1002
}
  0
VERTEX
  5
60BBF
100
AcDbEntity
  8
0
  6
CONTINUOUS
100
AcDbVertex
100
AcDb3dPolylineVertex
 10
0.0
 20
0.401
 30
1.318
 70
    32
1001
ACAD
1000
R13OBJECT
1002
{
1005
60BBD
1002
}
  0
SEQEND
  5
60BC0
100
AcDbEntity
  8
0
  6
CONTINUOUS
1001
ACAD
1000
R13OBJECT
1002
{
1005
60BBD
1002
}
  0
POLYLINE
  5
60BC1
100
AcDbEntity
  8
0
  6
CONTINUOUS
100
AcDb3dPolyline
 66
     1
 10
0.0
 20
0.0
 30
0.0
 70
     8
1001
ACAD
1000
R13OBJECT
1002
{
1005
60BBD
1002
}
  0
VERTEX
  5
60BC2
100
AcDbEntity
  8
0
  6
CONTINUOUS
100
AcDbVertex
100
AcDb3dPolylineVertex
 10
0.0
 20
-2.089
 30
1.318
 70
    32
1001
ACAD
1000
R13OBJECT
1002
{
1005
60BBD
1002
}
  0
VERTEX
  5
60BC3
100
AcDbEntity
  8
0
  6
CONTINUOUS
100
AcDbVertex
100
AcDb3dPolylineVertex
 10
0.0
 20
0.401
 30
1.318
 70
    32
1001
ACAD
1000
R13OBJECT
1002
{
1005
60BBD
1002
}
  0
SEQEND
  5
60BC4
100
AcDbEntity
  8
0
  6
CONTINUOUS
1001
ACAD
1000
R13OBJECT
1002
{
1005
60BBD
1002
}
  0
POLYLINE
  5
60BC5
100
AcDbEntity
  8
0
  6
CONTINUOUS
100
AcDb3dPolyline
 66
     1
 10
0.0
 20
0.0
 30
0.0
 70
     8
1001
ACAD
1000
R13OBJECT
1002
{
1005
60BBD
1002
}
  0
VERTEX
  5
60BC6
100
AcDbEntity
  8
0
  6
CONTINUOUS
100
AcDbVertex
100
AcDb3dPolylineVertex
 10
0.0
 20
-2.089
 30
3.8634
 70
    32
1001
ACAD
1000
R13OBJECT
1002
{
1005
60BBD
1002
}
  0
VERTEX
  5
60BC7
100
AcDbEntity
  8
0
  6
CONTINUOUS
100
AcDbVertex
100
AcDb3dPolylineVertex
 10
0.0
 20
-2.089
 30
1.318
 70
    32
1001
ACAD
1000
R13OBJECT
1002
{
1005
60BBD
1002
}
  0
SEQEND
  5
60BC8
100
AcDbEntity
  8
0
  6
CONTINUOUS
1001
ACAD
1000
R13OBJECT
1002
{
1005
60BBD
1002
}
  0
POLYLINE
  5
60BC9
100
AcDbEntity
  8
0
  6
CONTINUOUS
100
AcDb3dPolyline
 66
     1
 10
0.0
 20
0.0
 30
0.0
 70
     8
1001
ACAD
1000
R13OBJECT
1002
{
1005
60BBD
1002
}
  0
VERTEX
  5
60BCA
100
AcDbEntity
  8
0
  6
CONTINUOUS
100
AcDbVertex
100
AcDb3dPolylineVertex
 10
0.0
 20
0.401
 30
3.8634
 70
    32
1001
ACAD
1000
R13OBJECT
1002
{
1005
60BBD
1002
}
  0
VERTEX
  5
60BCB
100
AcDbEntity
  8
0
  6
CONTINUOUS
100
AcDbVertex
100
AcDb3dPolylineVertex
 10
0.0
 20
-2.089
 30
3.8634
 70
    32
1001
ACAD
1000
R13OBJECT
1002
{
1005
60BBD
1002
}
  0
SEQEND
  5
60BCC
100
AcDbEntity
  8
0
  6
CONTINUOUS
1001
ACAD
1000
R13OBJECT
1002
{
1005
60BBD
1002
}
  0
POLYLINE
  5
60BCD
100
AcDbEntity
  8
0
  6
CONTINUOUS
100
AcDb3dPolyline
 66
     1
 10
0.0
 20
0.0
 30
0.0
 70
     8
  0
VERTEX
  5
60BCE
100
AcDbEntity
  8
0
  6
CONTINUOUS
100
AcDbVertex
100
AcDb3dPolylineVertex
 10
1.76
 20
0.401
 30
3.8634
 70
    32
1001
ACAD
1000
R13OBJECT
1002
{
1005
60BCD
1002
}
  0
VERTEX
  5
60BCF
100
AcDbEntity
  8
0
  6
CONTINUOUS
100
AcDbVertex
100
AcDb3dPolylineVertex
 10
1.76
 20
0.401
 30
1.318
 70
    32
1001
ACAD
1000
R13OBJECT
1002
{
1005
60BCD
1002
}
  0
SEQEND
  5
60BD0
100
AcDbEntity
  8
0
  6
CONTINUOUS
1001
ACAD
1000
R13OBJECT
1002
{
1005
60BCD
1002
}
  0
POLYLINE
  5
60BD1
100
AcDbEntity
  8
0
  6
CONTINUOUS
100
AcDb3dPolyline
 66
     1
 10
0.0
 20
0.0
 30
0.0
 70
     8
1001
ACAD
1000
R13OBJECT
1002
{
1005
60BCD
1002
}
  0
VERTEX
  5
60BD2
100
AcDbEntity
  8
0
  6
CONTINUOUS
100
AcDbVertex
100
AcDb3dPolylineVertex
 10
0.0
 20
0.401
 30
1.318
 70
    32
1001
ACAD
1000
R13OBJECT
1002
{
1005
60BCD
1002
}
  0
VERTEX
  5
60BD3
100
AcDbEntity
  8
0
  6
CONTINUOUS
100
AcDbVertex
100
AcDb3dPolylineVertex
 10
1.76
 20
0.401
 30
1.318
 70
    32
1001
ACAD
1000
R13OBJECT
1002
{
1005
60BCD
1002
}
  0
SEQEND
  5
60BD4
100
AcDbEntity
  8
0
  6
CONTINUOUS
1001
ACAD
1000
R13OBJECT
1002
{
1005
60BCD
1002
}
  0
POLYLINE
  5
60BD5
100
AcDbEntity
  8
0
  6
CONTINUOUS
100
AcDb3dPolyline
 66
     1
 10
0.0
 20
0.0
 30
0.0
 70
     8
1001
ACAD
1000
R13OBJECT
1002
{
1005
60BCD
1002
}
  0
VERTEX
  5
60BD6
100
AcDbEntity
  8
0
  6
CONTINUOUS
100
AcDbVertex
100
AcDb3dPolylineVertex
 10
0.0
 20
0.401
 30
3.8634
 70
    32
1001
ACAD
1000
R13OBJECT
1002
{
1005
60BCD
1002
}
  0
VERTEX
  5
60BD7
100
AcDbEntity
  8
0
  6
CONTINUOUS
100
AcDbVertex
100
AcDb3dPolylineVertex
 10
0.0
 20
0.401
 30
1.318
 70
    32
1001
ACAD
1000
R13OBJECT
1002
{
1005
60BCD
1002
}
  0
SEQEND
  5
60BD8
100
AcDbEntity
  8
0
  6
CONTINUOUS
1001
ACAD
1000
R13OBJECT
1002
{
1005
60BCD
1002
}
  0
POLYLINE
  5
60BD9
100
AcDbEntity
  8
0
  6
CONTINUOUS
100
AcDb3dPolyline
 66
     1
 10
0.0
 20
0.0
 30
0.0
 70
     8
1001
ACAD
1000
R13OBJECT
1002
{
1005
60BCD
1002
}
  0
VERTEX
  5
60BDA
100
AcDbEntity
  8
0
  6
CONTINUOUS
100
AcDbVertex
100
AcDb3dPolylineVertex
 10
1.76
 20
0.401
 30
3.8634
 70
    32
1001
ACAD
1000
R13OBJECT
1002
{
1005
60BCD
1002
}
  0
VERTEX
  5
60BDB
100
AcDbEntity
  8
0
  6
CONTINUOUS
100
AcDbVertex
100
AcDb3dPolylineVertex
 10
0.0
 20
0.401
 30
3.8634
 70
    32
1001
ACAD
1000
R13OBJECT
1002
{
1005
60BCD
1002
}
  0
SEQEND
  5
60BDC
100
AcDbEntity
  8
0
  6
CONTINUOUS
1001
ACAD
1000
R13OBJECT
1002
{
1005
60BCD
1002
}
  0
POLYLINE
  5
60BDD
100
AcDbEntity
  8
0
  6
CONTINUOUS
100
AcDb3dPolyline
 66
     1
 10
0.0
 20
0.0
 30
0.0
 70
     8
  0
VERTEX
  5
60BDE
100
AcDbEntity
  8
0
  6
CONTINUOUS
100
AcDbVertex
100
AcDb3dPolylineVertex
 10
1.76
 20
-2.089
 30
3.8634
 70
    32
1001
ACAD
1000
R13OBJECT
1002
{
1005
60BDD
1002
}
  0
VERTEX
  5
60BDF
100
AcDbEntity
  8
0
  6
CONTINUOUS
100
AcDbVertex
100
AcDb3dPolylineVertex
 10
1.76
 20
-2.089
 30
1.318
 70
    32
1001
ACAD
1000
R13OBJECT
1002
{
1005
60BDD
1002
}
  0
SEQEND
  5
60BE0
100
AcDbEntity
  8
0
  6
CONTINUOUS
1001
ACAD
1000
R13OBJECT
1002
{
1005
60BDD
1002
}
  0
POLYLINE
  5
60BE1
100
AcDbEntity
  8
0
  6
CONTINUOUS
100
AcDb3dPolyline
 66
     1
 10
0.0
 20
0.0
 30
0.0
 70
     8
1001
ACAD
1000
R13OBJECT
1002
{
1005
60BDD
1002
}
  0
VERTEX
  5
60BE2
100
AcDbEntity
  8
0
  6
CONTINUOUS
100
AcDbVertex
100
AcDb3dPolylineVertex
 10
1.76
 20
0.401
 30
1.318
 70
    32
1001
ACAD
1000
R13OBJECT
1002
{
1005
60BDD
1002
}
  0
VERTEX
  5
60BE3
100
AcDbEntity
  8
0
  6
CONTINUOUS
100
AcDbVertex
100
AcDb3dPolylineVertex
 10
1.76
 20
-2.089
 30
1.318
 70
    32
1001
ACAD
1000
R13OBJECT
1002
{
1005
60BDD
1002
}
  0
SEQEND
  5
60BE4
100
AcDbEntity
  8
0
  6
CONTINUOUS
1001
ACAD
1000
R13OBJECT
1002
{
1005
60BDD
1002
}
  0
POLYLINE
  5
60BE5
100
AcDbEntity
  8
0
  6
CONTINUOUS
100
AcDb3dPolyline
 66
     1
 10
0.0
 20
0.0
 30
0.0
 70
     8
1001
ACAD
1000
R13OBJECT
1002
{
1005
60BDD
1002
}
  0
VERTEX
  5
60BE6
100
AcDbEntity
  8
0
  6
CONTINUOUS
100
AcDbVertex
100
AcDb3dPolylineVertex
 10
1.76
 20
0.401
 30
3.8634
 70
    32
1001
ACAD
1000
R13OBJECT
1002
{
1005
60BDD
1002
}
  0
VERTEX
  5
60BE7
100
AcDbEntity
  8
0
  6
CONTINUOUS
100
AcDbVertex
100
AcDb3dPolylineVertex
 10
1.76
 20
0.401
 30
1.318
 70
    32
1001
ACAD
1000
R13OBJECT
1002
{
1005
60BDD
1002
}
  0
SEQEND
  5
60BE8
100
AcDbEntity
  8
0
  6
CONTINUOUS
1001
ACAD
1000
R13OBJECT
1002
{
1005
60BDD
1002
}
  0
POLYLINE
  5
60BE9
100
AcDbEntity
  8
0
  6
CONTINUOUS
100
AcDb3dPolyline
 66
     1
 10
0.0
 20
0.0
 30
0.0
 70
     8
1001
ACAD
1000
R13OBJECT
1002
{
1005
60BDD
1002
}
  0
VERTEX
  5
60BEA
100
AcDbEntity
  8
0
  6
CONTINUOUS
100
AcDbVertex
100
AcDb3dPolylineVertex
 10
1.76
 20
-2.089
 30
3.8634
 70
    32
1001
ACAD
1000
R13OBJECT
1002
{
1005
60BDD
1002
}
  0
VERTEX
  5
60BEB
100
AcDbEntity
  8
0
  6
CONTINUOUS
100
AcDbVertex
100
AcDb3dPolylineVertex
 10
1.76
 20
0.401
 30
3.8634
 70
    32
1001
ACAD
1000
R13OBJECT
1002
{
1005
60BDD
1002
}
  0
SEQEND
  5
60BEC
100
AcDbEntity
  8
0
  6
CONTINUOUS
1001
ACAD
1000
R13OBJECT
1002
{
1005
60BDD
1002
}
  0
3DFACE
  5
60BED
100
AcDbEntity
  8
0
100
AcDbFace
 10
1.76
 20
-2.089
 30
1.318
 11
1.76
 21
-2.089
 31
1.318
 12
0.0
 22
-2.089
 32
1.318
 13
0.0
 23
-2.089
 33
1.318
  0
3DFACE
  5
60BEE
100
AcDbEntity
  8
0
100
AcDbFace
 10
0.0
 20
-2.089
 30
1.318
 11
0.0
 21
-2.089
 31
1.318
 12
0.0
 22
-2.089
 32
1.318
 13
0.0
 23
0.401
 33
1.318
  0
3DFACE
  5
60BEF
100
AcDbEntity
  8
0
100
AcDbFace
 10
0.0
 20
0.401
 30
1.318
 11
0.0
 21
-2.089
 31
1.318
 12
1.76
 22
-2.089
 32
1.318
 13
1.76
 23
0.401
 33
1.318
  0
3DFACE
  5
60BF0
100
AcDbEntity
  8
0
100
AcDbFace
 10
1.76
 20
0.401
 30
3.8634
 11
1.76
 21
0.401
 31
3.8634
 12
0.0
 22
0.401
 32
3.8634
 13
0.0
 23
0.401
 33
3.8634
  0
POLYLINE
  5
60BF1
100
AcDbEntity
  8
0
100
AcDbPolygonMesh
 66
     1
 10
0.0
 20
0.0
 30
0.0
 70
    16
 71
     6
 72
     3
  0
VERTEX
  5
60BF2
100
AcDbEntity
  8
0
100
AcDbVertex
100
AcDbPolygonMeshVertex
 10
1.2455
 20
-0.567
 30
4.0744
 70
    64
  0
VERTEX
  5
60BF3
100
AcDbEntity
  8
0
100
AcDbVertex
100
AcDbPolygonMeshVertex
 10
1.2455
 20
-0.567
 30
3.8974
 70
    64
  0
VERTEX
  5
60BF4
100
AcDbEntity
  8
0
100
AcDbVertex
100
AcDbPolygonMeshVertex
 10
1.2455
 20
-0.567
 30
3.8974
 70
    64
  0
VERTEX
  5
60BF5
100
AcDbEntity
  8
0
100
AcDbVertex
100
AcDbPolygonMeshVertex
 10
1.076
 20
-0.567
 30
4.0744
 70
    64
  0
VERTEX
  5
60BF6
100
AcDbEntity
  8
0
100
AcDbVertex
100
AcDbPolygonMeshVertex
 10
1.076
 20
-0.567
 30
3.8974
 70
    64
  0
VERTEX
  5
60BF7
100
AcDbEntity
  8
0
100
AcDbVertex
100
AcDbPolygonMeshVertex
 10
1.076
 20
-0.567
 30
3.8974
 70
    64
  0
VERTEX
  5
60BF8
100
AcDbEntity
  8
0
100
AcDbVertex
100
AcDbPolygonMeshVertex
 10
1.076
 20
-0.214
 30
4.0744
 70
    64
  0
VERTEX
  5
60BF9
100
AcDbEntity
  8
0
100
AcDbVertex
100
AcDbPolygonMeshVertex
 10
1.076
 20
-0.214
 30
3.8974
 70
    64
  0
VERTEX
  5
60BFA
100
AcDbEntity
  8
0
100
AcDbVertex
100
AcDbPolygonMeshVertex
 10
1.076
 20
-0.567
 30
3.8974
 70
    64
  0
VERTEX
  5
60BFB
100
AcDbEntity
  8
0
100
AcDbVertex
100
AcDbPolygonMeshVertex
 10
1.2455
 20
-0.214
 30
4.0744
 70
    64
  0
VERTEX
  5
60BFC
100
AcDbEntity
  8
0
100
AcDbVertex
100
AcDbPolygonMeshVertex
 10
1.2455
 20
-0.214
 30
3.8974
 70
    64
  0
VERTEX
  5
60BFD
100
AcDbEntity
  8
0
100
AcDbVertex
100
AcDbPolygonMeshVertex
 10
1.2455
 20
-0.567
 30
3.8974
 70
    64
  0
VERTEX
  5
60BFE
100
AcDbEntity
  8
0
100
AcDbVertex
100
AcDbPolygonMeshVertex
 10
1.2455
 20
-0.214
 30
4.0744
 70
    64
  0
VERTEX
  5
60BFF
100
AcDbEntity
  8
0
100
AcDbVertex
100
AcDbPolygonMeshVertex
 10
1.2455
 20
-0.214
 30
4.0744
 70
    64
  0
VERTEX
  5
60C00
100
AcDbEntity
  8
0
100
AcDbVertex
100
AcDbPolygonMeshVertex
 10
1.2455
 20
-0.567
 30
4.0744
 70
    64
  0
VERTEX
  5
60C01
100
AcDbEntity
  8
0
100
AcDbVertex
100
AcDbPolygonMeshVertex
 10
1.076
 20
-0.214
 30
4.0744
 70
    64
  0
VERTEX
  5
60C02
100
AcDbEntity
  8
0
100
AcDbVertex
100
AcDbPolygonMeshVertex
 10
1.076
 20
-0.214
 30
4.0744
 70
    64
  0
VERTEX
  5
60C03
100
AcDbEntity
  8
0
100
AcDbVertex
100
AcDbPolygonMeshVertex
 10
1.076
 20
-0.567
 30
4.0744
 70
    64
  0
SEQEND
  5
60C04
100
AcDbEntity
  8
0
  0
POLYLINE
  5
60C05
100
AcDbEntity
  8
0
100
AcDbPolygonMesh
 66
     1
 10
0.0
 20
0.0
 30
0.0
 70
    16
 71
     6
 72
     3
  0
VERTEX
  5
60C06
100
AcDbEntity
  8
0
100
AcDbVertex
100
AcDbPolygonMeshVertex
 10
1.2455
 20
-0.567
 30
3.8974
 70
    64
  0
VERTEX
  5
60C07
100
AcDbEntity
  8
0
100
AcDbVertex
100
AcDbPolygonMeshVertex
 10
1.2455
 20
-0.567
 30
3.8634
 70
    64
  0
VERTEX
  5
60C08
100
AcDbEntity
  8
0
100
AcDbVertex
100
AcDbPolygonMeshVertex
 10
1.2455
 20
-0.567
 30
3.8634
 70
    64
  0
VERTEX
  5
60C09
100
AcDbEntity
  8
0
100
AcDbVertex
100
AcDbPolygonMeshVertex
 10
0.5145
 20
-0.567
 30
3.8974
 70
    64
  0
VERTEX
  5
60C0A
100
AcDbEntity
  8
0
100
AcDbVertex
100
AcDbPolygonMeshVertex
 10
0.5145
 20
-0.567
 30
3.8634
 70
    64
  0
VERTEX
  5
60C0B
100
AcDbEntity
  8
0
100
AcDbVertex
100
AcDbPolygonMeshVertex
 10
0.5145
 20
-0.567
 30
3.8634
 70
    64
  0
VERTEX
  5
60C0C
100
AcDbEntity
  8
0
100
AcDbVertex
100
AcDbPolygonMeshVertex
 10
0.5145
 20
-0.214
 30
3.8974
 70
    64
  0
VERTEX
  5
60C0D
100
AcDbEntity
  8
0
100
AcDbVertex
100
AcDbPolygonMeshVertex
 10
0.5145
 20
-0.214
 30
3.8634
 70
    64
  0
VERTEX
  5
60C0E
100
AcDbEntity
  8
0
100
AcDbVertex
100
AcDbPolygonMeshVertex
 10
0.5145
 20
-0.567
 30
3.8634
 70
    64
  0
VERTEX
  5
60C0F
100
AcDbEntity
  8
0
100
AcDbVertex
100
AcDbPolygonMeshVertex
 10
1.2455
 20
-0.214
 30
3.8974
 70
    64
  0
VERTEX
  5
60C10
100
AcDbEntity
  8
0
100
AcDbVertex
100
AcDbPolygonMeshVertex
 10
1.2455
 20
-0.214
 30
3.8634
 70
    64
  0
VERTEX
  5
60C11
100
AcDbEntity
  8
0
100
AcDbVertex
100
AcDbPolygonMeshVertex
 10
1.2455
 20
-0.567
 30
3.8634
 70
    64
  0
VERTEX
  5
60C12
100
AcDbEntity
  8
0
100
AcDbVertex
100
AcDbPolygonMeshVertex
 10
1.2455
 20
-0.214
 30
3.8974
 70
    64
  0
VERTEX
  5
60C13
100
AcDbEntity
  8
0
100
AcDbVertex
100
AcDbPolygonMeshVertex
 10
1.2455
 20
-0.214
 30
3.8974
 70
    64
  0
VERTEX
  5
60C14
100
AcDbEntity
  8
0
100
AcDbVertex
100
AcDbPolygonMeshVertex
 10
1.2455
 20
-0.567
 30
3.8974
 70
    64
  0
VERTEX
  5
60C15
100
AcDbEntity
  8
0
100
AcDbVertex
100
AcDbPolygonMeshVertex
 10
0.5145
 20
-0.214
 30
3.8974
 70
    64
  0
VERTEX
  5
60C16
100
AcDbEntity
  8
0
100
AcDbVertex
100
AcDbPolygonMeshVertex
 10
0.5145
 20
-0.214
 30
3.8974
 70
    64
  0
VERTEX
  5
60C17
100
AcDbEntity
  8
0
100
AcDbVertex
100
AcDbPolygonMeshVertex
 10
0.5145
 20
-0.567
 30
3.8974
 70
    64
  0
SEQEND
  5
60C18
100
AcDbEntity
  8
0
  0
POLYLINE
  5
60C19
100
AcDbEntity
  8
0
100
AcDbPolygonMesh
 66
     1
 10
0.0
 20
0.0
 30
0.0
 70
    16
 71
     6
 72
     3
  0
VERTEX
  5
60C1A
100
AcDbEntity
  8
0
100
AcDbVertex
100
AcDbPolygonMeshVertex
 10
1.1175
 20
-1.022
 30
4.1134
 70
    64
  0
VERTEX
  5
60C1B
100
AcDbEntity
  8
0
100
AcDbVertex
100
AcDbPolygonMeshVertex
 10
1.1175
 20
-1.022
 30
3.8974
 70
    64
  0
VERTEX
  5
60C1C
100
AcDbEntity
  8
0
100
AcDbVertex
100
AcDbPolygonMeshVertex
 10
1.1175
 20
-1.022
 30
3.8974
 70
    64
  0
VERTEX
  5
60C1D
100
AcDbEntity
  8
0
100
AcDbVertex
100
AcDbPolygonMeshVertex
 10
0.9825
 20
-1.022
 30
4.1134
 70
    64
  0
VERTEX
  5
60C1E
100
AcDbEntity
  8
0
100
AcDbVertex
100
AcDbPolygonMeshVertex
 10
0.9825
 20
-1.022
 30
3.8974
 70
    64
  0
VERTEX
  5
60C1F
100
AcDbEntity
  8
0
100
AcDbVertex
100
AcDbPolygonMeshVertex
 10
0.9825
 20
-1.022
 30
3.8974
 70
    64
  0
VERTEX
  5
60C20
100
AcDbEntity
  8
0
100
AcDbVertex
100
AcDbPolygonMeshVertex
 10
0.9825
 20
-0.677
 30
4.1134
 70
    64
  0
VERTEX
  5
60C21
100
AcDbEntity
  8
0
100
AcDbVertex
100
AcDbPolygonMeshVertex
 10
0.9825
 20
-0.677
 30
3.8974
 70
    64
  0
VERTEX
  5
60C22
100
AcDbEntity
  8
0
100
AcDbVertex
100
AcDbPolygonMeshVertex
 10
0.9825
 20
-1.022
 30
3.8974
 70
    64
  0
VERTEX
  5
60C23
100
AcDbEntity
  8
0
100
AcDbVertex
100
AcDbPolygonMeshVertex
 10
1.1175
 20
-0.677
 30
4.1134
 70
    64
  0
VERTEX
  5
60C24
100
AcDbEntity
  8
0
100
AcDbVertex
100
AcDbPolygonMeshVertex
 10
1.1175
 20
-0.677
 30
3.8974
 70
    64
  0
VERTEX
  5
60C25
100
AcDbEntity
  8
0
100
AcDbVertex
100
AcDbPolygonMeshVertex
 10
1.1175
 20
-1.022
 30
3.8974
 70
    64
  0
VERTEX
  5
60C26
100
AcDbEntity
  8
0
100
AcDbVertex
100
AcDbPolygonMeshVertex
 10
1.1175
 20
-0.677
 30
4.1134
 70
    64
  0
VERTEX
  5
60C27
100
AcDbEntity
  8
0
100
AcDbVertex
100
AcDbPolygonMeshVertex
 10
1.1175
 20
-0.677
 30
4.1134
 70
    64
  0
VERTEX
  5
60C28
100
AcDbEntity
  8
0
100
AcDbVertex
100
AcDbPolygonMeshVertex
 10
1.1175
 20
-1.022
 30
4.1134
 70
    64
  0
VERTEX
  5
60C29
100
AcDbEntity
  8
0
100
AcDbVertex
100
AcDbPolygonMeshVertex
 10
0.9825
 20
-0.677
 30
4.1134
 70
    64
  0
VERTEX
  5
60C2A
100
AcDbEntity
  8
0
100
AcDbVertex
100
AcDbPolygonMeshVertex
 10
0.9825
 20
-0.677
 30
4.1134
 70
    64
  0
VERTEX
  5
60C2B
100
AcDbEntity
  8
0
100
AcDbVertex
100
AcDbPolygonMeshVertex
 10
0.9825
 20
-1.022
 30
4.1134
 70
    64
  0
SEQEND
  5
60C2C
100
AcDbEntity
  8
0
  0
POLYLINE
  5
60C2D
100
AcDbEntity
  8
0
100
AcDbPolygonMesh
 66
     1
 10
0.0
 20
0.0
 30
0.0
 70
    16
 71
     6
 72
     3
  0
VERTEX
  5
60C2E
100
AcDbEntity
  8
0
100
AcDbVertex
100
AcDbPolygonMeshVertex
 10
0.7775
 20
-1.022
 30
4.1134
 70
    64
  0
VERTEX
  5
60C2F
100
AcDbEntity
  8
0
100
AcDbVertex
100
AcDbPolygonMeshVertex
 10
0.7775
 20
-1.022
 30
3.8974
 70
    64
  0
VERTEX
  5
60C30
100
AcDbEntity
  8
0
100
AcDbVertex
100
AcDbPolygonMeshVertex
 10
0.7775
 20
-1.022
 30
3.8974
 70
    64
  0
VERTEX
  5
60C31
100
AcDbEntity
  8
0
100
AcDbVertex
100
AcDbPolygonMeshVertex
 10
0.6425
 20
-1.022
 30
4.1134
 70
    64
  0
VERTEX
  5
60C32
100
AcDbEntity
  8
0
100
AcDbVertex
100
AcDbPolygonMeshVertex
 10
0.6425
 20
-1.022
 30
3.8974
 70
    64
  0
VERTEX
  5
60C33
100
AcDbEntity
  8
0
100
AcDbVertex
100
AcDbPolygonMeshVertex
 10
0.6425
 20
-1.022
 30
3.8974
 70
    64
  0
VERTEX
  5
60C34
100
AcDbEntity
  8
0
100
AcDbVertex
100
AcDbPolygonMeshVertex
 10
0.6425
 20
-0.677
 30
4.1134
 70
    64
  0
VERTEX
  5
60C35
100
AcDbEntity
  8
0
100
AcDbVertex
100
AcDbPolygonMeshVertex
 10
0.6425
 20
-0.677
 30
3.8974
 70
    64
  0
VERTEX
  5
60C36
100
AcDbEntity
  8
0
100
AcDbVertex
100
AcDbPolygonMeshVertex
 10
0.6425
 20
-1.022
 30
3.8974
 70
    64
  0
VERTEX
  5
60C37
100
AcDbEntity
  8
0
100
AcDbVertex
100
AcDbPolygonMeshVertex
 10
0.7775
 20
-0.677
 30
4.1134
 70
    64
  0
VERTEX
  5
60C38
100
AcDbEntity
  8
0
100
AcDbVertex
100
AcDbPolygonMeshVertex
 10
0.7775
 20
-0.677
 30
3.8974
 70
    64
  0
VERTEX
  5
60C39
100
AcDbEntity
  8
0
100
AcDbVertex
100
AcDbPolygonMeshVertex
 10
0.7775
 20
-1.022
 30
3.8974
 70
    64
  0
VERTEX
  5
60C3A
100
AcDbEntity
  8
0
100
AcDbVertex
100
AcDbPolygonMeshVertex
 10
0.7775
 20
-0.677
 30
4.1134
 70
    64
  0
VERTEX
  5
60C3B
100
AcDbEntity
  8
0
100
AcDbVertex
100
AcDbPolygonMeshVertex
 10
0.7775
 20
-0.677
 30
4.1134
 70
    64
  0
VERTEX
  5
60C3C
100
AcDbEntity
  8
0
100
AcDbVertex
100
AcDbPolygonMeshVertex
 10
0.7775
 20
-1.022
 30
4.1134
 70
    64
  0
VERTEX
  5
60C3D
100
AcDbEntity
  8
0
100
AcDbVertex
100
AcDbPolygonMeshVertex
 10
0.6425
 20
-0.677
 30
4.1134
 70
    64
  0
VERTEX
  5
60C3E
100
AcDbEntity
  8
0
100
AcDbVertex
100
AcDbPolygonMeshVertex
 10
0.6425
 20
-0.677
 30
4.1134
 70
    64
  0
VERTEX
  5
60C3F
100
AcDbEntity
  8
0
100
AcDbVertex
100
AcDbPolygonMeshVertex
 10
0.6425
 20
-1.022
 30
4.1134
 70
    64
  0
SEQEND
  5
60C40
100
AcDbEntity
  8
0
  0
LINE
  5
60C41
100
AcDbEntity
  8
0
100
AcDbLine
 10
0.7775
 20
-1.022
 30
4.1134
 11
0.7775
 21
-1.022
 31
3.8974
  0
POLYLINE
  5
60C42
100
AcDbEntity
  8
0
100
AcDbPolygonMesh
 66
     1
 10
0.0
 20
0.0
 30
0.0
 70
    16
 71
     6
 72
     3
  0
VERTEX
  5
60C43
100
AcDbEntity
  8
0
100
AcDbVertex
100
AcDbPolygonMeshVertex
 10
0.684
 20
-0.567
 30
4.0744
 70
    64
  0
VERTEX
  5
60C44
100
AcDbEntity
  8
0
100
AcDbVertex
100
AcDbPolygonMeshVertex
 10
0.684
 20
-0.567
 30
3.8974
 70
    64
  0
VERTEX
  5
60C45
100
AcDbEntity
  8
0
100
AcDbVertex
100
AcDbPolygonMeshVertex
 10
0.684
 20
-0.567
 30
3.8974
 70
    64
  0
VERTEX
  5
60C46
100
AcDbEntity
  8
0
100
AcDbVertex
100
AcDbPolygonMeshVertex
 10
0.5145
 20
-0.567
 30
4.0744
 70
    64
  0
VERTEX
  5
60C47
100
AcDbEntity
  8
0
100
AcDbVertex
100
AcDbPolygonMeshVertex
 10
0.5145
 20
-0.567
 30
3.8974
 70
    64
  0
VERTEX
  5
60C48
100
AcDbEntity
  8
0
100
AcDbVertex
100
AcDbPolygonMeshVertex
 10
0.5145
 20
-0.567
 30
3.8974
 70
    64
  0
VERTEX
  5
60C49
100
AcDbEntity
  8
0
100
AcDbVertex
100
AcDbPolygonMeshVertex
 10
0.5145
 20
-0.214
 30
4.0744
 70
    64
  0
VERTEX
  5
60C4A
100
AcDbEntity
  8
0
100
AcDbVertex
100
AcDbPolygonMeshVertex
 10
0.5145
 20
-0.214
 30
3.8974
 70
    64
  0
VERTEX
  5
60C4B
100
AcDbEntity
  8
0
100
AcDbVertex
100
AcDbPolygonMeshVertex
 10
0.5145
 20
-0.567
 30
3.8974
 70
    64
  0
VERTEX
  5
60C4C
100
AcDbEntity
  8
0
100
AcDbVertex
100
AcDbPolygonMeshVertex
 10
0.684
 20
-0.214
 30
4.0744
 70
    64
  0
VERTEX
  5
60C4D
100
AcDbEntity
  8
0
100
AcDbVertex
100
AcDbPolygonMeshVertex
 10
0.684
 20
-0.214
 30
3.8974
 70
    64
  0
VERTEX
  5
60C4E
100
AcDbEntity
  8
0
100
AcDbVertex
100
AcDbPolygonMeshVertex
 10
0.684
 20
-0.567
 30
3.8974
 70
    64
  0
VERTEX
  5
60C4F
100
AcDbEntity
  8
0
100
AcDbVertex
100
AcDbPolygonMeshVertex
 10
0.684
 20
-0.214
 30
4.0744
 70
    64
  0
VERTEX
  5
60C50
100
AcDbEntity
  8
0
100
AcDbVertex
100
AcDbPolygonMeshVertex
 10
0.684
 20
-0.214
 30
4.0744
 70
    64
  0
VERTEX
  5
60C51
100
AcDbEntity
  8
0
100
AcDbVertex
100
AcDbPolygonMeshVertex
 10
0.684
 20
-0.567
 30
4.0744
 70
    64
  0
VERTEX
  5
60C52
100
AcDbEntity
  8
0
100
AcDbVertex
100
AcDbPolygonMeshVertex
 10
0.5145
 20
-0.214
 30
4.0744
 70
    64
  0
VERTEX
  5
60C53
100
AcDbEntity
  8
0
100
AcDbVertex
100
AcDbPolygonMeshVertex
 10
0.5145
 20
-0.214
 30
4.0744
 70
    64
  0
VERTEX
  5
60C54
100
AcDbEntity
  8
0
100
AcDbVertex
100
AcDbPolygonMeshVertex
 10
0.5145
 20
-0.567
 30
4.0744
 70
    64
  0
SEQEND
  5
60C55
100
AcDbEntity
  8
0
  0
LINE
  5
60C56
100
AcDbEntity
  8
0
100
AcDbLine
 10
0.684
 20
-0.567
 30
4.0744
 11
0.684
 21
-0.567
 31
3.8974
  0
POLYLINE
  5
60C57
100
AcDbEntity
  8
0
100
AcDbPolygonMesh
 66
     1
 10
0.0
 20
0.0
 30
0.0
 70
    16
 71
     6
 72
     3
  0
VERTEX
  5
60C58
100
AcDbEntity
  8
0
100
AcDbVertex
100
AcDbPolygonMeshVertex
 10
1.1175
 20
-1.022
 30
3.8974
 70
    64
  0
VERTEX
  5
60C59
100
AcDbEntity
  8
0
100
AcDbVertex
100
AcDbPolygonMeshVertex
 10
1.1175
 20
-1.022
 30
3.8634
 70
    64
  0
VERTEX
  5
60C5A
100
AcDbEntity
  8
0
100
AcDbVertex
100
AcDbPolygonMeshVertex
 10
1.1175
 20
-1.022
 30
3.8634
 70
    64
  0
VERTEX
  5
60C5B
100
AcDbEntity
  8
0
100
AcDbVertex
100
AcDbPolygonMeshVertex
 10
0.6425
 20
-1.022
 30
3.8974
 70
    64
  0
VERTEX
  5
60C5C
100
AcDbEntity
  8
0
100
AcDbVertex
100
AcDbPolygonMeshVertex
 10
0.6425
 20
-1.022
 30
3.8634
 70
    64
  0
VERTEX
  5
60C5D
100
AcDbEntity
  8
0
100
AcDbVertex
100
AcDbPolygonMeshVertex
 10
0.6425
 20
-1.022
 30
3.8634
 70
    64
  0
VERTEX
  5
60C5E
100
AcDbEntity
  8
0
100
AcDbVertex
100
AcDbPolygonMeshVertex
 10
0.6425
 20
-0.677
 30
3.8974
 70
    64
  0
VERTEX
  5
60C5F
100
AcDbEntity
  8
0
100
AcDbVertex
100
AcDbPolygonMeshVertex
 10
0.6425
 20
-0.677
 30
3.8634
 70
    64
  0
VERTEX
  5
60C60
100
AcDbEntity
  8
0
100
AcDbVertex
100
AcDbPolygonMeshVertex
 10
0.6425
 20
-1.022
 30
3.8634
 70
    64
  0
VERTEX
  5
60C61
100
AcDbEntity
  8
0
100
AcDbVertex
100
AcDbPolygonMeshVertex
 10
1.1175
 20
-0.677
 30
3.8974
 70
    64
  0
VERTEX
  5
60C62
100
AcDbEntity
  8
0
100
AcDbVertex
100
AcDbPolygonMeshVertex
 10
1.1175
 20
-0.677
 30
3.8634
 70
    64
  0
VERTEX
  5
60C63
100
AcDbEntity
  8
0
100
AcDbVertex
100
AcDbPolygonMeshVertex
 10
1.1175
 20
-1.022
 30
3.8634
 70
    64
  0
VERTEX
  5
60C64
100
AcDbEntity
  8
0
100
AcDbVertex
100
AcDbPolygonMeshVertex
 10
1.1175
 20
-0.677
 30
3.8974
 70
    64
  0
VERTEX
  5
60C65
100
AcDbEntity
  8
0
100
AcDbVertex
100
AcDbPolygonMeshVertex
 10
1.1175
 20
-0.677
 30
3.8974
 70
    64
  0
VERTEX
  5
60C66
100
AcDbEntity
  8
0
100
AcDbVertex
100
AcDbPolygonMeshVertex
 10
1.1175
 20
-1.022
 30
3.8974
 70
    64
  0
VERTEX
  5
60C67
100
AcDbEntity
  8
0
100
AcDbVertex
100
AcDbPolygonMeshVertex
 10
0.6425
 20
-0.677
 30
3.8974
 70
    64
  0
VERTEX
  5
60C68
100
AcDbEntity
  8
0
100
AcDbVertex
100
AcDbPolygonMeshVertex
 10
0.6425
 20
-0.677
 30
3.8974
 70
    64
  0
VERTEX
  5
60C69
100
AcDbEntity
  8
0
100
AcDbVertex
100
AcDbPolygonMeshVertex
 10
0.6425
 20
-1.022
 30
3.8974
 70
    64
  0
SEQEND
  5
60C6A
100
AcDbEntity
  8
0
  0
CIRCLE
  5
60C6B
100
AcDbEntity
  8
0
100
AcDbCircle
 10
0.316
 20
0.182
 30
3.8634
 40
0.138
  0
TEXT
  5
60C6C
100
AcDbEntity
  8
0
100
AcDbText
 10
0.067417
 20
0.281116
 30
3.8634
 40
0.083465
  1
1
100
AcDbText
  0
TEXT
  5
60C6D
100
AcDbEntity
  8
0
100
AcDbText
 10
0.453499
 20
0.280274
 30
3.8634
 40
0.083465
  1
L1
100
AcDbText
  0
CIRCLE
  5
60C6E
100
AcDbEntity
  8
0
100
AcDbCircle
 10
0.88
 20
0.182
 30
3.8634
 40
0.138
  0
TEXT
  5
60C6F
100
AcDbEntity
  8
0
100
AcDbText
 10
0.667226
 20
0.279432
 30
3.8634
 40
0.083465
  1
3
100
AcDbText
  0
TEXT
  5
60C70
100
AcDbEntity
  8
0
100
AcDbText
 10
1.006248
 20
0.280843
 30
3.8634
 40
0.083465
  1
L2
100
AcDbText
  0
LINE
  5
60C71
100
AcDbEntity
  8
0
100
AcDbLine
 10
0.684
 20
-0.214
 30
4.0744
 11
0.684
 21
-0.567
 31
4.0744
  0
TEXT
  5
60C72
100
AcDbEntity
  8
0
100
AcDbText
 10
1.577135
 20
-2.061637
 30
3.8634
 40
0.083465
  1
T3
100
AcDbText
  0
TEXT
  5
60C73
100
AcDbEntity
  8
0
100
AcDbText
 10
1.248897
 20
-2.063048
 30
3.8634
 40
0.083465
  1
6
100
AcDbText
  0
CIRCLE
  5
60C74
100
AcDbEntity
  8
0
100
AcDbCircle
 10
1.444
 20
-1.87
 30
3.8634
 40
0.138
  0
CIRCLE
  5
60C75
100
AcDbEntity
  8
0
100
AcDbCircle
 10
1.444
 20
0.182
 30
3.8634
 40
0.138
  0
TEXT
  5
60C76
100
AcDbEntity
  8
0
100
AcDbText
 10
1.253995
 20
0.282255
 30
3.8634
 40
0.083465
  1
5
100
AcDbText
  0
TEXT
  5
60C77
100
AcDbEntity
  8
0
100
AcDbText
 10
1.592428
 20
0.284255
 30
3.8634
 40
0.083465
  1
L3
100
AcDbText
  0
3DFACE
  5
60C78
100
AcDbEntity
  8
0
100
AcDbFace
 10
1.76
 20
0.401
 30
3.8634
 11
1.76
 21
-2.089
 31
3.8634
 12
0.0
 22
-2.089
 32
3.8634
 13
0.0
 23
0.401
 33
3.8634
  0
POLYLINE
  5
60C79
100
AcDbEntity
  8
0
100
AcDbPolygonMesh
 66
     1
 10
0.0
 20
0.0
 30
0.0
 70
    16
 71
     6
 72
     3
  0
VERTEX
  5
60C7A
100
AcDbEntity
  8
0
100
AcDbVertex
100
AcDbPolygonMeshVertex
 10
1.2655
 20
-1.504
 30
4.0634
 70
    64
  0
VERTEX
  5
60C7B
100
AcDbEntity
  8
0
100
AcDbVertex
100
AcDbPolygonMeshVertex
 10
1.2655
 20
-1.504
 30
3.8634
 70
    64
  0
VERTEX
  5
60C7C
100
AcDbEntity
  8
0
100
AcDbVertex
100
AcDbPolygonMeshVertex
 10
1.2655
 20
-1.504
 30
3.8634
 70
    64
  0
VERTEX
  5
60C7D
100
AcDbEntity
  8
0
100
AcDbVertex
100
AcDbPolygonMeshVertex
 10
0.4945
 20
-1.504
 30
4.0634
 70
    64
  0
VERTEX
  5
60C7E
100
AcDbEntity
  8
0
100
AcDbVertex
100
AcDbPolygonMeshVertex
 10
0.4945
 20
-1.504
 30
3.8634
 70
    64
  0
VERTEX
  5
60C7F
100
AcDbEntity
  8
0
100
AcDbVertex
100
AcDbPolygonMeshVertex
 10
0.4945
 20
-1.504
 30
3.8634
 70
    64
  0
VERTEX
  5
60C80
100
AcDbEntity
  8
0
100
AcDbVertex
100
AcDbPolygonMeshVertex
 10
0.4945
 20
-1.222
 30
4.0634
 70
    64
  0
VERTEX
  5
60C81
100
AcDbEntity
  8
0
100
AcDbVertex
100
AcDbPolygonMeshVertex
 10
0.4945
 20
-1.222
 30
3.8634
 70
    64
  0
VERTEX
  5
60C82
100
AcDbEntity
  8
0
100
AcDbVertex
100
AcDbPolygonMeshVertex
 10
0.4945
 20
-1.504
 30
3.8634
 70
    64
  0
VERTEX
  5
60C83
100
AcDbEntity
  8
0
100
AcDbVertex
100
AcDbPolygonMeshVertex
 10
1.2655
 20
-1.222
 30
4.0634
 70
    64
  0
VERTEX
  5
60C84
100
AcDbEntity
  8
0
100
AcDbVertex
100
AcDbPolygonMeshVertex
 10
1.2655
 20
-1.222
 30
3.8634
 70
    64
  0
VERTEX
  5
60C85
100
AcDbEntity
  8
0
100
AcDbVertex
100
AcDbPolygonMeshVertex
 10
1.2655
 20
-1.504
 30
3.8634
 70
    64
  0
VERTEX
  5
60C86
100
AcDbEntity
  8
0
100
AcDbVertex
100
AcDbPolygonMeshVertex
 10
1.2655
 20
-1.222
 30
4.0634
 70
    64
  0
VERTEX
  5
60C87
100
AcDbEntity
  8
0
100
AcDbVertex
100
AcDbPolygonMeshVertex
 10
1.2655
 20
-1.222
 30
4.0634
 70
    64
  0
VERTEX
  5
60C88
100
AcDbEntity
  8
0
100
AcDbVertex
100
AcDbPolygonMeshVertex
 10
1.2655
 20
-1.504
 30
4.0634
 70
    64
  0
VERTEX
  5
60C89
100
AcDbEntity
  8
0
100
AcDbVertex
100
AcDbPolygonMeshVertex
 10
0.4945
 20
-1.222
 30
4.0634
 70
    64
  0
VERTEX
  5
60C8A
100
AcDbEntity
  8
0
100
AcDbVertex
100
AcDbPolygonMeshVertex
 10
0.4945
 20
-1.222
 30
4.0634
 70
    64
  0
VERTEX
  5
60C8B
100
AcDbEntity
  8
0
100
AcDbVertex
100
AcDbPolygonMeshVertex
 10
0.4945
 20
-1.504
 30
4.0634
 70
    64
  0
SEQEND
  5
60C8C
100
AcDbEntity
  8
0
  0
TEXT
  5
60C8D
100
AcDbEntity
  8
0
100
AcDbText
 10
0.471636
 20
-2.062776
 30
3.8634
 40
0.083465
  1
T1
100
AcDbText
  0
CIRCLE
  5
60C8E
100
AcDbEntity
  8
0
100
AcDbCircle
 10
0.316
 20
-1.87
 30
3.8634
 40
0.138
  0
TEXT
  5
60C8F
100
AcDbEntity
  8
0
100
AcDbText
 10
1.027229
 20
-2.062206
 30
3.8634
 40
0.083465
  1
T2
100
AcDbText
  0
TEXT
  5
60C90
100
AcDbEntity
  8
0
100
AcDbText
 10
0.692715
 20
-2.060776
 30
3.8634
 40
0.083465
  1
4
100
AcDbText
  0
CIRCLE
  5
60C91
100
AcDbEntity
  8
0
100
AcDbCircle
 10
0.88
 20
-1.87
 30
3.8634
 40
0.138
  0
TEXT
  5
60C92
100
AcDbEntity
  8
0
100
AcDbText
 10
0.075359
 20
-2.064187
 30
3.8634
 40
0.083465
  1
2
100
AcDbText
  0
POINT
  5
60C93
100
AcDbEntity
  8
SNAP_POINTS
100
AcDbPoint
 10
0.0
 20
0.0
 30
0.0
  0
POLYLINE
  5
60C94
100
AcDbEntity
  8
0
  6
CONTINUOUS
100
AcDb3dPolyline
 66
     1
 10
0.0
 20
0.0
 30
0.0
 70
     8
  0
VERTEX
  5
60C95
100
AcDbEntity
  8
0
  6
CONTINUOUS
100
AcDbVertex
100
AcDb3dPolylineVertex
 10
1.76
 20
0.118
 30
0.0
 70
    32
1001
ACAD
1000
R13OBJECT
1002
{
1005
60C94
1002
}
  0
VERTEX
  5
60C96
100
AcDbEntity
  8
0
  6
CONTINUOUS
100
AcDbVertex
100
AcDb3dPolylineVertex
 10
1.369
 20
0.118
 30
0.0
 70
    32
1001
ACAD
1000
R13OBJECT
1002
{
1005
60C94
1002
}
  0
SEQEND
  5
60C97
100
AcDbEntity
  8
0
  6
CONTINUOUS
1001
ACAD
1000
R13OBJECT
1002
{
1005
60C94
1002
}
  0
POLYLINE
  5
60C98
100
AcDbEntity
  8
0
  6
CONTINUOUS
100
AcDb3dPolyline
 66
     1
 10
0.0
 20
0.0
 30
0.0
 70
     8
1001
ACAD
1000
R13OBJECT
1002
{
1005
60C94
1002
}
  0
VERTEX
  5
60C99
100
AcDbEntity
  8
0
  6
CONTINUOUS
100
AcDbVertex
100
AcDb3dPolylineVertex
 10
1.369
 20
0.118
 30
0.316
 70
    32
1001
ACAD
1000
R13OBJECT
1002
{
1005
60C94
1002
}
  0
VERTEX
  5
60C9A
100
AcDbEntity
  8
0
  6
CONTINUOUS
100
AcDbVertex
100
AcDb3dPolylineVertex
 10
1.76
 20
0.118
 30
0.316
 70
    32
1001
ACAD
1000
R13OBJECT
1002
{
1005
60C94
1002
}
  0
SEQEND
  5
60C9B
100
AcDbEntity
  8
0
  6
CONTINUOUS
1001
ACAD
1000
R13OBJECT
1002
{
1005
60C94
1002
}
  0
POLYLINE
  5
60C9C
100
AcDbEntity
  8
0
  6
CONTINUOUS
100
AcDb3dPolyline
 66
     1
 10
0.0
 20
0.0
 30
0.0
 70
     8
1001
ACAD
1000
R13OBJECT
1002
{
1005
60C94
1002
}
  0
VERTEX
  5
60C9D
100
AcDbEntity
  8
0
  6
CONTINUOUS
100
AcDbVertex
100
AcDb3dPolylineVertex
 10
1.369
 20
0.118
 30
0.0
 70
    32
1001
ACAD
1000
R13OBJECT
1002
{
1005
60C94
1002
}
  0
VERTEX
  5
60C9E
100
AcDbEntity
  8
0
  6
CONTINUOUS
100
AcDbVertex
100
AcDb3dPolylineVertex
 10
1.369
 20
0.482
 30
0.0
 70
    32
1001
ACAD
1000
R13OBJECT
1002
{
1005
60C94
1002
}
  0
SEQEND
  5
60C9F
100
AcDbEntity
  8
0
  6
CONTINUOUS
1001
ACAD
1000
R13OBJECT
1002
{
1005
60C94
1002
}
  0
POLYLINE
  5
60CA0
100
AcDbEntity
  8
0
  6
CONTINUOUS
100
AcDb3dPolyline
 66
     1
 10
0.0
 20
0.0
 30
0.0
 70
     8
1001
ACAD
1000
R13OBJECT
1002
{
1005
60C94
1002
}
  0
VERTEX
  5
60CA1
100
AcDbEntity
  8
0
  6
CONTINUOUS
100
AcDbVertex
100
AcDb3dPolylineVertex
 10
1.369
 20
0.118
 30
0.316
 70
    32
1001
ACAD
1000
R13OBJECT
1002
{
1005
60C94
1002
}
  0
VERTEX
  5
60CA2
100
AcDbEntity
  8
0
  6
CONTINUOUS
100
AcDbVertex
100
AcDb3dPolylineVertex
 10
1.369
 20
0.118
 30
0.0
 70
    32
1001
ACAD
1000
R13OBJECT
1002
{
1005
60C94
1002
}
  0
SEQEND
  5
60CA3
100
AcDbEntity
  8
0
  6
CONTINUOUS
1001
ACAD
1000
R13OBJECT
1002
{
1005
60C94
1002
}
  0
POLYLINE
  5
60CA4
100
AcDbEntity
  8
0
  6
CONTINUOUS
100
AcDb3dPolyline
 66
     1
 10
0.0
 20
0.0
 30
0.0
 70
     8
1001
ACAD
1000
R13OBJECT
1002
{
1005
60C94
1002
}
  0
VERTEX
  5
60CA5
100
AcDbEntity
  8
0
  6
CONTINUOUS
100
AcDbVertex
100
AcDb3dPolylineVertex
 10
1.369
 20
0.482
 30
0.316
 70
    32
1001
ACAD
1000
R13OBJECT
1002
{
1005
60C94
1002
}
  0
VERTEX
  5
60CA6
100
AcDbEntity
  8
0
  6
CONTINUOUS
100
AcDbVertex
100
AcDb3dPolylineVertex
 10
1.369
 20
0.118
 30
0.316
 70
    32
1001
ACAD
1000
R13OBJECT
1002
{
1005
60C94
1002
}
  0
SEQEND
  5
60CA7
100
AcDbEntity
  8
0
  6
CONTINUOUS
1001
ACAD
1000
R13OBJECT
1002
{
1005
60C94
1002
}
  0
POLYLINE
  5
60CA8
100
AcDbEntity
  8
0
  6
CONTINUOUS
100
AcDb3dPolyline
 66
     1
 10
0.0
 20
0.0
 30
0.0
 70
     8
1001
ACAD
1000
R13OBJECT
1002
{
1005
60C94
1002
}
  0
VERTEX
  5
60CA9
100
AcDbEntity
  8
0
  6
CONTINUOUS
100
AcDbVertex
100
AcDb3dPolylineVertex
 10
1.369
 20
0.482
 30
0.0
 70
    32
1001
ACAD
1000
R13OBJECT
1002
{
1005
60C94
1002
}
  0
VERTEX
  5
60CAA
100
AcDbEntity
  8
0
  6
CONTINUOUS
100
AcDbVertex
100
AcDb3dPolylineVertex
 10
1.76
 20
0.482
 30
0.0
 70
    32
1001
ACAD
1000
R13OBJECT
1002
{
1005
60C94
1002
}
  0
SEQEND
  5
60CAB
100
AcDbEntity
  8
0
  6
CONTINUOUS
1001
ACAD
1000
R13OBJECT
1002
{
1005
60C94
1002
}
  0
POLYLINE
  5
60CAC
100
AcDbEntity
  8
0
  6
CONTINUOUS
100
AcDb3dPolyline
 66
     1
 10
0.0
 20
0.0
 30
0.0
 70
     8
1001
ACAD
1000
R13OBJECT
1002
{
1005
60C94
1002
}
  0
VERTEX
  5
60CAD
100
AcDbEntity
  8
0
  6
CONTINUOUS
100
AcDbVertex
100
AcDb3dPolylineVertex
 10
1.369
 20
0.482
 30
0.316
 70
    32
1001
ACAD
1000
R13OBJECT
1002
{
1005
60C94
1002
}
  0
VERTEX
  5
60CAE
100
AcDbEntity
  8
0
  6
CONTINUOUS
100
AcDbVertex
100
AcDb3dPolylineVertex
 10
1.369
 20
0.482
 30
0.0
 70
    32
1001
ACAD
1000
R13OBJECT
1002
{
1005
60C94
1002
}
  0
SEQEND
  5
60CAF
100
AcDbEntity
  8
0
  6
CONTINUOUS
1001
ACAD
1000
R13OBJECT
1002
{
1005
60C94
1002
}
  0
POLYLINE
  5
60CB0
100
AcDbEntity
  8
0
  6
CONTINUOUS
100
AcDb3dPolyline
 66
     1
 10
0.0
 20
0.0
 30
0.0
 70
     8
1001
ACAD
1000
R13OBJECT
1002
{
1005
60C94
1002
}
  0
VERTEX
  5
60CB1
100
AcDbEntity
  8
0
  6
CONTINUOUS
100
AcDbVertex
100
AcDb3dPolylineVertex
 10
1.76
 20
0.482
 30
0.316
 70
    32
1001
ACAD
1000
R13OBJECT
1002
{
1005
60C94
1002
}
  0
VERTEX
  5
60CB2
100
AcDbEntity
  8
0
  6
CONTINUOUS
100
AcDbVertex
100
AcDb3dPolylineVertex
 10
1.369
 20
0.482
 30
0.316
 70
    32
1001
ACAD
1000
R13OBJECT
1002
{
1005
60C94
1002
}
  0
SEQEND
  5
60CB3
100
AcDbEntity
  8
0
  6
CONTINUOUS
1001
ACAD
1000
R13OBJECT
1002
{
1005
60C94
1002
}
  0
POLYLINE
  5
60CB4
100
AcDbEntity
  8
0
  6
CONTINUOUS
100
AcDb3dPolyline
 66
     1
 10
0.0
 20
0.0
 30
0.0
 70
     8
1001
ACAD
1000
R13OBJECT
1002
{
1005
60C94
1002
}
  0
VERTEX
  5
60CB5
100
AcDbEntity
  8
0
  6
CONTINUOUS
100
AcDbVertex
100
AcDb3dPolylineVertex
 10
1.76
 20
0.118
 30
0.316
 70
    32
1001
ACAD
1000
R13OBJECT
1002
{
1005
60C94
1002
}
  0
VERTEX
  5
60CB6
100
AcDbEntity
  8
0
  6
CONTINUOUS
100
AcDbVertex
100
AcDb3dPolylineVertex
 10
1.76
 20
0.118
 30
0.0
 70
    32
1001
ACAD
1000
R13OBJECT
1002
{
1005
60C94
1002
}
  0
SEQEND
  5
60CB7
100
AcDbEntity
  8
0
  6
CONTINUOUS
1001
ACAD
1000
R13OBJECT
1002
{
1005
60C94
1002
}
  0
POLYLINE
  5
60CB8
100
AcDbEntity
  8
0
  6
CONTINUOUS
100
AcDb3dPolyline
 66
     1
 10
0.0
 20
0.0
 30
0.0
 70
     8
1001
ACAD
1000
R13OBJECT
1002
{
1005
60C94
1002
}
  0
VERTEX
  5
60CB9
100
AcDbEntity
  8
0
  6
CONTINUOUS
100
AcDbVertex
100
AcDb3dPolylineVertex
 10
1.76
 20
0.482
 30
0.0
 70
    32
1001
ACAD
1000
R13OBJECT
1002
{
1005
60C94
1002
}
  0
VERTEX
  5
60CBA
100
AcDbEntity
  8
0
  6
CONTINUOUS
100
AcDbVertex
100
AcDb3dPolylineVertex
 10
1.76
 20
0.118
 30
0.0
 70
    32
1001
ACAD
1000
R13OBJECT
1002
{
1005
60C94
1002
}
  0
SEQEND
  5
60CBB
100
AcDbEntity
  8
0
  6
CONTINUOUS
1001
ACAD
1000
R13OBJECT
1002
{
1005
60C94
1002
}
  0
POLYLINE
  5
60CBC
100
AcDbEntity
  8
0
  6
CONTINUOUS
100
AcDb3dPolyline
 66
     1
 10
0.0
 20
0.0
 30
0.0
 70
     8
1001
ACAD
1000
R13OBJECT
1002
{
1005
60C94
1002
}
  0
VERTEX
  5
60CBD
100
AcDbEntity
  8
0
  6
CONTINUOUS
100
AcDbVertex
100
AcDb3dPolylineVertex
 10
1.76
 20
0.482
 30
0.316
 70
    32
1001
ACAD
1000
R13OBJECT
1002
{
1005
60C94
1002
}
  0
VERTEX
  5
60CBE
100
AcDbEntity
  8
0
  6
CONTINUOUS
100
AcDbVertex
100
AcDb3dPolylineVertex
 10
1.76
 20
0.482
 30
0.0
 70
    32
1001
ACAD
1000
R13OBJECT
1002
{
1005
60C94
1002
}
  0
SEQEND
  5
60CBF
100
AcDbEntity
  8
0
  6
CONTINUOUS
1001
ACAD
1000
R13OBJECT
1002
{
1005
60C94
1002
}
  0
POLYLINE
  5
60CC0
100
AcDbEntity
  8
0
  6
CONTINUOUS
100
AcDb3dPolyline
 66
     1
 10
0.0
 20
0.0
 30
0.0
 70
     8
1001
ACAD
1000
R13OBJECT
1002
{
1005
60C94
1002
}
  0
VERTEX
  5
60CC1
100
AcDbEntity
  8
0
  6
CONTINUOUS
100
AcDbVertex
100
AcDb3dPolylineVertex
 10
1.76
 20
0.118
 30
0.316
 70
    32
1001
ACAD
1000
R13OBJECT
1002
{
1005
60C94
1002
}
  0
VERTEX
  5
60CC2
100
AcDbEntity
  8
0
  6
CONTINUOUS
100
AcDbVertex
100
AcDb3dPolylineVertex
 10
1.76
 20
0.482
 30
0.316
 70
    32
1001
ACAD
1000
R13OBJECT
1002
{
1005
60C94
1002
}
  0
SEQEND
  5
60CC3
100
AcDbEntity
  8
0
  6
CONTINUOUS
1001
ACAD
1000
R13OBJECT
1002
{
1005
60C94
1002
}
  0
POLYLINE
  5
60CC4
100
AcDbEntity
  8
0
  6
CONTINUOUS
100
AcDb3dPolyline
 66
     1
 10
0.0
 20
0.0
 30
0.0
 70
     8
  0
VERTEX
  5
60CC5
100
AcDbEntity
  8
0
  6
CONTINUOUS
100
AcDbVertex
100
AcDb3dPolylineVertex
 10
0.391211
 20
-2.171809
 30
0.0
 70
    32
1001
ACAD
1000
R13OBJECT
1002
{
1005
60CC4
1002
}
  0
VERTEX
  5
60CC6
100
AcDbEntity
  8
0
  6
CONTINUOUS
100
AcDbVertex
100
AcDb3dPolylineVertex
 10
0.0
 20
-2.171809
 30
0.0
 70
    32
1001
ACAD
1000
R13OBJECT
1002
{
1005
60CC4
1002
}
  0
SEQEND
  5
60CC7
100
AcDbEntity
  8
0
  6
CONTINUOUS
1001
ACAD
1000
R13OBJECT
1002
{
1005
60CC4
1002
}
  0
POLYLINE
  5
60CC8
100
AcDbEntity
  8
0
  6
CONTINUOUS
100
AcDb3dPolyline
 66
     1
 10
0.0
 20
0.0
 30
0.0
 70
     8
1001
ACAD
1000
R13OBJECT
1002
{
1005
60CC4
1002
}
  0
VERTEX
  5
60CC9
100
AcDbEntity
  8
0
  6
CONTINUOUS
100
AcDbVertex
100
AcDb3dPolylineVertex
 10
0.0
 20
-2.171809
 30
0.316
 70
    32
1001
ACAD
1000
R13OBJECT
1002
{
1005
60CC4
1002
}
  0
VERTEX
  5
60CCA
100
AcDbEntity
  8
0
  6
CONTINUOUS
100
AcDbVertex
100
AcDb3dPolylineVertex
 10
0.391211
 20
-2.171809
 30
0.316
 70
    32
1001
ACAD
1000
R13OBJECT
1002
{
1005
60CC4
1002
}
  0
SEQEND
  5
60CCB
100
AcDbEntity
  8
0
  6
CONTINUOUS
1001
ACAD
1000
R13OBJECT
1002
{
1005
60CC4
1002
}
  0
POLYLINE
  5
60CCC
100
AcDbEntity
  8
0
  6
CONTINUOUS
100
AcDb3dPolyline
 66
     1
 10
0.0
 20
0.0
 30
0.0
 70
     8
1001
ACAD
1000
R13OBJECT
1002
{
1005
60CC4
1002
}
  0
VERTEX
  5
60CCD
100
AcDbEntity
  8
0
  6
CONTINUOUS
100
AcDbVertex
100
AcDb3dPolylineVertex
 10
0.0
 20
-2.171809
 30
0.0
 70
    32
1001
ACAD
1000
R13OBJECT
1002
{
1005
60CC4
1002
}
  0
VERTEX
  5
60CCE
100
AcDbEntity
  8
0
  6
CONTINUOUS
100
AcDbVertex
100
AcDb3dPolylineVertex
 10
0.0
 20
-1.805809
 30
0.0
 70
    32
1001
ACAD
1000
R13OBJECT
1002
{
1005
60CC4
1002
}
  0
SEQEND
  5
60CCF
100
AcDbEntity
  8
0
  6
CONTINUOUS
1001
ACAD
1000
R13OBJECT
1002
{
1005
60CC4
1002
}
  0
POLYLINE
  5
60CD0
100
AcDbEntity
  8
0
  6
CONTINUOUS
100
AcDb3dPolyline
 66
     1
 10
0.0
 20
0.0
 30
0.0
 70
     8
1001
ACAD
1000
R13OBJECT
1002
{
1005
60CC4
1002
}
  0
VERTEX
  5
60CD1
100
AcDbEntity
  8
0
  6
CONTINUOUS
100
AcDbVertex
100
AcDb3dPolylineVertex
 10
0.0
 20
-2.171809
 30
0.316
 70
    32
1001
ACAD
1000
R13OBJECT
1002
{
1005
60CC4
1002
}
  0
VERTEX
  5
60CD2
100
AcDbEntity
  8
0
  6
CONTINUOUS
100
AcDbVertex
100
AcDb3dPolylineVertex
 10
0.0
 20
-2.171809
 30
0.0
 70
    32
1001
ACAD
1000
R13OBJECT
1002
{
1005
60CC4
1002
}
  0
SEQEND
  5
60CD3
100
AcDbEntity
  8
0
  6
CONTINUOUS
1001
ACAD
1000
R13OBJECT
1002
{
1005
60CC4
1002
}
  0
POLYLINE
  5
60CD4
100
AcDbEntity
  8
0
  6
CONTINUOUS
100
AcDb3dPolyline
 66
     1
 10
0.0
 20
0.0
 30
0.0
 70
     8
1001
ACAD
1000
R13OBJECT
1002
{
1005
60CC4
1002
}
  0
VERTEX
  5
60CD5
100
AcDbEntity
  8
0
  6
CONTINUOUS
100
AcDbVertex
100
AcDb3dPolylineVertex
 10
0.0
 20
-1.805809
 30
0.316
 70
    32
1001
ACAD
1000
R13OBJECT
1002
{
1005
60CC4
1002
}
  0
VERTEX
  5
60CD6
100
AcDbEntity
  8
0
  6
CONTINUOUS
100
AcDbVertex
100
AcDb3dPolylineVertex
 10
0.0
 20
-2.171809
 30
0.316
 70
    32
1001
ACAD
1000
R13OBJECT
1002
{
1005
60CC4
1002
}
  0
SEQEND
  5
60CD7
100
AcDbEntity
  8
0
  6
CONTINUOUS
1001
ACAD
1000
R13OBJECT
1002
{
1005
60CC4
1002
}
  0
POLYLINE
  5
60CD8
100
AcDbEntity
  8
0
  6
CONTINUOUS
100
AcDb3dPolyline
 66
     1
 10
0.0
 20
0.0
 30
0.0
 70
     8
1001
ACAD
1000
R13OBJECT
1002
{
1005
60CC4
1002
}
  0
VERTEX
  5
60CD9
100
AcDbEntity
  8
0
  6
CONTINUOUS
100
AcDbVertex
100
AcDb3dPolylineVertex
 10
0.0
 20
-1.805809
 30
0.0
 70
    32
1001
ACAD
1000
R13OBJECT
1002
{
1005
60CC4
1002
}
  0
VERTEX
  5
60CDA
100
AcDbEntity
  8
0
  6
CONTINUOUS
100
AcDbVertex
100
AcDb3dPolylineVertex
 10
0.391211
 20
-1.805809
 30
0.0
 70
    32
1001
ACAD
1000
R13OBJECT
1002
{
1005
60CC4
1002
}
  0
SEQEND
  5
60CDB
100
AcDbEntity
  8
0
  6
CONTINUOUS
1001
ACAD
1000
R13OBJECT
1002
{
1005
60CC4
1002
}
  0
POLYLINE
  5
60CDC
100
AcDbEntity
  8
0
  6
CONTINUOUS
100
AcDb3dPolyline
 66
     1
 10
0.0
 20
0.0
 30
0.0
 70
     8
1001
ACAD
1000
R13OBJECT
1002
{
1005
60CC4
1002
}
  0
VERTEX
  5
60CDD
100
AcDbEntity
  8
0
  6
CONTINUOUS
100
AcDbVertex
100
AcDb3dPolylineVertex
 10
0.0
 20
-1.805809
 30
0.316
 70
    32
1001
ACAD
1000
R13OBJECT
1002
{
1005
60CC4
1002
}
  0
VERTEX
  5
60CDE
100
AcDbEntity
  8
0
  6
CONTINUOUS
100
AcDbVertex
100
AcDb3dPolylineVertex
 10
0.0
 20
-1.805809
 30
0.0
 70
    32
1001
ACAD
1000
R13OBJECT
1002
{
1005
60CC4
1002
}
  0
SEQEND
  5
60CDF
100
AcDbEntity
  8
0
  6
CONTINUOUS
1001
ACAD
1000
R13OBJECT
1002
{
1005
60CC4
1002
}
  0
POLYLINE
  5
60CE0
100
AcDbEntity
  8
0
  6
CONTINUOUS
100
AcDb3dPolyline
 66
     1
 10
0.0
 20
0.0
 30
0.0
 70
     8
1001
ACAD
1000
R13OBJECT
1002
{
1005
60CC4
1002
}
  0
VERTEX
  5
60CE1
100
AcDbEntity
  8
0
  6
CONTINUOUS
100
AcDbVertex
100
AcDb3dPolylineVertex
 10
0.391211
 20
-1.805809
 30
0.316
 70
    32
1001
ACAD
1000
R13OBJECT
1002
{
1005
60CC4
1002
}
  0
VERTEX
  5
60CE2
100
AcDbEntity
  8
0
  6
CONTINUOUS
100
AcDbVertex
100
AcDb3dPolylineVertex
 10
0.0
 20
-1.805809
 30
0.316
 70
    32
1001
ACAD
1000
R13OBJECT
1002
{
1005
60CC4
1002
}
  0
SEQEND
  5
60CE3
100
AcDbEntity
  8
0
  6
CONTINUOUS
1001
ACAD
1000
R13OBJECT
1002
{
1005
60CC4
1002
}
  0
POLYLINE
  5
60CE4
100
AcDbEntity
  8
0
  6
CONTINUOUS
100
AcDb3dPolyline
 66
     1
 10
0.0
 20
0.0
 30
0.0
 70
     8
1001
ACAD
1000
R13OBJECT
1002
{
1005
60CC4
1002
}
  0
VERTEX
  5
60CE5
100
AcDbEntity
  8
0
  6
CONTINUOUS
100
AcDbVertex
100
AcDb3dPolylineVertex
 10
0.391211
 20
-2.171809
 30
0.316
 70
    32
1001
ACAD
1000
R13OBJECT
1002
{
1005
60CC4
1002
}
  0
VERTEX
  5
60CE6
100
AcDbEntity
  8
0
  6
CONTINUOUS
100
AcDbVertex
100
AcDb3dPolylineVertex
 10
0.391211
 20
-2.171809
 30
0.0
 70
    32
1001
ACAD
1000
R13OBJECT
1002
{
1005
60CC4
1002
}
  0
SEQEND
  5
60CE7
100
AcDbEntity
  8
0
  6
CONTINUOUS
1001
ACAD
1000
R13OBJECT
1002
{
1005
60CC4
1002
}
  0
POLYLINE
  5
60CE8
100
AcDbEntity
  8
0
  6
CONTINUOUS
100
AcDb3dPolyline
 66
     1
 10
0.0
 20
0.0
 30
0.0
 70
     8
1001
ACAD
1000
R13OBJECT
1002
{
1005
60CC4
1002
}
  0
VERTEX
  5
60CE9
100
AcDbEntity
  8
0
  6
CONTINUOUS
100
AcDbVertex
100
AcDb3dPolylineVertex
 10
0.391211
 20
-1.805809
 30
0.0
 70
    32
1001
ACAD
1000
R13OBJECT
1002
{
1005
60CC4
1002
}
  0
VERTEX
  5
60CEA
100
AcDbEntity
  8
0
  6
CONTINUOUS
100
AcDbVertex
100
AcDb3dPolylineVertex
 10
0.391211
 20
-2.171809
 30
0.0
 70
    32
1001
ACAD
1000
R13OBJECT
1002
{
1005
60CC4
1002
}
  0
SEQEND
  5
60CEB
100
AcDbEntity
  8
0
  6
CONTINUOUS
1001
ACAD
1000
R13OBJECT
1002
{
1005
60CC4
1002
}
  0
POLYLINE
  5
60CEC
100
AcDbEntity
  8
0
  6
CONTINUOUS
100
AcDb3dPolyline
 66
     1
 10
0.0
 20
0.0
 30
0.0
 70
     8
1001
ACAD
1000
R13OBJECT
1002
{
1005
60CC4
1002
}
  0
VERTEX
  5
60CED
100
AcDbEntity
  8
0
  6
CONTINUOUS
100
AcDbVertex
100
AcDb3dPolylineVertex
 10
0.391211
 20
-1.805809
 30
0.316
 70
    32
1001
ACAD
1000
R13OBJECT
1002
{
1005
60CC4
1002
}
  0
VERTEX
  5
60CEE
100
AcDbEntity
  8
0
  6
CONTINUOUS
100
AcDbVertex
100
AcDb3dPolylineVertex
 10
0.391211
 20
-1.805809
 30
0.0
 70
    32
1001
ACAD
1000
R13OBJECT
1002
{
1005
60CC4
1002
}
  0
SEQEND
  5
60CEF
100
AcDbEntity
  8
0
  6
CONTINUOUS
1001
ACAD
1000
R13OBJECT
1002
{
1005
60CC4
1002
}
  0
POLYLINE
  5
60CF0
100
AcDbEntity
  8
0
  6
CONTINUOUS
100
AcDb3dPolyline
 66
     1
 10
0.0
 20
0.0
 30
0.0
 70
     8
1001
ACAD
1000
R13OBJECT
1002
{
1005
60CC4
1002
}
  0
VERTEX
  5
60CF1
100
AcDbEntity
  8
0
  6
CONTINUOUS
100
AcDbVertex
100
AcDb3dPolylineVertex
 10
0.391211
 20
-2.171809
 30
0.316
 70
    32
1001
ACAD
1000
R13OBJECT
1002
{
1005
60CC4
1002
}
  0
VERTEX
  5
60CF2
100
AcDbEntity
  8
0
  6
CONTINUOUS
100
AcDbVertex
100
AcDb3dPolylineVertex
 10
0.391211
 20
-1.805809
 30
0.316
 70
    32
1001
ACAD
1000
R13OBJECT
1002
{
1005
60CC4
1002
}
  0
SEQEND
  5
60CF3
100
AcDbEntity
  8
0
  6
CONTINUOUS
1001
ACAD
1000
R13OBJECT
1002
{
1005
60CC4
1002
}
  0
POLYLINE
  5
60CF4
100
AcDbEntity
  8
0
  6
CONTINUOUS
100
AcDb3dPolyline
 66
     1
 10
0.0
 20
0.0
 30
0.0
 70
     8
  0
VERTEX
  5
60CF5
100
AcDbEntity
  8
0
  6
CONTINUOUS
100
AcDbVertex
100
AcDb3dPolylineVertex
 10
1.76
 20
-2.089
 30
1.318
 70
    32
1001
ACAD
1000
R13OBJECT
1002
{
1005
60CF4
1002
}
  0
VERTEX
  5
60CF6
100
AcDbEntity
  8
0
  6
CONTINUOUS
100
AcDbVertex
100
AcDb3dPolylineVertex
 10
0.0
 20
-2.089
 30
1.318
 70
    32
1001
ACAD
1000
R13OBJECT
1002
{
1005
60CF4
1002
}
  0
SEQEND
  5
60CF7
100
AcDbEntity
  8
0
  6
CONTINUOUS
1001
ACAD
1000
R13OBJECT
1002
{
1005
60CF4
1002
}
  0
POLYLINE
  5
60CF8
100
AcDbEntity
  8
0
  6
CONTINUOUS
100
AcDb3dPolyline
 66
     1
 10
0.0
 20
0.0
 30
0.0
 70
     8
1001
ACAD
1000
R13OBJECT
1002
{
1005
60CF4
1002
}
  0
VERTEX
  5
60CF9
100
AcDbEntity
  8
0
  6
CONTINUOUS
100
AcDbVertex
100
AcDb3dPolylineVertex
 10
0.0
 20
-2.089
 30
3.8634
 70
    32
1001
ACAD
1000
R13OBJECT
1002
{
1005
60CF4
1002
}
  0
VERTEX
  5
60CFA
100
AcDbEntity
  8
0
  6
CONTINUOUS
100
AcDbVertex
100
AcDb3dPolylineVertex
 10
1.76
 20
-2.089
 30
3.8634
 70
    32
1001
ACAD
1000
R13OBJECT
1002
{
1005
60CF4
1002
}
  0
SEQEND
  5
60CFB
100
AcDbEntity
  8
0
  6
CONTINUOUS
1001
ACAD
1000
R13OBJECT
1002
{
1005
60CF4
1002
}
  0
POLYLINE
  5
60CFC
100
AcDbEntity
  8
0
  6
CONTINUOUS
100
AcDb3dPolyline
 66
     1
 10
0.0
 20
0.0
 30
0.0
 70
     8
1001
ACAD
1000
R13OBJECT
1002
{
1005
60CF4
1002
}
  0
VERTEX
  5
60CFD
100
AcDbEntity
  8
0
  6
CONTINUOUS
100
AcDbVertex
100
AcDb3dPolylineVertex
 10
0.0
 20
-2.089
 30
1.318
 70
    32
1001
ACAD
1000
R13OBJECT
1002
{
1005
60CF4
1002
}
  0
VERTEX
  5
60CFE
100
AcDbEntity
  8
0
  6
CONTINUOUS
100
AcDbVertex
100
AcDb3dPolylineVertex
 10
0.0
 20
0.401
 30
1.318
 70
    32
1001
ACAD
1000
R13OBJECT
1002
{
1005
60CF4
1002
}
  0
SEQEND
  5
60CFF
100
AcDbEntity
  8
0
  6
CONTINUOUS
1001
ACAD
1000
R13OBJECT
1002
{
1005
60CF4
1002
}
  0
POLYLINE
  5
60D00
100
AcDbEntity
  8
0
  6
CONTINUOUS
100
AcDb3dPolyline
 66
     1
 10
0.0
 20
0.0
 30
0.0
 70
     8
1001
ACAD
1000
R13OBJECT
1002
{
1005
60CF4
1002
}
  0
VERTEX
  5
60D01
100
AcDbEntity
  8
0
  6
CONTINUOUS
100
AcDbVertex
100
AcDb3dPolylineVertex
 10
0.0
 20
-2.089
 30
3.8634
 70
    32
1001
ACAD
1000
R13OBJECT
1002
{
1005
60CF4
1002
}
  0
VERTEX
  5
60D02
100
AcDbEntity
  8
0
  6
CONTINUOUS
100
AcDbVertex
100
AcDb3dPolylineVertex
 10
0.0
 20
-2.089
 30
1.318
 70
    32
1001
ACAD
1000
R13OBJECT
1002
{
1005
60CF4
1002
}
  0
SEQEND
  5
60D03
100
AcDbEntity
  8
0
  6
CONTINUOUS
1001
ACAD
1000
R13OBJECT
1002
{
1005
60CF4
1002
}
  0
POLYLINE
  5
60D04
100
AcDbEntity
  8
0
  6
CONTINUOUS
100
AcDb3dPolyline
 66
     1
 10
0.0
 20
0.0
 30
0.0
 70
     8
1001
ACAD
1000
R13OBJECT
1002
{
1005
60CF4
1002
}
  0
VERTEX
  5
60D05
100
AcDbEntity
  8
0
  6
CONTINUOUS
100
AcDbVertex
100
AcDb3dPolylineVertex
 10
0.0
 20
0.401
 30
3.8634
 70
    32
1001
ACAD
1000
R13OBJECT
1002
{
1005
60CF4
1002
}
  0
VERTEX
  5
60D06
100
AcDbEntity
  8
0
  6
CONTINUOUS
100
AcDbVertex
100
AcDb3dPolylineVertex
 10
0.0
 20
-2.089
 30
3.8634
 70
    32
1001
ACAD
1000
R13OBJECT
1002
{
1005
60CF4
1002
}
  0
SEQEND
  5
60D07
100
AcDbEntity
  8
0
  6
CONTINUOUS
1001
ACAD
1000
R13OBJECT
1002
{
1005
60CF4
1002
}
  0
POLYLINE
  5
60D08
100
AcDbEntity
  8
0
  6
CONTINUOUS
100
AcDb3dPolyline
 66
     1
 10
0.0
 20
0.0
 30
0.0
 70
     8
1001
ACAD
1000
R13OBJECT
1002
{
1005
60CF4
1002
}
  0
VERTEX
  5
60D09
100
AcDbEntity
  8
0
  6
CONTINUOUS
100
AcDbVertex
100
AcDb3dPolylineVertex
 10
0.0
 20
0.401
 30
1.318
 70
    32
1001
ACAD
1000
R13OBJECT
1002
{
1005
60CF4
1002
}
  0
VERTEX
  5
60D0A
100
AcDbEntity
  8
0
  6
CONTINUOUS
100
AcDbVertex
100
AcDb3dPolylineVertex
 10
1.76
 20
0.401
 30
1.318
 70
    32
1001
ACAD
1000
R13OBJECT
1002
{
1005
60CF4
1002
}
  0
SEQEND
  5
60D0B
100
AcDbEntity
  8
0
  6
CONTINUOUS
1001
ACAD
1000
R13OBJECT
1002
{
1005
60CF4
1002
}
  0
POLYLINE
  5
60D0C
100
AcDbEntity
  8
0
  6
CONTINUOUS
100
AcDb3dPolyline
 66
     1
 10
0.0
 20
0.0
 30
0.0
 70
     8
1001
ACAD
1000
R13OBJECT
1002
{
1005
60CF4
1002
}
  0
VERTEX
  5
60D0D
100
AcDbEntity
  8
0
  6
CONTINUOUS
100
AcDbVertex
100
AcDb3dPolylineVertex
 10
0.0
 20
0.401
 30
3.8634
 70
    32
1001
ACAD
1000
R13OBJECT
1002
{
1005
60CF4
1002
}
  0
VERTEX
  5
60D0E
100
AcDbEntity
  8
0
  6
CONTINUOUS
100
AcDbVertex
100
AcDb3dPolylineVertex
 10
0.0
 20
0.401
 30
1.318
 70
    32
1001
ACAD
1000
R13OBJECT
1002
{
1005
60CF4
1002
}
  0
SEQEND
  5
60D0F
100
AcDbEntity
  8
0
  6
CONTINUOUS
1001
ACAD
1000
R13OBJECT
1002
{
1005
60CF4
1002
}
  0
POLYLINE
  5
60D10
100
AcDbEntity
  8
0
  6
CONTINUOUS
100
AcDb3dPolyline
 66
     1
 10
0.0
 20
0.0
 30
0.0
 70
     8
1001
ACAD
1000
R13OBJECT
1002
{
1005
60CF4
1002
}
  0
VERTEX
  5
60D11
100
AcDbEntity
  8
0
  6
CONTINUOUS
100
AcDbVertex
100
AcDb3dPolylineVertex
 10
1.76
 20
0.401
 30
3.8634
 70
    32
1001
ACAD
1000
R13OBJECT
1002
{
1005
60CF4
1002
}
  0
VERTEX
  5
60D12
100
AcDbEntity
  8
0
  6
CONTINUOUS
100
AcDbVertex
100
AcDb3dPolylineVertex
 10
0.0
 20
0.401
 30
3.8634
 70
    32
1001
ACAD
1000
R13OBJECT
1002
{
1005
60CF4
1002
}
  0
SEQEND
  5
60D13
100
AcDbEntity
  8
0
  6
CONTINUOUS
1001
ACAD
1000
R13OBJECT
1002
{
1005
60CF4
1002
}
  0
POLYLINE
  5
60D14
100
AcDbEntity
  8
0
  6
CONTINUOUS
100
AcDb3dPolyline
 66
     1
 10
0.0
 20
0.0
 30
0.0
 70
     8
1001
ACAD
1000
R13OBJECT
1002
{
1005
60CF4
1002
}
  0
VERTEX
  5
60D15
100
AcDbEntity
  8
0
  6
CONTINUOUS
100
AcDbVertex
100
AcDb3dPolylineVertex
 10
1.76
 20
-2.089
 30
3.8634
 70
    32
1001
ACAD
1000
R13OBJECT
1002
{
1005
60CF4
1002
}
  0
VERTEX
  5
60D16
100
AcDbEntity
  8
0
  6
CONTINUOUS
100
AcDbVertex
100
AcDb3dPolylineVertex
 10
1.76
 20
-2.089
 30
1.318
 70
    32
1001
ACAD
1000
R13OBJECT
1002
{
1005
60CF4
1002
}
  0
SEQEND
  5
60D17
100
AcDbEntity
  8
0
  6
CONTINUOUS
1001
ACAD
1000
R13OBJECT
1002
{
1005
60CF4
1002
}
  0
POLYLINE
  5
60D18
100
AcDbEntity
  8
0
  6
CONTINUOUS
100
AcDb3dPolyline
 66
     1
 10
0.0
 20
0.0
 30
0.0
 70
     8
1001
ACAD
1000
R13OBJECT
1002
{
1005
60CF4
1002
}
  0
VERTEX
  5
60D19
100
AcDbEntity
  8
0
  6
CONTINUOUS
100
AcDbVertex
100
AcDb3dPolylineVertex
 10
1.76
 20
0.401
 30
1.318
 70
    32
1001
ACAD
1000
R13OBJECT
1002
{
1005
60CF4
1002
}
  0
VERTEX
  5
60D1A
100
AcDbEntity
  8
0
  6
CONTINUOUS
100
AcDbVertex
100
AcDb3dPolylineVertex
 10
1.76
 20
-2.089
 30
1.318
 70
    32
1001
ACAD
1000
R13OBJECT
1002
{
1005
60CF4
1002
}
  0
SEQEND
  5
60D1B
100
AcDbEntity
  8
0
  6
CONTINUOUS
1001
ACAD
1000
R13OBJECT
1002
{
1005
60CF4
1002
}
  0
POLYLINE
  5
60D1C
100
AcDbEntity
  8
0
  6
CONTINUOUS
100
AcDb3dPolyline
 66
     1
 10
0.0
 20
0.0
 30
0.0
 70
     8
1001
ACAD
1000
R13OBJECT
1002
{
1005
60CF4
1002
}
  0
VERTEX
  5
60D1D
100
AcDbEntity
  8
0
  6
CONTINUOUS
100
AcDbVertex
100
AcDb3dPolylineVertex
 10
1.76
 20
0.401
 30
3.8634
 70
    32
1001
ACAD
1000
R13OBJECT
1002
{
1005
60CF4
1002
}
  0
VERTEX
  5
60D1E
100
AcDbEntity
  8
0
  6
CONTINUOUS
100
AcDbVertex
100
AcDb3dPolylineVertex
 10
1.76
 20
0.401
 30
1.318
 70
    32
1001
ACAD
1000
R13OBJECT
1002
{
1005
60CF4
1002
}
  0
SEQEND
  5
60D1F
100
AcDbEntity
  8
0
  6
CONTINUOUS
1001
ACAD
1000
R13OBJECT
1002
{
1005
60CF4
1002
}
  0
POLYLINE
  5
60D20
100
AcDbEntity
  8
0
  6
CONTINUOUS
100
AcDb3dPolyline
 66
     1
 10
0.0
 20
0.0
 30
0.0
 70
     8
1001
ACAD
1000
R13OBJECT
1002
{
1005
60CF4
1002
}
  0
VERTEX
  5
60D21
100
AcDbEntity
  8
0
  6
CONTINUOUS
100
AcDbVertex
100
AcDb3dPolylineVertex
 10
1.76
 20
-2.089
 30
3.8634
 70
    32
1001
ACAD
1000
R13OBJECT
1002
{
1005
60CF4
1002
}
  0
VERTEX
  5
60D22
100
AcDbEntity
  8
0
  6
CONTINUOUS
100
AcDbVertex
100
AcDb3dPolylineVertex
 10
1.76
 20
0.401
 30
3.8634
 70
    32
1001
ACAD
1000
R13OBJECT
1002
{
1005
60CF4
1002
}
  0
SEQEND
  5
60D23
100
AcDbEntity
  8
0
  6
CONTINUOUS
1001
ACAD
1000
R13OBJECT
1002
{
1005
60CF4
1002
}
  0
POINT
  5
60D24
100
AcDbEntity
  8
SNAP_POINTS
100
AcDbPoint
 10
0.0
 20
-0.894
 30
2.0685
  0
POINT
  5
60D25
100
AcDbEntity
  8
SNAP_POINTS
100
AcDbPoint
 10
1.76
 20
-0.794
 30
2.0685
  0
POINT
  5
60D26
100
AcDbEntity
  8
SNAP_POINTS
100
AcDbPoint
 10
0.88
 20
-0.8495
 30
3.8974
  0
POINT
  5
60D27
100
AcDbEntity
  8
SNAP_POINTS
100
AcDbPoint
 10
1.635
 20
-2.089
 30
1.0934
  0
POLYLINE
  5
60D28
100
AcDbEntity
  8
0
100
AcDbPolygonMesh
 66
     1
 10
0.0
 20
0.0
 30
0.0
 70
    16
 71
     6
 72
     3
  0
VERTEX
  5
60D29
100
AcDbEntity
  8
0
100
AcDbVertex
100
AcDbPolygonMeshVertex
 10
1.76
 20
-2.089
 30
3.8634
 70
    64
  0
VERTEX
  5
60D2A
100
AcDbEntity
  8
0
100
AcDbVertex
100
AcDbPolygonMeshVertex
 10
1.76
 20
-2.089
 30
1.318
 70
    64
  0
VERTEX
  5
60D2B
100
AcDbEntity
  8
0
100
AcDbVertex
100
AcDbPolygonMeshVertex
 10
1.76
 20
-2.089
 30
1.318
 70
    64
  0
VERTEX
  5
60D2C
100
AcDbEntity
  8
0
100
AcDbVertex
100
AcDbPolygonMeshVertex
 10
0.0
 20
-2.089
 30
3.8634
 70
    64
  0
VERTEX
  5
60D2D
100
AcDbEntity
  8
0
100
AcDbVertex
100
AcDbPolygonMeshVertex
 10
0.0
 20
-2.089
 30
1.318
 70
    64
  0
VERTEX
  5
60D2E
100
AcDbEntity
  8
0
100
AcDbVertex
100
AcDbPolygonMeshVertex
 10
0.0
 20
-2.089
 30
1.318
 70
    64
  0
VERTEX
  5
60D2F
100
AcDbEntity
  8
0
100
AcDbVertex
100
AcDbPolygonMeshVertex
 10
0.0
 20
0.401
 30
3.8634
 70
    64
  0
VERTEX
  5
60D30
100
AcDbEntity
  8
0
100
AcDbVertex
100
AcDbPolygonMeshVertex
 10
0.0
 20
0.401
 30
1.318
 70
    64
  0
VERTEX
  5
60D31
100
AcDbEntity
  8
0
100
AcDbVertex
100
AcDbPolygonMeshVertex
 10
0.0
 20
-2.089
 30
1.318
 70
    64
  0
VERTEX
  5
60D32
100
AcDbEntity
  8
0
100
AcDbVertex
100
AcDbPolygonMeshVertex
 10
1.76
 20
0.401
 30
3.8634
 70
    64
  0
VERTEX
  5
60D33
100
AcDbEntity
  8
0
100
AcDbVertex
100
AcDbPolygonMeshVertex
 10
1.76
 20
0.401
 30
1.318
 70
    64
  0
VERTEX
  5
60D34
100
AcDbEntity
  8
0
100
AcDbVertex
100
AcDbPolygonMeshVertex
 10
1.76
 20
-2.089
 30
1.318
 70
    64
  0
VERTEX
  5
60D35
100
AcDbEntity
  8
0
100
AcDbVertex
100
AcDbPolygonMeshVertex
 10
1.76
 20
0.401
 30
3.8634
 70
    64
  0
VERTEX
  5
60D36
100
AcDbEntity
  8
0
100
AcDbVertex
100
AcDbPolygonMeshVertex
 10
1.76
 20
0.401
 30
3.8634
 70
    64
  0
VERTEX
  5
60D37
100
AcDbEntity
  8
0
100
AcDbVertex
100
AcDbPolygonMeshVertex
 10
1.76
 20
-2.089
 30
3.8634
 70
    64
  0
VERTEX
  5
60D38
100
AcDbEntity
  8
0
100
AcDbVertex
100
AcDbPolygonMeshVertex
 10
0.0
 20
0.401
 30
3.8634
 70
    64
  0
VERTEX
  5
60D39
100
AcDbEntity
  8
0
100
AcDbVertex
100
AcDbPolygonMeshVertex
 10
0.0
 20
0.401
 30
3.8634
 70
    64
  0
VERTEX
  5
60D3A
100
AcDbEntity
  8
0
100
AcDbVertex
100
AcDbPolygonMeshVertex
 10
0.0
 20
-2.089
 30
3.8634
 70
    64
  0
SEQEND
  5
60D3B
100
AcDbEntity
  8
0
  0
POLYLINE
  5
60D3C
100
AcDbEntity
  8
0
100
AcDbPolygonMesh
 66
     1
 10
0.0
 20
0.0
 30
0.0
 70
    16
 71
     6
 72
     3
  0
VERTEX
  5
60D3D
100
AcDbEntity
  8
0
100
AcDbVertex
100
AcDbPolygonMeshVertex
 10
0.391211
 20
-2.171809
 30
0.316
 70
    64
  0
VERTEX
  5
60D3E
100
AcDbEntity
  8
0
100
AcDbVertex
100
AcDbPolygonMeshVertex
 10
0.391211
 20
-2.171809
 30
0.0
 70
    64
  0
VERTEX
  5
60D3F
100
AcDbEntity
  8
0
100
AcDbVertex
100
AcDbPolygonMeshVertex
 10
0.391211
 20
-2.171809
 30
0.0
 70
    64
  0
VERTEX
  5
60D40
100
AcDbEntity
  8
0
100
AcDbVertex
100
AcDbPolygonMeshVertex
 10
0.0
 20
-2.171809
 30
0.316
 70
    64
  0
VERTEX
  5
60D41
100
AcDbEntity
  8
0
100
AcDbVertex
100
AcDbPolygonMeshVertex
 10
0.0
 20
-2.171809
 30
0.0
 70
    64
  0
VERTEX
  5
60D42
100
AcDbEntity
  8
0
100
AcDbVertex
100
AcDbPolygonMeshVertex
 10
0.0
 20
-2.171809
 30
0.0
 70
    64
  0
VERTEX
  5
60D43
100
AcDbEntity
  8
0
100
AcDbVertex
100
AcDbPolygonMeshVertex
 10
0.0
 20
-1.805809
 30
0.316
 70
    64
  0
VERTEX
  5
60D44
100
AcDbEntity
  8
0
100
AcDbVertex
100
AcDbPolygonMeshVertex
 10
0.0
 20
-1.805809
 30
0.0
 70
    64
  0
VERTEX
  5
60D45
100
AcDbEntity
  8
0
100
AcDbVertex
100
AcDbPolygonMeshVertex
 10
0.0
 20
-2.171809
 30
0.0
 70
    64
  0
VERTEX
  5
60D46
100
AcDbEntity
  8
0
100
AcDbVertex
100
AcDbPolygonMeshVertex
 10
0.391211
 20
-1.805809
 30
0.316
 70
    64
  0
VERTEX
  5
60D47
100
AcDbEntity
  8
0
100
AcDbVertex
100
AcDbPolygonMeshVertex
 10
0.391211
 20
-1.805809
 30
0.0
 70
    64
  0
VERTEX
  5
60D48
100
AcDbEntity
  8
0
100
AcDbVertex
100
AcDbPolygonMeshVertex
 10
0.391211
 20
-2.171809
 30
0.0
 70
    64
  0
VERTEX
  5
60D49
100
AcDbEntity
  8
0
100
AcDbVertex
100
AcDbPolygonMeshVertex
 10
0.391211
 20
-1.805809
 30
0.316
 70
    64
  0
VERTEX
  5
60D4A
100
AcDbEntity
  8
0
100
AcDbVertex
100
AcDbPolygonMeshVertex
 10
0.391211
 20
-1.805809
 30
0.316
 70
    64
  0
VERTEX
  5
60D4B
100
AcDbEntity
  8
0
100
AcDbVertex
100
AcDbPolygonMeshVertex
 10
0.391211
 20
-2.171809
 30
0.316
 70
    64
  0
VERTEX
  5
60D4C
100
AcDbEntity
  8
0
100
AcDbVertex
100
AcDbPolygonMeshVertex
 10
0.0
 20
-1.805809
 30
0.316
 70
    64
  0
VERTEX
  5
60D4D
100
AcDbEntity
  8
0
100
AcDbVertex
100
AcDbPolygonMeshVertex
 10
0.0
 20
-1.805809
 30
0.316
 70
    64
  0
VERTEX
  5
60D4E
100
AcDbEntity
  8
0
100
AcDbVertex
100
AcDbPolygonMeshVertex
 10
0.0
 20
-2.171809
 30
0.316
 70
    64
  0
SEQEND
  5
60D4F
100
AcDbEntity
  8
0
  0
POLYLINE
  5
60D50
100
AcDbEntity
  8
0
100
AcDbPolygonMesh
 66
     1
 10
0.0
 20
0.0
 30
0.0
 70
    16
 71
     6
 72
     3
  0
VERTEX
  5
60D51
100
AcDbEntity
  8
0
100
AcDbVertex
100
AcDbPolygonMeshVertex
 10
1.369
 20
0.48185
 30
0.316
 70
    64
  0
VERTEX
  5
60D52
100
AcDbEntity
  8
0
100
AcDbVertex
100
AcDbPolygonMeshVertex
 10
1.369
 20
0.48185
 30
0.0
 70
    64
  0
VERTEX
  5
60D53
100
AcDbEntity
  8
0
100
AcDbVertex
100
AcDbPolygonMeshVertex
 10
1.369
 20
0.48185
 30
0.0
 70
    64
  0
VERTEX
  5
60D54
100
AcDbEntity
  8
0
100
AcDbVertex
100
AcDbPolygonMeshVertex
 10
1.76
 20
0.482
 30
0.316
 70
    64
  0
VERTEX
  5
60D55
100
AcDbEntity
  8
0
100
AcDbVertex
100
AcDbPolygonMeshVertex
 10
1.76
 20
0.482
 30
0.0
 70
    64
  0
VERTEX
  5
60D56
100
AcDbEntity
  8
0
100
AcDbVertex
100
AcDbPolygonMeshVertex
 10
1.76
 20
0.482
 30
0.0
 70
    64
  0
VERTEX
  5
60D57
100
AcDbEntity
  8
0
100
AcDbVertex
100
AcDbPolygonMeshVertex
 10
1.760139
 20
0.118
 30
0.316
 70
    64
  0
VERTEX
  5
60D58
100
AcDbEntity
  8
0
100
AcDbVertex
100
AcDbPolygonMeshVertex
 10
1.760139
 20
0.118
 30
0.0
 70
    64
  0
VERTEX
  5
60D59
100
AcDbEntity
  8
0
100
AcDbVertex
100
AcDbPolygonMeshVertex
 10
1.76
 20
0.482
 30
0.0
 70
    64
  0
VERTEX
  5
60D5A
100
AcDbEntity
  8
0
100
AcDbVertex
100
AcDbPolygonMeshVertex
 10
1.369139
 20
0.117851
 30
0.316
 70
    64
  0
VERTEX
  5
60D5B
100
AcDbEntity
  8
0
100
AcDbVertex
100
AcDbPolygonMeshVertex
 10
1.369139
 20
0.117851
 30
0.0
 70
    64
  0
VERTEX
  5
60D5C
100
AcDbEntity
  8
0
100
AcDbVertex
100
AcDbPolygonMeshVertex
 10
1.369
 20
0.48185
 30
0.0
 70
    64
  0
VERTEX
  5
60D5D
100
AcDbEntity
  8
0
100
AcDbVertex
100
AcDbPolygonMeshVertex
 10
1.369139
 20
0.117851
 30
0.316
 70
    64
  0
VERTEX
  5
60D5E
100
AcDbEntity
  8
0
100
AcDbVertex
100
AcDbPolygonMeshVertex
 10
1.369139
 20
0.117851
 30
0.316
 70
    64
  0
VERTEX
  5
60D5F
100
AcDbEntity
  8
0
100
AcDbVertex
100
AcDbPolygonMeshVertex
 10
1.369
 20
0.48185
 30
0.316
 70
    64
  0
VERTEX
  5
60D60
100
AcDbEntity
  8
0
100
AcDbVertex
100
AcDbPolygonMeshVertex
 10
1.760139
 20
0.118
 30
0.316
 70
    64
  0
VERTEX
  5
60D61
100
AcDbEntity
  8
0
100
AcDbVertex
100
AcDbPolygonMeshVertex
 10
1.760139
 20
0.118
 30
0.316
 70
    64
  0
VERTEX
  5
60D62
100
AcDbEntity
  8
0
100
AcDbVertex
100
AcDbPolygonMeshVertex
 10
1.76
 20
0.482
 30
0.316
 70
    64
  0
SEQEND
  5
60D63
100
AcDbEntity
  8
0
  0
POINT
  5
60D64
100
AcDbEntity
  8
SNAP_POINTS
100
AcDbPoint
 10
0.6995
 20
0.838
 30
1.641
  0
POINT
  5
60D65
100
AcDbEntity
  8
DIMS-MTG-HOLES
100
AcDbPoint
 10
0.19
 20
-2.025
 30
0.0
  0
POINT
  5
60D66
100
AcDbEntity
  8
DIMS-MTG-HOLES
100
AcDbPoint
 10
1.57
 20
0.335
 30
0.0
  0
LWPOLYLINE
  5
60D67
100
AcDbEntity
  8
0
100
AcDbPolyline
 90
        6
 70
     0
 43
0.0
 38
3.8634
 10
0.336
 20
-1.733457
 10
0.336
 20
-1.85
 10
0.396
 20
-1.85
 10
0.396
 20
-1.89
 10
0.336
 20
-1.89
 10
0.336
 20
-2.006543
  0
LWPOLYLINE
  5
60D68
100
AcDbEntity
  8
0
100
AcDbPolyline
 90
        6
 70
     0
 43
0.0
 38
3.8634
 10
0.296
 20
-1.733457
 10
0.296
 20
-1.85
 10
0.236
 20
-1.85
 10
0.236
 20
-1.89
 10
0.296
 20
-1.89
 10
0.296
 20
-2.006543
  0
LWPOLYLINE
  5
60D69
100
AcDbEntity
  8
0
100
AcDbPolyline
 90
        6
 70
     0
 43
0.0
 38
3.8634
 10
0.9
 20
-1.733457
 10
0.9
 20
-1.85
 10
0.96
 20
-1.85
 10
0.96
 20
-1.89
 10
0.9
 20
-1.89
 10
0.9
 20
-2.006543
  0
LWPOLYLINE
  5
60D6A
100
AcDbEntity
  8
0
100
AcDbPolyline
 90
        6
 70
     0
 43
0.0
 38
3.8634
 10
0.86
 20
-1.733457
 10
0.86
 20
-1.85
 10
0.8
 20
-1.85
 10
0.8
 20
-1.89
 10
0.86
 20
-1.89
 10
0.86
 20
-2.006543
  0
LWPOLYLINE
  5
60D6B
100
AcDbEntity
  8
0
100
AcDbPolyline
 90
        6
 70
     0
 43
0.0
 38
3.8634
 10
1.464
 20
-1.733457
 10
1.464
 20
-1.85
 10
1.524
 20
-1.85
 10
1.524
 20
-1.89
 10
1.464
 20
-1.89
 10
1.464
 20
-2.006543
  0
LWPOLYLINE
  5
60D6C
100
AcDbEntity
  8
0
100
AcDbPolyline
 90
        6
 70
     0
 43
0.0
 38
3.8634
 10
1.424
 20
-1.733457
 10
1.424
 20
-1.85
 10
1.364
 20
-1.85
 10
1.364
 20
-1.89
 10
1.424
 20
-1.89
 10
1.424
 20
-2.006543
  0
LWPOLYLINE
  5
60D6D
100
AcDbEntity
  8
0
100
AcDbPolyline
 90
        6
 70
     0
 43
0.0
 38
3.8634
 10
0.336
 20
0.318543
 10
0.336
 20
0.202
 10
0.396
 20
0.202
 10
0.396
 20
0.162
 10
0.336
 20
0.162
 10
0.336
 20
0.045457
  0
LWPOLYLINE
  5
60D6E
100
AcDbEntity
  8
0
100
AcDbPolyline
 90
        6
 70
     0
 43
0.0
 38
3.8634
 10
0.296
 20
0.318543
 10
0.296
 20
0.202
 10
0.236
 20
0.202
 10
0.236
 20
0.162
 10
0.296
 20
0.162
 10
0.296
 20
0.045457
  0
LWPOLYLINE
  5
60D6F
100
AcDbEntity
  8
0
100
AcDbPolyline
 90
        6
 70
     0
 43
0.0
 38
3.8634
 10
0.9
 20
0.318543
 10
0.9
 20
0.202
 10
0.96
 20
0.202
 10
0.96
 20
0.162
 10
0.9
 20
0.162
 10
0.9
 20
0.045457
  0
LWPOLYLINE
  5
60D70
100
AcDbEntity
  8
0
100
AcDbPolyline
 90
        6
 70
     0
 43
0.0
 38
3.8634
 10
0.86
 20
0.318543
 10
0.86
 20
0.202
 10
0.8
 20
0.202
 10
0.8
 20
0.162
 10
0.86
 20
0.162
 10
0.86
 20
0.045457
  0
LWPOLYLINE
  5
60D71
100
AcDbEntity
  8
0
100
AcDbPolyline
 90
        6
 70
     0
 43
0.0
 38
3.8634
 10
1.464
 20
0.318543
 10
1.464
 20
0.202
 10
1.524
 20
0.202
 10
1.524
 20
0.162
 10
1.464
 20
0.162
 10
1.464
 20
0.045457
  0
LWPOLYLINE
  5
60D72
100
AcDbEntity
  8
0
100
AcDbPolyline
 90
        6
 70
     0
 43
0.0
 38
3.8634
 10
1.424
 20
0.318543
 10
1.424
 20
0.202
 10
1.364
 20
0.202
 10
1.364
 20
0.162
 10
1.424
 20
0.162
 10
1.424
 20
0.045457
  0
LWPOLYLINE
  5
60D73
100
AcDbEntity
  8
0
100
AcDbPolyline
 90
        6
 70
     0
 43
0.0
 38
2.062
 10
0.561
 20
0.737822
 10
0.561
 20
0.6395
 10
0.621
 20
0.6395
 10
0.621
 20
0.5995
 10
0.561
 20
0.5995
 10
0.561
 20
0.501178
  0
LWPOLYLINE
  5
60D74
100
AcDbEntity
  8
0
100
AcDbPolyline
 90
        6
 70
     0
 43
0.0
 38
2.062
 10
0.521
 20
0.737822
 10
0.521
 20
0.6395
 10
0.461
 20
0.6395
 10
0.461
 20
0.5995
 10
0.521
 20
0.5995
 10
0.521
 20
0.501178
  0
LWPOLYLINE
  5
60D75
100
AcDbEntity
  8
0
100
AcDbPolyline
 90
        6
 70
     0
 43
0.0
 38
2.062
 10
1.239
 20
0.737822
 10
1.239
 20
0.6395
 10
1.299
 20
0.6395
 10
1.299
 20
0.5995
 10
1.239
 20
0.5995
 10
1.239
 20
0.501178
  0
LWPOLYLINE
  5
60D76
100
AcDbEntity
  8
0
100
AcDbPolyline
 90
        6
 70
     0
 43
0.0
 38
2.062
 10
1.199
 20
0.737822
 10
1.199
 20
0.6395
 10
1.139
 20
0.6395
 10
1.139
 20
0.5995
 10
1.199
 20
0.5995
 10
1.199
 20
0.501178
  0
DIMENSION
  5
60D77
100
AcDbEntity
  8
AREA1
100
AcDbDimension
  2
*D0
 10
-0.61269
 20
-2.342
 30
0.0
 11
-0.61269
 21
-0.820699
 31
0.0
 70
   160
  3
ABECAD_3D
100
AcDbAlignedDimension
 13
0.3275
 23
0.838
 33
1.388
 14
0.6945
 24
-2.342
 34
1.388
 50
90.0
100
AcDbRotatedDimension
  0
DIMENSION
  5
60D85
100
AcDbEntity
  8
AREA1
100
AcDbDimension
  2
*D1
 10
1.76
 20
1.277679
 30
0.0
 11
0.876331
 21
1.666268
 31
0.0
 70
   160
  3
ABECAD_3D
100
AcDbAlignedDimension
 13
0.0
 23
0.598
 33
0.0
 14
1.76
 24
0.526
 34
1.652
100
AcDbRotatedDimension
  0
LWPOLYLINE
  5
60DAA
100
AcDbEntity
  8
SCALE
100
AcDbPolyline
 90
        4
 70
     1
 43
0.0
 10
0.307176
 20
-2.45018
 10
1.442805
 20
-2.45018
 10
1.442805
 20
-3.291789
 10
0.307176
 20
-3.291789
  0
LINE
  5
60DAB
100
AcDbEntity
  8
SCALE
100
AcDbLine
 10
0.365175
 20
-2.830258
 30
0.0
 11
1.365175
 21
-2.830258
 31
0.0
  0
LINE
  5
60DAC
100
AcDbEntity
  8
SCALE
100
AcDbLine
 10
0.365175
 20
-3.130258
 30
0.0
 11
0.758875
 21
-3.130258
 31
0.0
  0
LINE
  5
60DAD
100
AcDbEntity
  8
SCALE
100
AcDbLine
 10
0.365175
 20
-2.930258
 30
0.0
 11
0.365175
 21
-2.730258
 31
0.0
  0
TEXT
  5
60DAE
100
AcDbEntity
  8
SCALE
100
AcDbText
 10
0.421151
 20
-3.082573
 30
0.0
 40
0.0625
  1
[10mm]
100
AcDbText
  0
LINE
  5
60DAF
100
AcDbEntity
  8
SCALE
100
AcDbLine
 10
0.365175
 20
-3.230258
 30
0.0
 11
0.365175
 21
-3.030258
 31
0.0
  0
TEXT
  5
60DB0
100
AcDbEntity
  8
SCALE
100
AcDbText
 10
0.366705
 20
-2.555381
 30
0.0
 40
0.0625
  1
SCALE:
100
AcDbText
  0
LINE
  5
60DB1
100
AcDbEntity
  8
SCALE
100
AcDbLine
 10
0.758875
 20
-3.230258
 30
0.0
 11
0.758875
 21
-3.030258
 31
0.0
  0
TEXT
  5
60DB2
100
AcDbEntity
  8
SCALE
100
AcDbText
 10
0.728458
 20
-2.761209
 30
0.0
 40
0.0625
  1
1 Inch
100
AcDbText
  0
LINE
  5
60DB3
100
AcDbEntity
  8
SCALE
100
AcDbLine
 10
1.365175
 20
-2.830258
 30
0.0
 11
1.365175
 21
-2.930258
 31
0.0
  0
LINE
  5
60DB4
100
AcDbEntity
  8
SCALE
100
AcDbLine
 10
1.365175
 20
-2.930258
 30
0.0
 11
1.365175
 21
-2.730258
 31
0.0
  0
VIEWPORT
  5
5677D
102
{ACAD_XDICTIONARY
360
60E4D
102
}
100
AcDbEntity
 67
     1
  8
0
100
AcDbViewport
 10
5.25
 20
4.0
 30
0.0
 40
16.386862
 41
8.993
 68
    -1
 69
     1
1001
ACAD
1000
MVIEW
1002
{
1070
    16
1010
0.0
1020
0.0
1030
0.0
1010
0.0
1020
0.0
1030
1.0
1040
0.0
1040
8.993
1040
5.25
1040
4.0
1040
50.0
1040
0.0
1040
0.0
1070
     0
1070
 20000
1070
     1
1070
     1
1070
     0
1070
     0
1070
     0
1070
     0
1040
0.0
1040
0.0
1040
0.0
1040
0.5
1040
0.5
1040
0.5
1040
0.5
1070
     0
1002
{
1002
}
1002
}
  0
VIEWPORT
  5
5677F
102
{ACAD_XDICTIONARY
360
60E4F
102
}
100
AcDbEntity
 67
     1
  8
AREA1
100
AcDbViewport
 10
5.25
 20
4.0
 30
0.0
 40
8.4
 41
6.4
 68
     1
 69
     2
1001
ACAD
1000
MVIEW
1002
{
1070
    16
1010
0.563444
1020
-0.880137
1030
1.686493
1010
0.0
1020
0.0
1030
1.0
1040
0.0
1040
4.582914
1040
-1.017175
1040
0.747813
1040
50.0
1040
0.0
1040
0.0
1070
     0
1070
 20000
1070
     1
1070
     1
1070
     0
1070
     0
1070
     0
1070
     0
1040
0.0
1040
0.0
1040
0.0
1040
0.25
1040
0.25
1040
0.25
1040
0.25
1070
     0
1002
{
1002
}
1002
}
  0
ENDSEC
  0
SECTION
  2
OBJECTS
  0
DICTIONARY
  5
458CB
100
AcDbDictionary
  3
ACAD_GROUP
350
458CC
  3
ACAD_LAYOUT
350
458FB
  3
ACAD_MLINESTYLE
350
458D9
  3
ACAD_PLOTSETTINGS
350
458FC
  3
ACAD_PLOTSTYLENAME
350
458F9
  3
ACDBHEADERROUNDTRIPXREC
350
60E24
  3
ACDBVARIABLEDICTIONARY
350
458E1
  3
DWGPROPS
350
45901
  0
DICTIONARY
  5
60E22
100
AcDbDictionary
280
     1
  3
ACAD_XREC_ROUNDTRIP
360
60E23
  0
DICTIONARY
  5
60E4B
100
AcDbDictionary
280
     1
  3
ACAD_XREC_ROUNDTRIP
360
60E4C
  0
DICTIONARY
  5
60E20
100
AcDbDictionary
280
     1
  3
ACAD_XREC_ROUNDTRIP
360
60E21
  0
DICTIONARY
  5
60E47
100
AcDbDictionary
280
     1
  3
ACAD_XREC_ROUNDTRIP
360
60E48
  0
DICTIONARY
  5
4592C
100
AcDbDictionary
280
     1
  3
ACAD_LAYOUTSELFREF
360
60E46
  0
DICTIONARY
  5
4592A
100
AcDbDictionary
280
     1
  3
ACAD_LAYOUTSELFREF
360
60E45
  0
DICTIONARY
  5
60E4D
100
AcDbDictionary
280
     1
  3
ACAD_XREC_ROUNDTRIP
360
60E4E
  0
DICTIONARY
  5
60E4F
100
AcDbDictionary
280
     1
  3
ACAD_XREC_ROUNDTRIP
360
60E50
  0
DICTIONARY
  5
458CC
102
{ACAD_REACTORS
330
458CB
102
}
100
AcDbDictionary
  0
DICTIONARY
  5
458FB
102
{ACAD_XDICTIONARY
360
60E49
102
}
102
{ACAD_REACTORS
330
458CB
102
}
100
AcDbDictionary
  3
LAYOUT1
350
458FE
  3
MODEL
350
458FD
  0
DICTIONARY
  5
458D9
102
{ACAD_REACTORS
330
458CB
102
}
100
AcDbDictionary
  3
STANDARD
350
458DA
  0
DICTIONARY
  5
458FC
102
{ACAD_REACTORS
330
458CB
102
}
100
AcDbDictionary
  0
ACAD_PROXY_OBJECT
  5
458F9
102
{ACAD_REACTORS
330
458CB
102
}
100
AcDbProxyObject
 90
      499
 91
      501
 93
       86
310
405010041939BDC9B585B0
350
458FA
340
458FA
 94
        0
  0
DICTIONARY
  5
60E24
102
{ACAD_REACTORS
330
458CB
102
}
100
AcDbDictionary
  3
CEPSNTYPE
350
60E2E
  3
DIMSTYLEDATA
350
60E32
  3
FINGERPRINTGUID
350
60E2F
  3
HYPERLINKBASE
350
60E27
  3
INSUNITS
350
60E2D
  3
LAYOUTDICT
350
60E29
  3
LWETCUNION
350
60E2C
  3
PLOTSETDICT
350
60E2A
  3
PLOTSTYLNAMDICT
350
60E2B
  3
PSVPSCALE
350
60E31
  3
PUCSBASE
350
60E35
  3
PUCSORGBACK
350
60E3B
  3
PUCSORGBOTTOM
350
60E37
  3
PUCSORGFRONT
350
60E3A
  3
PUCSORGLEFT
350
60E38
  3
PUCSORGRIGHT
350
60E39
  3
PUCSORGTOP
350
60E36
  3
PUCSORTHOREF
350
60E33
  3
PUCSORTHOVIEW
350
60E34
  3
STYLESHEET
350
60E28
  3
TSTACKALIGN
350
60E25
  3
TSTACKSIZE
350
60E26
  3
UCSBASE
350
60E3E
  3
UCSORGBACK
350
60E44
  3
UCSORGBOTTOM
350
60E40
  3
UCSORGFRONT
350
60E43
  3
UCSORGLEFT
350
60E41
  3
UCSORGRIGHT
350
60E42
  3
UCSORGTOP
350
60E3F
  3
UCSORTHOREF
350
60E3C
  3
UCSORTHOVIEW
350
60E3D
  3
VERSIONGUID
350
60E30
  0
DICTIONARY
  5
458E1
102
{ACAD_REACTORS
330
458CB
102
}
100
AcDbDictionary
  3
DIMADEC
350
458E2
  0
XRECORD
  5
45901
102
{ACAD_REACTORS
330
458CB
102
}
100
AcDbXrecord
  1
DWGPROPS COOKIE
  2

  3

  4

  6

  7

  8
colin
  9

300
=
301
=
302
=
303
=
304
=
305
=
306
=
307
=
308
=
309
=
 40
0.000599
 41
2451670.444777
 42
2451670.445376
  1

 90
        0
  0
XRECORD
  5
60E23
102
{ACAD_REACTORS
330
60E22
102
}
100
AcDbXrecord
102
EXTNAMES
  1
*ACTIVE
  2
*Active
102
UCS
 74
     0
 71
     1
 10
0.0
 20
0.0
 30
0.0
 10
1.0
 20
0.0
 30
0.0
 10
0.0
 20
1.0
 30
0.0
146
0.0
 79
     1
102
VIEW
281
     1
  0
XRECORD
  5
60E4C
102
{ACAD_REACTORS
330
60E4B
102
}
100
AcDbXrecord
102
PLOTBIT
280
     0
  0
XRECORD
  5
60E21
102
{ACAD_REACTORS
330
60E20
102
}
100
AcDbXrecord
102
EXTNAMES
  1
DEFPOINTS
  2
Defpoints
102
PLOTBIT
280
     0
  0
XRECORD
  5
60E48
102
{ACAD_REACTORS
330
60E47
102
}
100
AcDbXrecord
102
ACADR14ROUNDTRIP
1000
DSTYLE
1002
{
1070
   276
 70
     2
1070
   277
 70
     5
1070
   279
 70
     2
1070
   289
 70
     2
1002
}
  0
XRECORD
  5
60E46
102
{ACAD_REACTORS
330
4592C
102
}
100
AcDbXrecord
340
458D6
  0
XRECORD
  5
60E45
102
{ACAD_REACTORS
330
4592A
102
}
100
AcDbXrecord
340
458D3
  0
XRECORD
  5
60E4E
102
{ACAD_REACTORS
330
60E4D
102
}
100
AcDbXrecord
102
UCS
 74
     0
 71
     1
 10
0.0
 20
0.0
 30
0.0
 10
1.0
 20
0.0
 30
0.0
 10
0.0
 20
1.0
 30
0.0
146
0.0
 79
     0
102
VIEW
281
     0
102
NEWVIEWCONTROL
280
     4
  0
XRECORD
  5
60E50
102
{ACAD_REACTORS
330
60E4F
102
}
100
AcDbXrecord
102
UCS
 74
     0
 71
     1
 10
0.0
 20
0.0
 30
0.0
 10
1.0
 20
0.0
 30
0.0
 10
0.0
 20
1.0
 30
0.0
146
0.0
 79
     1
102
VIEW
281
     1
102
NEWVIEWCONTROL
280
     4
  0
DICTIONARY
  5
60E49
100
AcDbDictionary
280
     1
  3
ACAD_XREC_ROUNDTRIP
360
60E4A
  0
ACAD_PROXY_OBJECT
  5
458FE
102
{ACAD_REACTORS
330
458FB
102
}
100
AcDbProxyObject
 90
      499
 91
      503
 93
     1700
310
90B6E6F6E655F6465766963652C0080000006066661940000000181999865000000000068661940000000001A1986500000000C0CCFC6A4000000018199D9C5011C4C65747465725F28382E35305F785F31312E30305F496E6368657329A901416AA547D11959985D5B1D08148C4D081C195B88185CDCDA59DB9B595B9D1CC
310
B98DD1891069074C61796F75743140501A840201008040342FEFF7FBFDFFFFF3EFDFAFF7FBFFDFC9501008043E3FDFC8102A6A6A0000003033333C0FC000000809999E93F8FFFFFF5766E622403FFFFFEBF333071020
330
458D3
330
5677D
340
0
340
0
 94
        0
  0
ACAD_PROXY_OBJECT
  5
458FD
102
{ACAD_REACTORS
330
458FB
102
}
100
AcDbProxyObject
 90
      499
 91
      503
 93
      924
310
91D4850204C617365724A65742035303030205365726965732050434C20362C01AAAAAAAAA547D11959985D5B1D08148C4D081C195B88185CDCDA59DB9B595B9D1CCB98DD18A69054D6F64656C901A800000000000000000000000000000000000000000000A1000000000000008902A6A6AAAA0
330
458D6
330
0
340
0
340
0
 94
        0
  0
MLINESTYLE
  5
458DA
102
{ACAD_REACTORS
330
458D9
102
}
100
AcDbMlineStyle
  2
STANDARD
 70
     0
  3

 62
   256
 51
90.0
 52
90.0
 71
     2
 49
0.5
 62
   256
  6
BYLAYER
 49
-0.5
 62
   256
  6
BYLAYER
  0
ACAD_PROXY_OBJECT
  5
458FA
102
{ACAD_REACTORS
330
458F9
102
}
100
AcDbProxyObject
 90
      499
 91
      502
 93
        0
 94
        0
  0
XRECORD
  5
60E2E
102
{ACAD_REACTORS
330
60E24
102
}
100
AcDbXrecord
 90
        0
  0
XRECORD
  5
60E32
102
{ACAD_REACTORS
330
60E24
102
}
100
AcDbXrecord
1000
DSTYLE
1002
{
1070
   276
 70
     2
1070
   277
 70
     5
1070
   279
 70
     2
1070
   289
 70
     2
1002
}
  0
XRECORD
  5
60E2F
102
{ACAD_REACTORS
330
60E24
102
}
100
AcDbXrecord
  1
{6E0CF4B8-225E-11D4-A150-00A0CC3303EC}
  0
XRECORD
  5
60E27
102
{ACAD_REACTORS
330
60E24
102
}
100
AcDbXrecord
  1

  0
XRECORD
  5
60E2D
102
{ACAD_REACTORS
330
60E24
102
}
100
AcDbXrecord
 90
        0
  0
XRECORD
  5
60E29
102
{ACAD_REACTORS
330
60E24
102
}
100
AcDbXrecord
340
458FB
  0
XRECORD
  5
60E2C
102
{ACAD_REACTORS
330
60E24
102
}
100
AcDbXrecord
 90
    14877
  0
XRECORD
  5
60E2A
102
{ACAD_REACTORS
330
60E24
102
}
100
AcDbXrecord
340
458FC
  0
XRECORD
  5
60E2B
102
{ACAD_REACTORS
330
60E24
102
}
100
AcDbXrecord
340
458F9
  0
XRECORD
  5
60E31
102
{ACAD_REACTORS
330
60E24
102
}
100
AcDbXrecord
 40
0.0
  0
XRECORD
  5
60E35
102
{ACAD_REACTORS
330
60E24
102
}
100
AcDbXrecord
340
0
  0
XRECORD
  5
60E3B
102
{ACAD_REACTORS
330
60E24
102
}
100
AcDbXrecord
 10
0.0
 20
0.0
 30
0.0
  0
XRECORD
  5
60E37
102
{ACAD_REACTORS
330
60E24
102
}
100
AcDbXrecord
 10
0.0
 20
0.0
 30
0.0
  0
XRECORD
  5
60E3A
102
{ACAD_REACTORS
330
60E24
102
}
100
AcDbXrecord
 10
0.0
 20
0.0
 30
0.0
  0
XRECORD
  5
60E38
102
{ACAD_REACTORS
330
60E24
102
}
100
AcDbXrecord
 10
0.0
 20
0.0
 30
0.0
  0
XRECORD
  5
60E39
102
{ACAD_REACTORS
330
60E24
102
}
100
AcDbXrecord
 10
0.0
 20
0.0
 30
0.0
  0
XRECORD
  5
60E36
102
{ACAD_REACTORS
330
60E24
102
}
100
AcDbXrecord
 10
0.0
 20
0.0
 30
0.0
  0
XRECORD
  5
60E33
102
{ACAD_REACTORS
330
60E24
102
}
100
AcDbXrecord
340
0
  0
XRECORD
  5
60E34
102
{ACAD_REACTORS
330
60E24
102
}
100
AcDbXrecord
 70
     0
  0
XRECORD
  5
60E28
102
{ACAD_REACTORS
330
60E24
102
}
100
AcDbXrecord
  1

  0
XRECORD
  5
60E25
102
{ACAD_REACTORS
330
60E24
102
}
100
AcDbXrecord
 90
        1
  0
XRECORD
  5
60E26
102
{ACAD_REACTORS
330
60E24
102
}
100
AcDbXrecord
 90
       70
  0
XRECORD
  5
60E3E
102
{ACAD_REACTORS
330
60E24
102
}
100
AcDbXrecord
340
0
  0
XRECORD
  5
60E44
102
{ACAD_REACTORS
330
60E24
102
}
100
AcDbXrecord
 10
0.0
 20
0.0
 30
0.0
  0
XRECORD
  5
60E40
102
{ACAD_REACTORS
330
60E24
102
}
100
AcDbXrecord
 10
0.0
 20
0.0
 30
0.0
  0
XRECORD
  5
60E43
102
{ACAD_REACTORS
330
60E24
102
}
100
AcDbXrecord
 10
0.0
 20
0.0
 30
0.0
  0
XRECORD
  5
60E41
102
{ACAD_REACTORS
330
60E24
102
}
100
AcDbXrecord
 10
0.0
 20
0.0
 30
0.0
  0
XRECORD
  5
60E42
102
{ACAD_REACTORS
330
60E24
102
}
100
AcDbXrecord
 10
0.0
 20
0.0
 30
0.0
  0
XRECORD
  5
60E3F
102
{ACAD_REACTORS
330
60E24
102
}
100
AcDbXrecord
 10
0.0
 20
0.0
 30
0.0
  0
XRECORD
  5
60E3C
102
{ACAD_REACTORS
330
60E24
102
}
100
AcDbXrecord
340
0
  0
XRECORD
  5
60E3D
102
{ACAD_REACTORS
330
60E24
102
}
100
AcDbXrecord
 70
     1
  0
XRECORD
  5
60E30
102
{ACAD_REACTORS
330
60E24
102
}
100
AcDbXrecord
  1
{D3218C31-59D2-449B-B797-A8028D1D12B3}
  0
DICTIONARYVAR
  5
458E2
102
{ACAD_REACTORS
330
458E1
102
}
100
DictionaryVariables
280
     0
  1
0
  0
XRECORD
  5
60E4A
102
{ACAD_REACTORS
330
60E49
102
}
100
AcDbXrecord
102
EXTNAMES
  1
LAYOUT1
  2
Layout1
  1
MODEL
  2
Model
  0
ENDSEC
  0
EOF
