  0
SECTION
  2
HEADER
  9
$ACADVER
  1
AC1014
  9
$ACADMAINTVER
 70
     9
  9
$DWGCODEPAGE
  3
ANSI_1252
  9
$INSBASE
 10
0.0
 20
0.0
 30
0.0
  9
$EXTMIN
 10
0.0
 20
0.0
 30
0.0
  9
$EXTMAX
 10
841.0
 20
594.0
 30
0.0
  9
$LIMMIN
 10
0.0
 20
0.0
  9
$LIMMAX
 10
841.0
 20
594.0
  9
$ORTHOMODE
 70
     0
  9
$REGENMODE
 70
     1
  9
$FILLMODE
 70
     1
  9
$QTEXTMODE
 70
     0
  9
$MIRRTEXT
 70
     1
  9
$DRAGMODE
 70
     2
  9
$LTSCALE
 40
1.0
  9
$OSMODE
 70
    37
  9
$ATTMODE
 70
     1
  9
$TEXTSIZE
 40
3.5
  9
$TRACEWID
 40
1.0
  9
$TEXTSTYLE
  7
STANDARD
  9
$CLAYER
  8
0
  9
$CELTYPE
  6
BYLAYER
  9
$CECOLOR
 62
   256
  9
$CELTSCALE
 40
1.0
  9
$DELOBJ
 70
     1
  9
$DISPSILH
 70
     0
  9
$DIMSCALE
 40
1.0
  9
$DIMASZ
 40
2.5
  9
$DIMEXO
 40
1.0
  9
$DIMDLI
 40
3.75
  9
$DIMRND
 40
0.0
  9
$DIMDLE
 40
0.0
  9
$DIMEXE
 40
1.0
  9
$DIMTP
 40
0.0
  9
$DIMTM
 40
0.0
  9
$DIMTXT
 40
3.5
  9
$DIMCEN
 40
2.5
  9
$DIMTSZ
 40
0.0
  9
$DIMTOL
 70
     0
  9
$DIMLIM
 70
     0
  9
$DIMTIH
 70
     1
  9
$DIMTOH
 70
     1
  9
$DIMSE1
 70
     0
  9
$DIMSE2
 70
     0
  9
$DIMTAD
 70
     1
  9
$DIMZIN
 70
     0
  9
$DIMBLK
  1

  9
$DIMASO
 70
     1
  9
$DIMSHO
 70
     1
  9
$DIMPOST
  1

  9
$DIMAPOST
  1

  9
$DIMALT
 70
     0
  9
$DIMALTD
 70
     3
  9
$DIMALTF
 40
0.0393700787
  9
$DIMLFAC
 40
1.0
  9
$DIMTOFL
 70
     1
  9
$DIMTVP
 40
0.0
  9
$DIMTIX
 70
     0
  9
$DIMSOXD
 70
     0
  9
$DIMSAH
 70
     0
  9
$DIMBLK1
  1

  9
$DIMBLK2
  1

  9
$DIMSTYLE
  2
ISO-25
  9
$DIMCLRD
 70
     0
  9
$DIMCLRE
 70
     0
  9
$DIMCLRT
 70
     0
  9
$DIMTFAC
 40
1.0
  9
$DIMGAP
 40
1.524
  9
$DIMJUST
 70
     0
  9
$DIMSD1
 70
     0
  9
$DIMSD2
 70
     0
  9
$DIMTOLJ
 70
     0
  9
$DIMTZIN
 70
     0
  9
$DIMALTZ
 70
     0
  9
$DIMALTTZ
 70
     0
  9
$DIMFIT
 70
     3
  9
$DIMUPT
 70
     0
  9
$DIMUNIT
 70
     2
  9
$DIMDEC
 70
     2
  9
$DIMTDEC
 70
     2
  9
$DIMALTU
 70
     2
  9
$DIMALTTD
 70
     3
  9
$DIMTXSTY
  7
STANDARD
  9
$DIMAUNIT
 70
     0
  9
$LUNITS
 70
     2
  9
$LUPREC
 70
     2
  9
$SKETCHINC
 40
1.0
  9
$FILLETRAD
 40
10.0
  9
$AUNITS
 70
     0
  9
$AUPREC
 70
     2
  9
$MENU
  1
.
  9
$ELEVATION
 40
0.0
  9
$PELEVATION
 40
0.0
  9
$THICKNESS
 40
0.0
  9
$LIMCHECK
 70
     0
  9
$CHAMFERA
 40
0.0
  9
$CHAMFERB
 40
0.0
  9
$CHAMFERC
 40
0.0
  9
$CHAMFERD
 40
0.0
  9
$SKPOLY
 70
     0
  9
$TDCREATE
 40
2458132.048153982
  9
$TDUPDATE
 40
2458132.048156331
  9
$TDINDWG
 40
0.0000000116
  9
$TDUSRTIMER
 40
0.0000000116
  9
$USRTIMER
 70
     1
  9
$ANGBASE
 50
0.0
  9
$ANGDIR
 70
     0
  9
$PDMODE
 70
     0
  9
$PDSIZE
 40
-1.0
  9
$PLINEWID
 40
0.0
  9
$COORDS
 70
     1
  9
$SPLFRAME
 70
     0
  9
$SPLINETYPE
 70
     6
  9
$SPLINESEGS
 70
     8
  9
$ATTDIA
 70
     0
  9
$ATTREQ
 70
     1
  9
$HANDLING
 70
     1
  9
$HANDSEED
  5
3BD
  9
$SURFTAB1
 70
     6
  9
$SURFTAB2
 70
     6
  9
$SURFTYPE
 70
     6
  9
$SURFU
 70
     6
  9
$SURFV
 70
     6
  9
$UCSNAME
  2

  9
$UCSORG
 10
0.0
 20
0.0
 30
0.0
  9
$UCSXDIR
 10
1.0
 20
0.0
 30
0.0
  9
$UCSYDIR
 10
0.0
 20
1.0
 30
0.0
  9
$PUCSNAME
  2

  9
$PUCSORG
 10
0.0
 20
0.0
 30
0.0
  9
$PUCSXDIR
 10
1.0
 20
0.0
 30
0.0
  9
$PUCSYDIR
 10
0.0
 20
1.0
 30
0.0
  9
$USERI1
 70
     0
  9
$USERI2
 70
     0
  9
$USERI3
 70
     0
  9
$USERI4
 70
     0
  9
$USERI5
 70
     0
  9
$USERR1
 40
0.0
  9
$USERR2
 40
0.0
  9
$USERR3
 40
0.0
  9
$USERR4
 40
0.0
  9
$USERR5
 40
0.0
  9
$WORLDVIEW
 70
     1
  9
$SHADEDGE
 70
     3
  9
$SHADEDIF
 70
    70
  9
$TILEMODE
 70
     1
  9
$MAXACTVP
 70
    64
  9
$PINSBASE
 10
0.0
 20
0.0
 30
0.0
  9
$PLIMCHECK
 70
     0
  9
$PEXTMIN
 10
1.0000000000E+20
 20
1.0000000000E+20
 30
1.0000000000E+20
  9
$PEXTMAX
 10
-1.0000000000E+20
 20
-1.0000000000E+20
 30
-1.0000000000E+20
  9
$PLIMMIN
 10
0.0
 20
0.0
  9
$PLIMMAX
 10
420.0
 20
297.0
  9
$UNITMODE
 70
     0
  9
$VISRETAIN
 70
     1
  9
$PLINEGEN
 70
     0
  9
$PSLTSCALE
 70
     1
  9
$TREEDEPTH
 70
  3020
  9
$PICKSTYLE
 70
     1
  9
$CMLSTYLE
  2
STANDARD
  9
$CMLJUST
 70
     0
  9
$CMLSCALE
 40
20.0
  9
$PROXYGRAPHICS
 70
     1
  9
$MEASUREMENT
 70
     1
  0
ENDSEC
  0
SECTION
  2
CLASSES
  0
CLASS
  1
ACDBDICTIONARYWDFLT
  2
AcDbDictionaryWithDefault
  3
ObjectDBX Classes
 90
        0
280
     0
281
     0
  0
CLASS
  1
VISUALSTYLE
  2
AcDbVisualStyle
  3
ObjectDBX Classes
 90
     4095
280
     0
281
     0
  0
CLASS
  1
MATERIAL
  2
AcDbMaterial
  3
ObjectDBX Classes
 90
     1153
280
     0
281
     0
  0
CLASS
  1
SCALE
  2
AcDbScale
  3
ObjectDBX Classes
 90
     1153
280
     0
281
     0
  0
CLASS
  1
TABLESTYLE
  2
AcDbTableStyle
  3
ObjectDBX Classes
 90
     4095
280
     0
281
     0
  0
CLASS
  1
MLEADERSTYLE
  2
AcDbMLeaderStyle
  3
ACDB_MLEADERSTYLE_CLASS
 90
     4095
280
     0
281
     0
  0
CLASS
  1
SUN
  2
AcDbSun
  3
SCENEOE
 90
     1153
280
     0
281
     0
  0
CLASS
  1
XRECORD
  2
AcDbXrecord
  3
ObjectDBX Classes
 90
        0
280
     0
281
     0
  0
CLASS
  1
LWPOLYLINE
  2
AcDbPolyline
  3
ObjectDBX Classes
 90
        0
280
     0
281
     1
  0
CLASS
  1
HATCH
  2
AcDbHatch
  3
ObjectDBX Classes
 90
        0
280
     0
281
     1
  0
ENDSEC
  0
SECTION
  2
TABLES
  0
TABLE
  2
VPORT
  5
8
330
0
100
AcDbSymbolTable
 70
     1
  0
VPORT
  5
29
330
8
100
AcDbSymbolTableRecord
100
AcDbViewportTableRecord
  2
*ACTIVE
 70
     0
 10
0.0
 20
0.0
 11
1.0
 21
1.0
 12
420.5
 22
297.0
 13
0.0
 23
0.0
 14
10.0
 24
10.0
 15
10.0
 25
10.0
 16
0.0
 26
0.0
 36
1.0
 17
0.0
 27
0.0
 37
0.0
 40
594.0
 41
1.4158249158
 42
50.0
 43
0.0
 44
0.0
 50
0.0
 51
0.0
 71
     0
 72
  2000
 73
     1
 74
     3
 75
     0
 76
     0
 77
     0
 78
     0
  0
ENDTAB
  0
TABLE
  2
LTYPE
  5
5
330
0
100
AcDbSymbolTable
 70
     6
  0
LTYPE
  5
14
330
5
100
AcDbSymbolTableRecord
100
AcDbLinetypeTableRecord
  2
BYBLOCK
 70
     0
  3

 72
    65
 73
     0
 40
0.0
  0
LTYPE
  5
15
330
5
100
AcDbSymbolTableRecord
100
AcDbLinetypeTableRecord
  2
BYLAYER
 70
     0
  3

 72
    65
 73
     0
 40
0.0
  0
LTYPE
  5
16
330
5
100
AcDbSymbolTableRecord
100
AcDbLinetypeTableRecord
  2
CONTINUOUS
 70
     0
  3
Solid line
 72
    65
 73
     0
 40
0.0
  0
LTYPE
  5
6E
330
5
100
AcDbSymbolTableRecord
100
AcDbLinetypeTableRecord
  2
HIDDEN
 70
     0
  3
Hidden __ __ __ __ __ __ __ __ __ __ __ __ __ __
 72
    65
 73
     2
 40
1.905
 49
1.27
 74
     0
 49
-0.635
 74
     0
  0
LTYPE
  5
6F
330
5
100
AcDbSymbolTableRecord
100
AcDbLinetypeTableRecord
  2
PHANTOM
 70
     0
  3
Phantom ______  __  __  ______  __  __  ______
 72
    65
 73
     6
 40
12.7
 49
6.35
 74
     0
 49
-1.27
 74
     0
 49
1.27
 74
     0
 49
-1.27
 74
     0
 49
1.27
 74
     0
 49
-1.27
 74
     0
  0
LTYPE
  5
70
330
5
100
AcDbSymbolTableRecord
100
AcDbLinetypeTableRecord
  2
CENTER
 70
     0
  3
Center ____ _ ____ _ ____ _ ____ _ ____ _ ____
 72
    65
 73
     4
 40
10.16
 49
6.35
 74
     0
 49
-1.27
 74
     0
 49
1.27
 74
     0
 49
-1.27
 74
     0
  0
LTYPE
  5
71
330
5
100
AcDbSymbolTableRecord
100
AcDbLinetypeTableRecord
  2
CENTERX2
 70
     0
  3
Center (2x) ________  __  ________  __  _____
 72
    65
 73
     4
 40
20.32
 49
12.7
 74
     0
 49
-2.54
 74
     0
 49
2.54
 74
     0
 49
-2.54
 74
     0
  0
LTYPE
  5
72
330
5
100
AcDbSymbolTableRecord
100
AcDbLinetypeTableRecord
  2
DOT2
 70
     0
  3
Dot (.5x) ........................................
 72
    65
 73
     2
 40
0.635
 49
0.0
 74
     0
 49
-0.635
 74
     0
  0
ENDTAB
  0
TABLE
  2
LAYER
  5
2
330
0
100
AcDbSymbolTable
 70
     1
  0
LAYER
  5
10
330
2
100
AcDbSymbolTableRecord
100
AcDbLayerTableRecord
  2
0
 70
     0
 62
     7
  6
CONTINUOUS
  0
ENDTAB
  0
TABLE
  2
STYLE
  5
3
330
0
100
AcDbSymbolTable
 70
     2
  0
STYLE
  5
11
330
3
100
AcDbSymbolTableRecord
100
AcDbTextStyleTableRecord
  2
STANDARD
 70
     0
 40
0.0
 41
1.0
 50
0.0
 71
     0
 42
3.5
  3
txt
  4

  0
STYLE
  5
78
330
3
100
AcDbSymbolTableRecord
100
AcDbTextStyleTableRecord
  2
SLDTEXTSTYLE0
 70
     0
 40
0.0
 41
0.75
 50
0.0
 71
     0
 42
3.5
  3
TXT
  4

  0
ENDTAB
  0
TABLE
  2
VIEW
  5
6
330
0
100
AcDbSymbolTable
 70
     0
  0
ENDTAB
  0
TABLE
  2
UCS
  5
7
330
0
100
AcDbSymbolTable
 70
     0
  0
ENDTAB
  0
TABLE
  2
APPID
  5
9
330
0
100
AcDbSymbolTable
 70
     1
  0
APPID
  5
12
330
9
100
AcDbSymbolTableRecord
100
AcDbRegAppTableRecord
  2
ACAD
 70
     0
  0
ENDTAB
  0
TABLE
  2
DIMSTYLE
  5
A
330
0
100
AcDbSymbolTable
 70
     3
  0
DIMSTYLE
105
27
330
A
100
AcDbSymbolTableRecord
100
AcDbDimStyleTableRecord
  2
ISO-25
 70
     0
  3

  4

  5

  6

  7

 40
1.0
 41
2.5
 42
0.625
 43
3.75
 44
1.25
 45
0.0
 46
0.0
 47
0.0
 48
0.0
140
2.5
141
2.5
142
0.0
143
0.0393700787
144
1.0
145
0.0
146
1.0
147
0.625
 71
     0
 72
     0
 73
     0
 74
     0
 75
     0
 76
     0
 77
     1
 78
     8
170
     0
171
     3
172
     1
173
     0
174
     0
175
     0
176
     0
177
     0
178
     0
270
     2
271
     2
272
     2
273
     2
274
     3
340
11
275
     0
280
     0
281
     0
282
     0
283
     0
284
     8
285
     0
286
     0
287
     3
288
     0
  0
DIMSTYLE
105
79
102
{ACAD_REACTORS
330
77
102
}
330
A
100
AcDbSymbolTableRecord
100
AcDbDimStyleTableRecord
  2
SLDDIMSTYLE0
 70
     0
  3

  4

  5

  6

  7

 40
1.0
 41
2.5
 42
0.0625
 43
0.38
 44
0.0
 45
0.000000001
 46
0.0
 47
0.0
 48
0.0
140
3.5
141
0.09
142
0.0
143
25.4
144
1.0
145
0.0
146
1.0
147
0.875
 71
     0
 72
     0
 73
     0
 74
     0
 75
     0
 76
     0
 77
     1
 78
    12
170
     0
171
     2
172
     0
173
     1
174
     0
175
     0
176
     0
177
     0
178
     0
270
     2
271
     2
272
     2
273
     2
274
     2
340
78
275
     0
280
     0
281
     0
282
     0
283
     1
284
    12
285
     0
286
     0
287
     3
288
     0
  0
DIMSTYLE
105
84
102
{ACAD_REACTORS
330
83
102
}
330
A
100
AcDbSymbolTableRecord
100
AcDbDimStyleTableRecord
  2
SLDDIMSTYLE1
 70
     0
  3

  4

  5

  6

  7

 40
1.0
 41
2.5
 42
0.0625
 43
0.38
 44
0.0
 45
0.000000001
 46
0.0
 47
0.0
 48
0.0
140
3.5
141
0.09
142
0.0
143
25.4
144
1.0
145
0.0
146
1.0
147
0.875
 71
     0
 72
     0
 73
     0
 74
     0
 75
     0
 76
     0
 77
     1
 78
    12
170
     0
171
     2
172
     1
173
     1
174
     0
175
     0
176
     0
177
     0
178
     0
270
     2
271
     2
272
     2
273
     2
274
     2
340
78
275
     0
280
     0
281
     0
282
     0
283
     1
284
    12
285
     0
286
     0
288
     0
  0
ENDTAB
  0
TABLE
  2
BLOCK_RECORD
  5
1
330
0
100
AcDbSymbolTable
 70
     3
  0
BLOCK_RECORD
  5
1F
330
1
100
AcDbSymbolTableRecord
100
AcDbBlockTableRecord
  2
*MODEL_SPACE
  0
BLOCK_RECORD
  5
1B
330
1
100
AcDbSymbolTableRecord
100
AcDbBlockTableRecord
  2
*PAPER_SPACE
  0
BLOCK_RECORD
  5
23
330
1
100
AcDbSymbolTableRecord
100
AcDbBlockTableRecord
  2
*PAPER_SPACE0
  0
BLOCK_RECORD
  5
7A
330
1
100
AcDbSymbolTableRecord
100
AcDbBlockTableRecord
  2
_D
  0
BLOCK_RECORD
  5
85
330
1
100
AcDbSymbolTableRecord
100
AcDbBlockTableRecord
  2
_D_1
  0
ENDTAB
  0
ENDSEC
  0
SECTION
  2
BLOCKS
  0
BLOCK
  5
20
330
1F
100
AcDbEntity
  8
0
100
AcDbBlockBegin
  2
*MODEL_SPACE
 70
     0
 10
0.0
 20
0.0
 30
0.0
  3
*MODEL_SPACE
  1

  0
ENDBLK
  5
21
330
1F
100
AcDbEntity
  8
0
100
AcDbBlockEnd
  0
BLOCK
  5
1C
330
1B
100
AcDbEntity
 67
     1
  8
0
100
AcDbBlockBegin
  2
*PAPER_SPACE
 70
     0
 10
0.0
 20
0.0
 30
0.0
  3
*PAPER_SPACE
  1

  0
ENDBLK
  5
1D
330
1B
100
AcDbEntity
 67
     1
  8
0
100
AcDbBlockEnd
  0
BLOCK
  5
24
330
23
100
AcDbEntity
  8
0
100
AcDbBlockBegin
  2
*PAPER_SPACE0
 70
     0
 10
0.0
 20
0.0
 30
0.0
  3
*PAPER_SPACE0
  1

  0
ENDBLK
  5
25
330
23
100
AcDbEntity
  8
0
100
AcDbBlockEnd
  0
BLOCK
  5
7B
330
7A
100
AcDbEntity
  8
0
100
AcDbBlockBegin
  2
_D
 70
     0
 10
0.0
 20
0.0
 30
0.0
  3
_D
  1

  0
SOLID
  5
7D
330
7A
100
AcDbEntity
  8
0
  6
CONTINUOUS
 62
     7
100
AcDbTrace
 10
120.0
 20
10.0
 30
0.0
 11
117.5
 21
10.31
 31
0.0
 12
117.5
 22
9.69
 32
0.0
 13
117.5
 23
9.69
 33
0.0
  0
SOLID
  5
7E
330
7A
100
AcDbEntity
  8
0
  6
CONTINUOUS
 62
     7
100
AcDbTrace
 10
20.0
 20
10.0
 30
0.0
 11
22.5
 21
9.69
 31
0.0
 12
22.5
 22
10.31
 32
0.0
 13
22.5
 23
10.31
 33
0.0
  0
LINE
  5
7F
330
7A
100
AcDbEntity
  8
0
  6
CONTINUOUS
 62
     7
100
AcDbLine
 10
120.0
 20
19.0
 30
0.0
 11
120.0
 21
9.0
 31
0.0
  0
LINE
  5
80
330
7A
100
AcDbEntity
  8
0
  6
CONTINUOUS
 62
     7
100
AcDbLine
 10
20.0
 20
19.0
 30
0.0
 11
20.0
 21
9.0
 31
0.0
  0
LINE
  5
81
330
7A
100
AcDbEntity
  8
0
  6
CONTINUOUS
 62
     7
100
AcDbLine
 10
120.0
 20
10.0
 30
0.0
 11
20.0
 21
10.0
 31
0.0
  0
MTEXT
  5
82
330
7A
100
AcDbEntity
  8
0
  6
CONTINUOUS
 62
     7
100
AcDbMText
 10
66.1208333261
 20
14.5117369146
 30
0.0
 40
3.5
 41
0.0
 71
     1
 72
     1
  1
100
  7
SLDTEXTSTYLE0
  0
ENDBLK
  5
7C
330
7A
100
AcDbEntity
  8
0
100
AcDbBlockEnd
  0
BLOCK
  5
86
330
85
100
AcDbEntity
  8
0
100
AcDbBlockBegin
  2
_D_1
 70
     0
 10
0.0
 20
0.0
 30
0.0
  3
_D_1
  1

  0
SOLID
  5
88
330
85
100
AcDbEntity
  8
0
  6
CONTINUOUS
 62
     7
100
AcDbTrace
 10
10.0
 20
20.0
 30
0.0
 11
9.69
 21
17.5
 31
0.0
 12
10.31
 22
17.5
 32
0.0
 13
10.31
 23
17.5
 33
0.0
  0
SOLID
  5
89
330
85
100
AcDbEntity
  8
0
  6
CONTINUOUS
 62
     7
100
AcDbTrace
 10
10.0
 20
30.0
 30
0.0
 11
10.31
 21
32.5
 31
0.0
 12
9.69
 22
32.5
 32
0.0
 13
9.69
 23
32.5
 33
0.0
  0
LINE
  5
8A
330
85
100
AcDbEntity
  8
0
  6
CONTINUOUS
 62
     7
100
AcDbLine
 10
19.0
 20
20.0
 30
0.0
 11
9.0
 21
20.0
 31
0.0
  0
LINE
  5
8B
330
85
100
AcDbEntity
  8
0
  6
CONTINUOUS
 62
     7
100
AcDbLine
 10
19.0
 20
30.0
 30
0.0
 11
9.0
 21
30.0
 31
0.0
  0
LINE
  5
8C
330
85
100
AcDbEntity
  8
0
  6
CONTINUOUS
 62
     7
100
AcDbLine
 10
10.0
 20
20.0
 30
0.0
 11
10.0
 21
17.5
 31
0.0
  0
LINE
  5
8D
330
85
100
AcDbEntity
  8
0
  6
CONTINUOUS
 62
     7
100
AcDbLine
 10
10.0
 20
20.0
 30
0.0
 11
10.0
 21
30.0
 31
0.0
  0
LINE
  5
8E
330
85
100
AcDbEntity
  8
0
  6
CONTINUOUS
 62
     7
100
AcDbLine
 10
10.0
 20
30.0
 30
0.0
 11
10.0
 21
32.5
 31
0.0
  0
MTEXT
  5
8F
330
85
100
AcDbEntity
  8
0
  6
CONTINUOUS
 62
     7
100
AcDbMText
 10
5.4882630854
 20
22.4138888065
 30
0.0
 40
3.5
 41
0.0
 71
     1
 72
     1
  1
10
  7
SLDTEXTSTYLE0
 11
6.123233995736766E-17
 21
1.0
 31
0.0
  0
ENDBLK
  5
87
330
85
100
AcDbEntity
  8
0
100
AcDbBlockEnd
  0
ENDSEC
  0
SECTION
  2
ENTITIES
  0
LINE
  5
73
330
1F
100
AcDbEntity
  8
0
  6
CONTINUOUS
 62
     7
100
AcDbLine
 10
20.0
 20
30.0
 30
0.0
 11
120.0
 21
30.0
 31
0.0
  0
LINE
  5
74
330
1F
100
AcDbEntity
  8
0
  6
CONTINUOUS
 62
     7
100
AcDbLine
 10
120.0
 20
30.0
 30
0.0
 11
120.0
 21
20.0
 31
0.0
  0
LINE
  5
75
330
1F
100
AcDbEntity
  8
0
  6
CONTINUOUS
 62
     7
100
AcDbLine
 10
120.0
 20
20.0
 30
0.0
 11
20.0
 21
20.0
 31
0.0
  0
LINE
  5
76
330
1F
100
AcDbEntity
  8
0
  6
CONTINUOUS
 62
     7
100
AcDbLine
 10
20.0
 20
20.0
 30
0.0
 11
20.0
 21
30.0
 31
0.0
  0
DIMENSION
  5
77
330
1F
100
AcDbEntity
  8
0
  6
CONTINUOUS
 62
     7
100
AcDbDimension
  2
_D
 10
20.0
 20
10.0
 30
0.0
 11
70.0
 21
10.0
 31
0.0
 70
   160
  1
<>
  3
SLDDIMSTYLE0
100
AcDbAlignedDimension
 13
120.0
 23
20.0
 33
0.0
 14
20.0
 24
20.0
 34
0.0
 50
0.0
100
AcDbRotatedDimension
  0
DIMENSION
  5
83
330
1F
100
AcDbEntity
  8
0
  6
CONTINUOUS
 62
     7
100
AcDbDimension
  2
_D_1
 10
10.0
 20
30.0
 30
0.0
 11
10.0
 21
25.0
 31
0.0
 70
   160
  1
<>
  3
SLDDIMSTYLE1
100
AcDbAlignedDimension
 13
20.0
 23
20.0
 33
0.0
 14
20.0
 24
30.0
 34
0.0
 50
90.0
100
AcDbRotatedDimension
  0
ARC
  5
90
330
1F
100
AcDbEntity
  8
0
  6
CONTINUOUS
 62
     7
100
AcDbCircle
 10
271.2677814082
 20
159.2015368952
 30
0.0
 40
0.1999999999999886
100
AcDbArc
 50
90.0
 51
150.0
  0
ARC
  5
91
330
1F
100
AcDbEntity
  8
0
  6
CONTINUOUS
 62
     7
100
AcDbCircle
 10
271.2677814082
 20
149.6015368952
 30
0.0
 40
0.1999999999999886
100
AcDbArc
 50
210.0
 51
270.0
  0
LINE
  5
92
330
1F
100
AcDbEntity
  8
0
  6
CONTINUOUS
 62
     7
100
AcDbLine
 10
274.2677814082
 20
159.4015368952
 30
0.0
 11
271.2677814082
 21
159.4015368952
 31
0.0
  0
LINE
  5
93
330
1F
100
AcDbEntity
  8
0
  6
CONTINUOUS
 62
     7
100
AcDbLine
 10
271.2677814082
 20
149.4015368952
 30
0.0
 11
274.2677814082
 21
149.4015368952
 31
0.0
  0
LINE
  5
94
330
1F
100
AcDbEntity
  8
0
  6
CONTINUOUS
 62
     7
100
AcDbLine
 10
274.2677814082
 20
149.4015368952
 30
0.0
 11
274.5677814082
 21
149.7015368952
 31
0.0
  0
LINE
  5
95
330
1F
100
AcDbEntity
  8
0
  6
CONTINUOUS
 62
     7
100
AcDbLine
 10
274.5677814082
 20
159.1015368952
 30
0.0
 11
274.2677814082
 21
159.4015368952
 31
0.0
  0
ARC
  5
96
330
1F
100
AcDbEntity
  8
0
  6
CONTINUOUS
 62
     7
100
AcDbCircle
 10
251.9473894763
 20
156.1515368952
 30
0.0
 40
2.999999999999886
100
AcDbArc
 50
90.0
 51
108.1659565292
  0
ARC
  5
97
330
1F
100
AcDbEntity
  8
0
  6
CONTINUOUS
 62
     7
100
AcDbCircle
 10
251.9473894763
 20
152.6515368952
 30
0.0
 40
2.999999999999889
100
AcDbArc
 50
251.8340434708
 51
270.0
  0
LINE
  5
98
330
1F
100
AcDbEntity
  8
0
  6
CONTINUOUS
 62
     7
100
AcDbLine
 10
265.4651937512
 20
149.6515368952
 30
0.0
 11
267.2677814082
 21
149.6515368952
 31
0.0
  0
LINE
  5
99
330
1F
100
AcDbEntity
  8
0
  6
CONTINUOUS
 62
     7
100
AcDbLine
 10
251.9473894763
 20
149.6515368952
 30
0.0
 11
253.570337425
 21
149.6515368952
 31
0.0
  0
LINE
  5
9A
330
1F
100
AcDbEntity
  8
0
  6
CONTINUOUS
 62
     7
100
AcDbLine
 10
253.5695817547
 20
159.1515368952
 30
0.0
 11
251.9473894763
 21
159.1515368952
 31
0.0
  0
LINE
  5
9B
330
1F
100
AcDbEntity
  8
0
  6
CONTINUOUS
 62
     7
100
AcDbLine
 10
267.2677814082
 20
159.1515368952
 30
0.0
 11
265.4653015393
 21
159.1515368952
 31
0.0
  0
LINE
  5
9C
330
1F
100
AcDbEntity
  8
0
  6
CONTINUOUS
 62
     7
100
AcDbLine
 10
251.0120782226
 20
159.0020092874
 30
0.0
 11
248.4054273247
 21
158.1467019615
 31
0.0
  0
LINE
  5
9D
330
1F
100
AcDbEntity
  8
0
  6
CONTINUOUS
 62
     7
100
AcDbLine
 10
248.4054273247
 20
150.6563718289
 30
0.0
 11
251.0120782226
 21
149.801064503
 31
0.0
  0
LINE
  5
9E
330
1F
100
AcDbEntity
  8
0
  6
CONTINUOUS
 62
     7
100
AcDbLine
 10
279.4677814082
 20
150.6015368952
 30
0.0
 11
279.8677814082
 21
151.0015368952
 31
0.0
  0
LINE
  5
9F
330
1F
100
AcDbEntity
  8
0
  6
CONTINUOUS
 62
     7
100
AcDbLine
 10
279.8677814082
 20
157.8015368952
 30
0.0
 11
279.4677814082
 21
158.2015368952
 31
0.0
  0
ARC
  5
A0
330
1F
100
AcDbEntity
  8
0
  6
CONTINUOUS
 62
     7
100
AcDbCircle
 10
245.2677814082
 20
150.8290220725
 30
0.0
 40
0.2000000000000171
100
AcDbArc
 50
251.5650511771
 51
0.0
  0
ARC
  5
A1
330
1F
100
AcDbEntity
  8
0
  6
CONTINUOUS
 62
     7
100
AcDbCircle
 10
245.2677814082
 20
157.9740517178
 30
0.0
 40
0.2000000000000171
100
AcDbArc
 50
0.0
 51
108.4349488229
  0
LINE
  5
A2
330
1F
100
AcDbEntity
  8
0
  6
CONTINUOUS
 62
     7
100
AcDbLine
 10
245.204535855
 20
158.1637883775
 30
0.0
 11
243.9677814082
 21
157.7515368952
 31
0.0
  0
LINE
  5
A3
330
1F
100
AcDbEntity
  8
0
  6
CONTINUOUS
 62
     7
100
AcDbLine
 10
243.9677814082
 20
151.0515368952
 30
0.0
 11
245.204535855
 21
150.6392854129
 31
0.0
  0
ARC
  5
A4
330
1F
100
AcDbEntity
  8
0
  6
CONTINUOUS
 62
     7
100
AcDbCircle
 10
248.4677814082
 20
150.8464033217
 30
0.0
 40
0.2000000000000206
100
AcDbArc
 50
180.0
 51
251.8340434708
  0
ARC
  5
A5
330
1F
100
AcDbEntity
  8
0
  6
CONTINUOUS
 62
     7
100
AcDbCircle
 10
248.4677814082
 20
157.9566704687
 30
0.0
 40
0.2000000000000171
100
AcDbArc
 50
108.1659565292
 51
180.0
  0
ARC
  5
A6
330
1F
100
AcDbEntity
  8
0
  6
CONTINUOUS
 62
     7
100
AcDbCircle
 10
248.0677814082
 20
150.8515368952
 30
0.0
 40
0.2000000000000171
100
AcDbArc
 50
360.0
 51
90.0
  0
ARC
  5
A7
330
1F
100
AcDbEntity
  8
0
  6
CONTINUOUS
 62
     7
100
AcDbCircle
 10
248.0677814082
 20
157.9515368952
 30
0.0
 40
0.2000000000000171
100
AcDbArc
 50
270.0
 51
0.0
  0
LINE
  5
A8
330
1F
100
AcDbEntity
  8
0
  6
CONTINUOUS
 62
     7
100
AcDbLine
 10
282.3677814082
 20
157.8015368952
 30
0.0
 11
279.8677814082
 21
157.8015368952
 31
0.0
  0
LINE
  5
A9
330
1F
100
AcDbEntity
  8
0
  6
CONTINUOUS
 62
     7
100
AcDbLine
 10
279.8677814082
 20
151.0015368952
 30
0.0
 11
282.3677814082
 21
151.0015368952
 31
0.0
  0
LINE
  5
AA
330
1F
100
AcDbEntity
  8
0
  6
CONTINUOUS
 62
     7
100
AcDbLine
 10
245.4677814082
 20
151.0515368952
 30
0.0
 11
248.0677814082
 21
151.0515368952
 31
0.0
  0
LINE
  5
AB
330
1F
100
AcDbEntity
  8
0
  6
CONTINUOUS
 62
     7
100
AcDbLine
 10
248.0677814082
 20
157.7515368952
 30
0.0
 11
245.4677814082
 21
157.7515368952
 31
0.0
  0
LINE
  5
AC
330
1F
100
AcDbEntity
  8
0
  6
CONTINUOUS
 62
     7
100
AcDbLine
 10
268.5677814082
 20
157.3015368952
 30
0.0
 11
267.2677814082
 21
157.3015368952
 31
0.0
  0
LINE
  5
AD
330
1F
100
AcDbEntity
  8
0
  6
CONTINUOUS
 62
     7
100
AcDbLine
 10
267.2677814082
 20
151.5015368952
 30
0.0
 11
268.5677814082
 21
151.5015368952
 31
0.0
  0
LINE
  5
AE
330
1F
100
AcDbEntity
  8
0
  6
CONTINUOUS
 62
     7
100
AcDbLine
 10
223.9677814082
 20
152.1515368952
 30
0.0
 11
243.9677814082
 21
152.1515368952
 31
0.0
  0
LINE
  5
AF
330
1F
100
AcDbEntity
  8
0
  6
CONTINUOUS
 62
     7
100
AcDbLine
 10
243.9677814082
 20
156.6515368952
 30
0.0
 11
223.9677814082
 21
156.6515368952
 31
0.0
  0
LINE
  5
B0
330
1F
100
AcDbEntity
  8
0
  6
CONTINUOUS
 62
     7
100
AcDbLine
 10
268.7677814082
 20
149.5015368952
 30
0.0
 11
271.0945763275
 21
149.5015368952
 31
0.0
  0
LINE
  5
B1
330
1F
100
AcDbEntity
  8
0
  6
CONTINUOUS
 62
     7
100
AcDbLine
 10
268.5677814082
 20
149.7015368952
 30
0.0
 11
268.7677814082
 21
149.5015368952
 31
0.0
  0
LINE
  5
B2
330
1F
100
AcDbEntity
  8
0
  6
CONTINUOUS
 62
     7
100
AcDbLine
 10
268.7677814082
 20
159.3015368952
 30
0.0
 11
268.5677814082
 21
159.1015368952
 31
0.0
  0
LINE
  5
B3
330
1F
100
AcDbEntity
  8
0
  6
CONTINUOUS
 62
     7
100
AcDbLine
 10
271.0945763275
 20
159.3015368952
 30
0.0
 11
268.7677814082
 21
159.3015368952
 31
0.0
  0
LINE
  5
B4
330
1F
100
AcDbEntity
  8
0
  6
CONTINUOUS
 62
     7
100
AcDbLine
 10
148.3677814082
 20
146.9015368952
 30
0.0
 11
155.6677814082
 21
146.9015368952
 31
0.0
  0
LINE
  5
B5
330
1F
100
AcDbEntity
  8
0
  6
CONTINUOUS
 62
     7
100
AcDbLine
 10
155.6677814082
 20
161.9015368952
 30
0.0
 11
148.3677814082
 21
161.9015368952
 31
0.0
  0
ARC
  5
B6
330
1F
100
AcDbEntity
  8
0
  6
CONTINUOUS
 62
     7
100
AcDbCircle
 10
155.6677814082
 20
147.0015368952
 30
0.0
 40
0.1000000000000227
100
AcDbArc
 50
270.0
 51
0.0
  0
ARC
  5
B7
330
1F
100
AcDbEntity
  8
0
  6
CONTINUOUS
 62
     7
100
AcDbCircle
 10
155.6677814082
 20
161.8015368952
 30
0.0
 40
0.0999999999999943
100
AcDbArc
 50
0.0
 51
90.0
  0
LINE
  5
B8
330
1F
100
AcDbEntity
  8
0
  6
CONTINUOUS
 62
     7
100
AcDbLine
 10
148.3677814082
 20
161.9015368952
 30
0.0
 11
147.7677814082
 21
161.3015368952
 31
0.0
  0
LINE
  5
B9
330
1F
100
AcDbEntity
  8
0
  6
CONTINUOUS
 62
     7
100
AcDbLine
 10
147.7677814082
 20
147.5015368952
 30
0.0
 11
148.3677814082
 21
146.9015368952
 31
0.0
  0
SPLINE
  5
BA
330
1F
100
AcDbEntity
  8
0
  6
CONTINUOUS
 62
     7
100
AcDbSpline
210
0.0
220
0.0
230
1.0
 70
     8
 71
     3
 72
    18
 73
    14
 74
     0
 42
0.000000001
 43
0.00000001
 40
0.0
 40
0.0
 40
0.0
 40
0.0
 40
0.0661148160726138
 40
0.1200639133331512
 40
0.1618472918045892
 40
0.191464856851276
 40
0.2224161421777591
 40
0.267226112845713
 40
0.3270078799725416
 40
0.4447485427460481
 40
0.5961692560617883
 40
0.7812662944036293
 40
0.9999999999999999
 40
0.9999999999999999
 40
0.9999999999999999
 40
0.9999999999999999
 10
180.9617937866371
 20
158.8014221359259
 30
0.0
 10
180.6611940801817
 20
158.7911027380406
 30
0.0
 10
180.1153077078413
 20
158.7723628039841
 30
0.0
 10
179.3790312345057
 20
158.764177069912
 30
0.0
 10
178.8087859828186
 20
158.7652388781261
 30
0.0
 10
178.3432003938674
 20
158.7711887091704
 30
0.0
 10
177.8639227576945
 20
158.7816017354262
 30
0.0
 10
177.2476310427746
 20
158.8019415893291
 30
0.0
 10
176.2373596474565
 20
158.8510493896771
 30
0.0
 10
174.7447403441925
 20
158.9627272487583
 30
0.0
 10
172.6916491751206
 20
159.2014734068549
 30
0.0
 10
170.1963826138504
 20
159.60743723526
 30
0.0
 10
168.4114263908207
 20
160.0449057174445
 30
0.0
 10
167.4446102312014
 20
160.2818592026019
 30
0.0
  0
SPLINE
  5
BB
330
1F
100
AcDbEntity
  8
0
  6
CONTINUOUS
 62
     7
100
AcDbSpline
210
0.0
220
0.0
230
1.0
 70
     8
 71
     3
 72
    16
 73
    12
 74
     0
 42
0.000000001
 43
0.00000001
 40
0.0
 40
0.0
 40
0.0
 40
0.0
 40
0.2033260194911635
 40
0.3745606195699681
 40
0.5136646047574873
 40
0.620635308885255
 40
0.6830743970674876
 40
0.7323481336134524
 40
0.799830067530777
 40
0.8890475543300378
 40
0.9999999999999999
 40
0.9999999999999999
 40
0.9999999999999999
 40
0.9999999999999999
 10
167.4446201345177
 20
148.5211610596873
 30
0.0
 10
168.342990587061
 20
148.742665667151
 30
0.0
 10
169.997939590391
 20
149.1507142937695
 30
0.0
 10
172.3034149934112
 20
149.5421848052179
 30
0.0
 10
174.1870610932438
 20
149.7812642569312
 30
0.0
 10
175.5853286997769
 20
149.9055720170995
 30
0.0
 10
176.5781898980475
 20
149.9689164381663
 30
0.0
 10
177.3925110255259
 20
150.0073673373411
 30
0.0
 10
178.329157766367
 20
150.0348829511257
 30
0.0
 10
179.546961189359
 20
150.0448479137438
 30
0.0
 10
180.4572362206117
 20
150.0170582783816
 30
0.0
 10
180.9617937218504
 20
150.0016547261613
 30
0.0
  0
SPLINE
  5
BC
330
1F
100
AcDbEntity
  8
0
  6
CONTINUOUS
 62
     7
100
AcDbSpline
210
0.0
220
0.0
230
1.0
 70
     8
 71
     3
 72
    11
 73
     7
 74
     0
 42
0.000000001
 43
0.00000001
 40
0.0
 40
0.0
 40
0.0
 40
0.0
 40
0.2734076833675297
 40
0.531215353931552
 40
0.7734220376142596
 40
0.9999999999999999
 40
0.9999999999999999
 40
0.9999999999999999
 40
0.9999999999999999
 10
167.4148520880289
 20
160.1346877522081
 30
0.0
 10
166.7415611698547
 20
160.2561004542513
 30
0.0
 10
165.4333957628278
 20
160.4919983291511
 30
0.0
 10
163.496469960271
 20
160.5592779947714
 30
0.0
 10
161.6794718735805
 20
160.4606729851161
 30
0.0
 10
160.5255211157799
 20
160.2523319545647
 30
0.0
 10
159.9677814082431
 20
160.1516343600944
 30
0.0
  0
SPLINE
  5
BD
330
1F
100
AcDbEntity
  8
0
  6
CONTINUOUS
 62
     7
100
AcDbSpline
210
0.0
220
0.0
230
1.0
 70
     8
 71
     3
 72
    11
 73
     7
 74
     0
 42
0.000000001
 43
0.00000001
 40
0.0
 40
0.0
 40
0.0
 40
0.0
 40
0.1797311335670044
 40
0.4063349740173947
 40
0.679772038491712
 40
0.9999999999999999
 40
0.9999999999999999
 40
0.9999999999999999
 40
0.9999999999999999
 10
159.9677814082431
 20
148.6513745662927
 30
0.0
 10
160.409620778633
 20
148.5691307160293
 30
0.0
 10
161.4085283441956
 20
148.3831943559974
 30
0.0
 10
163.1049087592847
 20
148.2513065503964
 30
0.0
 10
165.1613830636027
 20
148.2745640944304
 30
0.0
 10
166.6252937090361
 20
148.53036135645
 30
0.0
 10
167.414939555263
 20
148.6683405740069
 30
0.0
  0
LINE
  5
BE
330
1F
100
AcDbEntity
  8
0
  6
CONTINUOUS
 62
     7
100
AcDbLine
 10
166.6782307034
 20
150.3684483904
 30
0.0
 11
166.6967749947
 21
150.3166961342
 31
0.0
  0
LINE
  5
BF
330
1F
100
AcDbEntity
  8
0
  6
CONTINUOUS
 62
     7
100
AcDbLine
 10
166.6980210387
 20
158.4899857467
 30
0.0
 11
166.6786420796
 21
158.4359253354
 31
0.0
  0
ARC
  5
C0
330
1F
100
AcDbEntity
  8
0
  6
CONTINUOUS
 62
     7
100
AcDbCircle
 10
181.1677814082
 20
159.4515368952
 30
0.0
 40
0.2000000000000171
100
AcDbArc
 50
90.0
 51
180.0
  0
ARC
  5
C1
330
1F
100
AcDbEntity
  8
0
  6
CONTINUOUS
 62
     7
100
AcDbCircle
 10
181.1677814082
 20
149.3515368952
 30
0.0
 40
0.2000000000000171
100
AcDbArc
 50
180.0
 51
270.0
  0
LINE
  5
C2
330
1F
100
AcDbEntity
  8
0
  6
CONTINUOUS
 62
     7
100
AcDbLine
 10
181.299182472
 20
159.6515368952
 30
0.0
 11
181.1677814082
 21
159.6515368952
 31
0.0
  0
LINE
  5
C3
330
1F
100
AcDbEntity
  8
0
  6
CONTINUOUS
 62
     7
100
AcDbLine
 10
181.1677814082
 20
149.1515368952
 30
0.0
 11
181.299182472
 21
149.1515368952
 31
0.0
  0
ARC
  5
C4
330
1F
100
AcDbEntity
  8
0
  6
CONTINUOUS
 62
     7
100
AcDbCircle
 10
181.299182472
 20
158.6515368952
 30
0.0
 40
1.000000000000003
100
AcDbArc
 50
70.6090340456
 51
90.0
  0
ARC
  5
C5
330
1F
100
AcDbEntity
  8
0
  6
CONTINUOUS
 62
     7
100
AcDbCircle
 10
181.299182472
 20
150.1515368952
 30
0.0
 40
1.000000000000003
100
AcDbArc
 50
270.0
 51
289.3909659544
  0
ARC
  5
C6
330
1F
100
AcDbEntity
  8
0
  6
CONTINUOUS
 62
     7
100
AcDbCircle
 10
174.9909467539
 20
140.7293115277
 30
0.0
 40
19.99999999999764
100
AcDbArc
 50
63.3306050211
 51
70.6090340456
  0
ARC
  5
C7
330
1F
100
AcDbEntity
  8
0
  6
CONTINUOUS
 62
     7
100
AcDbCircle
 10
174.9909467539
 20
168.0737622627
 30
0.0
 40
19.99999999999767
100
AcDbArc
 50
289.3909659544
 51
296.6693949789
  0
LINE
  5
C8
330
1F
100
AcDbEntity
  8
0
  6
CONTINUOUS
 62
     7
100
AcDbLine
 10
158.2677814082
 20
150.1515368952
 30
0.0
 11
159.9677814082
 21
150.1515368952
 31
0.0
  0
LINE
  5
C9
330
1F
100
AcDbEntity
  8
0
  6
CONTINUOUS
 62
     7
100
AcDbLine
 10
159.9677814082
 20
158.6515368952
 30
0.0
 11
158.2677814082
 21
158.6515368952
 31
0.0
  0
LINE
  5
CA
330
1F
100
AcDbEntity
  8
0
  6
CONTINUOUS
 62
     7
100
AcDbLine
 10
146.7677814082
 20
150.3015368952
 30
0.0
 11
147.7677814082
 21
150.3015368952
 31
0.0
  0
LINE
  5
CB
330
1F
100
AcDbEntity
  8
0
  6
CONTINUOUS
 62
     7
100
AcDbLine
 10
147.7677814082
 20
158.5015368952
 30
0.0
 11
146.7677814082
 21
158.5015368952
 31
0.0
  0
LINE
  5
CC
330
1F
100
AcDbEntity
  8
0
  6
CONTINUOUS
 62
     7
100
AcDbLine
 10
146.7677814082
 20
158.5015368952
 30
0.0
 11
146.2677814082
 21
158.2128617606
 31
0.0
  0
LINE
  5
CD
330
1F
100
AcDbEntity
  8
0
  6
CONTINUOUS
 62
     7
100
AcDbLine
 10
146.2677814082
 20
150.5902120298
 30
0.0
 11
146.7677814082
 21
150.3015368952
 31
0.0
  0
LINE
  5
CE
330
1F
100
AcDbEntity
  8
0
  6
CONTINUOUS
 62
     7
100
AcDbLine
 10
203.9677814082
 20
156.9015368952
 30
0.0
 11
183.9677814082
 21
156.9015368952
 31
0.0
  0
LINE
  5
CF
330
1F
100
AcDbEntity
  8
0
  6
CONTINUOUS
 62
     7
100
AcDbLine
 10
183.9677814082
 20
151.9015368952
 30
0.0
 11
203.9677814082
 21
151.9015368952
 31
0.0
  0
SPLINE
  5
D0
330
1F
100
AcDbEntity
  8
0
  6
CONTINUOUS
 62
     7
100
AcDbSpline
210
0.0
220
0.0
230
1.0
 70
     8
 71
     3
 72
     9
 73
     5
 74
     0
 42
0.000000001
 43
0.00000001
 40
0.0
 40
0.0
 40
0.0
 40
0.0
 40
0.499801727240776
 40
0.9999999999999999
 40
0.9999999999999999
 40
0.9999999999999999
 40
0.9999999999999999
 10
166.6866847599287
 20
150.3457790095421
 30
0.0
 10
166.6899315117882
 20
150.3367954517504
 30
0.0
 10
166.6964275914986
 20
150.3188212085612
 30
0.0
 10
166.70291241501
 20
150.3008020715613
 30
0.0
 10
166.7061561125295
 20
150.2917889303573
 30
0.0
  0
LINE
  5
D1
330
1F
100
AcDbEntity
  8
0
  6
CONTINUOUS
 62
     7
100
AcDbLine
 10
271.0677814082
 20
159.1338158666
 30
0.0
 11
271.0677814082
 21
157.4634865578
 31
0.0
  0
ELLIPSE
  5
D2
330
1F
100
AcDbEntity
  8
0
  6
CONTINUOUS
 62
     7
100
AcDbEllipse
 10
271.4495015891
 20
158.9661299059
 30
0.0
 11
-0.2857145288889456
 21
0.3888264564914721
 31
0.0
210
0.0
220
0.0
230
1.0
 40
0.6510239821
 41
0.3480969248266125
 42
0.7250064875170241
  0
LINE
  5
D3
330
1F
100
AcDbEntity
  8
0
  6
CONTINUOUS
 62
     7
100
AcDbLine
 10
271.0945763275
 20
159.3015368952
 30
0.0
 11
271.0945763275
 21
159.2681871837
 31
0.0
  0
LINE
  5
D4
330
1F
100
AcDbEntity
  8
0
  6
CONTINUOUS
 62
     7
100
AcDbLine
 10
271.0945763275
 20
149.5348866067
 30
0.0
 11
271.0945763275
 21
149.5015368952
 31
0.0
  0
ELLIPSE
  5
D5
330
1F
100
AcDbEntity
  8
0
  6
CONTINUOUS
 62
     7
100
AcDbEllipse
 10
271.4495014184
 20
149.836943779
 30
0.0
 11
0.2857143272858593
 21
0.3888263710311151
 31
0.0
210
0.0
220
0.0
230
1.0
 40
0.6510240486
 41
2.416585873867817
 42
2.793495522227551
  0
LINE
  5
D6
330
1F
100
AcDbEntity
  8
0
  6
CONTINUOUS
 62
     7
100
AcDbLine
 10
271.0677814082
 20
151.3395872326
 30
0.0
 11
271.0677814082
 21
149.6692579237
 31
0.0
  0
ELLIPSE
  5
D7
330
1F
100
AcDbEntity
  8
0
  6
CONTINUOUS
 62
     7
100
AcDbEllipse
 10
271.4495015891
 20
151.1719012718
 30
0.0
 11
-0.2857145288722336
 21
0.3888264564846508
 31
0.0
210
0.0
220
0.0
230
1.0
 40
0.6510239822
 41
0.3480969248436068
 42
0.725006487540997
  0
LINE
  5
D8
330
1F
100
AcDbEntity
  8
0
  6
CONTINUOUS
 62
     7
100
AcDbLine
 10
271.0945763275
 20
152.4624649522
 30
0.0
 11
271.0945763275
 21
151.4739585496
 31
0.0
  0
ELLIPSE
  5
D9
330
1F
100
AcDbEntity
  8
0
  6
CONTINUOUS
 62
     7
100
AcDbEllipse
 10
271.4495014184
 20
153.0665792968
 30
0.0
 11
-0.17636308569422
 21
-0.8592495884995798
 31
-8.881784197001251E-16
210
-2.035860132776196E-16
220
-9.918810245606728E-16
230
1.0
 40
0.3939896172
 41
5.192667484618184
 42
5.569577132979897
  0
LINE
  5
DA
330
1F
100
AcDbEntity
  8
0
  6
CONTINUOUS
 62
     7
100
AcDbLine
 10
271.0677814082
 20
156.071866204
 30
0.0
 11
271.0677814082
 21
152.7312075863
 31
0.0
  0
ELLIPSE
  5
DB
330
1F
100
AcDbEntity
  8
0
  6
CONTINUOUS
 62
     7
100
AcDbEllipse
 10
271.4495015891
 20
155.7364942825
 30
0.0
 11
0.1763632286300662
 21
-0.8592498354861675
 31
-8.881784197001251E-16
210
2.035860526282786E-16
220
-9.918806975067167E-16
230
1.0
 40
0.3939896412
 41
3.855200723729518
 42
4.232110286427254
  0
LINE
  5
DC
330
1F
100
AcDbEntity
  8
0
  6
CONTINUOUS
 62
     7
100
AcDbLine
 10
271.0945763275
 20
157.3291152407
 30
0.0
 11
271.0945763275
 21
156.3406088382
 31
0.0
  0
ELLIPSE
  5
DD
330
1F
100
AcDbEntity
  8
0
  6
CONTINUOUS
 62
     7
100
AcDbEllipse
 10
271.4495014184
 20
157.631172413
 30
0.0
 11
0.2857143272684083
 21
0.3888263710236969
 31
0.0
210
0.0
220
0.0
230
1.0
 40
0.6510240486
 41
2.41658587384249
 42
2.7934955222092
  0
LINE
  5
DE
330
1F
100
AcDbEntity
  8
0
  6
CONTINUOUS
 62
     7
100
AcDbLine
 10
274.2677814082
 20
159.4015368952
 30
0.0
 11
274.2677814082
 21
149.4015368952
 31
0.0
  0
LINE
  5
DF
330
1F
100
AcDbEntity
  8
0
  6
CONTINUOUS
 62
     7
100
AcDbLine
 10
274.5677814082
 20
159.1015368952
 30
0.0
 11
274.5677814082
 21
149.7015368952
 31
0.0
  0
SPLINE
  5
E0
330
1F
100
AcDbEntity
  8
0
  6
CONTINUOUS
 62
     7
100
AcDbSpline
210
0.0
220
0.0
230
1.0
 70
     8
 71
     3
 72
    13
 73
     9
 74
     0
 42
0.000000001
 43
0.00000001
 40
0.0
 40
0.0
 40
0.0
 40
0.0
 40
0.2672063360384552
 40
0.5056942898727519
 40
0.6356563239234548
 40
0.7557519509262732
 40
0.8803017002445427
 40
1.0
 40
1.0
 40
1.0
 40
1.0
 10
253.5695817547007
 20
159.1512479465414
 30
0.0
 10
253.5871324152072
 20
159.1353040505991
 30
0.0
 10
253.6203474539416
 20
159.105129851679
 30
0.0
 10
253.8782689394873
 20
158.9186816525448
 30
0.0
 10
254.1882412367559
 20
158.7533896213665
 30
0.0
 10
254.5009304196013
 20
158.6344874982408
 30
0.0
 10
254.8649655096695
 20
158.5434410344498
 30
0.0
 10
255.1352993038647
 20
158.531174642409
 30
0.0
 10
255.2677814082431
 20
158.5251632688197
 30
0.0
  0
SPLINE
  5
E1
330
1F
100
AcDbEntity
  8
0
  6
CONTINUOUS
 62
     7
100
AcDbSpline
210
0.0
220
0.0
230
1.0
 70
     8
 71
     3
 72
    10
 73
     6
 74
     0
 42
0.000000001
 43
0.00000001
 40
0.0
 40
0.0
 40
0.0
 40
0.0
 40
0.3369940811086645
 40
0.9989728374502762
 40
1.0
 40
1.0
 40
1.0
 40
1.0
 10
265.2095566066882
 20
158.9670413480445
 30
0.0
 10
265.2676077649436
 20
159.0041327130734
 30
0.0
 10
265.439692479574
 20
159.1140849889289
 30
0.0
 10
265.4978305881108
 20
159.1780390702356
 30
0.0
 10
265.4653518569921
 20
159.1514544985993
 30
0.0
 10
265.465301539287
 20
159.1514133124264
 30
0.0
  0
SPLINE
  5
E2
330
1F
100
AcDbEntity
  8
0
  6
CONTINUOUS
 62
     7
100
AcDbSpline
210
0.0
220
0.0
230
1.0
 70
     8
 71
     3
 72
    10
 73
     6
 74
     0
 42
0.000000001
 43
0.00000001
 40
0.0
 40
0.0
 40
0.0
 40
0.0
 40
0.0001746348024971
 40
0.5302696067657573
 40
0.9999999999999999
 40
0.9999999999999999
 40
0.9999999999999999
 40
0.9999999999999999
 10
265.4651937512173
 20
149.6515632715497
 30
0.0
 10
265.465204279118
 20
149.6515544797772
 30
0.0
 10
265.4971717089782
 20
149.6248587142258
 30
0.0
 10
265.4086947751256
 20
149.7122130063395
 30
0.0
 10
265.1836377616742
 20
149.8560228655274
 30
0.0
 10
265.0779031773072
 20
149.9235865262013
 30
0.0
  0
LINE
  5
E3
330
1F
100
AcDbEntity
  8
0
  6
CONTINUOUS
 62
     7
100
AcDbLine
 10
253.648082625
 20
149.7144090618
 30
0.0
 11
253.570337425
 21
149.6515778174
 31
0.0
  0
LINE
  5
E4
330
1F
100
AcDbEntity
  8
0
  6
CONTINUOUS
 62
     7
100
AcDbLine
 10
267.2677814082
 20
149.6515368952
 30
0.0
 11
267.2677814082
 21
159.1515368952
 31
0.0
  0
LINE
  5
E5
330
1F
100
AcDbEntity
  8
0
  6
CONTINUOUS
 62
     7
100
AcDbLine
 10
268.7677814082
 20
151.4739585496
 30
0.0
 11
268.7677814082
 21
152.4624649522
 31
0.0
  0
LINE
  5
E6
330
1F
100
AcDbEntity
  8
0
  6
CONTINUOUS
 62
     7
100
AcDbLine
 10
268.7677814082
 20
152.4624649522
 30
0.0
 11
271.0945763275
 21
152.4624649522
 31
0.0
  0
LINE
  5
E7
330
1F
100
AcDbEntity
  8
0
  6
CONTINUOUS
 62
     7
100
AcDbLine
 10
271.0945763275
 20
151.4739585496
 30
0.0
 11
268.7677814082
 21
151.4739585496
 31
0.0
  0
LINE
  5
E8
330
1F
100
AcDbEntity
  8
0
  6
CONTINUOUS
 62
     7
100
AcDbLine
 10
271.0945763275
 20
156.3406088382
 30
0.0
 11
268.7677814082
 21
156.3406088382
 31
0.0
  0
LINE
  5
E9
330
1F
100
AcDbEntity
  8
0
  6
CONTINUOUS
 62
     7
100
AcDbLine
 10
268.7677814082
 20
152.4624649522
 30
0.0
 11
268.7677814082
 21
156.3406088382
 31
0.0
  0
LINE
  5
EA
330
1F
100
AcDbEntity
  8
0
  6
CONTINUOUS
 62
     7
100
AcDbLine
 10
268.7677814082
 20
156.3406088382
 30
0.0
 11
268.7677814082
 21
157.3291152407
 31
0.0
  0
LINE
  5
EB
330
1F
100
AcDbEntity
  8
0
  6
CONTINUOUS
 62
     7
100
AcDbLine
 10
268.7677814082
 20
157.3291152407
 30
0.0
 11
271.0945763275
 21
157.3291152407
 31
0.0
  0
LINE
  5
EC
330
1F
100
AcDbEntity
  8
0
  6
CONTINUOUS
 62
     7
100
AcDbLine
 10
268.5677814082
 20
156.2989034913
 30
0.0
 11
268.5677814082
 21
152.5041702991
 31
0.0
  0
SPLINE
  5
ED
330
1F
100
AcDbEntity
  8
0
  6
CONTINUOUS
 62
     7
100
AcDbSpline
210
0.0
220
0.0
230
1.0
 70
     8
 71
     3
 72
     8
 73
     4
 74
     0
 42
0.000000001
 43
0.00000001
 40
0.0
 40
0.0
 40
0.0
 40
0.0
 40
0.0285901007783824
 40
0.0285901007783824
 40
0.0285901007783824
 40
0.0285901007783824
 10
268.7677814082431
 20
156.3406088381599
 30
0.0
 10
268.7003900182603
 20
156.3267070558713
 30
0.0
 10
268.6337233515936
 20
156.3128052735828
 30
0.0
 10
268.5677814082431
 20
156.2989034912944
 30
0.0
  0
SPLINE
  5
EE
330
1F
100
AcDbEntity
  8
0
  6
CONTINUOUS
 62
     7
100
AcDbSpline
210
0.0
220
0.0
230
1.0
 70
     8
 71
     3
 72
     8
 73
     4
 74
     0
 42
0.000000001
 43
0.00000001
 40
0.0
 40
0.0
 40
0.0
 40
0.0
 40
0.0285901007783824
 40
0.0285901007783824
 40
0.0285901007783824
 40
0.0285901007783824
 10
268.5677814082431
 20
152.5041702990923
 30
0.0
 10
268.6337233515936
 20
152.490268516804
 30
0.0
 10
268.7003900182603
 20
152.4763667345154
 30
0.0
 10
268.7677814082431
 20
152.4624649522268
 30
0.0
  0
LINE
  5
EF
330
1F
100
AcDbEntity
  8
0
  6
CONTINUOUS
 62
     7
100
AcDbLine
 10
268.5677814082
 20
156.2989034913
 30
0.0
 11
268.5677814082
 21
157.1767628334
 31
0.0
  0
SPLINE
  5
F0
330
1F
100
AcDbEntity
  8
0
  6
CONTINUOUS
 62
     7
100
AcDbSpline
210
0.0
220
0.0
230
1.0
 70
     8
 71
     3
 72
     8
 73
     4
 74
     0
 42
0.000000001
 43
0.00000001
 40
0.0
 40
0.0
 40
0.0
 40
0.0
 40
0.0285901007783824
 40
0.0285901007783824
 40
0.0285901007783824
 40
0.0285901007783824
 10
268.5677814082431
 20
157.1767628334159
 30
0.0
 10
268.6337233515947
 20
157.2269193403889
 30
0.0
 10
268.7003900182613
 20
157.2777034761637
 30
0.0
 10
268.7677814082431
 20
157.3291152407401
 30
0.0
  0
LINE
  5
F1
330
1F
100
AcDbEntity
  8
0
  6
CONTINUOUS
 62
     7
100
AcDbLine
 10
268.5677814082
 20
151.626310957
 30
0.0
 11
268.5677814082
 21
152.5041702991
 31
0.0
  0
SPLINE
  5
F2
330
1F
100
AcDbEntity
  8
0
  6
CONTINUOUS
 62
     7
100
AcDbSpline
210
0.0
220
0.0
230
1.0
 70
     8
 71
     3
 72
     8
 73
     4
 74
     0
 42
0.000000001
 43
0.00000001
 40
0.0
 40
0.0
 40
0.0
 40
0.0
 40
0.0285901007783824
 40
0.0285901007783824
 40
0.0285901007783824
 40
0.0285901007783824
 10
268.7677814082431
 20
151.4739585496467
 30
0.0
 10
268.7003900182639
 20
151.5253703142209
 30
0.0
 10
268.6337233515973
 20
151.5761544499957
 30
0.0
 10
268.5677814082431
 20
151.6263109569708
 30
0.0
  0
LINE
  5
F3
330
1F
100
AcDbEntity
  8
0
  6
CONTINUOUS
 62
     7
100
AcDbLine
 10
279.2677814082
 20
158.2015368952
 30
0.0
 11
279.2677814082
 21
150.6015368952
 31
0.0
  0
LINE
  5
F4
330
1F
100
AcDbEntity
  8
0
  6
CONTINUOUS
 62
     7
100
AcDbLine
 10
274.5677814082
 20
150.6015368952
 30
0.0
 11
279.2677814082
 21
150.6015368952
 31
0.0
  0
LINE
  5
F5
330
1F
100
AcDbEntity
  8
0
  6
CONTINUOUS
 62
     7
100
AcDbLine
 10
279.2677814082
 20
158.2015368952
 30
0.0
 11
274.5677814082
 21
158.2015368952
 31
0.0
  0
LINE
  5
F6
330
1F
100
AcDbEntity
  8
0
  6
CONTINUOUS
 62
     7
100
AcDbLine
 10
279.8677814082
 20
157.8015368952
 30
0.0
 11
279.8677814082
 21
151.0015368952
 31
0.0
  0
SPLINE
  5
F7
330
1F
100
AcDbEntity
  8
0
  6
CONTINUOUS
 62
     7
100
AcDbSpline
210
0.0
220
0.0
230
1.0
 70
    24
 71
     3
 72
     9
 73
     5
 74
     0
 42
0.000000001
 43
0.00000001
 40
0.0
 40
0.0
 40
0.0
 40
0.0
 40
0.5742820106682065
 40
1.0
 40
1.0
 40
1.0
 40
1.0
 10
279.2677814082431
 20
150.6015368951934
 30
0.0
 10
279.3337473125856
 20
150.6015368951934
 30
0.0
 10
279.4486140559573
 20
150.6015368951934
 30
0.0
 10
279.4548903592811
 20
150.6015368951934
 30
0.0
 10
279.4575622945126
 20
150.6015368951934
 30
0.0
  0
SPLINE
  5
F8
330
1F
100
AcDbEntity
  8
0
  6
CONTINUOUS
 62
     7
100
AcDbSpline
210
0.0
220
0.0
230
1.0
 70
    24
 71
     3
 72
     9
 73
     5
 74
     0
 42
0.000000001
 43
0.00000001
 40
0.0
 40
0.0
 40
0.0
 40
0.0
 40
0.1143381702755318
 40
1.0
 40
1.0
 40
1.0
 40
1.0
 10
279.4575622945126
 20
158.2015368951934
 30
0.0
 10
279.4606593057343
 20
158.2015368951934
 30
0.0
 10
279.4877457215329
 20
158.2015368951934
 30
0.0
 10
279.3710947346898
 20
158.2015368951934
 30
0.0
 10
279.2677814082431
 20
158.2015368951934
 30
0.0
  0
LINE
  5
F9
330
1F
100
AcDbEntity
  8
0
  6
CONTINUOUS
 62
     7
100
AcDbLine
 10
271.0945763275
 20
159.2681871837
 30
0.0
 11
268.7677814082
 21
159.2681871837
 31
0.0
  0
LINE
  5
FA
330
1F
100
AcDbEntity
  8
0
  6
CONTINUOUS
 62
     7
100
AcDbLine
 10
268.7677814082
 20
157.3291152407
 30
0.0
 11
268.7677814082
 21
159.2681871837
 31
0.0
  0
SPLINE
  5
FB
330
1F
100
AcDbEntity
  8
0
  6
CONTINUOUS
 62
     7
100
AcDbSpline
210
0.0
220
0.0
230
1.0
 70
     8
 71
     3
 72
     8
 73
     4
 74
     0
 42
0.000000001
 43
0.00000001
 40
0.0
 40
0.0
 40
0.0
 40
0.0
 40
0.0285901007783825
 40
0.0285901007783825
 40
0.0285901007783825
 40
0.0285901007783825
 10
268.7677814082431
 20
159.2681871837066
 30
0.0
 10
268.7003900182601
 20
159.2028736368407
 30
0.0
 10
268.6337233515935
 20
159.1381877187775
 30
0.0
 10
268.5677814082431
 20
159.074129429517
 30
0.0
  0
LINE
  5
FC
330
1F
100
AcDbEntity
  8
0
  6
CONTINUOUS
 62
     7
100
AcDbLine
 10
268.5677814082
 20
159.0741294295
 30
0.0
 11
268.5677814082
 21
157.1767628334
 31
0.0
  0
LINE
  5
FD
330
1F
100
AcDbEntity
  8
0
  6
CONTINUOUS
 62
     7
100
AcDbLine
 10
268.7677814082
 20
149.5348866067
 30
0.0
 11
271.0945763275
 21
149.5348866067
 31
0.0
  0
LINE
  5
FE
330
1F
100
AcDbEntity
  8
0
  6
CONTINUOUS
 62
     7
100
AcDbLine
 10
268.7677814082
 20
149.5348866067
 30
0.0
 11
268.7677814082
 21
151.4739585496
 31
0.0
  0
SPLINE
  5
FF
330
1F
100
AcDbEntity
  8
0
  6
CONTINUOUS
 62
     7
100
AcDbSpline
210
0.0
220
0.0
230
1.0
 70
     8
 71
     3
 72
     8
 73
     4
 74
     0
 42
0.000000001
 43
0.00000001
 40
0.0
 40
0.0
 40
0.0
 40
0.0
 40
0.0285901007783824
 40
0.0285901007783824
 40
0.0285901007783824
 40
0.0285901007783824
 10
268.5677814082431
 20
149.7289443608697
 30
0.0
 10
268.633723351596
 20
149.6648860716068
 30
0.0
 10
268.7003900182626
 20
149.6002001535436
 30
0.0
 10
268.7677814082431
 20
149.5348866066801
 30
0.0
  0
LINE
  5
100
330
1F
100
AcDbEntity
  8
0
  6
CONTINUOUS
 62
     7
100
AcDbLine
 10
268.5677814082
 20
151.626310957
 30
0.0
 11
268.5677814082
 21
149.7289443609
 31
0.0
  0
LINE
  5
101
330
1F
100
AcDbEntity
  8
0
  6
CONTINUOUS
 62
     7
100
AcDbLine
 10
245.4677814082
 20
150.8290220725
 30
0.0
 11
245.4677814082
 21
157.9740517178
 31
0.0
  0
LINE
  5
102
330
1F
100
AcDbEntity
  8
0
  6
CONTINUOUS
 62
     7
100
AcDbLine
 10
243.9677814082
 20
151.0515368952
 30
0.0
 11
243.9677814082
 21
157.7515368952
 31
0.0
  0
LINE
  5
103
330
1F
100
AcDbEntity
  8
0
  6
CONTINUOUS
 62
     7
100
AcDbLine
 10
248.2677814082
 20
150.8464033217
 30
0.0
 11
248.2677814082
 21
157.9566704687
 31
0.0
  0
LINE
  5
104
330
1F
100
AcDbEntity
  8
0
  6
CONTINUOUS
 62
     7
100
AcDbLine
 10
282.3677814082
 20
157.8015368952
 30
0.0
 11
282.3677814082
 21
151.0015368952
 31
0.0
  0
LINE
  5
105
330
1F
100
AcDbEntity
  8
0
  6
CONTINUOUS
 62
     7
100
AcDbLine
 10
263.7677814082
 20
158.5515368952
 30
0.0
 11
255.2677814082
 21
158.5515368952
 31
0.0
  0
LINE
  5
106
330
1F
100
AcDbEntity
  8
0
  6
CONTINUOUS
 62
     7
100
AcDbLine
 10
255.2677814082
 20
150.2515368952
 30
0.0
 11
263.7677814082
 21
150.2515368952
 31
0.0
  0
LINE
  5
107
330
1F
100
AcDbEntity
  8
0
  6
CONTINUOUS
 62
     7
100
AcDbLine
 10
253.7370469498
 20
149.7273923131
 30
0.0
 11
253.6964574644
 21
149.6960011051
 31
0.0
  0
SPLINE
  5
108
330
1F
100
AcDbEntity
  8
0
  6
CONTINUOUS
 62
     7
100
AcDbSpline
210
0.0
220
0.0
230
1.0
 70
     8
 71
     3
 72
    13
 73
     9
 74
     0
 42
0.000000001
 43
0.00000001
 40
0.0
 40
0.0
 40
0.0
 40
0.0
 40
0.0667530752895756
 40
0.3796274047151716
 40
0.5432177671126973
 40
0.6955520363207432
 40
0.8503661735066633
 40
1.0
 40
1.0
 40
1.0
 40
1.0
 10
253.7661282850355
 20
149.7498183809325
 30
0.0
 10
253.770801495774
 20
149.7535195221286
 30
0.0
 10
253.7973782318517
 20
149.7745680599028
 30
0.0
 10
253.9807790163265
 20
149.9043010241062
 30
0.0
 10
254.2675992604379
 20
150.0483725508551
 30
0.0
 10
254.5569154139453
 20
150.155147651531
 30
0.0
 10
254.8946348792911
 20
150.2350863149573
 30
0.0
 10
255.1448182236842
 20
150.2461159262798
 30
0.0
 10
255.2677814082431
 20
150.2515368951934
 30
0.0
  0
SPLINE
  5
109
330
1F
100
AcDbEntity
  8
0
  6
CONTINUOUS
 62
     7
100
AcDbSpline
210
0.0
220
0.0
230
1.0
 70
     8
 71
     3
 72
    14
 73
    10
 74
     0
 42
0.000000001
 43
0.00000001
 40
0.0
 40
0.0
 40
0.0
 40
0.0
 40
0.1006538842746607
 40
0.2047169001866942
 40
0.3074857127293498
 40
0.4165826069105305
 40
0.6273566835113239
 40
0.8531633472344372
 40
1.0
 40
1.0
 40
1.0
 40
1.0
 10
255.2677814082431
 20
158.5515368951934
 30
0.0
 10
255.1444450495406
 20
158.556982029309
 30
0.0
 10
254.893594948565
 20
158.5680567233984
 30
0.0
 10
254.5546245063328
 20
158.6486535434451
 30
0.0
 10
254.2662372376215
 20
158.7550428818806
 30
0.0
 10
253.9735800334571
 20
158.9037731446668
 30
0.0
 10
253.7489089596876
 20
159.0625220791931
 30
0.0
 10
253.6638243158523
 20
159.1329960330785
 30
0.0
 10
253.7264529599646
 20
159.0840699787856
 30
0.0
 10
253.7511311980056
 20
159.0647911195453
 30
0.0
  0
SPLINE
  5
10A
330
1F
100
AcDbEntity
  8
0
  6
CONTINUOUS
 62
     7
100
AcDbSpline
210
0.0
220
0.0
230
1.0
 70
     8
 71
     3
 72
    14
 73
    10
 74
     0
 42
0.000000001
 43
0.00000001
 40
0.0
 40
0.0
 40
0.0
 40
0.0
 40
0.1016525997813642
 40
0.2060011205650178
 40
0.3088797646905467
 40
0.4186863529797027
 40
0.6297130358030766
 40
0.8570522299430762
 40
1.0
 40
1.0
 40
1.0
 40
1.0
 10
263.7677814082431
 20
150.2515368951934
 30
0.0
 10
263.8916704296424
 20
150.2460479190972
 30
0.0
 10
264.1427341239193
 20
150.2349243941801
 30
0.0
 10
264.4814119000267
 20
150.1542027193669
 30
0.0
 10
264.7684284727514
 20
150.0483984889153
 30
0.0
 10
265.0611554027051
 20
149.8998232576813
 30
0.0
 10
265.2864426974689
 20
149.7407104417529
 30
0.0
 10
265.3699552909692
 20
149.6715516529174
 30
0.0
 10
265.3089446353967
 20
149.7191587752342
 30
0.0
 10
265.2853917210166
 20
149.737537310349
 30
0.0
  0
SPLINE
  5
10B
330
1F
100
AcDbEntity
  8
0
  6
CONTINUOUS
 62
     7
100
AcDbSpline
210
0.0
220
0.0
230
1.0
 70
     8
 71
     3
 72
     9
 73
     5
 74
     0
 42
0.000000001
 43
0.00000001
 40
0.0
 40
0.0
 40
0.0
 40
0.0
 40
0.77440431569836
 40
1.0
 40
1.0
 40
1.0
 40
1.0
 10
265.2909441072586
 20
159.0698402648865
 30
0.0
 10
265.2900752659278
 20
159.0670543533253
 30
0.0
 10
265.2889533179825
 20
159.0634568636102
 30
0.0
 10
265.2303548864322
 20
159.0260011286973
 30
0.0
 10
265.2171353331676
 20
159.0175512765486
 30
0.0
  0
SPLINE
  5
10C
330
1F
100
AcDbEntity
  8
0
  6
CONTINUOUS
 62
     7
100
AcDbSpline
210
0.0
220
0.0
230
1.0
 70
     8
 71
     3
 72
    12
 73
     8
 74
     0
 42
0.000000001
 43
0.00000001
 40
0.0
 40
0.0
 40
0.0
 40
0.0
 40
0.182650616056365
 40
0.3970654086021944
 40
0.5985652833265839
 40
0.8030629354753914
 40
1.0
 40
1.0
 40
1.0
 40
1.0
 10
265.1010440969309
 20
158.9428832359091
 30
0.0
 10
265.066033681094
 20
158.9186046320511
 30
0.0
 10
264.989924301505
 20
158.8658252110489
 30
0.0
 10
264.7664151356495
 20
158.7539236420944
 30
0.0
 10
264.4807827566523
 20
158.64864283168
 30
0.0
 10
264.1410949115545
 20
158.567907973624
 30
0.0
 10
263.8906469373333
 20
158.5569249703509
 30
0.0
 10
263.7677814082431
 20
158.5515368951934
 30
0.0
  0
LINE
  5
10D
330
1F
100
AcDbEntity
  8
0
  6
CONTINUOUS
 62
     7
100
AcDbLine
 10
223.9677814082
 20
152.1515368952
 30
0.0
 11
223.9677814082
 21
156.6515368952
 31
0.0
  0
LINE
  5
10E
330
1F
100
AcDbEntity
  8
0
  6
CONTINUOUS
 62
     7
100
AcDbLine
 10
268.7677814082
 20
149.5015368952
 30
0.0
 11
268.7677814082
 21
149.5348866067
 31
0.0
  0
LINE
  5
10F
330
1F
100
AcDbEntity
  8
0
  6
CONTINUOUS
 62
     7
100
AcDbLine
 10
268.5677814082
 20
149.7015368952
 30
0.0
 11
268.5677814082
 21
149.7289443609
 31
0.0
  0
LINE
  5
110
330
1F
100
AcDbEntity
  8
0
  6
CONTINUOUS
 62
     7
100
AcDbLine
 10
268.7677814082
 20
159.2681871837
 30
0.0
 11
268.7677814082
 21
159.3015368952
 31
0.0
  0
LINE
  5
111
330
1F
100
AcDbEntity
  8
0
  6
CONTINUOUS
 62
     7
100
AcDbLine
 10
268.5677814082
 20
159.0741294295
 30
0.0
 11
268.5677814082
 21
159.1015368952
 31
0.0
  0
LINE
  5
112
330
1F
100
AcDbEntity
  8
0
  6
CONTINUOUS
 62
     7
100
AcDbLine
 10
148.3677814082
 20
149.0982360363
 30
0.0
 11
148.3677814082
 21
161.9015368952
 31
0.0
  0
LINE
  5
113
330
1F
100
AcDbEntity
  8
0
  6
CONTINUOUS
 62
     7
100
AcDbLine
 10
148.3677814082
 20
146.9015368952
 30
0.0
 11
148.3677814082
 21
149.0982360363
 31
0.0
  0
LINE
  5
114
330
1F
100
AcDbEntity
  8
0
  6
CONTINUOUS
 62
     7
100
AcDbLine
 10
155.7677814082
 20
161.8015368952
 30
0.0
 11
155.7677814082
 21
147.0015368952
 31
0.0
  0
LINE
  5
115
330
1F
100
AcDbEntity
  8
0
  6
CONTINUOUS
 62
     7
100
AcDbLine
 10
147.7677814082
 20
149.522500105
 30
0.0
 11
147.7677814082
 21
161.3015368952
 31
0.0
  0
LINE
  5
116
330
1F
100
AcDbEntity
  8
0
  6
CONTINUOUS
 62
     7
100
AcDbLine
 10
147.7677814082
 20
147.5015368952
 30
0.0
 11
147.7677814082
 21
149.522500105
 31
0.0
  0
LINE
  5
117
330
1F
100
AcDbEntity
  8
0
  6
CONTINUOUS
 62
     7
100
AcDbLine
 10
155.7677814082
 20
149.7279605532
 30
0.0
 11
158.0677814082
 21
149.7279605532
 31
0.0
  0
LINE
  5
118
330
1F
100
AcDbEntity
  8
0
  6
CONTINUOUS
 62
     7
100
AcDbLine
 10
158.0677814082
 20
155.7104656509
 30
0.0
 11
155.7677814082
 21
155.7104656509
 31
0.0
  0
LINE
  5
119
330
1F
100
AcDbEntity
  8
0
  6
CONTINUOUS
 62
     7
100
AcDbLine
 10
158.0677814082
 20
155.7104656509
 30
0.0
 11
158.0677814082
 21
149.7279605532
 31
0.0
  0
LINE
  5
11A
330
1F
100
AcDbEntity
  8
0
  6
CONTINUOUS
 62
     7
100
AcDbLine
 10
158.0677814082
 20
155.7104656509
 30
0.0
 11
158.0677814082
 21
156.8079821289
 31
0.0
  0
SPLINE
  5
11B
330
1F
100
AcDbEntity
  8
0
  6
CONTINUOUS
 62
     7
100
AcDbSpline
210
0.0
220
0.0
230
1.0
 70
     8
 71
     3
 72
     8
 73
     4
 74
     0
 42
0.000000001
 43
0.00000001
 40
0.0
 40
0.0
 40
0.0
 40
0.0
 40
0.0286485978063873
 40
0.0286485978063873
 40
0.0286485978063873
 40
0.0286485978063873
 10
158.0677814082431
 20
156.8079821288601
 30
0.0
 10
158.1349419291727
 20
156.7712271167522
 30
0.0
 10
158.2016085958393
 20
156.734821312342
 30
0.0
 10
158.2677814082431
 20
156.6987647156295
 30
0.0
  0
LINE
  5
11C
330
1F
100
AcDbEntity
  8
0
  6
CONTINUOUS
 62
     7
100
AcDbLine
 10
158.2677814082
 20
156.6987647156
 30
0.0
 11
158.2677814082
 21
155.7182380557
 31
0.0
  0
SPLINE
  5
11D
330
1F
100
AcDbEntity
  8
0
  6
CONTINUOUS
 62
     7
100
AcDbSpline
210
0.0
220
0.0
230
1.0
 70
     8
 71
     3
 72
     8
 73
     4
 74
     0
 42
0.000000001
 43
0.00000001
 40
0.0
 40
0.0
 40
0.0
 40
0.0
 40
0.0286485978063872
 40
0.0286485978063872
 40
0.0286485978063872
 40
0.0286485978063872
 10
158.2677814082431
 20
155.7182380556725
 30
0.0
 10
158.2016085958333
 20
155.7157750729698
 30
0.0
 10
158.1349419291666
 20
155.7131842713794
 30
0.0
 10
158.0677814082431
 20
155.7104656509012
 30
0.0
  0
LINE
  5
11E
330
1F
100
AcDbEntity
  8
0
  6
CONTINUOUS
 62
     7
100
AcDbLine
 10
158.2677814082
 20
149.8237157664
 30
0.0
 11
158.2677814082
 21
155.7182380557
 31
0.0
  0
SPLINE
  5
11F
330
1F
100
AcDbEntity
  8
0
  6
CONTINUOUS
 62
     7
100
AcDbSpline
210
0.0
220
0.0
230
1.0
 70
     8
 71
     3
 72
     8
 73
     4
 74
     0
 42
0.000000001
 43
0.00000001
 40
0.0
 40
0.0
 40
0.0
 40
0.0
 40
0.0286485978063875
 40
0.0286485978063875
 40
0.0286485978063875
 40
0.0286485978063875
 10
158.0677814082431
 20
149.7279605531528
 30
0.0
 10
158.1349419291705
 20
149.7600067764644
 30
0.0
 10
158.2016085958371
 20
149.7919251808876
 30
0.0
 10
158.2677814082431
 20
149.8237157664225
 30
0.0
  0
LINE
  5
120
330
1F
100
AcDbEntity
  8
0
  6
CONTINUOUS
 62
     7
100
AcDbLine
 10
155.7677814082
 20
156.8079821289
 30
0.0
 11
158.0677814082
 21
156.8079821289
 31
0.0
  0
LINE
  5
121
330
1F
100
AcDbEntity
  8
0
  6
CONTINUOUS
 62
     7
100
AcDbLine
 10
158.0677814082
 20
161.187479817
 30
0.0
 11
155.7677814082
 21
161.187479817
 31
0.0
  0
LINE
  5
122
330
1F
100
AcDbEntity
  8
0
  6
CONTINUOUS
 62
     7
100
AcDbLine
 10
158.0677814082
 20
161.187479817
 30
0.0
 11
158.0677814082
 21
156.8079821289
 31
0.0
  0
SPLINE
  5
123
330
1F
100
AcDbEntity
  8
0
  6
CONTINUOUS
 62
     7
100
AcDbSpline
210
0.0
220
0.0
230
1.0
 70
     8
 71
     3
 72
     8
 73
     4
 74
     0
 42
0.000000001
 43
0.00000001
 40
0.0
 40
0.0
 40
0.0
 40
0.0
 40
0.0286485978063875
 40
0.0286485978063875
 40
0.0286485978063875
 40
0.0286485978063875
 10
158.2677814082431
 20
161.0138545177077
 30
0.0
 10
158.2016085958379
 20
161.0713804097582
 30
0.0
 10
158.1349419291712
 20
161.1292555095062
 30
0.0
 10
158.0677814082431
 20
161.1874798169517
 30
0.0
  0
LINE
  5
124
330
1F
100
AcDbEntity
  8
0
  6
CONTINUOUS
 62
     7
100
AcDbLine
 10
158.2677814082
 20
156.6987647156
 30
0.0
 11
158.2677814082
 21
161.0138545177
 31
0.0
  0
SPLINE
  5
125
330
1F
100
AcDbEntity
  8
0
  6
CONTINUOUS
 62
     7
100
AcDbSpline
210
0.0
220
0.0
230
1.0
 70
     8
 71
     3
 72
    37
 73
    33
 74
     0
 42
0.000000001
 43
0.00000001
 40
0.0
 40
0.0
 40
0.0
 40
0.0
 40
0.009792738447256
 40
0.0236976016343002
 40
0.0417240628926263
 40
0.0644500643845831
 40
0.0834713275389357
 40
0.1026051011538046
 40
0.1251980818371235
 40
0.1668019217865619
 40
0.2084056771985492
 40
0.2500817839276101
 40
0.2917767412771665
 40
0.3334371891490323
 40
0.3750974295719962
 40
0.4167922614354579
 40
0.4584684431371827
 40
0.500072684313748
 40
0.541677168098512
 40
0.583353996706119
 40
0.625049943046112
 40
0.6667116765088996
 40
0.7143056630223091
 40
0.7619342883899998
 40
0.8095181793137787
 40
0.8570188266825965
 40
0.9003067245390043
 40
0.928466493220079
 40
0.9439584664895502
 40
0.9642493178544939
 40
0.9849005514337105
 40
1.0
 40
1.0
 40
1.0
 40
1.0
 10
180.9672086896593
 20
154.401536919313
 30
0.0
 10
180.9672084129119
 20
154.3339465503491
 30
0.0
 10
180.9672077432064
 20
154.1703835544977
 30
0.0
 10
180.9672021776876
 20
153.8831051833577
 30
0.0
 10
180.9671829203302
 20
153.509929293514
 30
0.0
 10
180.9671335078876
 20
153.1094131849547
 30
0.0
 10
180.9670383241854
 20
152.7139159652043
 30
0.0
 10
180.9668927042941
 20
152.3337397205348
 30
0.0
 10
180.9665950875336
 20
151.8384448434808
 30
0.0
 10
180.9660023432408
 20
151.2701295414696
 30
0.0
 10
180.9646809661253
 20
150.7198811889365
 30
0.0
 10
180.9631741794204
 20
150.3105026361499
 30
0.0
 10
180.9621130963118
 20
150.0583908261816
 30
0.0
 10
180.9617827073946
 20
149.9732889236147
 30
0.0
 10
180.962151169639
 20
150.0584035660053
 30
0.0
 10
180.9633619677977
 20
150.3105333867622
 30
0.0
 10
180.9650042393552
 20
150.7199067034648
 30
0.0
 10
180.9663862906635
 20
151.2702772833453
 30
0.0
 10
180.9670358966885
 20
151.9407483584595
 30
0.0
 10
180.9672753583058
 20
152.706237531409
 30
0.0
 10
180.9672693122111
 20
153.5373616501874
 30
0.0
 10
180.9672139015215
 20
154.4424248834996
 30
0.0
 10
180.967280414248
 20
155.3892824583118
 30
0.0
 10
180.9672395966632
 20
156.3273438805948
 30
0.0
 10
180.9668444202082
 20
157.1681652428408
 30
0.0
 10
180.9657165110418
 20
157.8493838823314
 30
0.0
 10
180.9641846840715
 20
158.2956219556438
 30
0.0
 10
180.9631398624815
 20
158.5322370776823
 30
0.0
 10
180.9625430569374
 20
158.6627890027466
 30
0.0
 10
180.9621507073698
 20
158.7459771190067
 30
0.0
 10
180.9619277015844
 20
158.7941171331619
 30
0.0
 10
180.9619065775513
 20
158.7992559095312
 30
0.0
 10
180.9618976557284
 20
158.8014262929987
 30
0.0
  0
LWPOLYLINE
  5
126
330
1F
100
AcDbEntity
  8
0
  6
CONTINUOUS
 62
     7
100
AcDbPolyline
 90
       10
 70
   128
 43
0.0
 10
180.9617916937
 20
158.8014205759
 10
180.961791685
 20
158.8014220519
 10
180.962232934
 20
158.7168962867
 10
180.9633097218
 20
158.4665578048
 10
180.9646228281
 20
158.0599766406
 10
180.9658203497
 20
157.5127967798
 10
180.9666703492
 20
156.8460434241
 10
180.9670956325
 20
156.0853431398
 10
180.9671764015
 20
155.2599340848
 10
180.9671337543
 20
154.4015368952
  0
SPLINE
  5
127
330
1F
100
AcDbEntity
  8
0
  6
CONTINUOUS
 62
     7
100
AcDbSpline
210
0.0
220
0.0
230
1.0
 70
     8
 71
     3
 72
    15
 73
    11
 74
     0
 42
0.000000001
 43
0.00000001
 40
0.0
 40
0.0
 40
0.0
 40
0.0
 40
0.1289643275559716
 40
0.2583953837415998
 40
0.3875425872501414
 40
0.5161868943525634
 40
0.6452844575217821
 40
0.7748723082739237
 40
0.9042310917671642
 40
1.0
 40
1.0
 40
1.0
 40
1.0
 10
166.0459360523101
 20
154.4015376762686
 30
0.0
 10
166.0598408300542
 20
154.8057818224397
 30
0.0
 10
166.0877007076583
 20
155.6157330954366
 30
0.0
 10
166.2753015533535
 20
156.7711612723279
 30
0.0
 10
166.5245348023191
 20
157.8206107885975
 30
0.0
 10
166.8140439442976
 20
158.7033496179198
 30
0.0
 10
167.100824624531
 20
159.3968512817495
 30
0.0
 10
167.3418627630906
 20
159.8907479647295
 30
0.0
 10
167.5075484632399
 20
160.1862833284896
 30
0.0
 10
167.5197195875541
 20
160.2195558357175
 30
0.0
 10
167.5248971615727
 20
160.2337098994267
 30
0.0
  0
LINE
  5
128
330
1F
100
AcDbEntity
  8
0
  6
CONTINUOUS
 62
     7
100
AcDbLine
 10
167.5359877404
 20
148.5452413691
 30
0.0
 11
167.5293147287
 21
148.559833656
 31
0.0
  0
SPLINE
  5
129
330
1F
100
AcDbEntity
  8
0
  6
CONTINUOUS
 62
     7
100
AcDbSpline
210
0.0
220
0.0
230
1.0
 70
     8
 71
     3
 72
    15
 73
    11
 74
     0
 42
0.000000001
 43
0.00000001
 40
0.0
 40
0.0
 40
0.0
 40
0.0
 40
0.0963842193977378
 40
0.225915935159532
 40
0.355420651032597
 40
0.4843352656268433
 40
0.6128249795818926
 40
0.7418650110504029
 40
0.8711669886343237
 40
1.0
 40
1.0
 40
1.0
 40
1.0
 10
167.5247499230153
 20
148.5698157985215
 30
0.0
 10
167.519376985142
 20
148.5845601243521
 30
0.0
 10
167.5067833023609
 20
148.6191194970287
 30
0.0
 10
167.3407525553323
 20
148.9155738719506
 30
0.0
 10
167.0993729807071
 20
149.4101440439822
 30
0.0
 10
166.8125492658432
 20
150.1037246942963
 30
0.0
 10
166.5233807250318
 20
150.9858731253321
 30
0.0
 10
166.2747820995222
 20
152.0339111452792
 30
0.0
 10
166.087661034913
 20
153.188293372857
 30
0.0
 10
166.0598275243531
 20
153.9976130184069
 30
0.0
 10
166.0459360523101
 20
154.4015376762686
 30
0.0
  0
SPLINE
  5
12A
330
1F
100
AcDbEntity
  8
0
  6
CONTINUOUS
 62
     7
100
AcDbSpline
210
0.0
220
0.0
230
1.0
 70
     8
 71
     3
 72
     8
 73
     4
 74
     0
 42
0.000000001
 43
0.00000001
 40
0.0
 40
0.0
 40
0.0
 40
0.0
 40
1.0
 40
1.0
 40
1.0
 40
1.0
 10
167.4748707234704
 20
148.5807203012906
 30
0.0
 10
167.4810683335365
 20
148.5547452282878
 30
0.0
 10
167.5103580210215
 20
148.537742313061
 30
0.0
 10
167.5359876639343
 20
148.5452413922661
 30
0.0
  0
SPLINE
  5
12B
330
1F
100
AcDbEntity
  8
0
  6
CONTINUOUS
 62
     7
100
AcDbSpline
210
0.0
220
0.0
230
1.0
 70
     8
 71
     3
 72
    15
 73
    11
 74
     0
 42
0.000000001
 43
0.00000001
 40
0.0
 40
0.0
 40
0.0
 40
0.0
 40
0.1291673398893697
 40
0.2589033681798549
 40
0.3881833963075532
 40
0.5166866640493294
 40
0.6454164957626358
 40
0.7746067921310622
 40
0.9037360096674079
 40
1.0
 40
1.0
 40
1.0
 40
1.0
 10
165.9848247581971
 20
154.4015400216244
 30
0.0
 10
165.9987248103139
 20
153.9987419151894
 30
0.0
 10
166.0265861126677
 20
153.1913722926378
 30
0.0
 10
166.2144042758054
 20
152.0409036356053
 30
0.0
 10
166.4638175425248
 20
150.998291511364
 30
0.0
 10
166.7532474537605
 20
150.1225908585641
 30
0.0
 10
167.0398458234039
 20
149.4357327054946
 30
0.0
 10
167.2806871890052
 20
148.9469917602324
 30
0.0
 10
167.4461919163826
 20
148.6543754786294
 30
0.0
 10
167.4585530385951
 20
148.6197506623634
 30
0.0
 10
167.463832394439
 20
148.6049626258924
 30
0.0
  0
SPLINE
  5
12C
330
1F
100
AcDbEntity
  8
0
  6
CONTINUOUS
 62
     7
100
AcDbSpline
210
0.0
220
0.0
230
1.0
 70
     8
 71
     3
 72
    16
 73
    12
 74
     0
 42
0.000000001
 43
0.00000001
 40
0.0
 40
0.0
 40
0.0
 40
0.0
 40
0.0955409345248976
 40
0.2244092024348576
 40
0.3535981593407064
 40
0.4824260425136897
 40
0.6109941531421093
 40
0.7402900047585967
 40
0.8700707185242023
 40
0.999642583285629
 40
1.0
 40
1.0
 40
1.0
 40
1.0
 10
167.4639798943531
 20
160.198556881209
 30
0.0
 10
167.4589011464935
 20
160.1843699674801
 30
0.0
 10
167.4469720423643
 20
160.1510473502088
 30
0.0
 10
167.2820356617443
 20
159.8598026077281
 30
0.0
 10
167.0418706474948
 20
159.3724645906957
 30
0.0
 10
166.7554399092695
 20
158.6866675052734
 30
0.0
 10
166.466415906785
 20
157.8116126658138
 30
0.0
 10
166.2141295055453
 20
156.7686747847396
 30
0.0
 10
166.0336427783159
 20
155.6176700541149
 30
0.0
 10
165.9848482570797
 20
154.807037986684
 30
0.0
 10
165.9848248226618
 20
154.4026524279741
 30
0.0
 10
165.9848247581971
 20
154.4015400216244
 30
0.0
  0
SPLINE
  5
12D
330
1F
100
AcDbEntity
  8
0
  6
CONTINUOUS
 62
     7
100
AcDbSpline
210
0.0
220
0.0
230
1.0
 70
     8
 71
     3
 72
     8
 73
     4
 74
     0
 42
0.000000001
 43
0.00000001
 40
0.3867101074871115
 40
0.3867101074871115
 40
0.3867101074871115
 40
0.3867101074871115
 40
1.0
 40
1.0
 40
1.0
 40
1.0
 10
167.5061590044027
 20
160.2564379739845
 30
0.0
 10
167.4911580825871
 20
160.250839340268
 30
0.0
 10
167.4786716550817
 20
160.238283738826
 30
0.0
 10
167.4748707234704
 20
160.2223534890961
 30
0.0
  0
SPLINE
  5
12E
330
1F
100
AcDbEntity
  8
0
  6
CONTINUOUS
 62
     7
100
AcDbSpline
210
0.0
220
0.0
230
1.0
 70
     8
 71
     3
 72
     8
 73
     4
 74
     0
 42
0.000000001
 43
0.00000001
 40
0.0
 40
0.0
 40
0.0
 40
0.0
 40
0.3867101074870962
 40
0.3867101074870962
 40
0.3867101074870962
 40
0.3867101074870962
 10
167.535987636177
 20
160.2578323871367
 30
0.0
 10
167.5260763942127
 20
160.2607323570333
 30
0.0
 10
167.5156178119362
 20
160.2599681833878
 30
0.0
 10
167.506158976602
 20
160.2564379636011
 30
0.0
  0
SPLINE
  5
12F
330
1F
100
AcDbEntity
  8
0
  6
CONTINUOUS
 62
     7
100
AcDbSpline
210
0.0
220
0.0
230
1.0
 70
     8
 71
     3
 72
     8
 73
     4
 74
     0
 42
0.000000001
 43
0.00000001
 40
0.0
 40
0.0
 40
0.0
 40
0.0
 40
1.0
 40
1.0
 40
1.0
 40
1.0
 10
167.3154255616969
 20
159.9719254651691
 30
0.0
 10
167.2346696211416
 20
159.8211358449379
 30
0.0
 10
167.1035630737678
 20
159.5658509821443
 30
0.0
 10
166.9433811862445
 20
159.2051693549963
 30
0.0
  0
SPLINE
  5
130
330
1F
100
AcDbEntity
  8
0
  6
CONTINUOUS
 62
     7
100
AcDbSpline
210
0.0
220
0.0
230
1.0
 70
     8
 71
     3
 72
    16
 73
    12
 74
     0
 42
0.000000001
 43
0.00000001
 40
0.0
 40
0.0
 40
0.0
 40
0.0
 40
0.1570818430747023
 40
0.3026886884565017
 40
0.4368144258884956
 40
0.5594512135581695
 40
0.6705906234100806
 40
0.7702240092520706
 40
0.858342582169526
 40
0.9349374894730944
 40
1.0
 40
1.0
 40
1.0
 40
1.0
 10
166.148068507719
 20
156.6689349669691
 30
0.0
 10
166.1339508111867
 20
156.5935647025838
 30
0.0
 10
166.1067467310477
 20
156.4483300527424
 30
0.0
 10
166.0715583332278
 20
156.2339498390882
 30
0.0
 10
166.0418784467575
 20
156.0339437681798
 30
0.0
 10
166.0173942438875
 20
155.8489040546126
 30
0.0
 10
165.9974696279846
 20
155.6796763742493
 30
0.0
 10
165.9815362489528
 20
155.5268524732563
 30
0.0
 10
165.9690893986626
 20
155.3909010151011
 30
0.0
 10
165.9594828023158
 20
155.2722245102635
 30
0.0
 10
165.95452598797
 20
155.198752650585
 30
0.0
 10
165.9522493490865
 20
155.1650074100112
 30
0.0
  0
SPLINE
  5
131
330
1F
100
AcDbEntity
  8
0
  6
CONTINUOUS
 62
     7
100
AcDbSpline
210
0.0
220
0.0
230
1.0
 70
     8
 71
     3
 72
    12
 73
     8
 74
     0
 42
0.000000001
 43
0.00000001
 40
0.0
 40
0.0
 40
0.0
 40
0.0
 40
0.2841167401278631
 40
0.5262323208578278
 40
0.7262949928235621
 40
0.8842403492149503
 40
1.0
 40
1.0
 40
1.0
 40
1.0
 10
165.9522493490894
 20
155.1650074100111
 30
0.0
 10
165.9479777481637
 20
155.0930662675684
 30
0.0
 10
165.9400660198091
 20
154.9598190877796
 30
0.0
 10
165.9329380638441
 20
154.7749454512125
 30
0.0
 10
165.9290125144606
 20
154.6219214469831
 30
0.0
 10
165.9272434386302
 20
154.5009850833644
 30
0.0
 10
165.92691176988
 20
154.4310955197363
 30
0.0
 10
165.9267714952862
 20
154.4015367200542
 30
0.0
  0
SPLINE
  5
132
330
1F
100
AcDbEntity
  8
0
  6
CONTINUOUS
 62
     7
100
AcDbSpline
210
0.0
220
0.0
230
1.0
 70
     8
 71
     3
 72
    15
 73
    11
 74
     0
 42
0.000000001
 43
0.00000001
 40
0.0
 40
0.0
 40
0.0
 40
0.0
 40
0.1333887977208
 40
0.2667181150633141
 40
0.3996758156083909
 40
0.5322425110292488
 40
0.665400404635231
 40
0.7992487265111635
 40
0.9332027750534186
 40
1.0
 40
1.0
 40
1.0
 40
1.0
 10
165.9217467260593
 20
154.4015354348516
 30
0.0
 10
165.933544523111
 20
154.0048405507193
 30
0.0
 10
165.957134856372
 20
153.2116276755833
 30
0.0
 10
166.1436700338106
 20
152.0815525274199
 30
0.0
 10
166.3930442083141
 20
151.0581563523839
 30
0.0
 10
166.6815931551387
 20
150.1964795493136
 30
0.0
 10
166.9675164829548
 20
149.5162362364684
 30
0.0
 10
167.2058046635804
 20
149.0336518275751
 30
0.0
 10
167.3619589667266
 20
148.7586697937673
 30
0.0
 10
167.3755945897597
 20
148.7258305457898
 30
0.0
 10
167.3801316557677
 20
148.7149037377248
 30
0.0
  0
LINE
  5
133
330
1F
100
AcDbEntity
  8
0
  6
CONTINUOUS
 62
     7
100
AcDbLine
 10
167.2118839651
 20
159.7700156592
 30
0.0
 11
167.3572939721
 21
160.0392846861
 31
0.0
  0
LINE
  5
134
330
1F
100
AcDbEntity
  8
0
  6
CONTINUOUS
 62
     7
100
AcDbLine
 10
167.3890003187
 20
160.1066651854
 30
0.0
 11
167.4026488217
 21
160.1356701968
 31
0.0
  0
SPLINE
  5
135
330
1F
100
AcDbEntity
  8
0
  6
CONTINUOUS
 62
     7
100
AcDbSpline
210
0.0
220
0.0
230
1.0
 70
     8
 71
     3
 72
     8
 73
     4
 74
     0
 42
0.000000001
 43
0.00000001
 40
0.0
 40
0.0
 40
0.0
 40
0.0
 40
1.0
 40
1.0
 40
1.0
 40
1.0
 10
167.40278623654
 20
160.1356375343209
 30
0.0
 10
167.4049175262855
 20
160.1347841171116
 30
0.0
 10
167.3731694242288
 20
160.0803288478964
 30
0.0
 10
167.3154255617017
 20
159.9719254651681
 30
0.0
  0
SPLINE
  5
136
330
1F
100
AcDbEntity
  8
0
  6
CONTINUOUS
 62
     7
100
AcDbSpline
210
0.0
220
0.0
230
1.0
 70
    24
 71
     3
 72
    15
 73
    11
 74
     0
 42
0.000000001
 43
0.00000001
 40
0.0
 40
0.0
 40
0.0
 40
0.0
 40
0.1363326882215019
 40
0.2730395972072673
 40
0.4096525798260636
 40
0.5467157542069286
 40
0.68344706975631
 40
0.8178445076839798
 40
0.9425087578583162
 40
1.0
 40
1.0
 40
1.0
 40
1.0
 10
159.9677814082431
 20
154.4015369194123
 30
0.0
 10
159.9677814082431
 20
153.9910853796344
 30
0.0
 10
159.9677814082431
 20
153.1690556481296
 30
0.0
 10
159.9677814082431
 20
151.9922020393405
 30
0.0
 10
159.9677814082431
 20
150.9237396629771
 30
0.0
 10
159.9677814082431
 20
150.0160830410984
 30
0.0
 10
159.9677814082431
 20
149.3106312312912
 30
0.0
 10
159.9677814082431
 20
148.8632899894046
 30
0.0
 10
159.9677814082431
 20
148.6561327772612
 30
0.0
 10
159.9677814082431
 20
148.671091451731
 30
0.0
 10
159.9677814082431
 20
148.6758126531898
 30
0.0
  0
SPLINE
  5
137
330
1F
100
AcDbEntity
  8
0
  6
CONTINUOUS
 62
     7
100
AcDbSpline
210
0.0
220
0.0
230
1.0
 70
    24
 71
     3
 72
    15
 73
    11
 74
     0
 42
0.000000001
 43
0.00000001
 40
0.0
 40
0.0
 40
0.0
 40
0.0
 40
0.0561566057737075
 40
0.183796005734948
 40
0.3191653090652173
 40
0.4550633734967436
 40
0.5912142239914059
 40
0.7273617959911929
 40
0.8635966281982999
 40
1.0
 40
1.0
 40
1.0
 40
1.0
 10
159.9677814082431
 20
160.1264736195297
 30
0.0
 10
159.9677814082431
 20
160.1317321536645
 30
0.0
 10
159.9677814082431
 20
160.1489429084223
 30
0.0
 10
159.9677814082431
 20
159.9386237326887
 30
0.0
 10
159.9677814082431
 20
159.4841954577522
 30
0.0
 10
159.9677814082431
 20
158.7767075532653
 30
0.0
 10
159.9677814082431
 20
157.8722181480944
 30
0.0
 10
159.9677814082431
 20
156.8078849208662
 30
0.0
 10
159.9677814082431
 20
155.6332516481477
 30
0.0
 10
159.9677814082431
 20
154.8122776656663
 30
0.0
 10
159.9677814082431
 20
154.4015369194123
 30
0.0
  0
SPLINE
  5
138
330
1F
100
AcDbEntity
  8
0
  6
CONTINUOUS
 62
     7
100
AcDbSpline
210
0.0
220
0.0
230
1.0
 70
     8
 71
     3
 72
    12
 73
     8
 74
     0
 42
0.000000001
 43
0.00000001
 40
0.0
 40
0.0
 40
0.0
 40
0.0
 40
0.0017688930113933
 40
0.2512709355293789
 40
0.5011001497326871
 40
0.7513197735571551
 40
1.0
 40
1.0
 40
1.0
 40
1.0
 10
166.7356884935156
 20
150.2067277750678
 30
0.0
 10
166.7350301080609
 20
150.2083365329783
 30
0.0
 10
166.6415065721004
 20
150.4368603060982
 30
0.0
 10
166.4433370523896
 20
151.0632649253251
 30
0.0
 10
166.1949464049908
 20
152.0753759739379
 30
0.0
 10
166.008200542196
 20
153.2134732483509
 30
0.0
 10
165.9847908700903
 20
154.0063575968452
 30
0.0
 10
165.973122150292
 20
154.4015765154736
 30
0.0
  0
SPLINE
  5
139
330
1F
100
AcDbEntity
  8
0
  6
CONTINUOUS
 62
     7
100
AcDbSpline
210
0.0
220
0.0
230
1.0
 70
     8
 71
     3
 72
    12
 73
     8
 74
     0
 42
0.000000001
 43
0.00000001
 40
0.0
 40
0.0
 40
0.0
 40
0.0
 40
0.0013857886134611
 40
0.2598504963376595
 40
0.5179068586020206
 40
0.7760884978951574
 40
1.0
 40
1.0
 40
1.0
 40
1.0
 10
165.973122150292
 20
154.4015765154736
 30
0.0
 10
165.973136384806
 20
154.403700344139
 30
0.0
 10
165.9758055116122
 20
154.801941408816
 30
0.0
 10
166.0232098770959
 20
155.5986456004525
 30
0.0
 10
166.1947419053862
 20
156.7267230785949
 30
0.0
 10
166.4291465472479
 20
157.7220064692684
 30
0.0
 10
166.6126976883438
 20
158.2390795831765
 30
0.0
 10
166.6979492884737
 20
158.4792377760467
 30
0.0
  0
SPLINE
  5
13A
330
1F
100
AcDbEntity
  8
0
  6
CONTINUOUS
 62
     7
100
AcDbSpline
210
0.0
220
0.0
230
1.0
 70
     8
 71
     3
 72
     9
 73
     5
 74
     0
 42
0.000000001
 43
0.00000001
 40
0.0
 40
0.0
 40
0.0
 40
0.0
 40
0.4097571582293228
 40
1.0
 40
1.0
 40
1.0
 40
1.0
 10
167.331308401265
 20
159.92457575234
 30
0.0
 10
167.3603646013613
 20
159.9804727751887
 30
0.0
 10
167.4312753823268
 20
160.1168877754544
 30
0.0
 10
167.4409502820352
 20
160.134037848741
 30
0.0
 10
167.4466608223329
 20
160.1441605567342
 30
0.0
  0
LINE
  5
13B
330
1F
100
AcDbEntity
  8
0
  6
CONTINUOUS
 62
     7
100
AcDbLine
 10
158.0677814082
 20
148.9245227291
 30
0.0
 11
158.0677814082
 21
149.7279605532
 31
0.0
  0
SPLINE
  5
13C
330
1F
100
AcDbEntity
  8
0
  6
CONTINUOUS
 62
     7
100
AcDbSpline
210
0.0
220
0.0
230
1.0
 70
     8
 71
     3
 72
     8
 73
     4
 74
     0
 42
0.000000001
 43
0.00000001
 40
0.0
 40
0.0
 40
0.0
 40
0.0
 40
0.0286485978063877
 40
0.0286485978063877
 40
0.0286485978063877
 40
0.0286485978063877
 10
158.2677814082431
 20
149.1059204331582
 30
0.0
 10
158.2016085958348
 20
149.0459315584024
 30
0.0
 10
158.1349419291681
 20
148.9854656570639
 30
0.0
 10
158.0677814082431
 20
148.9245227291428
 30
0.0
  0
LINE
  5
13D
330
1F
100
AcDbEntity
  8
0
  6
CONTINUOUS
 62
     7
100
AcDbLine
 10
158.2677814082
 20
149.8237157664
 30
0.0
 11
158.2677814082
 21
149.1059204332
 31
0.0
  0
LINE
  5
13E
330
1F
100
AcDbEntity
  8
0
  6
CONTINUOUS
 62
     7
100
AcDbLine
 10
158.0677814082
 20
148.9245227291
 30
0.0
 11
155.7677814082
 21
148.9245227291
 31
0.0
  0
LINE
  5
13F
330
1F
100
AcDbEntity
  8
0
  6
CONTINUOUS
 62
     7
100
AcDbLine
 10
180.9677814082
 20
159.4515368952
 30
0.0
 11
180.9677814082
 21
149.3515368957
 31
0.0
  0
LINE
  5
140
330
1F
100
AcDbEntity
  8
0
  6
CONTINUOUS
 62
     7
100
AcDbLine
 10
183.9677814082
 20
158.6015368952
 30
0.0
 11
183.9677814082
 21
150.2015368952
 31
0.0
  0
LINE
  5
141
330
1F
100
AcDbEntity
  8
0
  6
CONTINUOUS
 62
     7
100
AcDbLine
 10
158.0677814082
 20
148.9245227291
 30
0.0
 11
158.0677814082
 21
147.3215153195
 31
0.0
  0
SPLINE
  5
142
330
1F
100
AcDbEntity
  8
0
  6
CONTINUOUS
 62
     7
100
AcDbSpline
210
0.0
220
0.0
230
1.0
 70
     8
 71
     3
 72
     8
 73
     4
 74
     0
 42
0.000000001
 43
0.00000001
 40
0.0
 40
0.0
 40
0.0
 40
0.0
 40
0.0286485978063874
 40
0.0286485978063874
 40
0.0286485978063874
 40
0.0286485978063874
 10
158.0677814082431
 20
147.321515319486
 30
0.0
 10
158.1349419291697
 20
147.3903165549036
 30
0.0
 10
158.2016085958364
 20
147.4586407637371
 30
0.0
 10
158.2677814082431
 20
147.5264879459863
 30
0.0
  0
LINE
  5
143
330
1F
100
AcDbEntity
  8
0
  6
CONTINUOUS
 62
     7
100
AcDbLine
 10
158.2677814082
 20
147.526487946
 30
0.0
 11
158.2677814082
 21
149.1059204332
 31
0.0
  0
LINE
  5
144
330
1F
100
AcDbEntity
  8
0
  6
CONTINUOUS
 62
     7
100
AcDbLine
 10
155.7677814082
 20
147.3215153195
 30
0.0
 11
158.0677814082
 21
147.3215153195
 31
0.0
  0
LINE
  5
145
330
1F
100
AcDbEntity
  8
0
  6
CONTINUOUS
 62
     7
100
AcDbLine
 10
146.7677814082
 20
150.3015368952
 30
0.0
 11
146.7677814082
 21
158.5015368952
 31
0.0
  0
LINE
  5
146
330
1F
100
AcDbEntity
  8
0
  6
CONTINUOUS
 62
     7
100
AcDbLine
 10
146.2677814082
 20
150.5902120298
 30
0.0
 11
146.2677814082
 21
158.2128617606
 31
0.0
  0
LINE
  5
147
330
1F
100
AcDbEntity
  8
0
  6
CONTINUOUS
 62
     7
100
AcDbLine
 10
203.9677814082
 20
156.9015368952
 30
0.0
 11
203.9677814082
 21
151.9015368952
 31
0.0
  0
LINE
  5
148
330
1F
100
AcDbEntity
  8
0
  6
CONTINUOUS
 62
     7
100
AcDbLine
 10
155.7677814082
 20
161.4815584709
 30
0.0
 11
158.0677814082
 21
161.4815584709
 31
0.0
  0
LINE
  5
149
330
1F
100
AcDbEntity
  8
0
  6
CONTINUOUS
 62
     7
100
AcDbLine
 10
158.0677814082
 20
161.187479817
 30
0.0
 11
158.0677814082
 21
161.4815584709
 31
0.0
  0
SPLINE
  5
14A
330
1F
100
AcDbEntity
  8
0
  6
CONTINUOUS
 62
     7
100
AcDbSpline
210
0.0
220
0.0
230
1.0
 70
     8
 71
     3
 72
     8
 73
     4
 74
     0
 42
0.000000001
 43
0.00000001
 40
0.0
 40
0.0
 40
0.0
 40
0.0
 40
0.0286485978063874
 40
0.0286485978063874
 40
0.0286485978063874
 40
0.0286485978063874
 10
158.0677814082431
 20
161.4815584709007
 30
0.0
 10
158.1349419291706
 20
161.4127572354822
 30
0.0
 10
158.2016085958373
 20
161.3444330266488
 30
0.0
 10
158.2677814082431
 20
161.2765858444004
 30
0.0
  0
LINE
  5
14B
330
1F
100
AcDbEntity
  8
0
  6
CONTINUOUS
 62
     7
100
AcDbLine
 10
158.2677814082
 20
161.2765858444
 30
0.0
 11
158.2677814082
 21
161.0138545177
 31
0.0
  0
LINE
  5
14C
330
1F
100
AcDbEntity
  8
0
  6
CONTINUOUS
 62
     7
100
AcDbLine
 10
167.4748707235
 20
148.5807203013
 30
0.0
 11
167.4671823144
 21
148.5950476687
 31
0.0
  0
LINE
  5
14D
330
1F
100
AcDbEntity
  8
0
  6
CONTINUOUS
 62
     7
100
AcDbLine
 10
167.4695317299
 20
160.2109646514
 30
0.0
 11
167.4748707235
 21
160.2223534891
 31
0.0
  0
LINE
  5
14E
330
1F
100
AcDbEntity
  8
0
  6
CONTINUOUS
 62
     7
100
AcDbLine
 10
166.6263732833
 20
150.5392532452
 30
0.0
 11
166.6949015306
 21
150.3334598862
 31
0.0
  0
LINE
  5
14F
330
1F
100
AcDbEntity
  8
0
  6
CONTINUOUS
 62
     7
100
AcDbLine
 10
274.2677814082
 20
73.1348718133
 30
0.0
 11
274.5677814082
 21
73.4348718133
 31
0.0
  0
LINE
  5
150
330
1F
100
AcDbEntity
  8
0
  6
CONTINUOUS
 62
     7
100
AcDbLine
 10
274.5677814082
 20
82.8348718133
 30
0.0
 11
274.2677814082
 21
83.1348718133
 31
0.0
  0
LINE
  5
151
330
1F
100
AcDbEntity
  8
0
  6
CONTINUOUS
 62
     7
100
AcDbLine
 10
274.2677814082
 20
83.1348718133
 30
0.0
 11
271.2677814082
 21
83.1348718133
 31
0.0
  0
LINE
  5
152
330
1F
100
AcDbEntity
  8
0
  6
CONTINUOUS
 62
     7
100
AcDbLine
 10
271.2677814082
 20
73.1348718133
 30
0.0
 11
274.2677814082
 21
73.1348718133
 31
0.0
  0
ARC
  5
153
330
1F
100
AcDbEntity
  8
0
  6
CONTINUOUS
 62
     7
100
AcDbCircle
 10
271.2677814082
 20
82.9348718133
 30
0.0
 40
0.2000000000000455
100
AcDbArc
 50
90.0
 51
180.0
  0
ARC
  5
154
330
1F
100
AcDbEntity
  8
0
  6
CONTINUOUS
 62
     7
100
AcDbCircle
 10
271.2677814082
 20
73.3348718133
 30
0.0
 40
0.2000000000000455
100
AcDbArc
 50
180.0
 51
270.0
  0
LINE
  5
155
330
1F
100
AcDbEntity
  8
0
  6
CONTINUOUS
 62
     7
100
AcDbLine
 10
251.9473894763
 20
73.3848718133
 30
0.0
 11
267.2677814082
 21
73.3848718133
 31
0.0
  0
LINE
  5
156
330
1F
100
AcDbEntity
  8
0
  6
CONTINUOUS
 62
     7
100
AcDbLine
 10
262.7677814082
 20
82.8848718133
 30
0.0
 11
251.9473894763
 21
82.8848718133
 31
0.0
  0
LINE
  5
157
330
1F
100
AcDbEntity
  8
0
  6
CONTINUOUS
 62
     7
100
AcDbLine
 10
267.2677814082
 20
82.8848718133
 30
0.0
 11
266.3677814082
 21
82.8848718133
 31
0.0
  0
ARC
  5
158
330
1F
100
AcDbEntity
  8
0
  6
CONTINUOUS
 62
     7
100
AcDbCircle
 10
251.9473894763
 20
79.8848718133
 30
0.0
 40
2.999999999999872
100
AcDbArc
 50
90.0
 51
108.1659565292
  0
ARC
  5
159
330
1F
100
AcDbEntity
  8
0
  6
CONTINUOUS
 62
     7
100
AcDbCircle
 10
251.9473894763
 20
76.3848718133
 30
0.0
 40
2.999999999999872
100
AcDbArc
 50
251.8340434708
 51
270.0
  0
LINE
  5
15A
330
1F
100
AcDbEntity
  8
0
  6
CONTINUOUS
 62
     7
100
AcDbLine
 10
251.0120782226
 20
82.7353442055
 30
0.0
 11
248.4054273247
 21
81.8800368796
 31
0.0
  0
LINE
  5
15B
330
1F
100
AcDbEntity
  8
0
  6
CONTINUOUS
 62
     7
100
AcDbLine
 10
248.4054273247
 20
74.3897067469
 30
0.0
 11
251.0120782226
 21
73.5343994211
 31
0.0
  0
LINE
  5
15C
330
1F
100
AcDbEntity
  8
0
  6
CONTINUOUS
 62
     7
100
AcDbLine
 10
279.2677814082
 20
82.1348718133
 30
0.0
 11
274.5677814082
 21
82.1348718133
 31
0.0
  0
LINE
  5
15D
330
1F
100
AcDbEntity
  8
0
  6
CONTINUOUS
 62
     7
100
AcDbLine
 10
279.2677814082
 20
74.1348718133
 30
0.0
 11
279.8677814082
 21
74.7348718133
 31
0.0
  0
LINE
  5
15E
330
1F
100
AcDbEntity
  8
0
  6
CONTINUOUS
 62
     7
100
AcDbLine
 10
279.8677814082
 20
81.5348718133
 30
0.0
 11
279.2677814082
 21
82.1348718133
 31
0.0
  0
LINE
  5
15F
330
1F
100
AcDbEntity
  8
0
  6
CONTINUOUS
 62
     7
100
AcDbLine
 10
274.5677814082
 20
74.1348718133
 30
0.0
 11
279.2677814082
 21
74.1348718133
 31
0.0
  0
ARC
  5
160
330
1F
100
AcDbEntity
  8
0
  6
CONTINUOUS
 62
     7
100
AcDbCircle
 10
245.2677814082
 20
74.5623569906
 30
0.0
 40
0.2000000000000171
100
AcDbArc
 50
251.5650511771
 51
360.0
  0
ARC
  5
161
330
1F
100
AcDbEntity
  8
0
  6
CONTINUOUS
 62
     7
100
AcDbCircle
 10
245.2677814082
 20
81.7073866359
 30
0.0
 40
0.2000000000000171
100
AcDbArc
 50
0.0
 51
108.4349488229
  0
LINE
  5
162
330
1F
100
AcDbEntity
  8
0
  6
CONTINUOUS
 62
     7
100
AcDbLine
 10
245.204535855
 20
81.8971232955
 30
0.0
 11
243.9677814082
 21
81.4848718133
 31
0.0
  0
LINE
  5
163
330
1F
100
AcDbEntity
  8
0
  6
CONTINUOUS
 62
     7
100
AcDbLine
 10
243.9677814082
 20
74.7848718133
 30
0.0
 11
245.204535855
 21
74.372620331
 31
0.0
  0
ARC
  5
164
330
1F
100
AcDbEntity
  8
0
  6
CONTINUOUS
 62
     7
100
AcDbCircle
 10
248.4677814082
 20
74.5797382398
 30
0.0
 40
0.2000000000000171
100
AcDbArc
 50
180.0
 51
251.8340434708
  0
ARC
  5
165
330
1F
100
AcDbEntity
  8
0
  6
CONTINUOUS
 62
     7
100
AcDbCircle
 10
248.4677814082
 20
81.6900053868
 30
0.0
 40
0.2000000000000171
100
AcDbArc
 50
108.1659565292
 51
180.0
  0
ARC
  5
166
330
1F
100
AcDbEntity
  8
0
  6
CONTINUOUS
 62
     7
100
AcDbCircle
 10
248.0677814082
 20
74.5848718133
 30
0.0
 40
0.2000000000000171
100
AcDbArc
 50
0.0
 51
90.0
  0
ARC
  5
167
330
1F
100
AcDbEntity
  8
0
  6
CONTINUOUS
 62
     7
100
AcDbCircle
 10
248.0677814082
 20
81.6848718133
 30
0.0
 40
0.2000000000000171
100
AcDbArc
 50
270.0
 51
0.0
  0
LINE
  5
168
330
1F
100
AcDbEntity
  8
0
  6
CONTINUOUS
 62
     7
100
AcDbLine
 10
282.3677814082
 20
81.5348718133
 30
0.0
 11
279.8677814082
 21
81.5348718133
 31
0.0
  0
LINE
  5
169
330
1F
100
AcDbEntity
  8
0
  6
CONTINUOUS
 62
     7
100
AcDbLine
 10
279.8677814082
 20
74.7348718133
 30
0.0
 11
282.3677814082
 21
74.7348718133
 31
0.0
  0
LINE
  5
16A
330
1F
100
AcDbEntity
  8
0
  6
CONTINUOUS
 62
     7
100
AcDbLine
 10
245.4677814082
 20
74.7848718133
 30
0.0
 11
248.0677814082
 21
74.7848718133
 31
0.0
  0
LINE
  5
16B
330
1F
100
AcDbEntity
  8
0
  6
CONTINUOUS
 62
     7
100
AcDbLine
 10
248.0677814082
 20
81.4848718133
 30
0.0
 11
245.4677814082
 21
81.4848718133
 31
0.0
  0
LINE
  5
16C
330
1F
100
AcDbEntity
  8
0
  6
CONTINUOUS
 62
     7
100
AcDbLine
 10
268.5677814082
 20
81.0348718133
 30
0.0
 11
267.2677814082
 21
81.0348718133
 31
0.0
  0
LINE
  5
16D
330
1F
100
AcDbEntity
  8
0
  6
CONTINUOUS
 62
     7
100
AcDbLine
 10
267.2677814082
 20
75.2348718133
 30
0.0
 11
268.5677814082
 21
75.2348718133
 31
0.0
  0
LINE
  5
16E
330
1F
100
AcDbEntity
  8
0
  6
CONTINUOUS
 62
     7
100
AcDbLine
 10
223.9677814082
 20
75.8848718133
 30
0.0
 11
243.9677814082
 21
75.8848718133
 31
0.0
  0
LINE
  5
16F
330
1F
100
AcDbEntity
  8
0
  6
CONTINUOUS
 62
     7
100
AcDbLine
 10
243.9677814082
 20
80.3848718133
 30
0.0
 11
223.9677814082
 21
80.3848718133
 31
0.0
  0
LINE
  5
170
330
1F
100
AcDbEntity
  8
0
  6
CONTINUOUS
 62
     7
100
AcDbLine
 10
266.3677814082
 20
83.1848718133
 30
0.0
 11
262.7677814082
 21
83.1848718133
 31
0.0
  0
LINE
  5
171
330
1F
100
AcDbEntity
  8
0
  6
CONTINUOUS
 62
     7
100
AcDbLine
 10
148.3677814082
 20
70.6348718133
 30
0.0
 11
155.6677814082
 21
70.6348718133
 31
0.0
  0
LINE
  5
172
330
1F
100
AcDbEntity
  8
0
  6
CONTINUOUS
 62
     7
100
AcDbLine
 10
155.6677814082
 20
85.6348718133
 30
0.0
 11
148.3677814082
 21
85.6348718133
 31
0.0
  0
ARC
  5
173
330
1F
100
AcDbEntity
  8
0
  6
CONTINUOUS
 62
     7
100
AcDbCircle
 10
155.6677814082
 20
70.7348718133
 30
0.0
 40
0.1000000000000085
100
AcDbArc
 50
270.0
 51
360.0
  0
ARC
  5
174
330
1F
100
AcDbEntity
  8
0
  6
CONTINUOUS
 62
     7
100
AcDbCircle
 10
155.6677814082
 20
85.5348718133
 30
0.0
 40
0.1000000000000227
100
AcDbArc
 50
0.0
 51
90.0
  0
LINE
  5
175
330
1F
100
AcDbEntity
  8
0
  6
CONTINUOUS
 62
     7
100
AcDbLine
 10
148.3677814082
 20
85.6348718133
 30
0.0
 11
147.7677814082
 21
85.0348718133
 31
0.0
  0
LINE
  5
176
330
1F
100
AcDbEntity
  8
0
  6
CONTINUOUS
 62
     7
100
AcDbLine
 10
147.7677814082
 20
71.2348718133
 30
0.0
 11
148.3677814082
 21
70.6348718133
 31
0.0
  0
LINE
  5
177
330
1F
100
AcDbEntity
  8
0
  6
CONTINUOUS
 62
     7
100
AcDbLine
 10
161.1344896224
 20
84.024042017
 30
0.0
 11
159.9677814082
 21
83.8848857645
 31
0.0
  0
LINE
  5
178
330
1F
100
AcDbEntity
  8
0
  6
CONTINUOUS
 62
     7
100
AcDbLine
 10
165.9395697982
 20
84.2362576907
 30
0.0
 11
163.6177478111
 21
84.2389737045
 31
0.0
  0
SPLINE
  5
179
330
1F
100
AcDbEntity
  8
0
  6
CONTINUOUS
 62
     7
100
AcDbSpline
210
0.0
220
0.0
230
1.0
 70
     8
 71
     3
 72
    19
 73
    15
 74
     0
 42
0.000000001
 43
0.00000001
 40
0.0
 40
0.0
 40
0.0
 40
0.0
 40
0.0661273376907884
 40
0.120082953586569
 40
0.1618668682703441
 40
0.1914790424766535
 40
0.2224341003438378
 40
0.2672511450835084
 40
0.3270377522305835
 40
0.4185404847777474
 40
0.5315977338225871
 40
0.666208417513577
 40
0.8223720454111457
 40
1.0
 40
1.0
 40
1.0
 40
1.0
 10
180.967136131999
 20
82.53487182995568
 30
0.0
 10
180.6328608807921
 20
82.5350295454448
 30
0.0
 10
180.0258387190423
 20
82.5353159465373
 30
0.0
 10
179.2077420211534
 20
82.55185475832799
 30
0.0
 10
178.5744037139734
 20
82.57166130664892
 30
0.0
 10
178.0574484863202
 20
82.5926391601401
 30
0.0
 10
177.5253542575611
 20
82.61829057274811
 30
0.0
 10
176.8412469431917
 20
82.65786296630596
 30
0.0
 10
175.8524078943845
 20
82.72818696053095
 30
0.0
 10
174.5214842170812
 20
82.84856923098319
 30
0.0
 10
172.8182112210175
 20
83.0466910059299
 30
0.0
 10
170.7990747543857
 20
83.34835346905145
 30
0.0
 10
168.4686941793924
 20
83.77367804763651
 30
0.0
 10
166.8300560959306
 20
84.17751313697782
 30
0.0
 10
165.9580510893678
 20
84.39241490405226
 30
0.0
  0
ARC
  5
17A
330
1F
100
AcDbEntity
  8
0
  6
CONTINUOUS
 62
     7
100
AcDbCircle
 10
181.299182472
 20
82.3848718133
 30
0.0
 40
1.000000000000003
100
AcDbArc
 50
70.6090340456
 51
90.0
  0
ARC
  5
17B
330
1F
100
AcDbEntity
  8
0
  6
CONTINUOUS
 62
     7
100
AcDbCircle
 10
181.299182472
 20
73.8848718133
 30
0.0
 40
1.000000000000003
100
AcDbArc
 50
270.0
 51
289.3909659544
  0
ARC
  5
17C
330
1F
100
AcDbEntity
  8
0
  6
CONTINUOUS
 62
     7
100
AcDbCircle
 10
181.1677814082
 20
83.1848718133
 30
0.0
 40
0.2000000000000171
100
AcDbArc
 50
90.0
 51
180.0
  0
ARC
  5
17D
330
1F
100
AcDbEntity
  8
0
  6
CONTINUOUS
 62
     7
100
AcDbCircle
 10
181.1677814082
 20
73.0848718133
 30
0.0
 40
0.2000000000000171
100
AcDbArc
 50
180.0
 51
270.0
  0
LINE
  5
17E
330
1F
100
AcDbEntity
  8
0
  6
CONTINUOUS
 62
     7
100
AcDbLine
 10
181.299182472
 20
83.3848718133
 30
0.0
 11
181.1677814082
 21
83.3848718133
 31
0.0
  0
LINE
  5
17F
330
1F
100
AcDbEntity
  8
0
  6
CONTINUOUS
 62
     7
100
AcDbLine
 10
181.1677814082
 20
72.8848718133
 30
0.0
 11
181.299182472
 21
72.8848718133
 31
0.0
  0
ARC
  5
180
330
1F
100
AcDbEntity
  8
0
  6
CONTINUOUS
 62
     7
100
AcDbCircle
 10
174.9909467539
 20
64.4626464457
 30
0.0
 40
19.99999999999766
100
AcDbArc
 50
63.3306050211
 51
70.6090340456
  0
ARC
  5
181
330
1F
100
AcDbEntity
  8
0
  6
CONTINUOUS
 62
     7
100
AcDbCircle
 10
174.9909467539
 20
91.8070971808
 30
0.0
 40
19.99999999999767
100
AcDbArc
 50
289.3909659544
 51
296.6693949789
  0
LINE
  5
182
330
1F
100
AcDbEntity
  8
0
  6
CONTINUOUS
 62
     7
100
AcDbLine
 10
158.2677814082
 20
73.8848718133
 30
0.0
 11
159.9677814082
 21
73.8848718133
 31
0.0
  0
LINE
  5
183
330
1F
100
AcDbEntity
  8
0
  6
CONTINUOUS
 62
     7
100
AcDbLine
 10
159.9677814082
 20
82.3848718133
 30
0.0
 11
158.2677814082
 21
82.3848718133
 31
0.0
  0
LINE
  5
184
330
1F
100
AcDbEntity
  8
0
  6
CONTINUOUS
 62
     7
100
AcDbLine
 10
146.2677814082
 20
74.3235469479
 30
0.0
 11
146.7677814082
 21
74.0348718133
 31
0.0
  0
LINE
  5
185
330
1F
100
AcDbEntity
  8
0
  6
CONTINUOUS
 62
     7
100
AcDbLine
 10
146.7677814082
 20
74.0348718133
 30
0.0
 11
147.7677814082
 21
74.0348718133
 31
0.0
  0
LINE
  5
186
330
1F
100
AcDbEntity
  8
0
  6
CONTINUOUS
 62
     7
100
AcDbLine
 10
203.9677814082
 20
80.6348718133
 30
0.0
 11
183.9677814082
 21
80.6348718133
 31
0.0
  0
LINE
  5
187
330
1F
100
AcDbEntity
  8
0
  6
CONTINUOUS
 62
     7
100
AcDbLine
 10
183.9677814082
 20
75.6348718133
 30
0.0
 11
203.9677814082
 21
75.6348718133
 31
0.0
  0
LINE
  5
188
330
1F
100
AcDbEntity
  8
0
  6
CONTINUOUS
 62
     7
100
AcDbLine
 10
163.6178299212
 20
84.5207335452
 30
0.0
 11
161.1177814449
 21
84.3173064643
 31
0.0
  0
LINE
  5
189
330
1F
100
AcDbEntity
  8
0
  6
CONTINUOUS
 62
     7
100
AcDbLine
 10
274.2677814082
 20
78.1348718133
 30
0.0
 11
274.2677814082
 21
73.1348718133
 31
0.0
  0
LINE
  5
18A
330
1F
100
AcDbEntity
  8
0
  6
CONTINUOUS
 62
     7
100
AcDbLine
 10
274.2677814082
 20
83.1348718133
 30
0.0
 11
274.2677814082
 21
78.1348718133
 31
0.0
  0
LINE
  5
18B
330
1F
100
AcDbEntity
  8
0
  6
CONTINUOUS
 62
     7
100
AcDbLine
 10
274.5677814082
 20
78.1348718133
 30
0.0
 11
274.5677814082
 21
73.4348718133
 31
0.0
  0
LINE
  5
18C
330
1F
100
AcDbEntity
  8
0
  6
CONTINUOUS
 62
     7
100
AcDbLine
 10
274.5677814082
 20
82.8348718133
 30
0.0
 11
274.5677814082
 21
78.1348718133
 31
0.0
  0
LINE
  5
18D
330
1F
100
AcDbEntity
  8
0
  6
CONTINUOUS
 62
     7
100
AcDbLine
 10
271.0677814082
 20
77.3314194274
 30
0.0
 11
271.0677814082
 21
74.4383241991
 31
0.0
  0
ELLIPSE
  5
18E
330
1F
100
AcDbEntity
  8
0
  6
CONTINUOUS
 62
     7
100
AcDbEllipse
 10
271.4495015891
 20
77.0409788236
 30
0.0
 11
-0.187086039204587
 21
0.7418305064746846
 31
0.0
210
0.0
220
0.0
230
1.0
 40
0.4485253477
 41
0.6816627324721388
 42
1.058572295162503
  0
LINE
  5
18F
330
1F
100
AcDbEntity
  8
0
  6
CONTINUOUS
 62
     7
100
AcDbLine
 10
271.0945763275
 20
78.7055862509
 30
0.0
 11
271.0945763275
 21
77.5641573756
 31
0.0
  0
ELLIPSE
  5
190
330
1F
100
AcDbEntity
  8
0
  6
CONTINUOUS
 62
     7
100
AcDbEllipse
 10
271.4495014184
 20
79.2287646201
 30
0.0
 11
0.1870858866954563
 21
0.741830295822183
 31
0.0
210
0.0
220
0.0
230
1.0
 40
0.4485253267
 41
2.083020151056801
 42
2.459929799418462
  0
LINE
  5
191
330
1F
100
AcDbEntity
  8
0
  6
CONTINUOUS
 62
     7
100
AcDbLine
 10
271.0677814082
 20
81.8314194274
 30
0.0
 11
271.0677814082
 21
78.9383241991
 31
0.0
  0
ELLIPSE
  5
192
330
1F
100
AcDbEntity
  8
0
  6
CONTINUOUS
 62
     7
100
AcDbEllipse
 10
271.4495015891
 20
81.5409788237
 30
0.0
 11
-0.1870860391791212
 21
0.7418305064392996
 31
0.0
210
0.0
220
0.0
230
1.0
 40
0.4485253477
 41
0.6816627324932207
 42
1.058572295197771
  0
LINE
  5
193
330
1F
100
AcDbEntity
  8
0
  6
CONTINUOUS
 62
     7
100
AcDbLine
 10
271.0945763275
 20
82.6348718133
 30
0.0
 11
271.0945763275
 21
82.0641573756
 31
0.0
  0
LINE
  5
194
330
1F
100
AcDbEntity
  8
0
  6
CONTINUOUS
 62
     7
100
AcDbLine
 10
271.0677814082
 20
82.9348718133
 30
0.0
 11
271.0677814082
 21
82.6348718133
 31
0.0
  0
LINE
  5
195
330
1F
100
AcDbEntity
  8
0
  6
CONTINUOUS
 62
     7
100
AcDbLine
 10
271.0677814082
 20
73.6348718133
 30
0.0
 11
271.0677814082
 21
73.3348718133
 31
0.0
  0
LINE
  5
196
330
1F
100
AcDbEntity
  8
0
  6
CONTINUOUS
 62
     7
100
AcDbLine
 10
271.0945763275
 20
74.2055862509
 30
0.0
 11
271.0945763275
 21
73.6348718133
 31
0.0
  0
ELLIPSE
  5
197
330
1F
100
AcDbEntity
  8
0
  6
CONTINUOUS
 62
     7
100
AcDbEllipse
 10
271.4495014184
 20
74.7287646201
 30
0.0
 11
0.1870858866865319
 21
0.7418302958100754
 31
0.0
210
0.0
220
0.0
230
1.0
 40
0.4485253267
 41
2.083020151045298
 42
2.459929799412279
  0
LINE
  5
198
330
1F
100
AcDbEntity
  8
0
  6
CONTINUOUS
 62
     7
100
AcDbLine
 10
268.7677814082
 20
77.5641573756
 30
0.0
 11
268.7677814082
 21
78.7055862509
 31
0.0
  0
LINE
  5
199
330
1F
100
AcDbEntity
  8
0
  6
CONTINUOUS
 62
     7
100
AcDbLine
 10
268.7677814082
 20
78.7055862509
 30
0.0
 11
271.0945763275
 21
78.7055862509
 31
0.0
  0
LINE
  5
19A
330
1F
100
AcDbEntity
  8
0
  6
CONTINUOUS
 62
     7
100
AcDbLine
 10
271.0945763275
 20
77.5641573756
 30
0.0
 11
268.7677814082
 21
77.5641573756
 31
0.0
  0
SPLINE
  5
19B
330
1F
100
AcDbEntity
  8
0
  6
CONTINUOUS
 62
     7
100
AcDbSpline
210
0.0
220
0.0
230
1.0
 70
     8
 71
     3
 72
     8
 73
     4
 74
     0
 42
0.000000001
 43
0.00000001
 40
0.0
 40
0.0
 40
0.0
 40
0.0
 40
0.0285901007783825
 40
0.0285901007783825
 40
0.0285901007783825
 40
0.0285901007783825
 10
268.7677814082431
 20
77.56415737564684
 30
0.0
 10
268.7003900182601
 20
77.58581377401845
 30
0.0
 10
268.6337233515935
 20
77.60710781073206
 30
0.0
 10
268.5677814082431
 20
77.62803948578768
 30
0.0
  0
LINE
  5
19C
330
1F
100
AcDbEntity
  8
0
  6
CONTINUOUS
 62
     7
100
AcDbLine
 10
268.5677814082
 20
77.6280394858
 30
0.0
 11
268.5677814082
 21
78.6417041408
 31
0.0
  0
SPLINE
  5
19D
330
1F
100
AcDbEntity
  8
0
  6
CONTINUOUS
 62
     7
100
AcDbSpline
210
0.0
220
0.0
230
1.0
 70
     8
 71
     3
 72
     8
 73
     4
 74
     0
 42
0.000000001
 43
0.00000001
 40
0.0
 40
0.0
 40
0.0
 40
0.0
 40
0.0285901007783824
 40
0.0285901007783824
 40
0.0285901007783824
 40
0.0285901007783824
 10
268.5677814082431
 20
78.64170414075666
 30
0.0
 10
268.633723351595
 20
78.66263581581278
 30
0.0
 10
268.7003900182616
 20
78.68392985252638
 30
0.0
 10
268.7677814082431
 20
78.70558625089751
 30
0.0
  0
LINE
  5
19E
330
1F
100
AcDbEntity
  8
0
  6
CONTINUOUS
 62
     7
100
AcDbLine
 10
268.5677814082
 20
81.9280394858
 30
0.0
 11
268.5677814082
 21
78.6417041408
 31
0.0
  0
SPLINE
  5
19F
330
1F
100
AcDbEntity
  8
0
  6
CONTINUOUS
 62
     7
100
AcDbSpline
210
0.0
220
0.0
230
1.0
 70
     8
 71
     3
 72
     8
 73
     4
 74
     0
 42
0.000000001
 43
0.00000001
 40
0.0
 40
0.0
 40
0.0
 40
0.0
 40
0.0285901007783824
 40
0.0285901007783824
 40
0.0285901007783824
 40
0.0285901007783824
 10
268.7677814082431
 20
82.06415737564684
 30
0.0
 10
268.7003900182619
 20
82.01842238403673
 30
0.0
 10
268.6337233515952
 20
81.97304975408366
 30
0.0
 10
268.5677814082431
 20
81.92803948578766
 30
0.0
  0
LINE
  5
1A0
330
1F
100
AcDbEntity
  8
0
  6
CONTINUOUS
 62
     7
100
AcDbLine
 10
268.7677814082
 20
78.7055862509
 30
0.0
 11
268.7677814082
 21
82.0641573756
 31
0.0
  0
LINE
  5
1A1
330
1F
100
AcDbEntity
  8
0
  6
CONTINUOUS
 62
     7
100
AcDbLine
 10
271.0945763275
 20
82.0641573756
 30
0.0
 11
268.7677814082
 21
82.0641573756
 31
0.0
  0
LINE
  5
1A2
330
1F
100
AcDbEntity
  8
0
  6
CONTINUOUS
 62
     7
100
AcDbLine
 10
268.5677814082
 20
77.6280394858
 30
0.0
 11
268.5677814082
 21
74.3417041408
 31
0.0
  0
LINE
  5
1A3
330
1F
100
AcDbEntity
  8
0
  6
CONTINUOUS
 62
     7
100
AcDbLine
 10
268.7677814082
 20
74.2055862509
 30
0.0
 11
268.7677814082
 21
77.5641573756
 31
0.0
  0
SPLINE
  5
1A4
330
1F
100
AcDbEntity
  8
0
  6
CONTINUOUS
 62
     7
100
AcDbSpline
210
0.0
220
0.0
230
1.0
 70
     8
 71
     3
 72
     8
 73
     4
 74
     0
 42
0.000000001
 43
0.00000001
 40
0.0
 40
0.0
 40
0.0
 40
0.0
 40
0.0285901007783824
 40
0.0285901007783824
 40
0.0285901007783824
 40
0.0285901007783824
 10
268.5677814082431
 20
74.34170414075668
 30
0.0
 10
268.6337233515947
 20
74.29669387246113
 30
0.0
 10
268.7003900182613
 20
74.25132124250808
 30
0.0
 10
268.7677814082431
 20
74.2055862508975
 30
0.0
  0
LINE
  5
1A5
330
1F
100
AcDbEntity
  8
0
  6
CONTINUOUS
 62
     7
100
AcDbLine
 10
268.7677814082
 20
74.2055862509
 30
0.0
 11
271.0945763275
 21
74.2055862509
 31
0.0
  0
LINE
  5
1A6
330
1F
100
AcDbEntity
  8
0
  6
CONTINUOUS
 62
     7
100
AcDbLine
 10
267.2677814082
 20
73.3848718133
 30
0.0
 11
267.2677814082
 21
82.8848718133
 31
0.0
  0
SPLINE
  5
1A7
330
1F
100
AcDbEntity
  8
0
  6
CONTINUOUS
 62
     7
100
AcDbSpline
210
0.0
220
0.0
230
1.0
 70
     8
 71
     3
 72
    20
 73
    16
 74
     0
 42
0.000000001
 43
0.00000001
 40
-0.369898634763634
 40
-0.369898634763634
 40
-0.369898634763634
 40
-0.369898634763634
 40
-0.308248862303028
 40
-0.262011532957574
 40
-0.246599089842422
 40
-0.21577420361212
 40
-0.200361760496968
 40
-0.169536874266665
 40
-0.154124431151514
 40
-0.123299544921211
 40
-0.10788710180606
 40
-0.077062215575757
 40
-0.0616497724606056
 40
-0.0308248862303028
 40
0.0
 40
0.0
 40
0.0
 40
0.0
 10
266.3677814082431
 20
82.88487181327217
 30
0.0
 10
266.1677814082431
 20
82.88487181327217
 30
0.0
 10
265.8177814082431
 20
82.88363938853661
 30
0.0
 10
265.4177814082431
 20
82.8797671607256
 30
0.0
 10
265.1177814082431
 20
82.8758081218317
 30
0.0
 10
264.9177814082431
 20
82.87264155209967
 30
0.0
 10
264.6677814082431
 20
82.86802498563348
 30
0.0
 10
264.4677814082431
 20
82.86380535733797
 30
0.0
 10
264.2177814082431
 20
82.85787373259174
 30
0.0
 10
264.0177814082431
 20
82.85260315707312
 30
0.0
 10
263.7677814082431
 20
82.84535944170099
 30
0.0
 10
263.5677814082431
 20
82.83904055603865
 30
0.0
 10
263.3177814082431
 20
82.83048837396089
 30
0.0
 10
263.067781408243
 20
82.8212833319385
 30
0.0
 10
262.867781408243
 20
82.8132245452129
 30
0.0
 10
262.7677814082431
 20
82.80902191265547
 30
0.0
  0
LINE
  5
1A8
330
1F
100
AcDbEntity
  8
0
  6
CONTINUOUS
 62
     7
100
AcDbLine
 10
279.2677814082
 20
76.8858722136
 30
0.0
 11
274.5677814082
 21
76.8858722136
 31
0.0
  0
LINE
  5
1A9
330
1F
100
AcDbEntity
  8
0
  6
CONTINUOUS
 62
     7
100
AcDbLine
 10
274.5677814082
 20
79.383871413
 30
0.0
 11
279.2677814082
 21
79.383871413
 31
0.0
  0
SPLINE
  5
1AA
330
1F
100
AcDbEntity
  8
0
  6
CONTINUOUS
 62
     7
100
AcDbSpline
210
0.0
220
0.0
230
1.0
 70
     8
 71
     3
 72
    10
 73
     6
 74
     0
 42
0.000000001
 43
0.00000001
 40
0.0
 40
0.0
 40
0.0
 40
0.0
 40
0.5
 40
0.5
 40
1.0
 40
1.0
 40
1.0
 40
1.0
 10
279.2677814082431
 20
79.38387141295186
 30
0.0
 10
279.4046235135062
 20
78.94562593938004
 30
0.0
 10
279.4677814082431
 20
78.54052980291173
 30
0.0
 10
279.4677814082431
 20
77.72921382363262
 30
0.0
 10
279.4046235135062
 20
77.32411768716432
 30
0.0
 10
279.2677814082431
 20
76.88587221359249
 30
0.0
  0
LINE
  5
1AB
330
1F
100
AcDbEntity
  8
0
  6
CONTINUOUS
 62
     7
100
AcDbLine
 10
279.2677814082
 20
82.1348718133
 30
0.0
 11
279.2677814082
 21
79.383871413
 31
0.0
  0
LINE
  5
1AC
330
1F
100
AcDbEntity
  8
0
  6
CONTINUOUS
 62
     7
100
AcDbLine
 10
279.8677814082
 20
78.1348718133
 30
0.0
 11
279.8677814082
 21
74.7348718133
 31
0.0
  0
LINE
  5
1AD
330
1F
100
AcDbEntity
  8
0
  6
CONTINUOUS
 62
     7
100
AcDbLine
 10
279.8677814082
 20
81.5348718133
 30
0.0
 11
279.8677814082
 21
78.1348718133
 31
0.0
  0
LINE
  5
1AE
330
1F
100
AcDbEntity
  8
0
  6
CONTINUOUS
 62
     7
100
AcDbLine
 10
279.2677814082
 20
76.8858722136
 30
0.0
 11
279.2677814082
 21
74.1348718133
 31
0.0
  0
LINE
  5
1AF
330
1F
100
AcDbEntity
  8
0
  6
CONTINUOUS
 62
     7
100
AcDbLine
 10
245.4677814082
 20
74.5623570096
 30
0.0
 11
245.4677814082
 21
81.7073866359
 31
0.0
  0
LINE
  5
1B0
330
1F
100
AcDbEntity
  8
0
  6
CONTINUOUS
 62
     7
100
AcDbLine
 10
243.9677814082
 20
74.7848718133
 30
0.0
 11
243.9677814082
 21
81.4848718133
 31
0.0
  0
LINE
  5
1B1
330
1F
100
AcDbEntity
  8
0
  6
CONTINUOUS
 62
     7
100
AcDbLine
 10
248.2677814082
 20
74.5802053393
 30
0.0
 11
248.2677814082
 21
81.6900053868
 31
0.0
  0
LINE
  5
1B2
330
1F
100
AcDbEntity
  8
0
  6
CONTINUOUS
 62
     7
100
AcDbLine
 10
282.3677814082
 20
78.1348718133
 30
0.0
 11
282.3677814082
 21
74.7348718133
 31
0.0
  0
LINE
  5
1B3
330
1F
100
AcDbEntity
  8
0
  6
CONTINUOUS
 62
     7
100
AcDbLine
 10
282.3677814082
 20
81.5348718133
 30
0.0
 11
282.3677814082
 21
78.1348718133
 31
0.0
  0
LINE
  5
1B4
330
1F
100
AcDbEntity
  8
0
  6
CONTINUOUS
 62
     7
100
AcDbLine
 10
268.7677814082
 20
73.6348718133
 30
0.0
 11
268.7677814082
 21
74.2055862509
 31
0.0
  0
LINE
  5
1B5
330
1F
100
AcDbEntity
  8
0
  6
CONTINUOUS
 62
     7
100
AcDbLine
 10
271.0945763275
 20
73.6348718133
 30
0.0
 11
268.7677814082
 21
73.6348718133
 31
0.0
  0
SPLINE
  5
1B6
330
1F
100
AcDbEntity
  8
0
  6
CONTINUOUS
 62
     7
100
AcDbSpline
210
0.0
220
0.0
230
1.0
 70
    24
 71
     3
 72
     8
 73
     4
 74
     0
 42
0.000000001
 43
0.00000001
 40
0.0
 40
0.0
 40
0.0
 40
0.0
 40
0.0285901007783824
 40
0.0285901007783824
 40
0.0285901007783824
 40
0.0285901007783824
 10
268.7677814082431
 20
73.63487181327217
 30
0.0
 10
268.7003900182603
 20
73.70226320325494
 30
0.0
 10
268.6337233515936
 20
73.76892986992162
 30
0.0
 10
268.5677814082431
 20
73.83487181327217
 30
0.0
  0
LINE
  5
1B7
330
1F
100
AcDbEntity
  8
0
  6
CONTINUOUS
 62
     7
100
AcDbLine
 10
268.5677814082
 20
73.8348718133
 30
0.0
 11
268.5677814082
 21
74.3417041408
 31
0.0
  0
LINE
  5
1B8
330
1F
100
AcDbEntity
  8
0
  6
CONTINUOUS
 62
     7
100
AcDbLine
 10
268.7677814082
 20
82.0641573756
 30
0.0
 11
268.7677814082
 21
82.6348718133
 31
0.0
  0
LINE
  5
1B9
330
1F
100
AcDbEntity
  8
0
  6
CONTINUOUS
 62
     7
100
AcDbLine
 10
268.7677814082
 20
82.6348718133
 30
0.0
 11
271.0945763275
 21
82.6348718133
 31
0.0
  0
SPLINE
  5
1BA
330
1F
100
AcDbEntity
  8
0
  6
CONTINUOUS
 62
     7
100
AcDbSpline
210
0.0
220
0.0
230
1.0
 70
    24
 71
     3
 72
     8
 73
     4
 74
     0
 42
0.000000001
 43
0.00000001
 40
0.0
 40
0.0
 40
0.0
 40
0.0
 40
0.0285901007783824
 40
0.0285901007783824
 40
0.0285901007783824
 40
0.0285901007783824
 10
268.5677814082431
 20
82.43487181327218
 30
0.0
 10
268.6337233515936
 20
82.50081375662273
 30
0.0
 10
268.7003900182603
 20
82.5674804232894
 30
0.0
 10
268.7677814082431
 20
82.63487181327217
 30
0.0
  0
LINE
  5
1BB
330
1F
100
AcDbEntity
  8
0
  6
CONTINUOUS
 62
     7
100
AcDbLine
 10
268.5677814082
 20
81.9280394858
 30
0.0
 11
268.5677814082
 21
82.4348718133
 31
0.0
  0
LINE
  5
1BC
330
1F
100
AcDbEntity
  8
0
  6
CONTINUOUS
 62
     7
100
AcDbLine
 10
223.9677814082
 20
78.1348718133
 30
0.0
 11
223.9677814082
 21
80.3848718133
 31
0.0
  0
LINE
  5
1BD
330
1F
100
AcDbEntity
  8
0
  6
CONTINUOUS
 62
     7
100
AcDbLine
 10
223.9677814082
 20
75.8848718133
 30
0.0
 11
223.9677814082
 21
78.1348718133
 31
0.0
  0
SPLINE
  5
1BE
330
1F
100
AcDbEntity
  8
0
  6
CONTINUOUS
 62
     7
100
AcDbSpline
210
0.0
220
0.0
230
1.0
 70
     8
 71
     3
 72
    20
 73
    16
 74
     0
 42
0.000000001
 43
0.00000001
 40
0.0
 40
0.0
 40
0.0
 40
0.0
 40
0.0308248862303028
 40
0.0616497724606056
 40
0.077062215575757
 40
0.10788710180606
 40
0.123299544921211
 40
0.154124431151514
 40
0.169536874266665
 40
0.200361760496968
 40
0.21577420361212
 40
0.246599089842422
 40
0.262011532957574
 40
0.308248862303028
 40
0.369898634763634
 40
0.369898634763634
 40
0.369898634763634
 40
0.369898634763634
 10
262.7677814082431
 20
83.10423139261651
 30
0.0
 10
262.867781408243
 20
83.10869945459865
 30
0.0
 10
263.067781408243
 20
83.11726721730703
 30
0.0
 10
263.3177814082431
 20
83.12705363034486
 30
0.0
 10
263.5677814082431
 20
83.13614595024521
 30
0.0
 10
263.7677814082431
 20
83.14286392340364
 30
0.0
 10
264.0177814082431
 20
83.15056513659091
 30
0.0
 10
264.2177814082431
 20
83.15616859054933
 30
0.0
 10
264.4677814082431
 20
83.16247484422647
 30
0.0
 10
264.6677814082431
 20
83.16696097534437
 30
0.0
 10
264.9177814082431
 20
83.17186911442698
 30
0.0
 10
265.1177814082431
 20
83.1752356780136
 30
0.0
 10
265.4177814082431
 20
83.17944476143562
 30
0.0
 10
265.8177814082431
 20
83.18356155075996
 30
0.0
 10
266.1677814082431
 20
83.18487181327217
 30
0.0
 10
266.3677814082431
 20
83.18487181327217
 30
0.0
  0
LINE
  5
1BF
330
1F
100
AcDbEntity
  8
0
  6
CONTINUOUS
 62
     7
100
AcDbLine
 10
266.3677814082
 20
82.8848718133
 30
0.0
 11
266.3677814082
 21
83.1848718133
 31
0.0
  0
LINE
  5
1C0
330
1F
100
AcDbEntity
  8
0
  6
CONTINUOUS
 62
     7
100
AcDbLine
 10
262.7677814082
 20
82.8090219127
 30
0.0
 11
262.7677814082
 21
83.1042313926
 31
0.0
  0
LINE
  5
1C1
330
1F
100
AcDbEntity
  8
0
  6
CONTINUOUS
 62
     7
100
AcDbLine
 10
262.7677814082
 20
83.1848718133
 30
0.0
 11
262.7677814082
 21
83.1042313926
 31
0.0
  0
LINE
  5
1C2
330
1F
100
AcDbEntity
  8
0
  6
CONTINUOUS
 62
     7
100
AcDbLine
 10
148.3677814082
 20
70.6348718133
 30
0.0
 11
148.3677814082
 21
85.6348718133
 31
0.0
  0
LINE
  5
1C3
330
1F
100
AcDbEntity
  8
0
  6
CONTINUOUS
 62
     7
100
AcDbLine
 10
155.7677814082
 20
83.3674619941
 30
0.0
 11
155.7677814082
 21
70.7348718133
 31
0.0
  0
LINE
  5
1C4
330
1F
100
AcDbEntity
  8
0
  6
CONTINUOUS
 62
     7
100
AcDbLine
 10
155.7677814082
 20
85.5348718133
 30
0.0
 11
155.7677814082
 21
83.3674619941
 31
0.0
  0
LINE
  5
1C5
330
1F
100
AcDbEntity
  8
0
  6
CONTINUOUS
 62
     7
100
AcDbLine
 10
147.7677814082
 20
71.2348718133
 30
0.0
 11
147.7677814082
 21
85.0348718133
 31
0.0
  0
LINE
  5
1C6
330
1F
100
AcDbEntity
  8
0
  6
CONTINUOUS
 62
     7
100
AcDbLine
 10
158.2677814082
 20
76.8181706528
 30
0.0
 11
158.2677814082
 21
75.8376439928
 31
0.0
  0
SPLINE
  5
1C7
330
1F
100
AcDbEntity
  8
0
  6
CONTINUOUS
 62
     7
100
AcDbSpline
210
0.0
220
0.0
230
1.0
 70
     8
 71
     3
 72
     8
 73
     4
 74
     0
 42
0.000000001
 43
0.00000001
 40
0.0
 40
0.0
 40
0.0
 40
0.0
 40
0.0286485978063875
 40
0.0286485978063875
 40
0.0286485978063875
 40
0.0286485978063875
 10
158.2677814082431
 20
75.83764399283608
 30
0.0
 10
158.2016085958379
 20
75.80158739612277
 30
0.0
 10
158.1349419291712
 20
75.76518159171256
 30
0.0
 10
158.0677814082431
 20
75.72842657960544
 30
0.0
  0
LINE
  5
1C8
330
1F
100
AcDbEntity
  8
0
  6
CONTINUOUS
 62
     7
100
AcDbLine
 10
158.0677814082
 20
75.7284265796
 30
0.0
 11
158.0677814082
 21
76.8259430576
 31
0.0
  0
SPLINE
  5
1C9
330
1F
100
AcDbEntity
  8
0
  6
CONTINUOUS
 62
     7
100
AcDbSpline
210
0.0
220
0.0
230
1.0
 70
     8
 71
     3
 72
     8
 73
     4
 74
     0
 42
0.000000001
 43
0.00000001
 40
0.0
 40
0.0
 40
0.0
 40
0.0
 40
0.0286485978063874
 40
0.0286485978063874
 40
0.0286485978063874
 40
0.0286485978063874
 10
158.0677814082431
 20
76.82594305756437
 30
0.0
 10
158.1349419291706
 20
76.82322443708597
 30
0.0
 10
158.2016085958373
 20
76.82063363549553
 30
0.0
 10
158.2677814082431
 20
76.818170652793
 30
0.0
  0
LINE
  5
1CA
330
1F
100
AcDbEntity
  8
0
  6
CONTINUOUS
 62
     7
100
AcDbLine
 10
158.0677814082
 20
82.8084481553
 30
0.0
 11
158.0677814082
 21
76.8259430576
 31
0.0
  0
SPLINE
  5
1CB
330
1F
100
AcDbEntity
  8
0
  6
CONTINUOUS
 62
     7
100
AcDbSpline
210
0.0
220
0.0
230
1.0
 70
     8
 71
     3
 72
     8
 73
     4
 74
     0
 42
0.000000001
 43
0.00000001
 40
0.0
 40
0.0
 40
0.0
 40
0.0
 40
0.0286485978063874
 40
0.0286485978063874
 40
0.0286485978063874
 40
0.0286485978063874
 10
158.2677814082431
 20
82.71269294204312
 30
0.0
 10
158.2016085958328
 20
82.74448352757997
 30
0.0
 10
158.1349419291662
 20
82.7764019320032
 30
0.0
 10
158.0677814082431
 20
82.80844815531276
 30
0.0
  0
LINE
  5
1CC
330
1F
100
AcDbEntity
  8
0
  6
CONTINUOUS
 62
     7
100
AcDbLine
 10
158.2677814082
 20
76.8181706528
 30
0.0
 11
158.2677814082
 21
82.712692942
 31
0.0
  0
LINE
  5
1CD
330
1F
100
AcDbEntity
  8
0
  6
CONTINUOUS
 62
     7
100
AcDbLine
 10
158.0677814082
 20
75.7284265796
 30
0.0
 11
155.7677814082
 21
75.7284265796
 31
0.0
  0
LINE
  5
1CE
330
1F
100
AcDbEntity
  8
0
  6
CONTINUOUS
 62
     7
100
AcDbLine
 10
155.7677814082
 20
76.8259430576
 30
0.0
 11
158.0677814082
 21
76.8259430576
 31
0.0
  0
LINE
  5
1CF
330
1F
100
AcDbEntity
  8
0
  6
CONTINUOUS
 62
     7
100
AcDbLine
 10
158.0677814082
 20
82.8084481553
 30
0.0
 11
155.7677814082
 21
82.8084481553
 31
0.0
  0
LINE
  5
1D0
330
1F
100
AcDbEntity
  8
0
  6
CONTINUOUS
 62
     7
100
AcDbLine
 10
155.7677814082
 20
71.3489288915
 30
0.0
 11
158.0677814082
 21
71.3489288915
 31
0.0
  0
LINE
  5
1D1
330
1F
100
AcDbEntity
  8
0
  6
CONTINUOUS
 62
     7
100
AcDbLine
 10
158.0677814082
 20
75.7284265796
 30
0.0
 11
158.0677814082
 21
71.3489288915
 31
0.0
  0
SPLINE
  5
1D2
330
1F
100
AcDbEntity
  8
0
  6
CONTINUOUS
 62
     7
100
AcDbSpline
210
0.0
220
0.0
230
1.0
 70
     8
 71
     3
 72
     8
 73
     4
 74
     0
 42
0.000000001
 43
0.00000001
 40
0.0
 40
0.0
 40
0.0
 40
0.0
 40
0.0286485978063873
 40
0.0286485978063873
 40
0.0286485978063873
 40
0.0286485978063873
 10
158.0677814082431
 20
71.3489288915138
 30
0.0
 10
158.1349419291727
 20
71.40715319896057
 30
0.0
 10
158.2016085958393
 20
71.46502829870857
 30
0.0
 10
158.2677814082431
 20
71.52255419075779
 30
0.0
  0
LINE
  5
1D3
330
1F
100
AcDbEntity
  8
0
  6
CONTINUOUS
 62
     7
100
AcDbLine
 10
158.2677814082
 20
71.5225541908
 30
0.0
 11
158.2677814082
 21
75.8376439928
 31
0.0
  0
SPLINE
  5
1D4
330
1F
100
AcDbEntity
  8
0
  6
CONTINUOUS
 62
     7
100
AcDbSpline
210
0.0
220
0.0
230
1.0
 70
     8
 71
     3
 72
    15
 73
    11
 74
     0
 42
0.000000001
 43
0.00000001
 40
0.0
 40
0.0
 40
0.0
 40
0.0
 40
0.0648896643204895
 40
0.1435026220548236
 40
0.2861877981319709
 40
0.3932738892124368
 40
0.5006308722637541
 40
0.7504648381480147
 40
0.8975912433235903
 40
1.0
 40
1.0
 40
1.0
 40
1.0
 10
163.6177814089472
 20
84.14300522902151
 30
0.0
 10
163.5636986258739
 20
84.14640261998159
 30
0.0
 10
163.4440952767071
 20
84.15391590450884
 30
0.0
 10
163.2054075694143
 20
84.16471799344406
 30
0.0
 10
162.9313361283383
 20
84.17163502166808
 30
0.0
 10
162.6332170777991
 20
84.17209565739252
 30
0.0
 10
162.2457168746404
 20
84.16468193283481
 30
0.0
 10
161.8250960834552
 20
84.1413156303298
 30
0.0
 10
161.4097312626105
 20
84.10198321055007
 30
0.0
 10
161.2027330728764
 20
84.07580237366095
 30
0.0
 10
161.1177814087999
 20
84.06505780790653
 30
0.0
  0
SPLINE
  5
1D5
330
1F
100
AcDbEntity
  8
0
  6
CONTINUOUS
 62
     7
100
AcDbSpline
210
0.0
220
0.0
230
1.0
 70
     8
 71
     3
 72
    16
 73
    12
 74
     0
 42
0.000000001
 43
0.00000001
 40
0.0
 40
0.0
 40
0.0
 40
0.0
 40
0.1570818430747023
 40
0.3026886884565017
 40
0.4368144258884956
 40
0.5594512135581695
 40
0.6705906234100806
 40
0.7702240092520706
 40
0.858342582169526
 40
0.9349374894730944
 40
1.0
 40
1.0
 40
1.0
 40
1.0
 10
166.148068507719
 20
72.47821274520697
 30
0.0
 10
166.1339508111867
 20
72.4481098672504
 30
0.0
 10
166.1067467310477
 20
72.39010315896958
 30
0.0
 10
166.0715583332278
 20
72.31724172888538
 30
0.0
 10
166.0418784467575
 20
72.25687326810956
 30
0.0
 10
166.0173942438875
 20
72.20798076767478
 30
0.0
 10
165.9974696279846
 20
72.16877825085722
 30
0.0
 10
165.9815362489528
 20
72.13779872064956
 30
0.0
 10
165.9690893986626
 20
72.11375900942974
 30
0.0
 10
165.9594828023158
 20
72.09524213426283
 30
0.0
 10
165.95452598797
 20
72.08551016298367
 30
0.0
 10
165.9522493490865
 20
72.08104031951557
 30
0.0
  0
SPLINE
  5
1D6
330
1F
100
AcDbEntity
  8
0
  6
CONTINUOUS
 62
     7
100
AcDbSpline
210
0.0
220
0.0
230
1.0
 70
     8
 71
     3
 72
    12
 73
     8
 74
     0
 42
0.000000001
 43
0.00000001
 40
0.0
 40
0.0
 40
0.0
 40
0.0
 40
0.2841167401278631
 40
0.5262323208578278
 40
0.7262949928235621
 40
0.8842403492149503
 40
1.0
 40
1.0
 40
1.0
 40
1.0
 10
165.9522493490894
 20
72.08104031951575
 30
0.0
 10
165.9479777481637
 20
72.07262037392364
 30
0.0
 10
165.9400660198091
 20
72.05702520868122
 30
0.0
 10
165.9329380638441
 20
72.04333349916453
 30
0.0
 10
165.9290125144606
 20
72.03597295757373
 30
0.0
 10
165.9272434386302
 20
72.03281276060055
 30
0.0
 10
165.92691176988
 20
72.03246491472599
 30
0.0
 10
165.9267714952862
 20
72.0323177982469
 30
0.0
  0
SPLINE
  5
1D7
330
1F
100
AcDbEntity
  8
0
  6
CONTINUOUS
 62
     7
100
AcDbSpline
210
0.0
220
0.0
230
1.0
 70
     8
 71
     3
 72
     8
 73
     4
 74
     0
 42
0.000000001
 43
0.00000001
 40
0.0
 40
0.0
 40
0.0
 40
0.0
 40
1.0
 40
1.0
 40
1.0
 40
1.0
 10
165.9218374718438
 20
72.032629017425
 30
0.0
 10
163.9326611508619
 20
71.91238182064248
 30
0.0
 10
161.928831279851
 20
72.03053239645449
 30
0.0
 10
159.9677814082431
 20
72.38487745921663
 30
0.0
  0
SPLINE
  5
1D8
330
1F
100
AcDbEntity
  8
0
  6
CONTINUOUS
 62
     7
100
AcDbSpline
210
0.0
220
0.0
230
1.0
 70
     8
 71
     3
 72
    15
 73
    11
 74
     0
 42
0.000000001
 43
0.00000001
 40
0.0
 40
0.0
 40
0.0
 40
0.0
 40
0.1251370293787104
 40
0.2503206188575081
 40
0.3750931915656584
 40
0.499255101280055
 40
0.6237766049466641
 40
0.7489450590851557
 40
0.8744081047368467
 40
1.0
 40
1.0
 40
1.0
 40
1.0
 10
165.9213634124286
 20
84.23876739404876
 30
0.0
 10
165.9335176928501
 20
84.21553327150552
 30
0.0
 10
165.9578307759717
 20
84.16905638163121
 30
0.0
 10
166.1453935963787
 20
83.80776831705175
 30
0.0
 10
166.3950678089329
 20
83.24960572698397
 30
0.0
 10
166.6835747608058
 20
82.47713423053384
 30
0.0
 10
166.9679403790076
 20
81.53926545979374
 30
0.0
 10
167.2086712783515
 20
80.47755658970563
 30
0.0
 10
167.3832032319386
 20
79.32926360797045
 30
0.0
 10
167.3961647409946
 20
78.5331496273555
 30
0.0
 10
167.4026488216579
 20
78.13488834117416
 30
0.0
  0
SPLINE
  5
1D9
330
1F
100
AcDbEntity
  8
0
  6
CONTINUOUS
 62
     7
100
AcDbSpline
210
0.0
220
0.0
230
1.0
 70
     8
 71
     3
 72
     8
 73
     4
 74
     0
 42
0.000000001
 43
0.00000001
 40
0.0
 40
0.0
 40
0.0
 40
0.0
 40
1.0
 40
1.0
 40
1.0
 40
1.0
 10
167.40278623654
 20
78.13487700261842
 30
0.0
 10
167.4049175262855
 20
77.62552301449828
 30
0.0
 10
167.3731694242288
 20
77.11347779817679
 30
0.0
 10
167.3154255617017
 20
76.61523261749228
 30
0.0
  0
LINE
  5
1DA
330
1F
100
AcDbEntity
  8
0
  6
CONTINUOUS
 62
     7
100
AcDbLine
 10
159.9677814082
 20
83.8830551615
 30
0.0
 11
159.9677814082
 21
72.3848747483
 31
0.0
  0
SPLINE
  5
1DB
330
1F
100
AcDbEntity
  8
0
  6
CONTINUOUS
 62
     7
100
AcDbSpline
210
0.0
220
0.0
230
1.0
 70
     8
 71
     3
 72
     9
 73
     5
 74
     0
 42
0.000000001
 43
0.00000001
 40
-0.9590928350548003
 40
-0.9590928350548003
 40
-0.9590928350548003
 40
-0.9590928350548003
 40
-0.575514414706791
 40
0.0
 40
0.0
 40
0.0
 40
0.0
 10
166.0459360523101
 20
71.90176708142145
 30
0.0
 10
166.0458662465212
 20
71.90374960620608
 30
0.0
 10
166.6600238362326
 20
72.93550084608877
 30
0.0
 10
167.580591669508
 20
76.20483176243181
 30
0.0
 10
167.5359876639327
 20
78.13486676949677
 30
0.0
  0
SPLINE
  5
1DC
330
1F
100
AcDbEntity
  8
0
  6
CONTINUOUS
 62
     7
100
AcDbSpline
210
0.0
220
0.0
230
1.0
 70
     8
 71
     3
 72
     9
 73
     5
 74
     0
 42
0.000000001
 43
0.00000001
 40
-0.9590946390278157
 40
-0.9590946390278157
 40
-0.9590946390278157
 40
-0.9590946390278157
 40
-0.3835802243210247
 40
0.0
 40
0.0
 40
0.0
 40
0.0
 10
167.4748707234705
 20
78.13487075827292
 30
0.0
 10
167.5198679972258
 20
76.22424216861766
 30
0.0
 10
166.6035006059181
 20
72.98072573011868
 30
0.0
 10
165.9847579967001
 20
71.93918112251347
 30
0.0
 10
165.9848247581971
 20
71.93709383298611
 30
0.0
  0
SPLINE
  5
1DD
330
1F
100
AcDbEntity
  8
0
  6
CONTINUOUS
 62
     7
100
AcDbSpline
210
0.0
220
0.0
230
1.0
 70
     8
 71
     3
 72
     8
 73
     4
 74
     0
 42
0.000000001
 43
0.00000001
 40
0.3867101074871115
 40
0.3867101074871115
 40
0.3867101074871115
 40
0.3867101074871115
 40
1.0
 40
1.0
 40
1.0
 40
1.0
 10
167.5061590044027
 20
78.13486883222505
 30
0.0
 10
167.4911580825871
 20
78.13486983390486
 30
0.0
 10
167.4786716550817
 20
78.13487061017024
 30
0.0
 10
167.4748707234704
 20
78.13487075827292
 30
0.0
  0
SPLINE
  5
1DE
330
1F
100
AcDbEntity
  8
0
  6
CONTINUOUS
 62
     7
100
AcDbSpline
210
0.0
220
0.0
230
1.0
 70
     8
 71
     3
 72
     8
 73
     4
 74
     0
 42
0.000000001
 43
0.00000001
 40
0.0
 40
0.0
 40
0.0
 40
0.0
 40
0.3867101074870962
 40
0.3867101074870962
 40
0.3867101074870962
 40
0.3867101074870962
 10
167.535987636177
 20
78.13486797049802
 30
0.0
 10
167.5260763942127
 20
78.13486867970026
 30
0.0
 10
167.5156178119362
 20
78.13486939964857
 30
0.0
 10
167.506158976602
 20
78.13487002967813
 30
0.0
  0
LWPOLYLINE
  5
1DF
330
1F
100
AcDbEntity
  8
0
  6
CONTINUOUS
 62
     7
100
AcDbPolyline
 90
       18
 70
   128
 43
0.0
 10
180.9671337959
 20
82.5348710437
 10
180.9672483593
 20
82.4503262563
 10
180.9673054416
 20
82.199941995
 10
180.9669927951
 20
81.793336807
 10
180.9661772269
 20
81.2461360189
 10
180.9649235801
 20
80.5793685566
 10
180.9634910939
 20
79.8186677684
 10
180.9622894604
 20
78.993248445
 10
180.961791685
 20
78.13487153
 10
180.962232934
 20
77.2764928592
 10
180.9633097218
 20
76.4510839788
 10
180.9646228281
 20
75.6903806884
 10
180.9658203497
 20
75.0236113796
 10
180.9666703492
 20
74.4764087302
 10
180.9670956325
 20
74.0698035682
 10
180.9671764015
 20
73.8194172145
 10
180.9671337543
 20
73.7348732114
 10
180.9671337543
 20
73.7348732114
  0
SPLINE
  5
1E0
330
1F
100
AcDbEntity
  8
0
  6
CONTINUOUS
 62
     7
100
AcDbSpline
210
0.0
220
0.0
230
1.0
 70
     8
 71
     3
 72
    19
 73
    15
 74
     0
 42
0.000000001
 43
0.00000001
 40
0.0
 40
0.0
 40
0.0
 40
0.0
 40
0.0439593634276813
 40
0.0909416112048099
 40
0.1409467669746887
 40
0.1939748497919122
 40
0.2500258682347675
 40
0.3750341279491163
 40
0.5000421541155059
 40
0.5940001818142268
 40
0.7000552741554625
 40
0.8102558386956266
 40
0.9102292368905426
 40
1.0
 40
1.0
 40
1.0
 40
1.0
 10
180.9671360914431
 20
73.73487320139117
 30
0.0
 10
180.7463756789421
 20
73.73511195824604
 30
0.0
 10
180.2896741701475
 20
73.73560589017262
 30
0.0
 10
179.5818961163456
 20
73.72614942279415
 30
0.0
 10
178.8287527143779
 20
73.70750077723199
 30
0.0
 10
178.0304004628755
 20
73.67718600685386
 30
0.0
 10
176.8563790785193
 20
73.61653659472961
 30
0.0
 10
175.3233258000534
 20
73.50227201066386
 30
0.0
 10
173.6052993479835
 20
73.31982139769107
 30
0.0
 10
171.9874419186512
 20
73.10278031729695
 30
0.0
 10
170.4488942514407
 20
72.85696344190625
 30
0.0
 10
168.8880999865878
 20
72.56313846761907
 30
0.0
 10
167.4150112774774
 20
72.24714408303782
 30
0.0
 10
166.4912492428156
 20
72.01315889475845
 30
0.0
 10
166.0542037905969
 20
71.90245704884258
 30
0.0
  0
SPLINE
  5
1E1
330
1F
100
AcDbEntity
  8
0
  6
CONTINUOUS
 62
     7
100
AcDbSpline
210
0.0
220
0.0
230
1.0
 70
     8
 71
     3
 72
    15
 73
    11
 74
     0
 42
0.000000001
 43
0.00000001
 40
0.0
 40
0.0
 40
0.0
 40
0.0
 40
0.1252091398199035
 40
0.2507905485532139
 40
0.3763553104867714
 40
0.5013119200584728
 40
0.6257354083673328
 40
0.7505311564845292
 40
0.8756027942407669
 40
1.0
 40
1.0
 40
1.0
 40
1.0
 10
167.535987663933
 20
78.13486677366288
 30
0.0
 10
167.5295346923332
 20
78.54040766925044
 30
0.0
 10
167.516609563308
 20
79.35269520521992
 30
0.0
 10
167.3409211849721
 20
80.52591299901572
 30
0.0
 10
167.0988842422526
 20
81.61316656441839
 30
0.0
 10
166.8130467471318
 20
82.5744045894424
 30
0.0
 10
166.5231063408365
 20
83.36510250361034
 30
0.0
 10
166.27241873655
 20
83.93349193373376
 30
0.0
 10
166.0847479485635
 20
84.29862566129871
 30
0.0
 10
166.0609782116636
 20
84.3447133305321
 30
0.0
 10
166.049125473621
 20
84.36769486679049
 30
0.0
  0
SPLINE
  5
1E2
330
1F
100
AcDbEntity
  8
0
  6
CONTINUOUS
 62
     7
100
AcDbSpline
210
0.0
220
0.0
230
1.0
 70
     8
 71
     3
 72
    16
 73
    12
 74
     0
 42
0.000000001
 43
0.00000001
 40
0.0
 40
0.0
 40
0.0
 40
0.0
 40
0.0008359130019587
 40
0.1262382896071243
 40
0.2515639045547469
 40
0.3764343608018051
 40
0.5007074460725359
 40
0.6253153515685733
 40
0.7504041676619806
 40
0.8754267288265891
 40
1.0
 40
1.0
 40
1.0
 40
1.0
 10
165.9882510997295
 20
84.3319782473372
 30
0.0
 10
165.9880991572635
 20
84.33225008142631
 30
0.0
 10
165.9651530408813
 20
84.37330204542782
 30
0.0
 10
166.0395128750637
 20
84.23404647190591
 30
0.0
 10
166.2081849394254
 20
83.90394355765719
 30
0.0
 10
166.4650834387089
 20
83.32533266380342
 30
0.0
 10
166.7537747163558
 20
82.53999463236165
 30
0.0
 10
167.0396531937299
 20
81.58356001083237
 30
0.0
 10
167.2809068240542
 20
80.50450478272069
 30
0.0
 10
167.4558651598395
 20
79.34135235792357
 30
0.0
 10
167.4685431426794
 20
78.53654839030816
 30
0.0
 10
167.4748707234704
 20
78.13487075827376
 30
0.0
  0
LINE
  5
1E3
330
1F
100
AcDbEntity
  8
0
  6
CONTINUOUS
 62
     7
100
AcDbLine
 10
165.9792738257
 20
71.9911156939
 30
0.0
 11
165.9929050919
 21
71.9392161426
 31
0.0
  0
SPLINE
  5
1E4
330
1F
100
AcDbEntity
  8
0
  6
CONTINUOUS
 62
     7
100
AcDbSpline
210
0.0
220
0.0
230
1.0
 70
     8
 71
     3
 72
    10
 73
     6
 74
     0
 42
0.000000001
 43
0.00000001
 40
-0.955929547912361
 40
-0.955929547912361
 40
-0.955929547912361
 40
-0.955929547912361
 40
-0.573608126381575
 40
-0.382405417587717
 40
0.0000006676461613
 40
0.0000006676461613
 40
0.0000006676461613
 40
0.0000006676461613
 10
165.973122150292
 20
71.99524067271386
 30
0.0
 10
165.981420524471
 20
71.99551030449732
 30
0.0
 10
166.3152664873575
 20
72.59658348098725
 30
0.0
 10
167.1585020294263
 20
74.92427320954751
 30
0.0
 10
167.466203662444
 20
76.8605336842424
 30
0.0
 10
167.461398008604
 20
78.13487798559973
 30
0.0
  0
SPLINE
  5
1E5
330
1F
100
AcDbEntity
  8
0
  6
CONTINUOUS
 62
     7
100
AcDbSpline
210
0.0
220
0.0
230
1.0
 70
     8
 71
     3
 72
     9
 73
     5
 74
     0
 42
0.000000001
 43
0.00000001
 40
-1.91045519745214
 40
-1.91045519745214
 40
-1.91045519745214
 40
-1.91045519745214
 40
-1.33694277497133
 40
-0.9552275987258158
 40
-0.9552275987258158
 40
-0.9552275987258158
 40
-0.9552275987258158
 10
167.4613980337736
 20
78.13487132258027
 30
0.0
 10
167.5006442223143
 20
80.06940255524665
 30
0.0
 10
166.5857683120506
 20
83.25763195967143
 30
0.0
 10
165.9654005469389
 20
84.27511074311015
 30
0.0
 10
165.9727120385696
 20
84.27575368306299
 30
0.0
  0
SPLINE
  5
1E6
330
1F
100
AcDbEntity
  8
0
  6
CONTINUOUS
 62
     7
100
AcDbSpline
210
0.0
220
0.0
230
1.0
 70
     8
 71
     3
 72
     8
 73
     4
 74
     0
 42
0.000000001
 43
0.00000001
 40
0.0009328150060476
 40
0.0009328150060476
 40
0.0009328150060476
 40
0.0009328150060476
 40
1.0
 40
1.0
 40
1.0
 40
1.0
 10
167.461398008604
 20
78.13487798559973
 30
0.0
 10
167.4553655408291
 20
78.13487817272652
 30
0.0
 10
167.4278119727568
 20
78.13487992121249
 30
0.0
 10
167.4027185766364
 20
78.13488170874562
 30
0.0
  0
LINE
  5
1E7
330
1F
100
AcDbEntity
  8
0
  6
CONTINUOUS
 62
     7
100
AcDbLine
 10
158.0677814082
 20
82.8084481553
 30
0.0
 11
158.0677814082
 21
83.6118859793
 31
0.0
  0
SPLINE
  5
1E8
330
1F
100
AcDbEntity
  8
0
  6
CONTINUOUS
 62
     7
100
AcDbSpline
210
0.0
220
0.0
230
1.0
 70
     8
 71
     3
 72
     8
 73
     4
 74
     0
 42
0.000000001
 43
0.00000001
 40
0.0
 40
0.0
 40
0.0
 40
0.0
 40
0.0286485978063873
 40
0.0286485978063873
 40
0.0286485978063873
 40
0.0286485978063873
 10
158.0677814082431
 20
83.61188597932275
 30
0.0
 10
158.1349419291698
 20
83.55094305140011
 30
0.0
 10
158.2016085958365
 20
83.49047715006166
 30
0.0
 10
158.2677814082431
 20
83.4304882753074
 30
0.0
  0
LINE
  5
1E9
330
1F
100
AcDbEntity
  8
0
  6
CONTINUOUS
 62
     7
100
AcDbLine
 10
158.2677814082
 20
83.4304882753
 30
0.0
 11
158.2677814082
 21
82.712692942
 31
0.0
  0
LINE
  5
1EA
330
1F
100
AcDbEntity
  8
0
  6
CONTINUOUS
 62
     7
100
AcDbLine
 10
155.7677814082
 20
83.6118859793
 30
0.0
 11
158.0677814082
 21
83.6118859793
 31
0.0
  0
LINE
  5
1EB
330
1F
100
AcDbEntity
  8
0
  6
CONTINUOUS
 62
     7
100
AcDbLine
 10
180.9677814082
 20
78.1348718133
 30
0.0
 11
180.9677814082
 21
73.0848718133
 31
0.0
  0
LINE
  5
1EC
330
1F
100
AcDbEntity
  8
0
  6
CONTINUOUS
 62
     7
100
AcDbLine
 10
180.9677814082
 20
83.1848718133
 30
0.0
 11
180.9677814082
 21
78.1348718133
 31
0.0
  0
LINE
  5
1ED
330
1F
100
AcDbEntity
  8
0
  6
CONTINUOUS
 62
     7
100
AcDbLine
 10
183.9677814082
 20
78.1348718133
 30
0.0
 11
183.9677814082
 21
73.9348718133
 31
0.0
  0
LINE
  5
1EE
330
1F
100
AcDbEntity
  8
0
  6
CONTINUOUS
 62
     7
100
AcDbLine
 10
183.9677814082
 20
82.3348718133
 30
0.0
 11
183.9677814082
 21
78.1348718133
 31
0.0
  0
LINE
  5
1EF
330
1F
100
AcDbEntity
  8
0
  6
CONTINUOUS
 62
     7
100
AcDbLine
 10
158.0677814082
 20
85.214893389
 30
0.0
 11
155.7677814082
 21
85.214893389
 31
0.0
  0
LINE
  5
1F0
330
1F
100
AcDbEntity
  8
0
  6
CONTINUOUS
 62
     7
100
AcDbLine
 10
158.0677814082
 20
85.214893389
 30
0.0
 11
158.0677814082
 21
83.6118859793
 31
0.0
  0
SPLINE
  5
1F1
330
1F
100
AcDbEntity
  8
0
  6
CONTINUOUS
 62
     7
100
AcDbSpline
210
0.0
220
0.0
230
1.0
 70
     8
 71
     3
 72
     8
 73
     4
 74
     0
 42
0.000000001
 43
0.00000001
 40
0.0
 40
0.0
 40
0.0
 40
0.0
 40
0.0286485978063873
 40
0.0286485978063873
 40
0.0286485978063873
 40
0.0286485978063873
 10
158.2677814082431
 20
85.00992076247921
 30
0.0
 10
158.2016085958404
 20
85.07776794472447
 30
0.0
 10
158.1349419291737
 20
85.1460921535579
 30
0.0
 10
158.0677814082431
 20
85.2148933889795
 30
0.0
  0
LINE
  5
1F2
330
1F
100
AcDbEntity
  8
0
  6
CONTINUOUS
 62
     7
100
AcDbLine
 10
158.2677814082
 20
83.4304882753
 30
0.0
 11
158.2677814082
 21
85.0099207625
 31
0.0
  0
LINE
  5
1F3
330
1F
100
AcDbEntity
  8
0
  6
CONTINUOUS
 62
     7
100
AcDbLine
 10
146.2677814082
 20
74.3235469479
 30
0.0
 11
146.2677814082
 21
81.8903607601
 31
0.0
  0
SPLINE
  5
1F4
330
1F
100
AcDbEntity
  8
0
  6
CONTINUOUS
 62
     7
100
AcDbSpline
210
0.0
220
0.0
230
1.0
 70
     8
 71
     3
 72
     8
 73
     4
 74
     0
 42
0.000000001
 43
0.00000001
 40
0.0
 40
0.0
 40
0.0
 40
0.0
 40
1.0
 40
1.0
 40
1.0
 40
1.0
 10
146.7677814082431
 20
82.18301953784943
 30
0.0
 10
146.5947458284422
 20
82.0818377638542
 30
0.0
 10
146.4283074688774
 20
81.98441847008844
 30
0.0
 10
146.2677814082431
 20
81.89036076008802
 30
0.0
  0
LINE
  5
1F5
330
1F
100
AcDbEntity
  8
0
  6
CONTINUOUS
 62
     7
100
AcDbLine
 10
146.7677814082
 20
74.0348718133
 30
0.0
 11
146.7677814082
 21
82.1830195378
 31
0.0
  0
LINE
  5
1F6
330
1F
100
AcDbEntity
  8
0
  6
CONTINUOUS
 62
     7
100
AcDbLine
 10
147.7677814082
 20
82.1830195378
 30
0.0
 11
146.7677814082
 21
82.1830195378
 31
0.0
  0
LINE
  5
1F7
330
1F
100
AcDbEntity
  8
0
  6
CONTINUOUS
 62
     7
100
AcDbLine
 10
203.9677814082
 20
80.6348718133
 30
0.0
 11
203.9677814082
 21
75.6348718133
 31
0.0
  0
LINE
  5
1F8
330
1F
100
AcDbEntity
  8
0
  6
CONTINUOUS
 62
     7
100
AcDbLine
 10
158.0677814082
 20
71.0548502376
 30
0.0
 11
158.0677814082
 21
71.3489288915
 31
0.0
  0
SPLINE
  5
1F9
330
1F
100
AcDbEntity
  8
0
  6
CONTINUOUS
 62
     7
100
AcDbSpline
210
0.0
220
0.0
230
1.0
 70
     8
 71
     3
 72
     8
 73
     4
 74
     0
 42
0.000000001
 43
0.00000001
 40
0.0
 40
0.0
 40
0.0
 40
0.0
 40
0.0286485978063872
 40
0.0286485978063872
 40
0.0286485978063872
 40
0.0286485978063872
 10
158.2677814082431
 20
71.25982286406514
 30
0.0
 10
158.2016085958333
 20
71.19197568181265
 30
0.0
 10
158.1349419291666
 20
71.12365147297922
 30
0.0
 10
158.0677814082431
 20
71.05485023756485
 30
0.0
  0
LINE
  5
1FA
330
1F
100
AcDbEntity
  8
0
  6
CONTINUOUS
 62
     7
100
AcDbLine
 10
158.2677814082
 20
71.5225541908
 30
0.0
 11
158.2677814082
 21
71.2598228641
 31
0.0
  0
LINE
  5
1FB
330
1F
100
AcDbEntity
  8
0
  6
CONTINUOUS
 62
     7
100
AcDbLine
 10
158.0677814082
 20
71.0548502376
 30
0.0
 11
155.7677814082
 21
71.0548502376
 31
0.0
  0
LINE
  5
1FC
330
1F
100
AcDbEntity
  8
0
  6
CONTINUOUS
 62
     7
100
AcDbLine
 10
161.1177814082
 20
84.0650578081
 30
0.0
 11
161.1177814082
 21
84.3173068058
 31
0.0
  0
SPLINE
  5
1FD
330
1F
100
AcDbEntity
  8
0
  6
CONTINUOUS
 62
     7
100
AcDbSpline
210
0.0
220
0.0
230
1.0
 70
     8
 71
     3
 72
    13
 73
     9
 74
     0
 42
0.000000001
 43
0.00000001
 40
0.0
 40
0.0
 40
0.0
 40
0.0
 40
0.1256476243360565
 40
0.2499110096750731
 40
0.3749189264775585
 40
0.4996495758042249
 40
0.7504503130951174
 40
1.0
 40
1.0
 40
1.0
 40
1.0
 10
163.6177814077416
 20
84.39796262019838
 30
0.0
 10
163.5130346860578
 20
84.40389716392531
 30
0.0
 10
163.304695219916
 20
84.41570087149711
 30
0.0
 10
162.9918149250914
 20
84.42430075266226
 30
0.0
 10
162.6796160104429
 20
84.42597794414593
 30
0.0
 10
162.2618749066448
 20
84.41768922366171
 30
0.0
 10
161.7404220774064
 20
84.39013211512126
 30
0.0
 10
161.324982049699
 20
84.34154141098372
 30
0.0
 10
161.1177814082511
 20
84.3173068057598
 30
0.0
  0
LINE
  5
1FE
330
1F
100
AcDbEntity
  8
0
  6
CONTINUOUS
 62
     7
100
AcDbLine
 10
163.6177814082
 20
84.1430052287
 30
0.0
 11
163.6177814082
 21
84.3979626207
 31
0.0
  0
SPLINE
  5
1FF
330
1F
100
AcDbEntity
  8
0
  6
CONTINUOUS
 62
     7
100
AcDbSpline
210
0.0
220
0.0
230
1.0
 70
    24
 71
     3
 72
     9
 73
     5
 74
     0
 42
0.000000001
 43
0.00000001
 40
0.0
 40
0.0
 40
0.0
 40
0.0
 40
0.0054907427887923
 40
1.0
 40
1.0
 40
1.0
 40
1.0
 10
163.6177814082431
 20
84.52006442585689
 30
0.0
 10
163.6177814082431
 20
84.52028618666381
 30
0.0
 10
163.6177814082432
 20
84.56067431181549
 30
0.0
 10
163.6177814082431
 20
84.47909449917378
 30
0.0
 10
163.6177814082431
 20
84.39796262030004
 30
0.0
  0
LINE
  5
200
330
1F
100
AcDbEntity
  8
0
  6
CONTINUOUS
 62
     7
100
AcDbLine
 10
274.2677814082
 20
235.6684724115
 30
0.0
 11
271.2677814082
 21
235.6684724115
 31
0.0
  0
LINE
  5
201
330
1F
100
AcDbEntity
  8
0
  6
CONTINUOUS
 62
     7
100
AcDbLine
 10
271.2677814082
 20
225.6684724115
 30
0.0
 11
274.2677814082
 21
225.6684724115
 31
0.0
  0
LINE
  5
202
330
1F
100
AcDbEntity
  8
0
  6
CONTINUOUS
 62
     7
100
AcDbLine
 10
274.2677814082
 20
225.6684724115
 30
0.0
 11
274.5677814082
 21
225.9684724115
 31
0.0
  0
LINE
  5
203
330
1F
100
AcDbEntity
  8
0
  6
CONTINUOUS
 62
     7
100
AcDbLine
 10
274.5677814082
 20
235.3684724115
 30
0.0
 11
274.2677814082
 21
235.6684724115
 31
0.0
  0
ARC
  5
204
330
1F
100
AcDbEntity
  8
0
  6
CONTINUOUS
 62
     7
100
AcDbCircle
 10
271.2677814082
 20
235.4684724115
 30
0.0
 40
0.2000000000000455
100
AcDbArc
 50
90.0
 51
180.0
  0
ARC
  5
205
330
1F
100
AcDbEntity
  8
0
  6
CONTINUOUS
 62
     7
100
AcDbCircle
 10
271.2677814082
 20
225.8684724115
 30
0.0
 40
0.2000000000000455
100
AcDbArc
 50
180.0
 51
270.0
  0
LINE
  5
206
330
1F
100
AcDbEntity
  8
0
  6
CONTINUOUS
 62
     7
100
AcDbLine
 10
266.3677814082
 20
225.9184724115
 30
0.0
 11
267.2677814082
 21
225.9184724115
 31
0.0
  0
LINE
  5
207
330
1F
100
AcDbEntity
  8
0
  6
CONTINUOUS
 62
     7
100
AcDbLine
 10
251.9473894763
 20
225.9184724115
 30
0.0
 11
262.7677814082
 21
225.9184724115
 31
0.0
  0
LINE
  5
208
330
1F
100
AcDbEntity
  8
0
  6
CONTINUOUS
 62
     7
100
AcDbLine
 10
267.2677814082
 20
235.4184724115
 30
0.0
 11
251.9473894763
 21
235.4184724115
 31
0.0
  0
ARC
  5
209
330
1F
100
AcDbEntity
  8
0
  6
CONTINUOUS
 62
     7
100
AcDbCircle
 10
251.9473894763
 20
232.4184724115
 30
0.0
 40
2.999999999999915
100
AcDbArc
 50
90.0
 51
108.1659565292
  0
ARC
  5
20A
330
1F
100
AcDbEntity
  8
0
  6
CONTINUOUS
 62
     7
100
AcDbCircle
 10
251.9473894763
 20
228.9184724115
 30
0.0
 40
2.999999999999898
100
AcDbArc
 50
251.8340434708
 51
270.0
  0
LINE
  5
20B
330
1F
100
AcDbEntity
  8
0
  6
CONTINUOUS
 62
     7
100
AcDbLine
 10
251.0120782226
 20
235.2689448037
 30
0.0
 11
248.4054273247
 21
234.4136374778
 31
0.0
  0
LINE
  5
20C
330
1F
100
AcDbEntity
  8
0
  6
CONTINUOUS
 62
     7
100
AcDbLine
 10
248.4054273247
 20
226.9233073451
 30
0.0
 11
251.0120782226
 21
226.0680000193
 31
0.0
  0
LINE
  5
20D
330
1F
100
AcDbEntity
  8
0
  6
CONTINUOUS
 62
     7
100
AcDbLine
 10
279.2677814082
 20
234.6684724115
 30
0.0
 11
274.5677814082
 21
234.6684724115
 31
0.0
  0
LINE
  5
20E
330
1F
100
AcDbEntity
  8
0
  6
CONTINUOUS
 62
     7
100
AcDbLine
 10
279.2677814082
 20
226.6684724115
 30
0.0
 11
279.8677814082
 21
227.2684724115
 31
0.0
  0
LINE
  5
20F
330
1F
100
AcDbEntity
  8
0
  6
CONTINUOUS
 62
     7
100
AcDbLine
 10
279.8677814082
 20
234.0684724115
 30
0.0
 11
279.2677814082
 21
234.6684724115
 31
0.0
  0
LINE
  5
210
330
1F
100
AcDbEntity
  8
0
  6
CONTINUOUS
 62
     7
100
AcDbLine
 10
274.5677814082
 20
226.6684724115
 30
0.0
 11
279.2677814082
 21
226.6684724115
 31
0.0
  0
ARC
  5
211
330
1F
100
AcDbEntity
  8
0
  6
CONTINUOUS
 62
     7
100
AcDbCircle
 10
245.2677814082
 20
227.0959575888
 30
0.0
 40
0.2000000000000171
100
AcDbArc
 50
251.5650511771
 51
0.0
  0
ARC
  5
212
330
1F
100
AcDbEntity
  8
0
  6
CONTINUOUS
 62
     7
100
AcDbCircle
 10
245.2677814082
 20
234.2409872341
 30
0.0
 40
0.2000000000000171
100
AcDbArc
 50
0.0
 51
108.4349488229
  0
LINE
  5
213
330
1F
100
AcDbEntity
  8
0
  6
CONTINUOUS
 62
     7
100
AcDbLine
 10
245.204535855
 20
234.4307238937
 30
0.0
 11
243.9677814082
 21
234.0184724115
 31
0.0
  0
LINE
  5
214
330
1F
100
AcDbEntity
  8
0
  6
CONTINUOUS
 62
     7
100
AcDbLine
 10
243.9677814082
 20
227.3184724115
 30
0.0
 11
245.204535855
 21
226.9062209292
 31
0.0
  0
ARC
  5
215
330
1F
100
AcDbEntity
  8
0
  6
CONTINUOUS
 62
     7
100
AcDbCircle
 10
248.4677814082
 20
227.1133388379
 30
0.0
 40
0.2000000000000206
100
AcDbArc
 50
180.0
 51
251.8340434708
  0
ARC
  5
216
330
1F
100
AcDbEntity
  8
0
  6
CONTINUOUS
 62
     7
100
AcDbCircle
 10
248.4677814082
 20
234.223605985
 30
0.0
 40
0.2000000000000171
100
AcDbArc
 50
108.1659565292
 51
180.0
  0
ARC
  5
217
330
1F
100
AcDbEntity
  8
0
  6
CONTINUOUS
 62
     7
100
AcDbCircle
 10
248.0677814082
 20
227.1184724115
 30
0.0
 40
0.2000000000000171
100
AcDbArc
 50
360.0
 51
90.0
  0
ARC
  5
218
330
1F
100
AcDbEntity
  8
0
  6
CONTINUOUS
 62
     7
100
AcDbCircle
 10
248.0677814082
 20
234.2184724115
 30
0.0
 40
0.2000000000000171
100
AcDbArc
 50
270.0
 51
0.0
  0
LINE
  5
219
330
1F
100
AcDbEntity
  8
0
  6
CONTINUOUS
 62
     7
100
AcDbLine
 10
282.3677814082
 20
234.0684724115
 30
0.0
 11
279.8677814082
 21
234.0684724115
 31
0.0
  0
LINE
  5
21A
330
1F
100
AcDbEntity
  8
0
  6
CONTINUOUS
 62
     7
100
AcDbLine
 10
279.8677814082
 20
227.2684724115
 30
0.0
 11
282.3677814082
 21
227.2684724115
 31
0.0
  0
LINE
  5
21B
330
1F
100
AcDbEntity
  8
0
  6
CONTINUOUS
 62
     7
100
AcDbLine
 10
245.4677814082
 20
227.3184724115
 30
0.0
 11
248.0677814082
 21
227.3184724115
 31
0.0
  0
LINE
  5
21C
330
1F
100
AcDbEntity
  8
0
  6
CONTINUOUS
 62
     7
100
AcDbLine
 10
248.0677814082
 20
234.0184724115
 30
0.0
 11
245.4677814082
 21
234.0184724115
 31
0.0
  0
LINE
  5
21D
330
1F
100
AcDbEntity
  8
0
  6
CONTINUOUS
 62
     7
100
AcDbLine
 10
268.5677814082
 20
233.5684724115
 30
0.0
 11
267.2677814082
 21
233.5684724115
 31
0.0
  0
LINE
  5
21E
330
1F
100
AcDbEntity
  8
0
  6
CONTINUOUS
 62
     7
100
AcDbLine
 10
267.2677814082
 20
227.7684724115
 30
0.0
 11
268.5677814082
 21
227.7684724115
 31
0.0
  0
LINE
  5
21F
330
1F
100
AcDbEntity
  8
0
  6
CONTINUOUS
 62
     7
100
AcDbLine
 10
223.9677814082
 20
228.4184724115
 30
0.0
 11
243.9677814082
 21
228.4184724115
 31
0.0
  0
LINE
  5
220
330
1F
100
AcDbEntity
  8
0
  6
CONTINUOUS
 62
     7
100
AcDbLine
 10
243.9677814082
 20
232.9184724115
 30
0.0
 11
223.9677814082
 21
232.9184724115
 31
0.0
  0
LINE
  5
221
330
1F
100
AcDbEntity
  8
0
  6
CONTINUOUS
 62
     7
100
AcDbLine
 10
262.7677814082
 20
225.6184724115
 30
0.0
 11
266.3677814082
 21
225.6184724115
 31
0.0
  0
LINE
  5
222
330
1F
100
AcDbEntity
  8
0
  6
CONTINUOUS
 62
     7
100
AcDbLine
 10
148.3677814082
 20
223.1684724115
 30
0.0
 11
155.6677814082
 21
223.1684724115
 31
0.0
  0
LINE
  5
223
330
1F
100
AcDbEntity
  8
0
  6
CONTINUOUS
 62
     7
100
AcDbLine
 10
155.6677814082
 20
238.1684724115
 30
0.0
 11
148.3677814082
 21
238.1684724115
 31
0.0
  0
ARC
  5
224
330
1F
100
AcDbEntity
  8
0
  6
CONTINUOUS
 62
     7
100
AcDbCircle
 10
155.6677814082
 20
223.2684724115
 30
0.0
 40
0.1000000000000227
100
AcDbArc
 50
270.0
 51
0.0
  0
ARC
  5
225
330
1F
100
AcDbEntity
  8
0
  6
CONTINUOUS
 62
     7
100
AcDbCircle
 10
155.6677814082
 20
238.0684724115
 30
0.0
 40
0.0999999999999943
100
AcDbArc
 50
0.0
 51
90.0
  0
LINE
  5
226
330
1F
100
AcDbEntity
  8
0
  6
CONTINUOUS
 62
     7
100
AcDbLine
 10
148.3677814082
 20
238.1684724115
 30
0.0
 11
147.7677814082
 21
237.5684724115
 31
0.0
  0
LINE
  5
227
330
1F
100
AcDbEntity
  8
0
  6
CONTINUOUS
 62
     7
100
AcDbLine
 10
147.7677814082
 20
223.7684724115
 30
0.0
 11
148.3677814082
 21
223.1684724115
 31
0.0
  0
LINE
  5
228
330
1F
100
AcDbEntity
  8
0
  6
CONTINUOUS
 62
     7
100
AcDbLine
 10
163.6177478111
 20
224.5643705203
 30
0.0
 11
165.9395697982
 21
224.567086534
 31
0.0
  0
LINE
  5
229
330
1F
100
AcDbEntity
  8
0
  6
CONTINUOUS
 62
     7
100
AcDbLine
 10
159.9677814082
 20
224.9184584602
 30
0.0
 11
161.1398198513
 21
224.7786664578
 31
0.0
  0
SPLINE
  5
22A
330
1F
100
AcDbEntity
  8
0
  6
CONTINUOUS
 62
     7
100
AcDbSpline
210
0.0
220
0.0
230
1.0
 70
     8
 71
     3
 72
    16
 73
    12
 74
     0
 42
0.000000001
 43
0.00000001
 40
0.0
 40
0.0
 40
0.0
 40
0.0
 40
0.2032800633292046
 40
0.3745213632792421
 40
0.5136316236504024
 40
0.620608679386243
 40
0.6830533019123339
 40
0.7323283185252386
 40
0.7998118660542222
 40
0.8890358780688996
 40
1.0
 40
1.0
 40
1.0
 40
1.0
 10
165.9580510893678
 20
224.410929320677
 30
0.0
 10
166.9566254837888
 20
224.6544235793157
 30
0.0
 10
168.7963899811494
 20
225.1030352149207
 30
0.0
 10
171.3558892101343
 20
225.5475750075237
 30
0.0
 10
173.4457479940542
 20
225.8365817251596
 30
0.0
 10
174.9969525733827
 20
226.0002702193569
 30
0.0
 10
176.0985661276943
 20
226.0929590875568
 30
0.0
 10
177.0022254088175
 20
226.1561813443907
 30
0.0
 10
178.0419036139357
 20
226.2130867448579
 30
0.0
 10
179.3942218294581
 20
226.2626529242796
 30
0.0
 10
180.4061983558532
 20
226.26639703642
 30
0.0
 10
180.967136131999
 20
226.2684723947736
 30
0.0
  0
LINE
  5
22B
330
1F
100
AcDbEntity
  8
0
  6
CONTINUOUS
 62
     7
100
AcDbLine
 10
181.299182472
 20
235.9184724115
 30
0.0
 11
181.1677814082
 21
235.9184724115
 31
0.0
  0
LINE
  5
22C
330
1F
100
AcDbEntity
  8
0
  6
CONTINUOUS
 62
     7
100
AcDbLine
 10
181.1677814082
 20
225.4184724115
 30
0.0
 11
181.299182472
 21
225.4184724115
 31
0.0
  0
ARC
  5
22D
330
1F
100
AcDbEntity
  8
0
  6
CONTINUOUS
 62
     7
100
AcDbCircle
 10
181.1677814082
 20
235.7184724115
 30
0.0
 40
0.2000000000000171
100
AcDbArc
 50
90.0
 51
180.0
  0
ARC
  5
22E
330
1F
100
AcDbEntity
  8
0
  6
CONTINUOUS
 62
     7
100
AcDbCircle
 10
181.1677814082
 20
225.6184724115
 30
0.0
 40
0.2000000000000171
100
AcDbArc
 50
180.0
 51
270.0
  0
ARC
  5
22F
330
1F
100
AcDbEntity
  8
0
  6
CONTINUOUS
 62
     7
100
AcDbCircle
 10
181.299182472
 20
234.9184724115
 30
0.0
 40
1.0
100
AcDbArc
 50
70.6090340456
 51
90.0
  0
ARC
  5
230
330
1F
100
AcDbEntity
  8
0
  6
CONTINUOUS
 62
     7
100
AcDbCircle
 10
181.299182472
 20
226.4184724115
 30
0.0
 40
1.000000000000003
100
AcDbArc
 50
270.0
 51
289.3909659544
  0
ARC
  5
231
330
1F
100
AcDbEntity
  8
0
  6
CONTINUOUS
 62
     7
100
AcDbCircle
 10
174.9909467539
 20
216.9962470439
 30
0.0
 40
19.99999999999765
100
AcDbArc
 50
63.3306050211
 51
70.6090340456
  0
ARC
  5
232
330
1F
100
AcDbEntity
  8
0
  6
CONTINUOUS
 62
     7
100
AcDbCircle
 10
174.9909467539
 20
244.340697779
 30
0.0
 40
19.99999999999769
100
AcDbArc
 50
289.3909659544
 51
296.6693949789
  0
LINE
  5
233
330
1F
100
AcDbEntity
  8
0
  6
CONTINUOUS
 62
     7
100
AcDbLine
 10
158.2677814082
 20
226.4184724115
 30
0.0
 11
159.9677814082
 21
226.4184724115
 31
0.0
  0
LINE
  5
234
330
1F
100
AcDbEntity
  8
0
  6
CONTINUOUS
 62
     7
100
AcDbLine
 10
159.9677814082
 20
234.9184724115
 30
0.0
 11
158.2677814082
 21
234.9184724115
 31
0.0
  0
LINE
  5
235
330
1F
100
AcDbEntity
  8
0
  6
CONTINUOUS
 62
     7
100
AcDbLine
 10
147.7677814082
 20
234.7684724115
 30
0.0
 11
146.7677814082
 21
234.7684724115
 31
0.0
  0
LINE
  5
236
330
1F
100
AcDbEntity
  8
0
  6
CONTINUOUS
 62
     7
100
AcDbLine
 10
146.7677814082
 20
234.7684724115
 30
0.0
 11
146.2677814082
 21
234.4797972769
 31
0.0
  0
LINE
  5
237
330
1F
100
AcDbEntity
  8
0
  6
CONTINUOUS
 62
     7
100
AcDbLine
 10
203.9677814082
 20
233.1684724115
 30
0.0
 11
183.9677814082
 21
233.1684724115
 31
0.0
  0
LINE
  5
238
330
1F
100
AcDbEntity
  8
0
  6
CONTINUOUS
 62
     7
100
AcDbLine
 10
183.9677814082
 20
228.1684724115
 30
0.0
 11
203.9677814082
 21
228.1684724115
 31
0.0
  0
LINE
  5
239
330
1F
100
AcDbEntity
  8
0
  6
CONTINUOUS
 62
     7
100
AcDbLine
 10
161.1177814449
 20
224.4860377605
 30
0.0
 11
163.6178299212
 21
224.2826106795
 31
0.0
  0
LINE
  5
23A
330
1F
100
AcDbEntity
  8
0
  6
CONTINUOUS
 62
     7
100
AcDbLine
 10
274.2677814082
 20
235.6684724115
 30
0.0
 11
274.2677814082
 21
225.6684724115
 31
0.0
  0
LINE
  5
23B
330
1F
100
AcDbEntity
  8
0
  6
CONTINUOUS
 62
     7
100
AcDbLine
 10
274.5677814082
 20
235.3684724115
 30
0.0
 11
274.5677814082
 21
225.9684724115
 31
0.0
  0
LINE
  5
23C
330
1F
100
AcDbEntity
  8
0
  6
CONTINUOUS
 62
     7
100
AcDbLine
 10
271.0677814082
 20
226.1684724115
 30
0.0
 11
271.0677814082
 21
225.8684724115
 31
0.0
  0
LINE
  5
23D
330
1F
100
AcDbEntity
  8
0
  6
CONTINUOUS
 62
     7
100
AcDbLine
 10
271.0945763275
 20
226.7391868491
 30
0.0
 11
271.0945763275
 21
226.1684724115
 31
0.0
  0
ELLIPSE
  5
23E
330
1F
100
AcDbEntity
  8
0
  6
CONTINUOUS
 62
     7
100
AcDbEllipse
 10
271.4495014184
 20
227.2623652183
 30
0.0
 11
0.1870858866899994
 21
0.7418302958146228
 31
0.0
210
0.0
220
0.0
230
1.0
 40
0.4485253267
 41
2.083020151049685
 42
2.459929799414757
  0
LINE
  5
23F
330
1F
100
AcDbEntity
  8
0
  6
CONTINUOUS
 62
     7
100
AcDbLine
 10
271.0677814082
 20
229.8650200256
 30
0.0
 11
271.0677814082
 21
226.9719247973
 31
0.0
  0
ELLIPSE
  5
240
330
1F
100
AcDbEntity
  8
0
  6
CONTINUOUS
 62
     7
100
AcDbEllipse
 10
271.449501589
 20
229.5745794219
 30
0.0
 11
-0.1870860391730957
 21
0.7418305064310005
 31
0.0
210
0.0
220
0.0
230
1.0
 40
0.4485253477
 41
0.681662732498065
 42
1.058572295205995
  0
LINE
  5
241
330
1F
100
AcDbEntity
  8
0
  6
CONTINUOUS
 62
     7
100
AcDbLine
 10
271.0945763275
 20
231.2391868491
 30
0.0
 11
271.0945763275
 21
230.0977579738
 31
0.0
  0
ELLIPSE
  5
242
330
1F
100
AcDbEntity
  8
0
  6
CONTINUOUS
 62
     7
100
AcDbEllipse
 10
271.4495014184
 20
231.7623652183
 30
0.0
 11
0.1870858866996628
 21
0.7418302958282368
 31
0.0
210
0.0
220
0.0
230
1.0
 40
0.4485253267
 41
2.083020151063142
 42
2.45992979942253
  0
LINE
  5
243
330
1F
100
AcDbEntity
  8
0
  6
CONTINUOUS
 62
     7
100
AcDbLine
 10
271.0677814082
 20
234.3650200256
 30
0.0
 11
271.0677814082
 21
231.4719247973
 31
0.0
  0
ELLIPSE
  5
244
330
1F
100
AcDbEntity
  8
0
  6
CONTINUOUS
 62
     7
100
AcDbEllipse
 10
271.4495015891
 20
234.0745794218
 30
0.0
 11
-0.1870860391920815
 21
0.7418305064574895
 31
0.0
210
0.0
220
0.0
230
1.0
 40
0.4485253477
 41
0.6816627324817046
 42
1.058572295179138
  0
LINE
  5
245
330
1F
100
AcDbEntity
  8
0
  6
CONTINUOUS
 62
     7
100
AcDbLine
 10
271.0945763275
 20
235.1684724115
 30
0.0
 11
271.0945763275
 21
234.5977579738
 31
0.0
  0
LINE
  5
246
330
1F
100
AcDbEntity
  8
0
  6
CONTINUOUS
 62
     7
100
AcDbLine
 10
271.0677814082
 20
235.4684724115
 30
0.0
 11
271.0677814082
 21
235.1684724115
 31
0.0
  0
LINE
  5
247
330
1F
100
AcDbEntity
  8
0
  6
CONTINUOUS
 62
     7
100
AcDbLine
 10
271.0945763275
 20
230.0977579738
 30
0.0
 11
268.7677814082
 21
230.0977579738
 31
0.0
  0
LINE
  5
248
330
1F
100
AcDbEntity
  8
0
  6
CONTINUOUS
 62
     7
100
AcDbLine
 10
268.7677814082
 20
230.0977579738
 30
0.0
 11
268.7677814082
 21
231.2391868491
 31
0.0
  0
LINE
  5
249
330
1F
100
AcDbEntity
  8
0
  6
CONTINUOUS
 62
     7
100
AcDbLine
 10
268.7677814082
 20
231.2391868491
 30
0.0
 11
271.0945763275
 21
231.2391868491
 31
0.0
  0
LINE
  5
24A
330
1F
100
AcDbEntity
  8
0
  6
CONTINUOUS
 62
     7
100
AcDbLine
 10
268.5677814082
 20
230.161640084
 30
0.0
 11
268.5677814082
 21
231.1753047389
 31
0.0
  0
SPLINE
  5
24B
330
1F
100
AcDbEntity
  8
0
  6
CONTINUOUS
 62
     7
100
AcDbSpline
210
0.0
220
0.0
230
1.0
 70
     8
 71
     3
 72
     8
 73
     4
 74
     0
 42
0.000000001
 43
0.00000001
 40
0.0
 40
0.0
 40
0.0
 40
0.0
 40
0.0285901007783824
 40
0.0285901007783824
 40
0.0285901007783824
 40
0.0285901007783824
 10
268.5677814082431
 20
231.1753047389416
 30
0.0
 10
268.633723351596
 20
231.196236413998
 30
0.0
 10
268.7003900182626
 20
231.2175304507116
 30
0.0
 10
268.7677814082431
 20
231.2391868490824
 30
0.0
  0
SPLINE
  5
24C
330
1F
100
AcDbEntity
  8
0
  6
CONTINUOUS
 62
     7
100
AcDbSpline
210
0.0
220
0.0
230
1.0
 70
     8
 71
     3
 72
     8
 73
     4
 74
     0
 42
0.000000001
 43
0.00000001
 40
0.0
 40
0.0
 40
0.0
 40
0.0
 40
0.0285901007783825
 40
0.0285901007783825
 40
0.0285901007783825
 40
0.0285901007783825
 10
268.7677814082431
 20
230.0977579738318
 30
0.0
 10
268.7003900182588
 20
230.1194143722038
 30
0.0
 10
268.6337233515922
 20
230.1407084089174
 30
0.0
 10
268.5677814082431
 20
230.1616400839726
 30
0.0
  0
LINE
  5
24D
330
1F
100
AcDbEntity
  8
0
  6
CONTINUOUS
 62
     7
100
AcDbLine
 10
268.5677814082
 20
234.461640084
 30
0.0
 11
268.5677814082
 21
231.1753047389
 31
0.0
  0
SPLINE
  5
24E
330
1F
100
AcDbEntity
  8
0
  6
CONTINUOUS
 62
     7
100
AcDbSpline
210
0.0
220
0.0
230
1.0
 70
     8
 71
     3
 72
     8
 73
     4
 74
     0
 42
0.000000001
 43
0.00000001
 40
0.0
 40
0.0
 40
0.0
 40
0.0
 40
0.0285901007783824
 40
0.0285901007783824
 40
0.0285901007783824
 40
0.0285901007783824
 10
268.7677814082431
 20
234.5977579738318
 30
0.0
 10
268.7003900182639
 20
234.5520229822231
 30
0.0
 10
268.6337233515973
 20
234.50665035227
 30
0.0
 10
268.5677814082431
 20
234.4616400839726
 30
0.0
  0
LINE
  5
24F
330
1F
100
AcDbEntity
  8
0
  6
CONTINUOUS
 62
     7
100
AcDbLine
 10
268.7677814082
 20
231.2391868491
 30
0.0
 11
268.7677814082
 21
234.5977579738
 31
0.0
  0
LINE
  5
250
330
1F
100
AcDbEntity
  8
0
  6
CONTINUOUS
 62
     7
100
AcDbLine
 10
271.0945763275
 20
234.5977579738
 30
0.0
 11
268.7677814082
 21
234.5977579738
 31
0.0
  0
LINE
  5
251
330
1F
100
AcDbEntity
  8
0
  6
CONTINUOUS
 62
     7
100
AcDbLine
 10
268.7677814082
 20
226.7391868491
 30
0.0
 11
271.0945763275
 21
226.7391868491
 31
0.0
  0
LINE
  5
252
330
1F
100
AcDbEntity
  8
0
  6
CONTINUOUS
 62
     7
100
AcDbLine
 10
268.7677814082
 20
226.7391868491
 30
0.0
 11
268.7677814082
 21
230.0977579738
 31
0.0
  0
LINE
  5
253
330
1F
100
AcDbEntity
  8
0
  6
CONTINUOUS
 62
     7
100
AcDbLine
 10
268.5677814082
 20
230.161640084
 30
0.0
 11
268.5677814082
 21
226.8753047389
 31
0.0
  0
SPLINE
  5
254
330
1F
100
AcDbEntity
  8
0
  6
CONTINUOUS
 62
     7
100
AcDbSpline
210
0.0
220
0.0
230
1.0
 70
     8
 71
     3
 72
     8
 73
     4
 74
     0
 42
0.000000001
 43
0.00000001
 40
0.0
 40
0.0
 40
0.0
 40
0.0
 40
0.0285901007783825
 40
0.0285901007783825
 40
0.0285901007783825
 40
0.0285901007783825
 10
268.5677814082431
 20
226.8753047389416
 30
0.0
 10
268.6337233515958
 20
226.8302944706453
 30
0.0
 10
268.7003900182625
 20
226.7849218406922
 30
0.0
 10
268.7677814082431
 20
226.7391868490824
 30
0.0
  0
LINE
  5
255
330
1F
100
AcDbEntity
  8
0
  6
CONTINUOUS
 62
     7
100
AcDbLine
 10
267.2677814082
 20
225.9184724115
 30
0.0
 11
267.2677814082
 21
235.4184724115
 31
0.0
  0
SPLINE
  5
256
330
1F
100
AcDbEntity
  8
0
  6
CONTINUOUS
 62
     7
100
AcDbSpline
210
0.0
220
0.0
230
1.0
 70
     8
 71
     3
 72
    20
 73
    16
 74
     0
 42
0.000000001
 43
0.00000001
 40
-0.369898634763634
 40
-0.369898634763634
 40
-0.369898634763634
 40
-0.369898634763634
 40
-0.308248862303028
 40
-0.262011532957574
 40
-0.246599089842422
 40
-0.21577420361212
 40
-0.200361760496968
 40
-0.169536874266665
 40
-0.154124431151514
 40
-0.123299544921211
 40
-0.10788710180606
 40
-0.077062215575757
 40
-0.0616497724606056
 40
-0.0308248862303028
 40
0.0
 40
0.0
 40
0.0
 40
0.0
 10
262.7677814082431
 20
225.9943223120738
 30
0.0
 10
262.9677814082431
 20
225.9859170469589
 30
0.0
 10
263.3177814082431
 20
225.9724205779402
 30
0.0
 10
263.7177814082431
 20
225.9594335252037
 30
0.0
 10
264.0177814082431
 20
225.9507410677749
 30
0.0
 10
264.2177814082431
 20
225.9454704920697
 30
0.0
 10
264.4677814082431
 20
225.9395388674083
 30
0.0
 10
264.6677814082431
 20
225.9353192390788
 30
0.0
 10
264.9177814082431
 20
225.9307026726977
 30
0.0
 10
265.1177814082431
 20
225.9275361027784
 30
0.0
 10
265.367781408243
 20
225.9242369045517
 30
0.0
 10
265.5677814082431
 20
225.9221249772802
 30
0.0
 10
265.8177814082431
 20
225.9201447981798
 30
0.0
 10
266.067781408243
 20
225.9188245123382
 30
0.0
 10
266.2677814082431
 20
225.9184724114571
 30
0.0
 10
266.3677814082431
 20
225.9184724114571
 30
0.0
  0
LINE
  5
257
330
1F
100
AcDbEntity
  8
0
  6
CONTINUOUS
 62
     7
100
AcDbLine
 10
279.2677814082
 20
229.4194728118
 30
0.0
 11
274.5677814082
 21
229.4194728118
 31
0.0
  0
LINE
  5
258
330
1F
100
AcDbEntity
  8
0
  6
CONTINUOUS
 62
     7
100
AcDbLine
 10
274.5677814082
 20
231.9174720111
 30
0.0
 11
279.2677814082
 21
231.9174720111
 31
0.0
  0
SPLINE
  5
259
330
1F
100
AcDbEntity
  8
0
  6
CONTINUOUS
 62
     7
100
AcDbSpline
210
0.0
220
0.0
230
1.0
 70
     8
 71
     3
 72
    10
 73
     6
 74
     0
 42
0.000000001
 43
0.00000001
 40
0.0
 40
0.0
 40
0.0
 40
0.0
 40
0.5
 40
0.5
 40
1.0
 40
1.0
 40
1.0
 40
1.0
 10
279.2677814082431
 20
231.9174720111368
 30
0.0
 10
279.4046235135062
 20
231.479226537565
 30
0.0
 10
279.4677814082431
 20
231.0741304010967
 30
0.0
 10
279.4677814082431
 20
230.2628144218176
 30
0.0
 10
279.4046235135062
 20
229.8577182853493
 30
0.0
 10
279.2677814082431
 20
229.4194728117774
 30
0.0
  0
LINE
  5
25A
330
1F
100
AcDbEntity
  8
0
  6
CONTINUOUS
 62
     7
100
AcDbLine
 10
279.2677814082
 20
234.6684724115
 30
0.0
 11
279.2677814082
 21
231.9174720111
 31
0.0
  0
LINE
  5
25B
330
1F
100
AcDbEntity
  8
0
  6
CONTINUOUS
 62
     7
100
AcDbLine
 10
279.8677814082
 20
234.0684724115
 30
0.0
 11
279.8677814082
 21
227.2684724115
 31
0.0
  0
LINE
  5
25C
330
1F
100
AcDbEntity
  8
0
  6
CONTINUOUS
 62
     7
100
AcDbLine
 10
279.2677814082
 20
229.4194728118
 30
0.0
 11
279.2677814082
 21
226.6684724115
 31
0.0
  0
LINE
  5
25D
330
1F
100
AcDbEntity
  8
0
  6
CONTINUOUS
 62
     7
100
AcDbLine
 10
245.4677814082
 20
227.0959575888
 30
0.0
 11
245.4677814082
 21
234.2408583483
 31
0.0
  0
LINE
  5
25E
330
1F
100
AcDbEntity
  8
0
  6
CONTINUOUS
 62
     7
100
AcDbLine
 10
243.9677814082
 20
227.3184724115
 30
0.0
 11
243.9677814082
 21
234.0184724115
 31
0.0
  0
LINE
  5
25F
330
1F
100
AcDbEntity
  8
0
  6
CONTINUOUS
 62
     7
100
AcDbLine
 10
248.2677814082
 20
227.1133388379
 30
0.0
 11
248.2677814082
 21
234.2236059236
 31
0.0
  0
LINE
  5
260
330
1F
100
AcDbEntity
  8
0
  6
CONTINUOUS
 62
     7
100
AcDbLine
 10
282.3677814082
 20
234.0684724115
 30
0.0
 11
282.3677814082
 21
227.2684724115
 31
0.0
  0
LINE
  5
261
330
1F
100
AcDbEntity
  8
0
  6
CONTINUOUS
 62
     7
100
AcDbLine
 10
271.0945763275
 20
226.1684724115
 30
0.0
 11
268.7677814082
 21
226.1684724115
 31
0.0
  0
LINE
  5
262
330
1F
100
AcDbEntity
  8
0
  6
CONTINUOUS
 62
     7
100
AcDbLine
 10
268.7677814082
 20
226.1684724115
 30
0.0
 11
268.7677814082
 21
226.7391868491
 31
0.0
  0
SPLINE
  5
263
330
1F
100
AcDbEntity
  8
0
  6
CONTINUOUS
 62
     7
100
AcDbSpline
210
0.0
220
0.0
230
1.0
 70
    24
 71
     3
 72
     8
 73
     4
 74
     0
 42
0.000000001
 43
0.00000001
 40
0.0
 40
0.0
 40
0.0
 40
0.0
 40
0.0285901007783826
 40
0.0285901007783826
 40
0.0285901007783826
 40
0.0285901007783826
 10
268.7677814082431
 20
226.1684724114571
 30
0.0
 10
268.7003900182603
 20
226.2358638014399
 30
0.0
 10
268.6337233515936
 20
226.3025304681066
 30
0.0
 10
268.5677814082431
 20
226.3684724114571
 30
0.0
  0
LINE
  5
264
330
1F
100
AcDbEntity
  8
0
  6
CONTINUOUS
 62
     7
100
AcDbLine
 10
268.5677814082
 20
226.3684724115
 30
0.0
 11
268.5677814082
 21
226.8753047389
 31
0.0
  0
SPLINE
  5
265
330
1F
100
AcDbEntity
  8
0
  6
CONTINUOUS
 62
     7
100
AcDbSpline
210
0.0
220
0.0
230
1.0
 70
    24
 71
     3
 72
     8
 73
     4
 74
     0
 42
0.000000001
 43
0.00000001
 40
0.0
 40
0.0
 40
0.0
 40
0.0
 40
0.0285901007783824
 40
0.0285901007783824
 40
0.0285901007783824
 40
0.0285901007783824
 10
268.5677814082431
 20
234.9684724114571
 30
0.0
 10
268.6337233515936
 20
235.0344143548077
 30
0.0
 10
268.7003900182603
 20
235.1010810214743
 30
0.0
 10
268.7677814082431
 20
235.1684724114571
 30
0.0
  0
LINE
  5
266
330
1F
100
AcDbEntity
  8
0
  6
CONTINUOUS
 62
     7
100
AcDbLine
 10
268.7677814082
 20
234.5977579738
 30
0.0
 11
268.7677814082
 21
235.1684724115
 31
0.0
  0
LINE
  5
267
330
1F
100
AcDbEntity
  8
0
  6
CONTINUOUS
 62
     7
100
AcDbLine
 10
268.5677814082
 20
234.461640084
 30
0.0
 11
268.5677814082
 21
234.9684724115
 31
0.0
  0
LINE
  5
268
330
1F
100
AcDbEntity
  8
0
  6
CONTINUOUS
 62
     7
100
AcDbLine
 10
268.7677814082
 20
235.1684724115
 30
0.0
 11
271.0945763275
 21
235.1684724115
 31
0.0
  0
LINE
  5
269
330
1F
100
AcDbEntity
  8
0
  6
CONTINUOUS
 62
     7
100
AcDbLine
 10
223.9677814082
 20
228.4184724115
 30
0.0
 11
223.9677814082
 21
232.9184724115
 31
0.0
  0
SPLINE
  5
26A
330
1F
100
AcDbEntity
  8
0
  6
CONTINUOUS
 62
     7
100
AcDbSpline
210
0.0
220
0.0
230
1.0
 70
     8
 71
     3
 72
    20
 73
    16
 74
     0
 42
0.000000001
 43
0.00000001
 40
0.0
 40
0.0
 40
0.0
 40
0.0
 40
0.0308248862303028
 40
0.0616497724606056
 40
0.077062215575757
 40
0.10788710180606
 40
0.123299544921211
 40
0.154124431151514
 40
0.169536874266665
 40
0.200361760496968
 40
0.21577420361212
 40
0.246599089842422
 40
0.262011532957574
 40
0.308248862303028
 40
0.369898634763634
 40
0.369898634763634
 40
0.369898634763634
 40
0.369898634763634
 10
266.3677814082431
 20
225.6184724114571
 30
0.0
 10
266.2677814082431
 20
225.6184724114571
 30
0.0
 10
266.067781408243
 20
225.6188467503099
 30
0.0
 10
265.8177814082431
 20
225.6202504226855
 30
0.0
 10
265.5677814082431
 20
225.6223556657218
 30
0.0
 10
265.367781408243
 20
225.6246009778926
 30
0.0
 10
265.1177814082431
 20
225.6281085465315
 30
0.0
 10
264.9177814082431
 20
225.631475110354
 30
0.0
 10
264.6677814082431
 20
225.636383249349
 30
0.0
 10
264.4677814082431
 20
225.6408693805371
 30
0.0
 10
264.2177814082431
 20
225.647175634127
 30
0.0
 10
264.0177814082431
 20
225.6527790883203
 30
0.0
 10
263.7177814082431
 20
225.6620205430937
 30
0.0
 10
263.3177814082431
 20
225.6758278309788
 30
0.0
 10
262.9677814082431
 20
225.6901767081485
 30
0.0
 10
262.7677814082431
 20
225.6991128321128
 30
0.0
  0
LINE
  5
26B
330
1F
100
AcDbEntity
  8
0
  6
CONTINUOUS
 62
     7
100
AcDbLine
 10
262.7677814082
 20
225.6991128321
 30
0.0
 11
262.7677814082
 21
225.6184724115
 31
0.0
  0
LINE
  5
26C
330
1F
100
AcDbEntity
  8
0
  6
CONTINUOUS
 62
     7
100
AcDbLine
 10
266.3677814082
 20
225.9184724115
 30
0.0
 11
266.3677814082
 21
225.6184724115
 31
0.0
  0
LINE
  5
26D
330
1F
100
AcDbEntity
  8
0
  6
CONTINUOUS
 62
     7
100
AcDbLine
 10
262.7677814082
 20
225.9943223121
 30
0.0
 11
262.7677814082
 21
225.6991128321
 31
0.0
  0
LINE
  5
26E
330
1F
100
AcDbEntity
  8
0
  6
CONTINUOUS
 62
     7
100
AcDbLine
 10
148.3677814082
 20
235.9717732704
 30
0.0
 11
148.3677814082
 21
238.1684724115
 31
0.0
  0
LINE
  5
26F
330
1F
100
AcDbEntity
  8
0
  6
CONTINUOUS
 62
     7
100
AcDbLine
 10
148.3677814082
 20
223.1684724115
 30
0.0
 11
148.3677814082
 21
235.9717732704
 31
0.0
  0
LINE
  5
270
330
1F
100
AcDbEntity
  8
0
  6
CONTINUOUS
 62
     7
100
AcDbLine
 10
155.7677814082
 20
238.0684724115
 30
0.0
 11
155.7677814082
 21
223.2684724115
 31
0.0
  0
LINE
  5
271
330
1F
100
AcDbEntity
  8
0
  6
CONTINUOUS
 62
     7
100
AcDbLine
 10
147.7677814082
 20
235.5475092016
 30
0.0
 11
147.7677814082
 21
237.5684724115
 31
0.0
  0
LINE
  5
272
330
1F
100
AcDbEntity
  8
0
  6
CONTINUOUS
 62
     7
100
AcDbLine
 10
147.7677814082
 20
223.7684724115
 30
0.0
 11
147.7677814082
 21
235.5475092016
 31
0.0
  0
LINE
  5
273
330
1F
100
AcDbEntity
  8
0
  6
CONTINUOUS
 62
     7
100
AcDbLine
 10
158.0677814082
 20
228.2620271778
 30
0.0
 11
155.7677814082
 21
228.2620271778
 31
0.0
  0
LINE
  5
274
330
1F
100
AcDbEntity
  8
0
  6
CONTINUOUS
 62
     7
100
AcDbLine
 10
155.7677814082
 20
229.3595436557
 30
0.0
 11
158.0677814082
 21
229.3595436557
 31
0.0
  0
LINE
  5
275
330
1F
100
AcDbEntity
  8
0
  6
CONTINUOUS
 62
     7
100
AcDbLine
 10
158.0677814082
 20
228.2620271778
 30
0.0
 11
158.0677814082
 21
229.3595436557
 31
0.0
  0
LINE
  5
276
330
1F
100
AcDbEntity
  8
0
  6
CONTINUOUS
 62
     7
100
AcDbLine
 10
158.0677814082
 20
235.3420487535
 30
0.0
 11
155.7677814082
 21
235.3420487535
 31
0.0
  0
LINE
  5
277
330
1F
100
AcDbEntity
  8
0
  6
CONTINUOUS
 62
     7
100
AcDbLine
 10
158.0677814082
 20
235.3420487535
 30
0.0
 11
158.0677814082
 21
229.3595436557
 31
0.0
  0
SPLINE
  5
278
330
1F
100
AcDbEntity
  8
0
  6
CONTINUOUS
 62
     7
100
AcDbSpline
210
0.0
220
0.0
230
1.0
 70
     8
 71
     3
 72
     8
 73
     4
 74
     0
 42
0.000000001
 43
0.00000001
 40
0.0
 40
0.0
 40
0.0
 40
0.0
 40
0.0286485978063877
 40
0.0286485978063877
 40
0.0286485978063877
 40
0.0286485978063877
 10
158.2677814082431
 20
235.246293540228
 30
0.0
 10
158.2016085958348
 20
235.2780841257639
 30
0.0
 10
158.1349419291681
 20
235.3100025301872
 30
0.0
 10
158.0677814082431
 20
235.3420487534977
 30
0.0
  0
LINE
  5
279
330
1F
100
AcDbEntity
  8
0
  6
CONTINUOUS
 62
     7
100
AcDbLine
 10
158.2677814082
 20
229.351771251
 30
0.0
 11
158.2677814082
 21
235.2462935402
 31
0.0
  0
SPLINE
  5
27A
330
1F
100
AcDbEntity
  8
0
  6
CONTINUOUS
 62
     7
100
AcDbSpline
210
0.0
220
0.0
230
1.0
 70
     8
 71
     3
 72
     8
 73
     4
 74
     0
 42
0.000000001
 43
0.00000001
 40
0.0
 40
0.0
 40
0.0
 40
0.0
 40
0.0286485978063874
 40
0.0286485978063874
 40
0.0286485978063874
 40
0.0286485978063874
 10
158.0677814082431
 20
229.3595436557493
 30
0.0
 10
158.1349419291697
 20
229.356825035271
 30
0.0
 10
158.2016085958364
 20
229.3542342336805
 30
0.0
 10
158.2677814082431
 20
229.351771250978
 30
0.0
  0
LINE
  5
27B
330
1F
100
AcDbEntity
  8
0
  6
CONTINUOUS
 62
     7
100
AcDbLine
 10
158.2677814082
 20
229.351771251
 30
0.0
 11
158.2677814082
 21
228.371244591
 31
0.0
  0
SPLINE
  5
27C
330
1F
100
AcDbEntity
  8
0
  6
CONTINUOUS
 62
     7
100
AcDbSpline
210
0.0
220
0.0
230
1.0
 70
     8
 71
     3
 72
     8
 73
     4
 74
     0
 42
0.000000001
 43
0.00000001
 40
0.0
 40
0.0
 40
0.0
 40
0.0
 40
0.0286485978063876
 40
0.0286485978063876
 40
0.0286485978063876
 40
0.0286485978063876
 10
158.2677814082431
 20
228.371244591021
 30
0.0
 10
158.2016085958352
 20
228.3351879943062
 30
0.0
 10
158.1349419291685
 20
228.298782189896
 30
0.0
 10
158.0677814082431
 20
228.2620271777904
 30
0.0
  0
LINE
  5
27D
330
1F
100
AcDbEntity
  8
0
  6
CONTINUOUS
 62
     7
100
AcDbLine
 10
158.0677814082
 20
228.2620271778
 30
0.0
 11
158.0677814082
 21
223.8825294897
 31
0.0
  0
SPLINE
  5
27E
330
1F
100
AcDbEntity
  8
0
  6
CONTINUOUS
 62
     7
100
AcDbSpline
210
0.0
220
0.0
230
1.0
 70
     8
 71
     3
 72
     8
 73
     4
 74
     0
 42
0.000000001
 43
0.00000001
 40
0.0
 40
0.0
 40
0.0
 40
0.0
 40
0.0286485978063874
 40
0.0286485978063874
 40
0.0286485978063874
 40
0.0286485978063874
 10
158.0677814082431
 20
223.8825294896988
 30
0.0
 10
158.1349419291685
 20
223.9407537971419
 30
0.0
 10
158.2016085958352
 20
223.9986288968899
 30
0.0
 10
158.2677814082431
 20
224.0561547889428
 30
0.0
  0
LINE
  5
27F
330
1F
100
AcDbEntity
  8
0
  6
CONTINUOUS
 62
     7
100
AcDbLine
 10
158.2677814082
 20
224.0561547889
 30
0.0
 11
158.2677814082
 21
228.371244591
 31
0.0
  0
LINE
  5
280
330
1F
100
AcDbEntity
  8
0
  6
CONTINUOUS
 62
     7
100
AcDbLine
 10
155.7677814082
 20
223.8825294897
 30
0.0
 11
158.0677814082
 21
223.8825294897
 31
0.0
  0
SPLINE
  5
281
330
1F
100
AcDbEntity
  8
0
  6
CONTINUOUS
 62
     7
100
AcDbSpline
210
0.0
220
0.0
230
1.0
 70
     8
 71
     3
 72
    15
 73
    11
 74
     0
 42
0.000000001
 43
0.00000001
 40
0.0
 40
0.0
 40
0.0
 40
0.0
 40
0.1187872016860092
 40
0.2493925614235525
 40
0.3741213663880069
 40
0.4987577183176914
 40
0.6236818088107836
 40
0.7490922928168628
 40
0.8835500266270951
 40
1.0
 40
1.0
 40
1.0
 40
1.0
 10
161.1177814087999
 20
224.7382864168228
 30
0.0
 10
161.2163250982196
 20
224.7259082238927
 30
0.0
 10
161.4232166047765
 20
224.699920329601
 30
0.0
 10
161.7344756190502
 20
224.6709131143306
 30
0.0
 10
162.0510735967304
 20
224.6489872327102
 30
0.0
 10
162.3632998294618
 20
224.6352694569103
 30
0.0
 10
162.6762869341289
 20
224.6291273025277
 30
0.0
 10
162.997515138954
 20
224.6309033464845
 30
0.0
 10
163.3115695775341
 20
224.6401706907758
 30
0.0
 10
163.5207142681813
 20
224.6530897270049
 30
0.0
 10
163.6177814086466
 20
224.6590856425619
 30
0.0
  0
SPLINE
  5
282
330
1F
100
AcDbEntity
  8
0
  6
CONTINUOUS
 62
     7
100
AcDbSpline
210
0.0
220
0.0
230
1.0
 70
     8
 71
     3
 72
     8
 73
     4
 74
     0
 42
0.000000001
 43
0.00000001
 40
0.0
 40
0.0
 40
0.0
 40
0.0
 40
1.0
 40
1.0
 40
1.0
 40
1.0
 10
165.9218374718438
 20
236.7707152073043
 30
0.0
 10
163.9326611508619
 20
236.8909624040868
 30
0.0
 10
161.928831279851
 20
236.7728118282748
 30
0.0
 10
159.9677814082431
 20
236.4184667655127
 30
0.0
  0
SPLINE
  5
283
330
1F
100
AcDbEntity
  8
0
  6
CONTINUOUS
 62
     7
100
AcDbSpline
210
0.0
220
0.0
230
1.0
 70
     8
 71
     3
 72
    11
 73
     7
 74
     0
 42
0.000000001
 43
0.00000001
 40
-1.91058391512205
 40
-1.91058391512205
 40
-1.91058391512205
 40
-1.91058391512205
 40
-1.910490632170927
 40
-1.910490632170927
 40
-1.528662483709829
 40
-0.955920261018169
 40
-0.955920261018169
 40
-0.955920261018169
 40
-0.955920261018169
 10
165.9217467260593
 20
236.7711595627294
 30
0.0
 10
165.9217447068511
 20
236.7711597298435
 30
0.0
 10
165.9217427003954
 20
236.7711598730129
 30
0.0
 10
165.9135800379329
 20
236.7716480023186
 30
0.0
 10
166.530687756586
 20
235.7600489568943
 30
0.0
 10
167.4431223189202
 20
232.576677671253
 30
0.0
 10
167.402648319524
 20
230.6684756894442
 30
0.0
  0
SPLINE
  5
284
330
1F
100
AcDbEntity
  8
0
  6
CONTINUOUS
 62
     7
100
AcDbSpline
210
0.0
220
0.0
230
1.0
 70
     8
 71
     3
 72
    16
 73
    12
 74
     0
 42
0.000000001
 43
0.00000001
 40
0.0
 40
0.0
 40
0.0
 40
0.0
 40
0.1242911428249154
 40
0.249164493945379
 40
0.3742155182812559
 40
0.4994710691852073
 40
0.6245899828532377
 40
0.7496764843002792
 40
0.8748652091700261
 40
0.9999713520725111
 40
1.0
 40
1.0
 40
1.0
 40
1.0
 10
167.4026485629958
 20
230.6684724114824
 30
0.0
 10
167.3923388075657
 20
230.274206747208
 30
0.0
 10
167.3716710034402
 20
229.4838285876204
 30
0.0
 10
167.2098474081959
 20
228.3378890456287
 30
0.0
 10
166.9791688359958
 20
227.2696117758705
 30
0.0
 10
166.6862865948906
 20
226.3276297306152
 30
0.0
 10
166.3896884209207
 20
225.5558286745231
 30
0.0
 10
166.1397527371304
 20
224.9856423512278
 30
0.0
 10
165.9814344740426
 20
224.6621568571088
 30
0.0
 10
165.9007729444836
 20
224.525064023285
 30
0.0
 10
165.9213586995969
 20
224.5645677868252
 30
0.0
 10
165.9213634124286
 20
224.5645768306806
 30
0.0
  0
SPLINE
  5
285
330
1F
100
AcDbEntity
  8
0
  6
CONTINUOUS
 62
     7
100
AcDbSpline
210
0.0
220
0.0
230
1.0
 70
    24
 71
     3
 72
    24
 73
    20
 74
     0
 42
0.000000001
 43
0.00000001
 40
0.0
 40
0.0
 40
0.0
 40
0.0
 40
0.0681487148012671
 40
0.1364844915938233
 40
0.2047733173486027
 40
0.2732871807696918
 40
0.34163515768802
 40
0.4088164975914257
 40
0.4711325022259236
 40
0.529779971645058
 40
0.5882718478059032
 40
0.6468969293086937
 40
0.7054025693227073
 40
0.7641044267563896
 40
0.822696932446959
 40
0.8814648616167652
 40
0.940214778383414
 40
0.9988744775786775
 40
1.0
 40
1.0
 40
1.0
 40
1.0
 10
159.9677814082431
 20
236.418469476409
 30
0.0
 10
159.9677814082431
 20
236.3930034126471
 30
0.0
 10
159.9677814082431
 20
236.3420013831067
 30
0.0
 10
159.9677814082431
 20
235.9349407375417
 30
0.0
 10
159.9677814082431
 20
235.3041372286485
 30
0.0
 10
159.9677814082431
 20
234.4548876176752
 30
0.0
 10
159.9677814082431
 20
233.4382931776804
 30
0.0
 10
159.9677814082431
 20
232.3305759511343
 30
0.0
 10
159.9677814082431
 20
231.2125283590976
 30
0.0
 10
159.9677814082431
 20
230.1276410804577
 30
0.0
 10
159.9677814082431
 20
229.0834072614736
 30
0.0
 10
159.9677814082431
 20
228.0933224161181
 30
0.0
 10
159.9677814082431
 20
227.1892432932474
 30
0.0
 10
159.9677814082431
 20
226.4022907062235
 30
0.0
 10
159.9677814082431
 20
225.7603808178943
 30
0.0
 10
159.9677814082431
 20
225.2782015299404
 30
0.0
 10
159.9677814082431
 20
225.0022118998717
 30
0.0
 10
159.967781408243
 20
224.887382859819
 30
0.0
 10
159.9677814082431
 20
224.9196810150435
 30
0.0
 10
159.9677814082431
 20
224.9202890632683
 30
0.0
  0
SPLINE
  5
286
330
1F
100
AcDbEntity
  8
0
  6
CONTINUOUS
 62
     7
100
AcDbSpline
210
0.0
220
0.0
230
1.0
 70
     8
 71
     3
 72
    31
 73
    27
 74
     0
 42
0.000000001
 43
0.00000001
 40
0.0
 40
0.0
 40
0.0
 40
0.0
 40
0.0146846312559746
 40
0.0355355699046764
 40
0.0625670216129373
 40
0.0966456354378194
 40
0.1251688352505123
 40
0.153860749323677
 40
0.1877398927415081
 40
0.2501266348954635
 40
0.3125132502818856
 40
0.375008359570992
 40
0.4375317361739264
 40
0.5000033643351505
 40
0.5624746814178496
 40
0.6249978698490037
 40
0.6874930915628348
 40
0.7498804353740733
 40
0.8122681429867099
 40
0.8461310588922244
 40
0.8748389604432418
 40
0.9029829853275411
 40
0.9374383172276055
 40
0.9645652921544156
 40
0.9854143342516014
 40
1.0
 40
1.0
 40
1.0
 40
1.0
 10
180.9672086896593
 20
235.0684713089273
 30
0.0
 10
180.9672084129119
 20
235.0675781808362
 30
0.0
 10
180.9672077432064
 20
235.0654168861354
 30
0.0
 10
180.9672021776876
 20
235.0418684966058
 30
0.0
 10
180.9671829203302
 20
234.9841887488226
 30
0.0
 10
180.9671335078876
 20
234.8818211402535
 30
0.0
 10
180.9670383241854
 20
234.7384020407607
 30
0.0
 10
180.9668927042942
 20
234.5602621698411
 30
0.0
 10
180.9665950875327
 20
234.2661316414707
 30
0.0
 10
180.9660023432475
 20
233.7996214574154
 30
0.0
 10
180.9646809661007
 20
233.1292071663101
 30
0.0
 10
180.9631741795122
 20
232.3636815604911
 30
0.0
 10
180.962113095969
 20
231.5326053178568
 30
0.0
 10
180.9617827086729
 20
230.6684254024781
 30
0.0
 10
180.9621511648666
 20
229.8042480016643
 30
0.0
 10
180.9633619856217
 20
228.9731769169983
 30
0.0
 10
180.9650041729185
 20
228.2076586079554
 30
0.0
 10
180.9663865381361
 20
227.5372543124058
 30
0.0
 10
180.9669358284968
 20
227.0707930694098
 30
0.0
 10
180.9671603408924
 20
226.7766714984444
 30
0.0
 10
180.9672421721489
 20
226.599255033024
 30
0.0
 10
180.967272355613
 20
226.4556093309553
 30
0.0
 10
180.96726466483
 20
226.3528991794605
 30
0.0
 10
180.9672467263422
 20
226.2949355360642
 30
0.0
 10
180.9672355360011
 20
226.2714886551064
 30
0.0
 10
180.9672345111332
 20
226.2693516630247
 30
0.0
 10
180.9672340892761
 20
226.268472032456
 30
0.0
  0
SPLINE
  5
287
330
1F
100
AcDbEntity
  8
0
  6
CONTINUOUS
 62
     7
100
AcDbSpline
210
0.0
220
0.0
230
1.0
 70
     8
 71
     3
 72
    19
 73
    15
 74
     0
 42
0.000000001
 43
0.00000001
 40
0.0
 40
0.0
 40
0.0
 40
0.0
 40
0.0439593634276813
 40
0.0909416112048099
 40
0.1409467669746887
 40
0.1939748497919122
 40
0.2500258682347675
 40
0.3750341279491163
 40
0.5000421541155059
 40
0.5940001818142268
 40
0.7000552741554625
 40
0.8102558386956266
 40
0.9102292368905426
 40
1.0
 40
1.0
 40
1.0
 40
1.0
 10
180.9671360914431
 20
235.0684710233381
 30
0.0
 10
180.7463756789421
 20
235.0682322664832
 30
0.0
 10
180.2896741701475
 20
235.0677383345567
 30
0.0
 10
179.5818961163456
 20
235.0771948019351
 30
0.0
 10
178.8287527143779
 20
235.0958434474973
 30
0.0
 10
178.0304004628755
 20
235.1261582178754
 30
0.0
 10
176.8563790785193
 20
235.1868076299997
 30
0.0
 10
175.3233258000534
 20
235.3010722140654
 30
0.0
 10
173.6052993479835
 20
235.4835228270383
 30
0.0
 10
171.9874419186512
 20
235.7005639074324
 30
0.0
 10
170.4488942514407
 20
235.946380782823
 30
0.0
 10
168.8880999865878
 20
236.2402057571102
 30
0.0
 10
167.4150112774774
 20
236.5562001416914
 30
0.0
 10
166.4912492428156
 20
236.7901853299709
 30
0.0
 10
166.0542037905969
 20
236.9008871758867
 30
0.0
  0
SPLINE
  5
288
330
1F
100
AcDbEntity
  8
0
  6
CONTINUOUS
 62
     7
100
AcDbSpline
210
0.0
220
0.0
230
1.0
 70
     8
 71
     3
 72
    16
 73
    12
 74
     0
 42
0.000000001
 43
0.00000001
 40
0.0
 40
0.0
 40
0.0
 40
0.0
 40
0.0005273971613595
 40
0.1255045125063977
 40
0.250674694991519
 40
0.3757695848446382
 40
0.5008784613071946
 40
0.6260592995396914
 40
0.7509443482780771
 40
0.8756787497163367
 40
1.0
 40
1.0
 40
1.0
 40
1.0
 10
166.0491239882265
 20
224.4356464727902
 30
0.0
 10
166.0490377480761
 20
224.435479019645
 30
0.0
 10
166.0285152105532
 20
224.3956302550108
 30
0.0
 10
166.110265226236
 20
224.5357853300542
 30
0.0
 10
166.2702897875751
 20
224.8672581390134
 30
0.0
 10
166.521683937263
 20
225.4502414807611
 30
0.0
 10
166.8187920963933
 20
226.2397018295972
 30
0.0
 10
167.1116131834216
 20
227.2017899635119
 30
0.0
 10
167.3425823709198
 20
228.2913831152917
 30
0.0
 10
167.5046790442769
 20
229.4600996827566
 30
0.0
 10
167.5255630053129
 20
230.2661238490312
 30
0.0
 10
167.535987663934
 20
230.6684673871814
 30
0.0
  0
SPLINE
  5
289
330
1F
100
AcDbEntity
  8
0
  6
CONTINUOUS
 62
     7
100
AcDbSpline
210
0.0
220
0.0
230
1.0
 70
     8
 71
     3
 72
    11
 73
     7
 74
     0
 42
0.000000001
 43
0.00000001
 40
-1.91752873581611
 40
-1.91752873581611
 40
-1.91752873581611
 40
-1.91752873581611
 40
-1.34252590903323
 40
-0.9591906911779849
 40
-0.9591906911779849
 40
-0.9590928350548003
 40
-0.9590928350548003
 40
-0.9590928350548003
 40
-0.9590928350548003
 10
167.5359876639343
 20
230.6684673912461
 30
0.0
 10
167.5789883953768
 20
232.6105583552927
 30
0.0
 10
166.6583314212127
 20
235.8650684781331
 30
0.0
 10
166.0461312090121
 20
236.9033504502806
 30
0.0
 10
166.0459361039175
 20
236.9015781281198
 30
0.0
 10
166.0459360701185
 20
236.9015776490772
 30
0.0
 10
166.0459360523101
 20
236.9015771433078
 30
0.0
  0
SPLINE
  5
28A
330
1F
100
AcDbEntity
  8
0
  6
CONTINUOUS
 62
     7
100
AcDbSpline
210
0.0
220
0.0
230
1.0
 70
     8
 71
     3
 72
     8
 73
     4
 74
     0
 42
0.000000001
 43
0.00000001
 40
0.0
 40
0.0
 40
0.0
 40
0.0
 40
1.0
 40
1.0
 40
1.0
 40
1.0
 10
167.4748707234704
 20
230.6684713564578
 30
0.0
 10
167.4810683335365
 20
230.6684711147663
 30
0.0
 10
167.5103580210215
 20
230.668469214478
 30
0.0
 10
167.5359876639343
 20
230.6684673912461
 30
0.0
  0
SPLINE
  5
28B
330
1F
100
AcDbEntity
  8
0
  6
CONTINUOUS
 62
     7
100
AcDbSpline
210
0.0
220
0.0
230
1.0
 70
     8
 71
     3
 72
    11
 73
     7
 74
     0
 42
0.000000001
 43
0.00000001
 40
-1.91752873581611
 40
-1.91752873581611
 40
-1.91752873581611
 40
-1.91752873581611
 40
-1.917432683665941
 40
-1.917432683665941
 40
-1.534097465810696
 40
-0.9590946390278157
 40
-0.9590946390278157
 40
-0.9590946390278157
 40
-0.9590946390278157
 10
165.9848247581971
 20
236.8662503917432
 30
0.0
 10
165.9848247749149
 20
236.8662509144204
 30
0.0
 10
165.9848248071537
 20
236.8662514111085
 30
0.0
 10
165.9850154731777
 20
236.8681303933181
 30
0.0
 10
166.6017511906901
 20
235.8195909184683
 30
0.0
 10
167.5183278747716
 20
232.5913698093676
 30
0.0
 10
167.4748707234705
 20
230.6684713564578
 30
0.0
  0
SPLINE
  5
28C
330
1F
100
AcDbEntity
  8
0
  6
CONTINUOUS
 62
     7
100
AcDbSpline
210
0.0
220
0.0
230
1.0
 70
     8
 71
     3
 72
    16
 73
    12
 74
     0
 42
0.000000001
 43
0.00000001
 40
0.0
 40
0.0
 40
0.0
 40
0.0
 40
0.1232912027497252
 40
0.2470305379656962
 40
0.3710094910360724
 40
0.4954115552467719
 40
0.619921148579216
 40
0.7446588649856499
 40
0.8696822073123157
 40
0.9947299520860822
 40
1.0
 40
1.0
 40
1.0
 40
1.0
 10
167.4748707234704
 20
230.6684713564581
 30
0.0
 10
167.4645049738899
 20
230.2698591535287
 30
0.0
 10
167.4437357978403
 20
229.4711858927185
 30
0.0
 10
167.2825495165442
 20
228.3126312316728
 30
0.0
 10
167.0524106846743
 20
227.2314400623738
 30
0.0
 10
166.7598845346714
 20
226.2747664542727
 30
0.0
 10
166.4623602466381
 20
225.4875212568512
 30
0.0
 10
166.2104849082506
 20
224.9049450332435
 30
0.0
 10
166.0488348566264
 20
224.5707660549716
 30
0.0
 10
165.9672933976704
 20
224.4308632285406
 30
0.0
 10
165.9894887138917
 20
224.4738446095486
 30
0.0
 10
165.9903862918627
 20
224.4755827754018
 30
0.0
  0
SPLINE
  5
28D
330
1F
100
AcDbEntity
  8
0
  6
CONTINUOUS
 62
     7
100
AcDbSpline
210
0.0
220
0.0
230
1.0
 70
     8
 71
     3
 72
    15
 73
    11
 74
     0
 42
0.000000001
 43
0.00000001
 40
0.0
 40
0.0
 40
0.0
 40
0.0
 40
0.1239757968906639
 40
0.2488472841991006
 40
0.373798579394037
 40
0.4989984212993098
 40
0.624494559122214
 40
0.7499036256687172
 40
0.8752209962160223
 40
1.0
 40
1.0
 40
1.0
 40
1.0
 10
165.9730548918913
 20
224.5281932292843
 30
0.0
 10
165.9875956396431
 20
224.5508202153073
 30
0.0
 10
166.0167821879776
 20
224.5962376609913
 30
0.0
 10
166.195788704359
 20
224.9553227383955
 30
0.0
 10
166.4408644778908
 20
225.5162635538145
 30
0.0
 10
166.7403585634317
 20
226.2933134262179
 30
0.0
 10
167.0346586313896
 20
227.2399866868676
 30
0.0
 10
167.2671187351799
 20
228.3167900562741
 30
0.0
 10
167.4302082884267
 20
229.4727741756718
 30
0.0
 10
167.4510163827496
 20
230.2704783796278
 30
0.0
 10
167.461398033772
 20
230.6684718977268
 30
0.0
  0
SPLINE
  5
28E
330
1F
100
AcDbEntity
  8
0
  6
CONTINUOUS
 62
     7
100
AcDbSpline
210
0.0
220
0.0
230
1.0
 70
     8
 71
     3
 72
    11
 73
     7
 74
     0
 42
0.000000001
 43
0.00000001
 40
-1.91058391512205
 40
-1.91058391512205
 40
-1.91058391512205
 40
-1.91058391512205
 40
-1.33784169243039
 40
-0.956013543969292
 40
-0.956013543969292
 40
-0.955929547912361
 40
-0.955929547912361
 40
-0.955929547912361
 40
-0.955929547912361
 10
167.4613980337728
 20
230.6684719091176
 30
0.0
 10
167.5021967255924
 20
232.59595461538
 30
0.0
 10
166.582323853033
 20
235.8045623957514
 30
0.0
 10
165.9649230706528
 20
236.8081972373062
 30
0.0
 10
165.973118514326
 20
236.8081036511643
 30
0.0
 10
165.9731203271383
 20
236.8081036112536
 30
0.0
 10
165.973122150292
 20
236.8081035520154
 30
0.0
  0
LINE
  5
28F
330
1F
100
AcDbEntity
  8
0
  6
CONTINUOUS
 62
     7
100
AcDbLine
 10
165.9792738257
 20
236.8122285309
 30
0.0
 11
165.990689631
 21
236.8556929576
 31
0.0
  0
SPLINE
  5
290
330
1F
100
AcDbEntity
  8
0
  6
CONTINUOUS
 62
     7
100
AcDbSpline
210
0.0
220
0.0
230
1.0
 70
     8
 71
     3
 72
     8
 73
     4
 74
     0
 42
0.000000001
 43
0.00000001
 40
0.0000001493369763
 40
0.0000001493369763
 40
0.0000001493369763
 40
0.0000001493369763
 40
1.0
 40
1.0
 40
1.0
 40
1.0
 10
167.4026483262019
 20
230.6684754738025
 30
0.0
 10
167.4277605297856
 20
230.6684736834453
 30
0.0
 10
167.4553599299792
 20
230.6684719064845
 30
0.0
 10
167.4613980291622
 20
230.6684716912979
 30
0.0
  0
LINE
  5
291
330
1F
100
AcDbEntity
  8
0
  6
CONTINUOUS
 62
     7
100
AcDbLine
 10
158.0677814082
 20
235.3420487535
 30
0.0
 11
158.0677814082
 21
236.1454865775
 31
0.0
  0
SPLINE
  5
292
330
1F
100
AcDbEntity
  8
0
  6
CONTINUOUS
 62
     7
100
AcDbSpline
210
0.0
220
0.0
230
1.0
 70
     8
 71
     3
 72
     8
 73
     4
 74
     0
 42
0.000000001
 43
0.00000001
 40
0.0
 40
0.0
 40
0.0
 40
0.0
 40
0.0286485978063875
 40
0.0286485978063875
 40
0.0286485978063875
 40
0.0286485978063875
 10
158.0677814082431
 20
236.1454865775077
 30
0.0
 10
158.1349419291705
 20
236.0845436495845
 30
0.0
 10
158.2016085958371
 20
236.024077748246
 30
0.0
 10
158.2677814082431
 20
235.9640888734924
 30
0.0
  0
LINE
  5
293
330
1F
100
AcDbEntity
  8
0
  6
CONTINUOUS
 62
     7
100
AcDbLine
 10
158.2677814082
 20
235.9640888735
 30
0.0
 11
158.2677814082
 21
235.2462935402
 31
0.0
  0
LINE
  5
294
330
1F
100
AcDbEntity
  8
0
  6
CONTINUOUS
 62
     7
100
AcDbLine
 10
155.7677814082
 20
236.1454865775
 30
0.0
 11
158.0677814082
 21
236.1454865775
 31
0.0
  0
LINE
  5
295
330
1F
100
AcDbEntity
  8
0
  6
CONTINUOUS
 62
     7
100
AcDbLine
 10
180.9677814082
 20
235.7184724115
 30
0.0
 11
180.9677814082
 21
225.6184724115
 31
0.0
  0
LINE
  5
296
330
1F
100
AcDbEntity
  8
0
  6
CONTINUOUS
 62
     7
100
AcDbLine
 10
183.9677814082
 20
234.8684724115
 30
0.0
 11
183.9677814082
 21
226.4684724115
 31
0.0
  0
LINE
  5
297
330
1F
100
AcDbEntity
  8
0
  6
CONTINUOUS
 62
     7
100
AcDbLine
 10
158.0677814082
 20
237.7484939872
 30
0.0
 11
155.7677814082
 21
237.7484939872
 31
0.0
  0
LINE
  5
298
330
1F
100
AcDbEntity
  8
0
  6
CONTINUOUS
 62
     7
100
AcDbLine
 10
158.0677814082
 20
237.7484939872
 30
0.0
 11
158.0677814082
 21
236.1454865775
 31
0.0
  0
SPLINE
  5
299
330
1F
100
AcDbEntity
  8
0
  6
CONTINUOUS
 62
     7
100
AcDbSpline
210
0.0
220
0.0
230
1.0
 70
     8
 71
     3
 72
     8
 73
     4
 74
     0
 42
0.000000001
 43
0.00000001
 40
0.0
 40
0.0
 40
0.0
 40
0.0
 40
0.0286485978063872
 40
0.0286485978063872
 40
0.0286485978063872
 40
0.0286485978063872
 10
158.2677814082431
 20
237.5435213606642
 30
0.0
 10
158.2016085958333
 20
237.6113685429166
 30
0.0
 10
158.1349419291666
 20
237.6796927517501
 30
0.0
 10
158.0677814082431
 20
237.7484939871644
 30
0.0
  0
LINE
  5
29A
330
1F
100
AcDbEntity
  8
0
  6
CONTINUOUS
 62
     7
100
AcDbLine
 10
158.2677814082
 20
235.9640888735
 30
0.0
 11
158.2677814082
 21
237.5435213607
 31
0.0
  0
LINE
  5
29B
330
1F
100
AcDbEntity
  8
0
  6
CONTINUOUS
 62
     7
100
AcDbLine
 10
146.7677814082
 20
226.6203246869
 30
0.0
 11
146.7677814082
 21
234.7684724115
 31
0.0
  0
LINE
  5
29C
330
1F
100
AcDbEntity
  8
0
  6
CONTINUOUS
 62
     7
100
AcDbLine
 10
146.7677814082
 20
226.6203246869
 30
0.0
 11
147.7677814082
 21
226.6203246869
 31
0.0
  0
LINE
  5
29D
330
1F
100
AcDbEntity
  8
0
  6
CONTINUOUS
 62
     7
100
AcDbLine
 10
146.2677814082
 20
226.9129834646
 30
0.0
 11
146.2677814082
 21
234.4797972769
 31
0.0
  0
SPLINE
  5
29E
330
1F
100
AcDbEntity
  8
0
  6
CONTINUOUS
 62
     7
100
AcDbSpline
210
0.0
220
0.0
230
1.0
 70
     8
 71
     3
 72
     8
 73
     4
 74
     0
 42
0.000000001
 43
0.00000001
 40
0.0
 40
0.0
 40
0.0
 40
0.0
 40
1.0
 40
1.0
 40
1.0
 40
1.0
 10
146.2677814082431
 20
226.9129834646413
 30
0.0
 10
146.4283074689355
 20
226.8189257546068
 30
0.0
 10
146.5947458284993
 20
226.7215064608417
 30
0.0
 10
146.7677814082431
 20
226.6203246868799
 30
0.0
  0
LINE
  5
29F
330
1F
100
AcDbEntity
  8
0
  6
CONTINUOUS
 62
     7
100
AcDbLine
 10
203.9677814082
 20
233.1684724115
 30
0.0
 11
203.9677814082
 21
228.1684724115
 31
0.0
  0
SPLINE
  5
2A0
330
1F
100
AcDbEntity
  8
0
  6
CONTINUOUS
 62
     7
100
AcDbSpline
210
0.0
220
0.0
230
1.0
 70
     8
 71
     3
 72
     8
 73
     4
 74
     0
 42
0.000000001
 43
0.00000001
 40
0.0
 40
0.0
 40
0.0
 40
0.0
 40
0.0286485978063873
 40
0.0286485978063873
 40
0.0286485978063873
 40
0.0286485978063873
 10
158.2677814082431
 20
223.7934234622501
 30
0.0
 10
158.2016085958404
 20
223.7255762800048
 30
0.0
 10
158.1349419291737
 20
223.6572520711714
 30
0.0
 10
158.0677814082431
 20
223.5884508357498
 30
0.0
  0
LINE
  5
2A1
330
1F
100
AcDbEntity
  8
0
  6
CONTINUOUS
 62
     7
100
AcDbLine
 10
158.0677814082
 20
223.5884508357
 30
0.0
 11
158.0677814082
 21
223.8825294897
 31
0.0
  0
LINE
  5
2A2
330
1F
100
AcDbEntity
  8
0
  6
CONTINUOUS
 62
     7
100
AcDbLine
 10
158.2677814082
 20
224.0561547889
 30
0.0
 11
158.2677814082
 21
223.7934234623
 31
0.0
  0
LINE
  5
2A3
330
1F
100
AcDbEntity
  8
0
  6
CONTINUOUS
 62
     7
100
AcDbLine
 10
158.0677814082
 20
223.5884508357
 30
0.0
 11
155.7677814082
 21
223.5884508357
 31
0.0
  0
SPLINE
  5
2A4
330
1F
100
AcDbEntity
  8
0
  6
CONTINUOUS
 62
     7
100
AcDbSpline
210
0.0
220
0.0
230
1.0
 70
     8
 71
     3
 72
    15
 73
    11
 74
     0
 42
0.000000001
 43
0.00000001
 40
0.0
 40
0.0
 40
0.0
 40
0.0
 40
0.1241973543558167
 40
0.2488719143663946
 40
0.3740850139312644
 40
0.4998971993324246
 40
0.6248161054484848
 40
0.7500473619688753
 40
0.8752778083544651
 40
1.0
 40
1.0
 40
1.0
 40
1.0
 10
161.1177814082511
 20
224.4860374189695
 30
0.0
 10
161.2208215128973
 20
224.4732317633332
 30
0.0
 10
161.427297634976
 20
224.4475712486671
 30
0.0
 10
161.7385343784851
 20
224.4188300179805
 30
0.0
 10
162.0515579951426
 20
224.3971264936003
 30
0.0
 10
162.3651477492546
 20
224.3832371037667
 30
0.0
 10
162.6789455385206
 20
224.3768416841423
 30
0.0
 10
162.9923008646198
 20
224.3781240174978
 30
0.0
 10
163.3054265393495
 20
224.3863362001033
 30
0.0
 10
163.5138043570663
 20
224.3982382783896
 30
0.0
 10
163.6177814077614
 20
224.4041772166649
 30
0.0
  0
LINE
  5
2A5
330
1F
100
AcDbEntity
  8
0
  6
CONTINUOUS
 62
     7
100
AcDbLine
 10
161.1177814082
 20
224.7382864167
 30
0.0
 11
161.1177814082
 21
224.4860374189
 31
0.0
  0
LINE
  5
2A6
330
1F
100
AcDbEntity
  8
0
  6
CONTINUOUS
 62
     7
100
AcDbLine
 10
163.6177814082
 20
224.6590856428
 30
0.0
 11
163.6177814082
 21
224.4041772162
 31
0.0
  0
LINE
  5
2A7
330
1F
100
AcDbEntity
  8
0
  6
CONTINUOUS
 62
     7
100
AcDbLine
 10
163.6177814082
 20
224.4041772166
 30
0.0
 11
163.6177814082
 21
224.2832797989
 31
0.0
  0
ARC
  5
2A8
330
1F
100
AcDbEntity
  8
0
  6
CONTINUOUS
 62
     7
100
AcDbCircle
 10
350.5006910032
 20
154.4015368952
 30
0.0
 40
3.811324865405189
100
AcDbArc
 50
189.8194714073
 51
170.1805285927
  0
ARC
  5
2A9
330
1F
100
AcDbEntity
  8
0
  6
CONTINUOUS
 62
     7
100
AcDbCircle
 10
350.5006910032
 20
154.4015368952
 30
0.0
 40
4.100000000000037
100
AcDbArc
 50
189.1219646074
 51
170.8780353926
  0
SPLINE
  5
2AA
330
1F
100
AcDbEntity
  8
0
  6
CONTINUOUS
 62
     7
100
AcDbSpline
210
0.0
220
0.0
230
1.0
 70
    24
 71
     3
 72
     8
 73
     4
 74
     0
 42
0.000000001
 43
0.00000001
 40
0.0
 40
0.0
 40
0.0
 40
0.0
 40
1.0
 40
1.0
 40
1.0
 40
1.0
 10
346.7452020563982
 20
153.7515368951934
 30
0.0
 10
346.6511443463637
 20
153.7515368951934
 30
0.0
 10
346.5537250525986
 20
153.7515368951934
 30
0.0
 10
346.4525432786367
 20
153.7515368951934
 30
0.0
  0
SPLINE
  5
2AB
330
1F
100
AcDbEntity
  8
0
  6
CONTINUOUS
 62
     7
100
AcDbSpline
210
0.0
220
0.0
230
1.0
 70
    24
 71
     3
 72
     8
 73
     4
 74
     0
 42
0.000000001
 43
0.00000001
 40
0.0
 40
0.0
 40
0.0
 40
0.0
 40
1.0
 40
1.0
 40
1.0
 40
1.0
 10
346.4525432786367
 20
155.0515368951934
 30
0.0
 10
346.553725052632
 20
155.0515368951934
 30
0.0
 10
346.6511443463977
 20
155.0515368951934
 30
0.0
 10
346.7452020563982
 20
155.0515368951934
 30
0.0
  0
CIRCLE
  5
2AC
330
1F
100
AcDbEntity
  8
0
  6
CONTINUOUS
 62
     7
100
AcDbCircle
 10
350.5006910032
 20
154.4015368952
 30
0.0
 40
0.5999999999999687
  0
ARC
  5
2AD
330
1F
100
AcDbEntity
  8
0
  6
CONTINUOUS
 62
     7
100
AcDbCircle
 10
346.9506910032
 20
154.4015368952
 30
0.0
 40
0.6500000000000057
100
AcDbArc
 50
270.0
 51
90.0
  0
LINE
  5
2AE
330
1F
100
AcDbEntity
  8
0
  6
CONTINUOUS
 62
     7
100
AcDbLine
 10
346.9506910032
 20
153.7515368952
 30
0.0
 11
346.7452020564
 21
153.7515368952
 31
0.0
  0
CIRCLE
  5
2AF
330
1F
100
AcDbEntity
  8
0
  6
CONTINUOUS
 62
     7
100
AcDbCircle
 10
352.2684579562
 20
156.1693038482
 30
0.0
 40
0.5999999999999888
  0
CIRCLE
  5
2B0
330
1F
100
AcDbEntity
  8
0
  6
CONTINUOUS
 62
     7
100
AcDbCircle
 10
352.2684579562
 20
152.6337699422
 30
0.0
 40
0.6000000000000089
  0
CIRCLE
  5
2B1
330
1F
100
AcDbEntity
  8
0
  6
CONTINUOUS
 62
     7
100
AcDbCircle
 10
348.7329240502
 20
156.1693038482
 30
0.0
 40
0.5999999999999888
  0
CIRCLE
  5
2B2
330
1F
100
AcDbEntity
  8
0
  6
CONTINUOUS
 62
     7
100
AcDbCircle
 10
348.7329240502
 20
152.6337699422
 30
0.0
 40
0.5999999999999888
  0
LINE
  5
2B3
330
1F
100
AcDbEntity
  8
0
  6
CONTINUOUS
 62
     7
100
AcDbLine
 10
346.7452020564
 20
155.0515368952
 30
0.0
 11
346.9506910032
 21
155.0515368952
 31
0.0
  0
CIRCLE
  5
2B4
330
1F
100
AcDbEntity
  8
0
  6
CONTINUOUS
 62
     7
100
AcDbCircle
 10
350.5006910032
 20
154.4015368952
 30
0.0
 40
6.099999999999973
  0
CIRCLE
  5
2B5
330
1F
100
AcDbEntity
  8
0
  6
CONTINUOUS
 62
     7
100
AcDbCircle
 10
350.5006910032
 20
154.4015368952
 30
0.0
 40
5.499999999999984
  0
CIRCLE
  5
2B6
330
1F
100
AcDbEntity
  8
0
  6
CONTINUOUS
 62
     7
100
AcDbCircle
 10
350.5006910032
 20
154.4015368952
 30
0.0
 40
6.900000000000052
  0
CIRCLE
  5
2B7
330
1F
100
AcDbEntity
  8
0
  6
CONTINUOUS
 62
     7
100
AcDbCircle
 10
350.5006910032
 20
154.4015368952
 30
0.0
 40
7.50000000000002
  0
ARC
  5
2B8
330
1F
100
AcDbEntity
  8
0
  6
CONTINUOUS
 62
     7
100
AcDbCircle
 10
350.5006910032
 20
154.4015368952
 30
0.0
 40
4.100000000000037
100
AcDbArc
 50
170.8780353926
 51
189.1219646074
  0
SPLINE
  5
2B9
330
1F
100
AcDbEntity
  8
0
  6
CONTINUOUS
 62
     7
100
AcDbSpline
210
0.0
220
0.0
230
1.0
 70
     8
 71
     3
 72
    17
 73
    13
 74
     0
 42
0.000000001
 43
0.00000001
 40
0.0
 40
0.0
 40
0.0
 40
0.0
 40
0.1639384663354443
 40
0.3053509771384505
 40
0.4227992546610823
 40
0.5216910591108272
 40
0.601114661793619
 40
0.6627190511531745
 40
0.772139624024144
 40
0.8670166830084507
 40
0.9550487655497144
 40
1.0
 40
1.0
 40
1.0
 40
1.0
 10
74.53144056537975
 20
149.4305602886429
 30
0.0
 10
74.97299681989834
 20
149.1637153263625
 30
0.0
 10
75.79543731719424
 20
148.6666912184873
 30
0.0
 10
77.08852897139715
 20
148.3322295933413
 30
0.0
 10
78.20507589037805
 20
148.2455452758535
 30
0.0
 10
79.12968920961096
 20
148.3316763100951
 30
0.0
 10
79.86477573814946
 20
148.5091199120044
 30
0.0
 10
80.5991295676173
 20
148.7737447993058
 30
0.0
 10
81.3450457576552
 20
149.1418803205808
 30
0.0
 10
82.08513782293221
 20
149.6698768107166
 30
0.0
 10
82.61262204927702
 20
150.1453282505934
 30
0.0
 10
82.86424400263591
 20
150.478911753047
 30
0.0
 10
82.94929765954681
 20
150.591670184456
 30
0.0
  0
SPLINE
  5
2BA
330
1F
100
AcDbEntity
  8
0
  6
CONTINUOUS
 62
     7
100
AcDbSpline
210
0.0
220
0.0
230
1.0
 70
     8
 71
     3
 72
    19
 73
    15
 74
     0
 42
0.000000001
 43
0.00000001
 40
0.0
 40
0.0
 40
0.0
 40
0.0
 40
0.0431820546447091
 40
0.1360562303794377
 40
0.2244453746457493
 40
0.310489095546042
 40
0.3957458525754672
 40
0.480753815319273
 40
0.5738768375870297
 40
0.6776307142496989
 40
0.777486789335856
 40
0.8630900508959223
 40
0.9381801617104969
 40
1.0
 40
1.0
 40
1.0
 40
1.0
 10
82.79041882776664
 20
158.3896937260411
 30
0.0
 10
82.69013401693304
 20
158.5128906078069
 30
0.0
 10
82.37416078595561
 20
158.9010542434993
 30
0.0
 10
81.71893410867894
 20
159.4112043478954
 30
0.0
 10
80.88420811020904
 20
159.9088363868457
 30
0.0
 10
80.00365109565078
 20
160.2596137337388
 30
0.0
 10
79.0874302836487
 20
160.4780480730675
 30
0.0
 10
78.11845863997935
 20
160.5585142292034
 30
0.0
 10
77.08156370936918
 20
160.4757493746048
 30
0.0
 10
76.03253915710927
 20
160.1906007360624
 30
0.0
 10
75.07047867149254
 20
159.7482945021392
 30
0.0
 10
74.27954587140366
 20
159.2177003948047
 30
0.0
 10
73.67334940334698
 20
158.6789413453633
 30
0.0
 10
73.36236879582489
 20
158.2818931544252
 30
0.0
 10
73.221949702881
 20
158.1026114066957
 30
0.0
  0
CIRCLE
  5
2BB
330
1F
100
AcDbEntity
  8
0
  6
CONTINUOUS
 62
     7
100
AcDbCircle
 10
78.1348718133
 20
154.4015368952
 30
0.0
 40
2.899999999999977
  0
CIRCLE
  5
2BC
330
1F
100
AcDbEntity
  8
0
  6
CONTINUOUS
 62
     7
100
AcDbCircle
 10
78.1348718133
 20
154.4015368952
 30
0.0
 40
3.399999999999977
  0
CIRCLE
  5
2BD
330
1F
100
AcDbEntity
  8
0
  6
CONTINUOUS
 62
     7
100
AcDbCircle
 10
79.8848718133
 20
154.4015368952
 30
0.0
 40
0.5
  0
CIRCLE
  5
2BE
330
1F
100
AcDbEntity
  8
0
  6
CONTINUOUS
 62
     7
100
AcDbCircle
 10
78.1348718133
 20
156.1515368952
 30
0.0
 40
0.5
  0
CIRCLE
  5
2BF
330
1F
100
AcDbEntity
  8
0
  6
CONTINUOUS
 62
     7
100
AcDbCircle
 10
78.1348718133
 20
152.6515368952
 30
0.0
 40
0.5
  0
ARC
  5
2C0
330
1F
100
AcDbEntity
  8
0
  6
CONTINUOUS
 62
     7
100
AcDbCircle
 10
78.1348718133
 20
154.4015368952
 30
0.0
 40
4.00000000000001
100
AcDbArc
 50
288.1948723388
 51
71.8051276612
  0
SPLINE
  5
2C1
330
1F
100
AcDbEntity
  8
0
  6
CONTINUOUS
 62
     7
100
AcDbSpline
210
0.0
220
0.0
230
1.0
 70
    24
 71
     3
 72
    10
 73
     6
 74
     0
 42
0.000000001
 43
0.00000001
 40
0.0
 40
0.0
 40
0.0
 40
0.0
 40
0.5
 40
0.5
 40
1.0
 40
1.0
 40
1.0
 40
1.0
 10
76.88587221359246
 20
150.6015368951934
 30
0.0
 10
77.32411768716426
 20
150.6015368951934
 30
0.0
 10
77.72921382363259
 20
150.6015368951934
 30
0.0
 10
78.54052980291168
 20
150.6015368951934
 30
0.0
 10
78.94562593938
 20
150.6015368951934
 30
0.0
 10
79.3838714129518
 20
150.6015368951934
 30
0.0
  0
ARC
  5
2C2
330
1F
100
AcDbEntity
  8
0
  6
CONTINUOUS
 62
     7
100
AcDbCircle
 10
78.1348718133
 20
154.4015368952
 30
0.0
 40
4.000000000000005
100
AcDbArc
 50
108.1948723388
 51
251.8051276612
  0
SPLINE
  5
2C3
330
1F
100
AcDbEntity
  8
0
  6
CONTINUOUS
 62
     7
100
AcDbSpline
210
0.0
220
0.0
230
1.0
 70
    24
 71
     3
 72
    10
 73
     6
 74
     0
 42
0.000000001
 43
0.00000001
 40
0.0
 40
0.0
 40
0.0
 40
0.0
 40
0.5
 40
0.5
 40
1.0
 40
1.0
 40
1.0
 40
1.0
 10
79.3838714129518
 20
158.2015368951934
 30
0.0
 10
78.94562593937998
 20
158.2015368951934
 30
0.0
 10
78.54052980291168
 20
158.2015368951934
 30
0.0
 10
77.72921382363258
 20
158.2015368951934
 30
0.0
 10
77.32411768716426
 20
158.2015368951934
 30
0.0
 10
76.88587221359245
 20
158.2015368951934
 30
0.0
  0
CIRCLE
  5
2C4
330
1F
100
AcDbEntity
  8
0
  6
CONTINUOUS
 62
     7
100
AcDbCircle
 10
78.1348718133
 20
154.4015368952
 30
0.0
 40
5.0
  0
CIRCLE
  5
2C5
330
1F
100
AcDbEntity
  8
0
  6
CONTINUOUS
 62
     7
100
AcDbCircle
 10
78.1348718133
 20
154.4015368952
 30
0.0
 40
4.699999999999989
  0
LINE
  5
2C6
330
1F
100
AcDbEntity
  8
0
  6
CONTINUOUS
 62
     7
100
AcDbLine
 10
83.0550298126
 20
155.2915061427
 30
0.0
 11
83.1042313926
 21
155.3004058351
 31
0.0
  0
LINE
  5
2C7
330
1F
100
AcDbEntity
  8
0
  6
CONTINUOUS
 62
     7
100
AcDbLine
 10
83.1348718133
 20
154.4015368952
 30
0.0
 11
83.1848718133
 21
154.4015368952
 31
0.0
  0
SPLINE
  5
2C8
330
1F
100
AcDbEntity
  8
0
  6
CONTINUOUS
 62
     7
100
AcDbSpline
210
0.0
220
0.0
230
1.0
 70
     8
 71
     3
 72
    20
 73
    16
 74
     0
 42
0.000000001
 43
0.00000001
 40
0.0
 40
0.0
 40
0.0
 40
0.0
 40
0.0308248862303028
 40
0.0616497724606056
 40
0.077062215575757
 40
0.10788710180606
 40
0.123299544921211
 40
0.154124431151514
 40
0.169536874266665
 40
0.200361760496968
 40
0.21577420361212
 40
0.246599089842422
 40
0.262011532957574
 40
0.308248862303028
 40
0.369898634763634
 40
0.369898634763634
 40
0.369898634763634
 40
0.369898634763634
 10
83.10423139261646
 20
155.3004058351277
 30
0.0
 10
83.1086994545986
 20
155.2757043401427
 30
0.0
 10
83.11726721730697
 20
155.2262347201353
 30
0.0
 10
83.1270536303448
 20
155.1642448700043
 30
0.0
 10
83.13614595024515
 20
155.1021507405389
 30
0.0
 10
83.14286392340358
 20
155.0523961559224
 30
0.0
 10
83.15056513659086
 20
154.9901141961575
 30
0.0
 10
83.15616859054929
 20
154.9402218003734
 30
0.0
 10
83.16247484422641
 20
154.8777831716125
 30
0.0
 10
83.16696097534432
 20
154.8277779270792
 30
0.0
 10
83.17186911442693
 20
154.7652138689643
 30
0.0
 10
83.17523567801355
 20
154.7151207945633
 30
0.0
 10
83.17944476143556
 20
154.6399309725251
 30
0.0
 10
83.1835615507599
 20
154.5395997604008
 30
0.0
 10
83.18487181327211
 20
154.4517415735559
 30
0.0
 10
83.18487181327211
 20
154.4015368951934
 30
0.0
  0
LINE
  5
2C9
330
1F
100
AcDbEntity
  8
0
  6
CONTINUOUS
 62
     7
100
AcDbLine
 10
83.0550298126
 20
153.5115676477
 30
0.0
 11
83.1042313926
 21
153.5026679553
 31
0.0
  0
SPLINE
  5
2CA
330
1F
100
AcDbEntity
  8
0
  6
CONTINUOUS
 62
     7
100
AcDbSpline
210
0.0
220
0.0
230
1.0
 70
     8
 71
     3
 72
    20
 73
    16
 74
     0
 42
0.000000001
 43
0.00000001
 40
0.0
 40
0.0
 40
0.0
 40
0.0
 40
0.0308248862303028
 40
0.0616497724606056
 40
0.077062215575757
 40
0.10788710180606
 40
0.123299544921211
 40
0.154124431151514
 40
0.169536874266665
 40
0.200361760496968
 40
0.21577420361212
 40
0.246599089842422
 40
0.262011532957574
 40
0.308248862303028
 40
0.369898634763634
 40
0.369898634763634
 40
0.369898634763634
 40
0.369898634763634
 10
83.18487181327211
 20
154.4015368951934
 30
0.0
 10
83.18487181327211
 20
154.3764345560121
 30
0.0
 10
83.18449747441936
 20
154.3262298776253
 30
0.0
 10
83.18309380204373
 20
154.2634879848958
 30
0.0
 10
83.18098855900739
 20
154.2007670223156
 30
0.0
 10
83.1787432468366
 20
154.1506111809113
 30
0.0
 10
83.17523567819777
 20
154.0879529958198
 30
0.0
 10
83.17186911437527
 20
154.0378599214345
 30
0.0
 10
83.16696097538023
 20
153.9752958633134
 30
0.0
 10
83.16247484419213
 20
153.9252906187863
 30
0.0
 10
83.15616859060225
 20
153.862851990016
 30
0.0
 10
83.15056513640894
 20
153.8129595942584
 30
0.0
 10
83.1413236816355
 20
153.7382212424232
 30
0.0
 10
83.12751639375047
 20
153.6387593960602
 30
0.0
 10
83.11316751658072
 20
153.5520709452291
 30
0.0
 10
83.10423139261646
 20
153.502667955259
 30
0.0
  0
CIRCLE
  5
2CB
330
1F
100
AcDbEntity
  8
0
  6
CONTINUOUS
 62
     7
100
AcDbCircle
 10
78.1348718133
 20
154.4015368952
 30
0.0
 40
5.250000000000028
  0
SPLINE
  5
2CC
330
1F
100
AcDbEntity
  8
0
  6
CONTINUOUS
 62
     7
100
AcDbSpline
210
0.0
220
0.0
230
1.0
 70
     8
 71
     3
 72
     9
 73
     5
 74
     0
 42
0.000000001
 43
0.00000001
 40
-0.9590928350548003
 40
-0.9590928350548003
 40
-0.9590928350548003
 40
-0.9590928350548003
 40
-0.575514414706791
 40
0.0
 40
0.0
 40
0.0
 40
0.0
 10
71.9017670814214
 20
154.4015376762686
 30
0.0
 10
71.90374960620602
 20
155.6922050074991
 30
0.0
 10
72.93550084608871
 20
158.9385664959329
 30
0.0
 10
76.20483176243175
 20
160.275483963754
 30
0.0
 10
78.13486676949671
 20
160.2578323981207
 30
0.0
  0
SPLINE
  5
2CD
330
1F
100
AcDbEntity
  8
0
  6
CONTINUOUS
 62
     7
100
AcDbSpline
210
0.0
220
0.0
230
1.0
 70
     8
 71
     3
 72
    13
 73
     9
 74
     0
 42
0.000000001
 43
0.00000001
 40
-1.91877828363591
 40
-1.91877828363591
 40
-1.91877828363591
 40
-1.91877828363591
 40
-1.34327029432336
 40
-0.959598301448329
 40
-0.959598301448329
 40
-0.575758981030837
 40
-0.383839320822091
 40
-0.0000000004045992
 40
-0.0000000004045992
 40
-0.0000000004045992
 40
-0.0000000004045992
 10
78.13486677366282
 20
160.2578323981207
 30
0.0
 10
80.07829220129071
 20
160.2737670756314
 30
0.0
 10
83.33608460527238
 20
158.9231284992166
 30
0.0
 10
84.36881174582118
 20
155.6945417412249
 30
0.0
 10
84.36758706621751
 20
153.1059086442874
 30
0.0
 10
83.74410993229053
 20
151.1667537832349
 30
0.0
 10
81.36400650012686
 20
149.0479341831025
 30
0.0
 10
79.41950524764567
 20
148.5470870235671
 30
0.0
 10
78.13487683754784
 20
148.5452413922661
 30
0.0
  0
SPLINE
  5
2CE
330
1F
100
AcDbEntity
  8
0
  6
CONTINUOUS
 62
     7
100
AcDbSpline
210
0.0
220
0.0
230
1.0
 70
     8
 71
     3
 72
    11
 73
     7
 74
     0
 42
0.000000001
 43
0.00000001
 40
-1.91752873581611
 40
-1.91752873581611
 40
-1.91752873581611
 40
-1.91752873581611
 40
-1.34252590903323
 40
-0.9591906911779849
 40
-0.9591906911779849
 40
-0.9590928350548003
 40
-0.9590928350548003
 40
-0.9590928350548003
 40
-0.9590928350548003
 10
78.13487683348309
 20
148.5452413922661
 30
0.0
 10
76.1927858694365
 20
148.5321972658403
 30
0.0
 10
72.93827574659613
 20
149.8687121349006
 30
0.0
 10
71.89999377444866
 20
153.1107048107672
 30
0.0
 10
71.90176609660945
 20
154.4008791428433
 30
0.0
 10
71.90176657565209
 20
154.4012084093061
 30
0.0
 10
71.90176708142138
 20
154.4015376762686
 30
0.0
  0
SPLINE
  5
2CF
330
1F
100
AcDbEntity
  8
0
  6
CONTINUOUS
 62
     7
100
AcDbSpline
210
0.0
220
0.0
230
1.0
 70
     8
 71
     3
 72
     8
 73
     4
 74
     0
 42
0.000000001
 43
0.00000001
 40
0.0
 40
0.0
 40
0.0
 40
0.0
 40
0.3867101074870962
 40
0.3867101074870962
 40
0.3867101074870962
 40
0.3867101074870962
 10
78.13486797049796
 20
160.2578323871367
 30
0.0
 10
78.1348686797002
 20
160.2607323570333
 30
0.0
 10
78.13486939964851
 20
160.2599681833878
 30
0.0
 10
78.13487002967807
 20
160.2564379636011
 30
0.0
  0
LINE
  5
2D0
330
1F
100
AcDbEntity
  8
0
  6
CONTINUOUS
 62
     7
100
AcDbLine
 10
84.2341901997
 20
153.1515368952
 30
0.0
 11
84.3991670085
 21
153.1515368952
 31
0.0
  0
LINE
  5
2D1
330
1F
100
AcDbEntity
  8
0
  6
CONTINUOUS
 62
     7
100
AcDbLine
 10
84.2345664411
 20
155.6515368952
 30
0.0
 11
84.3979626207
 21
155.6515368952
 31
0.0
  0
SPLINE
  5
2D2
330
1F
100
AcDbEntity
  8
0
  6
CONTINUOUS
 62
     7
100
AcDbSpline
210
0.0
220
0.0
230
1.0
 70
     8
 71
     3
 72
    16
 73
    12
 74
     0
 42
0.000000001
 43
0.00000001
 40
0.0
 40
0.0
 40
0.0
 40
0.0
 40
0.08352090427422
 40
0.1674551233032907
 40
0.2518942013273302
 40
0.3777362554976356
 40
0.5035937519431112
 40
0.6279976931705886
 40
0.7514336252286713
 40
0.8743410589458603
 40
1.0
 40
1.0
 40
1.0
 40
1.0
 10
84.39916700816345
 20
153.1515368958514
 30
0.0
 10
84.41207413885243
 20
153.2203803630578
 30
0.0
 10
84.43795227295311
 20
153.3584079788967
 30
0.0
 10
84.46808853086176
 20
153.5675335376186
 30
0.0
 10
84.49583685289055
 20
153.8127126349959
 30
0.0
 10
84.51600601108925
 20
154.0939838860245
 30
0.0
 10
84.52327146734781
 20
154.409399406241
 30
0.0
 10
84.5152960764629
 20
154.7227980782883
 30
0.0
 10
84.49178536394936
 20
155.0329007998386
 30
0.0
 10
84.4540264929138
 20
155.3427227227785
 30
0.0
 10
84.41678798182986
 20
155.5478419808799
 30
0.0
 10
84.39796262029998
 20
155.6515368945083
 30
0.0
  0
ARC
  5
2D3
330
1F
100
AcDbEntity
  8
0
  6
CONTINUOUS
 62
     7
100
AcDbCircle
 10
78.1348718133
 20
154.4015368952
 30
0.0
 40
7.000000000000017
100
AcDbArc
 50
40.8419327632
 51
49.1580672368
  0
SPLINE
  5
2D4
330
1F
100
AcDbEntity
  8
0
  6
CONTINUOUS
 62
     7
100
AcDbSpline
210
0.0
220
0.0
230
1.0
 70
     8
 71
     3
 72
     8
 73
     4
 74
     0
 42
0.000000001
 43
0.00000001
 40
0.0
 40
0.0
 40
0.0
 40
0.0
 40
0.0286485978063874
 40
0.0286485978063874
 40
0.0286485978063874
 40
0.0286485978063874
 10
82.71269294204306
 20
159.6971533572286
 30
0.0
 10
82.74448352757992
 20
159.7571422319861
 30
0.0
 10
82.77640193200314
 20
159.8176081333246
 30
0.0
 10
82.8084481553127
 20
159.8785510612439
 30
0.0
  0
ARC
  5
2D5
330
1F
100
AcDbEntity
  8
0
  6
CONTINUOUS
 62
     7
100
AcDbCircle
 10
78.1348718133
 20
154.4015368952
 30
0.0
 40
7.199999999999997
100
AcDbArc
 50
40.4743694512
 51
49.5256305488
  0
SPLINE
  5
2D6
330
1F
100
AcDbEntity
  8
0
  6
CONTINUOUS
 62
     7
100
AcDbSpline
210
0.0
220
0.0
230
1.0
 70
     8
 71
     3
 72
     8
 73
     4
 74
     0
 42
0.000000001
 43
0.00000001
 40
0.0
 40
0.0
 40
0.0
 40
0.0
 40
0.0286485978063873
 40
0.0286485978063873
 40
0.0286485978063873
 40
0.0286485978063873
 10
83.6118859793227
 20
159.0751132372339
 30
0.0
 10
83.55094305140005
 20
159.0430670139226
 30
0.0
 10
83.49047715006161
 20
159.0111486094994
 30
0.0
 10
83.43048827530734
 20
158.9793580239643
 30
0.0
  0
LINE
  5
2D7
330
1F
100
AcDbEntity
  8
0
  6
CONTINUOUS
 62
     7
100
AcDbLine
 10
82.8084481553
 20
159.8785510612
 30
0.0
 11
76.8259430576
 21
161.4815584709
 31
0.0
  0
LINE
  5
2D8
330
1F
100
AcDbEntity
  8
0
  6
CONTINUOUS
 62
     7
100
AcDbLine
 10
76.8181706528
 20
161.2765858444
 30
0.0
 11
82.712692942
 21
159.6971533572
 31
0.0
  0
SPLINE
  5
2D9
330
1F
100
AcDbEntity
  8
0
  6
CONTINUOUS
 62
     7
100
AcDbSpline
210
0.0
220
0.0
230
1.0
 70
     8
 71
     3
 72
     8
 73
     4
 74
     0
 42
0.000000001
 43
0.00000001
 40
0.0
 40
0.0
 40
0.0
 40
0.0
 40
0.0286485978063874
 40
0.0286485978063874
 40
0.0286485978063874
 40
0.0286485978063874
 10
76.82594305756432
 20
161.4815584709007
 30
0.0
 10
76.82322443708591
 20
161.4127572354822
 30
0.0
 10
76.82063363549547
 20
161.3444330266488
 30
0.0
 10
76.81817065279294
 20
161.2765858444004
 30
0.0
  0
LINE
  5
2DA
330
1F
100
AcDbEntity
  8
0
  6
CONTINUOUS
 62
     7
100
AcDbLine
 10
71.0548502376
 20
155.7104656509
 30
0.0
 11
72.6578576472
 21
149.7279605532
 31
0.0
  0
SPLINE
  5
2DB
330
1F
100
AcDbEntity
  8
0
  6
CONTINUOUS
 62
     7
100
AcDbSpline
210
0.0
220
0.0
230
1.0
 70
     8
 71
     3
 72
     8
 73
     4
 74
     0
 42
0.000000001
 43
0.00000001
 40
0.0
 40
0.0
 40
0.0
 40
0.0
 40
0.0286485978063872
 40
0.0286485978063872
 40
0.0286485978063872
 40
0.0286485978063872
 10
71.25982286406509
 20
155.7182380556725
 30
0.0
 10
71.1919756818126
 20
155.7157750729698
 30
0.0
 10
71.12365147297916
 20
155.7131842713794
 30
0.0
 10
71.05485023756479
 20
155.7104656509012
 30
0.0
  0
LINE
  5
2DC
330
1F
100
AcDbEntity
  8
0
  6
CONTINUOUS
 62
     7
100
AcDbLine
 10
72.8392553512
 20
149.8237157664
 30
0.0
 11
71.2598228641
 21
155.7182380557
 31
0.0
  0
SPLINE
  5
2DD
330
1F
100
AcDbEntity
  8
0
  6
CONTINUOUS
 62
     7
100
AcDbSpline
210
0.0
220
0.0
230
1.0
 70
     8
 71
     3
 72
     8
 73
     4
 74
     0
 42
0.000000001
 43
0.00000001
 40
0.0
 40
0.0
 40
0.0
 40
0.0
 40
0.0286485978063875
 40
0.0286485978063875
 40
0.0286485978063875
 40
0.0286485978063875
 10
72.65785764722155
 20
149.7279605531528
 30
0.0
 10
72.71880057514477
 20
149.7600067764644
 30
0.0
 10
72.77926647648323
 20
149.7919251808876
 30
0.0
 10
72.83925535123689
 20
149.8237157664225
 30
0.0
  0
LINE
  5
2DE
330
1F
100
AcDbEntity
  8
0
  6
CONTINUOUS
 62
     7
100
AcDbLine
 10
75.7284265796
 20
161.187479817
 30
0.0
 11
71.3489288915
 21
156.8079821289
 31
0.0
  0
SPLINE
  5
2DF
330
1F
100
AcDbEntity
  8
0
  6
CONTINUOUS
 62
     7
100
AcDbSpline
210
0.0
220
0.0
230
1.0
 70
     8
 71
     3
 72
     8
 73
     4
 74
     0
 42
0.000000001
 43
0.00000001
 40
0.0
 40
0.0
 40
0.0
 40
0.0
 40
0.0286485978063875
 40
0.0286485978063875
 40
0.0286485978063875
 40
0.0286485978063875
 10
75.83764399283602
 20
161.0138545177077
 30
0.0
 10
75.80158739612271
 20
161.0713804097582
 30
0.0
 10
75.7651815917125
 20
161.1292555095062
 30
0.0
 10
75.72842657960538
 20
161.1874798169517
 30
0.0
  0
LINE
  5
2E0
330
1F
100
AcDbEntity
  8
0
  6
CONTINUOUS
 62
     7
100
AcDbLine
 10
71.5225541908
 20
156.6987647156
 30
0.0
 11
75.8376439928
 21
161.0138545177
 31
0.0
  0
SPLINE
  5
2E1
330
1F
100
AcDbEntity
  8
0
  6
CONTINUOUS
 62
     7
100
AcDbSpline
210
0.0
220
0.0
230
1.0
 70
     8
 71
     3
 72
     8
 73
     4
 74
     0
 42
0.000000001
 43
0.00000001
 40
0.0
 40
0.0
 40
0.0
 40
0.0
 40
0.0286485978063873
 40
0.0286485978063873
 40
0.0286485978063873
 40
0.0286485978063873
 10
71.34892889151375
 20
156.8079821288601
 30
0.0
 10
71.40715319896051
 20
156.7712271167522
 30
0.0
 10
71.46502829870852
 20
156.734821312342
 30
0.0
 10
71.52255419075773
 20
156.6987647156295
 30
0.0
  0
LINE
  5
2E2
330
1F
100
AcDbEntity
  8
0
  6
CONTINUOUS
 62
     7
100
AcDbLine
 10
80.5413170469
 20
147.6155939734
 30
0.0
 11
84.920814735
 21
151.9950916615
 31
0.0
  0
SPLINE
  5
2E3
330
1F
100
AcDbEntity
  8
0
  6
CONTINUOUS
 62
     7
100
AcDbSpline
210
0.0
220
0.0
230
1.0
 70
     8
 71
     3
 72
     8
 73
     4
 74
     0
 42
0.000000001
 43
0.00000001
 40
0.0
 40
0.0
 40
0.0
 40
0.0
 40
0.0286485978063876
 40
0.0286485978063876
 40
0.0286485978063876
 40
0.0286485978063876
 10
80.43209963370822
 20
147.789219272679
 30
0.0
 10
80.46815623042302
 20
147.7316933806261
 30
0.0
 10
80.50456203483323
 20
147.6738182808781
 30
0.0
 10
80.54131704693886
 20
147.615593973435
 30
0.0
  0
LINE
  5
2E4
330
1F
100
AcDbEntity
  8
0
  6
CONTINUOUS
 62
     7
100
AcDbLine
 10
84.7471894358
 20
152.1043090748
 30
0.0
 11
80.4320996337
 21
147.7892192727
 31
0.0
  0
SPLINE
  5
2E5
330
1F
100
AcDbEntity
  8
0
  6
CONTINUOUS
 62
     7
100
AcDbSpline
210
0.0
220
0.0
230
1.0
 70
     8
 71
     3
 72
     8
 73
     4
 74
     0
 42
0.000000001
 43
0.00000001
 40
0.0
 40
0.0
 40
0.0
 40
0.0
 40
0.0286485978063874
 40
0.0286485978063874
 40
0.0286485978063874
 40
0.0286485978063874
 10
84.92081473503049
 20
151.9950916615266
 30
0.0
 10
84.86259042758732
 20
152.0318466736323
 30
0.0
 10
84.80471532783932
 20
152.0682524780425
 30
0.0
 10
84.74718943578651
 20
152.1043090747573
 30
0.0
  0
ARC
  5
2E6
330
1F
100
AcDbEntity
  8
0
  6
CONTINUOUS
 62
     7
100
AcDbCircle
 10
78.1348718133
 20
154.4015368952
 30
0.0
 40
7.000000000000005
100
AcDbArc
 50
100.8419327632
 51
109.1580672368
  0
ARC
  5
2E7
330
1F
100
AcDbEntity
  8
0
  6
CONTINUOUS
 62
     7
100
AcDbCircle
 10
78.1348718133
 20
154.4015368952
 30
0.0
 40
7.199999999999998
100
AcDbArc
 50
100.4743694512
 51
109.5256305488
  0
ARC
  5
2E8
330
1F
100
AcDbEntity
  8
0
  6
CONTINUOUS
 62
     7
100
AcDbCircle
 10
78.1348718133
 20
154.4015368952
 30
0.0
 40
7.200000000000014
100
AcDbArc
 50
160.4743694512
 51
169.5256305488
  0
ARC
  5
2E9
330
1F
100
AcDbEntity
  8
0
  6
CONTINUOUS
 62
     7
100
AcDbCircle
 10
78.1348718133
 20
154.4015368952
 30
0.0
 40
7.000000000000009
100
AcDbArc
 50
160.8419327632
 51
169.1580672368
  0
ARC
  5
2EA
330
1F
100
AcDbEntity
  8
0
  6
CONTINUOUS
 62
     7
100
AcDbCircle
 10
78.1348718133
 20
154.4015368952
 30
0.0
 40
6.999999999999996
100
AcDbArc
 50
340.8419327632
 51
349.1580672368
  0
SPLINE
  5
2EB
330
1F
100
AcDbEntity
  8
0
  6
CONTINUOUS
 62
     7
100
AcDbSpline
210
0.0
220
0.0
230
1.0
 70
     8
 71
     3
 72
     8
 73
     4
 74
     0
 42
0.000000001
 43
0.00000001
 40
0.0
 40
0.0
 40
0.0
 40
0.0
 40
0.0286485978063873
 40
0.0286485978063873
 40
0.0286485978063873
 40
0.0286485978063873
 10
85.00992076247915
 20
153.0848357347142
 30
0.0
 10
85.07776794472441
 20
153.0872987174166
 30
0.0
 10
85.14609215355784
 20
153.089889519007
 30
0.0
 10
85.21489338897945
 20
153.0926081394855
 30
0.0
  0
ARC
  5
2EC
330
1F
100
AcDbEntity
  8
0
  6
CONTINUOUS
 62
     7
100
AcDbCircle
 10
78.1348718133
 20
154.4015368952
 30
0.0
 40
7.199999999999997
100
AcDbArc
 50
340.4743694512
 51
349.5256305488
  0
ARC
  5
2ED
330
1F
100
AcDbEntity
  8
0
  6
CONTINUOUS
 62
     7
100
AcDbCircle
 10
78.1348718133
 20
154.4015368952
 30
0.0
 40
7.200000000000015
100
AcDbArc
 50
220.4743694512
 51
229.5256305488
  0
ARC
  5
2EE
330
1F
100
AcDbEntity
  8
0
  6
CONTINUOUS
 62
     7
100
AcDbCircle
 10
78.1348718133
 20
154.4015368952
 30
0.0
 40
7.000000000000008
100
AcDbArc
 50
220.8419327632
 51
229.1580672368
  0
SPLINE
  5
2EF
330
1F
100
AcDbEntity
  8
0
  6
CONTINUOUS
 62
     7
100
AcDbSpline
210
0.0
220
0.0
230
1.0
 70
     8
 71
     3
 72
     8
 73
     4
 74
     0
 42
0.000000001
 43
0.00000001
 40
0.0
 40
0.0
 40
0.0
 40
0.0
 40
0.0286485978063877
 40
0.0286485978063877
 40
0.0286485978063877
 40
0.0286485978063877
 10
73.55705068450119
 20
149.1059204331582
 30
0.0
 10
73.52526009896529
 20
149.0459315584024
 30
0.0
 10
73.49334169454207
 20
148.9854656570639
 30
0.0
 10
73.46129547123152
 20
148.9245227291428
 30
0.0
  0
LINE
  5
2F0
330
1F
100
AcDbEntity
  8
0
  6
CONTINUOUS
 62
     7
100
AcDbLine
 10
85.214893389
 20
153.0926081395
 30
0.0
 11
83.6118859793
 21
159.0751132372
 31
0.0
  0
LINE
  5
2F1
330
1F
100
AcDbEntity
  8
0
  6
CONTINUOUS
 62
     7
100
AcDbLine
 10
83.4304882753
 20
158.979358024
 30
0.0
 11
84.3221752593
 21
155.6515368952
 31
0.0
  0
LINE
  5
2F2
330
1F
100
AcDbEntity
  8
0
  6
CONTINUOUS
 62
     7
100
AcDbLine
 10
84.4423219727
 20
155.2031432564
 30
0.0
 11
85.0099207625
 21
153.0848357347
 31
0.0
  0
ARC
  5
2F3
330
1F
100
AcDbEntity
  8
0
  6
CONTINUOUS
 62
     7
100
AcDbCircle
 10
78.1348718133
 20
154.4015368952
 30
0.0
 40
7.200000000000023
100
AcDbArc
 50
280.4743694512
 51
289.5256305488
  0
SPLINE
  5
2F4
330
1F
100
AcDbEntity
  8
0
  6
CONTINUOUS
 62
     7
100
AcDbSpline
210
0.0
220
0.0
230
1.0
 70
     8
 71
     3
 72
     8
 73
     4
 74
     0
 42
0.000000001
 43
0.00000001
 40
0.0
 40
0.0
 40
0.0
 40
0.0
 40
0.0286485978063874
 40
0.0286485978063874
 40
0.0286485978063874
 40
0.0286485978063874
 10
79.44380056897992
 20
147.321515319486
 30
0.0
 10
79.44651918945827
 20
147.3903165549036
 30
0.0
 10
79.44910999104873
 20
147.4586407637371
 30
0.0
 10
79.45157297375127
 20
147.5264879459863
 30
0.0
  0
ARC
  5
2F5
330
1F
100
AcDbEntity
  8
0
  6
CONTINUOUS
 62
     7
100
AcDbCircle
 10
78.1348718133
 20
154.4015368952
 30
0.0
 40
7.000000000000018
100
AcDbArc
 50
280.8419327632
 51
289.1580672368
  0
LINE
  5
2F6
330
1F
100
AcDbEntity
  8
0
  6
CONTINUOUS
 62
     7
100
AcDbLine
 10
79.4515729738
 20
147.526487946
 30
0.0
 11
73.5570506845
 21
149.1059204332
 31
0.0
  0
LINE
  5
2F7
330
1F
100
AcDbEntity
  8
0
  6
CONTINUOUS
 62
     7
100
AcDbLine
 10
73.4612954712
 20
148.9245227291
 30
0.0
 11
79.443800569
 21
147.3215153195
 31
0.0
  0
CIRCLE
  5
2F8
330
1F
100
AcDbEntity
  8
0
  6
CONTINUOUS
 62
     7
100
AcDbCircle
 10
78.1348718133
 20
154.4015368952
 30
0.0
 40
7.499999999999949
  0
LINE
  5
2F9
330
1F
100
AcDbEntity
  8
0
  6
CONTINUOUS
 62
     7
100
AcDbLine
 10
426.7355628165
 20
159.4015368952
 30
0.0
 11
426.4355628165
 21
159.1015368952
 31
0.0
  0
LINE
  5
2FA
330
1F
100
AcDbEntity
  8
0
  6
CONTINUOUS
 62
     7
100
AcDbLine
 10
426.4355628165
 20
149.7015368952
 30
0.0
 11
426.7355628165
 21
149.4015368952
 31
0.0
  0
LINE
  5
2FB
330
1F
100
AcDbEntity
  8
0
  6
CONTINUOUS
 62
     7
100
AcDbLine
 10
426.7355628165
 20
149.4015368952
 30
0.0
 11
429.7355628165
 21
149.4015368952
 31
0.0
  0
LINE
  5
2FC
330
1F
100
AcDbEntity
  8
0
  6
CONTINUOUS
 62
     7
100
AcDbLine
 10
429.7355628165
 20
159.4015368952
 30
0.0
 11
426.7355628165
 21
159.4015368952
 31
0.0
  0
ARC
  5
2FD
330
1F
100
AcDbEntity
  8
0
  6
CONTINUOUS
 62
     7
100
AcDbCircle
 10
429.7355628165
 20
149.6015368952
 30
0.0
 40
0.1999999999999886
100
AcDbArc
 50
270.0
 51
330.0
  0
ARC
  5
2FE
330
1F
100
AcDbEntity
  8
0
  6
CONTINUOUS
 62
     7
100
AcDbCircle
 10
429.7355628165
 20
159.2015368952
 30
0.0
 40
0.1999999999999886
100
AcDbArc
 50
30.0
 51
90.0
  0
ARC
  5
2FF
330
1F
100
AcDbEntity
  8
0
  6
CONTINUOUS
 62
     7
100
AcDbCircle
 10
449.0559547485
 20
152.6515368952
 30
0.0
 40
2.999999999999881
100
AcDbArc
 50
270.0
 51
288.1659565292
  0
ARC
  5
300
330
1F
100
AcDbEntity
  8
0
  6
CONTINUOUS
 62
     7
100
AcDbCircle
 10
449.0559547485
 20
156.1515368952
 30
0.0
 40
2.999999999999886
100
AcDbArc
 50
71.8340434708
 51
90.0
  0
LINE
  5
301
330
1F
100
AcDbEntity
  8
0
  6
CONTINUOUS
 62
     7
100
AcDbLine
 10
435.5380426854
 20
159.1515368952
 30
0.0
 11
433.7355628165
 21
159.1515368952
 31
0.0
  0
LINE
  5
302
330
1F
100
AcDbEntity
  8
0
  6
CONTINUOUS
 62
     7
100
AcDbLine
 10
449.0559547485
 20
159.1515368952
 30
0.0
 11
447.43376247
 21
159.1515368952
 31
0.0
  0
LINE
  5
303
330
1F
100
AcDbEntity
  8
0
  6
CONTINUOUS
 62
     7
100
AcDbLine
 10
447.4330067997
 20
149.6515368952
 30
0.0
 11
449.0559547485
 21
149.6515368952
 31
0.0
  0
LINE
  5
304
330
1F
100
AcDbEntity
  8
0
  6
CONTINUOUS
 62
     7
100
AcDbLine
 10
433.7355628165
 20
149.6515368952
 30
0.0
 11
435.5381504735
 21
149.6515368952
 31
0.0
  0
LINE
  5
305
330
1F
100
AcDbEntity
  8
0
  6
CONTINUOUS
 62
     7
100
AcDbLine
 10
449.9912660022
 20
149.801064503
 30
0.0
 11
452.5979169001
 21
150.6563718289
 31
0.0
  0
LINE
  5
306
330
1F
100
AcDbEntity
  8
0
  6
CONTINUOUS
 62
     7
100
AcDbLine
 10
452.5979169001
 20
158.1467019615
 30
0.0
 11
449.9912660022
 21
159.0020092874
 31
0.0
  0
LINE
  5
307
330
1F
100
AcDbEntity
  8
0
  6
CONTINUOUS
 62
     7
100
AcDbLine
 10
421.5355628165
 20
158.2015368952
 30
0.0
 11
421.1355628165
 21
157.8015368952
 31
0.0
  0
LINE
  5
308
330
1F
100
AcDbEntity
  8
0
  6
CONTINUOUS
 62
     7
100
AcDbLine
 10
421.1355628165
 20
151.0015368952
 30
0.0
 11
421.5355628165
 21
150.6015368952
 31
0.0
  0
ARC
  5
309
330
1F
100
AcDbEntity
  8
0
  6
CONTINUOUS
 62
     7
100
AcDbCircle
 10
455.7355628165
 20
157.9740517178
 30
0.0
 40
0.2000000000000455
100
AcDbArc
 50
71.5650511771
 51
180.0
  0
ARC
  5
30A
330
1F
100
AcDbEntity
  8
0
  6
CONTINUOUS
 62
     7
100
AcDbCircle
 10
455.7355628165
 20
150.8290220725
 30
0.0
 40
0.2000000000000455
100
AcDbArc
 50
180.0
 51
288.4349488229
  0
LINE
  5
30B
330
1F
100
AcDbEntity
  8
0
  6
CONTINUOUS
 62
     7
100
AcDbLine
 10
455.7988083697
 20
150.6392854129
 30
0.0
 11
457.0355628165
 21
151.0515368952
 31
0.0
  0
LINE
  5
30C
330
1F
100
AcDbEntity
  8
0
  6
CONTINUOUS
 62
     7
100
AcDbLine
 10
457.0355628165
 20
157.7515368952
 30
0.0
 11
455.7988083697
 21
158.1637883775
 31
0.0
  0
ARC
  5
30D
330
1F
100
AcDbEntity
  8
0
  6
CONTINUOUS
 62
     7
100
AcDbCircle
 10
452.5355628165
 20
157.9566704687
 30
0.0
 40
0.2000000000000455
100
AcDbArc
 50
0.0
 51
71.8340434708
  0
ARC
  5
30E
330
1F
100
AcDbEntity
  8
0
  6
CONTINUOUS
 62
     7
100
AcDbCircle
 10
452.5355628165
 20
150.8464033217
 30
0.0
 40
0.2000000000000455
100
AcDbArc
 50
288.1659565292
 51
0.0
  0
ARC
  5
30F
330
1F
100
AcDbEntity
  8
0
  6
CONTINUOUS
 62
     7
100
AcDbCircle
 10
452.9355628165
 20
157.9515368952
 30
0.0
 40
0.2000000000000455
100
AcDbArc
 50
180.0
 51
270.0
  0
ARC
  5
310
330
1F
100
AcDbEntity
  8
0
  6
CONTINUOUS
 62
     7
100
AcDbCircle
 10
452.9355628165
 20
150.8515368952
 30
0.0
 40
0.2000000000000455
100
AcDbArc
 50
90.0
 51
180.0
  0
LINE
  5
311
330
1F
100
AcDbEntity
  8
0
  6
CONTINUOUS
 62
     7
100
AcDbLine
 10
418.6355628165
 20
151.0015368952
 30
0.0
 11
421.1355628165
 21
151.0015368952
 31
0.0
  0
LINE
  5
312
330
1F
100
AcDbEntity
  8
0
  6
CONTINUOUS
 62
     7
100
AcDbLine
 10
421.1355628165
 20
157.8015368952
 30
0.0
 11
418.6355628165
 21
157.8015368952
 31
0.0
  0
LINE
  5
313
330
1F
100
AcDbEntity
  8
0
  6
CONTINUOUS
 62
     7
100
AcDbLine
 10
455.5355628165
 20
157.7515368952
 30
0.0
 11
452.9355628165
 21
157.7515368952
 31
0.0
  0
LINE
  5
314
330
1F
100
AcDbEntity
  8
0
  6
CONTINUOUS
 62
     7
100
AcDbLine
 10
452.9355628165
 20
151.0515368952
 30
0.0
 11
455.5355628165
 21
151.0515368952
 31
0.0
  0
LINE
  5
315
330
1F
100
AcDbEntity
  8
0
  6
CONTINUOUS
 62
     7
100
AcDbLine
 10
432.4355628165
 20
151.5015368952
 30
0.0
 11
433.7355628165
 21
151.5015368952
 31
0.0
  0
LINE
  5
316
330
1F
100
AcDbEntity
  8
0
  6
CONTINUOUS
 62
     7
100
AcDbLine
 10
433.7355628165
 20
157.3015368952
 30
0.0
 11
432.4355628165
 21
157.3015368952
 31
0.0
  0
LINE
  5
317
330
1F
100
AcDbEntity
  8
0
  6
CONTINUOUS
 62
     7
100
AcDbLine
 10
477.0355628165
 20
156.6515368952
 30
0.0
 11
457.0355628165
 21
156.6515368952
 31
0.0
  0
LINE
  5
318
330
1F
100
AcDbEntity
  8
0
  6
CONTINUOUS
 62
     7
100
AcDbLine
 10
457.0355628165
 20
152.1515368952
 30
0.0
 11
477.0355628165
 21
152.1515368952
 31
0.0
  0
LINE
  5
319
330
1F
100
AcDbEntity
  8
0
  6
CONTINUOUS
 62
     7
100
AcDbLine
 10
432.2355628165
 20
159.3015368952
 30
0.0
 11
429.9087678972
 21
159.3015368952
 31
0.0
  0
LINE
  5
31A
330
1F
100
AcDbEntity
  8
0
  6
CONTINUOUS
 62
     7
100
AcDbLine
 10
429.9087678972
 20
149.5015368952
 30
0.0
 11
432.2355628165
 21
149.5015368952
 31
0.0
  0
LINE
  5
31B
330
1F
100
AcDbEntity
  8
0
  6
CONTINUOUS
 62
     7
100
AcDbLine
 10
432.2355628165
 20
149.5015368952
 30
0.0
 11
432.4355628165
 21
149.7015368952
 31
0.0
  0
LINE
  5
31C
330
1F
100
AcDbEntity
  8
0
  6
CONTINUOUS
 62
     7
100
AcDbLine
 10
432.4355628165
 20
159.1015368952
 30
0.0
 11
432.2355628165
 21
159.3015368952
 31
0.0
  0
ARC
  5
31D
330
1F
100
AcDbEntity
  8
0
  6
CONTINUOUS
 62
     7
100
AcDbCircle
 10
545.3355628165
 20
161.8015368952
 30
0.0
 40
0.1000000000000227
100
AcDbArc
 50
90.0
 51
180.0
  0
ARC
  5
31E
330
1F
100
AcDbEntity
  8
0
  6
CONTINUOUS
 62
     7
100
AcDbCircle
 10
545.3355628165
 20
147.0015368952
 30
0.0
 40
0.1000000000000227
100
AcDbArc
 50
180.0
 51
270.0
  0
LINE
  5
31F
330
1F
100
AcDbEntity
  8
0
  6
CONTINUOUS
 62
     7
100
AcDbLine
 10
552.6355628165
 20
161.9015368952
 30
0.0
 11
545.3355628165
 21
161.9015368952
 31
0.0
  0
LINE
  5
320
330
1F
100
AcDbEntity
  8
0
  6
CONTINUOUS
 62
     7
100
AcDbLine
 10
545.3355628165
 20
146.9015368952
 30
0.0
 11
552.6355628165
 21
146.9015368952
 31
0.0
  0
LINE
  5
321
330
1F
100
AcDbEntity
  8
0
  6
CONTINUOUS
 62
     7
100
AcDbLine
 10
552.6355628165
 20
146.9015368952
 30
0.0
 11
553.2355628165
 21
147.5015368952
 31
0.0
  0
LINE
  5
322
330
1F
100
AcDbEntity
  8
0
  6
CONTINUOUS
 62
     7
100
AcDbLine
 10
553.2355628165
 20
161.3015368952
 30
0.0
 11
552.6355628165
 21
161.9015368952
 31
0.0
  0
SPLINE
  5
323
330
1F
100
AcDbEntity
  8
0
  6
CONTINUOUS
 62
     7
100
AcDbSpline
210
0.0
220
0.0
230
1.0
 70
     8
 71
     3
 72
    18
 73
    14
 74
     0
 42
0.000000001
 43
0.00000001
 40
0.0
 40
0.0
 40
0.0
 40
0.0
 40
0.066114838043814
 40
0.1200639338011052
 40
0.1618472986307469
 40
0.1914648435894689
 40
0.22241612018632
 40
0.2672260791302403
 40
0.3270078238221131
 40
0.4447484431836228
 40
0.5961691328436357
 40
0.7812662110686738
 40
1.0
 40
1.0
 40
1.0
 40
1.0
 10
520.0415505028789
 20
150.0016547261613
 30
0.0
 10
520.3421502292399
 20
150.0119739787069
 30
0.0
 10
520.8880365493809
 20
150.0307136457948
 30
0.0
 10
521.6243128676138
 20
150.0388976512748
 30
0.0
 10
522.1945577904785
 20
150.0378340160252
 30
0.0
 10
522.6601430275052
 20
150.0318823847516
 30
0.0
 10
523.1394202908641
 20
150.0214672715553
 30
0.0
 10
523.7557115289416
 20
150.0011243873442
 30
0.0
 10
524.7659820018224
 20
149.952010977372
 30
0.0
 10
526.2585997412219
 20
149.8403235794812
 30
0.0
 10
528.3116886250601
 20
149.6015638471042
 30
0.0
 10
530.8069521205974
 20
149.1955845455017
 30
0.0
 10
532.5919080281318
 20
148.75811509001
 30
0.0
 10
533.5587240902114
 20
148.5211610596873
 30
0.0
  0
SPLINE
  5
324
330
1F
100
AcDbEntity
  8
0
  6
CONTINUOUS
 62
     7
100
AcDbSpline
210
0.0
220
0.0
230
1.0
 70
     8
 71
     3
 72
    16
 73
    12
 74
     0
 42
0.000000001
 43
0.00000001
 40
0.0
 40
0.0
 40
0.0
 40
0.0
 40
0.203325952804669
 40
0.3745605124929332
 40
0.5136645075210449
 40
0.6206352378202536
 40
0.6830743390166111
 40
0.7323481011718349
 40
0.7998300713943038
 40
0.8890475789983023
 40
1.0
 40
1.0
 40
1.0
 40
1.0
 10
533.5587339935278
 20
160.2818592026019
 30
0.0
 10
532.6603634444172
 20
160.0603549390594
 30
0.0
 10
531.0054141935129
 20
159.6523069288206
 30
0.0
 10
528.6999360171577
 20
159.2608500016963
 30
0.0
 10
526.8162878327504
 20
159.0217828043544
 30
0.0
 10
525.4180187571557
 20
158.8974842664783
 30
0.0
 10
524.4251565837068
 20
158.8341458304251
 30
0.0
 10
523.6108346552342
 20
158.7956994113659
 30
0.0
 10
522.6741871307134
 20
158.7681882446801
 30
0.0
 10
521.4563831968571
 20
158.75822777876
 30
0.0
 10
520.5461079541162
 20
158.786018168621
 30
0.0
 10
520.041550438092
 20
158.8014221359259
 30
0.0
  0
SPLINE
  5
325
330
1F
100
AcDbEntity
  8
0
  6
CONTINUOUS
 62
     7
100
AcDbSpline
210
0.0
220
0.0
230
1.0
 70
     8
 71
     3
 72
    11
 73
     7
 74
     0
 42
0.000000001
 43
0.00000001
 40
0.0
 40
0.0
 40
0.0
 40
0.0
 40
0.2734059561680199
 40
0.5312153168830674
 40
0.7734232773270693
 40
1.0
 40
1.0
 40
1.0
 40
1.0
 10
533.5884046694661
 20
148.6683405740069
 30
0.0
 10
534.2616995275984
 20
148.5469289842987
 30
0.0
 10
535.5698807626795
 20
148.3110317968197
 30
0.0
 10
537.5068298521275
 20
148.2437478821357
 30
0.0
 10
539.32385317471
 20
148.3423386951812
 30
0.0
 10
540.4778189475109
 20
148.5506782459594
 30
0.0
 10
541.0355628164862
 20
148.6513745662927
 30
0.0
  0
SPLINE
  5
326
330
1F
100
AcDbEntity
  8
0
  6
CONTINUOUS
 62
     7
100
AcDbSpline
210
0.0
220
0.0
230
1.0
 70
     8
 71
     3
 72
    11
 73
     7
 74
     0
 42
0.000000001
 43
0.00000001
 40
0.0
 40
0.0
 40
0.0
 40
0.0
 40
0.1797324510439761
 40
0.406335527587434
 40
0.6797705570553657
 40
1.0
 40
1.0
 40
1.0
 40
1.0
 10
541.0355628164862
 20
160.1516343600944
 30
0.0
 10
540.5937261618777
 20
160.2338789611412
 30
0.0
 10
539.5948306974532
 20
160.4198159088847
 30
0.0
 10
537.8984742936506
 20
160.551716752469
 30
0.0
 10
535.8420241721545
 20
160.528466427909
 30
0.0
 10
534.3781322647773
 20
160.2726682375184
 30
0.0
 10
533.5884921367003
 20
160.1346877522081
 30
0.0
  0
SPLINE
  5
327
330
1F
100
AcDbEntity
  8
0
  6
CONTINUOUS
 62
     7
100
AcDbSpline
210
0.0
220
0.0
230
1.0
 70
     8
 71
     3
 72
     9
 73
     5
 74
     0
 42
0.000000001
 43
0.00000001
 40
0.0
 40
0.0
 40
0.0
 40
0.0
 40
0.4998571519337722
 40
1.0
 40
1.0
 40
1.0
 40
1.0
 10
534.3265847288394
 20
158.4265876009931
 30
0.0
 10
534.3232417261163
 20
158.4358297275074
 30
0.0
 10
534.3165538099586
 20
158.4543192629248
 30
0.0
 10
534.3098758560053
 20
158.4728392511333
 30
0.0
 10
534.3065359250958
 20
158.4821018907821
 30
0.0
  0
ARC
  5
328
330
1F
100
AcDbEntity
  8
0
  6
CONTINUOUS
 62
     7
100
AcDbCircle
 10
519.7041617528
 20
150.1515368952
 30
0.0
 40
1.0
100
AcDbArc
 50
250.6090340456
 51
270.0
  0
ARC
  5
329
330
1F
100
AcDbEntity
  8
0
  6
CONTINUOUS
 62
     7
100
AcDbCircle
 10
519.7041617528
 20
158.6515368952
 30
0.0
 40
1.0
100
AcDbArc
 50
90.0
 51
109.3909659544
  0
LINE
  5
32A
330
1F
100
AcDbEntity
  8
0
  6
CONTINUOUS
 62
     7
100
AcDbLine
 10
519.7041617528
 20
149.1515368952
 30
0.0
 11
519.8355628165
 21
149.1515368952
 31
0.0
  0
LINE
  5
32B
330
1F
100
AcDbEntity
  8
0
  6
CONTINUOUS
 62
     7
100
AcDbLine
 10
519.8355628165
 20
159.6515368952
 30
0.0
 11
519.7041617528
 21
159.6515368952
 31
0.0
  0
ARC
  5
32C
330
1F
100
AcDbEntity
  8
0
  6
CONTINUOUS
 62
     7
100
AcDbCircle
 10
519.8355628165
 20
149.3515368952
 30
0.0
 40
0.2000000000000455
100
AcDbArc
 50
270.0
 51
360.0
  0
ARC
  5
32D
330
1F
100
AcDbEntity
  8
0
  6
CONTINUOUS
 62
     7
100
AcDbCircle
 10
519.8355628165
 20
159.4515368952
 30
0.0
 40
0.2000000000000455
100
AcDbArc
 50
0.0
 51
90.0
  0
ARC
  5
32E
330
1F
100
AcDbEntity
  8
0
  6
CONTINUOUS
 62
     7
100
AcDbCircle
 10
526.0123974709
 20
168.0737622627
 30
0.0
 40
19.99999999999774
100
AcDbArc
 50
243.3306050211
 51
250.6090340456
  0
ARC
  5
32F
330
1F
100
AcDbEntity
  8
0
  6
CONTINUOUS
 62
     7
100
AcDbCircle
 10
526.0123974709
 20
140.7293115277
 30
0.0
 40
19.99999999999772
100
AcDbArc
 50
109.3909659544
 51
116.6693949789
  0
LINE
  5
330
330
1F
100
AcDbEntity
  8
0
  6
CONTINUOUS
 62
     7
100
AcDbLine
 10
542.7355628165
 20
158.6515368952
 30
0.0
 11
541.0355628165
 21
158.6515368952
 31
0.0
  0
LINE
  5
331
330
1F
100
AcDbEntity
  8
0
  6
CONTINUOUS
 62
     7
100
AcDbLine
 10
541.0355628165
 20
150.1515368952
 30
0.0
 11
542.7355628165
 21
150.1515368952
 31
0.0
  0
LINE
  5
332
330
1F
100
AcDbEntity
  8
0
  6
CONTINUOUS
 62
     7
100
AcDbLine
 10
554.2355628165
 20
158.5015368952
 30
0.0
 11
553.2355628165
 21
158.5015368952
 31
0.0
  0
LINE
  5
333
330
1F
100
AcDbEntity
  8
0
  6
CONTINUOUS
 62
     7
100
AcDbLine
 10
553.2355628165
 20
150.3015368952
 30
0.0
 11
554.2355628165
 21
150.3015368952
 31
0.0
  0
LINE
  5
334
330
1F
100
AcDbEntity
  8
0
  6
CONTINUOUS
 62
     7
100
AcDbLine
 10
554.2355628165
 20
150.3015368952
 30
0.0
 11
554.7355628165
 21
150.5902120298
 31
0.0
  0
LINE
  5
335
330
1F
100
AcDbEntity
  8
0
  6
CONTINUOUS
 62
     7
100
AcDbLine
 10
554.7355628165
 20
158.2128617606
 30
0.0
 11
554.2355628165
 21
158.5015368952
 31
0.0
  0
LINE
  5
336
330
1F
100
AcDbEntity
  8
0
  6
CONTINUOUS
 62
     7
100
AcDbLine
 10
497.0355628165
 20
151.9015368952
 30
0.0
 11
517.0355628165
 21
151.9015368952
 31
0.0
  0
LINE
  5
337
330
1F
100
AcDbEntity
  8
0
  6
CONTINUOUS
 62
     7
100
AcDbLine
 10
517.0355628165
 20
156.9015368952
 30
0.0
 11
497.0355628165
 21
156.9015368952
 31
0.0
  0
LINE
  5
338
330
1F
100
AcDbEntity
  8
0
  6
CONTINUOUS
 62
     7
100
AcDbLine
 10
534.30656923
 20
150.3166961342
 30
0.0
 11
534.3251135214
 21
150.3684483904
 31
0.0
  0
LINE
  5
339
330
1F
100
AcDbEntity
  8
0
  6
CONTINUOUS
 62
     7
100
AcDbLine
 10
534.3247021451
 20
158.4359253354
 30
0.0
 11
534.305323186
 21
158.4899857467
 31
0.0
  0
LINE
  5
33A
330
1F
100
AcDbEntity
  8
0
  6
CONTINUOUS
 62
     7
100
AcDbLine
 10
438.2355628165
 20
153.5026679553
 30
0.0
 11
438.2355628165
 21
155.3004058351
 31
0.0
  0
SPLINE
  5
33B
330
1F
100
AcDbEntity
  8
0
  6
CONTINUOUS
 62
     7
100
AcDbSpline
210
0.0
220
0.0
230
1.0
 70
     8
 71
     3
 72
    20
 73
    16
 74
     0
 42
0.000000001
 43
0.00000001
 40
0.0
 40
0.0
 40
0.0
 40
0.0
 40
0.0308248862303028
 40
0.0616497724606056
 40
0.077062215575757
 40
0.10788710180606
 40
0.123299544921211
 40
0.154124431151514
 40
0.169536874266665
 40
0.200361760496968
 40
0.21577420361212
 40
0.246599089842422
 40
0.262011532957574
 40
0.308248862303028
 40
0.369898634763634
 40
0.369898634763634
 40
0.369898634763634
 40
0.369898634763634
 10
438.2355628164862
 20
155.3004058351277
 30
0.0
 10
438.1355628164861
 20
155.2757043401427
 30
0.0
 10
437.9355628164861
 20
155.2262347201353
 30
0.0
 10
437.6855628164861
 20
155.1642448700043
 30
0.0
 10
437.4355628164861
 20
155.1021507405389
 30
0.0
 10
437.2355628164861
 20
155.0523961559224
 30
0.0
 10
436.9855628164862
 20
154.9901141961575
 30
0.0
 10
436.7855628164861
 20
154.9402218003734
 30
0.0
 10
436.5355628164861
 20
154.8777831716125
 30
0.0
 10
436.3355628164861
 20
154.8277779270792
 30
0.0
 10
436.0855628164861
 20
154.7652138689643
 30
0.0
 10
435.8855628164861
 20
154.7151207945633
 30
0.0
 10
435.5855628164861
 20
154.6399309725251
 30
0.0
 10
435.1855628164861
 20
154.5395997604008
 30
0.0
 10
434.8355628164861
 20
154.4517415735559
 30
0.0
 10
434.6355628164861
 20
154.4015368951934
 30
0.0
  0
SPLINE
  5
33C
330
1F
100
AcDbEntity
  8
0
  6
CONTINUOUS
 62
     7
100
AcDbSpline
210
0.0
220
0.0
230
1.0
 70
     8
 71
     3
 72
    20
 73
    16
 74
     0
 42
0.000000001
 43
0.00000001
 40
0.0
 40
0.0
 40
0.0
 40
0.0
 40
0.0308248862303028
 40
0.0616497724606056
 40
0.077062215575757
 40
0.10788710180606
 40
0.123299544921211
 40
0.154124431151514
 40
0.169536874266665
 40
0.200361760496968
 40
0.21577420361212
 40
0.246599089842422
 40
0.262011532957574
 40
0.308248862303028
 40
0.369898634763634
 40
0.369898634763634
 40
0.369898634763634
 40
0.369898634763634
 10
434.6355628164861
 20
154.4015368951934
 30
0.0
 10
434.7355628164861
 20
154.3764345560121
 30
0.0
 10
434.9355628164861
 20
154.3262298776253
 30
0.0
 10
435.1855628164861
 20
154.2634879848958
 30
0.0
 10
435.4355628164861
 20
154.2007670223156
 30
0.0
 10
435.6355628164861
 20
154.1506111809113
 30
0.0
 10
435.8855628164861
 20
154.0879529958198
 30
0.0
 10
436.0855628164861
 20
154.0378599214345
 30
0.0
 10
436.3355628164861
 20
153.9752958633134
 30
0.0
 10
436.5355628164861
 20
153.9252906187863
 30
0.0
 10
436.7855628164861
 20
153.862851990016
 30
0.0
 10
436.9855628164862
 20
153.8129595942584
 30
0.0
 10
437.2855628164861
 20
153.7382212424232
 30
0.0
 10
437.6855628164861
 20
153.6387593960602
 30
0.0
 10
438.0355628164862
 20
153.5520709452291
 30
0.0
 10
438.2355628164862
 20
153.502667955259
 30
0.0
  0
LINE
  5
33D
330
1F
100
AcDbEntity
  8
0
  6
CONTINUOUS
 62
     7
100
AcDbLine
 10
426.7355628165
 20
149.4015368952
 30
0.0
 11
426.7355628165
 21
159.4015368952
 31
0.0
  0
LINE
  5
33E
330
1F
100
AcDbEntity
  8
0
  6
CONTINUOUS
 62
     7
100
AcDbLine
 10
426.4355628165
 20
149.7015368952
 30
0.0
 11
426.4355628165
 21
159.1015368952
 31
0.0
  0
LINE
  5
33F
330
1F
100
AcDbEntity
  8
0
  6
CONTINUOUS
 62
     7
100
AcDbLine
 10
429.9087678972
 20
159.2681871837
 30
0.0
 11
429.9087678972
 21
159.3015368952
 31
0.0
  0
ELLIPSE
  5
340
330
1F
100
AcDbEntity
  8
0
  6
CONTINUOUS
 62
     7
100
AcDbEllipse
 10
429.5538428063
 20
158.9661300114
 30
0.0
 11
0.2857143272806298
 21
0.3888263710283582
 31
0.0
210
0.0
220
0.0
230
1.0
 40
0.6510240486
 41
5.558178527449941
 42
5.935088175811946
  0
LINE
  5
341
330
1F
100
AcDbEntity
  8
0
  6
CONTINUOUS
 62
     7
100
AcDbLine
 10
429.9355628165
 20
157.4634865578
 30
0.0
 11
429.9355628165
 21
159.1338158666
 31
0.0
  0
ELLIPSE
  5
342
330
1F
100
AcDbEntity
  8
0
  6
CONTINUOUS
 62
     7
100
AcDbEllipse
 10
429.5538426357
 20
157.6311725186
 30
0.0
 11
-0.2857145288558058
 21
0.3888264564768348
 31
0.0
210
0.0
220
0.0
230
1.0
 40
0.6510239822
 41
3.489689578450286
 42
3.866599141154783
  0
LINE
  5
343
330
1F
100
AcDbEntity
  8
0
  6
CONTINUOUS
 62
     7
100
AcDbLine
 10
429.9087678972
 20
156.3406088382
 30
0.0
 11
429.9087678972
 21
157.3291152407
 31
0.0
  0
ELLIPSE
  5
344
330
1F
100
AcDbEntity
  8
0
  6
CONTINUOUS
 62
     7
100
AcDbEllipse
 10
429.5538428063
 20
155.7364944936
 30
0.0
 11
-0.1763630856941632
 21
-0.85924958849958
 31
8.881784197001254E-16
210
2.035860132775593E-16
220
9.918810245606986E-16
230
1.0
 40
0.3939896172
 41
2.051074831028294
 42
2.42798447938993
  0
LINE
  5
345
330
1F
100
AcDbEntity
  8
0
  6
CONTINUOUS
 62
     7
100
AcDbLine
 10
429.9355628165
 20
152.7312075863
 30
0.0
 11
429.9355628165
 21
156.071866204
 31
0.0
  0
ELLIPSE
  5
346
330
1F
100
AcDbEntity
  8
0
  6
CONTINUOUS
 62
     7
100
AcDbEllipse
 10
429.5538426357
 20
153.0665795079
 30
0.0
 11
0.1763632286300662
 21
-0.8592498354861675
 31
8.881784197001251E-16
210
-2.035860526282786E-16
220
9.918806975067167E-16
230
1.0
 40
0.3939896412
 41
0.7136080701396271
 42
1.090517632837344
  0
LINE
  5
347
330
1F
100
AcDbEntity
  8
0
  6
CONTINUOUS
 62
     7
100
AcDbLine
 10
429.9087678972
 20
151.4739585496
 30
0.0
 11
429.9087678972
 21
152.4624649522
 31
0.0
  0
ELLIPSE
  5
348
330
1F
100
AcDbEntity
  8
0
  6
CONTINUOUS
 62
     7
100
AcDbEllipse
 10
429.5538428063
 20
151.1719013774
 30
0.0
 11
0.2857143272732401
 21
0.3888263710253739
 31
0.0
210
0.0
220
0.0
230
1.0
 40
0.6510240486
 41
5.558178527439292
 42
5.935088175803877
  0
LINE
  5
349
330
1F
100
AcDbEntity
  8
0
  6
CONTINUOUS
 62
     7
100
AcDbLine
 10
429.9355628165
 20
149.6692579237
 30
0.0
 11
429.9355628165
 21
151.3395872326
 31
0.0
  0
ELLIPSE
  5
34A
330
1F
100
AcDbEntity
  8
0
  6
CONTINUOUS
 62
     7
100
AcDbEllipse
 10
429.5538426357
 20
149.8369438845
 30
0.0
 11
-0.2857145288477341
 21
0.388826456473538
 31
0.0
210
0.0
220
0.0
230
1.0
 40
0.6510239822
 41
3.489689578458664
 42
3.866599141166499
  0
LINE
  5
34B
330
1F
100
AcDbEntity
  8
0
  6
CONTINUOUS
 62
     7
100
AcDbLine
 10
429.9087678972
 20
149.5015368952
 30
0.0
 11
429.9087678972
 21
149.5348866067
 31
0.0
  0
SPLINE
  5
34C
330
1F
100
AcDbEntity
  8
0
  6
CONTINUOUS
 62
     7
100
AcDbSpline
210
0.0
220
0.0
230
1.0
 70
     8
 71
     3
 72
    11
 73
     7
 74
     0
 42
0.000000001
 43
0.00000001
 40
0.0
 40
0.0
 40
0.0
 40
0.0
 40
0.2025853900739078
 40
0.4249420108819014
 40
0.8401665153838382
 40
1.0
 40
1.0
 40
1.0
 40
1.0
 10
446.4962306263342
 20
158.6393629306232
 30
0.0
 10
446.5995892455761
 20
158.6757229148605
 30
0.0
 10
446.8163937223777
 20
158.75199141977
 30
0.0
 10
447.1184526953914
 20
158.9190291836436
 30
0.0
 10
447.3373075186282
 20
159.0677129125175
 30
0.0
 10
447.365834129099
 20
159.0939564380581
 30
0.0
 10
447.3737629078346
 20
159.1012506487553
 30
0.0
  0
LINE
  5
34D
330
1F
100
AcDbEntity
  8
0
  6
CONTINUOUS
 62
     7
100
AcDbLine
 10
447.2737259297
 20
159.0310643134
 30
0.0
 11
447.1761744696
 21
158.9663855244
 31
0.0
  0
LINE
  5
34E
330
1F
100
AcDbEntity
  8
0
  6
CONTINUOUS
 62
     7
100
AcDbLine
 10
445.9200075398
 20
158.539190909
 30
0.0
 11
445.7355628165
 21
158.5251632688
 31
0.0
  0
SPLINE
  5
34F
330
1F
100
AcDbEntity
  8
0
  6
CONTINUOUS
 62
     7
100
AcDbSpline
210
0.0
220
0.0
230
1.0
 70
     8
 71
     3
 72
     9
 73
     5
 74
     0
 42
0.000000001
 43
0.00000001
 40
0.0
 40
0.0
 40
0.0
 40
0.0
 40
0.5285250817537067
 40
1.0
 40
1.0
 40
1.0
 40
1.0
 10
435.5380426854422
 20
159.1514133124264
 30
0.0
 10
435.5513726902259
 20
159.136068939168
 30
0.0
 10
435.5765938296646
 20
159.1070364981577
 30
0.0
 10
435.8130907647795
 20
158.9527451405415
 30
0.0
 10
435.9245931379284
 20
158.8800006353233
 30
0.0
  0
LINE
  5
350
330
1F
100
AcDbEntity
  8
0
  6
CONTINUOUS
 62
     7
100
AcDbLine
 10
433.7355628165
 20
154.4015368952
 30
0.0
 11
433.7355628165
 21
149.6515368952
 31
0.0
  0
LINE
  5
351
330
1F
100
AcDbEntity
  8
0
  6
CONTINUOUS
 62
     7
100
AcDbLine
 10
433.7355628165
 20
159.1515368952
 30
0.0
 11
433.7355628165
 21
154.4015368952
 31
0.0
  0
SPLINE
  5
352
330
1F
100
AcDbEntity
  8
0
  6
CONTINUOUS
 62
     7
100
AcDbSpline
210
0.0
220
0.0
230
1.0
 70
     8
 71
     3
 72
     9
 73
     5
 74
     0
 42
0.000000001
 43
0.00000001
 40
0.0
 40
0.0
 40
0.0
 40
0.0
 40
0.3265249407977423
 40
1.0
 40
1.0
 40
1.0
 40
1.0
 10
435.7859139129577
 20
149.8307374776675
 30
0.0
 10
435.7286645069646
 20
149.7936808632192
 30
0.0
 10
435.5533351558491
 20
149.6801930103228
 30
0.0
 10
435.5442614130086
 20
149.6630850536695
 30
0.0
 10
435.538150473512
 20
149.6515632715497
 30
0.0
  0
SPLINE
  5
353
330
1F
100
AcDbEntity
  8
0
  6
CONTINUOUS
 62
     7
100
AcDbSpline
210
0.0
220
0.0
230
1.0
 70
     8
 71
     3
 72
     9
 73
     5
 74
     0
 42
0.000000001
 43
0.00000001
 40
0.0
 40
0.0
 40
0.0
 40
0.0
 40
0.6242181827358988
 40
1.0
 40
1.0
 40
1.0
 40
1.0
 10
447.3552615997576
 20
149.7144090618391
 30
0.0
 10
447.3969501920417
 20
149.6804805581855
 30
0.0
 10
447.4637354819243
 20
149.6261269610107
 30
0.0
 10
447.4092063401317
 20
149.6716412731058
 30
0.0
 10
447.388715280135
 20
149.6887447240165
 30
0.0
  0
LINE
  5
354
330
1F
100
AcDbEntity
  8
0
  6
CONTINUOUS
 62
     7
100
AcDbLine
 10
429.9087678972
 20
152.4624649522
 30
0.0
 11
432.2355628165
 21
152.4624649522
 31
0.0
  0
LINE
  5
355
330
1F
100
AcDbEntity
  8
0
  6
CONTINUOUS
 62
     7
100
AcDbLine
 10
432.2355628165
 20
156.3406088382
 30
0.0
 11
429.9087678972
 21
156.3406088382
 31
0.0
  0
LINE
  5
356
330
1F
100
AcDbEntity
  8
0
  6
CONTINUOUS
 62
     7
100
AcDbLine
 10
432.2355628165
 20
156.3406088382
 30
0.0
 11
432.2355628165
 21
152.4624649522
 31
0.0
  0
LINE
  5
357
330
1F
100
AcDbEntity
  8
0
  6
CONTINUOUS
 62
     7
100
AcDbLine
 10
429.9087678972
 20
157.3291152407
 30
0.0
 11
432.2355628165
 21
157.3291152407
 31
0.0
  0
LINE
  5
358
330
1F
100
AcDbEntity
  8
0
  6
CONTINUOUS
 62
     7
100
AcDbLine
 10
432.2355628165
 20
157.3291152407
 30
0.0
 11
432.2355628165
 21
156.3406088382
 31
0.0
  0
LINE
  5
359
330
1F
100
AcDbEntity
  8
0
  6
CONTINUOUS
 62
     7
100
AcDbLine
 10
432.2355628165
 20
152.4624649522
 30
0.0
 11
432.2355628165
 21
151.4739585496
 31
0.0
  0
LINE
  5
35A
330
1F
100
AcDbEntity
  8
0
  6
CONTINUOUS
 62
     7
100
AcDbLine
 10
432.2355628165
 20
151.4739585496
 30
0.0
 11
429.9087678972
 21
151.4739585496
 31
0.0
  0
LINE
  5
35B
330
1F
100
AcDbEntity
  8
0
  6
CONTINUOUS
 62
     7
100
AcDbLine
 10
432.4355628165
 20
152.5041702991
 30
0.0
 11
432.4355628165
 21
156.2989034913
 31
0.0
  0
SPLINE
  5
35C
330
1F
100
AcDbEntity
  8
0
  6
CONTINUOUS
 62
     7
100
AcDbSpline
210
0.0
220
0.0
230
1.0
 70
     8
 71
     3
 72
     8
 73
     4
 74
     0
 42
0.000000001
 43
0.00000001
 40
0.0
 40
0.0
 40
0.0
 40
0.0
 40
0.0285901007783826
 40
0.0285901007783826
 40
0.0285901007783826
 40
0.0285901007783826
 10
432.2355628164861
 20
152.4624649522268
 30
0.0
 10
432.3029542064689
 20
152.4763667345154
 30
0.0
 10
432.3696208731355
 20
152.490268516804
 30
0.0
 10
432.4355628164861
 20
152.5041702990923
 30
0.0
  0
SPLINE
  5
35D
330
1F
100
AcDbEntity
  8
0
  6
CONTINUOUS
 62
     7
100
AcDbSpline
210
0.0
220
0.0
230
1.0
 70
     8
 71
     3
 72
     8
 73
     4
 74
     0
 42
0.000000001
 43
0.00000001
 40
0.0
 40
0.0
 40
0.0
 40
0.0
 40
0.0285901007783824
 40
0.0285901007783824
 40
0.0285901007783824
 40
0.0285901007783824
 10
432.4355628164861
 20
156.2989034912944
 30
0.0
 10
432.3696208731355
 20
156.3128052735828
 30
0.0
 10
432.3029542064689
 20
156.3267070558713
 30
0.0
 10
432.2355628164861
 20
156.3406088381599
 30
0.0
  0
LINE
  5
35E
330
1F
100
AcDbEntity
  8
0
  6
CONTINUOUS
 62
     7
100
AcDbLine
 10
432.4355628165
 20
152.5041702991
 30
0.0
 11
432.4355628165
 21
151.626310957
 31
0.0
  0
SPLINE
  5
35F
330
1F
100
AcDbEntity
  8
0
  6
CONTINUOUS
 62
     7
100
AcDbSpline
210
0.0
220
0.0
230
1.0
 70
     8
 71
     3
 72
     8
 73
     4
 74
     0
 42
0.000000001
 43
0.00000001
 40
0.0
 40
0.0
 40
0.0
 40
0.0
 40
0.0285901007783825
 40
0.0285901007783825
 40
0.0285901007783825
 40
0.0285901007783825
 10
432.4355628164861
 20
151.6263109569708
 30
0.0
 10
432.3696208731334
 20
151.5761544499968
 30
0.0
 10
432.3029542064667
 20
151.5253703142221
 30
0.0
 10
432.2355628164861
 20
151.4739585496467
 30
0.0
  0
SPLINE
  5
360
330
1F
100
AcDbEntity
  8
0
  6
CONTINUOUS
 62
     7
100
AcDbSpline
210
0.0
220
0.0
230
1.0
 70
     8
 71
     3
 72
     8
 73
     4
 74
     0
 42
0.000000001
 43
0.00000001
 40
0.0
 40
0.0
 40
0.0
 40
0.0
 40
0.0285901007783824
 40
0.0285901007783824
 40
0.0285901007783824
 40
0.0285901007783824
 10
432.2355628164861
 20
157.3291152407401
 30
0.0
 10
432.3029542064673
 20
157.2777034761642
 30
0.0
 10
432.369620873134
 20
157.2269193403895
 30
0.0
 10
432.4355628164861
 20
157.1767628334159
 30
0.0
  0
LINE
  5
361
330
1F
100
AcDbEntity
  8
0
  6
CONTINUOUS
 62
     7
100
AcDbLine
 10
432.4355628165
 20
157.1767628334
 30
0.0
 11
432.4355628165
 21
156.2989034913
 31
0.0
  0
LINE
  5
362
330
1F
100
AcDbEntity
  8
0
  6
CONTINUOUS
 62
     7
100
AcDbLine
 10
421.1355628165
 20
151.0015368952
 30
0.0
 11
421.1355628165
 21
157.8015368952
 31
0.0
  0
LINE
  5
363
330
1F
100
AcDbEntity
  8
0
  6
CONTINUOUS
 62
     7
100
AcDbLine
 10
421.7355628165
 20
150.6015368952
 30
0.0
 11
421.7355628165
 21
158.2015368952
 31
0.0
  0
SPLINE
  5
364
330
1F
100
AcDbEntity
  8
0
  6
CONTINUOUS
 62
     7
100
AcDbSpline
210
0.0
220
0.0
230
1.0
 70
    24
 71
     3
 72
     9
 73
     5
 74
     0
 42
0.000000001
 43
0.00000001
 40
0.0
 40
0.0
 40
0.0
 40
0.0
 40
0.1143381702755357
 40
1.0
 40
1.0
 40
1.0
 40
1.0
 10
421.5457819302167
 20
150.6015368951934
 30
0.0
 10
421.542684918995
 20
150.6015368951934
 30
0.0
 10
421.5155985031963
 20
150.6015368951934
 30
0.0
 10
421.6322494900394
 20
150.6015368951934
 30
0.0
 10
421.7355628164861
 20
150.6015368951934
 30
0.0
  0
SPLINE
  5
365
330
1F
100
AcDbEntity
  8
0
  6
CONTINUOUS
 62
     7
100
AcDbSpline
210
0.0
220
0.0
230
1.0
 70
    24
 71
     3
 72
     9
 73
     5
 74
     0
 42
0.000000001
 43
0.00000001
 40
0.0
 40
0.0
 40
0.0
 40
0.0
 40
0.5742820106682038
 40
1.0
 40
1.0
 40
1.0
 40
1.0
 10
421.7355628164861
 20
158.2015368951934
 30
0.0
 10
421.6695969121437
 20
158.2015368951934
 30
0.0
 10
421.5547301687719
 20
158.2015368951934
 30
0.0
 10
421.548453865448
 20
158.2015368951934
 30
0.0
 10
421.5457819302167
 20
158.2015368951934
 30
0.0
  0
LINE
  5
366
330
1F
100
AcDbEntity
  8
0
  6
CONTINUOUS
 62
     7
100
AcDbLine
 10
421.7355628165
 20
150.6015368952
 30
0.0
 11
426.4355628165
 21
150.6015368952
 31
0.0
  0
LINE
  5
367
330
1F
100
AcDbEntity
  8
0
  6
CONTINUOUS
 62
     7
100
AcDbLine
 10
426.4355628165
 20
158.2015368952
 30
0.0
 11
421.7355628165
 21
158.2015368952
 31
0.0
  0
LINE
  5
368
330
1F
100
AcDbEntity
  8
0
  6
CONTINUOUS
 62
     7
100
AcDbLine
 10
432.2355628165
 20
159.2681871837
 30
0.0
 11
429.9087678972
 21
159.2681871837
 31
0.0
  0
LINE
  5
369
330
1F
100
AcDbEntity
  8
0
  6
CONTINUOUS
 62
     7
100
AcDbLine
 10
432.2355628165
 20
159.2681871837
 30
0.0
 11
432.2355628165
 21
157.3291152407
 31
0.0
  0
SPLINE
  5
36A
330
1F
100
AcDbEntity
  8
0
  6
CONTINUOUS
 62
     7
100
AcDbSpline
210
0.0
220
0.0
230
1.0
 70
     8
 71
     3
 72
     8
 73
     4
 74
     0
 42
0.000000001
 43
0.00000001
 40
0.0
 40
0.0
 40
0.0
 40
0.0
 40
0.0285901007783824
 40
0.0285901007783824
 40
0.0285901007783824
 40
0.0285901007783824
 10
432.4355628164861
 20
159.074129429517
 30
0.0
 10
432.3696208731342
 20
159.138187718779
 30
0.0
 10
432.3029542064676
 20
159.2028736368422
 30
0.0
 10
432.2355628164861
 20
159.2681871837066
 30
0.0
  0
LINE
  5
36B
330
1F
100
AcDbEntity
  8
0
  6
CONTINUOUS
 62
     7
100
AcDbLine
 10
432.4355628165
 20
157.1767628334
 30
0.0
 11
432.4355628165
 21
159.0741294295
 31
0.0
  0
SPLINE
  5
36C
330
1F
100
AcDbEntity
  8
0
  6
CONTINUOUS
 62
     7
100
AcDbSpline
210
0.0
220
0.0
230
1.0
 70
     8
 71
     3
 72
     8
 73
     4
 74
     0
 42
0.000000001
 43
0.00000001
 40
0.0
 40
0.0
 40
0.0
 40
0.0
 40
0.0285901007783825
 40
0.0285901007783825
 40
0.0285901007783825
 40
0.0285901007783825
 10
432.2355628164861
 20
149.5348866066801
 30
0.0
 10
432.3029542064704
 20
149.6002001535473
 30
0.0
 10
432.3696208731371
 20
149.6648860716105
 30
0.0
 10
432.4355628164861
 20
149.7289443608697
 30
0.0
  0
LINE
  5
36D
330
1F
100
AcDbEntity
  8
0
  6
CONTINUOUS
 62
     7
100
AcDbLine
 10
432.2355628165
 20
151.4739585496
 30
0.0
 11
432.2355628165
 21
149.5348866067
 31
0.0
  0
LINE
  5
36E
330
1F
100
AcDbEntity
  8
0
  6
CONTINUOUS
 62
     7
100
AcDbLine
 10
432.4355628165
 20
149.7289443609
 30
0.0
 11
432.4355628165
 21
151.626310957
 31
0.0
  0
LINE
  5
36F
330
1F
100
AcDbEntity
  8
0
  6
CONTINUOUS
 62
     7
100
AcDbLine
 10
429.9087678972
 20
149.5348866067
 30
0.0
 11
432.2355628165
 21
149.5348866067
 31
0.0
  0
LINE
  5
370
330
1F
100
AcDbEntity
  8
0
  6
CONTINUOUS
 62
     7
100
AcDbLine
 10
455.5355628165
 20
154.4015368952
 30
0.0
 11
455.5355628165
 21
150.8290220725
 31
0.0
  0
LINE
  5
371
330
1F
100
AcDbEntity
  8
0
  6
CONTINUOUS
 62
     7
100
AcDbLine
 10
455.5355628165
 20
157.9740517178
 30
0.0
 11
455.5355628165
 21
154.4015368952
 31
0.0
  0
LINE
  5
372
330
1F
100
AcDbEntity
  8
0
  6
CONTINUOUS
 62
     7
100
AcDbLine
 10
457.0355628165
 20
154.4015368952
 30
0.0
 11
457.0355628165
 21
151.0515368952
 31
0.0
  0
LINE
  5
373
330
1F
100
AcDbEntity
  8
0
  6
CONTINUOUS
 62
     7
100
AcDbLine
 10
457.0355628165
 20
157.7515368952
 30
0.0
 11
457.0355628165
 21
154.4015368952
 31
0.0
  0
LINE
  5
374
330
1F
100
AcDbEntity
  8
0
  6
CONTINUOUS
 62
     7
100
AcDbLine
 10
452.7355628165
 20
154.4015368952
 30
0.0
 11
452.7355628165
 21
150.8464033217
 31
0.0
  0
LINE
  5
375
330
1F
100
AcDbEntity
  8
0
  6
CONTINUOUS
 62
     7
100
AcDbLine
 10
452.7355628165
 20
157.9566704687
 30
0.0
 11
452.7355628165
 21
154.4015368952
 31
0.0
  0
LINE
  5
376
330
1F
100
AcDbEntity
  8
0
  6
CONTINUOUS
 62
     7
100
AcDbLine
 10
418.6355628165
 20
151.0015368952
 30
0.0
 11
418.6355628165
 21
157.8015368952
 31
0.0
  0
LINE
  5
377
330
1F
100
AcDbEntity
  8
0
  6
CONTINUOUS
 62
     7
100
AcDbLine
 10
445.7355628165
 20
158.5515368952
 30
0.0
 11
437.2355628165
 21
158.5515368952
 31
0.0
  0
LINE
  5
378
330
1F
100
AcDbEntity
  8
0
  6
CONTINUOUS
 62
     7
100
AcDbLine
 10
437.2355628165
 20
150.2515368952
 30
0.0
 11
445.7355628165
 21
150.2515368952
 31
0.0
  0
SPLINE
  5
379
330
1F
100
AcDbEntity
  8
0
  6
CONTINUOUS
 62
     7
100
AcDbSpline
210
0.0
220
0.0
230
1.0
 70
     8
 71
     3
 72
    13
 73
     9
 74
     0
 42
0.000000001
 43
0.00000001
 40
0.0
 40
0.0
 40
0.0
 40
0.0
 40
0.1354980572200404
 40
0.2758221198144166
 40
0.4124711075162483
 40
0.5597256799902077
 40
0.8433117083935175
 40
1.0
 40
1.0
 40
1.0
 40
1.0
 10
445.7355628164862
 20
150.2515368951934
 30
0.0
 10
445.8591486221304
 20
150.2460653856091
 30
0.0
 10
446.1107219626724
 20
150.234927488852
 30
0.0
 10
446.4491816316235
 20
150.154293383028
 30
0.0
 10
446.7375633170778
 20
150.0476087741901
 30
0.0
 10
447.0259477644905
 20
149.9021163845716
 30
0.0
 10
447.2311050618227
 20
149.7563770634653
 30
0.0
 10
447.2570601675354
 20
149.7350001111969
 30
0.0
 10
447.2662972749199
 20
149.7273923131073
 30
0.0
  0
SPLINE
  5
37A
330
1F
100
AcDbEntity
  8
0
  6
CONTINUOUS
 62
     7
100
AcDbSpline
210
0.0
220
0.0
230
1.0
 70
     8
 71
     3
 72
    13
 73
     9
 74
     0
 42
0.000000001
 43
0.00000001
 40
0.0
 40
0.0
 40
0.0
 40
0.0
 40
0.1090716371326699
 40
0.4096870725684487
 40
0.5673773470717504
 40
0.7130406868144045
 40
0.856689021834525
 40
0.9999999999999999
 40
0.9999999999999999
 40
0.9999999999999999
 40
0.9999999999999999
 10
447.2522130267236
 20
159.0647911195453
 30
0.0
 10
447.2451850490884
 20
159.0591119834044
 30
0.0
 10
447.218787062782
 20
159.0377804189256
 30
0.0
 10
447.0227170424686
 20
158.8987570196962
 30
0.0
 10
446.7329550807131
 20
158.7533770494277
 30
0.0
 10
446.4442648371447
 20
158.64738568569
 30
0.0
 10
446.1068281538664
 20
158.5679247429087
 30
0.0
 10
445.859220897763
 20
158.5569952280909
 30
0.0
 10
445.7355628164861
 20
158.5515368951934
 30
0.0
  0
SPLINE
  5
37B
330
1F
100
AcDbEntity
  8
0
  6
CONTINUOUS
 62
     7
100
AcDbSpline
210
0.0
220
0.0
230
1.0
 70
     8
 71
     3
 72
    13
 73
     9
 74
     0
 42
0.000000001
 43
0.00000001
 40
0.0
 40
0.0
 40
0.0
 40
0.0
 40
0.1158536029548837
 40
0.413238818610126
 40
0.5678548194946047
 40
0.7107905778700101
 40
0.8578182178371558
 40
1.0
 40
1.0
 40
1.0
 40
1.0
 10
435.7179525037126
 20
149.737537310349
 30
0.0
 10
435.7252679030481
 20
149.7434563252761
 30
0.0
 10
435.7513612389646
 20
149.7645688903881
 30
0.0
 10
435.946386971102
 20
149.902891928045
 30
0.0
 10
436.2331093636262
 20
150.0473587019576
 30
0.0
 10
436.5215757313154
 20
150.1541928368183
 30
0.0
 10
436.8601139732178
 20
150.2348959602737
 30
0.0
 10
437.1118190194044
 20
150.2460522266137
 30
0.0
 10
437.2355628164861
 20
150.2515368951934
 30
0.0
  0
SPLINE
  5
37C
330
1F
100
AcDbEntity
  8
0
  6
CONTINUOUS
 62
     7
100
AcDbSpline
210
0.0
220
0.0
230
1.0
 70
     8
 71
     3
 72
    14
 73
    10
 74
     0
 42
0.000000001
 43
0.00000001
 40
0.0
 40
0.0
 40
0.0
 40
0.0
 40
0.10335878161708
 40
0.2094657385466355
 40
0.3139599441800907
 40
0.4255559969636226
 40
0.640135978654689
 40
0.8706040325953087
 40
1.0
 40
1.0
 40
1.0
 40
1.0
 10
437.2355628164861
 20
158.5515368951934
 30
0.0
 10
437.1114861429272
 20
158.5570424496058
 30
0.0
 10
436.8600337587483
 20
158.5681999439481
 30
0.0
 10
436.5209910105639
 20
158.6491402532833
 30
0.0
 10
436.2338537177205
 20
158.7551384497453
 30
0.0
 10
435.9413128999227
 20
158.9037957294422
 30
0.0
 10
435.71676419417
 20
159.0624689468573
 30
0.0
 10
435.633782603807
 20
159.1311432800001
 30
0.0
 10
435.6916079221769
 20
159.086053245976
 30
0.0
 10
435.7124001174706
 20
159.0698402648865
 30
0.0
  0
LINE
  5
37D
330
1F
100
AcDbEntity
  8
0
  6
CONTINUOUS
 62
     7
100
AcDbLine
 10
477.0355628165
 20
156.6515368952
 30
0.0
 11
477.0355628165
 21
152.1515368952
 31
0.0
  0
LINE
  5
37E
330
1F
100
AcDbEntity
  8
0
  6
CONTINUOUS
 62
     7
100
AcDbLine
 10
432.2355628165
 20
159.3015368952
 30
0.0
 11
432.2355628165
 21
159.2681871837
 31
0.0
  0
LINE
  5
37F
330
1F
100
AcDbEntity
  8
0
  6
CONTINUOUS
 62
     7
100
AcDbLine
 10
432.2355628165
 20
149.5348866067
 30
0.0
 11
432.2355628165
 21
149.5015368952
 31
0.0
  0
LINE
  5
380
330
1F
100
AcDbEntity
  8
0
  6
CONTINUOUS
 62
     7
100
AcDbLine
 10
432.4355628165
 20
149.7289443609
 30
0.0
 11
432.4355628165
 21
149.7015368952
 31
0.0
  0
LINE
  5
381
330
1F
100
AcDbEntity
  8
0
  6
CONTINUOUS
 62
     7
100
AcDbLine
 10
432.4355628165
 20
159.1015368952
 30
0.0
 11
432.4355628165
 21
159.0741294295
 31
0.0
  0
LINE
  5
382
330
1F
100
AcDbEntity
  8
0
  6
CONTINUOUS
 62
     7
100
AcDbLine
 10
545.2355628165
 20
159.634127076
 30
0.0
 11
545.2355628165
 21
161.8015368952
 31
0.0
  0
LINE
  5
383
330
1F
100
AcDbEntity
  8
0
  6
CONTINUOUS
 62
     7
100
AcDbLine
 10
545.2355628165
 20
147.0015368952
 30
0.0
 11
545.2355628165
 21
159.634127076
 31
0.0
  0
LINE
  5
384
330
1F
100
AcDbEntity
  8
0
  6
CONTINUOUS
 62
     7
100
AcDbLine
 10
552.6355628165
 20
161.9015368952
 30
0.0
 11
552.6355628165
 21
146.9015368952
 31
0.0
  0
LINE
  5
385
330
1F
100
AcDbEntity
  8
0
  6
CONTINUOUS
 62
     7
100
AcDbLine
 10
553.2355628165
 20
161.3015368952
 30
0.0
 11
553.2355628165
 21
147.5015368952
 31
0.0
  0
LINE
  5
386
330
1F
100
AcDbEntity
  8
0
  6
CONTINUOUS
 62
     7
100
AcDbLine
 10
542.7355628165
 20
152.1043090748
 30
0.0
 11
542.7355628165
 21
153.0848357347
 31
0.0
  0
SPLINE
  5
387
330
1F
100
AcDbEntity
  8
0
  6
CONTINUOUS
 62
     7
100
AcDbSpline
210
0.0
220
0.0
230
1.0
 70
     8
 71
     3
 72
     8
 73
     4
 74
     0
 42
0.000000001
 43
0.00000001
 40
0.0
 40
0.0
 40
0.0
 40
0.0
 40
0.0286485978063873
 40
0.0286485978063873
 40
0.0286485978063873
 40
0.0286485978063873
 10
542.7355628164862
 20
153.0848357347142
 30
0.0
 10
542.8017356288889
 20
153.0872987174166
 30
0.0
 10
542.8684022955556
 20
153.089889519007
 30
0.0
 10
542.9355628164861
 20
153.0926081394855
 30
0.0
  0
LINE
  5
388
330
1F
100
AcDbEntity
  8
0
  6
CONTINUOUS
 62
     7
100
AcDbLine
 10
542.9355628165
 20
153.0926081395
 30
0.0
 11
542.9355628165
 21
151.9950916615
 31
0.0
  0
SPLINE
  5
389
330
1F
100
AcDbEntity
  8
0
  6
CONTINUOUS
 62
     7
100
AcDbSpline
210
0.0
220
0.0
230
1.0
 70
     8
 71
     3
 72
     8
 73
     4
 74
     0
 42
0.000000001
 43
0.00000001
 40
0.0
 40
0.0
 40
0.0
 40
0.0
 40
0.0286485978063874
 40
0.0286485978063874
 40
0.0286485978063874
 40
0.0286485978063874
 10
542.9355628164861
 20
151.9950916615266
 30
0.0
 10
542.8684022955607
 20
152.0318466736323
 30
0.0
 10
542.801735628894
 20
152.0682524780425
 30
0.0
 10
542.7355628164862
 20
152.1043090747573
 30
0.0
  0
LINE
  5
38A
330
1F
100
AcDbEntity
  8
0
  6
CONTINUOUS
 62
     7
100
AcDbLine
 10
545.2355628165
 20
159.0751132372
 30
0.0
 11
542.9355628165
 21
159.0751132372
 31
0.0
  0
LINE
  5
38B
330
1F
100
AcDbEntity
  8
0
  6
CONTINUOUS
 62
     7
100
AcDbLine
 10
542.9355628165
 20
153.0926081395
 30
0.0
 11
545.2355628165
 21
153.0926081395
 31
0.0
  0
LINE
  5
38C
330
1F
100
AcDbEntity
  8
0
  6
CONTINUOUS
 62
     7
100
AcDbLine
 10
542.9355628165
 20
153.0926081395
 30
0.0
 11
542.9355628165
 21
159.0751132372
 31
0.0
  0
LINE
  5
38D
330
1F
100
AcDbEntity
  8
0
  6
CONTINUOUS
 62
     7
100
AcDbLine
 10
542.7355628165
 20
158.979358024
 30
0.0
 11
542.7355628165
 21
153.0848357347
 31
0.0
  0
SPLINE
  5
38E
330
1F
100
AcDbEntity
  8
0
  6
CONTINUOUS
 62
     7
100
AcDbSpline
210
0.0
220
0.0
230
1.0
 70
     8
 71
     3
 72
     8
 73
     4
 74
     0
 42
0.000000001
 43
0.00000001
 40
0.0
 40
0.0
 40
0.0
 40
0.0
 40
0.0286485978063873
 40
0.0286485978063873
 40
0.0286485978063873
 40
0.0286485978063873
 10
542.9355628164861
 20
159.0751132372339
 30
0.0
 10
542.8684022955595
 20
159.0430670139226
 30
0.0
 10
542.8017356288927
 20
159.0111486094994
 30
0.0
 10
542.7355628164862
 20
158.9793580239643
 30
0.0
  0
LINE
  5
38F
330
1F
100
AcDbEntity
  8
0
  6
CONTINUOUS
 62
     7
100
AcDbLine
 10
545.2355628165
 20
151.9950916615
 30
0.0
 11
542.9355628165
 21
151.9950916615
 31
0.0
  0
LINE
  5
390
330
1F
100
AcDbEntity
  8
0
  6
CONTINUOUS
 62
     7
100
AcDbLine
 10
542.9355628165
 20
147.6155939734
 30
0.0
 11
545.2355628165
 21
147.6155939734
 31
0.0
  0
LINE
  5
391
330
1F
100
AcDbEntity
  8
0
  6
CONTINUOUS
 62
     7
100
AcDbLine
 10
542.9355628165
 20
147.6155939734
 30
0.0
 11
542.9355628165
 21
151.9950916615
 31
0.0
  0
SPLINE
  5
392
330
1F
100
AcDbEntity
  8
0
  6
CONTINUOUS
 62
     7
100
AcDbSpline
210
0.0
220
0.0
230
1.0
 70
     8
 71
     3
 72
     8
 73
     4
 74
     0
 42
0.000000001
 43
0.00000001
 40
0.0
 40
0.0
 40
0.0
 40
0.0
 40
0.0286485978063876
 40
0.0286485978063876
 40
0.0286485978063876
 40
0.0286485978063876
 10
542.7355628164862
 20
147.789219272679
 30
0.0
 10
542.8017356288941
 20
147.7316933806261
 30
0.0
 10
542.8684022955608
 20
147.6738182808781
 30
0.0
 10
542.9355628164861
 20
147.615593973435
 30
0.0
  0
LINE
  5
393
330
1F
100
AcDbEntity
  8
0
  6
CONTINUOUS
 62
     7
100
AcDbLine
 10
542.7355628165
 20
152.1043090748
 30
0.0
 11
542.7355628165
 21
147.7892192727
 31
0.0
  0
SPLINE
  5
394
330
1F
100
AcDbEntity
  8
0
  6
CONTINUOUS
 62
     7
100
AcDbSpline
210
0.0
220
0.0
230
1.0
 70
    24
 71
     3
 72
    16
 73
    12
 74
     0
 42
0.000000001
 43
0.00000001
 40
0.0
 40
0.0
 40
0.0
 40
0.0
 40
0.08352090427422
 40
0.1674551233032907
 40
0.2518942013273302
 40
0.3777362554976356
 40
0.5035937519431112
 40
0.6279976931705886
 40
0.7514336252286713
 40
0.8743410589458603
 40
1.0
 40
1.0
 40
1.0
 40
1.0
 10
537.3855628164861
 20
153.1515368958514
 30
0.0
 10
537.3855628164861
 20
153.2203803630578
 30
0.0
 10
537.3855628164861
 20
153.3584079788967
 30
0.0
 10
537.3855628164861
 20
153.5675335376186
 30
0.0
 10
537.3855628164861
 20
153.8127126349959
 30
0.0
 10
537.3855628164861
 20
154.0939838860245
 30
0.0
 10
537.3855628164861
 20
154.409399406241
 30
0.0
 10
537.3855628164861
 20
154.7227980782883
 30
0.0
 10
537.3855628164861
 20
155.0329007998386
 30
0.0
 10
537.3855628164861
 20
155.3427227227785
 30
0.0
 10
537.3855628164861
 20
155.5478419808799
 30
0.0
 10
537.3855628164861
 20
155.6515368945083
 30
0.0
  0
SPLINE
  5
395
330
1F
100
AcDbEntity
  8
0
  6
CONTINUOUS
 62
     7
100
AcDbSpline
210
0.0
220
0.0
230
1.0
 70
    24
 71
     3
 72
    13
 73
     9
 74
     0
 42
0.000000001
 43
0.00000001
 40
0.0
 40
0.0
 40
0.0
 40
0.0
 40
0.1256476243360565
 40
0.2499110096750731
 40
0.3749189264775585
 40
0.4996495758042249
 40
0.7504503130951174
 40
1.0
 40
1.0
 40
1.0
 40
1.0
 10
537.3855628169877
 20
155.6515368949426
 30
0.0
 10
537.4903095386713
 20
155.5991635341007
 30
0.0
 10
537.6986490048131
 20
155.4949938010298
 30
0.0
 10
538.0115292996378
 20
155.3385536536175
 30
0.0
 10
538.3237282142863
 20
155.1824541962933
 30
0.0
 10
538.7414693180845
 20
154.9735836443942
 30
0.0
 10
539.2629221473228
 20
154.712857229775
 30
0.0
 10
539.6783621750302
 20
154.5051372159213
 30
0.0
 10
539.8855628164781
 20
154.4015368951974
 30
0.0
  0
SPLINE
  5
396
330
1F
100
AcDbEntity
  8
0
  6
CONTINUOUS
 62
     7
100
AcDbSpline
210
0.0
220
0.0
230
1.0
 70
    24
 71
     3
 72
    15
 73
    11
 74
     0
 42
0.000000001
 43
0.00000001
 40
0.0
 40
0.0
 40
0.0
 40
0.0
 40
0.1241973543558167
 40
0.2488719143663946
 40
0.3740850139312644
 40
0.4998971993324246
 40
0.6248161054484848
 40
0.7500473619688753
 40
0.8752778083544651
 40
1.0
 40
1.0
 40
1.0
 40
1.0
 10
539.8855628164781
 20
154.4015368951894
 30
0.0
 10
539.7825227118319
 20
154.3500168428663
 30
0.0
 10
539.5760465897532
 20
154.2467787818269
 30
0.0
 10
539.2648098462441
 20
154.0911604100724
 30
0.0
 10
538.9517862295866
 20
153.9346486017436
 30
0.0
 10
538.6381964754745
 20
153.7778537246876
 30
0.0
 10
538.3243986862085
 20
153.6209548300546
 30
0.0
 10
538.0110433601095
 20
153.464277167005
 30
0.0
 10
537.6979176853798
 20
153.3077143296402
 30
0.0
 10
537.4895398676629
 20
153.2035254207818
 30
0.0
 10
537.3855628169678
 20
153.1515368954342
 30
0.0
  0
LWPOLYLINE
  5
397
330
1F
100
AcDbEntity
  8
0
  6
CONTINUOUS
 62
     7
100
AcDbPolyline
 90
       17
 70
   128
 43
0.0
 10
520.04155259
 20
150.0016572549
 10
520.0410507206
 20
150.0861765163
 10
520.0398423811
 20
150.3365113249
 10
520.0384044665
 20
150.7430922863
 10
520.0371498309
 20
151.290274362
 10
520.0363374888
 20
151.9570290555
 10
520.0360304587
 20
152.7177263832
 10
520.0360932926
 20
153.5431381197
 10
520.0362104299
 20
154.4015362426
 10
520.0360958654
 20
155.2599339106
 10
520.0360387831
 20
156.0853438952
 10
520.0363514296
 20
156.8460449566
 10
520.0371669978
 20
157.5128013063
 10
520.0384206446
 20
158.0599856212
 10
520.0398531309
 20
158.4665731967
 10
520.0410547643
 20
158.7168937193
 10
520.041552531
 20
158.801420576
  0
LINE
  5
398
330
1F
100
AcDbEntity
  8
0
  6
CONTINUOUS
 62
     7
100
AcDbLine
 10
533.4784470632
 20
160.2337098994
 30
0.0
 11
533.4673565608
 21
160.2578323981
 31
0.0
  0
LINE
  5
399
330
1F
100
AcDbEntity
  8
0
  6
CONTINUOUS
 62
     7
100
AcDbLine
 10
533.4673565608
 20
160.2578323981
 30
0.0
 11
533.4742695329
 21
160.2431396667
 31
0.0
  0
ARC
  5
39A
330
1F
100
AcDbEntity
  8
0
  6
CONTINUOUS
 62
     7
100
AcDbCircle
 10
522.6452363512
 20
154.4000395549
 30
0.0
 40
12.30434668546321
100
AcDbArc
 50
331.5864844486
 51
28.3059055171
  0
LINE
  5
39B
330
1F
100
AcDbEntity
  8
0
  6
CONTINUOUS
 62
     7
100
AcDbLine
 10
533.4740294961
 20
148.559833656
 30
0.0
 11
533.4785943017
 21
148.5698157985
 31
0.0
  0
SPLINE
  5
39C
330
1F
100
AcDbEntity
  8
0
  6
CONTINUOUS
 62
     7
100
AcDbSpline
210
0.0
220
0.0
230
1.0
 70
     8
 71
     3
 72
    23
 73
    19
 74
     0
 42
0.000000001
 43
0.00000001
 40
0.0
 40
0.0
 40
0.0
 40
0.0
 40
0.0542062815027205
 40
0.1179110120151991
 40
0.1817391050042435
 40
0.2457850283309415
 40
0.3098863108828288
 40
0.3741050380526852
 40
0.438470814034821
 40
0.5028491531304864
 40
0.5671722160237795
 40
0.6314559053018381
 40
0.6955061284964348
 40
0.7592499401865517
 40
0.8231654923411905
 40
0.8873277195863509
 40
0.9514559624679968
 40
1.0
 40
1.0
 40
1.0
 40
1.0
 10
533.5361619103707
 20
148.5950476686905
 30
0.0
 10
533.545467050004
 20
148.6122721768288
 30
0.0
 10
533.5657078486846
 20
148.6497394062668
 30
0.0
 10
533.7212758537735
 20
148.9417830932416
 30
0.0
 10
533.9508487973384
 20
149.4261586602743
 30
0.0
 10
534.2433146405779
 20
150.1128394840433
 30
0.0
 10
534.5416501015527
 20
150.9888523119762
 30
0.0
 10
534.7903325943329
 20
152.032944323189
 30
0.0
 10
534.9639723987799
 20
153.1855870059766
 30
0.0
 10
535.0389558254438
 20
154.3980229760482
 30
0.0
 10
534.9734909115523
 20
155.6112200711789
 30
0.0
 10
534.7925866884078
 20
156.7618113202325
 30
0.0
 10
534.5389269965186
 20
157.8024149108736
 30
0.0
 10
534.2494589157956
 20
158.6773065399111
 30
0.0
 10
533.9634654875465
 20
159.365145243113
 30
0.0
 10
533.7234549055479
 20
159.8556461833765
 30
0.0
 10
533.558009151897
 20
160.1504672331985
 30
0.0
 10
533.5448999862558
 20
160.1846388294643
 30
0.0
 10
533.5392519970026
 20
160.1993614146961
 30
0.0
  0
LINE
  5
39D
330
1F
100
AcDbEntity
  8
0
  6
CONTINUOUS
 62
     7
100
AcDbLine
 10
533.6147008122
 20
148.6969477205
 30
0.0
 11
533.6006959052
 21
148.6674036022
 31
0.0
  0
SPLINE
  5
39E
330
1F
100
AcDbEntity
  8
0
  6
CONTINUOUS
 62
     7
100
AcDbSpline
210
0.0
220
0.0
230
1.0
 70
     8
 71
     3
 72
    23
 73
    19
 74
     0
 42
0.000000001
 43
0.00000001
 40
0.0
 40
0.0
 40
0.0
 40
0.0
 40
0.0475843518056791
 40
0.1132310511132389
 40
0.1789711543379883
 40
0.2448187784548601
 40
0.3105945715248333
 40
0.3763533252881326
 40
0.4421658185421423
 40
0.5079348979410386
 40
0.5736538215076964
 40
0.6393821313085577
 40
0.7048946345668288
 40
0.7700865059706812
 40
0.8354671840926662
 40
0.9011875470025594
 40
0.9670625867540811
 40
1.0
 40
1.0
 40
1.0
 40
1.0
 10
533.6149890039451
 20
148.6939189666716
 30
0.0
 10
533.6232759566107
 20
148.7092691983419
 30
0.0
 10
533.6429954720655
 20
148.745796392701
 30
0.0
 10
533.7944806773602
 20
149.0273385998256
 30
0.0
 10
534.0239594599956
 20
149.5067308690184
 30
0.0
 10
534.3169347693051
 20
150.1881226021697
 30
0.0
 10
534.6143619790865
 20
151.0542399832836
 30
0.0
 10
534.8608891967713
 20
152.0831847516569
 30
0.0
 10
535.0320191742918
 20
153.216683179443
 30
0.0
 10
535.1051513434918
 20
154.407367783956
 30
0.0
 10
535.0393194621262
 20
155.5983539836859
 30
0.0
 10
534.8596205255101
 20
156.7279819054259
 30
0.0
 10
534.6077871736707
 20
157.7501620597369
 30
0.0
 10
534.3200674772277
 20
158.6102234704887
 30
0.0
 10
534.0346972838581
 20
159.2883552470842
 30
0.0
 10
533.7972162687239
 20
159.7690400026402
 30
0.0
 10
533.6418235099575
 20
160.0425940374836
 30
0.0
 10
533.6280029951738
 20
160.076219409574
 30
0.0
 10
533.6233961668551
 20
160.087427842747
 30
0.0
  0
LINE
  5
39F
330
1F
100
AcDbEntity
  8
0
  6
CONTINUOUS
 62
     7
100
AcDbLine
 10
533.6005579882
 20
160.1356375343
 30
0.0
 11
533.6198826414
 21
160.0994235402
 31
0.0
  0
SPLINE
  5
3A0
330
1F
100
AcDbEntity
  8
0
  6
CONTINUOUS
 62
     7
100
AcDbSpline
210
0.0
220
0.0
230
1.0
 70
    24
 71
     3
 72
    25
 73
    21
 74
     0
 42
0.000000001
 43
0.00000001
 40
0.0
 40
0.0
 40
0.0
 40
0.0
 40
0.0299010238841638
 40
0.0883801023258123
 40
0.1469923569647678
 40
0.2054851962481249
 40
0.2641742100197967
 40
0.32275389597395
 40
0.3815089670255926
 40
0.4402460296150982
 40
0.4988928943723551
 40
0.5574398940284114
 40
0.6160155761471008
 40
0.674680839644951
 40
0.733359103395
 40
0.7921948652819785
 40
0.8508812142599773
 40
0.9096993263183015
 40
0.968487574223437
 40
1.0
 40
1.0
 40
1.0
 40
1.0
 10
541.0355628164862
 20
148.6758127008758
 30
0.0
 10
541.0355628164862
 20
148.6712361363315
 30
0.0
 10
541.0355628164862
 20
148.6577089325712
 30
0.0
 10
541.0355628164862
 20
148.8467910874513
 30
0.0
 10
541.0355628164862
 20
149.2222799916679
 30
0.0
 10
541.0355628164862
 20
149.7833012384925
 30
0.0
 10
541.0355628164862
 20
150.4974553507612
 30
0.0
 10
541.0355628164862
 20
151.3456190414729
 30
0.0
 10
541.0355628164862
 20
152.2973318940849
 30
0.0
 10
541.0355628164862
 20
153.3209378575623
 30
0.0
 10
541.0355628164862
 20
154.3798872490297
 30
0.0
 10
541.0355628164862
 20
155.4385471597806
 30
0.0
 10
541.0355628164862
 20
156.4623735923259
 30
0.0
 10
541.0355628164862
 20
157.4171853735273
 30
0.0
 10
541.0355628164862
 20
158.2713442791686
 30
0.0
 10
541.0355628164862
 20
158.993477551102
 30
0.0
 10
541.0355628164862
 20
159.5629315601123
 30
0.0
 10
541.0355628164862
 20
159.9464666976819
 30
0.0
 10
541.0355628164862
 20
160.1429120995481
 30
0.0
 10
541.0355628164862
 20
160.1307260865493
 30
0.0
 10
541.0355628164862
 20
160.1264735066462
 30
0.0
  0
SPLINE
  5
3A1
330
1F
100
AcDbEntity
  8
0
  6
CONTINUOUS
 62
     7
100
AcDbSpline
210
0.0
220
0.0
230
1.0
 70
     8
 71
     3
 72
    17
 73
    13
 74
     0
 42
0.000000001
 43
0.00000001
 40
0.0
 40
0.0
 40
0.0
 40
0.0
 40
0.0029119426841851
 40
0.1265847323172632
 40
0.2506647579268407
 40
0.3749986892809581
 40
0.4991442571727788
 40
0.6233614694211416
 40
0.7478291095476357
 40
0.8723762994537491
 40
0.9971712322446761
 40
1.0
 40
1.0
 40
1.0
 40
1.0
 10
534.2606173625708
 20
158.6137002290864
 30
0.0
 10
534.2627986425668
 20
158.6083863908488
 30
0.0
 10
534.3576208194955
 20
158.3773891275659
 30
0.0
 10
534.5567559044974
 20
157.7486205371241
 30
0.0
 10
534.8076060938753
 20
156.7383000712473
 30
0.0
 10
534.9880098500205
 20
155.5998689016173
 30
0.0
 10
535.0537449300774
 20
154.4073057317761
 30
0.0
 10
534.9807163928822
 20
153.2150601814537
 30
0.0
 10
534.8087618321102
 20
152.0729557758526
 30
0.0
 10
534.5638193791395
 20
151.0562880298167
 30
0.0
 10
534.3567777615773
 20
150.422824688537
 30
0.0
 10
534.2598451890198
 20
150.1900741565945
 30
0.0
 10
534.2576966873347
 20
150.1849152621495
 30
0.0
  0
LINE
  5
3A2
330
1F
100
AcDbEntity
  8
0
  6
CONTINUOUS
 62
     7
100
AcDbLine
 10
542.9355628165
 20
159.8785510612
 30
0.0
 11
545.2355628165
 21
159.8785510612
 31
0.0
  0
LINE
  5
3A3
330
1F
100
AcDbEntity
  8
0
  6
CONTINUOUS
 62
     7
100
AcDbLine
 10
542.9355628165
 20
159.8785510612
 30
0.0
 11
542.9355628165
 21
159.0751132372
 31
0.0
  0
SPLINE
  5
3A4
330
1F
100
AcDbEntity
  8
0
  6
CONTINUOUS
 62
     7
100
AcDbSpline
210
0.0
220
0.0
230
1.0
 70
     8
 71
     3
 72
     8
 73
     4
 74
     0
 42
0.000000001
 43
0.00000001
 40
0.0
 40
0.0
 40
0.0
 40
0.0
 40
0.0286485978063874
 40
0.0286485978063874
 40
0.0286485978063874
 40
0.0286485978063874
 10
542.7355628164862
 20
159.6971533572286
 30
0.0
 10
542.8017356288965
 20
159.7571422319861
 30
0.0
 10
542.8684022955631
 20
159.8176081333246
 30
0.0
 10
542.9355628164861
 20
159.8785510612439
 30
0.0
  0
LINE
  5
3A5
330
1F
100
AcDbEntity
  8
0
  6
CONTINUOUS
 62
     7
100
AcDbLine
 10
542.7355628165
 20
158.979358024
 30
0.0
 11
542.7355628165
 21
159.6971533572
 31
0.0
  0
LINE
  5
3A6
330
1F
100
AcDbEntity
  8
0
  6
CONTINUOUS
 62
     7
100
AcDbLine
 10
520.0355628165
 20
149.3515368957
 30
0.0
 11
520.0355628165
 21
159.4515368952
 31
0.0
  0
LINE
  5
3A7
330
1F
100
AcDbEntity
  8
0
  6
CONTINUOUS
 62
     7
100
AcDbLine
 10
517.0355628165
 20
150.2015368952
 30
0.0
 11
517.0355628165
 21
158.6015368952
 31
0.0
  0
LINE
  5
3A8
330
1F
100
AcDbEntity
  8
0
  6
CONTINUOUS
 62
     7
100
AcDbLine
 10
545.2355628165
 20
161.4815584709
 30
0.0
 11
542.9355628165
 21
161.4815584709
 31
0.0
  0
LINE
  5
3A9
330
1F
100
AcDbEntity
  8
0
  6
CONTINUOUS
 62
     7
100
AcDbLine
 10
542.9355628165
 20
159.8785510612
 30
0.0
 11
542.9355628165
 21
161.4815584709
 31
0.0
  0
SPLINE
  5
3AA
330
1F
100
AcDbEntity
  8
0
  6
CONTINUOUS
 62
     7
100
AcDbSpline
210
0.0
220
0.0
230
1.0
 70
     8
 71
     3
 72
     8
 73
     4
 74
     0
 42
0.000000001
 43
0.00000001
 40
0.0
 40
0.0
 40
0.0
 40
0.0
 40
0.0286485978063874
 40
0.0286485978063874
 40
0.0286485978063874
 40
0.0286485978063874
 10
542.9355628164861
 20
161.4815584709007
 30
0.0
 10
542.8684022955586
 20
161.4127572354822
 30
0.0
 10
542.801735628892
 20
161.3444330266488
 30
0.0
 10
542.7355628164862
 20
161.2765858444004
 30
0.0
  0
LINE
  5
3AB
330
1F
100
AcDbEntity
  8
0
  6
CONTINUOUS
 62
     7
100
AcDbLine
 10
542.7355628165
 20
161.2765858444
 30
0.0
 11
542.7355628165
 21
159.6971533572
 31
0.0
  0
LINE
  5
3AC
330
1F
100
AcDbEntity
  8
0
  6
CONTINUOUS
 62
     7
100
AcDbLine
 10
554.2355628165
 20
153.7515368952
 30
0.0
 11
554.2355628165
 21
150.3015368952
 31
0.0
  0
LINE
  5
3AD
330
1F
100
AcDbEntity
  8
0
  6
CONTINUOUS
 62
     7
100
AcDbLine
 10
554.2355628165
 20
158.5015368952
 30
0.0
 11
554.2355628165
 21
155.0515368952
 31
0.0
  0
LINE
  5
3AE
330
1F
100
AcDbEntity
  8
0
  6
CONTINUOUS
 62
     7
100
AcDbLine
 10
553.2355628165
 20
155.0515368952
 30
0.0
 11
554.2355628165
 21
155.0515368952
 31
0.0
  0
LINE
  5
3AF
330
1F
100
AcDbEntity
  8
0
  6
CONTINUOUS
 62
     7
100
AcDbLine
 10
554.2355628165
 20
153.7515368952
 30
0.0
 11
553.2355628165
 21
153.7515368952
 31
0.0
  0
LINE
  5
3B0
330
1F
100
AcDbEntity
  8
0
  6
CONTINUOUS
 62
     7
100
AcDbLine
 10
554.7355628165
 20
153.7515368952
 30
0.0
 11
554.7355628165
 21
150.5902120298
 31
0.0
  0
LINE
  5
3B1
330
1F
100
AcDbEntity
  8
0
  6
CONTINUOUS
 62
     7
100
AcDbLine
 10
554.7355628165
 20
158.2128617606
 30
0.0
 11
554.7355628165
 21
155.0515368952
 31
0.0
  0
SPLINE
  5
3B2
330
1F
100
AcDbEntity
  8
0
  6
CONTINUOUS
 62
     7
100
AcDbSpline
210
0.0
220
0.0
230
1.0
 70
    24
 71
     3
 72
     8
 73
     4
 74
     0
 42
0.000000001
 43
0.00000001
 40
0.0
 40
0.0
 40
0.0
 40
0.0
 40
1.0
 40
1.0
 40
1.0
 40
1.0
 10
554.7355628164862
 20
153.7515368951934
 30
0.0
 10
554.5750367557938
 20
153.7515368951934
 30
0.0
 10
554.4085983962299
 20
153.7515368951934
 30
0.0
 10
554.2355628164861
 20
153.7515368951934
 30
0.0
  0
SPLINE
  5
3B3
330
1F
100
AcDbEntity
  8
0
  6
CONTINUOUS
 62
     7
100
AcDbSpline
210
0.0
220
0.0
230
1.0
 70
    24
 71
     3
 72
     8
 73
     4
 74
     0
 42
0.000000001
 43
0.00000001
 40
0.0
 40
0.0
 40
0.0
 40
0.0
 40
1.0
 40
1.0
 40
1.0
 40
1.0
 10
554.2355628164861
 20
155.0515368951934
 30
0.0
 10
554.408598396287
 20
155.0515368951934
 30
0.0
 10
554.5750367558519
 20
155.0515368951934
 30
0.0
 10
554.7355628164862
 20
155.0515368951934
 30
0.0
  0
LINE
  5
3B4
330
1F
100
AcDbEntity
  8
0
  6
CONTINUOUS
 62
     7
100
AcDbLine
 10
554.7355628165
 20
155.0515368952
 30
0.0
 11
554.7355628165
 21
153.7515368952
 31
0.0
  0
LINE
  5
3B5
330
1F
100
AcDbEntity
  8
0
  6
CONTINUOUS
 62
     7
100
AcDbLine
 10
497.0355628165
 20
154.4015368952
 30
0.0
 11
497.0355628165
 21
156.9015368952
 31
0.0
  0
LINE
  5
3B6
330
1F
100
AcDbEntity
  8
0
  6
CONTINUOUS
 62
     7
100
AcDbLine
 10
497.0355628165
 20
151.9015368952
 30
0.0
 11
497.0355628165
 21
154.4015368952
 31
0.0
  0
LINE
  5
3B7
330
1F
100
AcDbEntity
  8
0
  6
CONTINUOUS
 62
     7
100
AcDbLine
 10
542.9355628165
 20
147.6155939734
 30
0.0
 11
542.9355628165
 21
147.3215153195
 31
0.0
  0
SPLINE
  5
3B8
330
1F
100
AcDbEntity
  8
0
  6
CONTINUOUS
 62
     7
100
AcDbSpline
210
0.0
220
0.0
230
1.0
 70
     8
 71
     3
 72
     8
 73
     4
 74
     0
 42
0.000000001
 43
0.00000001
 40
0.0
 40
0.0
 40
0.0
 40
0.0
 40
0.0286485978063874
 40
0.0286485978063874
 40
0.0286485978063874
 40
0.0286485978063874
 10
542.9355628164861
 20
147.321515319486
 30
0.0
 10
542.8684022955595
 20
147.3903165549036
 30
0.0
 10
542.8017356288927
 20
147.4586407637371
 30
0.0
 10
542.7355628164862
 20
147.5264879459863
 30
0.0
  0
LINE
  5
3B9
330
1F
100
AcDbEntity
  8
0
  6
CONTINUOUS
 62
     7
100
AcDbLine
 10
542.7355628165
 20
147.526487946
 30
0.0
 11
542.7355628165
 21
147.7892192727
 31
0.0
  0
LINE
  5
3BA
330
1F
100
AcDbEntity
  8
0
  6
CONTINUOUS
 62
     7
100
AcDbLine
 10
545.2355628165
 20
147.3215153195
 30
0.0
 11
542.9355628165
 21
147.3215153195
 31
0.0
  0
LINE
  5
3BB
330
1F
100
AcDbEntity
  8
0
  6
CONTINUOUS
 62
     7
100
AcDbLine
 10
533.5284735013
 20
160.2223534891
 30
0.0
 11
533.5393643304
 21
160.1985568812
 31
0.0
  0
LINE
  5
3BC
330
1F
100
AcDbEntity
  8
0
  6
CONTINUOUS
 62
     7
100
AcDbLine
 10
534.3132735935
 20
158.4549361091
 30
0.0
 11
534.3642669373
 21
158.2976474732
 31
0.0
  0
ENDSEC
  0
SECTION
  2
OBJECTS
  0
DICTIONARY
  5
C
330
0
100
AcDbDictionary
  3
ACAD_GROUP
350
D
  3
ACAD_MLINESTYLE
350
17
  3
ACAD_SCALELIST
350
47
  0
DICTIONARY
  5
D
102
{ACAD_REACTORS
330
C
102
}
330
C
100
AcDbDictionary
  0
DICTIONARY
  5
17
102
{ACAD_REACTORS
330
C
102
}
330
C
100
AcDbDictionary
  3
STANDARD
350
18
  0
DICTIONARY
  5
47
102
{ACAD_REACTORS
330
C
102
}
330
C
100
AcDbDictionary
  0
MLINESTYLE
  5
18
102
{ACAD_REACTORS
330
17
102
}
330
17
100
AcDbMlineStyle
  2
Standard
 70
     0
  3

 62
   256
 51
90.0
 52
90.0
 71
     2
 49
0.5
 62
   256
  6
BYLAYER
 49
-0.5
 62
   256
  6
BYLAYER
  0
ENDSEC
  0
EOF
