  0
SECTION
  2
HEADER
  9
$ACADVER
  1
AC1014
  9
$ACADMAINTVER
 70
     9
  9
$DWGCODEPAGE
  3
ANSI_1252
  9
$INSBASE
 10
0.0
 20
0.0
 30
0.0
  9
$EXTMIN
 10
0.0
 20
0.0
 30
0.0
  9
$EXTMAX
 10
594.0
 20
420.0
 30
0.0
  9
$LIMMIN
 10
0.0
 20
0.0
  9
$LIMMAX
 10
594.0
 20
420.0
  9
$ORTHOMODE
 70
     0
  9
$REGENMODE
 70
     1
  9
$FILLMODE
 70
     1
  9
$QTEXTMODE
 70
     0
  9
$MIRRTEXT
 70
     1
  9
$DRAGMODE
 70
     2
  9
$LTSCALE
 40
1.0
  9
$OSMODE
 70
    37
  9
$ATTMODE
 70
     1
  9
$TEXTSIZE
 40
3.5
  9
$TRACEWID
 40
1.0
  9
$TEXTSTYLE
  7
STANDARD
  9
$CLAYER
  8
0
  9
$CELTYPE
  6
BYLAYER
  9
$CECOLOR
 62
   256
  9
$CELTSCALE
 40
1.0
  9
$DELOBJ
 70
     1
  9
$DISPSILH
 70
     0
  9
$DIMSCALE
 40
1.0
  9
$DIMASZ
 40
2.5
  9
$DIMEXO
 40
1.0
  9
$DIMDLI
 40
3.75
  9
$DIMRND
 40
0.0
  9
$DIMDLE
 40
0.0
  9
$DIMEXE
 40
1.0
  9
$DIMTP
 40
0.0
  9
$DIMTM
 40
0.0
  9
$DIMTXT
 40
3.5
  9
$DIMCEN
 40
2.5
  9
$DIMTSZ
 40
0.0
  9
$DIMTOL
 70
     0
  9
$DIMLIM
 70
     0
  9
$DIMTIH
 70
     1
  9
$DIMTOH
 70
     1
  9
$DIMSE1
 70
     0
  9
$DIMSE2
 70
     0
  9
$DIMTAD
 70
     1
  9
$DIMZIN
 70
     0
  9
$DIMBLK
  1

  9
$DIMASO
 70
     1
  9
$DIMSHO
 70
     1
  9
$DIMPOST
  1

  9
$DIMAPOST
  1

  9
$DIMALT
 70
     0
  9
$DIMALTD
 70
     3
  9
$DIMALTF
 40
0.0393700787
  9
$DIMLFAC
 40
1.0
  9
$DIMTOFL
 70
     1
  9
$DIMTVP
 40
0.0
  9
$DIMTIX
 70
     0
  9
$DIMSOXD
 70
     0
  9
$DIMSAH
 70
     0
  9
$DIMBLK1
  1

  9
$DIMBLK2
  1

  9
$DIMSTYLE
  2
ISO-25
  9
$DIMCLRD
 70
     0
  9
$DIMCLRE
 70
     0
  9
$DIMCLRT
 70
     0
  9
$DIMTFAC
 40
1.0
  9
$DIMGAP
 40
1.524
  9
$DIMJUST
 70
     0
  9
$DIMSD1
 70
     0
  9
$DIMSD2
 70
     0
  9
$DIMTOLJ
 70
     0
  9
$DIMTZIN
 70
     0
  9
$DIMALTZ
 70
     0
  9
$DIMALTTZ
 70
     0
  9
$DIMFIT
 70
     3
  9
$DIMUPT
 70
     0
  9
$DIMUNIT
 70
     2
  9
$DIMDEC
 70
     2
  9
$DIMTDEC
 70
     2
  9
$DIMALTU
 70
     2
  9
$DIMALTTD
 70
     3
  9
$DIMTXSTY
  7
STANDARD
  9
$DIMAUNIT
 70
     0
  9
$LUNITS
 70
     2
  9
$LUPREC
 70
     2
  9
$SKETCHINC
 40
1.0
  9
$FILLETRAD
 40
10.0
  9
$AUNITS
 70
     0
  9
$AUPREC
 70
     2
  9
$MENU
  1
.
  9
$ELEVATION
 40
0.0
  9
$PELEVATION
 40
0.0
  9
$THICKNESS
 40
0.0
  9
$LIMCHECK
 70
     0
  9
$CHAMFERA
 40
0.0
  9
$CHAMFERB
 40
0.0
  9
$CHAMFERC
 40
0.0
  9
$CHAMFERD
 40
0.0
  9
$SKPOLY
 70
     0
  9
$TDCREATE
 40
2458170.926097523
  9
$TDUPDATE
 40
2458170.926098611
  9
$TDINDWG
 40
0.0000000116
  9
$TDUSRTIMER
 40
0.0000000116
  9
$USRTIMER
 70
     1
  9
$ANGBASE
 50
0.0
  9
$ANGDIR
 70
     0
  9
$PDMODE
 70
     0
  9
$PDSIZE
 40
-1.0
  9
$PLINEWID
 40
0.0
  9
$COORDS
 70
     1
  9
$SPLFRAME
 70
     0
  9
$SPLINETYPE
 70
     6
  9
$SPLINESEGS
 70
     8
  9
$ATTDIA
 70
     0
  9
$ATTREQ
 70
     1
  9
$HANDLING
 70
     1
  9
$HANDSEED
  5
2B2
  9
$SURFTAB1
 70
     6
  9
$SURFTAB2
 70
     6
  9
$SURFTYPE
 70
     6
  9
$SURFU
 70
     6
  9
$SURFV
 70
     6
  9
$UCSNAME
  2

  9
$UCSORG
 10
0.0
 20
0.0
 30
0.0
  9
$UCSXDIR
 10
1.0
 20
0.0
 30
0.0
  9
$UCSYDIR
 10
0.0
 20
1.0
 30
0.0
  9
$PUCSNAME
  2

  9
$PUCSORG
 10
0.0
 20
0.0
 30
0.0
  9
$PUCSXDIR
 10
1.0
 20
0.0
 30
0.0
  9
$PUCSYDIR
 10
0.0
 20
1.0
 30
0.0
  9
$USERI1
 70
     0
  9
$USERI2
 70
     0
  9
$USERI3
 70
     0
  9
$USERI4
 70
     0
  9
$USERI5
 70
     0
  9
$USERR1
 40
0.0
  9
$USERR2
 40
0.0
  9
$USERR3
 40
0.0
  9
$USERR4
 40
0.0
  9
$USERR5
 40
0.0
  9
$WORLDVIEW
 70
     1
  9
$SHADEDGE
 70
     3
  9
$SHADEDIF
 70
    70
  9
$TILEMODE
 70
     1
  9
$MAXACTVP
 70
    64
  9
$PINSBASE
 10
0.0
 20
0.0
 30
0.0
  9
$PLIMCHECK
 70
     0
  9
$PEXTMIN
 10
1.0000000000E+20
 20
1.0000000000E+20
 30
1.0000000000E+20
  9
$PEXTMAX
 10
-1.0000000000E+20
 20
-1.0000000000E+20
 30
-1.0000000000E+20
  9
$PLIMMIN
 10
0.0
 20
0.0
  9
$PLIMMAX
 10
420.0
 20
297.0
  9
$UNITMODE
 70
     0
  9
$VISRETAIN
 70
     1
  9
$PLINEGEN
 70
     0
  9
$PSLTSCALE
 70
     1
  9
$TREEDEPTH
 70
  3020
  9
$PICKSTYLE
 70
     1
  9
$CMLSTYLE
  2
STANDARD
  9
$CMLJUST
 70
     0
  9
$CMLSCALE
 40
20.0
  9
$PROXYGRAPHICS
 70
     1
  9
$MEASUREMENT
 70
     1
  0
ENDSEC
  0
SECTION
  2
CLASSES
  0
CLASS
  1
ACDBDICTIONARYWDFLT
  2
AcDbDictionaryWithDefault
  3
ObjectDBX Classes
 90
        0
280
     0
281
     0
  0
CLASS
  1
VISUALSTYLE
  2
AcDbVisualStyle
  3
ObjectDBX Classes
 90
     4095
280
     0
281
     0
  0
CLASS
  1
MATERIAL
  2
AcDbMaterial
  3
ObjectDBX Classes
 90
     1153
280
     0
281
     0
  0
CLASS
  1
SCALE
  2
AcDbScale
  3
ObjectDBX Classes
 90
     1153
280
     0
281
     0
  0
CLASS
  1
TABLESTYLE
  2
AcDbTableStyle
  3
ObjectDBX Classes
 90
     4095
280
     0
281
     0
  0
CLASS
  1
MLEADERSTYLE
  2
AcDbMLeaderStyle
  3
ACDB_MLEADERSTYLE_CLASS
 90
     4095
280
     0
281
     0
  0
CLASS
  1
SUN
  2
AcDbSun
  3
SCENEOE
 90
     1153
280
     0
281
     0
  0
CLASS
  1
XRECORD
  2
AcDbXrecord
  3
ObjectDBX Classes
 90
        0
280
     0
281
     0
  0
CLASS
  1
LWPOLYLINE
  2
AcDbPolyline
  3
ObjectDBX Classes
 90
        0
280
     0
281
     1
  0
CLASS
  1
HATCH
  2
AcDbHatch
  3
ObjectDBX Classes
 90
        0
280
     0
281
     1
  0
ENDSEC
  0
SECTION
  2
TABLES
  0
TABLE
  2
VPORT
  5
8
330
0
100
AcDbSymbolTable
 70
     1
  0
VPORT
  5
29
330
8
100
AcDbSymbolTableRecord
100
AcDbViewportTableRecord
  2
*ACTIVE
 70
     0
 10
0.0
 20
0.0
 11
1.0
 21
1.0
 12
297.0
 22
210.0
 13
0.0
 23
0.0
 14
10.0
 24
10.0
 15
10.0
 25
10.0
 16
0.0
 26
0.0
 36
1.0
 17
0.0
 27
0.0
 37
0.0
 40
420.0
 41
1.4142857143
 42
50.0
 43
0.0
 44
0.0
 50
0.0
 51
0.0
 71
     0
 72
  2000
 73
     1
 74
     3
 75
     0
 76
     0
 77
     0
 78
     0
  0
ENDTAB
  0
TABLE
  2
LTYPE
  5
5
330
0
100
AcDbSymbolTable
 70
     6
  0
LTYPE
  5
14
330
5
100
AcDbSymbolTableRecord
100
AcDbLinetypeTableRecord
  2
BYBLOCK
 70
     0
  3

 72
    65
 73
     0
 40
0.0
  0
LTYPE
  5
15
330
5
100
AcDbSymbolTableRecord
100
AcDbLinetypeTableRecord
  2
BYLAYER
 70
     0
  3

 72
    65
 73
     0
 40
0.0
  0
LTYPE
  5
16
330
5
100
AcDbSymbolTableRecord
100
AcDbLinetypeTableRecord
  2
CONTINUOUS
 70
     0
  3
Solid line
 72
    65
 73
     0
 40
0.0
  0
LTYPE
  5
6E
330
5
100
AcDbSymbolTableRecord
100
AcDbLinetypeTableRecord
  2
HIDDEN
 70
     0
  3
Hidden __ __ __ __ __ __ __ __ __ __ __ __ __ __
 72
    65
 73
     2
 40
1.905
 49
1.27
 74
     0
 49
-0.635
 74
     0
  0
LTYPE
  5
6F
330
5
100
AcDbSymbolTableRecord
100
AcDbLinetypeTableRecord
  2
PHANTOM
 70
     0
  3
Phantom ______  __  __  ______  __  __  ______
 72
    65
 73
     6
 40
12.7
 49
6.35
 74
     0
 49
-1.27
 74
     0
 49
1.27
 74
     0
 49
-1.27
 74
     0
 49
1.27
 74
     0
 49
-1.27
 74
     0
  0
LTYPE
  5
70
330
5
100
AcDbSymbolTableRecord
100
AcDbLinetypeTableRecord
  2
CENTER
 70
     0
  3
Center ____ _ ____ _ ____ _ ____ _ ____ _ ____
 72
    65
 73
     4
 40
10.16
 49
6.35
 74
     0
 49
-1.27
 74
     0
 49
1.27
 74
     0
 49
-1.27
 74
     0
  0
LTYPE
  5
71
330
5
100
AcDbSymbolTableRecord
100
AcDbLinetypeTableRecord
  2
CENTERX2
 70
     0
  3
Center (2x) ________  __  ________  __  _____
 72
    65
 73
     4
 40
20.32
 49
12.7
 74
     0
 49
-2.54
 74
     0
 49
2.54
 74
     0
 49
-2.54
 74
     0
  0
LTYPE
  5
72
330
5
100
AcDbSymbolTableRecord
100
AcDbLinetypeTableRecord
  2
DOT2
 70
     0
  3
Dot (.5x) ........................................
 72
    65
 73
     2
 40
0.635
 49
0.0
 74
     0
 49
-0.635
 74
     0
  0
ENDTAB
  0
TABLE
  2
LAYER
  5
2
330
0
100
AcDbSymbolTable
 70
     1
  0
LAYER
  5
10
330
2
100
AcDbSymbolTableRecord
100
AcDbLayerTableRecord
  2
0
 70
     0
 62
     7
  6
CONTINUOUS
  0
ENDTAB
  0
TABLE
  2
STYLE
  5
3
330
0
100
AcDbSymbolTable
 70
     2
  0
STYLE
  5
11
330
3
100
AcDbSymbolTableRecord
100
AcDbTextStyleTableRecord
  2
STANDARD
 70
     0
 40
0.0
 41
1.0
 50
0.0
 71
     0
 42
3.5
  3
txt
  4

  0
STYLE
  5
78
330
3
100
AcDbSymbolTableRecord
100
AcDbTextStyleTableRecord
  2
SLDTEXTSTYLE0
 70
     0
 40
0.0
 41
0.75
 50
0.0
 71
     0
 42
3.5
  3
TXT
  4

  0
ENDTAB
  0
TABLE
  2
VIEW
  5
6
330
0
100
AcDbSymbolTable
 70
     0
  0
ENDTAB
  0
TABLE
  2
UCS
  5
7
330
0
100
AcDbSymbolTable
 70
     0
  0
ENDTAB
  0
TABLE
  2
APPID
  5
9
330
0
100
AcDbSymbolTable
 70
     1
  0
APPID
  5
12
330
9
100
AcDbSymbolTableRecord
100
AcDbRegAppTableRecord
  2
ACAD
 70
     0
  0
ENDTAB
  0
TABLE
  2
DIMSTYLE
  5
A
330
0
100
AcDbSymbolTable
 70
     3
  0
DIMSTYLE
105
27
330
A
100
AcDbSymbolTableRecord
100
AcDbDimStyleTableRecord
  2
ISO-25
 70
     0
  3

  4

  5

  6

  7

 40
1.0
 41
2.5
 42
0.625
 43
3.75
 44
1.25
 45
0.0
 46
0.0
 47
0.0
 48
0.0
140
2.5
141
2.5
142
0.0
143
0.0393700787
144
1.0
145
0.0
146
1.0
147
0.625
 71
     0
 72
     0
 73
     0
 74
     0
 75
     0
 76
     0
 77
     1
 78
     8
170
     0
171
     3
172
     1
173
     0
174
     0
175
     0
176
     0
177
     0
178
     0
270
     2
271
     2
272
     2
273
     2
274
     3
340
11
275
     0
280
     0
281
     0
282
     0
283
     0
284
     8
285
     0
286
     0
287
     3
288
     0
  0
DIMSTYLE
105
79
102
{ACAD_REACTORS
330
77
102
}
330
A
100
AcDbSymbolTableRecord
100
AcDbDimStyleTableRecord
  2
SLDDIMSTYLE0
 70
     0
  3

  4

  5

  6

  7

 40
1.0
 41
2.5
 42
0.0625
 43
0.38
 44
0.0
 45
0.000000001
 46
0.0
 47
0.0
 48
0.0
140
3.5
141
0.09
142
0.0
143
25.4
144
1.0
145
0.0
146
1.0
147
0.875
 71
     0
 72
     0
 73
     0
 74
     0
 75
     0
 76
     0
 77
     1
 78
    12
170
     0
171
     2
172
     0
173
     1
174
     0
175
     0
176
     0
177
     0
178
     0
270
     2
271
     2
272
     2
273
     2
274
     2
340
78
275
     0
280
     0
281
     0
282
     0
283
     1
284
    12
285
     0
286
     0
287
     3
288
     0
  0
DIMSTYLE
105
84
102
{ACAD_REACTORS
330
83
102
}
330
A
100
AcDbSymbolTableRecord
100
AcDbDimStyleTableRecord
  2
SLDDIMSTYLE1
 70
     0
  3

  4

  5

  6

  7

 40
1.0
 41
2.5
 42
0.0625
 43
0.38
 44
0.0
 45
0.000000001
 46
0.0
 47
0.0
 48
0.0
140
3.5
141
0.09
142
0.0
143
25.4
144
1.0
145
0.0
146
1.0
147
0.875
 71
     0
 72
     0
 73
     0
 74
     0
 75
     0
 76
     0
 77
     1
 78
    12
170
     0
171
     2
172
     1
173
     1
174
     0
175
     0
176
     0
177
     0
178
     0
270
     2
271
     2
272
     2
273
     2
274
     2
340
78
275
     0
280
     0
281
     0
282
     0
283
     1
284
    12
285
     0
286
     0
288
     0
  0
ENDTAB
  0
TABLE
  2
BLOCK_RECORD
  5
1
330
0
100
AcDbSymbolTable
 70
     3
  0
BLOCK_RECORD
  5
1F
330
1
100
AcDbSymbolTableRecord
100
AcDbBlockTableRecord
  2
*MODEL_SPACE
  0
BLOCK_RECORD
  5
1B
330
1
100
AcDbSymbolTableRecord
100
AcDbBlockTableRecord
  2
*PAPER_SPACE
  0
BLOCK_RECORD
  5
23
330
1
100
AcDbSymbolTableRecord
100
AcDbBlockTableRecord
  2
*PAPER_SPACE0
  0
BLOCK_RECORD
  5
7A
330
1
100
AcDbSymbolTableRecord
100
AcDbBlockTableRecord
  2
_D
  0
BLOCK_RECORD
  5
85
330
1
100
AcDbSymbolTableRecord
100
AcDbBlockTableRecord
  2
_D_1
  0
ENDTAB
  0
ENDSEC
  0
SECTION
  2
BLOCKS
  0
BLOCK
  5
20
330
1F
100
AcDbEntity
  8
0
100
AcDbBlockBegin
  2
*MODEL_SPACE
 70
     0
 10
0.0
 20
0.0
 30
0.0
  3
*MODEL_SPACE
  1

  0
ENDBLK
  5
21
330
1F
100
AcDbEntity
  8
0
100
AcDbBlockEnd
  0
BLOCK
  5
1C
330
1B
100
AcDbEntity
 67
     1
  8
0
100
AcDbBlockBegin
  2
*PAPER_SPACE
 70
     0
 10
0.0
 20
0.0
 30
0.0
  3
*PAPER_SPACE
  1

  0
ENDBLK
  5
1D
330
1B
100
AcDbEntity
 67
     1
  8
0
100
AcDbBlockEnd
  0
BLOCK
  5
24
330
23
100
AcDbEntity
  8
0
100
AcDbBlockBegin
  2
*PAPER_SPACE0
 70
     0
 10
0.0
 20
0.0
 30
0.0
  3
*PAPER_SPACE0
  1

  0
ENDBLK
  5
25
330
23
100
AcDbEntity
  8
0
100
AcDbBlockEnd
  0
BLOCK
  5
7B
330
7A
100
AcDbEntity
  8
0
100
AcDbBlockBegin
  2
_D
 70
     0
 10
0.0
 20
0.0
 30
0.0
  3
_D
  1

  0
SOLID
  5
7D
330
7A
100
AcDbEntity
  8
0
  6
CONTINUOUS
 62
     7
100
AcDbTrace
 10
120.0
 20
10.0
 30
0.0
 11
117.5
 21
10.31
 31
0.0
 12
117.5
 22
9.69
 32
0.0
 13
117.5
 23
9.69
 33
0.0
  0
SOLID
  5
7E
330
7A
100
AcDbEntity
  8
0
  6
CONTINUOUS
 62
     7
100
AcDbTrace
 10
20.0
 20
10.0
 30
0.0
 11
22.5
 21
9.69
 31
0.0
 12
22.5
 22
10.31
 32
0.0
 13
22.5
 23
10.31
 33
0.0
  0
LINE
  5
7F
330
7A
100
AcDbEntity
  8
0
  6
CONTINUOUS
 62
     7
100
AcDbLine
 10
120.0
 20
19.0
 30
0.0
 11
120.0
 21
9.0
 31
0.0
  0
LINE
  5
80
330
7A
100
AcDbEntity
  8
0
  6
CONTINUOUS
 62
     7
100
AcDbLine
 10
20.0
 20
19.0
 30
0.0
 11
20.0
 21
9.0
 31
0.0
  0
LINE
  5
81
330
7A
100
AcDbEntity
  8
0
  6
CONTINUOUS
 62
     7
100
AcDbLine
 10
120.0
 20
10.0
 30
0.0
 11
20.0
 21
10.0
 31
0.0
  0
MTEXT
  5
82
330
7A
100
AcDbEntity
  8
0
  6
CONTINUOUS
 62
     7
100
AcDbMText
 10
66.1208333261
 20
14.5117369146
 30
0.0
 40
3.5
 41
0.0
 71
     1
 72
     1
  1
100
  7
SLDTEXTSTYLE0
  0
ENDBLK
  5
7C
330
7A
100
AcDbEntity
  8
0
100
AcDbBlockEnd
  0
BLOCK
  5
86
330
85
100
AcDbEntity
  8
0
100
AcDbBlockBegin
  2
_D_1
 70
     0
 10
0.0
 20
0.0
 30
0.0
  3
_D_1
  1

  0
SOLID
  5
88
330
85
100
AcDbEntity
  8
0
  6
CONTINUOUS
 62
     7
100
AcDbTrace
 10
10.0
 20
20.0
 30
0.0
 11
9.69
 21
17.5
 31
0.0
 12
10.31
 22
17.5
 32
0.0
 13
10.31
 23
17.5
 33
0.0
  0
SOLID
  5
89
330
85
100
AcDbEntity
  8
0
  6
CONTINUOUS
 62
     7
100
AcDbTrace
 10
10.0
 20
30.0
 30
0.0
 11
10.31
 21
32.5
 31
0.0
 12
9.69
 22
32.5
 32
0.0
 13
9.69
 23
32.5
 33
0.0
  0
LINE
  5
8A
330
85
100
AcDbEntity
  8
0
  6
CONTINUOUS
 62
     7
100
AcDbLine
 10
19.0
 20
20.0
 30
0.0
 11
9.0
 21
20.0
 31
0.0
  0
LINE
  5
8B
330
85
100
AcDbEntity
  8
0
  6
CONTINUOUS
 62
     7
100
AcDbLine
 10
19.0
 20
30.0
 30
0.0
 11
9.0
 21
30.0
 31
0.0
  0
LINE
  5
8C
330
85
100
AcDbEntity
  8
0
  6
CONTINUOUS
 62
     7
100
AcDbLine
 10
10.0
 20
20.0
 30
0.0
 11
10.0
 21
17.5
 31
0.0
  0
LINE
  5
8D
330
85
100
AcDbEntity
  8
0
  6
CONTINUOUS
 62
     7
100
AcDbLine
 10
10.0
 20
20.0
 30
0.0
 11
10.0
 21
30.0
 31
0.0
  0
LINE
  5
8E
330
85
100
AcDbEntity
  8
0
  6
CONTINUOUS
 62
     7
100
AcDbLine
 10
10.0
 20
30.0
 30
0.0
 11
10.0
 21
32.5
 31
0.0
  0
MTEXT
  5
8F
330
85
100
AcDbEntity
  8
0
  6
CONTINUOUS
 62
     7
100
AcDbMText
 10
5.4882630854
 20
22.4138888065
 30
0.0
 40
3.5
 41
0.0
 71
     1
 72
     1
  1
10
  7
SLDTEXTSTYLE0
 11
6.123233995736766E-17
 21
1.0
 31
0.0
  0
ENDBLK
  5
87
330
85
100
AcDbEntity
  8
0
100
AcDbBlockEnd
  0
ENDSEC
  0
SECTION
  2
ENTITIES
  0
LINE
  5
73
330
1F
100
AcDbEntity
  8
0
  6
CONTINUOUS
 62
     7
100
AcDbLine
 10
20.0
 20
30.0
 30
0.0
 11
120.0
 21
30.0
 31
0.0
  0
LINE
  5
74
330
1F
100
AcDbEntity
  8
0
  6
CONTINUOUS
 62
     7
100
AcDbLine
 10
120.0
 20
30.0
 30
0.0
 11
120.0
 21
20.0
 31
0.0
  0
LINE
  5
75
330
1F
100
AcDbEntity
  8
0
  6
CONTINUOUS
 62
     7
100
AcDbLine
 10
120.0
 20
20.0
 30
0.0
 11
20.0
 21
20.0
 31
0.0
  0
LINE
  5
76
330
1F
100
AcDbEntity
  8
0
  6
CONTINUOUS
 62
     7
100
AcDbLine
 10
20.0
 20
20.0
 30
0.0
 11
20.0
 21
30.0
 31
0.0
  0
DIMENSION
  5
77
330
1F
100
AcDbEntity
  8
0
  6
CONTINUOUS
 62
     7
100
AcDbDimension
  2
_D
 10
20.0
 20
10.0
 30
0.0
 11
70.0
 21
10.0
 31
0.0
 70
   160
  1
<>
  3
SLDDIMSTYLE0
100
AcDbAlignedDimension
 13
120.0
 23
20.0
 33
0.0
 14
20.0
 24
20.0
 34
0.0
 50
0.0
100
AcDbRotatedDimension
  0
DIMENSION
  5
83
330
1F
100
AcDbEntity
  8
0
  6
CONTINUOUS
 62
     7
100
AcDbDimension
  2
_D_1
 10
10.0
 20
30.0
 30
0.0
 11
10.0
 21
25.0
 31
0.0
 70
   160
  1
<>
  3
SLDDIMSTYLE1
100
AcDbAlignedDimension
 13
20.0
 23
20.0
 33
0.0
 14
20.0
 24
30.0
 34
0.0
 50
90.0
100
AcDbRotatedDimension
  0
LINE
  5
90
330
1F
100
AcDbEntity
  8
0
  6
CONTINUOUS
 62
     7
100
AcDbLine
 10
188.2539824889
 20
166.6539824889
 30
0.0
 11
188.2539824889
 21
159.3539824889
 31
0.0
  0
LINE
  5
91
330
1F
100
AcDbEntity
  8
0
  6
CONTINUOUS
 62
     7
100
AcDbLine
 10
203.2539824889
 20
159.3539824889
 30
0.0
 11
203.2539824889
 21
166.6539824889
 31
0.0
  0
LINE
  5
92
330
1F
100
AcDbEntity
  8
0
  6
CONTINUOUS
 62
     7
100
AcDbLine
 10
203.2539824889
 20
166.6539824889
 30
0.0
 11
202.6539824889
 21
167.2539824889
 31
0.0
  0
LINE
  5
93
330
1F
100
AcDbEntity
  8
0
  6
CONTINUOUS
 62
     7
100
AcDbLine
 10
188.8539824889
 20
167.2539824889
 30
0.0
 11
188.2539824889
 21
166.6539824889
 31
0.0
  0
ARC
  5
94
330
1F
100
AcDbEntity
  8
0
  6
CONTINUOUS
 62
     7
100
AcDbCircle
 10
188.3539824889
 20
159.3539824889
 30
0.0
 40
0.0999999999999943
100
AcDbArc
 50
180.0
 51
270.0
  0
ARC
  5
95
330
1F
100
AcDbEntity
  8
0
  6
CONTINUOUS
 62
     7
100
AcDbCircle
 10
203.1539824889
 20
159.3539824889
 30
0.0
 40
0.1000000000000227
100
AcDbArc
 50
270.0
 51
0.0
  0
LINE
  5
96
330
1F
100
AcDbEntity
  8
0
  6
CONTINUOUS
 62
     7
100
AcDbLine
 10
203.1039824889
 20
146.8039824889
 30
0.0
 11
203.1039824889
 21
153.8039824889
 31
0.0
  0
ARC
  5
97
330
1F
100
AcDbEntity
  8
0
  6
CONTINUOUS
 62
     7
100
AcDbCircle
 10
202.1039824889
 20
153.8039824889
 30
0.0
 40
1.0
100
AcDbArc
 50
0.0
 51
90.0
  0
ARC
  5
98
330
1F
100
AcDbEntity
  8
0
  6
CONTINUOUS
 62
     7
100
AcDbCircle
 10
202.1039824889
 20
146.8039824889
 30
0.0
 40
1.0
100
AcDbArc
 50
270.0
 51
0.0
  0
LINE
  5
99
330
1F
100
AcDbEntity
  8
0
  6
CONTINUOUS
 62
     7
100
AcDbLine
 10
201.9539824889
 20
154.8039824889
 30
0.0
 11
201.7539824889
 21
155.0039824889
 31
0.0
  0
LINE
  5
9A
330
1F
100
AcDbEntity
  8
0
  6
CONTINUOUS
 62
     7
100
AcDbLine
 10
189.7539824889
 20
155.0039824889
 30
0.0
 11
189.5539824889
 21
154.8039824889
 31
0.0
  0
LINE
  5
9B
330
1F
100
AcDbEntity
  8
0
  6
CONTINUOUS
 62
     7
100
AcDbLine
 10
181.6230077804
 20
148.8039824889
 30
0.0
 11
181.6230077804
 21
147.8039824889
 31
0.0
  0
LINE
  5
9C
330
1F
100
AcDbEntity
  8
0
  6
CONTINUOUS
 62
     7
100
AcDbLine
 10
181.6230077804
 20
152.8039824889
 30
0.0
 11
181.6230077804
 21
151.8039824889
 31
0.0
  0
LINE
  5
9D
330
1F
100
AcDbEntity
  8
0
  6
CONTINUOUS
 62
     7
100
AcDbLine
 10
181.6230077804
 20
150.8039824889
 30
0.0
 11
181.6230077804
 21
149.8039824889
 31
0.0
  0
LINE
  5
9E
330
1F
100
AcDbEntity
  8
0
  6
CONTINUOUS
 62
     7
100
AcDbLine
 10
167.5539824889
 20
145.0539824889
 30
0.0
 11
168.0539824889
 21
145.0539824889
 31
0.0
  0
LINE
  5
9F
330
1F
100
AcDbEntity
  8
0
  6
CONTINUOUS
 62
     7
100
AcDbLine
 10
168.0539824889
 20
155.5539824889
 30
0.0
 11
167.5539824889
 21
155.5539824889
 31
0.0
  0
LINE
  5
A0
330
1F
100
AcDbEntity
  8
0
  6
CONTINUOUS
 62
     7
100
AcDbLine
 10
167.5539824889
 20
155.5539824889
 30
0.0
 11
165.3603662467
 21
154.6326636671
 31
0.0
  0
LINE
  5
A1
330
1F
100
AcDbEntity
  8
0
  6
CONTINUOUS
 62
     7
100
AcDbLine
 10
165.3603662467
 20
145.9753013106
 30
0.0
 11
167.5539824889
 21
145.0539824889
 31
0.0
  0
ARC
  5
A2
330
1F
100
AcDbEntity
  8
0
  6
CONTINUOUS
 62
     7
100
AcDbCircle
 10
165.5539824889
 20
146.4362923634
 30
0.0
 40
0.5000000000000231
100
AcDbArc
 50
180.0
 51
247.2175942695
  0
ARC
  5
A3
330
1F
100
AcDbEntity
  8
0
  6
CONTINUOUS
 62
     7
100
AcDbCircle
 10
165.5539824889
 20
154.1716726143
 30
0.0
 40
0.5
100
AcDbArc
 50
112.7824057305
 51
180.0
  0
LINE
  5
A4
330
1F
100
AcDbEntity
  8
0
  6
CONTINUOUS
 62
     7
100
AcDbLine
 10
168.0539824889
 20
145.9039824889
 30
0.0
 11
180.3389292676
 21
145.9039824889
 31
0.0
  0
LINE
  5
A5
330
1F
100
AcDbEntity
  8
0
  6
CONTINUOUS
 62
     7
100
AcDbLine
 10
180.3386528698
 20
154.7039824889
 30
0.0
 11
168.0539824889
 21
154.7039824889
 31
0.0
  0
LINE
  5
A6
330
1F
100
AcDbEntity
  8
0
  6
CONTINUOUS
 62
     7
100
AcDbLine
 10
191.5039824889
 20
156.7539824889
 30
0.0
 11
191.5039824889
 21
155.0039824889
 31
0.0
  0
LINE
  5
A7
330
1F
100
AcDbEntity
  8
0
  6
CONTINUOUS
 62
     7
100
AcDbLine
 10
200.0039824889
 20
155.0039824889
 30
0.0
 11
200.0039824889
 21
156.7539824889
 31
0.0
  0
LINE
  5
A8
330
1F
100
AcDbEntity
  8
0
  6
CONTINUOUS
 62
     7
100
AcDbLine
 10
191.6539824889
 20
168.2539824889
 30
0.0
 11
191.6539824889
 21
167.2539824889
 31
0.0
  0
LINE
  5
A9
330
1F
100
AcDbEntity
  8
0
  6
CONTINUOUS
 62
     7
100
AcDbLine
 10
199.8539824889
 20
167.2539824889
 30
0.0
 11
199.8539824889
 21
168.2539824889
 31
0.0
  0
LINE
  5
AA
330
1F
100
AcDbEntity
  8
0
  6
CONTINUOUS
 62
     7
100
AcDbLine
 10
199.8539824889
 20
168.2539824889
 30
0.0
 11
199.5653073543
 21
168.7539824889
 31
0.0
  0
LINE
  5
AB
330
1F
100
AcDbEntity
  8
0
  6
CONTINUOUS
 62
     7
100
AcDbLine
 10
191.9426576234
 20
168.7539824889
 30
0.0
 11
191.6539824889
 21
168.2539824889
 31
0.0
  0
SPLINE
  5
AC
330
1F
100
AcDbEntity
  8
0
  6
CONTINUOUS
 62
     7
100
AcDbSpline
210
0.0
220
0.0
230
1.0
 70
     8
 71
     3
 72
     9
 73
     5
 74
     0
 42
0.000000001
 43
0.00000001
 40
0.0
 40
0.0
 40
0.0
 40
0.0
 40
0.5330491586884789
 40
1.0
 40
1.0
 40
1.0
 40
1.0
 10
180.5481905621738
 20
154.7173287768895
 30
0.0
 10
180.5172705464913
 20
154.7101160246776
 30
0.0
 10
180.4592646099308
 20
154.696584904528
 30
0.0
 10
180.366306497474
 20
154.7012434994972
 30
0.0
 10
180.3228996286556
 20
154.7034188343373
 30
0.0
  0
SPLINE
  5
AD
330
1F
100
AcDbEntity
  8
0
  6
CONTINUOUS
 62
     7
100
AcDbSpline
210
0.0
220
0.0
230
1.0
 70
     8
 71
     3
 72
     9
 73
     5
 74
     0
 42
0.000000001
 43
0.00000001
 40
0.0
 40
0.0
 40
0.0
 40
0.0
 40
0.4668992113905495
 40
1.0
 40
1.0
 40
1.0
 40
1.0
 10
180.3230844801032
 20
145.9045357140984
 30
0.0
 10
180.3667167137046
 20
145.9065939857864
 30
0.0
 10
180.4601677895191
 20
145.9110023712318
 30
0.0
 10
180.5188653631581
 20
145.8971560693763
 30
0.0
 10
180.5501570859546
 20
145.8897745949378
 30
0.0
  0
LINE
  5
AE
330
1F
100
AcDbEntity
  8
0
  6
CONTINUOUS
 62
     7
100
AcDbLine
 10
145.0539824889
 20
148.0539824889
 30
0.0
 11
165.0539824889
 21
148.0539824889
 31
0.0
  0
LINE
  5
AF
330
1F
100
AcDbEntity
  8
0
  6
CONTINUOUS
 62
     7
100
AcDbLine
 10
165.0539824889
 20
152.5539824889
 30
0.0
 11
145.0539824889
 21
152.5539824889
 31
0.0
  0
LINE
  5
B0
330
1F
100
AcDbEntity
  8
0
  6
CONTINUOUS
 62
     7
100
AcDbLine
 10
202.7539824889
 20
156.7539824889
 30
0.0
 11
202.9539824889
 21
156.9539824889
 31
0.0
  0
LINE
  5
B1
330
1F
100
AcDbEntity
  8
0
  6
CONTINUOUS
 62
     7
100
AcDbLine
 10
202.9539824889
 20
156.9539824889
 30
0.0
 11
202.9539824889
 21
159.2539824889
 31
0.0
  0
LINE
  5
B2
330
1F
100
AcDbEntity
  8
0
  6
CONTINUOUS
 62
     7
100
AcDbLine
 10
188.5539824889
 20
156.9539824889
 30
0.0
 11
188.7539824889
 21
156.7539824889
 31
0.0
  0
LINE
  5
B3
330
1F
100
AcDbEntity
  8
0
  6
CONTINUOUS
 62
     7
100
AcDbLine
 10
188.5539824889
 20
159.2539824889
 30
0.0
 11
188.5539824889
 21
156.9539824889
 31
0.0
  0
LINE
  5
B4
330
1F
100
AcDbEntity
  8
0
  6
CONTINUOUS
 62
     7
100
AcDbLine
 10
194.5885457243
 20
147.8039824889
 30
0.0
 11
194.3597211632
 21
147.8039824889
 31
0.0
  0
LINE
  5
B5
330
1F
100
AcDbEntity
  8
0
  6
CONTINUOUS
 62
     7
100
AcDbLine
 10
194.3597211632
 20
148.8039824889
 30
0.0
 11
194.5885457243
 21
148.8039824889
 31
0.0
  0
LINE
  5
B6
330
1F
100
AcDbEntity
  8
0
  6
CONTINUOUS
 62
     7
100
AcDbLine
 10
194.5885457243
 20
151.8039824889
 30
0.0
 11
194.3597211632
 21
151.8039824889
 31
0.0
  0
LINE
  5
B7
330
1F
100
AcDbEntity
  8
0
  6
CONTINUOUS
 62
     7
100
AcDbLine
 10
194.3597211632
 20
152.8039824889
 30
0.0
 11
194.5885457243
 21
152.8039824889
 31
0.0
  0
LINE
  5
B8
330
1F
100
AcDbEntity
  8
0
  6
CONTINUOUS
 62
     7
100
AcDbLine
 10
194.5885457243
 20
149.8039824889
 30
0.0
 11
194.3597211632
 21
149.8039824889
 31
0.0
  0
LINE
  5
B9
330
1F
100
AcDbEntity
  8
0
  6
CONTINUOUS
 62
     7
100
AcDbLine
 10
194.3597211632
 20
150.8039824889
 30
0.0
 11
194.5885457243
 21
150.8039824889
 31
0.0
  0
LINE
  5
BA
330
1F
100
AcDbEntity
  8
0
  6
CONTINUOUS
 62
     7
100
AcDbLine
 10
181.7917208874
 20
151.8039824889
 30
0.0
 11
194.3597211632
 21
151.8039824889
 31
0.0
  0
LINE
  5
BB
330
1F
100
AcDbEntity
  8
0
  6
CONTINUOUS
 62
     7
100
AcDbLine
 10
194.3597211632
 20
152.8039824889
 30
0.0
 11
181.7917208874
 21
152.8039824889
 31
0.0
  0
LINE
  5
BC
330
1F
100
AcDbEntity
  8
0
  6
CONTINUOUS
 62
     7
100
AcDbLine
 10
181.7917208874
 20
147.8039824889
 30
0.0
 11
194.3597211632
 21
147.8039824889
 31
0.0
  0
LINE
  5
BD
330
1F
100
AcDbEntity
  8
0
  6
CONTINUOUS
 62
     7
100
AcDbLine
 10
194.3597211632
 20
148.8039824889
 30
0.0
 11
181.7917208874
 21
148.8039824889
 31
0.0
  0
LINE
  5
BE
330
1F
100
AcDbEntity
  8
0
  6
CONTINUOUS
 62
     7
100
AcDbLine
 10
181.7917208874
 20
149.8039824889
 30
0.0
 11
194.3597211632
 21
149.8039824889
 31
0.0
  0
LINE
  5
BF
330
1F
100
AcDbEntity
  8
0
  6
CONTINUOUS
 62
     7
100
AcDbLine
 10
194.3597211632
 20
150.8039824889
 30
0.0
 11
181.7917208874
 21
150.8039824889
 31
0.0
  0
LINE
  5
C0
330
1F
100
AcDbEntity
  8
0
  6
CONTINUOUS
 62
     7
100
AcDbLine
 10
188.2539824889
 20
166.6539824889
 30
0.0
 11
203.2539824889
 21
166.6539824889
 31
0.0
  0
LINE
  5
C1
330
1F
100
AcDbEntity
  8
0
  6
CONTINUOUS
 62
     7
100
AcDbLine
 10
188.8539824889
 20
167.2539824889
 30
0.0
 11
202.6539824889
 21
167.2539824889
 31
0.0
  0
LINE
  5
C2
330
1F
100
AcDbEntity
  8
0
  6
CONTINUOUS
 62
     7
100
AcDbLine
 10
203.1539824889
 20
159.2539824889
 30
0.0
 11
188.3539824989
 21
159.2539824889
 31
0.0
  0
LINE
  5
C3
330
1F
100
AcDbEntity
  8
0
  6
CONTINUOUS
 62
     7
100
AcDbLine
 10
194.6041891708
 20
147.8039824889
 30
0.0
 11
194.6041891708
 21
148.8039824889
 31
0.0
  0
LINE
  5
C4
330
1F
100
AcDbEntity
  8
0
  6
CONTINUOUS
 62
     7
100
AcDbLine
 10
194.6041891708
 20
147.8039824889
 30
0.0
 11
194.5885457243
 21
147.8039824889
 31
0.0
  0
LINE
  5
C5
330
1F
100
AcDbEntity
  8
0
  6
CONTINUOUS
 62
     7
100
AcDbLine
 10
194.6041891708
 20
148.8039824889
 30
0.0
 11
194.5885457243
 21
148.8039824889
 31
0.0
  0
LINE
  5
C6
330
1F
100
AcDbEntity
  8
0
  6
CONTINUOUS
 62
     7
100
AcDbLine
 10
194.6041891708
 20
151.8039824889
 30
0.0
 11
194.6041891708
 21
152.8039824889
 31
0.0
  0
LINE
  5
C7
330
1F
100
AcDbEntity
  8
0
  6
CONTINUOUS
 62
     7
100
AcDbLine
 10
194.6041891708
 20
151.8039824889
 30
0.0
 11
194.5885457243
 21
151.8039824889
 31
0.0
  0
LINE
  5
C8
330
1F
100
AcDbEntity
  8
0
  6
CONTINUOUS
 62
     7
100
AcDbLine
 10
194.6041891708
 20
152.8039824889
 30
0.0
 11
194.5885457243
 21
152.8039824889
 31
0.0
  0
LINE
  5
C9
330
1F
100
AcDbEntity
  8
0
  6
CONTINUOUS
 62
     7
100
AcDbLine
 10
194.6041891708
 20
149.8039824889
 30
0.0
 11
194.6041891708
 21
150.8039824889
 31
0.0
  0
LINE
  5
CA
330
1F
100
AcDbEntity
  8
0
  6
CONTINUOUS
 62
     7
100
AcDbLine
 10
194.6041891708
 20
149.8039824889
 30
0.0
 11
194.5885457243
 21
149.8039824889
 31
0.0
  0
LINE
  5
CB
330
1F
100
AcDbEntity
  8
0
  6
CONTINUOUS
 62
     7
100
AcDbLine
 10
194.6041891708
 20
150.8039824889
 30
0.0
 11
194.5885457243
 21
150.8039824889
 31
0.0
  0
LINE
  5
CC
330
1F
100
AcDbEntity
  8
0
  6
CONTINUOUS
 62
     7
100
AcDbLine
 10
202.1039824889
 20
154.8039824889
 30
0.0
 11
194.7606236358
 21
154.8039824889
 31
0.0
  0
LINE
  5
CD
330
1F
100
AcDbEntity
  8
0
  6
CONTINUOUS
 62
     7
100
AcDbLine
 10
194.7606236358
 20
145.8039824889
 30
0.0
 11
202.1039824889
 21
145.8039824889
 31
0.0
  0
LINE
  5
CE
330
1F
100
AcDbEntity
  8
0
  6
CONTINUOUS
 62
     7
100
AcDbLine
 10
194.7606236358
 20
154.8039824889
 30
0.0
 11
181.7975480238
 21
154.8039824889
 31
0.0
  0
LINE
  5
CF
330
1F
100
AcDbEntity
  8
0
  6
CONTINUOUS
 62
     7
100
AcDbLine
 10
181.7975480238
 20
145.8039824889
 30
0.0
 11
194.7606236358
 21
145.8039824889
 31
0.0
  0
LINE
  5
D0
330
1F
100
AcDbEntity
  8
0
  6
CONTINUOUS
 62
     7
100
AcDbLine
 10
199.6843279025
 20
156.7539824889
 30
0.0
 11
198.8052117493
 21
156.7539824889
 31
0.0
  0
SPLINE
  5
D1
330
1F
100
AcDbEntity
  8
0
  6
CONTINUOUS
 62
     7
100
AcDbSpline
210
0.0
220
0.0
230
1.0
 70
     8
 71
     3
 72
     8
 73
     4
 74
     0
 42
0.000000001
 43
0.00000001
 40
0.0
 40
0.0
 40
0.0
 40
0.0
 40
0.0286485978063875
 40
0.0286485978063875
 40
0.0286485978063875
 40
0.0286485978063875
 10
198.8052117493303
 20
156.7539824888519
 30
0.0
 10
198.8203928336505
 20
156.8201553012571
 30
0.0
 10
198.8355739179711
 20
156.8868219679238
 30
0.0
 10
198.8507550022922
 20
156.9539824888519
 30
0.0
  0
LINE
  5
D2
330
1F
100
AcDbEntity
  8
0
  6
CONTINUOUS
 62
     7
100
AcDbLine
 10
198.8507550023
 20
156.9539824889
 30
0.0
 11
199.8347613567
 21
156.9539824889
 31
0.0
  0
SPLINE
  5
D3
330
1F
100
AcDbEntity
  8
0
  6
CONTINUOUS
 62
     7
100
AcDbSpline
210
0.0
220
0.0
230
1.0
 70
     8
 71
     3
 72
     8
 73
     4
 74
     0
 42
0.000000001
 43
0.00000001
 40
0.0
 40
0.0
 40
0.0
 40
0.0
 40
0.0286485978063874
 40
0.0286485978063874
 40
0.0286485978063874
 40
0.0286485978063874
 10
199.8347613567305
 20
156.9539824888519
 30
0.0
 10
199.7841891816363
 20
156.8868219679244
 30
0.0
 10
199.7340446968777
 20
156.8201553012577
 30
0.0
 10
199.6843279024546
 20
156.7539824888519
 30
0.0
  0
LINE
  5
D4
330
1F
100
AcDbEntity
  8
0
  6
CONTINUOUS
 62
     7
100
AcDbLine
 10
191.673203621
 20
156.9539824889
 30
0.0
 11
191.673203621
 21
159.2539824889
 31
0.0
  0
LINE
  5
D5
330
1F
100
AcDbEntity
  8
0
  6
CONTINUOUS
 62
     7
100
AcDbLine
 10
192.6572099754
 20
159.2539824889
 30
0.0
 11
192.6572099754
 21
156.9539824889
 31
0.0
  0
LINE
  5
D6
330
1F
100
AcDbEntity
  8
0
  6
CONTINUOUS
 62
     7
100
AcDbLine
 10
191.673203621
 20
156.9539824889
 30
0.0
 11
192.6572099754
 21
156.9539824889
 31
0.0
  0
SPLINE
  5
D7
330
1F
100
AcDbEntity
  8
0
  6
CONTINUOUS
 62
     7
100
AcDbSpline
210
0.0
220
0.0
230
1.0
 70
     8
 71
     3
 72
     8
 73
     4
 74
     0
 42
0.000000001
 43
0.00000001
 40
0.0
 40
0.0
 40
0.0
 40
0.0
 40
0.0286485978063873
 40
0.0286485978063873
 40
0.0286485978063873
 40
0.0286485978063873
 10
192.6572099754114
 20
156.9539824888519
 30
0.0
 10
192.6723910597328
 20
156.8868219679223
 30
0.0
 10
192.6875721440535
 20
156.8201553012556
 30
0.0
 10
192.7027532283734
 20
156.7539824888519
 30
0.0
  0
LINE
  5
D8
330
1F
100
AcDbEntity
  8
0
  6
CONTINUOUS
 62
     7
100
AcDbLine
 10
192.7027532284
 20
156.7539824889
 30
0.0
 11
191.8236370752
 21
156.7539824889
 31
0.0
  0
SPLINE
  5
D9
330
1F
100
AcDbEntity
  8
0
  6
CONTINUOUS
 62
     7
100
AcDbSpline
210
0.0
220
0.0
230
1.0
 70
     8
 71
     3
 72
     8
 73
     4
 74
     0
 42
0.000000001
 43
0.00000001
 40
0.0
 40
0.0
 40
0.0
 40
0.0
 40
0.0286485978063872
 40
0.0286485978063872
 40
0.0286485978063872
 40
0.0286485978063872
 10
191.8236370752491
 20
156.7539824888519
 30
0.0
 10
191.7739202808229
 20
156.8201553012617
 30
0.0
 10
191.7237757960643
 20
156.8868219679284
 30
0.0
 10
191.6732036209732
 20
156.9539824888519
 30
0.0
  0
LINE
  5
DA
330
1F
100
AcDbEntity
  8
0
  6
CONTINUOUS
 62
     7
100
AcDbLine
 10
198.8507550023
 20
156.9539824889
 30
0.0
 11
198.8507550023
 21
159.2539824889
 31
0.0
  0
LINE
  5
DB
330
1F
100
AcDbEntity
  8
0
  6
CONTINUOUS
 62
     7
100
AcDbLine
 10
198.8507550023
 20
156.9539824889
 30
0.0
 11
192.6572099754
 21
156.9539824889
 31
0.0
  0
LINE
  5
DC
330
1F
100
AcDbEntity
  8
0
  6
CONTINUOUS
 62
     7
100
AcDbLine
 10
199.8347613567
 20
159.2539824889
 30
0.0
 11
199.8347613567
 21
156.9539824889
 31
0.0
  0
LINE
  5
DD
330
1F
100
AcDbEntity
  8
0
  6
CONTINUOUS
 62
     7
100
AcDbLine
 10
192.7027532284
 20
156.7539824889
 30
0.0
 11
198.8052117493
 21
156.7539824889
 31
0.0
  0
LINE
  5
DE
330
1F
100
AcDbEntity
  8
0
  6
CONTINUOUS
 62
     7
100
AcDbLine
 10
195.7539824889
 20
155.0039824889
 30
0.0
 11
189.7539824889
 21
155.0039824889
 31
0.0
  0
LINE
  5
DF
330
1F
100
AcDbEntity
  8
0
  6
CONTINUOUS
 62
     7
100
AcDbLine
 10
201.7539824889
 20
155.0039824889
 30
0.0
 11
195.7539824889
 21
155.0039824889
 31
0.0
  0
LINE
  5
E0
330
1F
100
AcDbEntity
  8
0
  6
CONTINUOUS
 62
     7
100
AcDbLine
 10
191.673203621
 20
156.9539824889
 30
0.0
 11
188.5764311075
 21
156.9539824889
 31
0.0
  0
SPLINE
  5
E1
330
1F
100
AcDbEntity
  8
0
  6
CONTINUOUS
 62
     7
100
AcDbSpline
210
0.0
220
0.0
230
1.0
 70
     8
 71
     3
 72
     8
 73
     4
 74
     0
 42
0.000000001
 43
0.00000001
 40
0.0
 40
0.0
 40
0.0
 40
0.0
 40
0.0286485978063875
 40
0.0286485978063875
 40
0.0286485978063875
 40
0.0286485978063875
 10
188.5764311075328
 20
156.9539824888519
 30
0.0
 10
188.6421843669477
 20
156.8868219679245
 30
0.0
 10
188.707509936027
 20
156.8201553012579
 30
0.0
 10
188.7724078147706
 20
156.7539824888519
 30
0.0
  0
LINE
  5
E2
330
1F
100
AcDbEntity
  8
0
  6
CONTINUOUS
 62
     7
100
AcDbLine
 10
188.7724078148
 20
156.7539824889
 30
0.0
 11
191.8236370752
 21
156.7539824889
 31
0.0
  0
LINE
  5
E3
330
1F
100
AcDbEntity
  8
0
  6
CONTINUOUS
 62
     7
100
AcDbLine
 10
188.5764311075
 20
159.2539824889
 30
0.0
 11
188.5764311075
 21
156.9539824889
 31
0.0
  0
LINE
  5
E4
330
1F
100
AcDbEntity
  8
0
  6
CONTINUOUS
 62
     7
100
AcDbLine
 10
202.9315338702
 20
156.9539824889
 30
0.0
 11
202.9315338702
 21
159.2539824889
 31
0.0
  0
LINE
  5
E5
330
1F
100
AcDbEntity
  8
0
  6
CONTINUOUS
 62
     7
100
AcDbLine
 10
202.9315338702
 20
156.9539824889
 30
0.0
 11
199.8347613567
 21
156.9539824889
 31
0.0
  0
SPLINE
  5
E6
330
1F
100
AcDbEntity
  8
0
  6
CONTINUOUS
 62
     7
100
AcDbSpline
210
0.0
220
0.0
230
1.0
 70
     8
 71
     3
 72
     8
 73
     4
 74
     0
 42
0.000000001
 43
0.00000001
 40
0.0
 40
0.0
 40
0.0
 40
0.0
 40
0.0286485978063874
 40
0.0286485978063874
 40
0.0286485978063874
 40
0.0286485978063874
 10
202.735557162933
 20
156.7539824888519
 30
0.0
 10
202.8004550416809
 20
156.8201553012622
 30
0.0
 10
202.8657806107602
 20
156.8868219679288
 30
0.0
 10
202.9315338701709
 20
156.9539824888519
 30
0.0
  0
LINE
  5
E7
330
1F
100
AcDbEntity
  8
0
  6
CONTINUOUS
 62
     7
100
AcDbLine
 10
199.6843279025
 20
156.7539824889
 30
0.0
 11
202.7355571629
 21
156.7539824889
 31
0.0
  0
LINE
  5
E8
330
1F
100
AcDbEntity
  8
0
  6
CONTINUOUS
 62
     7
100
AcDbLine
 10
181.7917208874
 20
147.8039824889
 30
0.0
 11
181.6230077804
 21
147.8039824889
 31
0.0
  0
LINE
  5
E9
330
1F
100
AcDbEntity
  8
0
  6
CONTINUOUS
 62
     7
100
AcDbLine
 10
181.6230077804
 20
148.8039824889
 30
0.0
 11
181.7917208874
 21
148.8039824889
 31
0.0
  0
LINE
  5
EA
330
1F
100
AcDbEntity
  8
0
  6
CONTINUOUS
 62
     7
100
AcDbLine
 10
181.7917208874
 20
151.8039824889
 30
0.0
 11
181.6230077804
 21
151.8039824889
 31
0.0
  0
LINE
  5
EB
330
1F
100
AcDbEntity
  8
0
  6
CONTINUOUS
 62
     7
100
AcDbLine
 10
181.6230077804
 20
152.8039824889
 30
0.0
 11
181.7917208874
 21
152.8039824889
 31
0.0
  0
LINE
  5
EC
330
1F
100
AcDbEntity
  8
0
  6
CONTINUOUS
 62
     7
100
AcDbLine
 10
181.7917208874
 20
149.8039824889
 30
0.0
 11
181.6230077804
 21
149.8039824889
 31
0.0
  0
LINE
  5
ED
330
1F
100
AcDbEntity
  8
0
  6
CONTINUOUS
 62
     7
100
AcDbLine
 10
181.6230077804
 20
150.8039824889
 30
0.0
 11
181.7917208874
 21
150.8039824889
 31
0.0
  0
LINE
  5
EE
330
1F
100
AcDbEntity
  8
0
  6
CONTINUOUS
 62
     7
100
AcDbLine
 10
168.0539824889
 20
150.3039824889
 30
0.0
 11
168.0539824889
 21
155.5539824889
 31
0.0
  0
LINE
  5
EF
330
1F
100
AcDbEntity
  8
0
  6
CONTINUOUS
 62
     7
100
AcDbLine
 10
168.0539824889
 20
145.0539824889
 30
0.0
 11
168.0539824889
 21
150.3039824889
 31
0.0
  0
LINE
  5
F0
330
1F
100
AcDbEntity
  8
0
  6
CONTINUOUS
 62
     7
100
AcDbLine
 10
167.5539824889
 20
150.3039824889
 30
0.0
 11
167.5539824889
 21
155.5539824889
 31
0.0
  0
LINE
  5
F1
330
1F
100
AcDbEntity
  8
0
  6
CONTINUOUS
 62
     7
100
AcDbLine
 10
167.5539824889
 20
145.0539824889
 30
0.0
 11
167.5539824889
 21
150.3039824889
 31
0.0
  0
ARC
  5
F2
330
1F
100
AcDbEntity
  8
0
  6
CONTINUOUS
 62
     7
100
AcDbCircle
 10
180.9539824889
 20
153.8039824889
 30
0.0
 40
1.0
100
AcDbArc
 50
90.0
 51
155.5830400854
  0
LINE
  5
F3
330
1F
100
AcDbEntity
  8
0
  6
CONTINUOUS
 62
     7
100
AcDbLine
 10
181.7975480238
 20
154.8039824889
 30
0.0
 11
180.9539824889
 21
154.8039824889
 31
0.0
  0
SPLINE
  5
F4
330
1F
100
AcDbEntity
  8
0
  6
CONTINUOUS
 62
     7
100
AcDbSpline
210
0.0
220
0.0
230
1.0
 70
     8
 71
     3
 72
    15
 73
    11
 74
     0
 42
0.000000001
 43
0.00000001
 40
0.0
 40
0.0
 40
0.0
 40
0.0
 40
0.1078674533384977
 40
0.2116016493751939
 40
0.3113964951270699
 40
0.4074697580435703
 40
0.5000654714875075
 40
0.6562478035885544
 40
0.822556006633542
 40
1.0
 40
1.0
 40
1.0
 40
1.0
 10
180.7350898685427
 20
149.4039824888519
 30
0.0
 10
180.7496821384578
 20
149.4671598002607
 30
0.0
 10
180.7783075327413
 20
149.5910935994137
 30
0.0
 10
180.8108391870234
 20
149.7768387608602
 30
0.0
 10
180.8345079092888
 20
149.9573168995908
 30
0.0
 10
180.8486882912711
 20
150.1324838945465
 30
0.0
 10
180.8547475618942
 20
150.3427557396676
 30
0.0
 10
180.842310905573
 20
150.5958345540784
 30
0.0
 10
180.8034828585335
 20
150.897718615484
 30
0.0
 10
180.7583746229217
 20
151.0997133368893
 30
0.0
 10
180.7350898685426
 20
151.2039824888519
 30
0.0
  0
ARC
  5
F5
330
1F
100
AcDbEntity
  8
0
  6
CONTINUOUS
 62
     7
100
AcDbCircle
 10
180.9539824889
 20
146.8039824889
 30
0.0
 40
1.0
100
AcDbArc
 50
204.4169599146
 51
270.0
  0
LINE
  5
F6
330
1F
100
AcDbEntity
  8
0
  6
CONTINUOUS
 62
     7
100
AcDbLine
 10
180.9539824889
 20
145.8039824889
 30
0.0
 11
181.7975480238
 21
145.8039824889
 31
0.0
  0
LINE
  5
F7
330
1F
100
AcDbEntity
  8
0
  6
CONTINUOUS
 62
     7
100
AcDbLine
 10
180.7350898685
 20
151.2039824889
 30
0.0
 11
168.0539824889
 21
151.2039824889
 31
0.0
  0
LINE
  5
F8
330
1F
100
AcDbEntity
  8
0
  6
CONTINUOUS
 62
     7
100
AcDbLine
 10
180.7350898685
 20
149.4039824889
 30
0.0
 11
168.0539824889
 21
149.4039824889
 31
0.0
  0
LINE
  5
F9
330
1F
100
AcDbEntity
  8
0
  6
CONTINUOUS
 62
     7
100
AcDbLine
 10
165.0539824889
 20
150.3039824889
 30
0.0
 11
165.0539824889
 21
146.4362923634
 31
0.0
  0
LINE
  5
FA
330
1F
100
AcDbEntity
  8
0
  6
CONTINUOUS
 62
     7
100
AcDbLine
 10
165.0539824889
 20
154.1716726143
 30
0.0
 11
165.0539824889
 21
150.3039824889
 31
0.0
  0
LINE
  5
FB
330
1F
100
AcDbEntity
  8
0
  6
CONTINUOUS
 62
     7
100
AcDbLine
 10
191.6539824889
 20
168.2539824889
 30
0.0
 11
199.8539824889
 21
168.2539824889
 31
0.0
  0
LINE
  5
FC
330
1F
100
AcDbEntity
  8
0
  6
CONTINUOUS
 62
     7
100
AcDbLine
 10
191.9426576234
 20
168.7539824889
 30
0.0
 11
199.5653073543
 21
168.7539824889
 31
0.0
  0
LINE
  5
FD
330
1F
100
AcDbEntity
  8
0
  6
CONTINUOUS
 62
     7
100
AcDbLine
 10
179.9704675105
 20
154.1164804769
 30
0.0
 11
180.043421153
 21
154.2173564764
 31
0.0
  0
LINE
  5
FE
330
1F
100
AcDbEntity
  8
0
  6
CONTINUOUS
 62
     7
100
AcDbLine
 10
180.0434211596
 20
146.3906084868
 30
0.0
 11
179.9714675836
 21
146.4900926851
 31
0.0
  0
LINE
  5
FF
330
1F
100
AcDbEntity
  8
0
  6
CONTINUOUS
 62
     7
100
AcDbLine
 10
145.0539824889
 20
150.3039824889
 30
0.0
 11
145.0539824889
 21
152.5539824889
 31
0.0
  0
LINE
  5
100
330
1F
100
AcDbEntity
  8
0
  6
CONTINUOUS
 62
     7
100
AcDbLine
 10
145.0539824889
 20
148.0539824889
 30
0.0
 11
145.0539824889
 21
150.3039824889
 31
0.0
  0
LINE
  5
101
330
1F
100
AcDbEntity
  8
0
  6
CONTINUOUS
 62
     7
100
AcDbLine
 10
202.9315338702
 20
156.9539824889
 30
0.0
 11
202.9539824889
 21
156.9539824889
 31
0.0
  0
LINE
  5
102
330
1F
100
AcDbEntity
  8
0
  6
CONTINUOUS
 62
     7
100
AcDbLine
 10
202.7539824889
 20
156.7539824889
 30
0.0
 11
202.7355571629
 21
156.7539824889
 31
0.0
  0
LINE
  5
103
330
1F
100
AcDbEntity
  8
0
  6
CONTINUOUS
 62
     7
100
AcDbLine
 10
188.5539824889
 20
156.9539824889
 30
0.0
 11
188.5764311075
 21
156.9539824889
 31
0.0
  0
LINE
  5
104
330
1F
100
AcDbEntity
  8
0
  6
CONTINUOUS
 62
     7
100
AcDbLine
 10
188.7724078148
 20
156.7539824889
 30
0.0
 11
188.7539824889
 21
156.7539824889
 31
0.0
  0
LINE
  5
105
330
1F
100
AcDbEntity
  8
0
  6
CONTINUOUS
 62
     7
100
AcDbLine
 10
167.5539824889
 20
72.2769912444
 30
0.0
 11
168.0539824889
 21
72.2769912444
 31
0.0
  0
LINE
  5
106
330
1F
100
AcDbEntity
  8
0
  6
CONTINUOUS
 62
     7
100
AcDbLine
 10
168.0539824889
 20
82.7769912444
 30
0.0
 11
167.5539824889
 21
82.7769912444
 31
0.0
  0
LINE
  5
107
330
1F
100
AcDbEntity
  8
0
  6
CONTINUOUS
 62
     7
100
AcDbLine
 10
167.5539824889
 20
82.7769912444
 30
0.0
 11
165.3603662467
 21
81.8556724227
 31
0.0
  0
LINE
  5
108
330
1F
100
AcDbEntity
  8
0
  6
CONTINUOUS
 62
     7
100
AcDbLine
 10
165.3603662467
 20
73.1983100661
 30
0.0
 11
167.5539824889
 21
72.2769912444
 31
0.0
  0
ARC
  5
109
330
1F
100
AcDbEntity
  8
0
  6
CONTINUOUS
 62
     7
100
AcDbCircle
 10
165.5539824889
 20
73.6593011189
 30
0.0
 40
0.50000000000001
100
AcDbArc
 50
180.0
 51
247.2175942695
  0
ARC
  5
10A
330
1F
100
AcDbEntity
  8
0
  6
CONTINUOUS
 62
     7
100
AcDbCircle
 10
165.5539824889
 20
81.3946813699
 30
0.0
 40
0.5
100
AcDbArc
 50
112.7824057305
 51
180.0
  0
LINE
  5
10B
330
1F
100
AcDbEntity
  8
0
  6
CONTINUOUS
 62
     7
100
AcDbLine
 10
145.0539824889
 20
75.2769912444
 30
0.0
 11
165.0539824889
 21
75.2769912444
 31
0.0
  0
LINE
  5
10C
330
1F
100
AcDbEntity
  8
0
  6
CONTINUOUS
 62
     7
100
AcDbLine
 10
165.0539824889
 20
79.7769912444
 30
0.0
 11
145.0539824889
 21
79.7769912444
 31
0.0
  0
LINE
  5
10D
330
1F
100
AcDbEntity
  8
0
  6
CONTINUOUS
 62
     7
100
AcDbLine
 10
168.0539824889
 20
72.6269912444
 30
0.0
 11
180.8519921338
 21
72.6269912444
 31
0.0
  0
LINE
  5
10E
330
1F
100
AcDbEntity
  8
0
  6
CONTINUOUS
 62
     7
100
AcDbLine
 10
180.8519921338
 20
82.4269912444
 30
0.0
 11
168.0539824889
 21
82.4269912444
 31
0.0
  0
ARC
  5
10F
330
1F
100
AcDbEntity
  8
0
  6
CONTINUOUS
 62
     7
100
AcDbCircle
 10
195.7539824889
 20
77.5269912444
 30
0.0
 40
3.811324865405164
100
AcDbArc
 50
54.8194714073
 51
35.1805285927
  0
ARC
  5
110
330
1F
100
AcDbEntity
  8
0
  6
CONTINUOUS
 62
     7
100
AcDbCircle
 10
195.7539824889
 20
77.5269912444
 30
0.0
 40
4.099999999999976
100
AcDbArc
 50
54.1219646074
 51
35.8780353926
  0
SPLINE
  5
111
330
1F
100
AcDbEntity
  8
0
  6
CONTINUOUS
 62
     7
100
AcDbSpline
210
0.0
220
0.0
230
1.0
 70
    24
 71
     3
 72
     8
 73
     4
 74
     0
 42
0.000000001
 43
0.00000001
 40
0.0
 40
0.0
 40
0.0
 40
0.0
 40
1.0
 40
1.0
 40
1.0
 40
1.0
 10
199.0760746039165
 20
79.92984454394818
 30
0.0
 10
199.004528285392
 20
79.85829822542367
 30
0.0
 10
198.9356424421519
 20
79.7894123821835
 30
0.0
 10
198.8691335975877
 20
79.7229035376193
 30
0.0
  0
SPLINE
  5
112
330
1F
100
AcDbEntity
  8
0
  6
CONTINUOUS
 62
     7
100
AcDbSpline
210
0.0
220
0.0
230
1.0
 70
    24
 71
     3
 72
     8
 73
     4
 74
     0
 42
0.000000001
 43
0.00000001
 40
0.0
 40
0.0
 40
0.0
 40
0.0
 40
1.0
 40
1.0
 40
1.0
 40
1.0
 10
197.9498947820452
 20
80.64214235316182
 30
0.0
 10
198.0164036266334
 20
80.70865119775007
 30
0.0
 10
198.0852894698732
 20
80.7775370409898
 30
0.0
 10
198.156835788374
 20
80.84908335949069
 30
0.0
  0
CIRCLE
  5
113
330
1F
100
AcDbEntity
  8
0
  6
CONTINUOUS
 62
     7
100
AcDbCircle
 10
195.7539824889
 20
80.0269912444
 30
0.0
 40
0.5999999999999943
  0
ARC
  5
114
330
1F
100
AcDbEntity
  8
0
  6
CONTINUOUS
 62
     7
100
AcDbCircle
 10
198.2642115621
 20
80.0372203176
 30
0.0
 40
0.6500000000000112
100
AcDbArc
 50
135.0
 51
315.0
  0
CIRCLE
  5
115
330
1F
100
AcDbEntity
  8
0
  6
CONTINUOUS
 62
     7
100
AcDbCircle
 10
193.2539824889
 20
77.5269912444
 30
0.0
 40
0.5999999999999943
  0
CIRCLE
  5
116
330
1F
100
AcDbEntity
  8
0
  6
CONTINUOUS
 62
     7
100
AcDbCircle
 10
195.7539824889
 20
77.5269912444
 30
0.0
 40
0.5999999999999943
  0
LINE
  5
117
330
1F
100
AcDbEntity
  8
0
  6
CONTINUOUS
 62
     7
100
AcDbLine
 10
198.8691335976
 20
79.7229035376
 30
0.0
 11
198.7238309698
 21
79.5776009099
 31
0.0
  0
CIRCLE
  5
118
330
1F
100
AcDbEntity
  8
0
  6
CONTINUOUS
 62
     7
100
AcDbCircle
 10
195.7539824889
 20
75.0269912444
 30
0.0
 40
0.5999999999999943
  0
LINE
  5
119
330
1F
100
AcDbEntity
  8
0
  6
CONTINUOUS
 62
     7
100
AcDbLine
 10
197.8045921543
 20
80.4968397254
 30
0.0
 11
197.949894782
 21
80.6421423532
 31
0.0
  0
CIRCLE
  5
11A
330
1F
100
AcDbEntity
  8
0
  6
CONTINUOUS
 62
     7
100
AcDbCircle
 10
198.2539824889
 20
77.5269912444
 30
0.0
 40
0.5999999999999943
  0
CIRCLE
  5
11B
330
1F
100
AcDbEntity
  8
0
  6
CONTINUOUS
 62
     7
100
AcDbCircle
 10
195.7539824889
 20
77.5269912444
 30
0.0
 40
6.099999999999994
  0
CIRCLE
  5
11C
330
1F
100
AcDbEntity
  8
0
  6
CONTINUOUS
 62
     7
100
AcDbCircle
 10
195.7539824889
 20
77.5269912444
 30
0.0
 40
5.5
  0
CIRCLE
  5
11D
330
1F
100
AcDbEntity
  8
0
  6
CONTINUOUS
 62
     7
100
AcDbCircle
 10
195.7539824889
 20
77.5269912444
 30
0.0
 40
6.900000000000034
  0
CIRCLE
  5
11E
330
1F
100
AcDbEntity
  8
0
  6
CONTINUOUS
 62
     7
100
AcDbCircle
 10
195.7539824889
 20
77.5269912444
 30
0.0
 40
7.5
  0
ARC
  5
11F
330
1F
100
AcDbEntity
  8
0
  6
CONTINUOUS
 62
     7
100
AcDbCircle
 10
195.7539824889
 20
77.5269912444
 30
0.0
 40
4.099999999999976
100
AcDbArc
 50
35.8780353926
 51
54.1219646074
  0
LINE
  5
120
330
1F
100
AcDbEntity
  8
0
  6
CONTINUOUS
 62
     7
100
AcDbLine
 10
168.0539824889
 20
72.2769912444
 30
0.0
 11
168.0539824889
 21
82.7769912444
 31
0.0
  0
LINE
  5
121
330
1F
100
AcDbEntity
  8
0
  6
CONTINUOUS
 62
     7
100
AcDbLine
 10
167.5539824889
 20
72.2769912444
 30
0.0
 11
167.5539824889
 21
82.7769912444
 31
0.0
  0
ARC
  5
122
330
1F
100
AcDbEntity
  8
0
  6
CONTINUOUS
 62
     7
100
AcDbCircle
 10
181.9539824889
 20
74.2960080979
 30
0.0
 40
1.999999999999987
100
AcDbArc
 50
197.0814760055
 51
261.0
  0
ARC
  5
123
330
1F
100
AcDbEntity
  8
0
  6
CONTINUOUS
 62
     7
100
AcDbCircle
 10
181.9539824889
 20
80.7579743909
 30
0.0
 40
1.999999999999987
100
AcDbArc
 50
99.0
 51
162.9185239945
  0
LINE
  5
124
330
1F
100
AcDbEntity
  8
0
  6
CONTINUOUS
 62
     7
100
AcDbLine
 10
181.6411135588
 20
72.3206314167
 30
0.0
 11
193.1300829348
 21
70.5009574322
 31
0.0
  0
LINE
  5
125
330
1F
100
AcDbEntity
  8
0
  6
CONTINUOUS
 62
     7
100
AcDbLine
 10
193.1300829348
 20
84.5530250566
 30
0.0
 11
181.6411135588
 21
82.7333510721
 31
0.0
  0
LINE
  5
126
330
1F
100
AcDbEntity
  8
0
  6
CONTINUOUS
 62
     7
100
AcDbLine
 10
179.768356985
 20
73.220020151
 30
0.0
 11
168.0539824889
 21
73.220020151
 31
0.0
  0
LINE
  5
127
330
1F
100
AcDbEntity
  8
0
  6
CONTINUOUS
 62
     7
100
AcDbLine
 10
179.7683645423
 20
81.8339623379
 30
0.0
 11
168.0539824889
 21
81.8339623379
 31
0.0
  0
LINE
  5
128
330
1F
100
AcDbEntity
  8
0
  6
CONTINUOUS
 62
     7
100
AcDbLine
 10
165.0539824889
 20
73.6593011189
 30
0.0
 11
165.0539824889
 21
81.3946813699
 31
0.0
  0
SPLINE
  5
129
330
1F
100
AcDbEntity
  8
0
  6
CONTINUOUS
 62
     7
100
AcDbSpline
210
0.0
220
0.0
230
1.0
 70
     8
 71
     3
 72
    25
 73
    21
 74
     0
 42
0.000000001
 43
0.00000001
 40
0.0
 40
0.0
 40
0.0
 40
0.0
 40
0.0249759111587278
 40
0.0624506899405334
 40
0.1249328789424324
 40
0.1749414823445205
 40
0.2499713689412818
 40
0.3316454285712764
 40
0.3928986657216282
 40
0.4357690893051308
 40
0.5000514401714224
 40
0.5816728645218108
 40
0.6429036914627883
 40
0.6857656582047468
 40
0.7500418548718975
 40
0.8000340975881055
 40
0.8750249133494381
 40
0.9375153911443064
 40
0.973222078832937
 40
1.0
 40
1.0
 40
1.0
 40
1.0
 10
180.5214547714454
 20
72.90034899240375
 30
0.0
 10
180.5165444893389
 20
72.9053289694715
 30
0.0
 10
180.5042666387569
 20
72.91778108790643
 30
0.0
 10
180.4789556578646
 20
72.94193755933469
 30
0.0
 10
180.4474845438949
 20
72.96976440213462
 30
0.0
 10
180.4066135701302
 20
73.00274670754787
 30
0.0
 10
180.3598136721039
 20
73.03686357848184
 30
0.0
 10
180.3083423294669
 20
73.06973585468103
 30
0.0
 10
180.2629744980422
 20
73.09523904940103
 30
0.0
 10
180.2209451906144
 20
73.1166369167299
 30
0.0
 10
180.1728402197576
 20
73.13859920544633
 30
0.0
 10
180.1187173315664
 20
73.15956819394663
 30
0.0
 10
180.0692175820771
 20
73.17556875016494
 30
0.0
 10
180.0237891733947
 20
73.18820096555436
 30
0.0
 10
179.98091474771
 20
73.19817526809915
 30
0.0
 10
179.9287936626164
 20
73.2078156418979
 30
0.0
 10
179.8767272309339
 20
73.21477678649116
 30
0.0
 10
179.8283557304236
 20
73.21848155363953
 30
0.0
 10
179.7933804844058
 20
73.21980716150763
 30
0.0
 10
179.7758840101829
 20
73.2199125934746
 30
0.0
 10
179.7683858563811
 20
73.21995777658371
 30
0.0
  0
SPLINE
  5
12A
330
1F
100
AcDbEntity
  8
0
  6
CONTINUOUS
 62
     7
100
AcDbSpline
210
0.0
220
0.0
230
1.0
 70
     8
 71
     3
 72
    25
 73
    21
 74
     0
 42
0.000000001
 43
0.00000001
 40
0.0
 40
0.0
 40
0.0
 40
0.0
 40
0.0312433791127694
 40
0.0624896978098394
 40
0.124985119902744
 40
0.1749874595153729
 40
0.2499780051689914
 40
0.3316026886799888
 40
0.392838068269093
 40
0.4357040086989243
 40
0.499988128306029
 40
0.5816183741421639
 40
0.6428642193592289
 40
0.6857438499705676
 40
0.7500603586007396
 40
0.8000806894197213
 40
0.8750829266384894
 40
0.937556820817615
 40
0.973243052149929
 40
1.0
 40
1.0
 40
1.0
 40
1.0
 10
179.768398099319
 20
81.83402978061525
 30
0.0
 10
179.7771466215527
 20
81.83409080899965
 30
0.0
 10
179.7946444891391
 20
81.83421287151037
 30
0.0
 10
179.8296178808761
 20
81.83560271790566
 30
0.0
 10
179.8697674737796
 20
81.83867579052625
 30
0.0
 10
179.9218823756758
 20
81.8451045604095
 30
0.0
 10
179.9789084252576
 20
81.85506463908402
 30
0.0
 10
180.0382663777426
 20
81.8693088860793
 30
0.0
 10
180.0880829970007
 20
81.88430273203322
 30
0.0
 10
180.132636112041
 20
81.8997541737543
 30
0.0
 10
180.1818119869214
 20
81.91920337199977
 30
0.0
 10
180.2344480030917
 20
81.94368068392613
 30
0.0
 10
180.2803088508676
 20
81.96825949114934
 30
0.0
 10
180.3209359557569
 20
81.99223025189977
 30
0.0
 10
180.357891160776
 20
82.0161890677753
 30
0.0
 10
180.4010442166165
 20
82.04700463531144
 30
0.0
 10
180.4422508591022
 20
82.07958986776706
 30
0.0
 10
180.4785871473169
 20
82.11171959194488
 30
0.0
 10
180.5039114807391
 20
82.13585455383264
 30
0.0
 10
180.5161923920053
 20
82.1483004295993
 30
0.0
 10
180.5214547714453
 20
82.15363349644821
 30
0.0
  0
LINE
  5
12B
330
1F
100
AcDbEntity
  8
0
  6
CONTINUOUS
 62
     7
100
AcDbLine
 10
194.3597211632
 20
70.0024623319
 30
0.0
 11
181.7917208874
 21
71.9930380216
 31
0.0
  0
ARC
  5
12C
330
1F
100
AcDbEntity
  8
0
  6
CONTINUOUS
 62
     7
100
AcDbCircle
 10
181.8230077804
 20
72.1905756897
 30
0.0
 40
0.2000000000000228
100
AcDbArc
 50
171.0
 51
261.0
  0
ARC
  5
12D
330
1F
100
AcDbEntity
  8
0
  6
CONTINUOUS
 62
     7
100
AcDbCircle
 10
194.3910080562
 20
70.2
 30
0.0
 40
0.2000000000000139
100
AcDbArc
 50
261.0
 51
336.5232832066
  0
LINE
  5
12E
330
1F
100
AcDbEntity
  8
0
  6
CONTINUOUS
 62
     7
100
AcDbLine
 10
181.6411135588
 20
72.3206314167
 30
0.0
 11
181.6254701123
 21
72.2218625827
 31
0.0
  0
ARC
  5
12F
330
1F
100
AcDbEntity
  8
0
  6
CONTINUOUS
 62
     7
100
AcDbCircle
 10
181.8230077804
 20
82.8634067992
 30
0.0
 40
0.2000000000000088
100
AcDbArc
 50
99.0
 51
189.0
  0
LINE
  5
130
330
1F
100
AcDbEntity
  8
0
  6
CONTINUOUS
 62
     7
100
AcDbLine
 10
181.6411135588
 20
82.7333510721
 30
0.0
 11
181.6254701123
 21
82.8321199062
 31
0.0
  0
ARC
  5
131
330
1F
100
AcDbEntity
  8
0
  6
CONTINUOUS
 62
     7
100
AcDbCircle
 10
194.3910080562
 20
84.8539824889
 30
0.0
 40
0.1999999999999999
100
AcDbArc
 50
23.4767167934
 51
99.0
  0
LINE
  5
132
330
1F
100
AcDbEntity
  8
0
  6
CONTINUOUS
 62
     7
100
AcDbLine
 10
194.3597211632
 20
85.051520157
 30
0.0
 11
181.7917208874
 21
83.0609444673
 31
0.0
  0
LINE
  5
133
330
1F
100
AcDbEntity
  8
0
  6
CONTINUOUS
 62
     7
100
AcDbLine
 10
145.0539824889
 20
75.2769912444
 30
0.0
 11
145.0539824889
 21
79.7769912444
 31
0.0
  0
LINE
  5
134
330
1F
100
AcDbEntity
  8
0
  6
CONTINUOUS
 62
     7
100
AcDbLine
 10
180.7350898685
 20
72.7103534129
 30
0.0
 11
168.0539824889
 21
72.7103534129
 31
0.0
  0
LINE
  5
135
330
1F
100
AcDbEntity
  8
0
  6
CONTINUOUS
 62
     7
100
AcDbLine
 10
168.0539824889
 20
82.3436290759
 30
0.0
 11
180.7350898685
 21
82.3436290759
 31
0.0
  0
LINE
  5
136
330
1F
100
AcDbEntity
  8
0
  6
CONTINUOUS
 62
     7
100
AcDbLine
 10
167.5539824889
 20
231.0309737333
 30
0.0
 11
168.0539824889
 21
231.0309737333
 31
0.0
  0
LINE
  5
137
330
1F
100
AcDbEntity
  8
0
  6
CONTINUOUS
 62
     7
100
AcDbLine
 10
168.0539824889
 20
241.5309737333
 30
0.0
 11
167.5539824889
 21
241.5309737333
 31
0.0
  0
LINE
  5
138
330
1F
100
AcDbEntity
  8
0
  6
CONTINUOUS
 62
     7
100
AcDbLine
 10
167.5539824889
 20
241.5309737333
 30
0.0
 11
165.3603662467
 21
240.6096549116
 31
0.0
  0
LINE
  5
139
330
1F
100
AcDbEntity
  8
0
  6
CONTINUOUS
 62
     7
100
AcDbLine
 10
165.3603662467
 20
231.952292555
 30
0.0
 11
167.5539824889
 21
231.0309737333
 31
0.0
  0
ARC
  5
13A
330
1F
100
AcDbEntity
  8
0
  6
CONTINUOUS
 62
     7
100
AcDbCircle
 10
165.5539824889
 20
232.4132836078
 30
0.0
 40
0.5000000000000231
100
AcDbArc
 50
180.0
 51
247.2175942695
  0
ARC
  5
13B
330
1F
100
AcDbEntity
  8
0
  6
CONTINUOUS
 62
     7
100
AcDbCircle
 10
165.5539824889
 20
240.1486638588
 30
0.0
 40
0.5000000000000231
100
AcDbArc
 50
112.7824057305
 51
180.0
  0
LINE
  5
13C
330
1F
100
AcDbEntity
  8
0
  6
CONTINUOUS
 62
     7
100
AcDbLine
 10
145.0539824889
 20
234.0309737333
 30
0.0
 11
165.0539824889
 21
234.0309737333
 31
0.0
  0
LINE
  5
13D
330
1F
100
AcDbEntity
  8
0
  6
CONTINUOUS
 62
     7
100
AcDbLine
 10
165.0539824889
 20
238.5309737333
 30
0.0
 11
145.0539824889
 21
238.5309737333
 31
0.0
  0
LINE
  5
13E
330
1F
100
AcDbEntity
  8
0
  6
CONTINUOUS
 62
     7
100
AcDbLine
 10
180.8519921338
 20
241.1809737333
 30
0.0
 11
168.0539824889
 21
241.1809737333
 31
0.0
  0
LINE
  5
13F
330
1F
100
AcDbEntity
  8
0
  6
CONTINUOUS
 62
     7
100
AcDbLine
 10
168.0539824889
 20
231.3809737333
 30
0.0
 11
180.8519921338
 21
231.3809737333
 31
0.0
  0
LINE
  5
140
330
1F
100
AcDbEntity
  8
0
  6
CONTINUOUS
 62
     7
100
AcDbLine
 10
168.0539824889
 20
231.0309737333
 30
0.0
 11
168.0539824889
 21
241.5309737333
 31
0.0
  0
LINE
  5
141
330
1F
100
AcDbEntity
  8
0
  6
CONTINUOUS
 62
     7
100
AcDbLine
 10
167.5539824889
 20
231.0309737333
 30
0.0
 11
167.5539824889
 21
241.5309737333
 31
0.0
  0
ARC
  5
142
330
1F
100
AcDbEntity
  8
0
  6
CONTINUOUS
 62
     7
100
AcDbCircle
 10
181.9539824889
 20
239.5119568798
 30
0.0
 40
2.000000000000015
100
AcDbArc
 50
99.0
 51
162.9185239945
  0
ARC
  5
143
330
1F
100
AcDbEntity
  8
0
  6
CONTINUOUS
 62
     7
100
AcDbCircle
 10
181.9539824889
 20
233.0499905868
 30
0.0
 40
2.000000000000015
100
AcDbArc
 50
197.0814760055
 51
261.0
  0
LINE
  5
144
330
1F
100
AcDbEntity
  8
0
  6
CONTINUOUS
 62
     7
100
AcDbLine
 10
181.6411135588
 20
231.0746139056
 30
0.0
 11
194.6041891708
 21
229.0214644299
 31
0.0
  0
LINE
  5
145
330
1F
100
AcDbEntity
  8
0
  6
CONTINUOUS
 62
     7
100
AcDbLine
 10
194.6041891708
 20
243.5404830367
 30
0.0
 11
181.6411135588
 21
241.487333561
 31
0.0
  0
ARC
  5
146
330
1F
100
AcDbEntity
  8
0
  6
CONTINUOUS
 62
     7
100
AcDbCircle
 10
195.7539824889
 20
236.2809737333
 30
0.0
 40
7.350000000000241
100
AcDbArc
 50
261.0
 51
99.0
  0
LINE
  5
147
330
1F
100
AcDbEntity
  8
0
  6
CONTINUOUS
 62
     7
100
AcDbLine
 10
179.768356985
 20
231.9740026398
 30
0.0
 11
168.0539824889
 21
231.9740026398
 31
0.0
  0
LINE
  5
148
330
1F
100
AcDbEntity
  8
0
  6
CONTINUOUS
 62
     7
100
AcDbLine
 10
179.768364549
 20
240.5879448267
 30
0.0
 11
168.0539824889
 21
240.5879448267
 31
0.0
  0
LINE
  5
149
330
1F
100
AcDbEntity
  8
0
  6
CONTINUOUS
 62
     7
100
AcDbLine
 10
165.0539824889
 20
240.1486638588
 30
0.0
 11
165.0539824889
 21
232.4132836389
 31
0.0
  0
SPLINE
  5
14A
330
1F
100
AcDbEntity
  8
0
  6
CONTINUOUS
 62
     7
100
AcDbSpline
210
0.0
220
0.0
230
1.0
 70
     8
 71
     3
 72
    25
 73
    21
 74
     0
 42
0.000000001
 43
0.00000001
 40
0.0
 40
0.0
 40
0.0
 40
0.0
 40
0.0249759451688999
 40
0.0624507592439232
 40
0.1249329803584581
 40
0.1749415991091035
 40
0.2499715093276351
 40
0.3316456070995007
 40
0.392898877270537
 40
0.4357693193936426
 40
0.5000516756035874
 40
0.5816730940544316
 40
0.6429039188392416
 40
0.6857658793416443
 40
0.750042057889481
 40
0.8000342726960985
 40
0.8750250184095677
 40
0.9375154321509147
 40
0.973222091583727
 40
1.0
 40
1.0
 40
1.0
 40
1.0
 10
180.5214547714453
 20
231.6543314812556
 30
0.0
 10
180.5165444852168
 20
231.6593114583055
 30
0.0
 10
180.5042666274218
 20
231.671763573558
 30
0.0
 10
180.4789555913439
 20
231.695919981156
 30
0.0
 10
180.4474843647099
 20
231.7237466734066
 30
0.0
 10
180.4066132103905
 20
231.7567287082437
 30
0.0
 10
180.3598130901433
 20
231.7908452189347
 30
0.0
 10
180.3083415345664
 20
231.8237171007116
 30
0.0
 10
180.2629735738672
 20
231.8492200123048
 30
0.0
 10
180.2209442025094
 20
231.8706176884299
 30
0.0
 10
180.1728392338094
 20
231.8925798649943
 30
0.0
 10
180.1187164503189
 20
231.9135489530309
 30
0.0
 10
180.0692168330681
 20
231.9295497395933
 30
0.0
 10
180.0237885542069
 20
231.9421822245492
 30
0.0
 10
179.9809142538124
 20
231.9521568142144
 30
0.0
 10
179.9287933172522
 20
231.961797535032
 30
0.0
 10
179.8767270216913
 20
231.968758990258
 30
0.0
 10
179.828355626516
 20
231.9724639540785
 30
0.0
 10
179.7933804455683
 20
231.9737896400626
 30
0.0
 10
179.7758839994787
 20
231.9738950792318
 30
0.0
 10
179.768385856383
 20
231.9739402654355
 30
0.0
  0
SPLINE
  5
14B
330
1F
100
AcDbEntity
  8
0
  6
CONTINUOUS
 62
     7
100
AcDbSpline
210
0.0
220
0.0
230
1.0
 70
     8
 71
     3
 72
    25
 73
    21
 74
     0
 42
0.000000001
 43
0.00000001
 40
0.0
 40
0.0
 40
0.0
 40
0.0
 40
0.0312433373120225
 40
0.0624896046264533
 40
0.1249849105135623
 40
0.1964113209791042
 40
0.2499782935296337
 40
0.3316028877701038
 40
0.3928382111521483
 40
0.435704114958291
 40
0.4999881741472124
 40
0.5816183713301174
 40
0.642864208256475
 40
0.6857438367801917
 40
0.750060339923484
 40
0.8000806624214087
 40
0.8750828859070225
 40
0.9375567823850343
 40
0.9732430295081597
 40
1.0
 40
1.0
 40
1.0
 40
1.0
 10
179.7683981025694
 20
240.5880122759981
 30
0.0
 10
179.7771465978013
 20
240.5880733132952
 30
0.0
 10
179.7946444086997
 20
240.5881953936136
 30
0.0
 10
179.8296179910374
 20
240.5895852220416
 30
0.0
 10
179.875749395299
 20
240.593117309574
 30
0.0
 10
179.9278253143444
 20
240.6000039248969
 30
0.0
 10
179.9847427002555
 20
240.6104484600034
 30
0.0
 10
180.0382662588566
 20
240.6232927931288
 30
0.0
 10
180.0880820671101
 20
240.6382867904213
 30
0.0
 10
180.1326351882542
 20
240.6537384111971
 30
0.0
 10
180.1818109319803
 20
240.673187664061
 30
0.0
 10
180.2344469754564
 20
240.6976648266855
 30
0.0
 10
180.2803079215195
 20
240.7222433772721
 30
0.0
 10
180.3209351694007
 20
240.7462138629255
 30
0.0
 10
180.3578905368244
 20
240.7701723980053
 30
0.0
 10
180.4010438013273
 20
240.8009876365724
 30
0.0
 10
180.4422506446165
 20
240.833572586929
 30
0.0
 10
180.4785870699828
 20
240.8657021414731
 30
0.0
 10
180.5039114651793
 20
240.8898370429807
 30
0.0
 10
180.5161923864879
 20
240.9022829176787
 30
0.0
 10
180.5214547714453
 20
240.9076159853001
 30
0.0
  0
LINE
  5
14C
330
1F
100
AcDbEntity
  8
0
  6
CONTINUOUS
 62
     7
100
AcDbLine
 10
181.7917208874
 20
230.7470205104
 30
0.0
 11
194.3597211632
 21
228.7564448207
 31
0.0
  0
ARC
  5
14D
330
1F
100
AcDbEntity
  8
0
  6
CONTINUOUS
 62
     7
100
AcDbCircle
 10
181.8230077804
 20
230.9445581785
 30
0.0
 40
0.2000000000000088
100
AcDbArc
 50
171.0
 51
261.0
  0
LINE
  5
14E
330
1F
100
AcDbEntity
  8
0
  6
CONTINUOUS
 62
     7
100
AcDbLine
 10
181.6411135588
 20
231.0746139056
 30
0.0
 11
181.6254701123
 21
230.9758450715
 31
0.0
  0
LINE
  5
14F
330
1F
100
AcDbEntity
  8
0
  6
CONTINUOUS
 62
     7
100
AcDbLine
 10
194.6041891708
 20
229.0214644299
 30
0.0
 11
194.5885457243
 21
228.9226955958
 31
0.0
  0
ARC
  5
150
330
1F
100
AcDbEntity
  8
0
  6
CONTINUOUS
 62
     7
100
AcDbCircle
 10
194.3910080562
 20
228.9539824889
 30
0.0
 40
0.1999999999999999
100
AcDbArc
 50
261.0
 51
351.0
  0
LINE
  5
151
330
1F
100
AcDbEntity
  8
0
  6
CONTINUOUS
 62
     7
100
AcDbLine
 10
181.6411135588
 20
241.487333561
 30
0.0
 11
181.6254701123
 21
241.586102395
 31
0.0
  0
ARC
  5
152
330
1F
100
AcDbEntity
  8
0
  6
CONTINUOUS
 62
     7
100
AcDbCircle
 10
181.8230077804
 20
241.617389288
 30
0.0
 40
0.2000000000000088
100
AcDbArc
 50
99.0
 51
189.0
  0
ARC
  5
153
330
1F
100
AcDbEntity
  8
0
  6
CONTINUOUS
 62
     7
100
AcDbCircle
 10
194.3910080562
 20
243.6079649777
 30
0.0
 40
0.1999999999999954
100
AcDbArc
 50
9.0
 51
99.0
  0
LINE
  5
154
330
1F
100
AcDbEntity
  8
0
  6
CONTINUOUS
 62
     7
100
AcDbLine
 10
194.6041891708
 20
243.5404830367
 30
0.0
 11
194.5885457243
 21
243.6392518707
 31
0.0
  0
LINE
  5
155
330
1F
100
AcDbEntity
  8
0
  6
CONTINUOUS
 62
     7
100
AcDbLine
 10
181.7917208874
 20
241.8149269561
 30
0.0
 11
194.3597211632
 21
243.8055026458
 31
0.0
  0
LINE
  5
156
330
1F
100
AcDbEntity
  8
0
  6
CONTINUOUS
 62
     7
100
AcDbLine
 10
145.0539824889
 20
234.0309737333
 30
0.0
 11
145.0539824889
 21
238.5309737333
 31
0.0
  0
LINE
  5
157
330
1F
100
AcDbEntity
  8
0
  6
CONTINUOUS
 62
     7
100
AcDbLine
 10
180.7350898685
 20
231.4643359018
 30
0.0
 11
168.0539824889
 21
231.4643359018
 31
0.0
  0
LINE
  5
158
330
1F
100
AcDbEntity
  8
0
  6
CONTINUOUS
 62
     7
100
AcDbLine
 10
180.7350898685
 20
241.0976115648
 30
0.0
 11
168.0539824889
 21
241.0976115648
 31
0.0
  0
ARC
  5
159
330
1F
100
AcDbEntity
  8
0
  6
CONTINUOUS
 62
     7
100
AcDbCircle
 10
195.7539824889
 20
236.2809737333
 30
0.0
 40
7.5
100
AcDbArc
 50
260.9514885087
 51
0.0
  0
ARC
  5
15A
330
1F
100
AcDbEntity
  8
0
  6
CONTINUOUS
 62
     7
100
AcDbCircle
 10
195.7539824889
 20
236.2809737333
 30
0.0
 40
7.500000000000013
100
AcDbArc
 50
0.0
 51
99.0485114913
  0
LINE
  5
15B
330
1F
100
AcDbEntity
  8
0
  6
CONTINUOUS
 62
     7
100
AcDbLine
 10
263.2809737333
 20
166.6539824889
 30
0.0
 11
263.2809737333
 21
159.3539824889
 31
0.0
  0
LINE
  5
15C
330
1F
100
AcDbEntity
  8
0
  6
CONTINUOUS
 62
     7
100
AcDbLine
 10
278.2809737333
 20
159.3539824889
 30
0.0
 11
278.2809737333
 21
166.6539824889
 31
0.0
  0
LINE
  5
15D
330
1F
100
AcDbEntity
  8
0
  6
CONTINUOUS
 62
     7
100
AcDbLine
 10
278.2809737333
 20
166.6539824889
 30
0.0
 11
277.6809737333
 21
167.2539824889
 31
0.0
  0
LINE
  5
15E
330
1F
100
AcDbEntity
  8
0
  6
CONTINUOUS
 62
     7
100
AcDbLine
 10
263.8809737333
 20
167.2539824889
 30
0.0
 11
263.2809737333
 21
166.6539824889
 31
0.0
  0
ARC
  5
15F
330
1F
100
AcDbEntity
  8
0
  6
CONTINUOUS
 62
     7
100
AcDbCircle
 10
263.3809737333
 20
159.3539824889
 30
0.0
 40
0.1000000000000227
100
AcDbArc
 50
180.0
 51
270.0
  0
ARC
  5
160
330
1F
100
AcDbEntity
  8
0
  6
CONTINUOUS
 62
     7
100
AcDbCircle
 10
278.1809737333
 20
159.3539824889
 30
0.0
 40
0.0999999999999943
100
AcDbArc
 50
270.0
 51
0.0
  0
LINE
  5
161
330
1F
100
AcDbEntity
  8
0
  6
CONTINUOUS
 62
     7
100
AcDbLine
 10
276.9809737333
 20
154.8039824889
 30
0.0
 11
276.7809737333
 21
155.0039824889
 31
0.0
  0
LINE
  5
162
330
1F
100
AcDbEntity
  8
0
  6
CONTINUOUS
 62
     7
100
AcDbLine
 10
264.7809737333
 20
155.0039824889
 30
0.0
 11
264.5809737333
 21
154.8039824889
 31
0.0
  0
LINE
  5
163
330
1F
100
AcDbEntity
  8
0
  6
CONTINUOUS
 62
     7
100
AcDbLine
 10
266.5309737333
 20
156.7539824889
 30
0.0
 11
266.5309737333
 21
155.0039824889
 31
0.0
  0
LINE
  5
164
330
1F
100
AcDbEntity
  8
0
  6
CONTINUOUS
 62
     7
100
AcDbLine
 10
275.0309737333
 20
155.0039824889
 30
0.0
 11
275.0309737333
 21
156.7539824889
 31
0.0
  0
LINE
  5
165
330
1F
100
AcDbEntity
  8
0
  6
CONTINUOUS
 62
     7
100
AcDbLine
 10
266.6809737333
 20
168.2539824889
 30
0.0
 11
266.6809737333
 21
167.2539824889
 31
0.0
  0
LINE
  5
166
330
1F
100
AcDbEntity
  8
0
  6
CONTINUOUS
 62
     7
100
AcDbLine
 10
274.8809737333
 20
167.2539824889
 30
0.0
 11
274.8809737333
 21
168.2539824889
 31
0.0
  0
LINE
  5
167
330
1F
100
AcDbEntity
  8
0
  6
CONTINUOUS
 62
     7
100
AcDbLine
 10
274.8809737333
 20
168.2539824889
 30
0.0
 11
274.5922985987
 21
168.7539824889
 31
0.0
  0
LINE
  5
168
330
1F
100
AcDbEntity
  8
0
  6
CONTINUOUS
 62
     7
100
AcDbLine
 10
266.9696488679
 20
168.7539824889
 30
0.0
 11
266.6809737333
 21
168.2539824889
 31
0.0
  0
LINE
  5
169
330
1F
100
AcDbEntity
  8
0
  6
CONTINUOUS
 62
     7
100
AcDbLine
 10
263.2539824889
 20
152.8039824889
 30
0.0
 11
263.2539824889
 21
151.8039824889
 31
0.0
  0
LINE
  5
16A
330
1F
100
AcDbEntity
  8
0
  6
CONTINUOUS
 62
     7
100
AcDbLine
 10
278.3079649777
 20
151.8039824889
 30
0.0
 11
278.3079649777
 21
152.8039824889
 31
0.0
  0
LINE
  5
16B
330
1F
100
AcDbEntity
  8
0
  6
CONTINUOUS
 62
     7
100
AcDbLine
 10
278.3079649777
 20
147.8039824889
 30
0.0
 11
278.3079649777
 21
148.8039824889
 31
0.0
  0
LINE
  5
16C
330
1F
100
AcDbEntity
  8
0
  6
CONTINUOUS
 62
     7
100
AcDbLine
 10
278.3079649777
 20
149.8039824889
 30
0.0
 11
278.3079649777
 21
150.8039824889
 31
0.0
  0
LINE
  5
16D
330
1F
100
AcDbEntity
  8
0
  6
CONTINUOUS
 62
     7
100
AcDbLine
 10
263.2539824889
 20
150.8039824889
 30
0.0
 11
263.2539824889
 21
149.8039824889
 31
0.0
  0
LINE
  5
16E
330
1F
100
AcDbEntity
  8
0
  6
CONTINUOUS
 62
     7
100
AcDbLine
 10
263.2539824889
 20
148.8039824889
 30
0.0
 11
263.2539824889
 21
147.8039824889
 31
0.0
  0
LINE
  5
16F
330
1F
100
AcDbEntity
  8
0
  6
CONTINUOUS
 62
     7
100
AcDbLine
 10
263.4309737333
 20
153.8039824889
 30
0.0
 11
263.4309737333
 21
152.8039824889
 31
0.0
  0
LINE
  5
170
330
1F
100
AcDbEntity
  8
0
  6
CONTINUOUS
 62
     7
100
AcDbLine
 10
263.4309737333
 20
151.8039824889
 30
0.0
 11
263.4309737333
 21
150.8039824889
 31
0.0
  0
LINE
  5
171
330
1F
100
AcDbEntity
  8
0
  6
CONTINUOUS
 62
     7
100
AcDbLine
 10
263.4309737333
 20
149.8039824889
 30
0.0
 11
263.4309737333
 21
148.8039824889
 31
0.0
  0
LINE
  5
172
330
1F
100
AcDbEntity
  8
0
  6
CONTINUOUS
 62
     7
100
AcDbLine
 10
263.4309737333
 20
147.8039824889
 30
0.0
 11
263.4309737333
 21
146.8039824889
 31
0.0
  0
LINE
  5
173
330
1F
100
AcDbEntity
  8
0
  6
CONTINUOUS
 62
     7
100
AcDbLine
 10
278.1309737333
 20
146.8039824889
 30
0.0
 11
278.1309737333
 21
147.8039824889
 31
0.0
  0
LINE
  5
174
330
1F
100
AcDbEntity
  8
0
  6
CONTINUOUS
 62
     7
100
AcDbLine
 10
278.1309737333
 20
148.8039824889
 30
0.0
 11
278.1309737333
 21
149.8039824889
 31
0.0
  0
LINE
  5
175
330
1F
100
AcDbEntity
  8
0
  6
CONTINUOUS
 62
     7
100
AcDbLine
 10
278.1309737333
 20
150.8039824889
 30
0.0
 11
278.1309737333
 21
151.8039824889
 31
0.0
  0
LINE
  5
176
330
1F
100
AcDbEntity
  8
0
  6
CONTINUOUS
 62
     7
100
AcDbLine
 10
278.1309737333
 20
152.8039824889
 30
0.0
 11
278.1309737333
 21
153.8039824889
 31
0.0
  0
ARC
  5
177
330
1F
100
AcDbEntity
  8
0
  6
CONTINUOUS
 62
     7
100
AcDbCircle
 10
277.1309737333
 20
153.8039824889
 30
0.0
 40
1.0
100
AcDbArc
 50
0.0
 51
90.0
  0
ARC
  5
178
330
1F
100
AcDbEntity
  8
0
  6
CONTINUOUS
 62
     7
100
AcDbCircle
 10
264.4309737333
 20
153.8039824889
 30
0.0
 40
1.0
100
AcDbArc
 50
90.0
 51
180.0
  0
ARC
  5
179
330
1F
100
AcDbEntity
  8
0
  6
CONTINUOUS
 62
     7
100
AcDbCircle
 10
264.4309737333
 20
146.8039824889
 30
0.0
 40
1.0
100
AcDbArc
 50
180.0
 51
270.0
  0
ARC
  5
17A
330
1F
100
AcDbEntity
  8
0
  6
CONTINUOUS
 62
     7
100
AcDbCircle
 10
277.1309737333
 20
146.8039824889
 30
0.0
 40
1.0
100
AcDbArc
 50
270.0
 51
0.0
  0
CIRCLE
  5
17B
330
1F
100
AcDbEntity
  8
0
  6
CONTINUOUS
 62
     7
100
AcDbCircle
 10
270.7809737333
 20
150.3039824889
 30
0.0
 40
2.25
  0
CIRCLE
  5
17C
330
1F
100
AcDbEntity
  8
0
  6
CONTINUOUS
 62
     7
100
AcDbCircle
 10
270.7809737333
 20
150.3039824889
 30
0.0
 40
5.25
  0
LINE
  5
17D
330
1F
100
AcDbEntity
  8
0
  6
CONTINUOUS
 62
     7
100
AcDbLine
 10
266.5623022462
 20
145.8039824889
 30
0.0
 11
267.5499905868
 21
145.8039824889
 31
0.0
  0
LINE
  5
17E
330
1F
100
AcDbEntity
  8
0
  6
CONTINUOUS
 62
     7
100
AcDbLine
 10
267.5499905868
 20
154.8039824889
 30
0.0
 11
266.5623022462
 21
154.8039824889
 31
0.0
  0
LINE
  5
17F
330
1F
100
AcDbEntity
  8
0
  6
CONTINUOUS
 62
     7
100
AcDbLine
 10
274.0119568798
 20
145.8039824889
 30
0.0
 11
274.9996452204
 21
145.8039824889
 31
0.0
  0
LINE
  5
180
330
1F
100
AcDbEntity
  8
0
  6
CONTINUOUS
 62
     7
100
AcDbLine
 10
274.9996452204
 20
154.8039824889
 30
0.0
 11
274.0119568798
 21
154.8039824889
 31
0.0
  0
LINE
  5
181
330
1F
100
AcDbEntity
  8
0
  6
CONTINUOUS
 62
     7
100
AcDbLine
 10
265.5746139056
 20
148.8039824889
 30
0.0
 11
265.5746139056
 21
147.8039824889
 31
0.0
  0
LINE
  5
182
330
1F
100
AcDbEntity
  8
0
  6
CONTINUOUS
 62
     7
100
AcDbLine
 10
265.5746139056
 20
152.8039824889
 30
0.0
 11
265.5746139056
 21
151.8039824889
 31
0.0
  0
LINE
  5
183
330
1F
100
AcDbEntity
  8
0
  6
CONTINUOUS
 62
     7
100
AcDbLine
 10
275.987333561
 20
151.8039824889
 30
0.0
 11
275.987333561
 21
152.8039824889
 31
0.0
  0
LINE
  5
184
330
1F
100
AcDbEntity
  8
0
  6
CONTINUOUS
 62
     7
100
AcDbLine
 10
275.987333561
 20
147.8039824889
 30
0.0
 11
275.987333561
 21
148.8039824889
 31
0.0
  0
LINE
  5
185
330
1F
100
AcDbEntity
  8
0
  6
CONTINUOUS
 62
     7
100
AcDbLine
 10
274.0119568798
 20
154.8039824889
 30
0.0
 11
273.4851371899
 21
154.8039824889
 31
0.0
  0
LINE
  5
186
330
1F
100
AcDbEntity
  8
0
  6
CONTINUOUS
 62
     7
100
AcDbLine
 10
268.0768102767
 20
154.8039824889
 30
0.0
 11
267.5499905868
 21
154.8039824889
 31
0.0
  0
LINE
  5
187
330
1F
100
AcDbEntity
  8
0
  6
CONTINUOUS
 62
     7
100
AcDbLine
 10
267.5499905868
 20
145.8039824889
 30
0.0
 11
268.0768102767
 21
145.8039824889
 31
0.0
  0
LINE
  5
188
330
1F
100
AcDbEntity
  8
0
  6
CONTINUOUS
 62
     7
100
AcDbLine
 10
273.4851371899
 20
145.8039824889
 30
0.0
 11
274.0119568798
 21
145.8039824889
 31
0.0
  0
LINE
  5
189
330
1F
100
AcDbEntity
  8
0
  6
CONTINUOUS
 62
     7
100
AcDbLine
 10
276.086102395
 20
150.8039824889
 30
0.0
 11
276.3149269561
 21
150.8039824889
 31
0.0
  0
LINE
  5
18A
330
1F
100
AcDbEntity
  8
0
  6
CONTINUOUS
 62
     7
100
AcDbLine
 10
276.3149269561
 20
149.8039824889
 30
0.0
 11
276.086102395
 21
149.8039824889
 31
0.0
  0
LINE
  5
18B
330
1F
100
AcDbEntity
  8
0
  6
CONTINUOUS
 62
     7
100
AcDbLine
 10
265.4758450715
 20
148.8039824889
 30
0.0
 11
265.2470205104
 21
148.8039824889
 31
0.0
  0
LINE
  5
18C
330
1F
100
AcDbEntity
  8
0
  6
CONTINUOUS
 62
     7
100
AcDbLine
 10
265.2470205104
 20
147.8039824889
 30
0.0
 11
265.4758450715
 21
147.8039824889
 31
0.0
  0
LINE
  5
18D
330
1F
100
AcDbEntity
  8
0
  6
CONTINUOUS
 62
     7
100
AcDbLine
 10
265.4758450715
 20
152.8039824889
 30
0.0
 11
265.2470205104
 21
152.8039824889
 31
0.0
  0
LINE
  5
18E
330
1F
100
AcDbEntity
  8
0
  6
CONTINUOUS
 62
     7
100
AcDbLine
 10
265.2470205104
 20
151.8039824889
 30
0.0
 11
265.4758450715
 21
151.8039824889
 31
0.0
  0
LINE
  5
18F
330
1F
100
AcDbEntity
  8
0
  6
CONTINUOUS
 62
     7
100
AcDbLine
 10
276.3149269561
 20
147.8039824889
 30
0.0
 11
276.086102395
 21
147.8039824889
 31
0.0
  0
LINE
  5
190
330
1F
100
AcDbEntity
  8
0
  6
CONTINUOUS
 62
     7
100
AcDbLine
 10
276.086102395
 20
148.8039824889
 30
0.0
 11
276.3149269561
 21
148.8039824889
 31
0.0
  0
LINE
  5
191
330
1F
100
AcDbEntity
  8
0
  6
CONTINUOUS
 62
     7
100
AcDbLine
 10
265.2470205104
 20
149.8039824889
 30
0.0
 11
265.4758450715
 21
149.8039824889
 31
0.0
  0
LINE
  5
192
330
1F
100
AcDbEntity
  8
0
  6
CONTINUOUS
 62
     7
100
AcDbLine
 10
265.4758450715
 20
150.8039824889
 30
0.0
 11
265.2470205104
 21
150.8039824889
 31
0.0
  0
LINE
  5
193
330
1F
100
AcDbEntity
  8
0
  6
CONTINUOUS
 62
     7
100
AcDbLine
 10
276.3149269561
 20
151.8039824889
 30
0.0
 11
276.086102395
 21
151.8039824889
 31
0.0
  0
LINE
  5
194
330
1F
100
AcDbEntity
  8
0
  6
CONTINUOUS
 62
     7
100
AcDbLine
 10
276.086102395
 20
152.8039824889
 30
0.0
 11
276.3149269561
 21
152.8039824889
 31
0.0
  0
LINE
  5
195
330
1F
100
AcDbEntity
  8
0
  6
CONTINUOUS
 62
     7
100
AcDbLine
 10
265.5746139056
 20
152.8039824889
 30
0.0
 11
265.4758450715
 21
152.8039824889
 31
0.0
  0
LINE
  5
196
330
1F
100
AcDbEntity
  8
0
  6
CONTINUOUS
 62
     7
100
AcDbLine
 10
265.5746139056
 20
151.8039824889
 30
0.0
 11
265.4758450715
 21
151.8039824889
 31
0.0
  0
LINE
  5
197
330
1F
100
AcDbEntity
  8
0
  6
CONTINUOUS
 62
     7
100
AcDbLine
 10
265.5548374932
 20
149.8039824889
 30
0.0
 11
265.4758450715
 21
149.8039824889
 31
0.0
  0
LINE
  5
198
330
1F
100
AcDbEntity
  8
0
  6
CONTINUOUS
 62
     7
100
AcDbLine
 10
265.5548374932
 20
150.8039824889
 30
0.0
 11
265.4758450715
 21
150.8039824889
 31
0.0
  0
LINE
  5
199
330
1F
100
AcDbEntity
  8
0
  6
CONTINUOUS
 62
     7
100
AcDbLine
 10
275.987333561
 20
147.8039824889
 30
0.0
 11
276.086102395
 21
147.8039824889
 31
0.0
  0
LINE
  5
19A
330
1F
100
AcDbEntity
  8
0
  6
CONTINUOUS
 62
     7
100
AcDbLine
 10
275.987333561
 20
148.8039824889
 30
0.0
 11
276.086102395
 21
148.8039824889
 31
0.0
  0
LINE
  5
19B
330
1F
100
AcDbEntity
  8
0
  6
CONTINUOUS
 62
     7
100
AcDbLine
 10
276.0071099734
 20
149.8039824889
 30
0.0
 11
276.086102395
 21
149.8039824889
 31
0.0
  0
LINE
  5
19C
330
1F
100
AcDbEntity
  8
0
  6
CONTINUOUS
 62
     7
100
AcDbLine
 10
276.0071099734
 20
150.8039824889
 30
0.0
 11
276.086102395
 21
150.8039824889
 31
0.0
  0
LINE
  5
19D
330
1F
100
AcDbEntity
  8
0
  6
CONTINUOUS
 62
     7
100
AcDbLine
 10
265.5746139056
 20
148.8039824889
 30
0.0
 11
265.4758450715
 21
148.8039824889
 31
0.0
  0
LINE
  5
19E
330
1F
100
AcDbEntity
  8
0
  6
CONTINUOUS
 62
     7
100
AcDbLine
 10
265.5746139056
 20
147.8039824889
 30
0.0
 11
265.4758450715
 21
147.8039824889
 31
0.0
  0
LINE
  5
19F
330
1F
100
AcDbEntity
  8
0
  6
CONTINUOUS
 62
     7
100
AcDbLine
 10
275.987333561
 20
151.8039824889
 30
0.0
 11
276.086102395
 21
151.8039824889
 31
0.0
  0
LINE
  5
1A0
330
1F
100
AcDbEntity
  8
0
  6
CONTINUOUS
 62
     7
100
AcDbLine
 10
275.987333561
 20
152.8039824889
 30
0.0
 11
276.086102395
 21
152.8039824889
 31
0.0
  0
LINE
  5
1A1
330
1F
100
AcDbEntity
  8
0
  6
CONTINUOUS
 62
     7
100
AcDbLine
 10
277.0527946961
 20
154.8039824889
 30
0.0
 11
274.9996452204
 21
154.8039824889
 31
0.0
  0
LINE
  5
1A2
330
1F
100
AcDbEntity
  8
0
  6
CONTINUOUS
 62
     7
100
AcDbLine
 10
266.5623022462
 20
154.8039824889
 30
0.0
 11
264.5091527705
 21
154.8039824889
 31
0.0
  0
LINE
  5
1A3
330
1F
100
AcDbEntity
  8
0
  6
CONTINUOUS
 62
     7
100
AcDbLine
 10
264.5091527705
 20
145.8039824889
 30
0.0
 11
266.5623022462
 21
145.8039824889
 31
0.0
  0
LINE
  5
1A4
330
1F
100
AcDbEntity
  8
0
  6
CONTINUOUS
 62
     7
100
AcDbLine
 10
274.9996452204
 20
145.8039824889
 30
0.0
 11
277.0527946961
 21
145.8039824889
 31
0.0
  0
LINE
  5
1A5
330
1F
100
AcDbEntity
  8
0
  6
CONTINUOUS
 62
     7
100
AcDbLine
 10
263.2564448207
 20
152.8039824889
 30
0.0
 11
265.2470205104
 21
152.8039824889
 31
0.0
  0
LINE
  5
1A6
330
1F
100
AcDbEntity
  8
0
  6
CONTINUOUS
 62
     7
100
AcDbLine
 10
265.2470205104
 20
151.8039824889
 30
0.0
 11
263.2564448207
 21
151.8039824889
 31
0.0
  0
LINE
  5
1A7
330
1F
100
AcDbEntity
  8
0
  6
CONTINUOUS
 62
     7
100
AcDbLine
 10
276.3149269561
 20
149.8039824889
 30
0.0
 11
278.3055026458
 21
149.8039824889
 31
0.0
  0
LINE
  5
1A8
330
1F
100
AcDbEntity
  8
0
  6
CONTINUOUS
 62
     7
100
AcDbLine
 10
278.3055026458
 20
150.8039824889
 30
0.0
 11
276.3149269561
 21
150.8039824889
 31
0.0
  0
LINE
  5
1A9
330
1F
100
AcDbEntity
  8
0
  6
CONTINUOUS
 62
     7
100
AcDbLine
 10
276.3149269561
 20
151.8039824889
 30
0.0
 11
278.3055026458
 21
151.8039824889
 31
0.0
  0
LINE
  5
1AA
330
1F
100
AcDbEntity
  8
0
  6
CONTINUOUS
 62
     7
100
AcDbLine
 10
278.3055026458
 20
152.8039824889
 30
0.0
 11
276.3149269561
 21
152.8039824889
 31
0.0
  0
LINE
  5
1AB
330
1F
100
AcDbEntity
  8
0
  6
CONTINUOUS
 62
     7
100
AcDbLine
 10
265.2470205104
 20
149.8039824889
 30
0.0
 11
263.2564448207
 21
149.8039824889
 31
0.0
  0
LINE
  5
1AC
330
1F
100
AcDbEntity
  8
0
  6
CONTINUOUS
 62
     7
100
AcDbLine
 10
263.2564448207
 20
150.8039824889
 30
0.0
 11
265.2470205104
 21
150.8039824889
 31
0.0
  0
LINE
  5
1AD
330
1F
100
AcDbEntity
  8
0
  6
CONTINUOUS
 62
     7
100
AcDbLine
 10
263.2564448207
 20
148.8039824889
 30
0.0
 11
265.2470205104
 21
148.8039824889
 31
0.0
  0
LINE
  5
1AE
330
1F
100
AcDbEntity
  8
0
  6
CONTINUOUS
 62
     7
100
AcDbLine
 10
265.2470205104
 20
147.8039824889
 30
0.0
 11
263.2564448207
 21
147.8039824889
 31
0.0
  0
LINE
  5
1AF
330
1F
100
AcDbEntity
  8
0
  6
CONTINUOUS
 62
     7
100
AcDbLine
 10
276.3149269561
 20
147.8039824889
 30
0.0
 11
278.3055026458
 21
147.8039824889
 31
0.0
  0
LINE
  5
1B0
330
1F
100
AcDbEntity
  8
0
  6
CONTINUOUS
 62
     7
100
AcDbLine
 10
278.3055026458
 20
148.8039824889
 30
0.0
 11
276.3149269561
 21
148.8039824889
 31
0.0
  0
LINE
  5
1B1
330
1F
100
AcDbEntity
  8
0
  6
CONTINUOUS
 62
     7
100
AcDbLine
 10
270.7809737333
 20
166.6539824889
 30
0.0
 11
278.2809737333
 21
166.6539824889
 31
0.0
  0
LINE
  5
1B2
330
1F
100
AcDbEntity
  8
0
  6
CONTINUOUS
 62
     7
100
AcDbLine
 10
263.2809737333
 20
166.6539824889
 30
0.0
 11
270.7809737333
 21
166.6539824889
 31
0.0
  0
LINE
  5
1B3
330
1F
100
AcDbEntity
  8
0
  6
CONTINUOUS
 62
     7
100
AcDbLine
 10
270.7809737333
 20
167.2539824889
 30
0.0
 11
277.6809737333
 21
167.2539824889
 31
0.0
  0
LINE
  5
1B4
330
1F
100
AcDbEntity
  8
0
  6
CONTINUOUS
 62
     7
100
AcDbLine
 10
263.8809737333
 20
167.2539824889
 30
0.0
 11
270.7809737333
 21
167.2539824889
 31
0.0
  0
LINE
  5
1B5
330
1F
100
AcDbEntity
  8
0
  6
CONTINUOUS
 62
     7
100
AcDbLine
 10
278.1809737333
 20
159.2539824889
 30
0.0
 11
263.3809737333
 21
159.2539824889
 31
0.0
  0
LINE
  5
1B6
330
1F
100
AcDbEntity
  8
0
  6
CONTINUOUS
 62
     7
100
AcDbLine
 10
270.2128573997
 20
156.9539824889
 30
0.0
 11
271.3490900669
 21
156.9539824889
 31
0.0
  0
SPLINE
  5
1B7
330
1F
100
AcDbEntity
  8
0
  6
CONTINUOUS
 62
     7
100
AcDbSpline
210
0.0
220
0.0
230
1.0
 70
     8
 71
     3
 72
     8
 73
     4
 74
     0
 42
0.000000001
 43
0.00000001
 40
0.0
 40
0.0
 40
0.0
 40
0.0
 40
0.0286485978063875
 40
0.0286485978063875
 40
0.0286485978063875
 40
0.0286485978063875
 10
271.349090066897
 20
156.9539824888519
 30
0.0
 10
271.3286570111122
 20
156.8868219679245
 30
0.0
 10
271.3084708824576
 20
156.8201553012579
 30
0.0
 10
271.288531680933
 20
156.7539824888519
 30
0.0
  0
LINE
  5
1B8
330
1F
100
AcDbEntity
  8
0
  6
CONTINUOUS
 62
     7
100
AcDbLine
 10
271.2885316809
 20
156.7539824889
 30
0.0
 11
270.2734157856
 21
156.7539824889
 31
0.0
  0
SPLINE
  5
1B9
330
1F
100
AcDbEntity
  8
0
  6
CONTINUOUS
 62
     7
100
AcDbSpline
210
0.0
220
0.0
230
1.0
 70
     8
 71
     3
 72
     8
 73
     4
 74
     0
 42
0.000000001
 43
0.00000001
 40
0.0
 40
0.0
 40
0.0
 40
0.0
 40
0.0286485978063877
 40
0.0286485978063877
 40
0.0286485978063877
 40
0.0286485978063877
 10
270.2734157856226
 20
156.7539824888519
 30
0.0
 10
270.2534765840974
 20
156.8201553012601
 30
0.0
 10
270.2332904554427
 20
156.8868219679268
 30
0.0
 10
270.2128573996586
 20
156.9539824888519
 30
0.0
  0
LINE
  5
1BA
330
1F
100
AcDbEntity
  8
0
  6
CONTINUOUS
 62
     7
100
AcDbLine
 10
270.2128573997
 20
156.9539824889
 30
0.0
 11
270.2128573997
 21
159.2539824889
 31
0.0
  0
LINE
  5
1BB
330
1F
100
AcDbEntity
  8
0
  6
CONTINUOUS
 62
     7
100
AcDbLine
 10
271.3490900669
 20
159.2539824889
 30
0.0
 11
271.3490900669
 21
156.9539824889
 31
0.0
  0
LINE
  5
1BC
330
1F
100
AcDbEntity
  8
0
  6
CONTINUOUS
 62
     7
100
AcDbLine
 10
276.7128573997
 20
156.9539824889
 30
0.0
 11
271.3490900669
 21
156.9539824889
 31
0.0
  0
SPLINE
  5
1BD
330
1F
100
AcDbEntity
  8
0
  6
CONTINUOUS
 62
     7
100
AcDbSpline
210
0.0
220
0.0
230
1.0
 70
     8
 71
     3
 72
     8
 73
     4
 74
     0
 42
0.000000001
 43
0.00000001
 40
0.0
 40
0.0
 40
0.0
 40
0.0
 40
0.0286485978063872
 40
0.0286485978063872
 40
0.0286485978063872
 40
0.0286485978063872
 10
276.5734157856226
 20
156.7539824888519
 30
0.0
 10
276.6196493965067
 20
156.8201553012617
 30
0.0
 10
276.6661299345187
 20
156.8868219679284
 30
0.0
 10
276.7128573996586
 20
156.9539824888519
 30
0.0
  0
LINE
  5
1BE
330
1F
100
AcDbEntity
  8
0
  6
CONTINUOUS
 62
     7
100
AcDbLine
 10
271.2885316809
 20
156.7539824889
 30
0.0
 11
276.5734157856
 21
156.7539824889
 31
0.0
  0
LINE
  5
1BF
330
1F
100
AcDbEntity
  8
0
  6
CONTINUOUS
 62
     7
100
AcDbLine
 10
270.2128573997
 20
156.9539824889
 30
0.0
 11
264.8490900669
 21
156.9539824889
 31
0.0
  0
LINE
  5
1C0
330
1F
100
AcDbEntity
  8
0
  6
CONTINUOUS
 62
     7
100
AcDbLine
 10
264.9885316809
 20
156.7539824889
 30
0.0
 11
270.2734157856
 21
156.7539824889
 31
0.0
  0
SPLINE
  5
1C1
330
1F
100
AcDbEntity
  8
0
  6
CONTINUOUS
 62
     7
100
AcDbSpline
210
0.0
220
0.0
230
1.0
 70
     8
 71
     3
 72
     8
 73
     4
 74
     0
 42
0.000000001
 43
0.00000001
 40
0.0
 40
0.0
 40
0.0
 40
0.0
 40
0.0286485978063874
 40
0.0286485978063874
 40
0.0286485978063874
 40
0.0286485978063874
 10
264.8490900668971
 20
156.9539824888519
 30
0.0
 10
264.8958175320391
 20
156.8868219679252
 30
0.0
 10
264.9422980700512
 20
156.8201553012586
 30
0.0
 10
264.9885316809331
 20
156.7539824888519
 30
0.0
  0
LINE
  5
1C2
330
1F
100
AcDbEntity
  8
0
  6
CONTINUOUS
 62
     7
100
AcDbLine
 10
276.7128573997
 20
156.9539824889
 30
0.0
 11
276.7128573997
 21
159.2539824889
 31
0.0
  0
LINE
  5
1C3
330
1F
100
AcDbEntity
  8
0
  6
CONTINUOUS
 62
     7
100
AcDbLine
 10
264.8490900669
 20
159.2539824889
 30
0.0
 11
264.8490900669
 21
156.9539824889
 31
0.0
  0
LINE
  5
1C4
330
1F
100
AcDbEntity
  8
0
  6
CONTINUOUS
 62
     7
100
AcDbLine
 10
276.7809737333
 20
155.0039824889
 30
0.0
 11
273.1203112463
 21
155.0039824889
 31
0.0
  0
LINE
  5
1C5
330
1F
100
AcDbEntity
  8
0
  6
CONTINUOUS
 62
     7
100
AcDbLine
 10
268.4416362202
 20
155.0039824889
 30
0.0
 11
264.7809737333
 21
155.0039824889
 31
0.0
  0
LINE
  5
1C6
330
1F
100
AcDbEntity
  8
0
  6
CONTINUOUS
 62
     7
100
AcDbLine
 10
266.6809737333
 20
168.2539824889
 30
0.0
 11
274.8809737333
 21
168.2539824889
 31
0.0
  0
LINE
  5
1C7
330
1F
100
AcDbEntity
  8
0
  6
CONTINUOUS
 62
     7
100
AcDbLine
 10
266.9696488679
 20
168.7539824889
 30
0.0
 11
274.5922985987
 21
168.7539824889
 31
0.0
  0
LINE
  5
1C8
330
1F
100
AcDbEntity
  8
0
  6
CONTINUOUS
 62
     7
100
AcDbLine
 10
277.2809737333
 20
159.2539824889
 30
0.0
 11
277.2809737333
 21
156.9539824889
 31
0.0
  0
LINE
  5
1C9
330
1F
100
AcDbEntity
  8
0
  6
CONTINUOUS
 62
     7
100
AcDbLine
 10
276.7128573997
 20
156.9539824889
 30
0.0
 11
277.2809737333
 21
156.9539824889
 31
0.0
  0
LINE
  5
1CA
330
1F
100
AcDbEntity
  8
0
  6
CONTINUOUS
 62
     7
100
AcDbLine
 10
264.2809737333
 20
156.9539824889
 30
0.0
 11
264.2809737333
 21
159.2539824889
 31
0.0
  0
LINE
  5
1CB
330
1F
100
AcDbEntity
  8
0
  6
CONTINUOUS
 62
     7
100
AcDbLine
 10
264.2809737333
 20
156.9539824889
 30
0.0
 11
264.8490900669
 21
156.9539824889
 31
0.0
  0
SPLINE
  5
1CC
330
1F
100
AcDbEntity
  8
0
  6
CONTINUOUS
 62
     7
100
AcDbSpline
210
0.0
220
0.0
230
1.0
 70
    24
 71
     3
 72
     8
 73
     4
 74
     0
 42
0.000000001
 43
0.00000001
 40
0.0
 40
0.0
 40
0.0
 40
0.0
 40
0.0286485978063876
 40
0.0286485978063876
 40
0.0286485978063876
 40
0.0286485978063876
 10
264.4809737332778
 20
156.7539824888519
 30
0.0
 10
264.4148009208699
 20
156.8201553012598
 30
0.0
 10
264.3481342542032
 20
156.8868219679265
 30
0.0
 10
264.2809737332778
 20
156.9539824888519
 30
0.0
  0
LINE
  5
1CD
330
1F
100
AcDbEntity
  8
0
  6
CONTINUOUS
 62
     7
100
AcDbLine
 10
264.9885316809
 20
156.7539824889
 30
0.0
 11
264.4809737333
 21
156.7539824889
 31
0.0
  0
SPLINE
  5
1CE
330
1F
100
AcDbEntity
  8
0
  6
CONTINUOUS
 62
     7
100
AcDbSpline
210
0.0
220
0.0
230
1.0
 70
    24
 71
     3
 72
     8
 73
     4
 74
     0
 42
0.000000001
 43
0.00000001
 40
0.0
 40
0.0
 40
0.0
 40
0.0
 40
0.0286485978063873
 40
0.0286485978063873
 40
0.0286485978063873
 40
0.0286485978063873
 10
277.2809737332778
 20
156.9539824888519
 30
0.0
 10
277.2138132123482
 20
156.8868219679223
 30
0.0
 10
277.1471465456815
 20
156.8201553012556
 30
0.0
 10
277.0809737332778
 20
156.7539824888519
 30
0.0
  0
LINE
  5
1CF
330
1F
100
AcDbEntity
  8
0
  6
CONTINUOUS
 62
     7
100
AcDbLine
 10
277.0809737333
 20
156.7539824889
 30
0.0
 11
276.5734157856
 21
156.7539824889
 31
0.0
  0
LINE
  5
1D0
330
1F
100
AcDbEntity
  8
0
  6
CONTINUOUS
 62
     7
100
AcDbLine
 10
263.2564448207
 20
152.8039824889
 30
0.0
 11
263.2539824889
 21
152.8039824889
 31
0.0
  0
LINE
  5
1D1
330
1F
100
AcDbEntity
  8
0
  6
CONTINUOUS
 62
     7
100
AcDbLine
 10
263.2539824889
 20
151.8039824889
 30
0.0
 11
263.2564448207
 21
151.8039824889
 31
0.0
  0
LINE
  5
1D2
330
1F
100
AcDbEntity
  8
0
  6
CONTINUOUS
 62
     7
100
AcDbLine
 10
278.3079649777
 20
151.8039824889
 30
0.0
 11
278.3055026458
 21
151.8039824889
 31
0.0
  0
LINE
  5
1D3
330
1F
100
AcDbEntity
  8
0
  6
CONTINUOUS
 62
     7
100
AcDbLine
 10
278.3055026458
 20
152.8039824889
 30
0.0
 11
278.3079649777
 21
152.8039824889
 31
0.0
  0
LINE
  5
1D4
330
1F
100
AcDbEntity
  8
0
  6
CONTINUOUS
 62
     7
100
AcDbLine
 10
278.3079649777
 20
147.8039824889
 30
0.0
 11
278.3055026458
 21
147.8039824889
 31
0.0
  0
LINE
  5
1D5
330
1F
100
AcDbEntity
  8
0
  6
CONTINUOUS
 62
     7
100
AcDbLine
 10
278.3055026458
 20
148.8039824889
 30
0.0
 11
278.3079649777
 21
148.8039824889
 31
0.0
  0
LINE
  5
1D6
330
1F
100
AcDbEntity
  8
0
  6
CONTINUOUS
 62
     7
100
AcDbLine
 10
278.3079649777
 20
149.8039824889
 30
0.0
 11
278.3055026458
 21
149.8039824889
 31
0.0
  0
LINE
  5
1D7
330
1F
100
AcDbEntity
  8
0
  6
CONTINUOUS
 62
     7
100
AcDbLine
 10
278.3055026458
 20
150.8039824889
 30
0.0
 11
278.3079649777
 21
150.8039824889
 31
0.0
  0
LINE
  5
1D8
330
1F
100
AcDbEntity
  8
0
  6
CONTINUOUS
 62
     7
100
AcDbLine
 10
263.2539824889
 20
149.8039824889
 30
0.0
 11
263.2564448207
 21
149.8039824889
 31
0.0
  0
LINE
  5
1D9
330
1F
100
AcDbEntity
  8
0
  6
CONTINUOUS
 62
     7
100
AcDbLine
 10
263.2564448207
 20
150.8039824889
 30
0.0
 11
263.2539824889
 21
150.8039824889
 31
0.0
  0
LINE
  5
1DA
330
1F
100
AcDbEntity
  8
0
  6
CONTINUOUS
 62
     7
100
AcDbLine
 10
263.2564448207
 20
148.8039824889
 30
0.0
 11
263.2539824889
 21
148.8039824889
 31
0.0
  0
LINE
  5
1DB
330
1F
100
AcDbEntity
  8
0
  6
CONTINUOUS
 62
     7
100
AcDbLine
 10
263.2539824889
 20
147.8039824889
 30
0.0
 11
263.2564448207
 21
147.8039824889
 31
0.0
  0
LINE
  5
1DC
330
1F
100
AcDbEntity
  8
0
  6
CONTINUOUS
 62
     7
100
AcDbLine
 10
264.5091527705
 20
154.8039824889
 30
0.0
 11
264.4309737333
 21
154.8039824889
 31
0.0
  0
LINE
  5
1DD
330
1F
100
AcDbEntity
  8
0
  6
CONTINUOUS
 62
     7
100
AcDbLine
 10
277.1309737333
 20
154.8039824889
 30
0.0
 11
277.0527946961
 21
154.8039824889
 31
0.0
  0
LINE
  5
1DE
330
1F
100
AcDbEntity
  8
0
  6
CONTINUOUS
 62
     7
100
AcDbLine
 10
277.0527946961
 20
145.8039824889
 30
0.0
 11
277.1309737333
 21
145.8039824889
 31
0.0
  0
LINE
  5
1DF
330
1F
100
AcDbEntity
  8
0
  6
CONTINUOUS
 62
     7
100
AcDbLine
 10
264.4309737333
 20
145.8039824889
 30
0.0
 11
264.5091527705
 21
145.8039824889
 31
0.0
  0
LINE
  5
1E0
330
1F
100
AcDbEntity
  8
0
  6
CONTINUOUS
 62
     7
100
AcDbLine
 10
85.0269912444
 20
166.6539824889
 30
0.0
 11
84.4269912444
 21
167.2539824889
 31
0.0
  0
LINE
  5
1E1
330
1F
100
AcDbEntity
  8
0
  6
CONTINUOUS
 62
     7
100
AcDbLine
 10
70.6269912444
 20
167.2539824889
 30
0.0
 11
70.0269912444
 21
166.6539824889
 31
0.0
  0
ARC
  5
1E2
330
1F
100
AcDbEntity
  8
0
  6
CONTINUOUS
 62
     7
100
AcDbCircle
 10
70.1269912444
 20
159.3539824889
 30
0.0
 40
0.1000000000000085
100
AcDbArc
 50
180.0
 51
270.0
  0
ARC
  5
1E3
330
1F
100
AcDbEntity
  8
0
  6
CONTINUOUS
 62
     7
100
AcDbCircle
 10
84.9269912444
 20
159.3539824889
 30
0.0
 40
0.0999999999999943
100
AcDbArc
 50
270.0
 51
0.0
  0
LINE
  5
1E4
330
1F
100
AcDbEntity
  8
0
  6
CONTINUOUS
 62
     7
100
AcDbLine
 10
70.0269912444
 20
166.6539824889
 30
0.0
 11
70.0269912444
 21
159.3539824889
 31
0.0
  0
LINE
  5
1E5
330
1F
100
AcDbEntity
  8
0
  6
CONTINUOUS
 62
     7
100
AcDbLine
 10
85.0269912444
 20
159.3539824889
 30
0.0
 11
85.0269912444
 21
166.6539824889
 31
0.0
  0
ARC
  5
1E6
330
1F
100
AcDbEntity
  8
0
  6
CONTINUOUS
 62
     7
100
AcDbCircle
 10
71.1769912444
 20
146.8039824889
 30
0.0
 40
1.0
100
AcDbArc
 50
180.0
 51
270.0
  0
ARC
  5
1E7
330
1F
100
AcDbEntity
  8
0
  6
CONTINUOUS
 62
     7
100
AcDbCircle
 10
83.8769912444
 20
146.8039824889
 30
0.0
 40
1.0
100
AcDbArc
 50
270.0
 51
0.0
  0
LINE
  5
1E8
330
1F
100
AcDbEntity
  8
0
  6
CONTINUOUS
 62
     7
100
AcDbLine
 10
70.1769912444
 20
153.8039824889
 30
0.0
 11
70.1769912444
 21
146.8039824889
 31
0.0
  0
LINE
  5
1E9
330
1F
100
AcDbEntity
  8
0
  6
CONTINUOUS
 62
     7
100
AcDbLine
 10
84.8769912444
 20
146.8039824889
 30
0.0
 11
84.8769912444
 21
153.8039824889
 31
0.0
  0
ARC
  5
1EA
330
1F
100
AcDbEntity
  8
0
  6
CONTINUOUS
 62
     7
100
AcDbCircle
 10
83.8769912444
 20
153.8039824889
 30
0.0
 40
1.0
100
AcDbArc
 50
0.0
 51
90.0
  0
ARC
  5
1EB
330
1F
100
AcDbEntity
  8
0
  6
CONTINUOUS
 62
     7
100
AcDbCircle
 10
71.1769912444
 20
153.8039824889
 30
0.0
 40
1.0
100
AcDbArc
 50
90.0
 51
180.0
  0
LINE
  5
1EC
330
1F
100
AcDbEntity
  8
0
  6
CONTINUOUS
 62
     7
100
AcDbLine
 10
83.7269912444
 20
154.8039824889
 30
0.0
 11
83.5269912444
 21
155.0039824889
 31
0.0
  0
LINE
  5
1ED
330
1F
100
AcDbEntity
  8
0
  6
CONTINUOUS
 62
     7
100
AcDbLine
 10
71.5269912444
 20
155.0039824889
 30
0.0
 11
71.3269912444
 21
154.8039824889
 31
0.0
  0
LINE
  5
1EE
330
1F
100
AcDbEntity
  8
0
  6
CONTINUOUS
 62
     7
100
AcDbLine
 10
73.2769912444
 20
156.7539824889
 30
0.0
 11
73.2769912444
 21
155.0039824889
 31
0.0
  0
LINE
  5
1EF
330
1F
100
AcDbEntity
  8
0
  6
CONTINUOUS
 62
     7
100
AcDbLine
 10
81.7769912444
 20
155.0039824889
 30
0.0
 11
81.7769912444
 21
156.7539824889
 31
0.0
  0
LINE
  5
1F0
330
1F
100
AcDbEntity
  8
0
  6
CONTINUOUS
 62
     7
100
AcDbLine
 10
81.6269912444
 20
168.2539824889
 30
0.0
 11
81.3383161098
 21
168.7539824889
 31
0.0
  0
LINE
  5
1F1
330
1F
100
AcDbEntity
  8
0
  6
CONTINUOUS
 62
     7
100
AcDbLine
 10
73.715666379
 20
168.7539824889
 30
0.0
 11
73.4269912444
 21
168.2539824889
 31
0.0
  0
LINE
  5
1F2
330
1F
100
AcDbEntity
  8
0
  6
CONTINUOUS
 62
     7
100
AcDbLine
 10
73.4269912444
 20
168.2539824889
 30
0.0
 11
73.4269912444
 21
167.2539824889
 31
0.0
  0
LINE
  5
1F3
330
1F
100
AcDbEntity
  8
0
  6
CONTINUOUS
 62
     7
100
AcDbLine
 10
81.6269912444
 20
167.2539824889
 30
0.0
 11
81.6269912444
 21
168.2539824889
 31
0.0
  0
LINE
  5
1F4
330
1F
100
AcDbEntity
  8
0
  6
CONTINUOUS
 62
     7
100
AcDbLine
 10
70.0
 20
152.8039824889
 30
0.0
 11
70.0
 21
151.8039824889
 31
0.0
  0
LINE
  5
1F5
330
1F
100
AcDbEntity
  8
0
  6
CONTINUOUS
 62
     7
100
AcDbLine
 10
70.0
 20
150.8039824889
 30
0.0
 11
70.0
 21
149.8039824889
 31
0.0
  0
LINE
  5
1F6
330
1F
100
AcDbEntity
  8
0
  6
CONTINUOUS
 62
     7
100
AcDbLine
 10
85.0539824889
 20
149.8039824889
 30
0.0
 11
85.0539824889
 21
150.8039824889
 31
0.0
  0
LINE
  5
1F7
330
1F
100
AcDbEntity
  8
0
  6
CONTINUOUS
 62
     7
100
AcDbLine
 10
70.0
 20
148.8039824889
 30
0.0
 11
70.0
 21
147.8039824889
 31
0.0
  0
LINE
  5
1F8
330
1F
100
AcDbEntity
  8
0
  6
CONTINUOUS
 62
     7
100
AcDbLine
 10
85.0539824889
 20
147.8039824889
 30
0.0
 11
85.0539824889
 21
148.8039824889
 31
0.0
  0
LINE
  5
1F9
330
1F
100
AcDbEntity
  8
0
  6
CONTINUOUS
 62
     7
100
AcDbLine
 10
85.0539824889
 20
151.8039824889
 30
0.0
 11
85.0539824889
 21
152.8039824889
 31
0.0
  0
LINE
  5
1FA
330
1F
100
AcDbEntity
  8
0
  6
CONTINUOUS
 62
     7
100
AcDbLine
 10
70.0269912444
 20
166.6539824889
 30
0.0
 11
85.0269912444
 21
166.6539824889
 31
0.0
  0
LINE
  5
1FB
330
1F
100
AcDbEntity
  8
0
  6
CONTINUOUS
 62
     7
100
AcDbLine
 10
70.6269912444
 20
167.2539824889
 30
0.0
 11
84.4269912444
 21
167.2539824889
 31
0.0
  0
LINE
  5
1FC
330
1F
100
AcDbEntity
  8
0
  6
CONTINUOUS
 62
     7
100
AcDbLine
 10
77.5269912444
 20
159.2539824889
 30
0.0
 11
70.1269912444
 21
159.2539824889
 31
0.0
  0
LINE
  5
1FD
330
1F
100
AcDbEntity
  8
0
  6
CONTINUOUS
 62
     7
100
AcDbLine
 10
84.9269912444
 20
159.2539824889
 30
0.0
 11
77.5269912444
 21
159.2539824889
 31
0.0
  0
LINE
  5
1FE
330
1F
100
AcDbEntity
  8
0
  6
CONTINUOUS
 62
     7
100
AcDbLine
 10
71.1769912444
 20
145.8039824889
 30
0.0
 11
83.8769912444
 21
145.8039824889
 31
0.0
  0
LINE
  5
1FF
330
1F
100
AcDbEntity
  8
0
  6
CONTINUOUS
 62
     7
100
AcDbLine
 10
83.8769912444
 20
154.8039824889
 30
0.0
 11
71.1769912444
 21
154.8039824889
 31
0.0
  0
LINE
  5
200
330
1F
100
AcDbEntity
  8
0
  6
CONTINUOUS
 62
     7
100
AcDbLine
 10
76.9588749108
 20
156.9539824889
 30
0.0
 11
76.9588749108
 21
159.2539824889
 31
0.0
  0
LINE
  5
201
330
1F
100
AcDbEntity
  8
0
  6
CONTINUOUS
 62
     7
100
AcDbLine
 10
78.095107578
 20
159.2539824889
 30
0.0
 11
78.095107578
 21
156.9539824889
 31
0.0
  0
LINE
  5
202
330
1F
100
AcDbEntity
  8
0
  6
CONTINUOUS
 62
     7
100
AcDbLine
 10
76.9588749108
 20
156.9539824889
 30
0.0
 11
78.095107578
 21
156.9539824889
 31
0.0
  0
LINE
  5
203
330
1F
100
AcDbEntity
  8
0
  6
CONTINUOUS
 62
     7
100
AcDbLine
 10
78.0345491921
 20
156.7539824889
 30
0.0
 11
77.0194332968
 21
156.7539824889
 31
0.0
  0
SPLINE
  5
204
330
1F
100
AcDbEntity
  8
0
  6
CONTINUOUS
 62
     7
100
AcDbSpline
210
0.0
220
0.0
230
1.0
 70
     8
 71
     3
 72
     8
 73
     4
 74
     0
 42
0.000000001
 43
0.00000001
 40
0.0
 40
0.0
 40
0.0
 40
0.0
 40
0.0286485978063874
 40
0.0286485978063874
 40
0.0286485978063874
 40
0.0286485978063874
 10
77.01943329677067
 20
156.7539824888519
 30
0.0
 10
76.99949409524484
 20
156.8201553012622
 30
0.0
 10
76.97930796659018
 20
156.8868219679288
 30
0.0
 10
76.95887491080668
 20
156.9539824888519
 30
0.0
  0
SPLINE
  5
205
330
1F
100
AcDbEntity
  8
0
  6
CONTINUOUS
 62
     7
100
AcDbSpline
210
0.0
220
0.0
230
1.0
 70
     8
 71
     3
 72
     8
 73
     4
 74
     0
 42
0.000000001
 43
0.00000001
 40
0.0
 40
0.0
 40
0.0
 40
0.0
 40
0.0286485978063873
 40
0.0286485978063873
 40
0.0286485978063873
 40
0.0286485978063873
 10
78.09510757804513
 20
156.9539824888519
 30
0.0
 10
78.07467452226054
 20
156.8868219679252
 30
0.0
 10
78.05448839360588
 20
156.8201553012585
 30
0.0
 10
78.03454919208116
 20
156.7539824888519
 30
0.0
  0
LINE
  5
206
330
1F
100
AcDbEntity
  8
0
  6
CONTINUOUS
 62
     7
100
AcDbLine
 10
76.9588749108
 20
156.9539824889
 30
0.0
 11
71.595107578
 21
156.9539824889
 31
0.0
  0
LINE
  5
207
330
1F
100
AcDbEntity
  8
0
  6
CONTINUOUS
 62
     7
100
AcDbLine
 10
71.7345491921
 20
156.7539824889
 30
0.0
 11
77.0194332968
 21
156.7539824889
 31
0.0
  0
SPLINE
  5
208
330
1F
100
AcDbEntity
  8
0
  6
CONTINUOUS
 62
     7
100
AcDbSpline
210
0.0
220
0.0
230
1.0
 70
     8
 71
     3
 72
     8
 73
     4
 74
     0
 42
0.000000001
 43
0.00000001
 40
0.0
 40
0.0
 40
0.0
 40
0.0
 40
0.0286485978063874
 40
0.0286485978063874
 40
0.0286485978063874
 40
0.0286485978063874
 10
71.59510757804513
 20
156.9539824888519
 30
0.0
 10
71.6418350431878
 20
156.8868219679244
 30
0.0
 10
71.68831558119982
 20
156.8201553012577
 30
0.0
 10
71.73454919208115
 20
156.7539824888519
 30
0.0
  0
LINE
  5
209
330
1F
100
AcDbEntity
  8
0
  6
CONTINUOUS
 62
     7
100
AcDbLine
 10
83.4588749108
 20
156.9539824889
 30
0.0
 11
83.4588749108
 21
159.2539824889
 31
0.0
  0
LINE
  5
20A
330
1F
100
AcDbEntity
  8
0
  6
CONTINUOUS
 62
     7
100
AcDbLine
 10
83.4588749108
 20
156.9539824889
 30
0.0
 11
78.095107578
 21
156.9539824889
 31
0.0
  0
LINE
  5
20B
330
1F
100
AcDbEntity
  8
0
  6
CONTINUOUS
 62
     7
100
AcDbLine
 10
71.595107578
 20
159.2539824889
 30
0.0
 11
71.595107578
 21
156.9539824889
 31
0.0
  0
SPLINE
  5
20C
330
1F
100
AcDbEntity
  8
0
  6
CONTINUOUS
 62
     7
100
AcDbSpline
210
0.0
220
0.0
230
1.0
 70
     8
 71
     3
 72
     8
 73
     4
 74
     0
 42
0.000000001
 43
0.00000001
 40
0.0
 40
0.0
 40
0.0
 40
0.0
 40
0.0286485978063873
 40
0.0286485978063873
 40
0.0286485978063873
 40
0.0286485978063873
 10
83.31943329677068
 20
156.7539824888519
 30
0.0
 10
83.36566690764988
 20
156.8201553012547
 30
0.0
 10
83.41214744566189
 20
156.8868219679213
 30
0.0
 10
83.4588749108067
 20
156.9539824888519
 30
0.0
  0
LINE
  5
20D
330
1F
100
AcDbEntity
  8
0
  6
CONTINUOUS
 62
     7
100
AcDbLine
 10
78.0345491921
 20
156.7539824889
 30
0.0
 11
83.3194332968
 21
156.7539824889
 31
0.0
  0
LINE
  5
20E
330
1F
100
AcDbEntity
  8
0
  6
CONTINUOUS
 62
     7
100
AcDbLine
 10
83.5269912444
 20
155.0039824889
 30
0.0
 11
71.5269912444
 21
155.0039824889
 31
0.0
  0
LINE
  5
20F
330
1F
100
AcDbEntity
  8
0
  6
CONTINUOUS
 62
     7
100
AcDbLine
 10
80.6421423532
 20
168.7539824889
 30
0.0
 11
81.3383161098
 21
168.7539824889
 31
0.0
  0
LINE
  5
210
330
1F
100
AcDbEntity
  8
0
  6
CONTINUOUS
 62
     7
100
AcDbLine
 10
73.715666379
 20
168.7539824889
 30
0.0
 11
79.7229035376
 21
168.7539824889
 31
0.0
  0
SPLINE
  5
211
330
1F
100
AcDbEntity
  8
0
  6
CONTINUOUS
 62
     7
100
AcDbSpline
210
0.0
220
0.0
230
1.0
 70
     8
 71
     3
 72
     8
 73
     4
 74
     0
 42
0.000000001
 43
0.00000001
 40
0.0
 40
0.0
 40
0.0
 40
0.0
 40
1.0
 40
1.0
 40
1.0
 40
1.0
 10
79.92984454394812
 20
168.2539824888519
 30
0.0
 10
79.85829822542361
 20
168.4270180686528
 30
0.0
 10
79.78941238218344
 20
168.5934564282176
 30
0.0
 10
79.72290353761925
 20
168.7539824888519
 30
0.0
  0
LINE
  5
212
330
1F
100
AcDbEntity
  8
0
  6
CONTINUOUS
 62
     7
100
AcDbLine
 10
80.8490833595
 20
168.2539824889
 30
0.0
 11
81.6269912444
 21
168.2539824889
 31
0.0
  0
LINE
  5
213
330
1F
100
AcDbEntity
  8
0
  6
CONTINUOUS
 62
     7
100
AcDbLine
 10
73.4269912444
 20
168.2539824889
 30
0.0
 11
79.9298445439
 21
168.2539824889
 31
0.0
  0
SPLINE
  5
214
330
1F
100
AcDbEntity
  8
0
  6
CONTINUOUS
 62
     7
100
AcDbSpline
210
0.0
220
0.0
230
1.0
 70
     8
 71
     3
 72
     8
 73
     4
 74
     0
 42
0.000000001
 43
0.00000001
 40
0.0
 40
0.0
 40
0.0
 40
0.0
 40
1.0
 40
1.0
 40
1.0
 40
1.0
 10
80.64214235316176
 20
168.7539824888519
 30
0.0
 10
80.70865119775002
 20
168.5934564281596
 30
0.0
 10
80.77753704098976
 20
168.4270180685957
 30
0.0
 10
80.84908335949063
 20
168.2539824888519
 30
0.0
  0
LINE
  5
215
330
1F
100
AcDbEntity
  8
0
  6
CONTINUOUS
 62
     7
100
AcDbLine
 10
79.9298445439
 20
167.2539824889
 30
0.0
 11
79.9298445439
 21
168.2539824889
 31
0.0
  0
LINE
  5
216
330
1F
100
AcDbEntity
  8
0
  6
CONTINUOUS
 62
     7
100
AcDbLine
 10
80.8490833595
 20
168.2539824889
 30
0.0
 11
80.8490833595
 21
167.2539824889
 31
0.0
  0
LINE
  5
217
330
1F
100
AcDbEntity
  8
0
  6
CONTINUOUS
 62
     7
100
AcDbLine
 10
84.0269912444
 20
159.2539824889
 30
0.0
 11
84.0269912444
 21
156.9539824889
 31
0.0
  0
LINE
  5
218
330
1F
100
AcDbEntity
  8
0
  6
CONTINUOUS
 62
     7
100
AcDbLine
 10
83.4588749108
 20
156.9539824889
 30
0.0
 11
84.0269912444
 21
156.9539824889
 31
0.0
  0
LINE
  5
219
330
1F
100
AcDbEntity
  8
0
  6
CONTINUOUS
 62
     7
100
AcDbLine
 10
71.0269912444
 20
156.9539824889
 30
0.0
 11
71.0269912444
 21
159.2539824889
 31
0.0
  0
LINE
  5
21A
330
1F
100
AcDbEntity
  8
0
  6
CONTINUOUS
 62
     7
100
AcDbLine
 10
71.0269912444
 20
156.9539824889
 30
0.0
 11
71.595107578
 21
156.9539824889
 31
0.0
  0
SPLINE
  5
21B
330
1F
100
AcDbEntity
  8
0
  6
CONTINUOUS
 62
     7
100
AcDbSpline
210
0.0
220
0.0
230
1.0
 70
    24
 71
     3
 72
     8
 73
     4
 74
     0
 42
0.000000001
 43
0.00000001
 40
0.0
 40
0.0
 40
0.0
 40
0.0
 40
0.0286485978063874
 40
0.0286485978063874
 40
0.0286485978063874
 40
0.0286485978063874
 10
84.02699124442591
 20
156.9539824888519
 30
0.0
 10
83.95983072350045
 20
156.8868219679264
 30
0.0
 10
83.89316405683378
 20
156.8201553012597
 30
0.0
 10
83.82699124442591
 20
156.7539824888519
 30
0.0
  0
LINE
  5
21C
330
1F
100
AcDbEntity
  8
0
  6
CONTINUOUS
 62
     7
100
AcDbLine
 10
83.8269912444
 20
156.7539824889
 30
0.0
 11
83.3194332968
 21
156.7539824889
 31
0.0
  0
SPLINE
  5
21D
330
1F
100
AcDbEntity
  8
0
  6
CONTINUOUS
 62
     7
100
AcDbSpline
210
0.0
220
0.0
230
1.0
 70
    24
 71
     3
 72
     8
 73
     4
 74
     0
 42
0.000000001
 43
0.00000001
 40
0.0
 40
0.0
 40
0.0
 40
0.0
 40
0.0286485978063875
 40
0.0286485978063875
 40
0.0286485978063875
 40
0.0286485978063875
 10
71.22699124442592
 20
156.7539824888519
 30
0.0
 10
71.1608184320207
 20
156.8201553012571
 30
0.0
 10
71.09415176535406
 20
156.8868219679238
 30
0.0
 10
71.02699124442591
 20
156.9539824888519
 30
0.0
  0
LINE
  5
21E
330
1F
100
AcDbEntity
  8
0
  6
CONTINUOUS
 62
     7
100
AcDbLine
 10
71.7345491921
 20
156.7539824889
 30
0.0
 11
71.2269912444
 21
156.7539824889
 31
0.0
  0
LINE
  5
21F
330
1F
100
AcDbEntity
  8
0
  6
CONTINUOUS
 62
     7
100
AcDbLine
 10
79.7164400481
 20
168.7539824889
 30
0.0
 11
80.4968397254
 21
168.7539824889
 31
0.0
  0
LINE
  5
220
330
1F
100
AcDbEntity
  8
0
  6
CONTINUOUS
 62
     7
100
AcDbLine
 10
80.4968397254
 20
168.7539824889
 30
0.0
 11
80.6421423532
 21
168.7539824889
 31
0.0
  0
LINE
  5
221
330
1F
100
AcDbEntity
  8
0
  6
CONTINUOUS
 62
     7
100
AcDbLine
 10
70.1769912444
 20
150.8039824889
 30
0.0
 11
70.168713107
 21
150.8039824889
 31
0.0
  0
LINE
  5
222
330
1F
100
AcDbEntity
  8
0
  6
CONTINUOUS
 62
     7
100
AcDbLine
 10
70.1769912444
 20
149.8039824889
 30
0.0
 11
70.168713107
 21
149.8039824889
 31
0.0
  0
LINE
  5
223
330
1F
100
AcDbEntity
  8
0
  6
CONTINUOUS
 62
     7
100
AcDbLine
 10
70.1769912444
 20
152.8039824889
 30
0.0
 11
70.168713107
 21
152.8039824889
 31
0.0
  0
LINE
  5
224
330
1F
100
AcDbEntity
  8
0
  6
CONTINUOUS
 62
     7
100
AcDbLine
 10
70.1769912444
 20
151.8039824889
 30
0.0
 11
70.168713107
 21
151.8039824889
 31
0.0
  0
LINE
  5
225
330
1F
100
AcDbEntity
  8
0
  6
CONTINUOUS
 62
     7
100
AcDbLine
 10
70.1769912444
 20
147.8039824889
 30
0.0
 11
70.168713107
 21
147.8039824889
 31
0.0
  0
LINE
  5
226
330
1F
100
AcDbEntity
  8
0
  6
CONTINUOUS
 62
     7
100
AcDbLine
 10
70.1769912444
 20
148.8039824889
 30
0.0
 11
70.168713107
 21
148.8039824889
 31
0.0
  0
LINE
  5
227
330
1F
100
AcDbEntity
  8
0
  6
CONTINUOUS
 62
     7
100
AcDbLine
 10
84.8769912444
 20
148.8039824889
 30
0.0
 11
84.8852693819
 21
148.8039824889
 31
0.0
  0
LINE
  5
228
330
1F
100
AcDbEntity
  8
0
  6
CONTINUOUS
 62
     7
100
AcDbLine
 10
84.8769912444
 20
147.8039824889
 30
0.0
 11
84.8852693819
 21
147.8039824889
 31
0.0
  0
LINE
  5
229
330
1F
100
AcDbEntity
  8
0
  6
CONTINUOUS
 62
     7
100
AcDbLine
 10
84.8769912444
 20
151.8039824889
 30
0.0
 11
84.8852693819
 21
151.8039824889
 31
0.0
  0
LINE
  5
22A
330
1F
100
AcDbEntity
  8
0
  6
CONTINUOUS
 62
     7
100
AcDbLine
 10
84.8769912444
 20
152.8039824889
 30
0.0
 11
84.8852693819
 21
152.8039824889
 31
0.0
  0
LINE
  5
22B
330
1F
100
AcDbEntity
  8
0
  6
CONTINUOUS
 62
     7
100
AcDbLine
 10
84.8769912444
 20
150.8039824889
 30
0.0
 11
84.8852693819
 21
150.8039824889
 31
0.0
  0
LINE
  5
22C
330
1F
100
AcDbEntity
  8
0
  6
CONTINUOUS
 62
     7
100
AcDbLine
 10
84.8769912444
 20
149.8039824889
 30
0.0
 11
84.8852693819
 21
149.8039824889
 31
0.0
  0
LINE
  5
22D
330
1F
100
AcDbEntity
  8
0
  6
CONTINUOUS
 62
     7
100
AcDbLine
 10
70.0
 20
152.8039824889
 30
0.0
 11
70.168713107
 21
152.8039824889
 31
0.0
  0
LINE
  5
22E
330
1F
100
AcDbEntity
  8
0
  6
CONTINUOUS
 62
     7
100
AcDbLine
 10
70.168713107
 20
151.8039824889
 30
0.0
 11
70.0
 21
151.8039824889
 31
0.0
  0
LINE
  5
22F
330
1F
100
AcDbEntity
  8
0
  6
CONTINUOUS
 62
     7
100
AcDbLine
 10
70.0
 20
150.8039824889
 30
0.0
 11
70.168713107
 21
150.8039824889
 31
0.0
  0
LINE
  5
230
330
1F
100
AcDbEntity
  8
0
  6
CONTINUOUS
 62
     7
100
AcDbLine
 10
70.168713107
 20
149.8039824889
 30
0.0
 11
70.0
 21
149.8039824889
 31
0.0
  0
LINE
  5
231
330
1F
100
AcDbEntity
  8
0
  6
CONTINUOUS
 62
     7
100
AcDbLine
 10
85.0539824889
 20
150.8039824889
 30
0.0
 11
84.8852693819
 21
150.8039824889
 31
0.0
  0
LINE
  5
232
330
1F
100
AcDbEntity
  8
0
  6
CONTINUOUS
 62
     7
100
AcDbLine
 10
84.8852693819
 20
149.8039824889
 30
0.0
 11
85.0539824889
 21
149.8039824889
 31
0.0
  0
LINE
  5
233
330
1F
100
AcDbEntity
  8
0
  6
CONTINUOUS
 62
     7
100
AcDbLine
 10
70.168713107
 20
147.8039824889
 30
0.0
 11
70.0
 21
147.8039824889
 31
0.0
  0
LINE
  5
234
330
1F
100
AcDbEntity
  8
0
  6
CONTINUOUS
 62
     7
100
AcDbLine
 10
70.0
 20
148.8039824889
 30
0.0
 11
70.168713107
 21
148.8039824889
 31
0.0
  0
LINE
  5
235
330
1F
100
AcDbEntity
  8
0
  6
CONTINUOUS
 62
     7
100
AcDbLine
 10
85.0539824889
 20
148.8039824889
 30
0.0
 11
84.8852693819
 21
148.8039824889
 31
0.0
  0
LINE
  5
236
330
1F
100
AcDbEntity
  8
0
  6
CONTINUOUS
 62
     7
100
AcDbLine
 10
84.8852693819
 20
147.8039824889
 30
0.0
 11
85.0539824889
 21
147.8039824889
 31
0.0
  0
LINE
  5
237
330
1F
100
AcDbEntity
  8
0
  6
CONTINUOUS
 62
     7
100
AcDbLine
 10
84.8852693819
 20
151.8039824889
 30
0.0
 11
85.0539824889
 21
151.8039824889
 31
0.0
  0
LINE
  5
238
330
1F
100
AcDbEntity
  8
0
  6
CONTINUOUS
 62
     7
100
AcDbLine
 10
85.0539824889
 20
152.8039824889
 30
0.0
 11
84.8852693819
 21
152.8039824889
 31
0.0
  0
ARC
  5
239
330
1F
100
AcDbEntity
  8
0
  6
CONTINUOUS
 62
     7
100
AcDbCircle
 10
77.5269912444
 20
150.3039824889
 30
0.0
 40
5.250000000000002
100
AcDbArc
 50
238.9972808661
 51
301.0027191339
  0
ARC
  5
23A
330
1F
100
AcDbEntity
  8
0
  6
CONTINUOUS
 62
     7
100
AcDbCircle
 10
338.4079649777
 20
159.3539824889
 30
0.0
 40
0.1000000000000227
100
AcDbArc
 50
180.0
 51
270.0
  0
ARC
  5
23B
330
1F
100
AcDbEntity
  8
0
  6
CONTINUOUS
 62
     7
100
AcDbCircle
 10
353.2079649777
 20
159.3539824889
 30
0.0
 40
0.0999999999999943
100
AcDbArc
 50
270.0
 51
0.0
  0
LINE
  5
23C
330
1F
100
AcDbEntity
  8
0
  6
CONTINUOUS
 62
     7
100
AcDbLine
 10
338.3079649777
 20
166.6539824889
 30
0.0
 11
338.3079649777
 21
159.3539824889
 31
0.0
  0
LINE
  5
23D
330
1F
100
AcDbEntity
  8
0
  6
CONTINUOUS
 62
     7
100
AcDbLine
 10
353.3079649777
 20
159.3539824889
 30
0.0
 11
353.3079649777
 21
166.6539824889
 31
0.0
  0
LINE
  5
23E
330
1F
100
AcDbEntity
  8
0
  6
CONTINUOUS
 62
     7
100
AcDbLine
 10
353.3079649777
 20
166.6539824889
 30
0.0
 11
352.7079649777
 21
167.2539824889
 31
0.0
  0
LINE
  5
23F
330
1F
100
AcDbEntity
  8
0
  6
CONTINUOUS
 62
     7
100
AcDbLine
 10
338.9079649777
 20
167.2539824889
 30
0.0
 11
338.3079649777
 21
166.6539824889
 31
0.0
  0
ARC
  5
240
330
1F
100
AcDbEntity
  8
0
  6
CONTINUOUS
 62
     7
100
AcDbCircle
 10
339.4579649777
 20
146.8039824889
 30
0.0
 40
1.0
100
AcDbArc
 50
180.0
 51
270.0
  0
LINE
  5
241
330
1F
100
AcDbEntity
  8
0
  6
CONTINUOUS
 62
     7
100
AcDbLine
 10
338.4579649777
 20
153.8039824889
 30
0.0
 11
338.4579649777
 21
146.8039824889
 31
0.0
  0
ARC
  5
242
330
1F
100
AcDbEntity
  8
0
  6
CONTINUOUS
 62
     7
100
AcDbCircle
 10
339.4579649777
 20
153.8039824889
 30
0.0
 40
1.0
100
AcDbArc
 50
90.0
 51
180.0
  0
LINE
  5
243
330
1F
100
AcDbEntity
  8
0
  6
CONTINUOUS
 62
     7
100
AcDbLine
 10
352.0079649777
 20
154.8039824889
 30
0.0
 11
351.8079649777
 21
155.0039824889
 31
0.0
  0
LINE
  5
244
330
1F
100
AcDbEntity
  8
0
  6
CONTINUOUS
 62
     7
100
AcDbLine
 10
339.8079649777
 20
155.0039824889
 30
0.0
 11
339.6079649777
 21
154.8039824889
 31
0.0
  0
LINE
  5
245
330
1F
100
AcDbEntity
  8
0
  6
CONTINUOUS
 62
     7
100
AcDbLine
 10
359.9389396862
 20
149.8039824889
 30
0.0
 11
359.9389396862
 21
150.8039824889
 31
0.0
  0
LINE
  5
246
330
1F
100
AcDbEntity
  8
0
  6
CONTINUOUS
 62
     7
100
AcDbLine
 10
359.9389396862
 20
147.8039824889
 30
0.0
 11
359.9389396862
 21
148.8039824889
 31
0.0
  0
LINE
  5
247
330
1F
100
AcDbEntity
  8
0
  6
CONTINUOUS
 62
     7
100
AcDbLine
 10
359.9389396862
 20
151.8039824889
 30
0.0
 11
359.9389396862
 21
152.8039824889
 31
0.0
  0
LINE
  5
248
330
1F
100
AcDbEntity
  8
0
  6
CONTINUOUS
 62
     7
100
AcDbLine
 10
374.0079649777
 20
155.5539824889
 30
0.0
 11
373.5079649777
 21
155.5539824889
 31
0.0
  0
LINE
  5
249
330
1F
100
AcDbEntity
  8
0
  6
CONTINUOUS
 62
     7
100
AcDbLine
 10
373.5079649777
 20
145.0539824889
 30
0.0
 11
374.0079649777
 21
145.0539824889
 31
0.0
  0
LINE
  5
24A
330
1F
100
AcDbEntity
  8
0
  6
CONTINUOUS
 62
     7
100
AcDbLine
 10
374.0079649777
 20
145.0539824889
 30
0.0
 11
376.2015812199
 21
145.9753013106
 31
0.0
  0
LINE
  5
24B
330
1F
100
AcDbEntity
  8
0
  6
CONTINUOUS
 62
     7
100
AcDbLine
 10
376.2015812199
 20
154.6326636671
 30
0.0
 11
374.0079649777
 21
155.5539824889
 31
0.0
  0
ARC
  5
24C
330
1F
100
AcDbEntity
  8
0
  6
CONTINUOUS
 62
     7
100
AcDbCircle
 10
376.0079649777
 20
154.1716726143
 30
0.0
 40
0.5
100
AcDbArc
 50
0.0
 51
67.2175942695
  0
ARC
  5
24D
330
1F
100
AcDbEntity
  8
0
  6
CONTINUOUS
 62
     7
100
AcDbCircle
 10
376.0079649777
 20
146.4362923634
 30
0.0
 40
0.5000000000000121
100
AcDbArc
 50
292.7824057305
 51
360.0
  0
LINE
  5
24E
330
1F
100
AcDbEntity
  8
0
  6
CONTINUOUS
 62
     7
100
AcDbLine
 10
373.5079649777
 20
154.7039824889
 30
0.0
 11
361.2232945967
 21
154.7039824889
 31
0.0
  0
LINE
  5
24F
330
1F
100
AcDbEntity
  8
0
  6
CONTINUOUS
 62
     7
100
AcDbLine
 10
361.2230181989
 20
145.9039824889
 30
0.0
 11
373.5079649777
 21
145.9039824889
 31
0.0
  0
LINE
  5
250
330
1F
100
AcDbEntity
  8
0
  6
CONTINUOUS
 62
     7
100
AcDbLine
 10
341.5579649777
 20
156.7539824889
 30
0.0
 11
341.5579649777
 21
155.0039824889
 31
0.0
  0
LINE
  5
251
330
1F
100
AcDbEntity
  8
0
  6
CONTINUOUS
 62
     7
100
AcDbLine
 10
350.0579649777
 20
155.0039824889
 30
0.0
 11
350.0579649777
 21
156.7539824889
 31
0.0
  0
LINE
  5
252
330
1F
100
AcDbEntity
  8
0
  6
CONTINUOUS
 62
     7
100
AcDbLine
 10
341.7079649777
 20
168.2539824889
 30
0.0
 11
341.7079649777
 21
167.2539824889
 31
0.0
  0
LINE
  5
253
330
1F
100
AcDbEntity
  8
0
  6
CONTINUOUS
 62
     7
100
AcDbLine
 10
349.9079649777
 20
167.2539824889
 30
0.0
 11
349.9079649777
 21
168.2539824889
 31
0.0
  0
LINE
  5
254
330
1F
100
AcDbEntity
  8
0
  6
CONTINUOUS
 62
     7
100
AcDbLine
 10
349.9079649777
 20
168.2539824889
 30
0.0
 11
349.6192898431
 21
168.7539824889
 31
0.0
  0
LINE
  5
255
330
1F
100
AcDbEntity
  8
0
  6
CONTINUOUS
 62
     7
100
AcDbLine
 10
341.9966401123
 20
168.7539824889
 30
0.0
 11
341.7079649777
 21
168.2539824889
 31
0.0
  0
SPLINE
  5
256
330
1F
100
AcDbEntity
  8
0
  6
CONTINUOUS
 62
     7
100
AcDbSpline
210
0.0
220
0.0
230
1.0
 70
     8
 71
     3
 72
     9
 73
     5
 74
     0
 42
0.000000001
 43
0.00000001
 40
0.0
 40
0.0
 40
0.0
 40
0.0
 40
0.4669508413115211
 40
1.0
 40
1.0
 40
1.0
 40
1.0
 10
361.2390478379
 20
154.7034188343373
 30
0.0
 10
361.1956409690816
 20
154.7012434994972
 30
0.0
 10
361.1026828566248
 20
154.696584904528
 30
0.0
 10
361.0446769200643
 20
154.7101160246776
 30
0.0
 10
361.0137569043818
 20
154.7173287768895
 30
0.0
  0
SPLINE
  5
257
330
1F
100
AcDbEntity
  8
0
  6
CONTINUOUS
 62
     7
100
AcDbSpline
210
0.0
220
0.0
230
1.0
 70
     8
 71
     3
 72
     9
 73
     5
 74
     0
 42
0.000000001
 43
0.00000001
 40
0.0
 40
0.0
 40
0.0
 40
0.0
 40
0.5331007886094505
 40
1.0
 40
1.0
 40
1.0
 40
1.0
 10
361.011790380601
 20
145.8897745949378
 30
0.0
 10
361.0430821033975
 20
145.8971560693763
 30
0.0
 10
361.1017796770366
 20
145.9110023712318
 30
0.0
 10
361.195230752851
 20
145.9065939857864
 30
0.0
 10
361.2388629864524
 20
145.9045357140984
 30
0.0
  0
LINE
  5
258
330
1F
100
AcDbEntity
  8
0
  6
CONTINUOUS
 62
     7
100
AcDbLine
 10
396.5079649777
 20
152.5539824889
 30
0.0
 11
376.5079649777
 21
152.5539824889
 31
0.0
  0
LINE
  5
259
330
1F
100
AcDbEntity
  8
0
  6
CONTINUOUS
 62
     7
100
AcDbLine
 10
376.5079649777
 20
148.0539824889
 30
0.0
 11
396.5079649777
 21
148.0539824889
 31
0.0
  0
LINE
  5
25A
330
1F
100
AcDbEntity
  8
0
  6
CONTINUOUS
 62
     7
100
AcDbLine
 10
338.6079649777
 20
159.2539824889
 30
0.0
 11
338.6079649777
 21
156.9539824889
 31
0.0
  0
LINE
  5
25B
330
1F
100
AcDbEntity
  8
0
  6
CONTINUOUS
 62
     7
100
AcDbLine
 10
338.6079649777
 20
156.9539824889
 30
0.0
 11
338.8079649777
 21
156.7539824889
 31
0.0
  0
LINE
  5
25C
330
1F
100
AcDbEntity
  8
0
  6
CONTINUOUS
 62
     7
100
AcDbLine
 10
352.8079649777
 20
156.7539824889
 30
0.0
 11
353.0079649777
 21
156.9539824889
 31
0.0
  0
LINE
  5
25D
330
1F
100
AcDbEntity
  8
0
  6
CONTINUOUS
 62
     7
100
AcDbLine
 10
353.0079649777
 20
156.9539824889
 30
0.0
 11
353.0079649777
 21
159.2539824889
 31
0.0
  0
LINE
  5
25E
330
1F
100
AcDbEntity
  8
0
  6
CONTINUOUS
 62
     7
100
AcDbLine
 10
346.9734017423
 20
149.8039824889
 30
0.0
 11
347.2022263034
 21
149.8039824889
 31
0.0
  0
LINE
  5
25F
330
1F
100
AcDbEntity
  8
0
  6
CONTINUOUS
 62
     7
100
AcDbLine
 10
347.2022263034
 20
150.8039824889
 30
0.0
 11
346.9734017423
 21
150.8039824889
 31
0.0
  0
LINE
  5
260
330
1F
100
AcDbEntity
  8
0
  6
CONTINUOUS
 62
     7
100
AcDbLine
 10
346.9734017423
 20
151.8039824889
 30
0.0
 11
347.2022263034
 21
151.8039824889
 31
0.0
  0
LINE
  5
261
330
1F
100
AcDbEntity
  8
0
  6
CONTINUOUS
 62
     7
100
AcDbLine
 10
347.2022263034
 20
152.8039824889
 30
0.0
 11
346.9734017423
 21
152.8039824889
 31
0.0
  0
LINE
  5
262
330
1F
100
AcDbEntity
  8
0
  6
CONTINUOUS
 62
     7
100
AcDbLine
 10
347.2022263034
 20
148.8039824889
 30
0.0
 11
346.9734017423
 21
148.8039824889
 31
0.0
  0
LINE
  5
263
330
1F
100
AcDbEntity
  8
0
  6
CONTINUOUS
 62
     7
100
AcDbLine
 10
346.9734017423
 20
147.8039824889
 30
0.0
 11
347.2022263034
 21
147.8039824889
 31
0.0
  0
LINE
  5
264
330
1F
100
AcDbEntity
  8
0
  6
CONTINUOUS
 62
     7
100
AcDbLine
 10
359.7702265792
 20
149.8039824889
 30
0.0
 11
347.2022263034
 21
149.8039824889
 31
0.0
  0
LINE
  5
265
330
1F
100
AcDbEntity
  8
0
  6
CONTINUOUS
 62
     7
100
AcDbLine
 10
347.2022263034
 20
150.8039824889
 30
0.0
 11
359.7702265792
 21
150.8039824889
 31
0.0
  0
LINE
  5
266
330
1F
100
AcDbEntity
  8
0
  6
CONTINUOUS
 62
     7
100
AcDbLine
 10
347.2022263034
 20
152.8039824889
 30
0.0
 11
359.7702265792
 21
152.8039824889
 31
0.0
  0
LINE
  5
267
330
1F
100
AcDbEntity
  8
0
  6
CONTINUOUS
 62
     7
100
AcDbLine
 10
359.7702265792
 20
151.8039824889
 30
0.0
 11
347.2022263034
 21
151.8039824889
 31
0.0
  0
LINE
  5
268
330
1F
100
AcDbEntity
  8
0
  6
CONTINUOUS
 62
     7
100
AcDbLine
 10
347.2022263034
 20
148.8039824889
 30
0.0
 11
359.7702265792
 21
148.8039824889
 31
0.0
  0
LINE
  5
269
330
1F
100
AcDbEntity
  8
0
  6
CONTINUOUS
 62
     7
100
AcDbLine
 10
359.7702265792
 20
147.8039824889
 30
0.0
 11
347.2022263034
 21
147.8039824889
 31
0.0
  0
LINE
  5
26A
330
1F
100
AcDbEntity
  8
0
  6
CONTINUOUS
 62
     7
100
AcDbLine
 10
353.2079649676
 20
159.2539824889
 30
0.0
 11
338.4079649777
 21
159.2539824889
 31
0.0
  0
LINE
  5
26B
330
1F
100
AcDbEntity
  8
0
  6
CONTINUOUS
 62
     7
100
AcDbLine
 10
338.3079649777
 20
166.6539824889
 30
0.0
 11
353.3079649777
 21
166.6539824889
 31
0.0
  0
LINE
  5
26C
330
1F
100
AcDbEntity
  8
0
  6
CONTINUOUS
 62
     7
100
AcDbLine
 10
338.9079649777
 20
167.2539824889
 30
0.0
 11
352.7079649777
 21
167.2539824889
 31
0.0
  0
LINE
  5
26D
330
1F
100
AcDbEntity
  8
0
  6
CONTINUOUS
 62
     7
100
AcDbLine
 10
346.9577582957
 20
147.8039824889
 30
0.0
 11
346.9577582957
 21
148.8039824889
 31
0.0
  0
LINE
  5
26E
330
1F
100
AcDbEntity
  8
0
  6
CONTINUOUS
 62
     7
100
AcDbLine
 10
346.9577582957
 20
148.8039824889
 30
0.0
 11
346.9734017423
 21
148.8039824889
 31
0.0
  0
LINE
  5
26F
330
1F
100
AcDbEntity
  8
0
  6
CONTINUOUS
 62
     7
100
AcDbLine
 10
346.9577582957
 20
147.8039824889
 30
0.0
 11
346.9734017423
 21
147.8039824889
 31
0.0
  0
LINE
  5
270
330
1F
100
AcDbEntity
  8
0
  6
CONTINUOUS
 62
     7
100
AcDbLine
 10
346.9577582957
 20
151.8039824889
 30
0.0
 11
346.9577582957
 21
152.8039824889
 31
0.0
  0
LINE
  5
271
330
1F
100
AcDbEntity
  8
0
  6
CONTINUOUS
 62
     7
100
AcDbLine
 10
346.9577582957
 20
152.8039824889
 30
0.0
 11
346.9734017423
 21
152.8039824889
 31
0.0
  0
LINE
  5
272
330
1F
100
AcDbEntity
  8
0
  6
CONTINUOUS
 62
     7
100
AcDbLine
 10
346.9577582957
 20
151.8039824889
 30
0.0
 11
346.9734017423
 21
151.8039824889
 31
0.0
  0
LINE
  5
273
330
1F
100
AcDbEntity
  8
0
  6
CONTINUOUS
 62
     7
100
AcDbLine
 10
346.9577582957
 20
149.8039824889
 30
0.0
 11
346.9577582957
 21
150.8039824889
 31
0.0
  0
LINE
  5
274
330
1F
100
AcDbEntity
  8
0
  6
CONTINUOUS
 62
     7
100
AcDbLine
 10
346.9577582957
 20
149.8039824889
 30
0.0
 11
346.9734017423
 21
149.8039824889
 31
0.0
  0
LINE
  5
275
330
1F
100
AcDbEntity
  8
0
  6
CONTINUOUS
 62
     7
100
AcDbLine
 10
346.9577582957
 20
150.8039824889
 30
0.0
 11
346.9734017423
 21
150.8039824889
 31
0.0
  0
LINE
  5
276
330
1F
100
AcDbEntity
  8
0
  6
CONTINUOUS
 62
     7
100
AcDbLine
 10
339.4579649777
 20
145.8039824889
 30
0.0
 11
346.8013238307
 21
145.8039824889
 31
0.0
  0
LINE
  5
277
330
1F
100
AcDbEntity
  8
0
  6
CONTINUOUS
 62
     7
100
AcDbLine
 10
346.8013238307
 20
154.8039824889
 30
0.0
 11
339.4579649777
 21
154.8039824889
 31
0.0
  0
LINE
  5
278
330
1F
100
AcDbEntity
  8
0
  6
CONTINUOUS
 62
     7
100
AcDbLine
 10
346.8013238307
 20
145.8039824889
 30
0.0
 11
359.7643994427
 21
145.8039824889
 31
0.0
  0
LINE
  5
279
330
1F
100
AcDbEntity
  8
0
  6
CONTINUOUS
 62
     7
100
AcDbLine
 10
359.7643994427
 20
154.8039824889
 30
0.0
 11
346.8013238307
 21
154.8039824889
 31
0.0
  0
LINE
  5
27A
330
1F
100
AcDbEntity
  8
0
  6
CONTINUOUS
 62
     7
100
AcDbLine
 10
342.7111924643
 20
159.2539824889
 30
0.0
 11
342.7111924643
 21
156.9539824889
 31
0.0
  0
LINE
  5
27B
330
1F
100
AcDbEntity
  8
0
  6
CONTINUOUS
 62
     7
100
AcDbLine
 10
348.9047374911
 20
156.9539824889
 30
0.0
 11
348.9047374911
 21
159.2539824889
 31
0.0
  0
LINE
  5
27C
330
1F
100
AcDbEntity
  8
0
  6
CONTINUOUS
 62
     7
100
AcDbLine
 10
348.9047374911
 20
156.9539824889
 30
0.0
 11
342.7111924643
 21
156.9539824889
 31
0.0
  0
LINE
  5
27D
330
1F
100
AcDbEntity
  8
0
  6
CONTINUOUS
 62
     7
100
AcDbLine
 10
341.7271861098
 20
156.9539824889
 30
0.0
 11
341.7271861098
 21
159.2539824889
 31
0.0
  0
LINE
  5
27E
330
1F
100
AcDbEntity
  8
0
  6
CONTINUOUS
 62
     7
100
AcDbLine
 10
341.7271861098
 20
156.9539824889
 30
0.0
 11
342.7111924643
 21
156.9539824889
 31
0.0
  0
LINE
  5
27F
330
1F
100
AcDbEntity
  8
0
  6
CONTINUOUS
 62
     7
100
AcDbLine
 10
348.9047374911
 20
156.9539824889
 30
0.0
 11
349.8887438456
 21
156.9539824889
 31
0.0
  0
SPLINE
  5
280
330
1F
100
AcDbEntity
  8
0
  6
CONTINUOUS
 62
     7
100
AcDbSpline
210
0.0
220
0.0
230
1.0
 70
     8
 71
     3
 72
     8
 73
     4
 74
     0
 42
0.000000001
 43
0.00000001
 40
0.0
 40
0.0
 40
0.0
 40
0.0
 40
0.0286485978063874
 40
0.0286485978063874
 40
0.0286485978063874
 40
0.0286485978063874
 10
349.8887438455824
 20
156.9539824888519
 30
0.0
 10
349.8381716704889
 20
156.8868219679252
 30
0.0
 10
349.7880271857302
 20
156.8201553012586
 30
0.0
 10
349.7383103913065
 20
156.7539824888519
 30
0.0
  0
LINE
  5
281
330
1F
100
AcDbEntity
  8
0
  6
CONTINUOUS
 62
     7
100
AcDbLine
 10
349.7383103913
 20
156.7539824889
 30
0.0
 11
348.8591942382
 21
156.7539824889
 31
0.0
  0
SPLINE
  5
282
330
1F
100
AcDbEntity
  8
0
  6
CONTINUOUS
 62
     7
100
AcDbSpline
210
0.0
220
0.0
230
1.0
 70
     8
 71
     3
 72
     8
 73
     4
 74
     0
 42
0.000000001
 43
0.00000001
 40
0.0
 40
0.0
 40
0.0
 40
0.0
 40
0.0286485978063876
 40
0.0286485978063876
 40
0.0286485978063876
 40
0.0286485978063876
 10
348.8591942381822
 20
156.7539824888519
 30
0.0
 10
348.8743753225031
 20
156.8201553012598
 30
0.0
 10
348.8895564068237
 20
156.8868219679265
 30
0.0
 10
348.9047374911442
 20
156.9539824888519
 30
0.0
  0
LINE
  5
283
330
1F
100
AcDbEntity
  8
0
  6
CONTINUOUS
 62
     7
100
AcDbLine
 10
349.8887438456
 20
159.2539824889
 30
0.0
 11
349.8887438456
 21
156.9539824889
 31
0.0
  0
LINE
  5
284
330
1F
100
AcDbEntity
  8
0
  6
CONTINUOUS
 62
     7
100
AcDbLine
 10
342.7567357172
 20
156.7539824889
 30
0.0
 11
341.8776195641
 21
156.7539824889
 31
0.0
  0
SPLINE
  5
285
330
1F
100
AcDbEntity
  8
0
  6
CONTINUOUS
 62
     7
100
AcDbSpline
210
0.0
220
0.0
230
1.0
 70
     8
 71
     3
 72
     8
 73
     4
 74
     0
 42
0.000000001
 43
0.00000001
 40
0.0
 40
0.0
 40
0.0
 40
0.0
 40
0.0286485978063873
 40
0.0286485978063873
 40
0.0286485978063873
 40
0.0286485978063873
 10
341.8776195641011
 20
156.7539824888519
 30
0.0
 10
341.8279027696802
 20
156.8201553012547
 30
0.0
 10
341.7777582849216
 20
156.8868219679213
 30
0.0
 10
341.7271861098251
 20
156.9539824888519
 30
0.0
  0
SPLINE
  5
286
330
1F
100
AcDbEntity
  8
0
  6
CONTINUOUS
 62
     7
100
AcDbSpline
210
0.0
220
0.0
230
1.0
 70
     8
 71
     3
 72
     8
 73
     4
 74
     0
 42
0.000000001
 43
0.00000001
 40
0.0
 40
0.0
 40
0.0
 40
0.0
 40
0.0286485978063874
 40
0.0286485978063874
 40
0.0286485978063874
 40
0.0286485978063874
 10
342.7111924642634
 20
156.9539824888519
 30
0.0
 10
342.7263735485838
 20
156.8868219679264
 30
0.0
 10
342.7415546329045
 20
156.8201553012597
 30
0.0
 10
342.7567357172253
 20
156.7539824888519
 30
0.0
  0
LINE
  5
287
330
1F
100
AcDbEntity
  8
0
  6
CONTINUOUS
 62
     7
100
AcDbLine
 10
342.7567357172
 20
156.7539824889
 30
0.0
 11
348.8591942382
 21
156.7539824889
 31
0.0
  0
LINE
  5
288
330
1F
100
AcDbEntity
  8
0
  6
CONTINUOUS
 62
     7
100
AcDbLine
 10
351.8079649777
 20
155.0039824889
 30
0.0
 11
339.8079649777
 21
155.0039824889
 31
0.0
  0
LINE
  5
289
330
1F
100
AcDbEntity
  8
0
  6
CONTINUOUS
 62
     7
100
AcDbLine
 10
341.7271861098
 20
156.9539824889
 30
0.0
 11
338.6304135964
 21
156.9539824889
 31
0.0
  0
SPLINE
  5
28A
330
1F
100
AcDbEntity
  8
0
  6
CONTINUOUS
 62
     7
100
AcDbSpline
210
0.0
220
0.0
230
1.0
 70
     8
 71
     3
 72
     8
 73
     4
 74
     0
 42
0.000000001
 43
0.00000001
 40
0.0
 40
0.0
 40
0.0
 40
0.0
 40
0.0286485978063873
 40
0.0286485978063873
 40
0.0286485978063873
 40
0.0286485978063873
 10
338.6304135963848
 20
156.9539824888519
 30
0.0
 10
338.696166855799
 20
156.8868219679252
 30
0.0
 10
338.7614924248783
 20
156.8201553012585
 30
0.0
 10
338.8263903036226
 20
156.7539824888519
 30
0.0
  0
LINE
  5
28B
330
1F
100
AcDbEntity
  8
0
  6
CONTINUOUS
 62
     7
100
AcDbLine
 10
338.8263903036
 20
156.7539824889
 30
0.0
 11
341.8776195641
 21
156.7539824889
 31
0.0
  0
LINE
  5
28C
330
1F
100
AcDbEntity
  8
0
  6
CONTINUOUS
 62
     7
100
AcDbLine
 10
352.985516359
 20
156.9539824889
 30
0.0
 11
352.985516359
 21
159.2539824889
 31
0.0
  0
LINE
  5
28D
330
1F
100
AcDbEntity
  8
0
  6
CONTINUOUS
 62
     7
100
AcDbLine
 10
352.985516359
 20
156.9539824889
 30
0.0
 11
349.8887438456
 21
156.9539824889
 31
0.0
  0
SPLINE
  5
28E
330
1F
100
AcDbEntity
  8
0
  6
CONTINUOUS
 62
     7
100
AcDbSpline
210
0.0
220
0.0
230
1.0
 70
     8
 71
     3
 72
     8
 73
     4
 74
     0
 42
0.000000001
 43
0.00000001
 40
0.0
 40
0.0
 40
0.0
 40
0.0
 40
0.0286485978063877
 40
0.0286485978063877
 40
0.0286485978063877
 40
0.0286485978063877
 10
352.789539651785
 20
156.7539824888519
 30
0.0
 10
352.8544375305308
 20
156.8201553012601
 30
0.0
 10
352.9197630996101
 20
156.8868219679268
 30
0.0
 10
352.9855163590228
 20
156.9539824888519
 30
0.0
  0
LINE
  5
28F
330
1F
100
AcDbEntity
  8
0
  6
CONTINUOUS
 62
     7
100
AcDbLine
 10
349.7383103913
 20
156.7539824889
 30
0.0
 11
352.7895396518
 21
156.7539824889
 31
0.0
  0
LINE
  5
290
330
1F
100
AcDbEntity
  8
0
  6
CONTINUOUS
 62
     7
100
AcDbLine
 10
338.6304135964
 20
159.2539824889
 30
0.0
 11
338.6304135964
 21
156.9539824889
 31
0.0
  0
LINE
  5
291
330
1F
100
AcDbEntity
  8
0
  6
CONTINUOUS
 62
     7
100
AcDbLine
 10
359.7702265792
 20
149.8039824889
 30
0.0
 11
359.9389396862
 21
149.8039824889
 31
0.0
  0
LINE
  5
292
330
1F
100
AcDbEntity
  8
0
  6
CONTINUOUS
 62
     7
100
AcDbLine
 10
359.9389396862
 20
150.8039824889
 30
0.0
 11
359.7702265792
 21
150.8039824889
 31
0.0
  0
LINE
  5
293
330
1F
100
AcDbEntity
  8
0
  6
CONTINUOUS
 62
     7
100
AcDbLine
 10
359.9389396862
 20
148.8039824889
 30
0.0
 11
359.7702265792
 21
148.8039824889
 31
0.0
  0
LINE
  5
294
330
1F
100
AcDbEntity
  8
0
  6
CONTINUOUS
 62
     7
100
AcDbLine
 10
359.7702265792
 20
147.8039824889
 30
0.0
 11
359.9389396862
 21
147.8039824889
 31
0.0
  0
LINE
  5
295
330
1F
100
AcDbEntity
  8
0
  6
CONTINUOUS
 62
     7
100
AcDbLine
 10
359.9389396862
 20
152.8039824889
 30
0.0
 11
359.7702265792
 21
152.8039824889
 31
0.0
  0
LINE
  5
296
330
1F
100
AcDbEntity
  8
0
  6
CONTINUOUS
 62
     7
100
AcDbLine
 10
359.7702265792
 20
151.8039824889
 30
0.0
 11
359.9389396862
 21
151.8039824889
 31
0.0
  0
LINE
  5
297
330
1F
100
AcDbEntity
  8
0
  6
CONTINUOUS
 62
     7
100
AcDbLine
 10
374.0079649777
 20
155.5539824889
 30
0.0
 11
374.0079649777
 21
145.0539824889
 31
0.0
  0
LINE
  5
298
330
1F
100
AcDbEntity
  8
0
  6
CONTINUOUS
 62
     7
100
AcDbLine
 10
373.5079649777
 20
155.5539824889
 30
0.0
 11
373.5079649777
 21
145.0539824889
 31
0.0
  0
SPLINE
  5
299
330
1F
100
AcDbEntity
  8
0
  6
CONTINUOUS
 62
     7
100
AcDbSpline
210
0.0
220
0.0
230
1.0
 70
     8
 71
     3
 72
    15
 73
    11
 74
     0
 42
0.000000001
 43
0.00000001
 40
0.0
 40
0.0
 40
0.0
 40
0.0
 40
0.1078674533384991
 40
0.2116016493751961
 40
0.3113964951270722
 40
0.4074697580435722
 40
0.5000654714875075
 40
0.6562478035885534
 40
0.8225560066335407
 40
1.0
 40
1.0
 40
1.0
 40
1.0
 10
360.826857598013
 20
151.2039824888519
 30
0.0
 10
360.8122653280979
 20
151.1408051774431
 30
0.0
 10
360.7836399338144
 20
151.0168713782901
 30
0.0
 10
360.7511082795323
 20
150.8311262168436
 30
0.0
 10
360.7274395572668
 20
150.650648078113
 30
0.0
 10
360.7132591752845
 20
150.4754810831573
 30
0.0
 10
360.7071999046614
 20
150.2652092380362
 30
0.0
 10
360.7196365609826
 20
150.0121304236254
 30
0.0
 10
360.7584646080221
 20
149.7102463622198
 30
0.0
 10
360.803572843634
 20
149.5082516408145
 30
0.0
 10
360.826857598013
 20
149.4039824888519
 30
0.0
  0
ARC
  5
29A
330
1F
100
AcDbEntity
  8
0
  6
CONTINUOUS
 62
     7
100
AcDbCircle
 10
360.6079649777
 20
146.8039824889
 30
0.0
 40
1.0
100
AcDbArc
 50
270.0
 51
335.5830400854
  0
LINE
  5
29B
330
1F
100
AcDbEntity
  8
0
  6
CONTINUOUS
 62
     7
100
AcDbLine
 10
359.7643994427
 20
145.8039824889
 30
0.0
 11
360.6079649777
 21
145.8039824889
 31
0.0
  0
ARC
  5
29C
330
1F
100
AcDbEntity
  8
0
  6
CONTINUOUS
 62
     7
100
AcDbCircle
 10
360.6079649777
 20
153.8039824889
 30
0.0
 40
1.0
100
AcDbArc
 50
24.4169599146
 51
90.0
  0
LINE
  5
29D
330
1F
100
AcDbEntity
  8
0
  6
CONTINUOUS
 62
     7
100
AcDbLine
 10
360.6079649777
 20
154.8039824889
 30
0.0
 11
359.7643994427
 21
154.8039824889
 31
0.0
  0
LINE
  5
29E
330
1F
100
AcDbEntity
  8
0
  6
CONTINUOUS
 62
     7
100
AcDbLine
 10
360.826857598
 20
149.4039824889
 30
0.0
 11
373.5079649777
 21
149.4039824889
 31
0.0
  0
LINE
  5
29F
330
1F
100
AcDbEntity
  8
0
  6
CONTINUOUS
 62
     7
100
AcDbLine
 10
373.5079649777
 20
151.2039824889
 30
0.0
 11
360.826857598
 21
151.2039824889
 31
0.0
  0
LINE
  5
2A0
330
1F
100
AcDbEntity
  8
0
  6
CONTINUOUS
 62
     7
100
AcDbLine
 10
376.5079649777
 20
146.4362923634
 30
0.0
 11
376.5079649777
 21
154.1716726143
 31
0.0
  0
LINE
  5
2A1
330
1F
100
AcDbEntity
  8
0
  6
CONTINUOUS
 62
     7
100
AcDbLine
 10
343.4051116782
 20
168.2539824889
 30
0.0
 11
349.9079649777
 21
168.2539824889
 31
0.0
  0
LINE
  5
2A2
330
1F
100
AcDbEntity
  8
0
  6
CONTINUOUS
 62
     7
100
AcDbLine
 10
341.7079649777
 20
168.2539824889
 30
0.0
 11
342.4858728626
 21
168.2539824889
 31
0.0
  0
LINE
  5
2A3
330
1F
100
AcDbEntity
  8
0
  6
CONTINUOUS
 62
     7
100
AcDbLine
 10
342.4858728626
 20
167.2539824889
 30
0.0
 11
342.4858728626
 21
168.2539824889
 31
0.0
  0
LINE
  5
2A4
330
1F
100
AcDbEntity
  8
0
  6
CONTINUOUS
 62
     7
100
AcDbLine
 10
343.4051116782
 20
168.2539824889
 30
0.0
 11
343.4051116782
 21
167.2539824889
 31
0.0
  0
LINE
  5
2A5
330
1F
100
AcDbEntity
  8
0
  6
CONTINUOUS
 62
     7
100
AcDbLine
 10
343.6120526845
 20
168.7539824889
 30
0.0
 11
349.6192898431
 21
168.7539824889
 31
0.0
  0
LINE
  5
2A6
330
1F
100
AcDbEntity
  8
0
  6
CONTINUOUS
 62
     7
100
AcDbLine
 10
341.9966401123
 20
168.7539824889
 30
0.0
 11
342.692813869
 21
168.7539824889
 31
0.0
  0
SPLINE
  5
2A7
330
1F
100
AcDbEntity
  8
0
  6
CONTINUOUS
 62
     7
100
AcDbSpline
210
0.0
220
0.0
230
1.0
 70
     8
 71
     3
 72
     8
 73
     4
 74
     0
 42
0.000000001
 43
0.00000001
 40
0.0
 40
0.0
 40
0.0
 40
0.0
 40
1.0
 40
1.0
 40
1.0
 40
1.0
 10
342.485872862639
 20
168.2539824888519
 30
0.0
 10
342.5574191811635
 20
168.4270180686528
 30
0.0
 10
342.6263050244037
 20
168.5934564282176
 30
0.0
 10
342.692813868968
 20
168.7539824888519
 30
0.0
  0
SPLINE
  5
2A8
330
1F
100
AcDbEntity
  8
0
  6
CONTINUOUS
 62
     7
100
AcDbSpline
210
0.0
220
0.0
230
1.0
 70
     8
 71
     3
 72
     8
 73
     4
 74
     0
 42
0.000000001
 43
0.00000001
 40
0.0
 40
0.0
 40
0.0
 40
0.0
 40
1.0
 40
1.0
 40
1.0
 40
1.0
 10
343.6120526845104
 20
168.7539824888519
 30
0.0
 10
343.5455438399222
 20
168.5934564281596
 30
0.0
 10
343.4766579966825
 20
168.4270180685957
 30
0.0
 10
343.4051116781815
 20
168.2539824888519
 30
0.0
  0
LINE
  5
2A9
330
1F
100
AcDbEntity
  8
0
  6
CONTINUOUS
 62
     7
100
AcDbLine
 10
361.5185263077
 20
154.2173564893
 30
0.0
 11
361.5904760759
 21
154.1178685905
 31
0.0
  0
LINE
  5
2AA
330
1F
100
AcDbEntity
  8
0
  6
CONTINUOUS
 62
     7
100
AcDbLine
 10
361.5911910535
 20
146.4910759688
 30
0.0
 11
361.5185263133
 21
146.3906085006
 31
0.0
  0
LINE
  5
2AB
330
1F
100
AcDbEntity
  8
0
  6
CONTINUOUS
 62
     7
100
AcDbLine
 10
342.8381164967
 20
168.7539824889
 30
0.0
 11
343.6120526845
 21
168.7539824889
 31
0.0
  0
LINE
  5
2AC
330
1F
100
AcDbEntity
  8
0
  6
CONTINUOUS
 62
     7
100
AcDbLine
 10
342.692813869
 20
168.7539824889
 30
0.0
 11
342.8381164967
 21
168.7539824889
 31
0.0
  0
LINE
  5
2AD
330
1F
100
AcDbEntity
  8
0
  6
CONTINUOUS
 62
     7
100
AcDbLine
 10
396.5079649777
 20
152.5539824889
 30
0.0
 11
396.5079649777
 21
148.0539824889
 31
0.0
  0
LINE
  5
2AE
330
1F
100
AcDbEntity
  8
0
  6
CONTINUOUS
 62
     7
100
AcDbLine
 10
338.6079649777
 20
156.9539824889
 30
0.0
 11
338.6304135964
 21
156.9539824889
 31
0.0
  0
LINE
  5
2AF
330
1F
100
AcDbEntity
  8
0
  6
CONTINUOUS
 62
     7
100
AcDbLine
 10
338.8263903036
 20
156.7539824889
 30
0.0
 11
338.8079649777
 21
156.7539824889
 31
0.0
  0
LINE
  5
2B0
330
1F
100
AcDbEntity
  8
0
  6
CONTINUOUS
 62
     7
100
AcDbLine
 10
352.985516359
 20
156.9539824889
 30
0.0
 11
353.0079649777
 21
156.9539824889
 31
0.0
  0
LINE
  5
2B1
330
1F
100
AcDbEntity
  8
0
  6
CONTINUOUS
 62
     7
100
AcDbLine
 10
352.8079649777
 20
156.7539824889
 30
0.0
 11
352.7895396518
 21
156.7539824889
 31
0.0
  0
ENDSEC
  0
SECTION
  2
OBJECTS
  0
DICTIONARY
  5
C
330
0
100
AcDbDictionary
  3
ACAD_GROUP
350
D
  3
ACAD_MLINESTYLE
350
17
  3
ACAD_SCALELIST
350
47
  0
DICTIONARY
  5
D
102
{ACAD_REACTORS
330
C
102
}
330
C
100
AcDbDictionary
  0
DICTIONARY
  5
17
102
{ACAD_REACTORS
330
C
102
}
330
C
100
AcDbDictionary
  3
STANDARD
350
18
  0
DICTIONARY
  5
47
102
{ACAD_REACTORS
330
C
102
}
330
C
100
AcDbDictionary
  0
MLINESTYLE
  5
18
102
{ACAD_REACTORS
330
17
102
}
330
17
100
AcDbMlineStyle
  2
Standard
 70
     0
  3

 62
   256
 51
90.0
 52
90.0
 71
     2
 49
0.5
 62
   256
  6
BYLAYER
 49
-0.5
 62
   256
  6
BYLAYER
  0
ENDSEC
  0
EOF
