  0
SECTION
  2
HEADER
  9
$ACADVER
  1
AC1014
  9
$ACADMAINTVER
 70
     0
  9
$DWGCODEPAGE
  3
ANSI_1252
  9
$INSBASE
 10
137.338442
 20
94.875
 30
0.0
  9
$EXTMIN
 10
109.207418
 20
60.805648
 30
0.0
  9
$EXTMAX
 10
163.386676
 20
121.418965
 30
0.0
  9
$LIMMIN
 10
0.0
 20
0.0
  9
$LIMMAX
 10
210.0
 20
297.0
  9
$ORTHOMODE
 70
     1
  9
$REGENMODE
 70
     1
  9
$FILLMODE
 70
     1
  9
$QTEXTMODE
 70
     0
  9
$MIRRTEXT
 70
     1
  9
$DRAGMODE
 70
     2
  9
$LTSCALE
 40
7.0
  9
$OSMODE
 70
     0
  9
$ATTMODE
 70
     1
  9
$TEXTSIZE
 40
0.2
  9
$TRACEWID
 40
0.05
  9
$TEXTSTYLE
  7
STANDARD
  9
$CLAYER
  8
COTATION1
  9
$CELTYPE
  6
BYLAYER
  9
$CECOLOR
 62
   256
  9
$CELTSCALE
 40
1.0
  9
$DELOBJ
 70
     1
  9
$DISPSILH
 70
     0
  9
$DIMSCALE
 40
1.0
  9
$DIMASZ
 40
3.0
  9
$DIMEXO
 40
0.0625
  9
$DIMDLI
 40
0.38
  9
$DIMRND
 40
0.01
  9
$DIMDLE
 40
0.0
  9
$DIMEXE
 40
0.18
  9
$DIMTP
 40
0.0
  9
$DIMTM
 40
0.0
  9
$DIMTXT
 40
2.5
  9
$DIMCEN
 40
0.09
  9
$DIMTSZ
 40
0.0
  9
$DIMTOL
 70
     0
  9
$DIMLIM
 70
     0
  9
$DIMTIH
 70
     0
  9
$DIMTOH
 70
     0
  9
$DIMSE1
 70
     0
  9
$DIMSE2
 70
     0
  9
$DIMTAD
 70
     1
  9
$DIMZIN
 70
    12
  9
$DIMBLK
  1

  9
$DIMASO
 70
     1
  9
$DIMSHO
 70
     1
  9
$DIMPOST
  1

  9
$DIMAPOST
  1

  9
$DIMALT
 70
     0
  9
$DIMALTD
 70
     2
  9
$DIMALTF
 40
25.4
  9
$DIMLFAC
 40
1.0
  9
$DIMTOFL
 70
     1
  9
$DIMTVP
 40
0.0
  9
$DIMTIX
 70
     0
  9
$DIMSOXD
 70
     0
  9
$DIMSAH
 70
     0
  9
$DIMBLK1
  1

  9
$DIMBLK2
  1

  9
$DIMSTYLE
  2
SC_STAND
  9
$DIMCLRD
 70
     0
  9
$DIMCLRE
 70
     0
  9
$DIMCLRT
 70
     0
  9
$DIMTFAC
 40
1.0
  9
$DIMGAP
 40
1.0
  9
$DIMJUST
 70
     0
  9
$DIMSD1
 70
     0
  9
$DIMSD2
 70
     0
  9
$DIMTOLJ
 70
     1
  9
$DIMTZIN
 70
    12
  9
$DIMALTZ
 70
    12
  9
$DIMALTTZ
 70
    12
  9
$DIMFIT
 70
     5
  9
$DIMUPT
 70
     0
  9
$DIMUNIT
 70
     2
  9
$DIMDEC
 70
     4
  9
$DIMTDEC
 70
     4
  9
$DIMALTU
 70
     2
  9
$DIMALTTD
 70
     2
  9
$DIMTXSTY
  7
STANDARD
  9
$DIMAUNIT
 70
     0
  9
$LUNITS
 70
     2
  9
$LUPREC
 70
     4
  9
$SKETCHINC
 40
0.1
  9
$FILLETRAD
 40
0.0
  9
$AUNITS
 70
     0
  9
$AUPREC
 70
     0
  9
$MENU
  1
acad
  9
$ELEVATION
 40
0.0
  9
$PELEVATION
 40
0.0
  9
$THICKNESS
 40
0.0
  9
$LIMCHECK
 70
     0
  9
$BLIPMODE
 70
     1
  9
$CHAMFERA
 40
0.0
  9
$CHAMFERB
 40
0.0
  9
$CHAMFERC
 40
0.0
  9
$CHAMFERD
 40
0.0
  9
$SKPOLY
 70
     0
  9
$TDCREATE
 40
2451086.421545486
  9
$TDUPDATE
 40
2451387.897286470
  9
$TDINDWG
 40
0.0000460764
  9
$TDUSRTIMER
 40
0.0000460764
  9
$USRTIMER
 70
     1
  9
$ANGBASE
 50
0.0
  9
$ANGDIR
 70
     0
  9
$PDMODE
 70
     0
  9
$PDSIZE
 40
0.0
  9
$PLINEWID
 40
0.0
  9
$COORDS
 70
     1
  9
$SPLFRAME
 70
     0
  9
$SPLINETYPE
 70
     6
  9
$SPLINESEGS
 70
     8
  9
$ATTDIA
 70
     0
  9
$ATTREQ
 70
     1
  9
$HANDLING
 70
     1
  9
$HANDSEED
  5
55F
  9
$SURFTAB1
 70
     6
  9
$SURFTAB2
 70
     6
  9
$SURFTYPE
 70
     6
  9
$SURFU
 70
     6
  9
$SURFV
 70
     6
  9
$UCSNAME
  2

  9
$UCSORG
 10
0.0
 20
0.0
 30
0.0
  9
$UCSXDIR
 10
1.0
 20
0.0
 30
0.0
  9
$UCSYDIR
 10
0.0
 20
1.0
 30
0.0
  9
$PUCSNAME
  2

  9
$PUCSORG
 10
0.0
 20
0.0
 30
0.0
  9
$PUCSXDIR
 10
1.0
 20
0.0
 30
0.0
  9
$PUCSYDIR
 10
0.0
 20
1.0
 30
0.0
  9
$USERI1
 70
     0
  9
$USERI2
 70
     0
  9
$USERI3
 70
     0
  9
$USERI4
 70
     0
  9
$USERI5
 70
     0
  9
$USERR1
 40
0.0
  9
$USERR2
 40
0.0
  9
$USERR3
 40
0.0
  9
$USERR4
 40
0.0
  9
$USERR5
 40
0.0
  9
$WORLDVIEW
 70
     1
  9
$SHADEDGE
 70
     3
  9
$SHADEDIF
 70
    70
  9
$TILEMODE
 70
     1
  9
$MAXACTVP
 70
    16
  9
$PINSBASE
 10
0.0
 20
0.0
 30
0.0
  9
$PLIMCHECK
 70
     0
  9
$PEXTMIN
 10
1.000000E+20
 20
1.000000E+20
 30
1.000000E+20
  9
$PEXTMAX
 10
-1.000000E+20
 20
-1.000000E+20
 30
-1.000000E+20
  9
$PLIMMIN
 10
0.0
 20
0.0
  9
$PLIMMAX
 10
12.0
 20
9.0
  9
$UNITMODE
 70
     0
  9
$VISRETAIN
 70
     0
  9
$PLINEGEN
 70
     0
  9
$PSLTSCALE
 70
     1
  9
$TREEDEPTH
 70
  3020
  9
$PICKSTYLE
 70
     1
  9
$CMLSTYLE
  2
STANDARD
  9
$CMLJUST
 70
     0
  9
$CMLSCALE
 40
1.0
  9
$PROXYGRAPHICS
 70
     1
  9
$MEASUREMENT
 70
     0
  0
ENDSEC
  0
SECTION
  2
CLASSES
  0
CLASS
  1
DICTIONARYVAR
  2
AcDbDictionaryVar
  3
"AutoCAD"
 90
        0
280
     0
281
     0
  0
CLASS
  1
LWPOLYLINE
  2
AcDbPolyline
  3
"AutoCAD"
 90
        0
280
     0
281
     1
  0
ENDSEC
  0
SECTION
  2
TABLES
  0
TABLE
  2
VPORT
  5
535
100
AcDbSymbolTable
 70
     1
  0
VPORT
  5
55A
100
AcDbSymbolTableRecord
100
AcDbViewportTableRecord
  2
*ACTIVE
 70
     0
 10
0.0
 20
0.0
 11
1.0
 21
1.0
 12
225.654671
 22
135.037441
 13
0.0
 23
0.0
 14
1.0
 24
1.0
 15
0.0
 25
0.0
 16
0.0
 26
0.0
 36
1.0
 17
0.0
 27
0.0
 37
0.0
 40
270.074882
 41
1.671053
 42
50.0
 43
0.0
 44
0.0
 50
0.0
 51
0.0
 71
     0
 72
   100
 73
     1
 74
     1
 75
     0
 76
     0
 77
     0
 78
     0
  0
ENDTAB
  0
TABLE
  2
LTYPE
  5
532
100
AcDbSymbolTable
 70
     1
  0
LTYPE
  5
53E
100
AcDbSymbolTableRecord
100
AcDbLinetypeTableRecord
  2
BYBLOCK
 70
     0
  3

 72
    65
 73
     0
 40
0.0
  0
LTYPE
  5
53F
100
AcDbSymbolTableRecord
100
AcDbLinetypeTableRecord
  2
BYLAYER
 70
     0
  3

 72
    65
 73
     0
 40
0.0
  0
LTYPE
  5
540
100
AcDbSymbolTableRecord
100
AcDbLinetypeTableRecord
  2
CONTINUOUS
 70
     0
  3
Solid line
 72
    65
 73
     0
 40
0.0
  0
ENDTAB
  0
TABLE
  2
LAYER
  5
52F
100
AcDbSymbolTable
 70
     4
  0
LAYER
  5
53B
100
AcDbSymbolTableRecord
100
AcDbLayerTableRecord
  2
0
 70
     0
 62
     7
  6
CONTINUOUS
  0
LAYER
  5
54E
100
AcDbSymbolTableRecord
100
AcDbLayerTableRecord
  2
COTATION1
 70
     0
 62
     2
  6
CONTINUOUS
  0
LAYER
  5
54F
100
AcDbSymbolTableRecord
100
AcDbLayerTableRecord
  2
ALPHA
 70
     0
 62
   255
  6
CONTINUOUS
  0
LAYER
  5
550
100
AcDbSymbolTableRecord
100
AcDbLayerTableRecord
  2
DEFPOINTS
 70
     0
 62
     7
  6
CONTINUOUS
  0
ENDTAB
  0
TABLE
  2
STYLE
  5
530
100
AcDbSymbolTable
 70
     2
  0
STYLE
  5
53C
100
AcDbSymbolTableRecord
100
AcDbTextStyleTableRecord
  2
STANDARD
 70
     0
 40
0.0
 41
1.0
 50
0.0
 71
     0
 42
0.2
  3
txt
  4

  0
STYLE
  5
54B
100
AcDbSymbolTableRecord
100
AcDbTextStyleTableRecord
  2
ROMANS
 70
     0
 40
0.0
 41
1.0
 50
0.0
 71
     0
 42
2.9
  3
romans.shx
  4

  0
ENDTAB
  0
TABLE
  2
VIEW
  5
533
100
AcDbSymbolTable
 70
     0
  0
ENDTAB
  0
TABLE
  2
UCS
  5
534
100
AcDbSymbolTable
 70
     0
  0
ENDTAB
  0
TABLE
  2
APPID
  5
536
100
AcDbSymbolTable
 70
     1
  0
APPID
  5
53D
100
AcDbSymbolTableRecord
100
AcDbRegAppTableRecord
  2
ACAD
 70
     0
  0
ENDTAB
  0
TABLE
  2
DIMSTYLE
  5
537
100
AcDbSymbolTable
 70
     1
  0
DIMSTYLE
105
54D
102
{ACAD_REACTORS
330
1F
330
2D
102
}
100
AcDbSymbolTableRecord
100
AcDbDimStyleTableRecord
  2
SC_STAND
 70
     0
  3

  4

  5

  6

  7

 40
1.0
 41
3.0
 42
0.0625
 43
0.38
 44
0.18
 45
0.01
 46
0.0
 47
0.0
 48
0.0
140
2.5
141
0.09
142
0.0
143
25.4
144
1.0
145
0.0
146
1.0
147
1.0
 71
     0
 72
     0
 73
     0
 74
     0
 75
     0
 76
     0
 77
     1
 78
    12
170
     0
171
     2
172
     1
173
     0
174
     0
175
     0
176
     0
177
     0
178
     0
270
     2
271
     4
272
     4
273
     2
274
     2
340
53C
275
     0
280
     0
281
     0
282
     0
283
     1
284
    12
285
    12
286
    12
287
     5
288
     0
  0
ENDTAB
  0
TABLE
  2
BLOCK_RECORD
  5
52E
100
AcDbSymbolTable
 70
     2
  0
BLOCK_RECORD
  5
544
100
AcDbSymbolTableRecord
100
AcDbBlockTableRecord
  2
*MODEL_SPACE
  0
BLOCK_RECORD
  5
541
100
AcDbSymbolTableRecord
100
AcDbBlockTableRecord
  2
*PAPER_SPACE
  0
BLOCK_RECORD
  5
549
100
AcDbSymbolTableRecord
100
AcDbBlockTableRecord
  2
*D0
  0
BLOCK_RECORD
  5
54A
100
AcDbSymbolTableRecord
100
AcDbBlockTableRecord
  2
*D1
  0
ENDTAB
  0
ENDSEC
  0
SECTION
  2
BLOCKS
  0
BLOCK
  5
553
100
AcDbEntity
  8
0
100
AcDbBlockBegin
  2
*MODEL_SPACE
 70
     0
 10
0.0
 20
0.0
 30
0.0
  3
*MODEL_SPACE
  1

  0
ENDBLK
  5
554
100
AcDbEntity
  8
0
100
AcDbBlockEnd
  0
BLOCK
  5
551
100
AcDbEntity
 67
     1
  8
0
100
AcDbBlockBegin
  2
*PAPER_SPACE
 70
     0
 10
0.0
 20
0.0
 30
0.0
  3
*PAPER_SPACE
  1

  0
ENDBLK
  5
552
100
AcDbEntity
 67
     1
  8
0
100
AcDbBlockEnd
  0
BLOCK
  5
38
100
AcDbEntity
  8
0
100
AcDbBlockBegin
  2
*D0
 70
     1
 10
0.0
 20
0.0
 30
0.0
  3
*D0
  1
AVE_GLOBAL
  0
LINE
  5
2F
100
AcDbEntity
  8
0
  6
BYBLOCK
 62
     0
100
AcDbLine
 10
114.717236
 20
86.956465
 30
0.0
 11
114.717236
 21
61.125648
 31
0.0
  0
LINE
  5
30
100
AcDbEntity
  8
0
  6
BYBLOCK
 62
     0
100
AcDbLine
 10
151.317236
 20
83.856465
 30
0.0
 11
151.317236
 21
61.125648
 31
0.0
  0
LINE
  5
31
100
AcDbEntity
  8
0
  6
BYBLOCK
 62
     0
100
AcDbLine
 10
117.717236
 20
61.305648
 30
0.0
 11
148.317236
 21
61.305648
 31
0.0
  0
SOLID
  5
32
100
AcDbEntity
  8
0
  6
BYBLOCK
 62
     0
100
AcDbTrace
 10
117.717236
 20
61.805648
 30
0.0
 11
117.717236
 21
60.805648
 31
0.0
 12
114.717236
 22
61.305648
 32
0.0
 13
114.717236
 23
61.305648
 33
0.0
  0
SOLID
  5
33
100
AcDbEntity
  8
0
  6
BYBLOCK
 62
     0
100
AcDbTrace
 10
148.317236
 20
61.805648
 30
0.0
 11
148.317236
 21
60.805648
 31
0.0
 12
151.317236
 22
61.305648
 32
0.0
 13
151.317236
 23
61.305648
 33
0.0
  0
TEXT
  5
34
100
AcDbEntity
  8
0
  6
BYBLOCK
 62
     0
100
AcDbText
 10
128.850569
 20
62.305648
 30
0.0
 40
2.5
  1
36.6
  7
ROMANS
100
AcDbText
  0
POINT
  5
35
100
AcDbEntity
  8
DEFPOINTS
  6
BYBLOCK
 62
     0
100
AcDbPoint
 10
114.717236
 20
87.018965
 30
0.0
  0
POINT
  5
36
100
AcDbEntity
  8
DEFPOINTS
  6
BYBLOCK
 62
     0
100
AcDbPoint
 10
151.317236
 20
83.918965
 30
0.0
  0
POINT
  5
37
100
AcDbEntity
  8
DEFPOINTS
  6
BYBLOCK
 62
     0
100
AcDbPoint
 10
151.317236
 20
61.305648
 30
0.0
  0
ENDBLK
  5
39
100
AcDbEntity
  8
0
100
AcDbBlockEnd
  0
BLOCK
  5
2B
100
AcDbEntity
  8
0
100
AcDbBlockBegin
  2
*D1
 70
     1
 10
0.0
 20
0.0
 30
0.0
  3
*D1
  1
AVE_GLOBAL
  0
LINE
  5
21
100
AcDbEntity
  8
0
  6
BYBLOCK
 62
     0
100
AcDbLine
 10
147.25852
 20
82.418965
 30
0.0
 11
163.066676
 21
82.418965
 31
0.0
  0
LINE
  5
22
100
AcDbEntity
  8
0
  6
BYBLOCK
 62
     0
100
AcDbLine
 10
146.379736
 20
114.418965
 30
0.0
 11
163.066676
 21
114.418965
 31
0.0
  0
LINE
  5
23
100
AcDbEntity
  8
0
  6
BYBLOCK
 62
     0
100
AcDbLine
 10
162.886676
 20
85.418965
 30
0.0
 11
162.886676
 21
111.418965
 31
0.0
  0
SOLID
  5
24
100
AcDbEntity
  8
0
  6
BYBLOCK
 62
     0
100
AcDbTrace
 10
162.386676
 20
85.418965
 30
0.0
 11
163.386676
 21
85.418965
 31
0.0
 12
162.886676
 22
82.418965
 32
0.0
 13
162.886676
 23
82.418965
 33
0.0
  0
SOLID
  5
25
100
AcDbEntity
  8
0
  6
BYBLOCK
 62
     0
100
AcDbTrace
 10
162.386676
 20
111.418965
 30
0.0
 11
163.386676
 21
111.418965
 31
0.0
 12
162.886676
 22
114.418965
 32
0.0
 13
162.886676
 23
114.418965
 33
0.0
  0
TEXT
  5
26
100
AcDbEntity
  8
0
  6
BYBLOCK
 62
     0
100
AcDbText
 10
161.886676
 20
96.038013
 30
0.0
 40
2.5
  1
32
 50
90.0
  7
ROMANS
100
AcDbText
  0
POINT
  5
27
100
AcDbEntity
  8
DEFPOINTS
  6
BYBLOCK
 62
     0
100
AcDbPoint
 10
147.19602
 20
82.418965
 30
0.0
  0
POINT
  5
29
100
AcDbEntity
  8
DEFPOINTS
  6
BYBLOCK
 62
     0
100
AcDbPoint
 10
146.317236
 20
114.418965
 30
0.0
  0
POINT
  5
2A
100
AcDbEntity
  8
DEFPOINTS
  6
BYBLOCK
 62
     0
100
AcDbPoint
 10
162.886676
 20
114.418965
 30
0.0
  0
ENDBLK
  5
2C
100
AcDbEntity
  8
0
100
AcDbBlockEnd
  0
ENDSEC
  0
SECTION
  2
ENTITIES
  0
DIMENSION
  5
1F
100
AcDbEntity
  8
COTATION1
100
AcDbDimension
  2
*D1
 10
162.886676
 20
114.418965
 30
0.0
 11
160.636676
 21
98.418965
 31
0.0
  3
SC_STAND
100
AcDbAlignedDimension
 13
147.19602
 23
82.418965
 33
0.0
 14
146.317236
 24
114.418965
 34
0.0
 50
90.0
100
AcDbRotatedDimension
  0
DIMENSION
  5
2D
100
AcDbEntity
  8
COTATION1
100
AcDbDimension
  2
*D0
 10
151.317236
 20
61.305648
 30
0.0
 11
133.017236
 21
63.555648
 31
0.0
  3
SC_STAND
100
AcDbAlignedDimension
 13
114.717236
 23
87.018965
 33
0.0
 14
151.317236
 24
83.918965
 34
0.0
100
AcDbRotatedDimension
  0
LINE
  5
3A
100
AcDbEntity
  8
ALPHA
100
AcDbLine
 10
118.60842
 20
83.827208
 30
0.0
 11
124.404753
 21
85.377216
 31
0.0
  0
LINE
  5
3C
100
AcDbEntity
  8
ALPHA
100
AcDbLine
 10
120.158427
 20
78.030875
 30
0.0
 11
125.95476
 21
79.580883
 31
0.0
  0
LINE
  5
3D
100
AcDbEntity
  8
ALPHA
100
AcDbLine
 10
117.497581
 20
87.981247
 30
0.0
 11
123.293914
 21
89.531254
 31
0.0
  0
LINE
  5
3E
100
AcDbEntity
  8
ALPHA
100
AcDbLine
 10
121.954699
 20
80.47798
 30
0.0
 11
122.80007
 21
80.403592
 31
0.0
  0
LINE
  5
3F
100
AcDbEntity
  8
ALPHA
100
AcDbLine
 10
121.313607
 20
80.306544
 30
0.0
 11
121.954699
 21
80.47798
 31
0.0
  0
ARC
  5
40
100
AcDbEntity
  8
ALPHA
100
AcDbCircle
 10
122.28159
 20
81.704045
 30
0.0
 40
1.7
100
AcDbArc
 50
134.65105
 51
235.29148
  0
LINE
  5
41
100
AcDbEntity
  8
ALPHA
100
AcDbLine
 10
122.184798
 20
82.816813
 30
0.0
 11
121.086852
 21
82.913426
 31
0.0
  0
LINE
  5
42
100
AcDbEntity
  8
ALPHA
100
AcDbLine
 10
122.834051
 20
82.990431
 30
0.0
 11
122.184798
 21
82.816813
 31
0.0
  0
ARC
  5
43
100
AcDbEntity
  8
ALPHA
100
AcDbCircle
 10
122.28159
 20
81.704045
 30
0.0
 40
1.4
100
AcDbArc
 50
291.736766
 51
66.758055
  0
LINE
  5
44
100
AcDbEntity
  8
ALPHA
100
AcDbLine
 10
109.688069
 20
119.120796
 30
0.0
 11
111.117198
 21
119.502962
 31
0.0
  0
LINE
  5
45
100
AcDbEntity
  8
ALPHA
100
AcDbLine
 10
116.051703
 20
115.914134
 30
0.0
 11
112.01881
 21
119.302539
 31
0.0
  0
LINE
  5
46
100
AcDbEntity
  8
ALPHA
100
AcDbLine
 10
126.936432
 20
75.909872
 30
0.0
 11
127.226248
 21
75.987372
 31
0.0
  0
LINE
  5
47
100
AcDbEntity
  8
ALPHA
100
AcDbLine
 10
118.479253
 20
84.310236
 30
0.0
 11
124.275586
 21
85.860243
 31
0.0
  0
LINE
  5
48
100
AcDbEntity
  8
ALPHA
100
AcDbLine
 10
121.341608
 20
75.15469
 30
0.0
 11
120.62235
 21
77.844392
 31
0.0
  0
LINE
  5
49
100
AcDbEntity
  8
ALPHA
100
AcDbLine
 10
120.235928
 20
77.741058
 30
0.0
 11
120.158427
 21
78.030875
 31
0.0
  0
LINE
  5
4A
100
AcDbEntity
  8
ALPHA
100
AcDbLine
 10
126.290595
 20
78.325011
 30
0.0
 11
125.95476
 21
79.580883
 31
0.0
  0
LINE
  5
4B
100
AcDbEntity
  8
ALPHA
100
AcDbLine
 10
126.297437
 20
78.299424
 30
0.0
 11
126.290595
 21
78.325011
 31
0.0
  0
LINE
  5
4C
100
AcDbEntity
  8
ALPHA
100
AcDbLine
 10
126.926095
 20
75.948527
 30
0.0
 11
126.297437
 21
78.299424
 31
0.0
  0
LINE
  5
4D
100
AcDbEntity
  8
ALPHA
100
AcDbLine
 10
124.81111
 20
75.341536
 30
0.0
 11
126.936432
 21
75.909872
 31
0.0
  0
ARC
  5
4E
100
AcDbEntity
  8
ALPHA
100
AcDbCircle
 10
109.817236
 20
118.637768
 30
0.0
 40
0.5
100
AcDbArc
 50
104.971265
 51
194.971265
  0
ARC
  5
4F
100
AcDbEntity
  8
ALPHA
100
AcDbCircle
 10
115.408424
 20
115.148502
 30
0.0
 40
1.0
100
AcDbArc
 50
14.971265
 51
49.963285
  0
ARC
  5
50
100
AcDbEntity
  8
ALPHA
100
AcDbCircle
 10
111.375532
 20
118.536906
 30
0.0
 40
1.0
100
AcDbArc
 50
49.963285
 51
104.971265
  0
LINE
  5
51
100
AcDbEntity
  8
ALPHA
100
AcDbLine
 10
126.926095
 20
75.948527
 30
0.0
 11
126.936432
 21
75.909872
 31
0.0
  0
LINE
  5
52
100
AcDbEntity
  8
ALPHA
100
AcDbLine
 10
126.580412
 20
78.402511
 30
0.0
 11
127.226248
 21
75.987372
 31
0.0
  0
LINE
  5
53
100
AcDbEntity
  8
ALPHA
100
AcDbLine
 10
126.290595
 20
78.325011
 30
0.0
 11
126.580412
 21
78.402511
 31
0.0
  0
LINE
  5
54
100
AcDbEntity
  8
ALPHA
100
AcDbLine
 10
118.60842
 20
83.827208
 30
0.0
 11
118.479253
 21
84.310236
 31
0.0
  0
LINE
  5
55
100
AcDbEntity
  8
ALPHA
100
AcDbLine
 10
124.275586
 20
85.860243
 30
0.0
 11
124.404753
 21
85.377216
 31
0.0
  0
LINE
  5
56
100
AcDbEntity
  8
ALPHA
100
AcDbLine
 10
120.917236
 20
98.418965
 30
0.0
 11
123.293914
 21
89.531254
 31
0.0
  0
LINE
  5
57
100
AcDbEntity
  8
ALPHA
100
AcDbLine
 10
116.37448
 20
115.406836
 30
0.0
 11
120.917236
 21
98.418965
 31
0.0
  0
LINE
  5
58
100
AcDbEntity
  8
ALPHA
100
AcDbLine
 10
124.404753
 20
85.377216
 30
0.0
 11
125.95476
 21
79.580883
 31
0.0
  0
LINE
  5
59
100
AcDbEntity
  8
ALPHA
100
AcDbLine
 10
118.60842
 20
83.827208
 30
0.0
 11
120.158427
 21
78.030875
 31
0.0
  0
LINE
  5
5A
100
AcDbEntity
  8
ALPHA
100
AcDbLine
 10
120.62235
 20
77.844392
 30
0.0
 11
120.235928
 21
77.741058
 31
0.0
  0
LINE
  5
5B
100
AcDbEntity
  8
ALPHA
100
AcDbLine
 10
109.334208
 20
118.508601
 30
0.0
 11
117.497581
 21
87.981247
 31
0.0
  0
LINE
  5
5C
100
AcDbEntity
  8
ALPHA
100
AcDbLine
 10
124.275586
 20
85.860243
 30
0.0
 11
118.479253
 21
84.310236
 31
0.0
  0
LINE
  5
5D
100
AcDbEntity
  8
ALPHA
100
AcDbLine
 10
123.629749
 20
88.275382
 30
0.0
 11
123.293914
 21
89.531254
 31
0.0
  0
LINE
  5
5E
100
AcDbEntity
  8
ALPHA
100
AcDbLine
 10
124.275586
 20
85.860243
 30
0.0
 11
123.629749
 21
88.275382
 31
0.0
  0
LINE
  5
5F
100
AcDbEntity
  8
ALPHA
100
AcDbLine
 10
117.833416
 20
86.725375
 30
0.0
 11
117.497581
 21
87.981247
 31
0.0
  0
LINE
  5
60
100
AcDbEntity
  8
ALPHA
100
AcDbLine
 10
118.479253
 20
84.310236
 30
0.0
 11
117.833416
 21
86.725375
 31
0.0
  0
LINE
  5
61
100
AcDbEntity
  8
ALPHA
100
AcDbLine
 10
126.936432
 20
75.909872
 30
0.0
 11
124.81111
 21
75.341536
 31
0.0
  0
LINE
  5
62
100
AcDbEntity
  8
ALPHA
100
AcDbLine
 10
124.81111
 20
75.341536
 30
0.0
 11
121.341608
 21
75.15469
 31
0.0
  0
LWPOLYLINE
  5
63
100
AcDbEntity
  8
ALPHA
100
AcDbPolyline
 90
       21
 70
     0
 43
0.0
 10
133.617236
 20
100.318965
 10
133.62369
 20
100.325419
 10
133.630225
 20
100.331954
 10
133.636804
 20
100.338533
 10
133.643391
 20
100.34512
 10
133.64995
 20
100.351679
 10
133.656448
 20
100.358177
 10
133.662851
 20
100.36458
 10
133.669126
 20
100.370856
 10
133.675238
 20
100.376967
 10
133.68115
 20
100.382879
 10
133.686823
 20
100.388552
 10
133.692213
 20
100.393942
 10
133.697271
 20
100.399
 10
133.701941
 20
100.40367
 10
133.706158
 20
100.407887
 10
133.709841
 20
100.411571
 10
133.712901
 20
100.41463
 10
133.715231
 20
100.41696
 10
133.716716
 20
100.418445
 10
133.717236
 20
100.418965
  0
LINE
  5
7A
100
AcDbEntity
  8
ALPHA
100
AcDbLine
 10
133.617236
 20
100.318965
 30
0.0
 11
127.717236
 21
100.318965
 31
0.0
  0
LINE
  5
7B
100
AcDbEntity
  8
ALPHA
100
AcDbLine
 10
127.717236
 20
101.217625
 30
0.0
 11
126.322919
 21
101.217625
 31
0.0
  0
LINE
  5
7C
100
AcDbEntity
  8
ALPHA
100
AcDbLine
 10
127.717236
 20
95.620305
 30
0.0
 11
126.217236
 21
95.620305
 31
0.0
  0
LWPOLYLINE
  5
7D
100
AcDbEntity
  8
ALPHA
100
AcDbPolyline
 90
       21
 70
     0
 43
0.0
 10
133.617236
 20
96.518965
 10
133.62369
 20
96.512511
 10
133.630225
 20
96.505976
 10
133.636804
 20
96.499397
 10
133.643391
 20
96.49281
 10
133.64995
 20
96.486251
 10
133.656448
 20
96.479753
 10
133.662851
 20
96.47335
 10
133.669126
 20
96.467075
 10
133.675238
 20
96.460963
 10
133.68115
 20
96.455051
 10
133.686823
 20
96.449378
 10
133.692213
 20
96.443988
 10
133.697271
 20
96.43893
 10
133.701941
 20
96.43426
 10
133.706158
 20
96.430043
 10
133.709841
 20
96.42636
 10
133.712901
 20
96.4233
 10
133.715231
 20
96.42097
 10
133.716716
 20
96.419485
 10
133.717236
 20
96.418965
  0
LINE
  5
94
100
AcDbEntity
  8
ALPHA
100
AcDbLine
 10
127.717236
 20
96.518965
 30
0.0
 11
133.617236
 21
96.518965
 31
0.0
  0
LINE
  5
95
100
AcDbEntity
  8
ALPHA
100
AcDbLine
 10
133.617236
 20
96.518965
 30
0.0
 11
133.617236
 21
100.318965
 31
0.0
  0
LINE
  5
96
100
AcDbEntity
  8
ALPHA
100
AcDbLine
 10
130.934849
 20
86.618965
 30
0.0
 11
130.717236
 21
86.618965
 31
0.0
  0
LINE
  5
97
100
AcDbEntity
  8
ALPHA
100
AcDbLine
 10
127.717236
 20
101.217625
 30
0.0
 11
127.717236
 21
102.457839
 31
0.0
  0
LINE
  5
98
100
AcDbEntity
  8
ALPHA
100
AcDbLine
 10
127.717236
 20
101.217625
 30
0.0
 11
127.717236
 21
95.620305
 31
0.0
  0
LINE
  5
99
100
AcDbEntity
  8
ALPHA
100
AcDbLine
 10
127.717236
 20
94.380091
 30
0.0
 11
127.717236
 21
95.620305
 31
0.0
  0
LINE
  5
9A
100
AcDbEntity
  8
ALPHA
100
AcDbLine
 10
128.717236
 20
111.094387
 30
0.0
 11
128.717236
 21
112.72096
 31
0.0
  0
LINE
  5
9B
100
AcDbEntity
  8
ALPHA
100
AcDbLine
 10
128.717236
 20
112.72096
 30
0.0
 11
136.920303
 21
114.918965
 31
0.0
  0
LINE
  5
9C
100
AcDbEntity
  8
ALPHA
100
AcDbLine
 10
136.920303
 20
114.918965
 30
0.0
 11
140.417236
 21
114.918965
 31
0.0
  0
LINE
  5
9D
100
AcDbEntity
  8
ALPHA
100
AcDbLine
 10
140.717236
 20
114.618965
 30
0.0
 11
140.717236
 21
114.171306
 31
0.0
  0
ARC
  5
9E
100
AcDbEntity
  8
ALPHA
100
AcDbCircle
 10
134.677101
 20
112.054493
 30
0.0
 40
0.3
100
AcDbArc
 50
292.0
 51
102.0
  0
LINE
  5
9F
100
AcDbEntity
  8
ALPHA
100
AcDbLine
 10
134.614727
 20
112.347938
 30
0.0
 11
128.717236
 21
111.094387
 31
0.0
  0
LINE
  5
A0
100
AcDbEntity
  8
ALPHA
100
AcDbLine
 10
127.717236
 20
112.453011
 30
0.0
 11
128.717236
 21
112.72096
 31
0.0
  0
LINE
  5
A1
100
AcDbEntity
  8
ALPHA
100
AcDbLine
 10
128.717236
 20
111.094387
 30
0.0
 11
127.724788
 21
110.883436
 31
0.0
  0
ARC
  5
A2
100
AcDbEntity
  8
ALPHA
100
AcDbCircle
 10
140.417236
 20
114.618965
 30
0.0
 40
0.3
100
AcDbArc
 50
0.0
 51
90.0
  0
LINE
  5
A3
100
AcDbEntity
  8
ALPHA
100
AcDbLine
 10
141.330214
 20
114.418965
 30
0.0
 11
146.317236
 21
114.418965
 31
0.0
  0
ARC
  5
A4
100
AcDbEntity
  8
ALPHA
100
AcDbCircle
 10
146.017236
 20
112.306994
 30
0.0
 40
0.3
100
AcDbArc
 50
260.0
 51
0.0
  0
ARC
  5
A5
100
AcDbEntity
  8
ALPHA
100
AcDbCircle
 10
146.017236
 20
84.530936
 30
0.0
 40
0.3
100
AcDbArc
 50
0.0
 51
100.0
  0
LINE
  5
A6
100
AcDbEntity
  8
ALPHA
100
AcDbLine
 10
141.330214
 20
114.418965
 30
0.0
 11
138.590243
 21
113.311945
 31
0.0
  0
ARC
  5
A7
100
AcDbEntity
  8
ALPHA
100
AcDbCircle
 10
131.417236
 20
90.718965
 30
0.0
 40
0.3
100
AcDbArc
 50
0.0
 51
90.0
  0
LINE
  5
A8
100
AcDbEntity
  8
ALPHA
100
AcDbLine
 10
131.717236
 20
86.30286
 30
0.0
 11
130.717236
 21
86.706886
 31
0.0
  0
LINE
  5
A9
100
AcDbEntity
  8
ALPHA
100
AcDbLine
 10
138.590243
 20
83.525985
 30
0.0
 11
141.330214
 21
82.418965
 31
0.0
  0
LINE
  5
AA
100
AcDbEntity
  8
ALPHA
100
AcDbLine
 10
141.330214
 20
82.418965
 30
0.0
 11
146.317236
 21
82.418965
 31
0.0
  0
LINE
  5
AB
100
AcDbEntity
  8
ALPHA
100
AcDbLine
 10
127.717236
 20
96.418965
 30
0.0
 11
133.717236
 21
96.418965
 31
0.0
  0
LINE
  5
AC
100
AcDbEntity
  8
ALPHA
100
AcDbLine
 10
133.717236
 20
96.418965
 30
0.0
 11
133.717236
 21
100.418965
 31
0.0
  0
LINE
  5
AD
100
AcDbEntity
  8
ALPHA
100
AcDbLine
 10
127.717236
 20
93.518965
 30
0.0
 11
127.717236
 21
94.380091
 31
0.0
  0
LINE
  5
AE
100
AcDbEntity
  8
ALPHA
100
AcDbLine
 10
130.671581
 20
91.018965
 30
0.0
 11
131.417236
 21
91.018965
 31
0.0
  0
LINE
  5
AF
100
AcDbEntity
  8
ALPHA
100
AcDbLine
 10
131.717236
 20
86.30286
 30
0.0
 11
131.717236
 21
90.718965
 31
0.0
  0
LINE
  5
B0
100
AcDbEntity
  8
ALPHA
100
AcDbLine
 10
138.590243
 20
83.525985
 30
0.0
 11
131.717236
 21
86.30286
 31
0.0
  0
LINE
  5
B1
100
AcDbEntity
  8
ALPHA
100
AcDbLine
 10
145.965142
 20
84.826378
 30
0.0
 11
138.590243
 21
83.525985
 31
0.0
  0
LINE
  5
B2
100
AcDbEntity
  8
ALPHA
100
AcDbLine
 10
146.317236
 20
82.418965
 30
0.0
 11
146.317236
 21
84.530936
 31
0.0
  0
LINE
  5
B3
100
AcDbEntity
  8
ALPHA
100
AcDbLine
 10
147.19602
 20
82.418965
 30
0.0
 11
146.317236
 21
82.418965
 31
0.0
  0
LINE
  5
B4
100
AcDbEntity
  8
ALPHA
100
AcDbLine
 10
151.317236
 20
83.918965
 30
0.0
 11
147.19602
 21
82.418965
 31
0.0
  0
LINE
  5
B5
100
AcDbEntity
  8
ALPHA
100
AcDbLine
 10
151.317236
 20
112.918965
 30
0.0
 11
151.317236
 21
83.918965
 31
0.0
  0
LINE
  5
B6
100
AcDbEntity
  8
ALPHA
100
AcDbLine
 10
147.19602
 20
114.418965
 30
0.0
 11
151.317236
 21
112.918965
 31
0.0
  0
LINE
  5
B7
100
AcDbEntity
  8
ALPHA
100
AcDbLine
 10
146.317236
 20
114.418965
 30
0.0
 11
147.19602
 21
114.418965
 31
0.0
  0
LINE
  5
B8
100
AcDbEntity
  8
ALPHA
100
AcDbLine
 10
146.317236
 20
114.418965
 30
0.0
 11
146.317236
 21
112.306994
 31
0.0
  0
LINE
  5
B9
100
AcDbEntity
  8
ALPHA
100
AcDbLine
 10
138.590243
 20
113.311945
 30
0.0
 11
145.965142
 21
112.011552
 31
0.0
  0
LINE
  5
BA
100
AcDbEntity
  8
ALPHA
100
AcDbLine
 10
127.717236
 20
108.918965
 30
0.0
 11
138.590243
 21
113.311945
 31
0.0
  0
LINE
  5
BB
100
AcDbEntity
  8
ALPHA
100
AcDbLine
 10
127.717236
 20
102.457839
 30
0.0
 11
127.717236
 21
102.605457
 31
0.0
  0
LINE
  5
BC
100
AcDbEntity
  8
ALPHA
100
AcDbLine
 10
133.717236
 20
100.418965
 30
0.0
 11
127.717236
 21
100.418965
 31
0.0
  0
LINE
  5
BD
100
AcDbEntity
  8
ALPHA
100
AcDbLine
 10
136.317236
 20
85.818965
 30
0.0
 11
146.317236
 21
85.818965
 31
0.0
  0
LINE
  5
BE
100
AcDbEntity
  8
ALPHA
100
AcDbLine
 10
136.317236
 20
85.818965
 30
0.0
 11
136.317236
 21
111.018965
 31
0.0
  0
LINE
  5
BF
100
AcDbEntity
  8
ALPHA
100
AcDbLine
 10
146.317236
 20
111.018965
 30
0.0
 11
136.317236
 21
111.018965
 31
0.0
  0
LINE
  5
C0
100
AcDbEntity
  8
ALPHA
100
AcDbLine
 10
146.317236
 20
85.818965
 30
0.0
 11
146.317236
 21
111.018965
 31
0.0
  0
LINE
  5
C1
100
AcDbEntity
  8
ALPHA
100
AcDbLine
 10
122.8426
 20
91.218965
 30
0.0
 11
123.326322
 21
91.218965
 31
0.0
  0
LINE
  5
C2
100
AcDbEntity
  8
ALPHA
100
AcDbLine
 10
116.090975
 20
91.218965
 30
0.0
 11
116.631777
 21
91.218965
 31
0.0
  0
LINE
  5
C3
100
AcDbEntity
  8
ALPHA
100
AcDbLine
 10
126.717236
 20
115.05294
 30
0.0
 11
123.217236
 21
115.05294
 31
0.0
  0
LINE
  5
C4
100
AcDbEntity
  8
ALPHA
100
AcDbLine
 10
116.583306
 20
114.62592
 30
0.0
 11
118.917236
 21
114.62592
 31
0.0
  0
LINE
  5
C5
100
AcDbEntity
  8
ALPHA
100
AcDbLine
 10
119.217236
 20
114.418965
 30
0.0
 11
120.917236
 21
114.418965
 31
0.0
  0
LINE
  5
C6
100
AcDbEntity
  8
ALPHA
100
AcDbLine
 10
117.98675
 20
109.37767
 30
0.0
 11
118.917236
 21
109.37767
 31
0.0
  0
LINE
  5
C7
100
AcDbEntity
  8
ALPHA
100
AcDbLine
 10
116.090975
 20
93.241324
 30
0.0
 11
116.090975
 21
91.218965
 31
0.0
  0
LWPOLYLINE
  5
C8
100
AcDbEntity
  8
ALPHA
100
AcDbPolyline
 90
       17
 70
     0
 43
0.0
 10
114.717236
 20
90.477342
 10
114.921417
 20
90.511938
 10
115.102877
 20
90.551072
 10
115.26388
 20
90.593636
 10
115.406335
 20
90.638787
 10
115.53188
 20
90.68588
 10
115.641915
 20
90.734406
 10
115.737633
 20
90.783959
 10
115.820043
 20
90.834187
 10
115.890013
 20
90.884779
 10
115.948294
 20
90.935428
 10
115.995366
 20
90.985583
 10
116.031927
 20
91.034778
 10
116.058796
 20
91.082576
 10
116.077084
 20
91.129167
 10
116.087615
 20
91.174752
 10
116.090975
 20
91.218965
  0
LWPOLYLINE
  5
DB
100
AcDbEntity
  8
ALPHA
100
AcDbPolyline
 90
        5
 70
     0
 43
0.0
 10
114.717236
 20
87.124787
 10
115.5923
 20
87.149996
 10
116.3919
 20
87.174975
 10
117.122144
 20
87.199822
 10
117.700783
 20
87.221363
  0
LINE
  5
E2
100
AcDbEntity
  8
ALPHA
100
AcDbLine
 10
130.662735
 20
82.924566
 30
0.0
 11
130.83594
 21
82.824566
 31
0.0
  0
LINE
  5
E3
100
AcDbEntity
  8
ALPHA
100
AcDbLine
 10
117.797702
 20
110.084624
 30
0.0
 11
118.917236
 21
110.084624
 31
0.0
  0
LWPOLYLINE
  5
E4
100
AcDbEntity
  8
ALPHA
100
AcDbPolyline
 90
       15
 70
     0
 43
0.0
 10
119.217236
 20
114.418965
 10
119.217236
 20
114.23429
 10
119.217236
 20
114.051193
 10
119.217236
 20
113.871238
 10
119.217236
 20
113.695963
 10
119.217236
 20
113.526866
 10
119.217236
 20
113.365392
 10
119.217236
 20
113.212919
 10
119.217236
 20
113.070752
 10
119.217236
 20
112.940104
 10
119.217236
 20
112.822093
 10
119.217236
 20
112.717726
 10
119.217236
 20
112.627895
 10
119.217236
 20
112.553368
 10
119.217236
 20
112.496077
  0
LINE
  5
F5
100
AcDbEntity
  8
ALPHA
100
AcDbLine
 10
129.15839
 20
83.218965
 30
0.0
 11
125.300435
 21
83.218965
 31
0.0
  0
LINE
  5
F6
100
AcDbEntity
  8
ALPHA
100
AcDbLine
 10
130.609543
 20
82.832436
 30
0.0
 11
130.782748
 21
82.732436
 31
0.0
  0
LINE
  5
F7
100
AcDbEntity
  8
ALPHA
100
AcDbLine
 10
119.217236
 20
116.918965
 30
0.0
 11
119.217236
 21
114.418965
 31
0.0
  0
LWPOLYLINE
  5
F8
100
AcDbEntity
  8
ALPHA
100
AcDbPolyline
 90
       11
 70
     0
 43
0.0
 10
119.217236
 20
114.418965
 10
119.170306
 20
114.418965
 10
119.124531
 20
114.418965
 10
119.081039
 20
114.418965
 10
119.0409
 20
114.418965
 10
119.005104
 20
114.418965
 10
118.974531
 20
114.418965
 10
118.949934
 20
114.418965
 10
118.931919
 20
114.418965
 10
118.920929
 20
114.418965
 10
118.917236
 20
114.418965
  0
LINE
  5
105
100
AcDbEntity
  8
ALPHA
100
AcDbLine
 10
130.50316
 20
82.648175
 30
0.0
 11
130.676365
 21
82.548175
 31
0.0
  0
LINE
  5
106
100
AcDbEntity
  8
ALPHA
100
AcDbLine
 10
128.217236
 20
80.378965
 30
0.0
 11
126.953336
 21
80.378965
 31
0.0
  0
LINE
  5
107
100
AcDbEntity
  8
ALPHA
100
AcDbLine
 10
130.717236
 20
85.918965
 30
0.0
 11
129.15839
 21
83.218965
 31
0.0
  0
LWPOLYLINE
  5
108
100
AcDbEntity
  8
ALPHA
100
AcDbPolyline
 90
       11
 70
     0
 43
0.0
 10
129.15839
 20
83.218965
 10
129.186063
 20
83.102574
 10
129.212122
 20
82.988929
 10
129.235169
 20
82.880146
 10
129.254067
 20
82.777528
 10
129.267646
 20
82.683256
 10
129.27518
 20
82.598016
 10
129.276093
 20
82.522323
 10
129.269999
 20
82.456464
 10
129.256566
 20
82.399958
 10
129.235741
 20
82.35294
  0
LINE
  5
115
100
AcDbEntity
  8
ALPHA
100
AcDbLine
 10
130.343586
 20
82.371784
 30
0.0
 11
130.516791
 21
82.271784
 31
0.0
  0
LINE
  5
116
100
AcDbEntity
  8
ALPHA
100
AcDbLine
 10
130.237203
 20
82.187523
 30
0.0
 11
130.410408
 21
82.087523
 31
0.0
  0
LINE
  5
117
100
AcDbEntity
  8
ALPHA
100
AcDbLine
 10
130.184011
 20
82.095393
 30
0.0
 11
130.357216
 21
81.995393
 31
0.0
  0
LINE
  5
118
100
AcDbEntity
  8
ALPHA
100
AcDbLine
 10
129.997841
 20
81.772936
 30
0.0
 11
130.171046
 21
81.672936
 31
0.0
  0
LINE
  5
119
100
AcDbEntity
  8
ALPHA
100
AcDbLine
 10
129.944649
 20
81.680806
 30
0.0
 11
130.117855
 21
81.580806
 31
0.0
  0
LINE
  5
11A
100
AcDbEntity
  8
ALPHA
100
AcDbLine
 10
129.838267
 20
81.496545
 30
0.0
 11
130.011472
 21
81.396545
 31
0.0
  0
LINE
  5
11B
100
AcDbEntity
  8
ALPHA
100
AcDbLine
 10
130.47222
 20
84.494585
 30
0.0
 11
130.645425
 21
84.394585
 31
0.0
  0
LINE
  5
11C
100
AcDbEntity
  8
ALPHA
100
AcDbLine
 10
125.117236
 20
84.750719
 30
0.0
 11
124.572285
 21
84.750719
 31
0.0
  0
LINE
  5
11D
100
AcDbEntity
  8
ALPHA
100
AcDbLine
 10
124.506542
 20
87.69166
 30
0.0
 11
123.785843
 21
87.69166
 31
0.0
  0
LINE
  5
11E
100
AcDbEntity
  8
ALPHA
100
AcDbLine
 10
129.652096
 20
81.174089
 30
0.0
 11
129.825301
 21
81.074089
 31
0.0
  0
LINE
  5
11F
100
AcDbEntity
  8
ALPHA
100
AcDbLine
 10
129.572309
 20
81.035893
 30
0.0
 11
129.745514
 21
80.935893
 31
0.0
  0
LINE
  5
120
100
AcDbEntity
  8
ALPHA
100
AcDbLine
 10
129.519118
 20
80.943763
 30
0.0
 11
129.692323
 21
80.843763
 31
0.0
  0
LINE
  5
121
100
AcDbEntity
  8
ALPHA
100
AcDbLine
 10
129.465926
 20
80.851633
 30
0.0
 11
129.639131
 21
80.751633
 31
0.0
  0
LINE
  5
122
100
AcDbEntity
  8
ALPHA
100
AcDbLine
 10
123.217236
 20
115.418965
 30
0.0
 11
120.917236
 21
115.418965
 31
0.0
  0
ARC
  5
123
100
AcDbEntity
  8
ALPHA
100
AcDbCircle
 10
127.717236
 20
100.668965
 30
0.0
 40
1.5
100
AcDbArc
 50
104.477512
 51
180.0
  0
LINE
  5
124
100
AcDbEntity
  8
ALPHA
100
AcDbLine
 10
114.717236
 20
90.418965
 30
0.0
 11
114.717236
 21
90.477342
 31
0.0
  0
LINE
  5
125
100
AcDbEntity
  8
ALPHA
100
AcDbLine
 10
123.05653
 20
90.418965
 30
0.0
 11
123.593999
 21
90.418965
 31
0.0
  0
LINE
  5
126
100
AcDbEntity
  8
ALPHA
100
AcDbLine
 10
114.717236
 20
90.418965
 30
0.0
 11
116.845707
 21
90.418965
 31
0.0
  0
LINE
  5
127
100
AcDbEntity
  8
ALPHA
100
AcDbLine
 10
126.717236
 20
116.918965
 30
0.0
 11
126.717236
 21
115.05294
 31
0.0
  0
LINE
  5
128
100
AcDbEntity
  8
ALPHA
100
AcDbLine
 10
126.717236
 20
116.918965
 30
0.0
 11
123.217236
 21
116.918965
 31
0.0
  0
LINE
  5
129
100
AcDbEntity
  8
ALPHA
100
AcDbLine
 10
126.717236
 20
108.918965
 30
0.0
 11
126.717236
 21
108.618965
 31
0.0
  0
LINE
  5
12A
100
AcDbEntity
  8
ALPHA
100
AcDbLine
 10
126.717236
 20
109.368965
 30
0.0
 11
126.717236
 21
108.918965
 31
0.0
  0
LINE
  5
12B
100
AcDbEntity
  8
ALPHA
100
AcDbLine
 10
126.717236
 20
115.05294
 30
0.0
 11
126.717236
 21
110.918965
 31
0.0
  0
LINE
  5
12C
100
AcDbEntity
  8
ALPHA
100
AcDbLine
 10
127.717236
 20
108.618965
 30
0.0
 11
127.717236
 21
102.605457
 31
0.0
  0
LINE
  5
12D
100
AcDbEntity
  8
ALPHA
100
AcDbLine
 10
130.717236
 20
85.918965
 30
0.0
 11
130.717236
 21
90.725561
 31
0.0
  0
LINE
  5
12E
100
AcDbEntity
  8
ALPHA
100
AcDbLine
 10
114.717236
 20
98.378491
 30
0.0
 11
114.717236
 21
90.477342
 31
0.0
  0
LWPOLYLINE
  5
12F
100
AcDbEntity
  8
ALPHA
100
AcDbPolyline
 90
        5
 70
     0
 43
0.0
 10
114.717236
 20
88.073569
 10
115.591997
 20
88.029529
 10
116.391541
 20
87.987728
 10
117.12184
 20
87.947852
 10
117.494438
 20
87.926471
  0
LINE
  5
136
100
AcDbEntity
  8
ALPHA
100
AcDbLine
 10
125.300435
 20
85.318965
 30
0.0
 11
125.300435
 21
83.218965
 31
0.0
  0
LINE
  5
137
100
AcDbEntity
  8
ALPHA
100
AcDbLine
 10
129.235741
 20
82.35294
 30
0.0
 11
129.15839
 21
82.218965
 31
0.0
  0
LINE
  5
138
100
AcDbEntity
  8
ALPHA
100
AcDbLine
 10
129.15839
 20
82.218965
 30
0.0
 11
125.300435
 21
82.218965
 31
0.0
  0
LINE
  5
139
100
AcDbEntity
  8
ALPHA
100
AcDbLine
 10
125.300435
 20
83.218965
 30
0.0
 11
125.300435
 21
82.218965
 31
0.0
  0
LINE
  5
13A
100
AcDbEntity
  8
ALPHA
100
AcDbLine
 10
130.717236
 20
85.918965
 30
0.0
 11
130.717236
 21
84.918965
 31
0.0
  0
LINE
  5
13B
100
AcDbEntity
  8
ALPHA
100
AcDbLine
 10
130.717236
 20
84.918965
 30
0.0
 11
129.235741
 21
82.35294
 31
0.0
  0
LINE
  5
13C
100
AcDbEntity
  8
ALPHA
100
AcDbLine
 10
130.325668
 20
91.519168
 30
0.0
 11
126.41302
 21
94.518864
 31
0.0
  0
ARC
  5
13D
100
AcDbEntity
  8
ALPHA
100
AcDbCircle
 10
129.717236
 20
90.725561
 30
0.0
 40
1.0
100
AcDbArc
 50
0.0
 51
52.52382
  0
ARC
  5
13E
100
AcDbEntity
  8
ALPHA
100
AcDbCircle
 10
127.217236
 20
102.605457
 30
0.0
 40
0.5
100
AcDbArc
 50
284.477512
 51
0.0
  0
ARC
  5
13F
100
AcDbEntity
  8
ALPHA
100
AcDbCircle
 10
126.717236
 20
94.915667
 30
0.0
 40
0.5
100
AcDbArc
 50
180.0
 51
232.52382
  0
LINE
  5
140
100
AcDbEntity
  8
ALPHA
100
AcDbLine
 10
130.432659
 20
84.026064
 30
0.0
 11
129.581595
 21
82.551978
 31
0.0
  0
LINE
  5
141
100
AcDbEntity
  8
ALPHA
100
AcDbLine
 10
130.645425
 20
84.394585
 30
0.0
 11
130.432659
 21
84.026064
 31
0.0
  0
LINE
  5
142
100
AcDbEntity
  8
ALPHA
100
AcDbLine
 10
130.831595
 20
84.717041
 30
0.0
 11
130.645425
 21
84.394585
 31
0.0
  0
LINE
  5
143
100
AcDbEntity
  8
ALPHA
100
AcDbLine
 10
130.65839
 20
84.817041
 30
0.0
 11
130.831595
 21
84.717041
 31
0.0
  0
LINE
  5
144
100
AcDbEntity
  8
ALPHA
100
AcDbLine
 10
130.259454
 20
84.126064
 30
0.0
 11
130.432659
 21
84.026064
 31
0.0
  0
LINE
  5
145
100
AcDbEntity
  8
ALPHA
100
AcDbLine
 10
129.40839
 20
82.651978
 30
0.0
 11
129.581595
 21
82.551978
 31
0.0
  0
LINE
  5
146
100
AcDbEntity
  8
ALPHA
100
AcDbLine
 10
123.217236
 20
116.918965
 30
0.0
 11
120.917236
 21
116.918965
 31
0.0
  0
LINE
  5
147
100
AcDbEntity
  8
ALPHA
100
AcDbLine
 10
116.504942
 20
114.918965
 30
0.0
 11
118.917236
 21
114.918965
 31
0.0
  0
LINE
  5
148
100
AcDbEntity
  8
ALPHA
100
AcDbLine
 10
119.152722
 20
112.496077
 30
0.0
 11
120.917236
 21
112.496077
 31
0.0
  0
LINE
  5
149
100
AcDbEntity
  8
ALPHA
100
AcDbLine
 10
118.917236
 20
112.123671
 30
0.0
 11
118.917236
 21
109.37767
 31
0.0
  0
LINE
  5
14A
100
AcDbEntity
  8
ALPHA
100
AcDbLine
 10
118.917236
 20
112.192
 30
0.0
 11
118.917236
 21
112.123671
 31
0.0
  0
LWPOLYLINE
  5
14B
100
AcDbEntity
  8
ALPHA
100
AcDbPolyline
 90
       10
 70
     0
 43
0.0
 10
118.917236
 20
112.192
 10
118.920732
 20
112.239194
 10
118.931147
 20
112.285384
 10
118.948149
 20
112.329267
 10
118.971346
 20
112.369983
 10
118.999912
 20
112.4063
 10
119.033289
 20
112.437705
 10
119.070398
 20
112.463353
 10
119.1106
 20
112.482957
 10
119.152722
 20
112.496077
  0
LINE
  5
157
100
AcDbEntity
  8
ALPHA
100
AcDbLine
 10
118.917236
 20
116.918965
 30
0.0
 11
118.917236
 21
114.418965
 31
0.0
  0
LINE
  5
158
100
AcDbEntity
  8
ALPHA
100
AcDbLine
 10
119.217236
 20
116.918965
 30
0.0
 11
118.917236
 21
116.918965
 31
0.0
  0
LINE
  5
159
100
AcDbEntity
  8
ALPHA
100
AcDbLine
 10
129.639131
 20
80.751633
 30
0.0
 11
129.612535
 21
80.705568
 31
0.0
  0
LINE
  5
15A
100
AcDbEntity
  8
ALPHA
100
AcDbLine
 10
129.692323
 20
80.843763
 30
0.0
 11
129.639131
 21
80.751633
 31
0.0
  0
LINE
  5
15B
100
AcDbEntity
  8
ALPHA
100
AcDbLine
 10
129.745514
 20
80.935893
 30
0.0
 11
129.692323
 21
80.843763
 31
0.0
  0
LINE
  5
15C
100
AcDbEntity
  8
ALPHA
100
AcDbLine
 10
129.825301
 20
81.074089
 30
0.0
 11
129.745514
 21
80.935893
 31
0.0
  0
LINE
  5
15D
100
AcDbEntity
  8
ALPHA
100
AcDbLine
 10
129.905089
 20
81.212285
 30
0.0
 11
129.825301
 21
81.074089
 31
0.0
  0
LINE
  5
15E
100
AcDbEntity
  8
ALPHA
100
AcDbLine
 10
130.011472
 20
81.396545
 30
0.0
 11
129.905089
 21
81.212285
 31
0.0
  0
LINE
  5
15F
100
AcDbEntity
  8
ALPHA
100
AcDbLine
 10
130.117855
 20
81.580806
 30
0.0
 11
130.011472
 21
81.396545
 31
0.0
  0
LINE
  5
160
100
AcDbEntity
  8
ALPHA
100
AcDbLine
 10
130.171046
 20
81.672936
 30
0.0
 11
130.117855
 21
81.580806
 31
0.0
  0
LINE
  5
161
100
AcDbEntity
  8
ALPHA
100
AcDbLine
 10
130.197642
 20
81.719002
 30
0.0
 11
130.171046
 21
81.672936
 31
0.0
  0
LINE
  5
162
100
AcDbEntity
  8
ALPHA
100
AcDbLine
 10
130.304025
 20
81.903262
 30
0.0
 11
130.197642
 21
81.719002
 31
0.0
  0
LINE
  5
163
100
AcDbEntity
  8
ALPHA
100
AcDbLine
 10
130.357216
 20
81.995393
 30
0.0
 11
130.304025
 21
81.903262
 31
0.0
  0
LINE
  5
164
100
AcDbEntity
  8
ALPHA
100
AcDbLine
 10
130.410408
 20
82.087523
 30
0.0
 11
130.357216
 21
81.995393
 31
0.0
  0
LINE
  5
165
100
AcDbEntity
  8
ALPHA
100
AcDbLine
 10
130.516791
 20
82.271784
 30
0.0
 11
130.410408
 21
82.087523
 31
0.0
  0
LINE
  5
166
100
AcDbEntity
  8
ALPHA
100
AcDbLine
 10
130.569982
 20
82.363914
 30
0.0
 11
130.516791
 21
82.271784
 31
0.0
  0
LINE
  5
167
100
AcDbEntity
  8
ALPHA
100
AcDbLine
 10
130.676365
 20
82.548175
 30
0.0
 11
130.569982
 21
82.363914
 31
0.0
  0
LINE
  5
168
100
AcDbEntity
  8
ALPHA
100
AcDbLine
 10
130.782748
 20
82.732436
 30
0.0
 11
130.676365
 21
82.548175
 31
0.0
  0
LINE
  5
169
100
AcDbEntity
  8
ALPHA
100
AcDbLine
 10
130.83594
 20
82.824566
 30
0.0
 11
130.782748
 21
82.732436
 31
0.0
  0
LINE
  5
16A
100
AcDbEntity
  8
ALPHA
100
AcDbLine
 10
130.862535
 20
82.870631
 30
0.0
 11
130.83594
 21
82.824566
 31
0.0
  0
LINE
  5
16B
100
AcDbEntity
  8
ALPHA
100
AcDbLine
 10
130.68933
 20
82.970631
 30
0.0
 11
130.862535
 21
82.870631
 31
0.0
  0
LINE
  5
16C
100
AcDbEntity
  8
ALPHA
100
AcDbLine
 10
130.396777
 20
82.463914
 30
0.0
 11
130.569982
 21
82.363914
 31
0.0
  0
LINE
  5
16D
100
AcDbEntity
  8
ALPHA
100
AcDbLine
 10
126.839573
 20
80.718965
 30
0.0
 11
129.38933
 21
80.718965
 31
0.0
  0
LINE
  5
16E
100
AcDbEntity
  8
ALPHA
100
AcDbLine
 10
130.717236
 20
84.518965
 30
0.0
 11
130.717236
 21
83.018965
 31
0.0
  0
LINE
  5
16F
100
AcDbEntity
  8
ALPHA
100
AcDbLine
 10
130.717236
 20
84.918965
 30
0.0
 11
130.717236
 21
84.783067
 31
0.0
  0
LINE
  5
170
100
AcDbEntity
  8
ALPHA
100
AcDbLine
 10
130.13082
 20
82.003262
 30
0.0
 11
130.304025
 21
81.903262
 31
0.0
  0
LINE
  5
171
100
AcDbEntity
  8
ALPHA
100
AcDbLine
 10
130.024437
 20
81.819002
 30
0.0
 11
130.197642
 21
81.719002
 31
0.0
  0
LINE
  5
172
100
AcDbEntity
  8
ALPHA
100
AcDbLine
 10
126.33768
 20
82.218965
 30
0.0
 11
126.839573
 21
80.718965
 31
0.0
  0
LINE
  5
173
100
AcDbEntity
  8
ALPHA
100
AcDbLine
 10
130.717236
 20
83.018965
 30
0.0
 11
129.38933
 21
80.718965
 31
0.0
  0
LINE
  5
174
100
AcDbEntity
  8
ALPHA
100
AcDbLine
 10
117.754907
 20
87.018965
 30
0.0
 11
114.717236
 21
87.018965
 31
0.0
  0
LINE
  5
175
100
AcDbEntity
  8
ALPHA
100
AcDbLine
 10
129.731884
 20
81.312285
 30
0.0
 11
129.905089
 21
81.212285
 31
0.0
  0
LINE
  5
176
100
AcDbEntity
  8
ALPHA
100
AcDbLine
 10
129.43933
 20
80.805568
 30
0.0
 11
129.612535
 21
80.705568
 31
0.0
  0
LINE
  5
177
100
AcDbEntity
  8
ALPHA
100
AcDbLine
 10
124.417236
 20
85.437331
 30
0.0
 11
124.377594
 21
85.479131
 31
0.0
  0
LINE
  5
178
100
AcDbEntity
  8
ALPHA
100
AcDbLine
 10
124.546378
 20
85.051366
 30
0.0
 11
124.417236
 21
85.437331
 31
0.0
  0
LINE
  5
179
100
AcDbEntity
  8
ALPHA
100
AcDbLine
 10
124.524726
 20
84.928571
 30
0.0
 11
124.546378
 21
85.051366
 31
0.0
  0
LINE
  5
17A
100
AcDbEntity
  8
ALPHA
100
AcDbLine
 10
125.543062
 20
81.120452
 30
0.0
 11
126.778103
 21
80.902681
 31
0.0
  0
LINE
  5
17B
100
AcDbEntity
  8
ALPHA
100
AcDbLine
 10
128.217236
 20
78.168965
 30
0.0
 11
126.642865
 21
78.168965
 31
0.0
  0
LINE
  5
17C
100
AcDbEntity
  8
ALPHA
100
AcDbLine
 10
128.217236
 20
78.444878
 30
0.0
 11
128.217236
 21
80.378965
 31
0.0
  0
LINE
  5
17D
100
AcDbEntity
  8
ALPHA
100
AcDbLine
 10
128.217236
 20
78.44037
 30
0.0
 11
128.217236
 21
78.444878
 31
0.0
  0
LINE
  5
17E
100
AcDbEntity
  8
ALPHA
100
AcDbLine
 10
128.217236
 20
78.168965
 30
0.0
 11
128.217236
 21
78.44037
 31
0.0
  0
LINE
  5
17F
100
AcDbEntity
  8
ALPHA
100
AcDbLine
 10
119.217236
 20
116.918965
 30
0.0
 11
120.917236
 21
116.918965
 31
0.0
  0
LINE
  5
180
100
AcDbEntity
  8
ALPHA
100
AcDbLine
 10
114.717236
 20
88.061309
 30
0.0
 11
114.717236
 21
87.124815
 31
0.0
  0
LINE
  5
181
100
AcDbEntity
  8
ALPHA
100
AcDbLine
 10
114.717236
 20
88.073555
 30
0.0
 11
114.717236
 21
88.061309
 31
0.0
  0
LINE
  5
182
100
AcDbEntity
  8
ALPHA
100
AcDbLine
 10
126.217236
 20
100.668965
 30
0.0
 11
126.217236
 21
94.915667
 31
0.0
  0
LINE
  5
183
100
AcDbEntity
  8
ALPHA
100
AcDbLine
 10
126.717236
 20
108.618965
 30
0.0
 11
127.717236
 21
108.618965
 31
0.0
  0
LINE
  5
184
100
AcDbEntity
  8
ALPHA
100
AcDbLine
 10
125.717236
 20
109.368965
 30
0.0
 11
126.717236
 21
109.368965
 31
0.0
  0
LINE
  5
185
100
AcDbEntity
  8
ALPHA
100
AcDbLine
 10
125.717236
 20
109.368965
 30
0.0
 11
123.217236
 21
111.368965
 31
0.0
  0
LINE
  5
186
100
AcDbEntity
  8
ALPHA
100
AcDbLine
 10
123.217236
 20
115.418965
 30
0.0
 11
123.217236
 21
111.368965
 31
0.0
  0
LINE
  5
187
100
AcDbEntity
  8
ALPHA
100
AcDbLine
 10
120.917236
 20
98.418965
 30
0.0
 11
120.917236
 21
115.418965
 31
0.0
  0
LINE
  5
188
100
AcDbEntity
  8
ALPHA
100
AcDbLine
 10
125.300435
 20
85.318965
 30
0.0
 11
120.917236
 21
98.418965
 31
0.0
  0
LINE
  5
189
100
AcDbEntity
  8
ALPHA
100
AcDbLine
 10
128.217236
 20
80.718965
 30
0.0
 11
128.217236
 21
80.378965
 31
0.0
  0
LINE
  5
18A
100
AcDbEntity
  8
ALPHA
100
AcDbLine
 10
126.839573
 20
80.718965
 30
0.0
 11
126.953336
 21
80.378965
 31
0.0
  0
LINE
  5
18B
100
AcDbEntity
  8
ALPHA
100
AcDbLine
 10
120.917236
 20
116.918965
 30
0.0
 11
123.217236
 21
116.918965
 31
0.0
  0
LINE
  5
18C
100
AcDbEntity
  8
ALPHA
100
AcDbLine
 10
120.917236
 20
116.918965
 30
0.0
 11
120.917236
 21
115.418965
 31
0.0
  0
LINE
  5
18D
100
AcDbEntity
  8
ALPHA
100
AcDbLine
 10
123.217236
 20
116.918965
 30
0.0
 11
123.217236
 21
115.418965
 31
0.0
  0
LINE
  5
18E
100
AcDbEntity
  8
ALPHA
100
AcDbLine
 10
114.717236
 20
87.018965
 30
0.0
 11
114.717236
 21
87.124815
 31
0.0
  0
LINE
  5
18F
100
AcDbEntity
  8
ALPHA
100
AcDbLine
 10
114.717236
 20
88.073555
 30
0.0
 11
114.717236
 21
90.418965
 31
0.0
  0
LINE
  5
190
100
AcDbEntity
  8
ALPHA
100
AcDbLine
 10
116.504942
 20
114.918965
 30
0.0
 11
118.917236
 21
114.918965
 31
0.0
  0
LINE
  5
191
100
AcDbEntity
  8
ALPHA
100
AcDbLine
 10
118.917236
 20
114.418965
 30
0.0
 11
118.917236
 21
112.200974
 31
0.0
  0
LINE
  5
192
100
AcDbEntity
  8
ALPHA
100
AcDbLine
 10
118.917236
 20
114.418965
 30
0.0
 11
118.917236
 21
112.192
 31
0.0
  0
LINE
  5
193
100
AcDbEntity
  8
ALPHA
100
AcDbLine
 10
134.867145
 20
112.286315
 30
0.0
 11
130.117236
 21
110.718965
 31
0.0
  0
LINE
  5
194
100
AcDbEntity
  8
ALPHA
100
AcDbLine
 10
130.117236
 20
110.718965
 30
0.0
 11
127.717236
 21
110.718965
 31
0.0
  0
LINE
  5
195
100
AcDbEntity
  8
ALPHA
100
AcDbLine
 10
130.117236
 20
113.096089
 30
0.0
 11
130.117236
 21
113.918965
 31
0.0
  0
LINE
  5
196
100
AcDbEntity
  8
ALPHA
100
AcDbLine
 10
130.117236
 20
110.718965
 30
0.0
 11
130.117236
 21
111.391966
 31
0.0
  0
LINE
  5
197
100
AcDbEntity
  8
ALPHA
100
AcDbLine
 10
140.717236
 20
114.418965
 30
0.0
 11
141.330214
 21
114.418965
 31
0.0
  0
LINE
  5
198
100
AcDbEntity
  8
ALPHA
100
AcDbLine
 10
130.617236
 20
114.418965
 30
0.0
 11
135.054277
 21
114.418965
 31
0.0
  0
LINE
  5
199
100
AcDbEntity
  8
ALPHA
100
AcDbLine
 10
130.617236
 20
114.418965
 30
0.0
 11
130.117236
 21
113.918965
 31
0.0
  0
LINE
  5
19A
100
AcDbEntity
  8
ALPHA
100
AcDbLine
 10
140.898552
 20
114.276527
 30
0.0
 11
140.717236
 21
114.216698
 31
0.0
  0
LINE
  5
19B
100
AcDbEntity
  8
ALPHA
100
AcDbLine
 10
141.330214
 20
114.418965
 30
0.0
 11
140.898552
 21
114.276527
 31
0.0
  0
LINE
  5
19C
100
AcDbEntity
  8
ALPHA
100
AcDbLine
 10
126.717236
 20
115.05294
 30
0.0
 11
127.717236
 21
115.05294
 31
0.0
  0
LINE
  5
19D
100
AcDbEntity
  8
ALPHA
100
AcDbLine
 10
127.13145
 20
94.418751
 30
0.0
 11
126.217236
 21
95.332965
 31
0.0
  0
LINE
  5
19E
100
AcDbEntity
  8
ALPHA
100
AcDbLine
 10
127.717236
 20
116.918965
 30
0.0
 11
126.717236
 21
116.918965
 31
0.0
  0
ARC
  5
19F
100
AcDbEntity
  8
ALPHA
100
AcDbCircle
 10
125.717236
 20
93.004538
 30
0.0
 40
2.0
100
AcDbArc
 50
17.256926
 51
45.0
  0
LINE
  5
1A0
100
AcDbEntity
  8
ALPHA
100
AcDbLine
 10
125.300435
 20
84.443965
 30
0.0
 11
125.117236
 21
84.443965
 31
0.0
  0
LINE
  5
1A1
100
AcDbEntity
  8
ALPHA
100
AcDbLine
 10
125.300435
 20
84.443965
 30
0.0
 11
125.117236
 21
84.443965
 31
0.0
  0
LINE
  5
1A2
100
AcDbEntity
  8
ALPHA
100
AcDbLine
 10
125.117236
 20
84.618965
 30
0.0
 11
125.117236
 21
85.866488
 31
0.0
  0
LINE
  5
1A3
100
AcDbEntity
  8
ALPHA
100
AcDbLine
 10
125.117236
 20
84.614783
 30
0.0
 11
125.117236
 21
84.618965
 31
0.0
  0
LINE
  5
1A4
100
AcDbEntity
  8
ALPHA
100
AcDbLine
 10
125.117236
 20
84.443965
 30
0.0
 11
125.117236
 21
84.614783
 31
0.0
  0
LINE
  5
1A5
100
AcDbEntity
  8
ALPHA
100
AcDbLine
 10
127.717236
 20
108.918965
 30
0.0
 11
126.717236
 21
108.918965
 31
0.0
  0
LINE
  5
1A6
100
AcDbEntity
  8
ALPHA
100
AcDbLine
 10
126.717236
 20
110.918965
 30
0.0
 11
127.717236
 21
110.918965
 31
0.0
  0
LINE
  5
1A7
100
AcDbEntity
  8
ALPHA
100
AcDbLine
 10
126.717236
 20
109.368965
 30
0.0
 11
126.717236
 21
110.918965
 31
0.0
  0
LINE
  5
1A8
100
AcDbEntity
  8
ALPHA
100
AcDbLine
 10
126.717236
 20
108.918965
 30
0.0
 11
126.717236
 21
109.368965
 31
0.0
  0
LINE
  5
1A9
100
AcDbEntity
  8
ALPHA
100
AcDbLine
 10
127.717236
 20
116.918965
 30
0.0
 11
127.717236
 21
115.05294
 31
0.0
  0
LINE
  5
1AA
100
AcDbEntity
  8
ALPHA
100
AcDbLine
 10
127.717236
 20
115.05294
 30
0.0
 11
127.717236
 21
110.918965
 31
0.0
  0
LINE
  5
1AB
100
AcDbEntity
  8
ALPHA
100
AcDbLine
 10
127.717236
 20
108.918965
 30
0.0
 11
127.717236
 21
110.918965
 31
0.0
  0
LINE
  5
1AC
100
AcDbEntity
  8
ALPHA
100
AcDbLine
 10
127.717236
 20
108.618965
 30
0.0
 11
127.717236
 21
108.918965
 31
0.0
  0
LWPOLYLINE
  5
1AD
100
AcDbEntity
  8
ALPHA
100
AcDbPolyline
 90
        9
 70
     0
 43
0.0
 10
132.10518
 20
80.616063
 10
132.174025
 20
81.0065
 10
132.237993
 20
81.369284
 10
132.295357
 20
81.694611
 10
132.344567
 20
81.973691
 10
132.384292
 20
82.198984
 10
132.41346
 20
82.364402
 10
132.431281
 20
82.465474
 10
132.437276
 20
82.499472
  0
LINE
  5
1B8
100
AcDbEntity
  8
ALPHA
100
AcDbLine
 10
110.794101
 20
85.707565
 30
0.0
 11
110.80169
 21
85.750606
 31
0.0
  0
LWPOLYLINE
  5
1B9
100
AcDbEntity
  8
ALPHA
100
AcDbPolyline
 90
        3
 70
     0
 43
0.0
 10
110.740913
 20
85.405924
 10
110.771665
 20
85.580324
 10
110.794101
 20
85.707565
  0
LINE
  5
1BE
100
AcDbEntity
  8
ALPHA
100
AcDbLine
 10
110.735363
 20
85.374443
 30
0.0
 11
110.740913
 21
85.405924
 31
0.0
  0
LWPOLYLINE
  5
1BF
100
AcDbEntity
  8
ALPHA
100
AcDbPolyline
 90
       10
 70
     0
 43
0.0
 10
110.173425
 20
82.187538
 10
110.222007
 20
82.463061
 10
110.280746
 20
82.796183
 10
110.347074
 20
83.172346
 10
110.418092
 20
83.57511
 10
110.490696
 20
83.986872
 10
110.561714
 20
84.389635
 10
110.628042
 20
84.765799
 10
110.686781
 20
85.098921
 10
110.735363
 20
85.374443
  0
LINE
  5
1CB
100
AcDbEntity
  8
ALPHA
100
AcDbLine
 10
110.167875
 20
82.156058
 30
0.0
 11
110.173425
 21
82.187538
 31
0.0
  0
LWPOLYLINE
  5
1CC
100
AcDbEntity
  8
ALPHA
100
AcDbPolyline
 90
        3
 70
     0
 43
0.0
 10
110.114687
 20
81.854416
 10
110.137123
 20
81.981658
 10
110.167875
 20
82.156058
  0
LINE
  5
1D1
100
AcDbEntity
  8
ALPHA
100
AcDbLine
 10
110.107098
 20
81.811375
 30
0.0
 11
110.114687
 21
81.854416
 31
0.0
  0
LWPOLYLINE
  5
1D2
100
AcDbEntity
  8
ALPHA
100
AcDbPolyline
 90
        9
 70
     0
 43
0.0
 10
131.549851
 20
77.466636
 10
131.555846
 20
77.500634
 10
131.573668
 20
77.601707
 10
131.602836
 20
77.767124
 10
131.642561
 20
77.992417
 10
131.69177
 20
78.271497
 10
131.749134
 20
78.596825
 10
131.813103
 20
78.959608
 10
131.881947
 20
79.350045
  0
LINE
  5
1DD
100
AcDbEntity
  8
ALPHA
100
AcDbLine
 10
131.881947
 20
79.350045
 30
0.0
 11
131.379904
 21
79.532774
 31
0.0
  0
LINE
  5
1DE
100
AcDbEntity
  8
ALPHA
100
AcDbLine
 10
131.379904
 20
79.532774
 30
0.0
 11
131.570917
 21
80.616063
 31
0.0
  0
LINE
  5
1DF
100
AcDbEntity
  8
ALPHA
100
AcDbLine
 10
110.107098
 20
81.811375
 30
0.0
 11
109.317236
 21
83.981502
 31
0.0
  0
LINE
  5
1E0
100
AcDbEntity
  8
ALPHA
100
AcDbLine
 10
110.80169
 20
85.750606
 30
0.0
 11
109.317236
 21
83.981502
 31
0.0
  0
LINE
  5
1E1
100
AcDbEntity
  8
ALPHA
100
AcDbLine
 10
110.112317
 20
81.810455
 30
0.0
 11
110.107098
 21
81.811375
 31
0.0
  0
LINE
  5
1E2
100
AcDbEntity
  8
ALPHA
100
AcDbLine
 10
119.594842
 20
80.13843
 30
0.0
 11
110.112317
 21
81.810455
 31
0.0
  0
LINE
  5
1E3
100
AcDbEntity
  8
ALPHA
100
AcDbLine
 10
128.666095
 20
78.538923
 30
0.0
 11
128.217236
 21
78.618069
 31
0.0
  0
LINE
  5
1E4
100
AcDbEntity
  8
ALPHA
100
AcDbLine
 10
129.453941
 20
78.400005
 30
0.0
 11
128.666095
 21
78.538923
 31
0.0
  0
LINE
  5
1E5
100
AcDbEntity
  8
ALPHA
100
AcDbLine
 10
110.806909
 20
85.749686
 30
0.0
 11
110.80169
 21
85.750606
 31
0.0
  0
LINE
  5
1E6
100
AcDbEntity
  8
ALPHA
100
AcDbLine
 10
118.454946
 20
84.401131
 30
0.0
 11
110.806909
 21
85.749686
 31
0.0
  0
LINE
  5
1E7
100
AcDbEntity
  8
ALPHA
100
AcDbLine
 10
131.549851
 20
77.466636
 30
0.0
 11
129.323705
 21
77.661399
 31
0.0
  0
LINE
  5
1E8
100
AcDbEntity
  8
ALPHA
100
AcDbLine
 10
129.948473
 20
81.204635
 30
0.0
 11
129.96949
 21
81.323832
 31
0.0
  0
LINE
  5
1E9
100
AcDbEntity
  8
ALPHA
100
AcDbLine
 10
129.463571
 20
78.454619
 30
0.0
 11
129.948473
 21
81.204635
 31
0.0
  0
LINE
  5
1EA
100
AcDbEntity
  8
ALPHA
100
AcDbLine
 10
129.453941
 20
78.400005
 30
0.0
 11
129.463571
 21
78.454619
 31
0.0
  0
LINE
  5
1EB
100
AcDbEntity
  8
ALPHA
100
AcDbLine
 10
129.323705
 20
77.661399
 30
0.0
 11
129.453941
 21
78.400005
 31
0.0
  0
LINE
  5
1EC
100
AcDbEntity
  8
ALPHA
100
AcDbLine
 10
132.437276
 20
82.499472
 30
0.0
 11
130.698376
 21
82.965408
 31
0.0
  0
LINE
  5
1ED
100
AcDbEntity
  8
ALPHA
100
AcDbLine
 10
110.112317
 20
81.810455
 30
0.0
 11
110.107098
 21
81.811375
 31
0.0
  0
LINE
  5
1EE
100
AcDbEntity
  8
ALPHA
100
AcDbLine
 10
119.594842
 20
80.13843
 30
0.0
 11
110.112317
 21
81.810455
 31
0.0
  0
LINE
  5
1EF
100
AcDbEntity
  8
ALPHA
100
AcDbLine
 10
128.666095
 20
78.538923
 30
0.0
 11
128.217236
 21
78.618069
 31
0.0
  0
LINE
  5
1F0
100
AcDbEntity
  8
ALPHA
100
AcDbLine
 10
129.453941
 20
78.400005
 30
0.0
 11
128.666095
 21
78.538923
 31
0.0
  0
LINE
  5
1F1
100
AcDbEntity
  8
ALPHA
100
AcDbLine
 10
131.570917
 20
80.616063
 30
0.0
 11
132.10518
 21
80.616063
 31
0.0
  0
LINE
  5
1F2
100
AcDbEntity
  8
ALPHA
100
AcDbLine
 10
110.806909
 20
85.749686
 30
0.0
 11
110.80169
 21
85.750606
 31
0.0
  0
LINE
  5
1F3
100
AcDbEntity
  8
ALPHA
100
AcDbLine
 10
118.454946
 20
84.401131
 30
0.0
 11
110.806909
 21
85.749686
 31
0.0
  0
LINE
  5
1F4
100
AcDbEntity
  8
ALPHA
100
AcDbLine
 10
131.549851
 20
77.466636
 30
0.0
 11
129.323705
 21
77.661399
 31
0.0
  0
LINE
  5
1F5
100
AcDbEntity
  8
ALPHA
100
AcDbLine
 10
131.877774
 20
77.749317
 30
0.0
 11
131.871441
 21
77.7134
 31
0.0
  0
LINE
  5
1F6
100
AcDbEntity
  8
ALPHA
100
AcDbLine
 10
132.143255
 20
79.254937
 30
0.0
 11
131.877774
 21
77.749317
 31
0.0
  0
LINE
  5
1F7
100
AcDbEntity
  8
ALPHA
100
AcDbLine
 10
132.437276
 20
82.499472
 30
0.0
 11
130.698376
 21
82.965408
 31
0.0
  0
LINE
  5
1F8
100
AcDbEntity
  8
ALPHA
100
AcDbLine
 10
132.655042
 20
82.157424
 30
0.0
 11
132.383258
 21
80.616063
 31
0.0
  0
LINE
  5
1F9
100
AcDbEntity
  8
ALPHA
100
AcDbLine
 10
132.10518
 20
80.616063
 30
0.0
 11
132.383258
 21
80.616063
 31
0.0
  0
LINE
  5
1FA
100
AcDbEntity
  8
ALPHA
100
AcDbLine
 10
132.143255
 20
79.254937
 30
0.0
 11
131.876545
 21
77.742348
 31
0.0
  0
LINE
  5
1FB
100
AcDbEntity
  8
ALPHA
100
AcDbLine
 10
131.871452
 20
77.713465
 30
0.0
 11
131.876545
 21
77.742348
 31
0.0
  0
LINE
  5
1FC
100
AcDbEntity
  8
ALPHA
100
AcDbLine
 10
132.143255
 20
79.254937
 30
0.0
 11
131.881947
 21
79.350045
 31
0.0
  0
LINE
  5
1FD
100
AcDbEntity
  8
ALPHA
100
AcDbLine
 10
132.655073
 20
82.157599
 30
0.0
 11
132.383258
 21
80.616063
 31
0.0
  0
ARC
  5
1FE
100
AcDbEntity
  8
ALPHA
100
AcDbCircle
 10
132.35963
 20
82.209694
 30
0.0
 40
0.3
100
AcDbArc
 50
350.0
 51
75.0
  0
ARC
  5
1FF
100
AcDbEntity
  8
ALPHA
100
AcDbCircle
 10
131.575998
 20
77.765495
 30
0.0
 40
0.3
100
AcDbArc
 50
265.0
 51
350.0
  0
LWPOLYLINE
  5
200
100
AcDbEntity
  8
ALPHA
100
AcDbPolyline
 90
       31
 70
     0
 43
0.0
 10
128.732422
 20
78.915086
 10
128.741217
 20
78.964964
 10
128.75049
 20
79.017553
 10
128.760224
 20
79.072756
 10
128.770401
 20
79.130473
 10
128.781004
 20
79.190609
 10
128.792016
 20
79.253061
 10
128.803417
 20
79.317717
 10
128.815185
 20
79.384459
 10
128.827301
 20
79.453169
 10
128.839743
 20
79.523731
 10
128.85249
 20
79.596025
 10
128.86552
 20
79.669921
 10
128.878809
 20
79.745286
 10
128.892334
 20
79.821988
 10
128.906071
 20
79.899894
 10
128.919996
 20
79.978871
 10
128.934086
 20
80.058777
 10
128.948315
 20
80.139472
 10
128.962657
 20
80.220813
 10
128.977089
 20
80.302658
 10
128.991584
 20
80.384865
 10
129.006118
 20
80.46729
 10
129.020664
 20
80.549788
 10
129.035198
 20
80.632212
 10
129.049693
 20
80.71442
 10
129.049854
 20
80.715331
 10
129.050015
 20
80.716242
 10
129.050175
 20
80.717154
 10
129.050336
 20
80.718065
 10
129.050497
 20
80.718976
  0
LWPOLYLINE
  5
221
100
AcDbEntity
  8
ALPHA
100
AcDbPolyline
 90
        6
 70
     0
 43
0.0
 10
128.724122
 20
78.868013
 10
128.725742
 20
78.877199
 10
128.727382
 20
78.886501
 10
128.729042
 20
78.895916
 10
128.730722
 20
78.905445
 10
128.732422
 20
78.915086
  0
LWPOLYLINE
  5
229
100
AcDbEntity
  8
ALPHA
100
AcDbPolyline
 90
       16
 70
     0
 43
0.0
 10
128.666095
 20
78.538923
 10
128.666423
 20
78.540784
 10
128.667342
 20
78.546
 10
128.668857
 20
78.55459
 10
128.67097
 20
78.566572
 10
128.673684
 20
78.581964
 10
128.677
 20
78.600772
 10
128.680911
 20
78.622953
 10
128.685408
 20
78.648455
 10
128.690481
 20
78.677224
 10
128.69612
 20
78.709206
 10
128.701033
 20
78.737067
 10
128.706296
 20
78.766914
 10
128.711902
 20
78.798711
 10
128.717847
 20
78.832423
 10
128.724122
 20
78.868013
  0
LWPOLYLINE
  5
23B
100
AcDbEntity
  8
ALPHA
100
AcDbPolyline
 90
       16
 70
     0
 43
0.0
 10
128.724122
 20
78.868013
 10
128.717847
 20
78.832423
 10
128.711902
 20
78.798711
 10
128.706296
 20
78.766914
 10
128.701033
 20
78.737067
 10
128.69612
 20
78.709206
 10
128.690481
 20
78.677224
 10
128.685408
 20
78.648455
 10
128.680911
 20
78.622953
 10
128.677
 20
78.600772
 10
128.673684
 20
78.581964
 10
128.67097
 20
78.566572
 10
128.668857
 20
78.55459
 10
128.667342
 20
78.546
 10
128.666423
 20
78.540784
 10
128.666095
 20
78.538923
  0
LWPOLYLINE
  5
24D
100
AcDbEntity
  8
ALPHA
100
AcDbPolyline
 90
        6
 70
     0
 43
0.0
 10
128.726816
 20
78.883291
 10
128.726273
 20
78.88021
 10
128.725732
 20
78.877142
 10
128.725193
 20
78.874086
 10
128.724656
 20
78.871043
 10
128.724122
 20
78.868013
  0
LWPOLYLINE
  5
255
100
AcDbEntity
  8
ALPHA
100
AcDbPolyline
 90
       16
 70
     0
 43
0.0
 10
110.170344
 20
82.139544
 10
110.164068
 20
82.103954
 10
110.158124
 20
82.070243
 10
110.152517
 20
82.038446
 10
110.147255
 20
82.008598
 10
110.142342
 20
81.980737
 10
110.136703
 20
81.948756
 10
110.13163
 20
81.919987
 10
110.127133
 20
81.894485
 10
110.123222
 20
81.872304
 10
110.119906
 20
81.853496
 10
110.117192
 20
81.838104
 10
110.115079
 20
81.826122
 10
110.113564
 20
81.817532
 10
110.112645
 20
81.812315
 10
110.112317
 20
81.810455
  0
LWPOLYLINE
  5
267
100
AcDbEntity
  8
ALPHA
100
AcDbPolyline
 90
        6
 70
     0
 43
0.0
 10
110.178644
 20
82.186618
 10
110.176944
 20
82.176976
 10
110.175264
 20
82.167448
 10
110.173604
 20
82.158032
 10
110.171964
 20
82.148731
 10
110.170344
 20
82.139544
  0
LWPOLYLINE
  5
26F
100
AcDbEntity
  8
ALPHA
100
AcDbPolyline
 90
       46
 70
     0
 43
0.0
 10
110.740582
 20
85.373523
 10
110.731787
 20
85.323645
 10
110.722514
 20
85.271056
 10
110.71278
 20
85.215854
 10
110.702603
 20
85.158136
 10
110.692
 20
85.098001
 10
110.680987
 20
85.035548
 10
110.669587
 20
84.970892
 10
110.657819
 20
84.904151
 10
110.645703
 20
84.83544
 10
110.633261
 20
84.764878
 10
110.620514
 20
84.692584
 10
110.607484
 20
84.618689
 10
110.594195
 20
84.543324
 10
110.58067
 20
84.466622
 10
110.566933
 20
84.388715
 10
110.553008
 20
84.309739
 10
110.538918
 20
84.229832
 10
110.524689
 20
84.149138
 10
110.510347
 20
84.067797
 10
110.495915
 20
83.985951
 10
110.48142
 20
83.903744
 10
110.466886
 20
83.821319
 10
110.45234
 20
83.738822
 10
110.437806
 20
83.656397
 10
110.423311
 20
83.57419
 10
110.408879
 20
83.492344
 10
110.394536
 20
83.411004
 10
110.380308
 20
83.330309
 10
110.366218
 20
83.250402
 10
110.352292
 20
83.171426
 10
110.338555
 20
83.09352
 10
110.325031
 20
83.016818
 10
110.311742
 20
82.941452
 10
110.298712
 20
82.867557
 10
110.285965
 20
82.795263
 10
110.273523
 20
82.724701
 10
110.261407
 20
82.65599
 10
110.249639
 20
82.589249
 10
110.238238
 20
82.524593
 10
110.227226
 20
82.462141
 10
110.216623
 20
82.402005
 10
110.206446
 20
82.344287
 10
110.196712
 20
82.289085
 10
110.187439
 20
82.236496
 10
110.178644
 20
82.186618
  0
LWPOLYLINE
  5
29F
100
AcDbEntity
  8
ALPHA
100
AcDbPolyline
 90
        6
 70
     0
 43
0.0
 10
110.748882
 20
85.420597
 10
110.747262
 20
85.41141
 10
110.745622
 20
85.402109
 10
110.743962
 20
85.392694
 10
110.742282
 20
85.383165
 10
110.740582
 20
85.373523
  0
LWPOLYLINE
  5
2A7
100
AcDbEntity
  8
ALPHA
100
AcDbPolyline
 90
       16
 70
     0
 43
0.0
 10
110.806909
 20
85.749686
 10
110.806581
 20
85.747826
 10
110.805662
 20
85.74261
 10
110.804147
 20
85.734019
 10
110.802034
 20
85.722037
 10
110.79932
 20
85.706645
 10
110.796004
 20
85.687838
 10
110.792093
 20
85.665656
 10
110.787596
 20
85.640154
 10
110.782523
 20
85.611385
 10
110.776884
 20
85.579404
 10
110.771971
 20
85.551543
 10
110.766708
 20
85.521696
 10
110.761102
 20
85.489898
 10
110.755157
 20
85.456187
 10
110.748882
 20
85.420597
  0
LWPOLYLINE
  5
2B9
100
AcDbEntity
  8
ALPHA
100
AcDbPolyline
 90
       16
 70
     0
 43
0.0
 10
110.748882
 20
85.420597
 10
110.755157
 20
85.456187
 10
110.761102
 20
85.489898
 10
110.766708
 20
85.521696
 10
110.771971
 20
85.551543
 10
110.776884
 20
85.579404
 10
110.782523
 20
85.611385
 10
110.787596
 20
85.640154
 10
110.792093
 20
85.665656
 10
110.796004
 20
85.687838
 10
110.79932
 20
85.706645
 10
110.802034
 20
85.722037
 10
110.804147
 20
85.734019
 10
110.805662
 20
85.74261
 10
110.806581
 20
85.747826
 10
110.806909
 20
85.749686
  0
LWPOLYLINE
  5
2CB
100
AcDbEntity
  8
ALPHA
100
AcDbPolyline
 90
        6
 70
     0
 43
0.0
 10
110.746188
 20
85.405319
 10
110.746731
 20
85.4084
 10
110.747272
 20
85.411468
 10
110.747811
 20
85.414523
 10
110.748348
 20
85.417566
 10
110.748882
 20
85.420597
  0
LWPOLYLINE
  5
2D3
100
AcDbEntity
  8
ALPHA
100
AcDbPolyline
 90
        6
 70
     0
 43
0.0
 10
110.170344
 20
82.139544
 10
110.170878
 20
82.142575
 10
110.171415
 20
82.145618
 10
110.171954
 20
82.148673
 10
110.172495
 20
82.151742
 10
110.173038
 20
82.154822
  0
LWPOLYLINE
  5
2DB
100
AcDbEntity
  8
ALPHA
100
AcDbPolyline
 90
       16
 70
     0
 43
0.0
 10
110.112317
 20
81.810455
 10
110.112645
 20
81.812315
 10
110.113564
 20
81.817532
 10
110.115079
 20
81.826122
 10
110.117192
 20
81.838104
 10
110.119906
 20
81.853496
 10
110.123222
 20
81.872304
 10
110.127133
 20
81.894485
 10
110.13163
 20
81.919987
 10
110.136703
 20
81.948756
 10
110.142342
 20
81.980737
 10
110.147255
 20
82.008598
 10
110.152517
 20
82.038446
 10
110.158124
 20
82.070243
 10
110.164068
 20
82.103954
 10
110.170344
 20
82.139544
  0
LINE
  5
2ED
100
AcDbEntity
  8
ALPHA
 62
    80
100
AcDbLine
 10
110.746132
 20
85.405003
 30
0.0
 11
118.554687
 21
84.028144
 31
0.0
  0
LINE
  5
2EE
100
AcDbEntity
  8
ALPHA
 62
    80
100
AcDbLine
 10
128.217236
 20
78.973469
 30
0.0
 11
128.726872
 21
78.883606
 31
0.0
  0
LINE
  5
2EF
100
AcDbEntity
  8
ALPHA
 62
    80
100
AcDbLine
 10
110.173093
 20
82.155138
 30
0.0
 11
119.495102
 21
80.511416
 31
0.0
  0
LWPOLYLINE
  5
2F0
100
AcDbEntity
  8
ALPHA
100
AcDbPolyline
 90
        9
 70
     0
 43
0.0
 10
129.050617
 20
80.71966
 10
128.990738
 20
80.380067
 10
128.93089
 20
80.040655
 10
128.874769
 20
79.722376
 10
128.824909
 20
79.439607
 10
128.783563
 20
79.20512
 10
128.752597
 20
79.029505
 10
128.733412
 20
78.920696
 10
128.726872
 20
78.883606
  0
LWPOLYLINE
  5
2FB
100
AcDbEntity
  8
ALPHA
100
AcDbPolyline
 90
       17
 70
     0
 43
0.0
 10
110.746133
 20
85.405003
 10
110.740676
 20
85.374057
 10
110.724514
 20
85.282396
 10
110.698262
 20
85.133511
 10
110.662213
 20
84.929071
 10
110.619003
 20
84.684013
 10
110.569722
 20
84.404525
 10
110.516246
 20
84.10125
 10
110.459614
 20
83.78007
 10
110.403962
 20
83.464453
 10
110.350429
 20
83.160857
 10
110.301056
 20
82.880846
 10
110.257014
 20
82.631069
 10
110.22152
 20
82.429777
 10
110.195096
 20
82.279916
 10
110.178747
 20
82.187196
 10
110.173094
 20
82.155138
  0
LINE
  5
30E
100
AcDbEntity
  8
ALPHA
 62
    80
100
AcDbLine
 10
110.746132
 20
85.405003
 30
0.0
 11
118.554687
 21
84.028144
 31
0.0
  0
LINE
  5
30F
100
AcDbEntity
  8
ALPHA
 62
    80
100
AcDbLine
 10
128.217236
 20
78.973469
 30
0.0
 11
128.726872
 21
78.883606
 31
0.0
  0
LINE
  5
310
100
AcDbEntity
  8
ALPHA
 62
    80
100
AcDbLine
 10
110.173093
 20
82.155138
 30
0.0
 11
119.495102
 21
80.511416
 31
0.0
  0
LINE
  5
311
100
AcDbEntity
  8
ALPHA
100
AcDbLine
 10
121.317236
 20
120.918965
 30
0.0
 11
122.817236
 21
120.918965
 31
0.0
  0
LINE
  5
312
100
AcDbEntity
  8
ALPHA
100
AcDbLine
 10
121.317236
 20
119.077993
 30
0.0
 11
122.817236
 21
119.077993
 31
0.0
  0
LINE
  5
313
100
AcDbEntity
  8
ALPHA
100
AcDbLine
 10
122.817236
 20
117.469348
 30
0.0
 11
121.317236
 21
117.469348
 31
0.0
  0
LINE
  5
314
100
AcDbEntity
  8
ALPHA
100
AcDbLine
 10
122.817236
 20
117.250176
 30
0.0
 11
121.317236
 21
117.250176
 31
0.0
  0
LINE
  5
315
100
AcDbEntity
  8
ALPHA
100
AcDbLine
 10
121.317236
 20
118.643766
 30
0.0
 11
122.817236
 21
118.643766
 31
0.0
  0
LINE
  5
316
100
AcDbEntity
  8
ALPHA
100
AcDbLine
 10
122.817236
 20
120.918965
 30
0.0
 11
122.817236
 21
119.077993
 31
0.0
  0
LINE
  5
317
100
AcDbEntity
  8
ALPHA
100
AcDbLine
 10
121.317236
 20
119.077993
 30
0.0
 11
121.317236
 21
120.918965
 31
0.0
  0
LINE
  5
318
100
AcDbEntity
  8
ALPHA
100
AcDbLine
 10
121.317236
 20
118.643766
 30
0.0
 11
121.317236
 21
117.469348
 31
0.0
  0
LINE
  5
319
100
AcDbEntity
  8
ALPHA
100
AcDbLine
 10
121.317236
 20
120.918965
 30
0.0
 11
121.317236
 21
121.418965
 31
0.0
  0
LINE
  5
31A
100
AcDbEntity
  8
ALPHA
100
AcDbLine
 10
121.317236
 20
121.418965
 30
0.0
 11
122.817236
 21
121.418965
 31
0.0
  0
LINE
  5
31B
100
AcDbEntity
  8
ALPHA
100
AcDbLine
 10
122.817236
 20
120.918965
 30
0.0
 11
122.817236
 21
121.418965
 31
0.0
  0
LINE
  5
31C
100
AcDbEntity
  8
ALPHA
100
AcDbLine
 10
121.317236
 20
116.918965
 30
0.0
 11
121.317236
 21
117.250176
 31
0.0
  0
LINE
  5
31D
100
AcDbEntity
  8
ALPHA
100
AcDbLine
 10
122.817236
 20
116.918965
 30
0.0
 11
122.817236
 21
117.250176
 31
0.0
  0
LINE
  5
31E
100
AcDbEntity
  8
ALPHA
100
AcDbLine
 10
122.817236
 20
119.077993
 30
0.0
 11
122.817236
 21
118.643766
 31
0.0
  0
LINE
  5
31F
100
AcDbEntity
  8
ALPHA
100
AcDbLine
 10
121.317236
 20
118.643766
 30
0.0
 11
121.317236
 21
119.077993
 31
0.0
  0
LINE
  5
320
100
AcDbEntity
  8
ALPHA
100
AcDbLine
 10
121.317236
 20
117.250176
 30
0.0
 11
121.317236
 21
117.469348
 31
0.0
  0
LINE
  5
321
100
AcDbEntity
  8
ALPHA
100
AcDbLine
 10
122.817236
 20
117.469348
 30
0.0
 11
122.817236
 21
117.250176
 31
0.0
  0
LINE
  5
322
100
AcDbEntity
  8
ALPHA
100
AcDbLine
 10
122.817236
 20
118.643766
 30
0.0
 11
122.817236
 21
117.469348
 31
0.0
  0
LINE
  5
323
100
AcDbEntity
  8
ALPHA
100
AcDbLine
 10
128.917236
 20
112.77455
 30
0.0
 11
128.917236
 21
114.018965
 31
0.0
  0
LINE
  5
324
100
AcDbEntity
  8
ALPHA
100
AcDbLine
 10
130.017236
 20
111.370711
 30
0.0
 11
130.017236
 21
111.218965
 31
0.0
  0
LINE
  5
325
100
AcDbEntity
  8
ALPHA
100
AcDbLine
 10
130.017236
 20
114.018965
 30
0.0
 11
130.017236
 21
113.069294
 31
0.0
  0
LINE
  5
326
100
AcDbEntity
  8
ALPHA
100
AcDbLine
 10
130.017236
 20
111.218965
 30
0.0
 11
130.017236
 21
110.718965
 31
0.0
  0
LINE
  5
327
100
AcDbEntity
  8
ALPHA
100
AcDbLine
 10
128.917236
 20
114.018965
 30
0.0
 11
127.717236
 21
114.018965
 31
0.0
  0
LINE
  5
328
100
AcDbEntity
  8
ALPHA
100
AcDbLine
 10
130.017236
 20
111.370711
 30
0.0
 11
130.017236
 21
111.218965
 31
0.0
  0
LINE
  5
329
100
AcDbEntity
  8
ALPHA
100
AcDbLine
 10
130.017236
 20
114.018965
 30
0.0
 11
130.017236
 21
113.069294
 31
0.0
  0
LINE
  5
32A
100
AcDbEntity
  8
ALPHA
100
AcDbLine
 10
129.217236
 20
114.018965
 30
0.0
 11
128.917236
 21
114.018965
 31
0.0
  0
LINE
  5
32B
100
AcDbEntity
  8
ALPHA
100
AcDbLine
 10
130.017236
 20
114.018965
 30
0.0
 11
129.217236
 21
114.018965
 31
0.0
  0
LINE
  5
32C
100
AcDbEntity
  8
ALPHA
100
AcDbLine
 10
130.017236
 20
111.218965
 30
0.0
 11
129.303329
 21
111.218965
 31
0.0
  0
LINE
  5
32D
100
AcDbEntity
  8
ALPHA
100
AcDbLine
 10
129.217236
 20
111.200665
 30
0.0
 11
129.217236
 21
110.718965
 31
0.0
  0
LINE
  5
32E
100
AcDbEntity
  8
ALPHA
100
AcDbLine
 10
123.408745
 20
80.897995
 30
0.0
 11
121.439129
 21
81.245291
 31
0.0
  0
LINE
  5
32F
100
AcDbEntity
  8
ALPHA
100
AcDbLine
 10
123.616455
 20
82.075975
 30
0.0
 11
121.646839
 21
82.423272
 31
0.0
  0
LINE
  5
330
100
AcDbEntity
  8
ALPHA
100
AcDbLine
 10
121.646839
 20
82.423272
 30
0.0
 11
121.72088
 21
82.84318
 31
0.0
  0
LWPOLYLINE
  5
331
100
AcDbEntity
  8
ALPHA
100
AcDbPolyline
 90
        8
 70
     0
 43
0.0
 10
121.646839
 20
82.423272
 10
121.537377
 20
82.429941
 10
121.427277
 20
82.411334
 10
121.323962
 20
82.368289
 10
121.23084
 20
82.301775
 10
121.154468
 20
82.215967
 10
121.097758
 20
82.113656
 10
121.064548
 20
82.000322
  0
LINE
  5
33B
100
AcDbEntity
  8
ALPHA
100
AcDbLine
 10
121.356547
 20
80.776946
 30
0.0
 11
122.961495
 21
80.49395
 31
0.0
  0
LWPOLYLINE
  5
33C
100
AcDbEntity
  8
ALPHA
100
AcDbPolyline
 90
        8
 70
     0
 43
0.0
 10
121.036612
 20
81.84189
 10
121.029056
 20
81.724032
 10
121.047354
 20
81.608495
 10
121.089772
 20
81.501742
 10
121.15453
 20
81.407389
 10
121.236892
 20
81.331604
 10
121.333988
 20
81.276463
 10
121.439129
 20
81.245291
  0
LINE
  5
346
100
AcDbEntity
  8
ALPHA
100
AcDbLine
 10
122.175318
 20
82.76305
 30
0.0
 11
123.397698
 21
82.547511
 31
0.0
  0
LINE
  5
347
100
AcDbEntity
  8
ALPHA
100
AcDbLine
 10
121.72088
 20
82.84318
 30
0.0
 11
122.175318
 21
82.76305
 31
0.0
  0
LINE
  5
348
100
AcDbEntity
  8
ALPHA
100
AcDbLine
 10
121.356547
 20
80.776946
 30
0.0
 11
121.439129
 21
81.245291
 31
0.0
  0
LWPOLYLINE
  5
349
100
AcDbEntity
  8
ALPHA
100
AcDbPolyline
 90
        8
 70
     0
 43
0.0
 10
121.356547
 20
80.776946
 10
121.253084
 20
80.807714
 10
121.156658
 20
80.862852
 10
121.074476
 20
80.939222
 10
121.009522
 20
81.034997
 10
120.966714
 20
81.144253
 10
120.948227
 20
81.263212
 10
120.956188
 20
81.385781
  0
LWPOLYLINE
  5
353
100
AcDbEntity
  8
ALPHA
100
AcDbPolyline
 90
        8
 70
     0
 43
0.0
 10
121.140648
 20
82.431906
 10
121.172888
 20
82.541401
 10
121.228544
 20
82.640859
 10
121.303956
 20
82.72452
 10
121.396494
 20
82.789624
 10
121.499717
 20
82.83186
 10
121.610215
 20
82.850068
 10
121.72088
 20
82.84318
  0
LINE
  5
35D
100
AcDbEntity
  8
ALPHA
100
AcDbLine
 10
121.064548
 20
82.000322
 30
0.0
 11
121.140648
 21
82.431906
 31
0.0
  0
LINE
  5
35E
100
AcDbEntity
  8
ALPHA
100
AcDbLine
 10
120.853792
 20
80.805064
 30
0.0
 11
120.956188
 21
81.385781
 31
0.0
  0
LINE
  5
35F
100
AcDbEntity
  8
ALPHA
100
AcDbLine
 10
121.140648
 20
82.431906
 30
0.0
 11
121.223434
 21
82.901407
 31
0.0
  0
LINE
  5
360
100
AcDbEntity
  8
ALPHA
100
AcDbLine
 10
120.956188
 20
81.385781
 30
0.0
 11
121.036612
 21
81.84189
 31
0.0
  0
LINE
  5
361
100
AcDbEntity
  8
ALPHA
100
AcDbLine
 10
123.408745
 20
80.897995
 30
0.0
 11
123.405221
 21
80.87801
 31
0.0
  0
LINE
  5
362
100
AcDbEntity
  8
ALPHA
100
AcDbLine
 10
123.617586
 20
82.08239
 30
0.0
 11
123.616455
 21
82.075975
 31
0.0
  0
LINE
  5
363
100
AcDbEntity
  8
ALPHA
100
AcDbLine
 10
121.036612
 20
81.84189
 30
0.0
 11
121.064548
 21
82.000322
 31
0.0
  0
LINE
  5
364
100
AcDbEntity
  8
ALPHA
100
AcDbLine
 10
121.064548
 20
82.000322
 30
0.0
 11
121.140648
 21
82.431906
 31
0.0
  0
LINE
  5
365
100
AcDbEntity
  8
ALPHA
100
AcDbLine
 10
120.956188
 20
81.385781
 30
0.0
 11
121.036612
 21
81.84189
 31
0.0
  0
LINE
  5
366
100
AcDbEntity
  8
ALPHA
100
AcDbLine
 10
123.408745
 20
80.897995
 30
0.0
 11
123.616455
 21
82.075975
 31
0.0
  0
ENDSEC
  0
SECTION
  2
OBJECTS
  0
DICTIONARY
  5
539
100
AcDbDictionary
  3
ACAD_GROUP
350
53A
  3
ACAD_MLINESTYLE
350
547
  3
ACDBVARIABLEDICTIONARY
350
555
  0
DICTIONARY
  5
53A
102
{ACAD_REACTORS
330
539
102
}
100
AcDbDictionary
  0
DICTIONARY
  5
547
102
{ACAD_REACTORS
330
539
102
}
100
AcDbDictionary
  3
STANDARD
350
548
  0
DICTIONARY
  5
555
102
{ACAD_REACTORS
330
539
102
}
100
AcDbDictionary
  3
DIMADEC
350
556
  0
MLINESTYLE
  5
548
102
{ACAD_REACTORS
330
547
102
}
100
AcDbMlineStyle
  2
STANDARD
 70
     0
  3

 62
   256
 51
90.0
 52
90.0
 71
     2
 49
0.5
 62
   256
  6
BYLAYER
 49
-0.5
 62
   256
  6
BYLAYER
  0
DICTIONARYVAR
  5
556
102
{ACAD_REACTORS
330
555
102
}
100
DictionaryVariables
280
     0
  1
0
  0
ENDSEC
  0
EOF
