  0
SECTION
  2
HEADER
  9
$ACADVER
  1
AC1014
  9
$ACADMAINTVER
 70
     0
  9
$DWGCODEPAGE
  3
ANSI_1252
  9
$INSBASE
 10
0.0
 20
0.0
 30
0.0
  9
$EXTMIN
 10
22.056005
 20
67.705092
 30
0.0
  9
$EXTMAX
 10
99.88914
 20
110.633038
 30
0.0
  9
$LIMMIN
 10
0.0
 20
0.0
  9
$LIMMAX
 10
210.0
 20
297.0
  9
$ORTHOMODE
 70
     0
  9
$REGENMODE
 70
     1
  9
$FILLMODE
 70
     1
  9
$QTEXTMODE
 70
     0
  9
$MIRRTEXT
 70
     1
  9
$DRAGMODE
 70
     2
  9
$LTSCALE
 40
19.36
  9
$OSMODE
 70
     0
  9
$ATTMODE
 70
     1
  9
$TEXTSIZE
 40
0.2
  9
$TRACEWID
 40
0.05
  9
$TEXTSTYLE
  7
ROMANS
  9
$CLAYER
  8
COTATION1
  9
$CELTYPE
  6
BYLAYER
  9
$CECOLOR
 62
   256
  9
$CELTSCALE
 40
1.0
  9
$DELOBJ
 70
     1
  9
$DISPSILH
 70
     0
  9
$DIMSCALE
 40
1.0
  9
$DIMASZ
 40
3.0
  9
$DIMEXO
 40
0.0625
  9
$DIMDLI
 40
0.38
  9
$DIMRND
 40
0.01
  9
$DIMDLE
 40
0.0
  9
$DIMEXE
 40
0.18
  9
$DIMTP
 40
0.0
  9
$DIMTM
 40
0.0
  9
$DIMTXT
 40
2.5
  9
$DIMCEN
 40
0.09
  9
$DIMTSZ
 40
0.0
  9
$DIMTOL
 70
     0
  9
$DIMLIM
 70
     0
  9
$DIMTIH
 70
     0
  9
$DIMTOH
 70
     0
  9
$DIMSE1
 70
     0
  9
$DIMSE2
 70
     0
  9
$DIMTAD
 70
     1
  9
$DIMZIN
 70
    12
  9
$DIMBLK
  1

  9
$DIMASO
 70
     1
  9
$DIMSHO
 70
     1
  9
$DIMPOST
  1

  9
$DIMAPOST
  1

  9
$DIMALT
 70
     0
  9
$DIMALTD
 70
     2
  9
$DIMALTF
 40
25.4
  9
$DIMLFAC
 40
1.0
  9
$DIMTOFL
 70
     1
  9
$DIMTVP
 40
0.0
  9
$DIMTIX
 70
     0
  9
$DIMSOXD
 70
     0
  9
$DIMSAH
 70
     0
  9
$DIMBLK1
  1

  9
$DIMBLK2
  1

  9
$DIMSTYLE
  2
SC_STAND
  9
$DIMCLRD
 70
     0
  9
$DIMCLRE
 70
     0
  9
$DIMCLRT
 70
     0
  9
$DIMTFAC
 40
1.0
  9
$DIMGAP
 40
1.0
  9
$DIMJUST
 70
     0
  9
$DIMSD1
 70
     0
  9
$DIMSD2
 70
     0
  9
$DIMTOLJ
 70
     1
  9
$DIMTZIN
 70
    12
  9
$DIMALTZ
 70
    12
  9
$DIMALTTZ
 70
    12
  9
$DIMFIT
 70
     5
  9
$DIMUPT
 70
     0
  9
$DIMUNIT
 70
     2
  9
$DIMDEC
 70
     4
  9
$DIMTDEC
 70
     4
  9
$DIMALTU
 70
     2
  9
$DIMALTTD
 70
     2
  9
$DIMTXSTY
  7
ROMANS
  9
$DIMAUNIT
 70
     0
  9
$LUNITS
 70
     2
  9
$LUPREC
 70
     4
  9
$SKETCHINC
 40
0.1
  9
$FILLETRAD
 40
0.0
  9
$AUNITS
 70
     0
  9
$AUPREC
 70
     0
  9
$MENU
  1
acad
  9
$ELEVATION
 40
0.0
  9
$PELEVATION
 40
0.0
  9
$THICKNESS
 40
0.0
  9
$LIMCHECK
 70
     0
  9
$BLIPMODE
 70
     1
  9
$CHAMFERA
 40
0.0
  9
$CHAMFERB
 40
0.0
  9
$CHAMFERC
 40
0.0
  9
$CHAMFERD
 40
0.0
  9
$SKPOLY
 70
     0
  9
$TDCREATE
 40
2450584.712326967
  9
$TDUPDATE
 40
2451387.895510301
  9
$TDINDWG
 40
0.0004735301
  9
$TDUSRTIMER
 40
0.0004735301
  9
$USRTIMER
 70
     1
  9
$ANGBASE
 50
0.0
  9
$ANGDIR
 70
     0
  9
$PDMODE
 70
     0
  9
$PDSIZE
 40
0.0
  9
$PLINEWID
 40
0.0
  9
$COORDS
 70
     1
  9
$SPLFRAME
 70
     0
  9
$SPLINETYPE
 70
     6
  9
$SPLINESEGS
 70
     8
  9
$ATTDIA
 70
     0
  9
$ATTREQ
 70
     1
  9
$HANDLING
 70
     1
  9
$HANDSEED
  5
488
  9
$SURFTAB1
 70
     6
  9
$SURFTAB2
 70
     6
  9
$SURFTYPE
 70
     6
  9
$SURFU
 70
     6
  9
$SURFV
 70
     6
  9
$UCSNAME
  2

  9
$UCSORG
 10
0.0
 20
0.0
 30
0.0
  9
$UCSXDIR
 10
1.0
 20
0.0
 30
0.0
  9
$UCSYDIR
 10
0.0
 20
1.0
 30
0.0
  9
$PUCSNAME
  2

  9
$PUCSORG
 10
0.0
 20
0.0
 30
0.0
  9
$PUCSXDIR
 10
1.0
 20
0.0
 30
0.0
  9
$PUCSYDIR
 10
0.0
 20
1.0
 30
0.0
  9
$USERI1
 70
     0
  9
$USERI2
 70
     0
  9
$USERI3
 70
     0
  9
$USERI4
 70
     0
  9
$USERI5
 70
     0
  9
$USERR1
 40
0.0
  9
$USERR2
 40
0.0
  9
$USERR3
 40
0.0
  9
$USERR4
 40
0.0
  9
$USERR5
 40
0.0
  9
$WORLDVIEW
 70
     1
  9
$SHADEDGE
 70
     3
  9
$SHADEDIF
 70
    70
  9
$TILEMODE
 70
     1
  9
$MAXACTVP
 70
    16
  9
$PINSBASE
 10
0.0
 20
0.0
 30
0.0
  9
$PLIMCHECK
 70
     0
  9
$PEXTMIN
 10
1.000000E+20
 20
1.000000E+20
 30
1.000000E+20
  9
$PEXTMAX
 10
-1.000000E+20
 20
-1.000000E+20
 30
-1.000000E+20
  9
$PLIMMIN
 10
0.0
 20
0.0
  9
$PLIMMAX
 10
12.0
 20
9.0
  9
$UNITMODE
 70
     0
  9
$VISRETAIN
 70
     0
  9
$PLINEGEN
 70
     0
  9
$PSLTSCALE
 70
     1
  9
$TREEDEPTH
 70
  3020
  9
$PICKSTYLE
 70
     1
  9
$CMLSTYLE
  2
STANDARD
  9
$CMLJUST
 70
     0
  9
$CMLSCALE
 40
1.0
  9
$PROXYGRAPHICS
 70
     1
  9
$MEASUREMENT
 70
     0
  0
ENDSEC
  0
SECTION
  2
CLASSES
  0
CLASS
  1
DICTIONARYVAR
  2
AcDbDictionaryVar
  3
"AutoCAD"
 90
        0
280
     0
281
     0
  0
CLASS
  1
LWPOLYLINE
  2
AcDbPolyline
  3
"AutoCAD"
 90
        0
280
     0
281
     1
  0
ENDSEC
  0
SECTION
  2
TABLES
  0
TABLE
  2
VPORT
  5
42C
100
AcDbSymbolTable
 70
     1
  0
VPORT
  5
483
100
AcDbSymbolTableRecord
100
AcDbViewportTableRecord
  2
*ACTIVE
 70
     0
 10
0.0
 20
0.0
 11
1.0
 21
1.0
 12
283.244621
 22
169.500718
 13
0.0
 23
0.0
 14
1.0
 24
1.0
 15
10.0
 25
10.0
 16
0.0
 26
0.0
 36
1.0
 17
0.0
 27
0.0
 37
0.0
 40
339.001436
 41
1.671053
 42
50.0
 43
0.0
 44
0.0
 50
0.0
 51
0.0
 71
     0
 72
   100
 73
     1
 74
     1
 75
     0
 76
     1
 77
     0
 78
     0
  0
ENDTAB
  0
TABLE
  2
LTYPE
  5
429
100
AcDbSymbolTable
 70
    23
  0
LTYPE
  5
435
100
AcDbSymbolTableRecord
100
AcDbLinetypeTableRecord
  2
BYBLOCK
 70
     0
  3

 72
    65
 73
     0
 40
0.0
  0
LTYPE
  5
436
100
AcDbSymbolTableRecord
100
AcDbLinetypeTableRecord
  2
BYLAYER
 70
     0
  3

 72
    65
 73
     0
 40
0.0
  0
LTYPE
  5
437
100
AcDbSymbolTableRecord
100
AcDbLinetypeTableRecord
  2
CONTINUOUS
 70
     0
  3
Solid line
 72
    65
 73
     0
 40
0.0
  0
LTYPE
  5
44A
100
AcDbSymbolTableRecord
100
AcDbLinetypeTableRecord
  2
AXES
 70
     0
  3
____ _ ____ _ ____ _ ____ _ ____ _ ____ _ ____ 
 72
    65
 73
     4
 40
2.0
 49
1.25
 74
     0
 49
-0.25
 74
     0
 49
0.25
 74
     0
 49
-0.25
 74
     0
  0
LTYPE
  5
44B
100
AcDbSymbolTableRecord
100
AcDbLinetypeTableRecord
  2
AXES2
 70
     0
  3
___ _ ___ _ ___ _ ___ _ ___ _ ___ _ ___ _ ___ _
 72
    65
 73
     4
 40
1.125
 49
0.75
 74
     0
 49
-0.125
 74
     0
 49
0.125
 74
     0
 49
-0.125
 74
     0
  0
LTYPE
  5
44C
100
AcDbSymbolTableRecord
100
AcDbLinetypeTableRecord
  2
AXESX2
 70
     0
  3
________  __  ________  __  ________  __  _____
 72
    65
 73
     4
 40
4.0
 49
2.5
 74
     0
 49
-0.5
 74
     0
 49
0.5
 74
     0
 49
-0.5
 74
     0
  0
LTYPE
  5
44D
100
AcDbSymbolTableRecord
100
AcDbLinetypeTableRecord
  2
TIRETPT
 70
     0
  3
__ . __ . __ . __ . __ . __ . __ . __ . __ . __
 72
    65
 73
     4
 40
1.0
 49
0.5
 74
     0
 49
-0.25
 74
     0
 49
0.0
 74
     0
 49
-0.25
 74
     0
  0
LTYPE
  5
44E
100
AcDbSymbolTableRecord
100
AcDbLinetypeTableRecord
  2
TIRETPT2
 70
     0
  3
_._._._._._._._._._._._._._._._._._._._._._._._
 72
    65
 73
     4
 40
0.5
 49
0.25
 74
     0
 49
-0.125
 74
     0
 49
0.0
 74
     0
 49
-0.125
 74
     0
  0
LTYPE
  5
44F
100
AcDbSymbolTableRecord
100
AcDbLinetypeTableRecord
  2
TIRETPTX2
 70
     0
  3
____  .  ____  .  ____  .  ____  .  ____  .  __
 72
    65
 73
     4
 40
2.0
 49
1.0
 74
     0
 49
-0.5
 74
     0
 49
0.0
 74
     0
 49
-0.5
 74
     0
  0
LTYPE
  5
450
100
AcDbSymbolTableRecord
100
AcDbLinetypeTableRecord
  2
DISCONTINU
 70
     0
  3
__ __ __ __ __ __ __ __ __ __ __ __ __ __ __ __
 72
    65
 73
     2
 40
0.75
 49
0.5
 74
     0
 49
-0.25
 74
     0
  0
LTYPE
  5
451
100
AcDbSymbolTableRecord
100
AcDbLinetypeTableRecord
  2
DISCONTINU2
 70
     0
  3
_ _ _ _ _ _ _ _ _ _ _ _ _ _ _ _ _ _ _ _ _ _ _ _
 72
    65
 73
     2
 40
0.375
 49
0.25
 74
     0
 49
-0.125
 74
     0
  0
LTYPE
  5
452
100
AcDbSymbolTableRecord
100
AcDbLinetypeTableRecord
  2
DISCONTINUX2
 70
     0
  3
____  ____  ____  ____  ____  ____  ____  ____ 
 72
    65
 73
     2
 40
1.5
 49
1.0
 74
     0
 49
-0.5
 74
     0
  0
LTYPE
  5
453
100
AcDbSymbolTableRecord
100
AcDbLinetypeTableRecord
  2
DIVISE
 70
     0
  3
____ . . ____ . . ____ . . ____ . . ____ . . __
 72
    65
 73
     6
 40
1.25
 49
0.5
 74
     0
 49
-0.25
 74
     0
 49
0.0
 74
     0
 49
-0.25
 74
     0
 49
0.0
 74
     0
 49
-0.25
 74
     0
  0
LTYPE
  5
454
100
AcDbSymbolTableRecord
100
AcDbLinetypeTableRecord
  2
DIVISE2
 70
     0
  3
__..__..__..__..__..__..__..__..__..__..__..__.
 72
    65
 73
     6
 40
0.625
 49
0.25
 74
     0
 49
-0.125
 74
     0
 49
0.0
 74
     0
 49
-0.125
 74
     0
 49
0.0
 74
     0
 49
-0.125
 74
     0
  0
LTYPE
  5
455
100
AcDbSymbolTableRecord
100
AcDbLinetypeTableRecord
  2
DIVISEX2
 70
     0
  3
________  .  .  ________  .  .  ________  .  . 
 72
    65
 73
     6
 40
2.5
 49
1.0
 74
     0
 49
-0.5
 74
     0
 49
0.0
 74
     0
 49
-0.5
 74
     0
 49
0.0
 74
     0
 49
-0.5
 74
     0
  0
LTYPE
  5
456
100
AcDbSymbolTableRecord
100
AcDbLinetypeTableRecord
  2
POINTILLE
 70
     0
  3
. . . . . . . . . . . . . . . . . . . . . . . .
 72
    65
 73
     2
 40
0.25
 49
0.0
 74
     0
 49
-0.25
 74
     0
  0
LTYPE
  5
457
100
AcDbSymbolTableRecord
100
AcDbLinetypeTableRecord
  2
POINTILLE2
 70
     0
  3
...............................................
 72
    65
 73
     2
 40
0.125
 49
0.0
 74
     0
 49
-0.125
 74
     0
  0
LTYPE
  5
458
100
AcDbSymbolTableRecord
100
AcDbLinetypeTableRecord
  2
POINTILLEX2
 70
     0
  3
.  .  .  .  .  .  .  .  .  .  .  .  .  .  .  . 
 72
    65
 73
     2
 40
0.5
 49
0.0
 74
     0
 49
-0.5
 74
     0
  0
LTYPE
  5
459
100
AcDbSymbolTableRecord
100
AcDbLinetypeTableRecord
  2
CACHE
 70
     0
  3
__ __ __ __ __ __ __ __ __ __ __ __ __ __ __ __
 72
    65
 73
     2
 40
0.375
 49
0.25
 74
     0
 49
-0.125
 74
     0
  0
LTYPE
  5
45A
100
AcDbSymbolTableRecord
100
AcDbLinetypeTableRecord
  2
CACHE2
 70
     0
  3
_ _ _ _ _ _ _ _ _ _ _ _ _ _ _ _ _ _ _ _ _ _ _ _
 72
    65
 73
     2
 40
0.1875
 49
0.125
 74
     0
 49
-0.0625
 74
     0
  0
LTYPE
  5
45B
100
AcDbSymbolTableRecord
100
AcDbLinetypeTableRecord
  2
CACHEX2
 70
     0
  3
____ ____ ____ ____ ____ ____ ____ ____ ____ __
 72
    65
 73
     2
 40
0.75
 49
0.5
 74
     0
 49
-0.25
 74
     0
  0
LTYPE
  5
45C
100
AcDbSymbolTableRecord
100
AcDbLinetypeTableRecord
  2
FANTOME
 70
     0
  3
______  __  __  ______  __  __  ______  __  __ 
 72
    65
 73
     6
 40
2.5
 49
1.25
 74
     0
 49
-0.25
 74
     0
 49
0.25
 74
     0
 49
-0.25
 74
     0
 49
0.25
 74
     0
 49
-0.25
 74
     0
  0
LTYPE
  5
45D
100
AcDbSymbolTableRecord
100
AcDbLinetypeTableRecord
  2
FANTOME2
 70
     0
  3
___ _ _ ___ _ _ ___ _ _ ___ _ _ ___ _ _ ___ _ _
 72
    65
 73
     6
 40
1.25
 49
0.625
 74
     0
 49
-0.125
 74
     0
 49
0.125
 74
     0
 49
-0.125
 74
     0
 49
0.125
 74
     0
 49
-0.125
 74
     0
  0
LTYPE
  5
45E
100
AcDbSymbolTableRecord
100
AcDbLinetypeTableRecord
  2
FANTOMEX2
 70
     0
  3
____________    ____    ____    ____________   
 72
    65
 73
     6
 40
5.0
 49
2.5
 74
     0
 49
-0.5
 74
     0
 49
0.5
 74
     0
 49
-0.5
 74
     0
 49
0.5
 74
     0
 49
-0.5
 74
     0
  0
LTYPE
  5
45F
100
AcDbSymbolTableRecord
100
AcDbLinetypeTableRecord
  2
0
 70
     0
  3
MEDUSA PEN 0
 72
    65
 73
     0
 40
0.0
  0
ENDTAB
  0
TABLE
  2
LAYER
  5
426
100
AcDbSymbolTable
 70
    21
  0
LAYER
  5
432
100
AcDbSymbolTableRecord
100
AcDbLayerTableRecord
  2
0
 70
     0
 62
     7
  6
CONTINUOUS
  0
LAYER
  5
466
100
AcDbSymbolTableRecord
100
AcDbLayerTableRecord
  2
AXE
 70
     0
 62
    80
  6
AXES2
  0
LAYER
  5
467
100
AcDbSymbolTableRecord
100
AcDbLayerTableRecord
  2
CONSTRUCTION
 70
     0
 62
     6
  6
CONTINUOUS
  0
LAYER
  5
468
100
AcDbSymbolTableRecord
100
AcDbLayerTableRecord
  2
COTATION1
 70
     0
 62
     2
  6
CONTINUOUS
  0
LAYER
  5
469
100
AcDbSymbolTableRecord
100
AcDbLayerTableRecord
  2
HACHURES
 70
     0
 62
     9
  6
CONTINUOUS
  0
LAYER
  5
46A
100
AcDbSymbolTableRecord
100
AcDbLayerTableRecord
  2
FMULT
 70
     0
 62
     6
  6
CONTINUOUS
  0
LAYER
  5
46B
100
AcDbSymbolTableRecord
100
AcDbLayerTableRecord
  2
TEXTE
 70
     0
 62
   131
  6
CONTINUOUS
  0
LAYER
  5
46C
100
AcDbSymbolTableRecord
100
AcDbLayerTableRecord
  2
FDP_CARTOUCHE
 70
     0
 62
     4
  6
CONTINUOUS
  0
LAYER
  5
46D
100
AcDbSymbolTableRecord
100
AcDbLayerTableRecord
  2
FDP_TEXTES
 70
     0
 62
     5
  6
CONTINUOUS
  0
LAYER
  5
46E
100
AcDbSymbolTableRecord
100
AcDbLayerTableRecord
  2
FDP_LOGO_MG
 70
     0
 62
    30
  6
CONTINUOUS
  0
LAYER
  5
46F
100
AcDbSymbolTableRecord
100
AcDbLayerTableRecord
  2
FDP_LOGO_SCH
 70
     0
 62
     3
  6
CONTINUOUS
  0
LAYER
  5
470
100
AcDbSymbolTableRecord
100
AcDbLayerTableRecord
  2
FDP_FDP
 70
     0
 62
     5
  6
CONTINUOUS
  0
LAYER
  5
471
100
AcDbSymbolTableRecord
100
AcDbLayerTableRecord
  2
COTATION2
 70
     0
 62
     2
  6
CONTINUOUS
  0
LAYER
  5
472
100
AcDbSymbolTableRecord
100
AcDbLayerTableRecord
  2
COTATION3
 70
     0
 62
     2
  6
CONTINUOUS
  0
LAYER
  5
473
100
AcDbSymbolTableRecord
100
AcDbLayerTableRecord
  2
COTATION4
 70
     0
 62
     2
  6
CONTINUOUS
  0
LAYER
  5
474
100
AcDbSymbolTableRecord
100
AcDbLayerTableRecord
  2
ASHADE
 70
     0
 62
     7
  6
CONTINUOUS
  0
LAYER
  5
475
100
AcDbSymbolTableRecord
100
AcDbLayerTableRecord
  2
POINTILLE_COURT
 70
     0
 62
    40
  6
CACHE2
  0
LAYER
  5
476
100
AcDbSymbolTableRecord
100
AcDbLayerTableRecord
  2
POINTILLE_MOYEN
 70
     0
 62
   140
  6
CACHE
  0
LAYER
  5
477
100
AcDbSymbolTableRecord
100
AcDbLayerTableRecord
  2
POINTILLE_LONG
 70
     0
 62
   240
  6
CACHEX2
  0
LAYER
  5
478
100
AcDbSymbolTableRecord
100
AcDbLayerTableRecord
  2
ALPHA
 70
     0
 62
   255
  6
CONTINUOUS
  0
LAYER
  5
479
100
AcDbSymbolTableRecord
100
AcDbLayerTableRecord
  2
DEFPOINTS
 70
     0
 62
     7
  6
CONTINUOUS
  0
ENDTAB
  0
TABLE
  2
STYLE
  5
427
100
AcDbSymbolTable
 70
     4
  0
STYLE
  5
433
100
AcDbSymbolTableRecord
100
AcDbTextStyleTableRecord
  2
STANDARD
 70
     0
 40
0.0
 41
1.0
 50
0.0
 71
     0
 42
0.2
  3
txt
  4

  0
STYLE
  5
447
100
AcDbSymbolTableRecord
100
AcDbTextStyleTableRecord
  2
ROMANS
 70
     0
 40
0.0
 41
1.0
 50
0.0
 71
     0
 42
2.9
  3
romans.shx
  4

  0
STYLE
  5
448
100
AcDbSymbolTableRecord
100
AcDbTextStyleTableRecord
  2
INFOCAR
 70
     0
 40
0.0
 41
1.34
 50
0.0
 71
     0
 42
2.0
  3
ROMANS.SHX
  4

  0
STYLE
  5
449
100
AcDbSymbolTableRecord
100
AcDbTextStyleTableRecord
  2
CARTOUCHE
 70
     0
 40
0.0
 41
1.0
 50
0.0
 71
     0
 42
0.2
  3
ROMANS.SHX
  4

  0
ENDTAB
  0
TABLE
  2
VIEW
  5
42A
100
AcDbSymbolTable
 70
     0
  0
ENDTAB
  0
TABLE
  2
UCS
  5
42B
100
AcDbSymbolTable
 70
     0
  0
ENDTAB
  0
TABLE
  2
APPID
  5
42D
100
AcDbSymbolTable
 70
     3
  0
APPID
  5
434
100
AcDbSymbolTableRecord
100
AcDbRegAppTableRecord
  2
ACAD
 70
     0
  0
APPID
  5
462
100
AcDbSymbolTableRecord
100
AcDbRegAppTableRecord
  2
AVE_RENDER
 70
     0
  0
APPID
  5
463
100
AcDbSymbolTableRecord
100
AcDbRegAppTableRecord
  2
AVE_MATERIAL
 70
     0
  0
ENDTAB
  0
TABLE
  2
DIMSTYLE
  5
42E
100
AcDbSymbolTable
 70
     2
  0
DIMSTYLE
105
464
100
AcDbSymbolTableRecord
100
AcDbDimStyleTableRecord
  2
STANDARD
 70
     0
  3

  4

  5

  6

  7

 40
1.0
 41
0.18
 42
0.0625
 43
0.38
 44
0.18
 45
0.0
 46
0.0
 47
0.0
 48
0.0
140
0.18
141
0.09
142
0.0
143
25.4
144
1.0
145
0.0
146
1.0
147
0.09
 71
     0
 72
     0
 73
     1
 74
     1
 75
     0
 76
     0
 77
     0
 78
     0
170
     0
171
     2
172
     0
173
     0
174
     0
175
     0
176
     0
177
     0
178
     0
270
     2
271
     4
272
     4
273
     2
274
     2
340
447
275
     0
280
     0
281
     0
282
     0
283
     1
284
    12
285
    12
286
    12
287
     5
288
     0
  0
DIMSTYLE
105
465
102
{ACAD_REACTORS
330
3F9
330
406
102
}
100
AcDbSymbolTableRecord
100
AcDbDimStyleTableRecord
  2
SC_STAND
 70
     0
  3

  4

  5

  6

  7

 40
1.0
 41
3.0
 42
0.0625
 43
0.38
 44
0.18
 45
0.01
 46
0.0
 47
0.0
 48
0.0
140
2.5
141
0.09
142
0.0
143
25.4
144
1.0
145
0.0
146
1.0
147
1.0
 71
     0
 72
     0
 73
     0
 74
     0
 75
     0
 76
     0
 77
     1
 78
    12
170
     0
171
     2
172
     1
173
     0
174
     0
175
     0
176
     0
177
     0
178
     0
270
     2
271
     4
272
     4
273
     2
274
     2
340
447
275
     0
280
     0
281
     0
282
     0
283
     1
284
    12
285
    12
286
    12
287
     5
288
     0
  0
ENDTAB
  0
TABLE
  2
BLOCK_RECORD
  5
425
100
AcDbSymbolTable
 70
     7
  0
BLOCK_RECORD
  5
43B
100
AcDbSymbolTableRecord
100
AcDbBlockTableRecord
  2
*MODEL_SPACE
  0
BLOCK_RECORD
  5
438
100
AcDbSymbolTableRecord
100
AcDbBlockTableRecord
  2
*PAPER_SPACE
  0
BLOCK_RECORD
  5
440
100
AcDbSymbolTableRecord
100
AcDbBlockTableRecord
  2
AVE_RENDER
  0
BLOCK_RECORD
  5
441
100
AcDbSymbolTableRecord
100
AcDbBlockTableRecord
  2
AVE_GLOBAL
  0
BLOCK_RECORD
  5
442
100
AcDbSymbolTableRecord
100
AcDbBlockTableRecord
  2
SCH_ISO
  0
BLOCK_RECORD
  5
445
100
AcDbSymbolTableRecord
100
AcDbBlockTableRecord
  2
*D5
  0
BLOCK_RECORD
  5
446
100
AcDbSymbolTableRecord
100
AcDbBlockTableRecord
  2
*D6
  0
ENDTAB
  0
ENDSEC
  0
SECTION
  2
BLOCKS
  0
BLOCK
  5
47C
100
AcDbEntity
  8
0
100
AcDbBlockBegin
  2
*MODEL_SPACE
 70
     0
 10
0.0
 20
0.0
 30
0.0
  3
*MODEL_SPACE
  1

  0
ENDBLK
  5
47D
100
AcDbEntity
  8
0
100
AcDbBlockEnd
  0
BLOCK
  5
47A
100
AcDbEntity
 67
     1
  8
0
100
AcDbBlockBegin
  2
*PAPER_SPACE
 70
     0
 10
0.0
 20
0.0
 30
0.0
  3
*PAPER_SPACE
  1

  0
ENDBLK
  5
47B
100
AcDbEntity
 67
     1
  8
0
100
AcDbBlockEnd
  0
BLOCK
  5
3A5
100
AcDbEntity
  8
0
100
AcDbBlockBegin
  2
AVE_RENDER
 70
     0
 10
0.0
 20
0.0
 30
0.0
  3
AVE_RENDER
  1
AVE_RENDER
  0
ENDBLK
  5
3A6
100
AcDbEntity
  8
0
100
AcDbBlockEnd
  0
BLOCK
  5
3A8
100
AcDbEntity
  8
0
100
AcDbBlockBegin
  2
AVE_GLOBAL
 70
     0
 10
0.0
 20
0.0
 30
0.0
  3
AVE_GLOBAL
  1
AVE_GLOBAL
  0
ENDBLK
  5
3A9
100
AcDbEntity
  8
0
100
AcDbBlockEnd
  0
BLOCK
  5
3E4
100
AcDbEntity
  8
0
100
AcDbBlockBegin
  2
SCH_ISO
 70
     0
 10
0.0
 20
0.0
 30
0.0
  3
SCH_ISO
  1

  0
INSERT
  5
3DB
100
AcDbEntity
  8
ASHADE
 62
     1
100
AcDbBlockReference
  2
AVE_RENDER
 10
0.0
 20
0.0
 30
0.0
1001
AVE_RENDER
1002
{
1070
     6
1000
Pref
1070
    50
1070
    20
1070
     1
1070
     0
1000

1070
    10
1070
     1
1070
    30
1040
25.4
1070
     1
1040
0.3
1040
0.7
1040
0.0
1040
10.0
1010
-1.0
1020
-1.0
1030
-1.0
1040
0.3
1070
    49
1070
     0
1070
     0
1010
1.0
1020
1.0
1030
1.0
1040
45.0
1070
     1
1070
     0
1000
WCS
1040
0.0
1002
}
  0
INSERT
  5
3DC
100
AcDbEntity
  8
ASHADE
 62
     3
100
AcDbBlockReference
  2
AVE_RENDER
 10
0.0
 20
0.0
 30
0.0
1001
AVE_RENDER
1002
{
1070
     0
1000
Full Opt
1070
     0
1070
     1
1070
     1
1070
     1
1070
     0
1070
     0
1070
     0
1070
     1
1070
     1
1040
0.0001
1040
0.0001
1002
}
  0
INSERT
  5
3DD
100
AcDbEntity
  8
ASHADE
 62
     4
100
AcDbBlockReference
  2
AVE_RENDER
 10
0.0
 20
0.0
 30
0.0
1001
AVE_RENDER
1002
{
1070
     0
1000
Quick Opt
1070
     0
1070
     1
1070
     1
1070
     1
1070
     0
1070
     0
1070
     1
1002
}
  0
INSERT
  5
3DE
100
AcDbEntity
  8
ASHADE
 62
     5
100
AcDbBlockReference
  2
AVE_RENDER
 10
0.0
 20
0.0
 30
0.0
1001
AVE_RENDER
1002
{
1070
     1
1000
Scanl Opt
1070
     2
1070
     0
1070
     2
1040
2.0
1040
4.0
1070
     0
1070
     1
1070
     0
1040
0.03
1002
}
  0
INSERT
  5
3DF
100
AcDbEntity
  8
ASHADE
 62
     6
100
AcDbBlockReference
  2
AVE_RENDER
 10
0.0
 20
0.0
 30
0.0
1001
AVE_RENDER
1002
{
1070
     2
1000
Raytr Opt
1070
     2
1070
     0
1070
     2
1040
2.0
1040
4.0
1070
     0
1070
     1
1070
     1
1040
0.03
1070
     3
1040
0.03
1002
}
  0
INSERT
  5
3E0
100
AcDbEntity
  8
ASHADE
 62
     7
100
AcDbBlockReference
  2
AVE_RENDER
 10
0.0
 20
0.0
 30
0.0
1001
AVE_RENDER
1002
{
1070
     0
1000
RFile Opt
1070
     5
1070
   640
1070
   480
1070
 10000
1070
     3
1070
    32
1070
    24
1070
     0
1070
     0
1070
     0
1070
     1
1070
     0
1070
     0
1070
     0
1002
}
  0
INSERT
  5
3E1
100
AcDbEntity
  8
ASHADE
 62
     8
100
AcDbBlockReference
  2
AVE_RENDER
 10
0.0
 20
0.0
 30
0.0
1001
AVE_RENDER
1002
{
1070
     0
1000
Fog Opt
1070
     0
1070
     0
1040
0.0
1040
1.0
1040
0.0
1040
1.0
1010
0.5
1020
0.5
1030
0.5
1002
}
  0
INSERT
  5
3E2
100
AcDbEntity
  8
ASHADE
 62
     9
100
AcDbBlockReference
  2
AVE_RENDER
 10
0.0
 20
0.0
 30
0.0
1001
AVE_RENDER
1002
{
1070
     0
1000
BG Opt
1070
     0
1070
     1
1010
0.0
1020
0.0
1030
0.0
1010
1.0
1020
0.0
1030
0.0
1010
0.0
1020
1.0
1030
0.0
1010
0.0
1020
0.0
1030
1.0
1040
0.5
1040
0.33
1040
0.0
1000

1070
     1
1000

1070
     1
1070
     1
1040
1.0
1040
1.0
1040
0.0
1040
0.0
1070
     0
1002
}
  0
INSERT
  5
3E3
100
AcDbEntity
  8
ASHADE
 62
     1
100
AcDbBlockReference
  2
AVE_GLOBAL
 10
0.0
 20
0.0
 30
0.0
1001
AVE_MATERIAL
1002
{
1000
*GLOBAL*
1000
1
1000
Finition globale.
1002
{
1002
}
1002
{
1070
    63
1002
{
1002
{
1010
-1.0
1020
-1.0
1030
-1.0
1002
}
1040
0.1
1000

1040
0.0
1002
{
1002
}
1040
0.0
1002
{
1002
}
1040
0.0
1002
}
1002
{
1002
{
1010
-1.0
1020
-1.0
1030
-1.0
1002
}
1040
0.7
1000

1040
0.0
1002
{
1002
}
1040
0.0
1002
{
1002
}
1040
0.0
1002
}
1002
{
1002
{
1010
-1.0
1020
-1.0
1030
-1.0
1002
}
1040
0.2
1000

1040
0.0
1002
{
1002
}
1040
0.0
1002
{
1002
}
1040
0.0
1002
}
1002
{
1070
     0
1002
{
1070
     1
1002
{
1040
1.0
1040
1.0
1000

1040
0.0
1002
{
1002
}
1040
0.0
1002
{
1002
}
1040
0.0
1002
}
1002
}
1040
1.0
1040
0.0
1040
0.0
1002
}
1002
{
1040
1.0
1040
1.0
1000

1040
0.0
1002
{
1002
}
1040
0.0
1002
{
1002
}
1040
0.0
1002
}
1002
{
1040
0.5
1040
1.0
1000

1040
0.0
1002
{
1002
}
1040
0.0
1002
{
1002
}
1040
0.0
1002
}
1002
{
1070
     0
1040
0.0
1002
{
1002
}
1040
1.0
1002
{
1002
}
1040
0.0
1002
}
1002
{
1040
0.0
1002
{
1002
{
1010
0.0
1020
0.0
1030
0.0
1002
}
1040
1.0
1000

1040
0.0
1002
{
1002
}
1040
0.0
1002
{
1002
}
1040
0.0
1002
}
1002
}
1002
{
1002
{
1070
     1
1002
{
1040
0.0
1040
1.0
1000

1040
0.0
1002
{
1002
}
1040
0.0
1002
{
1002
}
1040
0.0
1002
}
1002
}
1040
0.0
1002
{
1002
}
1010
1.0
1020
0.0
1030
0.0
1010
0.0
1020
1.0
1030
0.0
1010
0.0
1020
0.0
1030
1.0
1070
     0
1002
}
1002
{
1002
{
1040
1.0
1040
1.0
1002
{
1070
     1
1002
{
1040
1.0
1040
1.0
1000

1040
0.0
1002
{
1002
}
1040
0.0
1002
{
1002
}
1040
0.0
1002
}
1002
}
1002
}
1070
     0
1040
0.0
1002
{
1002
}
1002
}
1002
{
1002
}
1002
}
1002
{
1071
        3
1070
     3
1070
     0
1002
{
1070
     2
1070
     0
1070
     0
1040
0.0
1002
}
1070
     0
1070
     2
1002
{
1002
}
1002
}
1002
{
1040
8030.0
1040
190.300003
1040
0.305
1040
228.0
1040
545.0
1040
14.0
1040
17.4
1040
0.456
1002
}
1002
}
  0
ENDBLK
  5
3E5
100
AcDbEntity
  8
0
100
AcDbBlockEnd
  0
BLOCK
  5
40F
100
AcDbEntity
  8
0
100
AcDbBlockBegin
  2
*D5
 70
     1
 10
0.0
 20
0.0
 30
0.0
  3
*D5
  1

  0
LINE
  5
410
100
AcDbEntity
  8
0
  6
BYBLOCK
 62
     0
100
AcDbLine
 10
57.78914
 20
92.799164
 30
0.0
 11
57.78914
 21
68.025092
 31
0.0
  0
LINE
  5
411
100
AcDbEntity
  8
0
  6
BYBLOCK
 62
     0
100
AcDbLine
 10
42.78914
 20
101.170538
 30
0.0
 11
42.78914
 21
68.025092
 31
0.0
  0
LINE
  5
412
100
AcDbEntity
  8
0
  6
BYBLOCK
 62
     0
100
AcDbLine
 10
54.78914
 20
68.205092
 30
0.0
 11
45.78914
 21
68.205092
 31
0.0
  0
SOLID
  5
413
100
AcDbEntity
  8
0
  6
BYBLOCK
 62
     0
100
AcDbTrace
 10
54.78914
 20
68.705092
 30
0.0
 11
54.78914
 21
67.705092
 31
0.0
 12
57.78914
 22
68.205092
 32
0.0
 13
57.78914
 23
68.205092
 33
0.0
  0
SOLID
  5
414
100
AcDbEntity
  8
0
  6
BYBLOCK
 62
     0
100
AcDbTrace
 10
45.78914
 20
68.705092
 30
0.0
 11
45.78914
 21
67.705092
 31
0.0
 12
42.78914
 22
68.205092
 32
0.0
 13
42.78914
 23
68.205092
 33
0.0
  0
TEXT
  5
415
100
AcDbEntity
  8
0
  6
BYBLOCK
 62
     0
100
AcDbText
 10
47.729617
 20
69.455092
 30
0.0
 40
2.5
  1
15
  7
ROMANS
 72
     1
 11
50.28914
 21
70.705092
 31
0.0
100
AcDbText
 73
     2
  0
POINT
  5
416
100
AcDbEntity
  8
DEFPOINTS
  6
BYBLOCK
 62
     0
100
AcDbPoint
 10
57.78914
 20
92.861664
 30
0.0
  0
POINT
  5
417
100
AcDbEntity
  8
DEFPOINTS
  6
BYBLOCK
 62
     0
100
AcDbPoint
 10
42.78914
 20
101.233038
 30
0.0
  0
POINT
  5
418
100
AcDbEntity
  8
DEFPOINTS
  6
BYBLOCK
 62
     0
100
AcDbPoint
 10
42.78914
 20
68.205092
 30
0.0
  0
ENDBLK
  5
419
100
AcDbEntity
  8
0
100
AcDbBlockEnd
  0
BLOCK
  5
41A
100
AcDbEntity
  8
0
100
AcDbBlockBegin
  2
*D6
 70
     1
 10
0.0
 20
0.0
 30
0.0
  3
*D6
  1

  0
LINE
  5
41B
100
AcDbEntity
  8
0
  6
BYBLOCK
 62
     0
100
AcDbLine
 10
57.72664
 20
93.233038
 30
0.0
 11
25.626005
 21
93.233038
 31
0.0
  0
LINE
  5
41C
100
AcDbEntity
  8
0
  6
BYBLOCK
 62
     0
100
AcDbLine
 10
57.72664
 20
109.233038
 30
0.0
 11
25.626005
 21
109.233038
 31
0.0
  0
LINE
  5
41D
100
AcDbEntity
  8
0
  6
BYBLOCK
 62
     0
100
AcDbLine
 10
25.806005
 20
96.233038
 30
0.0
 11
25.806005
 21
106.233038
 31
0.0
  0
SOLID
  5
41E
100
AcDbEntity
  8
0
  6
BYBLOCK
 62
     0
100
AcDbTrace
 10
25.306005
 20
96.233038
 30
0.0
 11
26.306005
 21
96.233038
 31
0.0
 12
25.806005
 22
93.233038
 32
0.0
 13
25.806005
 23
93.233038
 33
0.0
  0
SOLID
  5
41F
100
AcDbEntity
  8
0
  6
BYBLOCK
 62
     0
100
AcDbTrace
 10
25.306005
 20
106.233038
 30
0.0
 11
26.306005
 21
106.233038
 31
0.0
 12
25.806005
 22
109.233038
 32
0.0
 13
25.806005
 23
109.233038
 33
0.0
  0
TEXT
  5
420
100
AcDbEntity
  8
0
  6
BYBLOCK
 62
     0
100
AcDbText
 10
24.556005
 20
98.673514
 30
0.0
 40
2.5
  1
16
 50
90.0
  7
ROMANS
 72
     1
 11
23.306005
 21
101.233038
 31
0.0
100
AcDbText
 73
     2
  0
POINT
  5
421
100
AcDbEntity
  8
DEFPOINTS
  6
BYBLOCK
 62
     0
100
AcDbPoint
 10
57.78914
 20
93.233038
 30
0.0
  0
POINT
  5
422
100
AcDbEntity
  8
DEFPOINTS
  6
BYBLOCK
 62
     0
100
AcDbPoint
 10
57.78914
 20
109.233038
 30
0.0
  0
POINT
  5
423
100
AcDbEntity
  8
DEFPOINTS
  6
BYBLOCK
 62
     0
100
AcDbPoint
 10
25.806005
 20
109.233038
 30
0.0
  0
ENDBLK
  5
424
100
AcDbEntity
  8
0
100
AcDbBlockEnd
  0
ENDSEC
  0
SECTION
  2
ENTITIES
  0
ARC
  5
1D
100
AcDbEntity
  8
ALPHA
100
AcDbCircle
 10
82.78914
 20
101.233038
 30
0.0
 40
40.0
100
AcDbArc
 50
169.061805
 51
190.938195
  0
ARC
  5
1E
100
AcDbEntity
  8
ALPHA
100
AcDbCircle
 10
45.48914
 20
109.908038
 30
0.0
 40
0.2
100
AcDbArc
 50
90.0
 51
154.212795
  0
ARC
  5
1F
100
AcDbEntity
  8
ALPHA
100
AcDbCircle
 10
45.48914
 20
92.558038
 30
0.0
 40
0.2
100
AcDbArc
 50
205.787205
 51
270.0
  0
ARC
  5
20
100
AcDbEntity
  8
ALPHA
100
AcDbCircle
 10
92.155649
 20
98.133038
 30
0.0
 40
0.3
100
AcDbArc
 50
90.0
 51
102.842888
  0
ARC
  5
21
100
AcDbEntity
  8
ALPHA
100
AcDbCircle
 10
92.155649
 20
98.133038
 30
0.0
 40
0.8
100
AcDbArc
 50
90.0
 51
94.790291
  0
ARC
  5
22
100
AcDbEntity
  8
ALPHA
100
AcDbCircle
 10
92.155649
 20
104.333038
 30
0.0
 40
0.3
100
AcDbArc
 50
257.157112
 51
270.0
  0
ARC
  5
23
100
AcDbEntity
  8
ALPHA
100
AcDbCircle
 10
92.155649
 20
104.333038
 30
0.0
 40
0.8
100
AcDbArc
 50
265.209709
 51
270.0
  0
ARC
  5
24
100
AcDbEntity
  8
ALPHA
100
AcDbCircle
 10
69.43914
 20
109.483038
 30
0.0
 40
0.35
100
AcDbArc
 50
0.0
 51
180.0
  0
LINE
  5
25
100
AcDbEntity
  8
ALPHA
100
AcDbLine
 10
99.88914
 20
98.530228
 30
0.0
 11
99.88914
 21
98.835847
 31
0.0
  0
LINE
  5
26
100
AcDbEntity
  8
ALPHA
100
AcDbLine
 10
99.88914
 20
94.730228
 30
0.0
 11
99.88914
 21
95.035847
 31
0.0
  0
LINE
  5
27
100
AcDbEntity
  8
ALPHA
100
AcDbLine
 10
99.88914
 20
103.935847
 30
0.0
 11
99.88914
 21
103.630228
 31
0.0
  0
LINE
  5
28
100
AcDbEntity
  8
ALPHA
100
AcDbLine
 10
99.88914
 20
107.735847
 30
0.0
 11
99.88914
 21
107.430228
 31
0.0
  0
LINE
  5
29
100
AcDbEntity
  8
ALPHA
100
AcDbLine
 10
99.38914
 20
98.433038
 30
0.0
 11
99.38914
 21
98.933038
 31
0.0
  0
LINE
  5
2A
100
AcDbEntity
  8
ALPHA
100
AcDbLine
 10
99.38914
 20
94.633038
 30
0.0
 11
99.38914
 21
95.133038
 31
0.0
  0
LINE
  5
2B
100
AcDbEntity
  8
ALPHA
100
AcDbLine
 10
99.38914
 20
104.033038
 30
0.0
 11
99.38914
 21
103.533038
 31
0.0
  0
LINE
  5
2C
100
AcDbEntity
  8
ALPHA
100
AcDbLine
 10
99.38914
 20
107.833038
 30
0.0
 11
99.38914
 21
107.333038
 31
0.0
  0
LINE
  5
2D
100
AcDbEntity
  8
ALPHA
100
AcDbLine
 10
99.28914
 20
103.523038
 30
0.0
 11
99.28914
 21
103.533038
 31
0.0
  0
LINE
  5
2E
100
AcDbEntity
  8
ALPHA
100
AcDbLine
 10
99.28914
 20
98.933038
 30
0.0
 11
99.28914
 21
98.943038
 31
0.0
  0
LINE
  5
2F
100
AcDbEntity
  8
ALPHA
100
AcDbLine
 10
92.20461
 20
103.523038
 30
0.0
 11
92.20461
 21
103.533038
 31
0.0
  0
LINE
  5
30
100
AcDbEntity
  8
ALPHA
100
AcDbLine
 10
92.20461
 20
98.933038
 30
0.0
 11
92.20461
 21
98.943038
 31
0.0
  0
LINE
  5
31
100
AcDbEntity
  8
ALPHA
100
AcDbLine
 10
92.08914
 20
93.133038
 30
0.0
 11
92.08914
 21
109.333038
 31
0.0
  0
LINE
  5
32
100
AcDbEntity
  8
ALPHA
100
AcDbLine
 10
91.68914
 20
105.119074
 30
0.0
 11
91.68914
 21
106.342712
 31
0.0
  0
LINE
  5
33
100
AcDbEntity
  8
ALPHA
100
AcDbLine
 10
91.68914
 20
96.119074
 30
0.0
 11
91.68914
 21
97.347001
 31
0.0
  0
LINE
  5
34
100
AcDbEntity
  8
ALPHA
100
AcDbLine
 10
91.68914
 20
103.433038
 30
0.0
 11
91.68914
 21
99.033038
 31
0.0
  0
LINE
  5
35
100
AcDbEntity
  8
ALPHA
100
AcDbLine
 10
91.28914
 20
96.133038
 30
0.0
 11
91.28914
 21
97.333038
 31
0.0
  0
LINE
  5
36
100
AcDbEntity
  8
ALPHA
100
AcDbLine
 10
91.28914
 20
96.119074
 30
0.0
 11
91.28914
 21
96.033038
 31
0.0
  0
LINE
  5
37
100
AcDbEntity
  8
ALPHA
100
AcDbLine
 10
91.28914
 20
97.433038
 30
0.0
 11
91.28914
 21
97.347001
 31
0.0
  0
LINE
  5
38
100
AcDbEntity
  8
ALPHA
100
AcDbLine
 10
91.28914
 20
105.119074
 30
0.0
 11
91.28914
 21
105.033038
 31
0.0
  0
LINE
  5
39
100
AcDbEntity
  8
ALPHA
100
AcDbLine
 10
91.28914
 20
106.433038
 30
0.0
 11
91.28914
 21
106.347001
 31
0.0
  0
LINE
  5
3A
100
AcDbEntity
  8
ALPHA
100
AcDbLine
 10
91.28914
 20
106.333038
 30
0.0
 11
91.28914
 21
105.133038
 31
0.0
  0
LINE
  5
3B
100
AcDbEntity
  8
ALPHA
100
AcDbLine
 10
90.88914
 20
106.433038
 30
0.0
 11
90.88914
 21
108.933038
 31
0.0
  0
LINE
  5
3C
100
AcDbEntity
  8
ALPHA
100
AcDbLine
 10
90.88914
 20
103.433038
 30
0.0
 11
90.88914
 21
105.033038
 31
0.0
  0
LINE
  5
3D
100
AcDbEntity
  8
ALPHA
100
AcDbLine
 10
90.88914
 20
97.433038
 30
0.0
 11
90.88914
 21
99.033038
 31
0.0
  0
LINE
  5
3E
100
AcDbEntity
  8
ALPHA
100
AcDbLine
 10
90.88914
 20
93.533038
 30
0.0
 11
90.88914
 21
96.033038
 31
0.0
  0
LINE
  5
3F
100
AcDbEntity
  8
ALPHA
100
AcDbLine
 10
90.634721
 20
105.133038
 30
0.0
 11
90.634721
 21
106.333038
 31
0.0
  0
LINE
  5
40
100
AcDbEntity
  8
ALPHA
100
AcDbLine
 10
90.634721
 20
96.133038
 30
0.0
 11
90.634721
 21
97.333038
 31
0.0
  0
LINE
  5
41
100
AcDbEntity
  8
ALPHA
100
AcDbLine
 10
90.399001
 20
105.127337
 30
0.0
 11
90.399001
 21
106.338739
 31
0.0
  0
LINE
  5
42
100
AcDbEntity
  8
ALPHA
100
AcDbLine
 10
90.399001
 20
96.127337
 30
0.0
 11
90.399001
 21
97.338739
 31
0.0
  0
LINE
  5
43
100
AcDbEntity
  8
ALPHA
100
AcDbLine
 10
90.08914
 20
97.433038
 30
0.0
 11
90.08914
 21
96.033038
 31
0.0
  0
LINE
  5
44
100
AcDbEntity
  8
ALPHA
100
AcDbLine
 10
90.08914
 20
106.433038
 30
0.0
 11
90.08914
 21
105.033038
 31
0.0
  0
LINE
  5
45
100
AcDbEntity
  8
ALPHA
100
AcDbLine
 10
89.68914
 20
97.433038
 30
0.0
 11
89.68914
 21
96.033038
 31
0.0
  0
LINE
  5
46
100
AcDbEntity
  8
ALPHA
100
AcDbLine
 10
89.68914
 20
106.433038
 30
0.0
 11
89.68914
 21
105.033038
 31
0.0
  0
LINE
  5
47
100
AcDbEntity
  8
ALPHA
100
AcDbLine
 10
87.88914
 20
93.083038
 30
0.0
 11
87.88914
 21
92.633038
 31
0.0
  0
LINE
  5
48
100
AcDbEntity
  8
ALPHA
100
AcDbLine
 10
87.88914
 20
109.833038
 30
0.0
 11
87.88914
 21
109.383038
 31
0.0
  0
LINE
  5
49
100
AcDbEntity
  8
ALPHA
100
AcDbLine
 10
86.68914
 20
93.533038
 30
0.0
 11
86.68914
 21
93.483038
 31
0.0
  0
LINE
  5
4A
100
AcDbEntity
  8
ALPHA
100
AcDbLine
 10
86.68914
 20
108.983038
 30
0.0
 11
86.68914
 21
108.933038
 31
0.0
  0
LINE
  5
4B
100
AcDbEntity
  8
ALPHA
100
AcDbLine
 10
90.28914
 20
93.533038
 30
0.0
 11
90.52008
 21
93.133038
 31
0.0
  0
LINE
  5
4C
100
AcDbEntity
  8
ALPHA
100
AcDbLine
 10
90.52008
 20
109.333038
 30
0.0
 11
90.28914
 21
108.933038
 31
0.0
  0
LINE
  5
4D
100
AcDbEntity
  8
ALPHA
100
AcDbLine
 10
99.88914
 20
107.735847
 30
0.0
 11
99.38914
 21
107.833038
 31
0.0
  0
LINE
  5
4E
100
AcDbEntity
  8
ALPHA
100
AcDbLine
 10
69.08914
 20
110.633038
 30
0.0
 11
67.88914
 21
110.633038
 31
0.0
  0
LINE
  5
4F
100
AcDbEntity
  8
ALPHA
100
AcDbLine
 10
50.78914
 20
110.133038
 30
0.0
 11
53.28914
 21
110.133038
 31
0.0
  0
LINE
  5
50
100
AcDbEntity
  8
ALPHA
100
AcDbLine
 10
69.08914
 20
110.133038
 30
0.0
 11
67.88914
 21
110.133038
 31
0.0
  0
LINE
  5
51
100
AcDbEntity
  8
ALPHA
100
AcDbLine
 10
45.48914
 20
110.108038
 30
0.0
 11
50.78914
 21
110.108038
 31
0.0
  0
LINE
  5
52
100
AcDbEntity
  8
ALPHA
100
AcDbLine
 10
53.28914
 20
110.005723
 30
0.0
 11
56.58914
 21
110.005723
 31
0.0
  0
LINE
  5
53
100
AcDbEntity
  8
ALPHA
100
AcDbLine
 10
71.88914
 20
109.833038
 30
0.0
 11
87.88914
 21
109.833038
 31
0.0
  0
LINE
  5
54
100
AcDbEntity
  8
ALPHA
100
AcDbLine
 10
56.58914
 20
109.604412
 30
0.0
 11
57.78914
 21
109.604412
 31
0.0
  0
LINE
  5
55
100
AcDbEntity
  8
ALPHA
100
AcDbLine
 10
80.08914
 20
108.933038
 30
0.0
 11
80.08914
 21
108.983038
 31
0.0
  0
LINE
  5
56
100
AcDbEntity
  8
ALPHA
100
AcDbLine
 10
80.08914
 20
93.483038
 30
0.0
 11
80.08914
 21
93.533038
 31
0.0
  0
LINE
  5
57
100
AcDbEntity
  8
ALPHA
100
AcDbLine
 10
99.88914
 20
103.935847
 30
0.0
 11
99.38914
 21
104.033038
 31
0.0
  0
LINE
  5
58
100
AcDbEntity
  8
ALPHA
100
AcDbLine
 10
90.399001
 20
106.338739
 30
0.0
 11
90.08914
 21
106.388194
 31
0.0
  0
LINE
  5
59
100
AcDbEntity
  8
ALPHA
100
AcDbLine
 10
69.88914
 20
109.508038
 30
0.0
 11
71.88914
 21
109.508038
 31
0.0
  0
LINE
  5
5A
100
AcDbEntity
  8
ALPHA
100
AcDbLine
 10
92.08914
 20
109.333038
 30
0.0
 11
90.52008
 21
109.333038
 31
0.0
  0
LINE
  5
5B
100
AcDbEntity
  8
ALPHA
100
AcDbLine
 10
63.28914
 20
109.233038
 30
0.0
 11
57.78914
 21
109.233038
 31
0.0
  0
LINE
  5
5C
100
AcDbEntity
  8
ALPHA
100
AcDbLine
 10
69.78914
 20
109.133038
 30
0.0
 11
69.88914
 21
109.133038
 31
0.0
  0
LINE
  5
5D
100
AcDbEntity
  8
ALPHA
100
AcDbLine
 10
71.88914
 20
108.983038
 30
0.0
 11
87.19632
 21
108.983038
 31
0.0
  0
LINE
  5
5E
100
AcDbEntity
  8
ALPHA
100
AcDbLine
 10
92.08914
 20
108.933038
 30
0.0
 11
76.08914
 21
108.933038
 31
0.0
  0
LINE
  5
5F
100
AcDbEntity
  8
ALPHA
100
AcDbLine
 10
53.28914
 20
108.927741
 30
0.0
 11
57.78914
 21
108.927741
 31
0.0
  0
LINE
  5
60
100
AcDbEntity
  8
ALPHA
100
AcDbLine
 10
44.58914
 20
108.823038
 30
0.0
 11
43.515843
 21
108.823038
 31
0.0
  0
LINE
  5
61
100
AcDbEntity
  8
ALPHA
100
AcDbLine
 10
53.28914
 20
108.763312
 30
0.0
 11
57.78914
 21
108.763312
 31
0.0
  0
LINE
  5
62
100
AcDbEntity
  8
ALPHA
100
AcDbLine
 10
44.58914
 20
108.623038
 30
0.0
 11
44.68789
 21
108.623038
 31
0.0
  0
LINE
  5
63
100
AcDbEntity
  8
ALPHA
100
AcDbLine
 10
63.91414
 20
108.608038
 30
0.0
 11
57.78914
 21
108.608038
 31
0.0
  0
LINE
  5
64
100
AcDbEntity
  8
ALPHA
100
AcDbLine
 10
64.78914
 20
108.608038
 30
0.0
 11
63.91414
 21
108.608038
 31
0.0
  0
LINE
  5
65
100
AcDbEntity
  8
ALPHA
100
AcDbLine
 10
44.659236
 20
108.554793
 30
0.0
 11
44.58914
 21
108.554793
 31
0.0
  0
LINE
  5
66
100
AcDbEntity
  8
ALPHA
100
AcDbLine
 10
67.28914
 20
108.492557
 30
0.0
 11
64.78914
 21
108.492557
 31
0.0
  0
LINE
  5
67
100
AcDbEntity
  8
ALPHA
100
AcDbLine
 10
67.88914
 20
108.477044
 30
0.0
 11
69.08914
 21
108.477044
 31
0.0
  0
LINE
  5
68
100
AcDbEntity
  8
ALPHA
100
AcDbLine
 10
67.88914
 20
108.183038
 30
0.0
 11
67.28914
 21
108.183038
 31
0.0
  0
LINE
  5
69
100
AcDbEntity
  8
ALPHA
100
AcDbLine
 10
75.88914
 20
108.183038
 30
0.0
 11
75.48914
 21
108.183038
 31
0.0
  0
LINE
  5
6A
100
AcDbEntity
  8
ALPHA
100
AcDbLine
 10
53.28914
 20
108.067376
 30
0.0
 11
57.78914
 21
108.067376
 31
0.0
  0
LINE
  5
6B
100
AcDbEntity
  8
ALPHA
100
AcDbLine
 10
76.08914
 20
108.058038
 30
0.0
 11
75.58914
 21
108.058038
 31
0.0
  0
LINE
  5
6C
100
AcDbEntity
  8
ALPHA
100
AcDbLine
 10
75.58914
 20
108.033038
 30
0.0
 11
75.48914
 21
108.033038
 31
0.0
  0
LINE
  5
6D
100
AcDbEntity
  8
ALPHA
100
AcDbLine
 10
99.38914
 20
107.833038
 30
0.0
 11
92.08914
 21
107.833038
 31
0.0
  0
LINE
  5
6E
100
AcDbEntity
  8
ALPHA
100
AcDbLine
 10
43.473876
 20
107.625775
 30
0.0
 11
44.146717
 21
107.625775
 31
0.0
  0
LWPOLYLINE
  5
6F
100
AcDbEntity
  8
ALPHA
100
AcDbPolyline
 90
       15
 70
     0
 43
0.0
 10
43.473876
 20
107.625775
 10
43.452617
 20
107.624642
 10
43.43157
 20
107.62125
 10
43.4121
 20
107.615996
 10
43.392496
 20
107.60847
 10
43.375297
 20
107.599793
 10
43.358482
 20
107.589128
 10
43.342406
 20
107.576492
 10
43.32906
 20
107.563718
 10
43.316224
 20
107.548843
 10
43.30423
 20
107.531701
 10
43.294949
 20
107.515135
 10
43.287081
 20
107.497243
 10
43.280752
 20
107.477765
 10
43.276312
 20
107.456895
  0
LINE
  5
80
100
AcDbEntity
  8
ALPHA
100
AcDbLine
 10
90.399001
 20
106.338739
 30
0.0
 11
90.634721
 21
106.333038
 31
0.0
  0
LINE
  5
81
100
AcDbEntity
  8
ALPHA
100
AcDbLine
 10
91.28914
 20
105.133038
 30
0.0
 11
91.68914
 21
105.123363
 31
0.0
  0
LINE
  5
82
100
AcDbEntity
  8
ALPHA
100
AcDbLine
 10
99.38914
 20
107.333038
 30
0.0
 11
92.08914
 21
107.333038
 31
0.0
  0
LINE
  5
83
100
AcDbEntity
  8
ALPHA
100
AcDbLine
 10
75.58914
 20
107.133038
 30
0.0
 11
76.38914
 21
107.133038
 31
0.0
  0
LINE
  5
84
100
AcDbEntity
  8
ALPHA
100
AcDbLine
 10
76.13914
 20
107.033038
 30
0.0
 11
76.38914
 21
107.033038
 31
0.0
  0
LINE
  5
85
100
AcDbEntity
  8
ALPHA
100
AcDbLine
 10
53.28914
 20
106.934074
 30
0.0
 11
57.78914
 21
106.934074
 31
0.0
  0
LINE
  5
86
100
AcDbEntity
  8
ALPHA
100
AcDbLine
 10
69.08914
 20
106.833038
 30
0.0
 11
67.88914
 21
106.833038
 31
0.0
  0
LINE
  5
87
100
AcDbEntity
  8
ALPHA
100
AcDbLine
 10
53.28914
 20
106.81894
 30
0.0
 11
57.78914
 21
106.81894
 31
0.0
  0
LINE
  5
88
100
AcDbEntity
  8
ALPHA
100
AcDbLine
 10
92.08914
 20
106.433038
 30
0.0
 11
89.68914
 21
106.433038
 31
0.0
  0
LINE
  5
89
100
AcDbEntity
  8
ALPHA
100
AcDbLine
 10
91.28914
 20
106.388194
 30
0.0
 11
90.08914
 21
106.388194
 31
0.0
  0
LINE
  5
8A
100
AcDbEntity
  8
ALPHA
100
AcDbLine
 10
91.28914
 20
106.347001
 30
0.0
 11
91.68914
 21
106.347001
 31
0.0
  0
LINE
  5
8B
100
AcDbEntity
  8
ALPHA
100
AcDbLine
 10
69.08914
 20
106.333038
 30
0.0
 11
67.88914
 21
106.333038
 31
0.0
  0
LINE
  5
8C
100
AcDbEntity
  8
ALPHA
100
AcDbLine
 10
91.28914
 20
106.333038
 30
0.0
 11
90.634721
 21
106.333038
 31
0.0
  0
LINE
  5
8D
100
AcDbEntity
  8
ALPHA
100
AcDbLine
 10
69.78914
 20
106.157784
 30
0.0
 11
69.88914
 21
106.157784
 31
0.0
  0
LINE
  5
8E
100
AcDbEntity
  8
ALPHA
100
AcDbLine
 10
53.28914
 20
105.705346
 30
0.0
 11
57.78914
 21
105.705346
 31
0.0
  0
LINE
  5
8F
100
AcDbEntity
  8
ALPHA
100
AcDbLine
 10
91.28914
 20
106.333038
 30
0.0
 11
91.68914
 21
106.342712
 31
0.0
  0
LWPOLYLINE
  5
90
100
AcDbEntity
  8
ALPHA
100
AcDbPolyline
 90
        4
 70
     0
 43
0.0
 10
67.172474
 20
94.214771
 10
67.22687
 20
94.233424
 10
67.281039
 20
94.25251
 10
67.334974
 20
94.272025
  0
LWPOLYLINE
  5
96
100
AcDbEntity
  8
ALPHA
100
AcDbPolyline
 90
        3
 70
     0
 43
0.0
 10
67.14539
 20
94.287064
 10
67.186086
 20
94.302423
 10
67.22664
 20
94.318025
  0
LWPOLYLINE
  5
9B
100
AcDbEntity
  8
ALPHA
100
AcDbPolyline
 90
        4
 70
     0
 43
0.0
 10
67.14539
 20
94.499795
 10
67.17254
 20
94.510333
 10
67.199624
 20
94.520981
 10
67.22664
 20
94.531739
  0
LWPOLYLINE
  5
A1
100
AcDbEntity
  8
ALPHA
100
AcDbPolyline
 90
        4
 70
     0
 43
0.0
 10
67.30789
 20
94.049653
 10
67.335037
 20
94.063114
 10
67.362122
 20
94.077019
 10
67.38914
 20
94.091367
  0
LINE
  5
A7
100
AcDbEntity
  8
ALPHA
100
AcDbLine
 10
67.87664
 20
94.201175
 30
0.0
 11
67.88914
 21
94.20745
 31
0.0
  0
LINE
  5
A8
100
AcDbEntity
  8
ALPHA
100
AcDbLine
 10
76.38914
 20
97.533038
 30
0.0
 11
76.38914
 21
95.333038
 31
0.0
  0
LINE
  5
A9
100
AcDbEntity
  8
ALPHA
100
AcDbLine
 10
76.38914
 20
107.133038
 30
0.0
 11
76.38914
 21
104.933038
 31
0.0
  0
LINE
  5
AA
100
AcDbEntity
  8
ALPHA
100
AcDbLine
 10
76.33914
 20
97.433038
 30
0.0
 11
76.33914
 21
95.433038
 31
0.0
  0
LINE
  5
AB
100
AcDbEntity
  8
ALPHA
100
AcDbLine
 10
76.33914
 20
107.033038
 30
0.0
 11
76.33914
 21
105.033038
 31
0.0
  0
LINE
  5
AC
100
AcDbEntity
  8
ALPHA
100
AcDbLine
 10
76.13914
 20
97.433038
 30
0.0
 11
76.13914
 21
95.433038
 31
0.0
  0
LINE
  5
AD
100
AcDbEntity
  8
ALPHA
100
AcDbLine
 10
76.13914
 20
107.033038
 30
0.0
 11
76.13914
 21
105.033038
 31
0.0
  0
LINE
  5
AE
100
AcDbEntity
  8
ALPHA
100
AcDbLine
 10
76.08914
 20
94.408038
 30
0.0
 11
76.08914
 21
93.533038
 31
0.0
  0
LINE
  5
AF
100
AcDbEntity
  8
ALPHA
100
AcDbLine
 10
76.08914
 20
104.008038
 30
0.0
 11
76.08914
 21
98.458038
 31
0.0
  0
LINE
  5
B0
100
AcDbEntity
  8
ALPHA
100
AcDbLine
 10
76.08914
 20
108.933038
 30
0.0
 11
76.08914
 21
108.058038
 31
0.0
  0
LINE
  5
B1
100
AcDbEntity
  8
ALPHA
100
AcDbLine
 10
75.88914
 20
108.183038
 30
0.0
 11
75.88914
 21
108.983038
 31
0.0
  0
LINE
  5
B2
100
AcDbEntity
  8
ALPHA
100
AcDbLine
 10
75.88914
 20
98.583038
 30
0.0
 11
75.88914
 21
103.883038
 31
0.0
  0
LINE
  5
B3
100
AcDbEntity
  8
ALPHA
100
AcDbLine
 10
75.88914
 20
93.483038
 30
0.0
 11
75.88914
 21
94.283038
 31
0.0
  0
LINE
  5
B4
100
AcDbEntity
  8
ALPHA
100
AcDbLine
 10
99.88914
 20
98.835847
 30
0.0
 11
99.38914
 21
98.933038
 31
0.0
  0
LINE
  5
B5
100
AcDbEntity
  8
ALPHA
100
AcDbLine
 10
99.345853
 20
98.933038
 30
0.0
 11
99.28914
 21
98.943038
 31
0.0
  0
LINE
  5
B6
100
AcDbEntity
  8
ALPHA
100
AcDbLine
 10
90.634721
 20
105.133038
 30
0.0
 11
91.28914
 21
105.133038
 31
0.0
  0
LINE
  5
B7
100
AcDbEntity
  8
ALPHA
100
AcDbLine
 10
69.08914
 20
105.133038
 30
0.0
 11
67.88914
 21
105.133038
 31
0.0
  0
LINE
  5
B8
100
AcDbEntity
  8
ALPHA
100
AcDbLine
 10
69.88914
 20
105.133038
 30
0.0
 11
69.78914
 21
105.133038
 31
0.0
  0
LINE
  5
B9
100
AcDbEntity
  8
ALPHA
100
AcDbLine
 10
91.28914
 20
105.119074
 30
0.0
 11
91.68914
 21
105.119074
 31
0.0
  0
LINE
  5
BA
100
AcDbEntity
  8
ALPHA
100
AcDbLine
 10
91.28914
 20
105.077882
 30
0.0
 11
90.08914
 21
105.077882
 31
0.0
  0
LINE
  5
BB
100
AcDbEntity
  8
ALPHA
100
AcDbLine
 10
76.13914
 20
105.033038
 30
0.0
 11
76.38914
 21
105.033038
 31
0.0
  0
LINE
  5
BC
100
AcDbEntity
  8
ALPHA
100
AcDbLine
 10
92.08914
 20
105.033038
 30
0.0
 11
89.68914
 21
105.033038
 31
0.0
  0
LINE
  5
BD
100
AcDbEntity
  8
ALPHA
100
AcDbLine
 10
75.58914
 20
104.933038
 30
0.0
 11
76.38914
 21
104.933038
 31
0.0
  0
LINE
  5
BE
100
AcDbEntity
  8
ALPHA
100
AcDbLine
 10
63.28914
 20
104.449305
 30
0.0
 11
57.78914
 21
104.449305
 31
0.0
  0
LINE
  5
BF
100
AcDbEntity
  8
ALPHA
100
AcDbLine
 10
69.08914
 20
104.421787
 30
0.0
 11
68.78914
 21
104.421787
 31
0.0
  0
LINE
  5
C0
100
AcDbEntity
  8
ALPHA
100
AcDbLine
 10
56.58914
 20
104.254643
 30
0.0
 11
57.78914
 21
104.254643
 31
0.0
  0
LINE
  5
C1
100
AcDbEntity
  8
ALPHA
100
AcDbLine
 10
92.155649
 20
104.033038
 30
0.0
 11
99.38914
 21
104.033038
 31
0.0
  0
LINE
  5
C2
100
AcDbEntity
  8
ALPHA
100
AcDbLine
 10
76.08914
 20
104.008038
 30
0.0
 11
75.58914
 21
104.008038
 31
0.0
  0
LINE
  5
C3
100
AcDbEntity
  8
ALPHA
100
AcDbLine
 10
56.58914
 20
103.983038
 30
0.0
 11
57.78914
 21
103.983038
 31
0.0
  0
LINE
  5
C4
100
AcDbEntity
  8
ALPHA
100
AcDbLine
 10
75.88914
 20
103.883038
 30
0.0
 11
75.48914
 21
103.883038
 31
0.0
  0
LINE
  5
C5
100
AcDbEntity
  8
ALPHA
100
AcDbLine
 10
99.38914
 20
103.533038
 30
0.0
 11
92.155649
 21
103.533038
 31
0.0
  0
LINE
  5
C6
100
AcDbEntity
  8
ALPHA
100
AcDbLine
 10
92.08914
 20
103.523038
 30
0.0
 11
99.28914
 21
103.523038
 31
0.0
  0
LINE
  5
C7
100
AcDbEntity
  8
ALPHA
100
AcDbLine
 10
90.399001
 20
105.127337
 30
0.0
 11
90.634721
 21
105.133038
 31
0.0
  0
LWPOLYLINE
  5
C8
100
AcDbEntity
  8
ALPHA
100
AcDbPolyline
 90
        4
 70
     0
 43
0.0
 10
66.630807
 20
94.652525
 10
66.676187
 20
94.674348
 10
66.721327
 20
94.696405
 10
66.766224
 20
94.718693
  0
LWPOLYLINE
  5
CE
100
AcDbEntity
  8
ALPHA
100
AcDbPolyline
 90
        3
 70
     0
 43
0.0
 10
66.712057
 20
94.569126
 10
66.752778
 20
94.589518
 10
66.793307
 20
94.610148
  0
LWPOLYLINE
  5
D3
100
AcDbEntity
  8
ALPHA
100
AcDbPolyline
 90
        3
 70
     0
 43
0.0
 10
67.22664
 20
94.318025
 10
67.253766
 20
94.333976
 10
67.280807
 20
94.350178
  0
LWPOLYLINE
  5
D8
100
AcDbEntity
  8
ALPHA
100
AcDbPolyline
 90
        4
 70
     0
 43
0.0
 10
67.79539
 20
94.652525
 10
67.831678
 20
94.674338
 10
67.86779
 20
94.696395
 10
67.88914
 20
94.709644
  0
LINE
  5
DE
100
AcDbEntity
  8
ALPHA
100
AcDbLine
 10
67.22664
 20
94.531739
 30
0.0
 11
67.248505
 21
94.544995
 31
0.0
  0
LWPOLYLINE
  5
DF
100
AcDbEntity
  8
ALPHA
100
AcDbPolyline
 90
        3
 70
     0
 43
0.0
 10
67.22664
 20
94.091367
 10
67.253762
 20
94.108145
 10
67.280807
 20
94.125488
  0
LWPOLYLINE
  5
E4
100
AcDbEntity
  8
ALPHA
100
AcDbPolyline
 90
        4
 70
     0
 43
0.0
 10
67.71414
 20
94.214771
 10
67.741313
 20
94.233406
 10
67.768397
 20
94.252491
 10
67.79539
 20
94.272025
  0
LINE
  5
EA
100
AcDbEntity
  8
ALPHA
100
AcDbLine
 10
67.87664
 20
94.549116
 30
0.0
 11
67.88914
 21
94.558352
 31
0.0
  0
LINE
  5
EB
100
AcDbEntity
  8
ALPHA
100
AcDbLine
 10
75.58914
 20
98.458038
 30
0.0
 11
75.58914
 21
94.408038
 31
0.0
  0
LINE
  5
EC
100
AcDbEntity
  8
ALPHA
100
AcDbLine
 10
75.58914
 20
108.058038
 30
0.0
 11
75.58914
 21
104.008038
 31
0.0
  0
LINE
  5
ED
100
AcDbEntity
  8
ALPHA
100
AcDbLine
 10
75.48914
 20
98.583038
 30
0.0
 11
75.48914
 21
94.283038
 31
0.0
  0
LINE
  5
EE
100
AcDbEntity
  8
ALPHA
100
AcDbLine
 10
75.48914
 20
108.183038
 30
0.0
 11
75.48914
 21
103.883038
 31
0.0
  0
LINE
  5
EF
100
AcDbEntity
  8
ALPHA
100
AcDbLine
 10
87.19632
 20
93.483038
 30
0.0
 11
87.88914
 21
93.083038
 31
0.0
  0
LINE
  5
F0
100
AcDbEntity
  8
ALPHA
100
AcDbLine
 10
91.68914
 20
103.433038
 30
0.0
 11
90.88914
 21
103.433038
 31
0.0
  0
LINE
  5
F1
100
AcDbEntity
  8
ALPHA
100
AcDbLine
 10
75.88914
 20
103.233038
 30
0.0
 11
76.08914
 21
103.233038
 31
0.0
  0
LINE
  5
F2
100
AcDbEntity
  8
ALPHA
100
AcDbLine
 10
53.28914
 20
102.733038
 30
0.0
 11
56.58914
 21
102.733038
 31
0.0
  0
LINE
  5
F3
100
AcDbEntity
  8
ALPHA
100
AcDbLine
 10
90.399001
 20
105.127337
 30
0.0
 11
90.08914
 21
105.077882
 31
0.0
  0
LINE
  5
F4
100
AcDbEntity
  8
ALPHA
100
AcDbLine
 10
99.88914
 20
107.430228
 30
0.0
 11
99.38914
 21
107.333038
 31
0.0
  0
LINE
  5
F5
100
AcDbEntity
  8
ALPHA
100
AcDbLine
 10
87.88914
 20
109.383038
 30
0.0
 11
87.19632
 21
108.983038
 31
0.0
  0
LINE
  5
F6
100
AcDbEntity
  8
ALPHA
100
AcDbLine
 10
63.91414
 20
94.92963
 30
0.0
 11
63.28914
 21
94.47575
 31
0.0
  0
LWPOLYLINE
  5
F7
100
AcDbEntity
  8
ALPHA
100
AcDbPolyline
 90
        4
 70
     0
 43
0.0
 10
67.71414
 20
94.569126
 10
67.741359
 20
94.596462
 10
67.768443
 20
94.624263
 10
67.79539
 20
94.652525
  0
LWPOLYLINE
  5
FD
100
AcDbEntity
  8
ALPHA
100
AcDbPolyline
 90
        4
 70
     0
 43
0.0
 10
66.549557
 20
94.569126
 10
66.576776
 20
94.596462
 10
66.60386
 20
94.624263
 10
66.630807
 20
94.652525
  0
LWPOLYLINE
  5
103
100
AcDbEntity
  8
ALPHA
100
AcDbPolyline
 90
        4
 70
     0
 43
0.0
 10
67.38914
 20
94.091367
 10
67.407248
 20
94.110075
 10
67.425305
 20
94.129489
 10
67.443307
 20
94.149604
  0
LWPOLYLINE
  5
109
100
AcDbEntity
  8
ALPHA
100
AcDbPolyline
 90
        4
 70
     0
 43
0.0
 10
67.71414
 20
94.791166
 10
67.741368
 20
94.819457
 10
67.768452
 20
94.848229
 10
67.773153
 20
94.853333
  0
LWPOLYLINE
  5
10F
100
AcDbEntity
  8
ALPHA
100
AcDbPolyline
 90
        4
 70
     0
 43
0.0
 10
66.549557
 20
94.791166
 10
66.576785
 20
94.819457
 10
66.603869
 20
94.848229
 10
66.60857
 20
94.853333
  0
LWPOLYLINE
  5
115
100
AcDbEntity
  8
ALPHA
100
AcDbPolyline
 90
        8
 70
     0
 43
0.0
 10
65.84539
 20
94.012191
 10
65.909961
 20
94.080573
 10
65.973833
 20
94.161209
 10
66.036887
 20
94.253927
 10
66.099011
 20
94.358537
 10
66.160096
 20
94.474825
 10
66.220036
 20
94.602554
 10
66.278724
 20
94.741457
  0
LWPOLYLINE
  5
11F
100
AcDbEntity
  8
ALPHA
100
AcDbPolyline
 90
        3
 70
     0
 43
0.0
 10
66.65789
 20
94.510083
 10
66.685043
 20
94.539311
 10
66.712057
 20
94.569126
  0
LWPOLYLINE
  5
124
100
AcDbEntity
  8
ALPHA
100
AcDbPolyline
 90
        5
 70
     0
 43
0.0
 10
65.737057
 20
94.049653
 10
65.799198
 20
94.124115
 10
65.860612
 20
94.210472
 10
65.921185
 20
94.308545
 10
65.980807
 20
94.418126
  0
LWPOLYLINE
  5
12B
100
AcDbEntity
  8
ALPHA
100
AcDbPolyline
 90
        3
 70
     0
 43
0.0
 10
67.280807
 20
94.125488
 10
67.294367
 20
94.143496
 10
67.30789
 20
94.162077
  0
LWPOLYLINE
  5
130
100
AcDbEntity
  8
ALPHA
100
AcDbPolyline
 90
        3
 70
     0
 43
0.0
 10
67.849557
 20
94.162077
 10
67.863118
 20
94.181338
 10
67.87664
 20
94.201175
  0
LWPOLYLINE
  5
135
100
AcDbEntity
  8
ALPHA
100
AcDbPolyline
 90
        3
 70
     0
 43
0.0
 10
67.687057
 20
94.174829
 10
67.700619
 20
94.194512
 10
67.71414
 20
94.214771
  0
LINE
  5
13A
100
AcDbEntity
  8
ALPHA
100
AcDbLine
 10
67.687057
 20
94.384074
 30
0.0
 11
67.697028
 21
94.398939
 31
0.0
  0
LINE
  5
13B
100
AcDbEntity
  8
ALPHA
100
AcDbLine
 10
71.88914
 20
92.633038
 30
0.0
 11
71.88914
 21
109.833038
 31
0.0
  0
LINE
  5
13C
100
AcDbEntity
  8
ALPHA
100
AcDbLine
 10
63.91414
 20
108.608038
 30
0.0
 11
63.28914
 21
109.233038
 31
0.0
  0
LINE
  5
13D
100
AcDbEntity
  8
ALPHA
100
AcDbLine
 10
99.88914
 20
95.035847
 30
0.0
 11
99.38914
 21
95.133038
 31
0.0
  0
LINE
  5
13E
100
AcDbEntity
  8
ALPHA
100
AcDbLine
 10
90.08914
 20
97.388194
 30
0.0
 11
90.399001
 21
97.338739
 31
0.0
  0
LINE
  5
13F
100
AcDbEntity
  8
ALPHA
100
AcDbLine
 10
53.28914
 20
99.733038
 30
0.0
 11
56.58914
 21
99.733038
 31
0.0
  0
LINE
  5
140
100
AcDbEntity
  8
ALPHA
100
AcDbLine
 10
63.28914
 20
96.950624
 30
0.0
 11
63.91414
 21
97.404503
 31
0.0
  0
LINE
  5
141
100
AcDbEntity
  8
ALPHA
100
AcDbLine
 10
63.91414
 20
93.858038
 30
0.0
 11
63.28914
 21
93.233038
 31
0.0
  0
LWPOLYLINE
  5
142
100
AcDbEntity
  8
ALPHA
100
AcDbPolyline
 90
        3
 70
     0
 43
0.0
 10
65.737057
 20
94.255143
 10
65.799281
 20
94.331933
 10
65.858751
 20
94.418126
  0
LWPOLYLINE
  5
147
100
AcDbEntity
  8
ALPHA
100
AcDbPolyline
 90
        4
 70
     0
 43
0.0
 10
66.49539
 20
94.472347
 10
66.513538
 20
94.503866
 10
66.531594
 20
94.536128
 10
66.549557
 20
94.569126
  0
LWPOLYLINE
  5
14D
100
AcDbEntity
  8
ALPHA
100
AcDbPolyline
 90
        4
 70
     0
 43
0.0
 10
66.49539
 20
94.6911
 10
66.513544
 20
94.723691
 10
66.5316
 20
94.757047
 10
66.549557
 20
94.791166
  0
LWPOLYLINE
  5
153
100
AcDbEntity
  8
ALPHA
100
AcDbPolyline
 90
        3
 70
     0
 43
0.0
 10
67.280807
 20
94.350178
 10
67.294375
 20
94.375133
 10
67.30789
 20
94.400678
  0
LWPOLYLINE
  5
158
100
AcDbEntity
  8
ALPHA
100
AcDbPolyline
 90
        3
 70
     0
 43
0.0
 10
66.630807
 20
94.453958
 10
66.644378
 20
94.481721
 10
66.65789
 20
94.510083
  0
LWPOLYLINE
  5
15D
100
AcDbEntity
  8
ALPHA
100
AcDbPolyline
 90
        3
 70
     0
 43
0.0
 10
67.849557
 20
94.491054
 10
67.863129
 20
94.519785
 10
67.87664
 20
94.549116
  0
LWPOLYLINE
  5
162
100
AcDbEntity
  8
ALPHA
100
AcDbPolyline
 90
        3
 70
     0
 43
0.0
 10
67.687057
 20
94.510083
 10
67.70063
 20
94.539303
 10
67.71414
 20
94.569126
  0
LWPOLYLINE
  5
167
100
AcDbEntity
  8
ALPHA
100
AcDbPolyline
 90
        4
 70
     0
 43
0.0
 10
67.687057
 20
94.730106
 10
67.696114
 20
94.750182
 10
67.705142
 20
94.770536
 10
67.71414
 20
94.791166
  0
LWPOLYLINE
  5
16D
100
AcDbEntity
  8
ALPHA
100
AcDbPolyline
 90
        4
 70
     0
 43
0.0
 10
67.30789
 20
94.162077
 10
67.316953
 20
94.187962
 10
67.325981
 20
94.214879
 10
67.334974
 20
94.242821
  0
LWPOLYLINE
  5
173
100
AcDbEntity
  8
ALPHA
100
AcDbPolyline
 90
        4
 70
     0
 43
0.0
 10
67.443307
 20
94.149604
 10
67.452375
 20
94.179276
 10
67.461403
 20
94.210351
 10
67.47039
 20
94.242821
  0
LINE
  5
179
100
AcDbEntity
  8
ALPHA
100
AcDbLine
 10
69.88914
 20
96.308291
 30
0.0
 11
69.88914
 21
106.157784
 31
0.0
  0
LINE
  5
17A
100
AcDbEntity
  8
ALPHA
100
AcDbLine
 10
69.88914
 20
109.508038
 30
0.0
 11
69.88914
 21
109.133038
 31
0.0
  0
LINE
  5
17B
100
AcDbEntity
  8
ALPHA
100
AcDbLine
 10
69.78914
 20
92.09395
 30
0.0
 11
69.78914
 21
109.483038
 31
0.0
  0
LINE
  5
17C
100
AcDbEntity
  8
ALPHA
100
AcDbLine
 10
90.399001
 20
97.338739
 30
0.0
 11
90.634721
 21
97.333038
 31
0.0
  0
LINE
  5
17D
100
AcDbEntity
  8
ALPHA
100
AcDbLine
 10
76.08914
 20
99.233038
 30
0.0
 11
75.88914
 21
99.233038
 31
0.0
  0
LINE
  5
17E
100
AcDbEntity
  8
ALPHA
100
AcDbLine
 10
91.68914
 20
99.033038
 30
0.0
 11
90.88914
 21
99.033038
 31
0.0
  0
LINE
  5
17F
100
AcDbEntity
  8
ALPHA
100
AcDbLine
 10
99.28914
 20
98.943038
 30
0.0
 11
92.08914
 21
98.943038
 31
0.0
  0
LINE
  5
180
100
AcDbEntity
  8
ALPHA
100
AcDbLine
 10
99.38914
 20
98.933038
 30
0.0
 11
92.155649
 21
98.933038
 31
0.0
  0
LINE
  5
181
100
AcDbEntity
  8
ALPHA
100
AcDbLine
 10
75.88914
 20
98.583038
 30
0.0
 11
75.48914
 21
98.583038
 31
0.0
  0
LINE
  5
182
100
AcDbEntity
  8
ALPHA
100
AcDbLine
 10
56.58914
 20
98.483038
 30
0.0
 11
57.78914
 21
98.483038
 31
0.0
  0
LINE
  5
183
100
AcDbEntity
  8
ALPHA
100
AcDbLine
 10
76.08914
 20
98.458038
 30
0.0
 11
75.58914
 21
98.458038
 31
0.0
  0
LINE
  5
184
100
AcDbEntity
  8
ALPHA
100
AcDbLine
 10
92.155649
 20
98.433038
 30
0.0
 11
99.38914
 21
98.433038
 31
0.0
  0
LINE
  5
185
100
AcDbEntity
  8
ALPHA
100
AcDbLine
 10
56.58914
 20
98.211433
 30
0.0
 11
57.78914
 21
98.211433
 31
0.0
  0
LINE
  5
186
100
AcDbEntity
  8
ALPHA
100
AcDbLine
 10
69.08914
 20
98.044288
 30
0.0
 11
68.78914
 21
98.044288
 31
0.0
  0
LINE
  5
187
100
AcDbEntity
  8
ALPHA
100
AcDbLine
 10
63.28914
 20
98.01677
 30
0.0
 11
57.78914
 21
98.01677
 31
0.0
  0
LINE
  5
188
100
AcDbEntity
  8
ALPHA
100
AcDbLine
 10
75.58914
 20
97.533038
 30
0.0
 11
76.38914
 21
97.533038
 31
0.0
  0
LINE
  5
189
100
AcDbEntity
  8
ALPHA
100
AcDbLine
 10
99.345853
 20
103.533038
 30
0.0
 11
99.28914
 21
103.523038
 31
0.0
  0
LINE
  5
18A
100
AcDbEntity
  8
ALPHA
100
AcDbLine
 10
99.88914
 20
103.630228
 30
0.0
 11
99.38914
 21
103.533038
 31
0.0
  0
LWPOLYLINE
  5
18B
100
AcDbEntity
  8
ALPHA
100
AcDbPolyline
 90
        4
 70
     0
 43
0.0
 10
66.00789
 20
94.491054
 10
66.044472
 20
94.570178
 10
66.080593
 20
94.653671
 10
66.116224
 20
94.741457
  0
LWPOLYLINE
  5
191
100
AcDbEntity
  8
ALPHA
100
AcDbPolyline
 90
        3
 70
     0
 43
0.0
 10
66.00789
 20
94.710435
 10
66.044506
 20
94.792333
 10
66.070004
 20
94.853333
  0
LINE
  5
196
100
AcDbEntity
  8
ALPHA
100
AcDbLine
 10
69.08914
 20
92.09395
 30
0.0
 11
69.08914
 21
110.633038
 31
0.0
  0
LINE
  5
197
100
AcDbEntity
  8
ALPHA
100
AcDbLine
 10
68.78914
 20
104.421787
 30
0.0
 11
68.78914
 21
98.044288
 31
0.0
  0
LINE
  5
198
100
AcDbEntity
  8
ALPHA
100
AcDbLine
 10
67.88914
 20
105.133038
 30
0.0
 11
67.88914
 21
110.633038
 31
0.0
  0
LINE
  5
199
100
AcDbEntity
  8
ALPHA
100
AcDbLine
 10
67.88914
 20
92.958038
 30
0.0
 11
67.88914
 21
97.333038
 31
0.0
  0
LINE
  5
19A
100
AcDbEntity
  8
ALPHA
100
AcDbLine
 10
67.87664
 20
94.383539
 30
0.0
 11
67.87664
 21
94.549116
 31
0.0
  0
LINE
  5
19B
100
AcDbEntity
  8
ALPHA
100
AcDbLine
 10
67.87664
 20
94.102468
 30
0.0
 11
67.87664
 21
94.201175
 31
0.0
  0
LINE
  5
19C
100
AcDbEntity
  8
ALPHA
100
AcDbLine
 10
67.849557
 20
94.435885
 30
0.0
 11
67.849557
 21
94.491054
 31
0.0
  0
LINE
  5
19D
100
AcDbEntity
  8
ALPHA
100
AcDbLine
 10
67.849557
 20
94.137408
 30
0.0
 11
67.849557
 21
94.162077
 31
0.0
  0
LINE
  5
19E
100
AcDbEntity
  8
ALPHA
100
AcDbLine
 10
67.79539
 20
94.652525
 30
0.0
 11
67.79539
 21
94.853333
 31
0.0
  0
LINE
  5
19F
100
AcDbEntity
  8
ALPHA
100
AcDbLine
 10
67.79539
 20
94.272025
 30
0.0
 11
67.79539
 21
94.302396
 31
0.0
  0
LINE
  5
1A0
100
AcDbEntity
  8
ALPHA
100
AcDbLine
 10
67.71414
 20
94.569126
 30
0.0
 11
67.71414
 21
94.791166
 31
0.0
  0
LINE
  5
1A1
100
AcDbEntity
  8
ALPHA
100
AcDbLine
 10
67.71414
 20
94.214771
 30
0.0
 11
67.71414
 21
94.366706
 31
0.0
  0
LINE
  5
1A2
100
AcDbEntity
  8
ALPHA
100
AcDbLine
 10
67.687057
 20
94.418126
 30
0.0
 11
67.687057
 21
94.730106
 31
0.0
  0
LINE
  5
1A3
100
AcDbEntity
  8
ALPHA
100
AcDbLine
 10
67.687057
 20
94.125488
 30
0.0
 11
67.687057
 21
94.384074
 31
0.0
  0
LWPOLYLINE
  5
1A4
100
AcDbEntity
  8
ALPHA
100
AcDbPolyline
 90
        4
 70
     0
 43
0.0
 10
67.443307
 20
94.6911
 10
67.452276
 20
94.647553
 10
67.461305
 20
94.60549
 10
67.47039
 20
94.564922
  0
LWPOLYLINE
  5
1AA
100
AcDbEntity
  8
ALPHA
100
AcDbPolyline
 90
        6
 70
     0
 43
0.0
 10
69.08914
 20
92.09395
 10
69.106271
 20
92.017473
 10
69.155984
 20
91.948481
 10
69.233415
 20
91.893729
 10
69.330984
 20
91.858576
 10
69.43914
 20
91.846463
  0
LWPOLYLINE
  5
1B2
100
AcDbEntity
  8
ALPHA
100
AcDbPolyline
 90
        4
 70
     0
 43
0.0
 10
67.47039
 20
94.350178
 10
67.461309
 20
94.389456
 10
67.45228
 20
94.430183
 10
67.443307
 20
94.472347
  0
LWPOLYLINE
  5
1B8
100
AcDbEntity
  8
ALPHA
100
AcDbPolyline
 90
        4
 70
     0
 43
0.0
 10
67.88914
 20
96.399757
 10
66.2549
 20
96.525986
 10
62.744875
 20
96.809653
 10
61.075073
 20
96.950624
  0
LINE
  5
1BE
100
AcDbEntity
  8
ALPHA
100
AcDbLine
 10
91.28914
 20
96.133038
 30
0.0
 11
91.68914
 21
96.123363
 31
0.0
  0
LINE
  5
1BF
100
AcDbEntity
  8
ALPHA
100
AcDbLine
 10
76.13914
 20
97.433038
 30
0.0
 11
76.38914
 21
97.433038
 31
0.0
  0
LINE
  5
1C0
100
AcDbEntity
  8
ALPHA
100
AcDbLine
 10
92.08914
 20
97.433038
 30
0.0
 11
89.68914
 21
97.433038
 31
0.0
  0
LINE
  5
1C1
100
AcDbEntity
  8
ALPHA
100
AcDbLine
 10
91.28914
 20
97.388194
 30
0.0
 11
90.08914
 21
97.388194
 31
0.0
  0
LINE
  5
1C2
100
AcDbEntity
  8
ALPHA
100
AcDbLine
 10
91.68914
 20
97.347001
 30
0.0
 11
91.28914
 21
97.347001
 31
0.0
  0
LINE
  5
1C3
100
AcDbEntity
  8
ALPHA
100
AcDbLine
 10
69.08914
 20
97.333038
 30
0.0
 11
67.88914
 21
97.333038
 31
0.0
  0
LINE
  5
1C4
100
AcDbEntity
  8
ALPHA
100
AcDbLine
 10
69.88914
 20
97.333038
 30
0.0
 11
69.78914
 21
97.333038
 31
0.0
  0
LINE
  5
1C5
100
AcDbEntity
  8
ALPHA
100
AcDbLine
 10
91.28914
 20
97.333038
 30
0.0
 11
90.634721
 21
97.333038
 31
0.0
  0
LINE
  5
1C6
100
AcDbEntity
  8
ALPHA
100
AcDbLine
 10
57.78914
 20
96.950624
 30
0.0
 11
63.28914
 21
96.950624
 31
0.0
  0
LINE
  5
1C7
100
AcDbEntity
  8
ALPHA
100
AcDbLine
 10
53.28914
 20
96.760729
 30
0.0
 11
57.78914
 21
96.760729
 31
0.0
  0
LINE
  5
1C8
100
AcDbEntity
  8
ALPHA
100
AcDbLine
 10
69.88914
 20
96.308291
 30
0.0
 11
71.88914
 21
96.308291
 31
0.0
  0
LINE
  5
1C9
100
AcDbEntity
  8
ALPHA
100
AcDbLine
 10
90.634721
 20
96.133038
 30
0.0
 11
91.28914
 21
96.133038
 31
0.0
  0
LINE
  5
1CA
100
AcDbEntity
  8
ALPHA
100
AcDbLine
 10
91.28914
 20
96.119074
 30
0.0
 11
91.68914
 21
96.119074
 31
0.0
  0
LINE
  5
1CB
100
AcDbEntity
  8
ALPHA
100
AcDbLine
 10
91.28914
 20
96.077882
 30
0.0
 11
90.08914
 21
96.077882
 31
0.0
  0
LINE
  5
1CC
100
AcDbEntity
  8
ALPHA
100
AcDbLine
 10
92.08914
 20
96.033038
 30
0.0
 11
89.68914
 21
96.033038
 31
0.0
  0
LINE
  5
1CD
100
AcDbEntity
  8
ALPHA
100
AcDbLine
 10
53.28914
 20
95.647136
 30
0.0
 11
57.78914
 21
95.647136
 31
0.0
  0
LINE
  5
1CE
100
AcDbEntity
  8
ALPHA
100
AcDbLine
 10
53.28914
 20
95.532001
 30
0.0
 11
57.78914
 21
95.532001
 31
0.0
  0
LINE
  5
1CF
100
AcDbEntity
  8
ALPHA
100
AcDbLine
 10
91.28914
 20
97.333038
 30
0.0
 11
91.68914
 21
97.342712
 31
0.0
  0
LINE
  5
1D0
100
AcDbEntity
  8
ALPHA
100
AcDbLine
 10
90.399001
 20
96.127337
 30
0.0
 11
90.634721
 21
96.133038
 31
0.0
  0
LWPOLYLINE
  5
1D1
100
AcDbEntity
  8
ALPHA
100
AcDbPolyline
 90
        5
 70
     0
 43
0.0
 10
57.78914
 20
95.039299
 10
59.271675
 20
95.123016
 10
62.744875
 20
95.331826
 10
66.2549
 20
95.555513
 10
67.88914
 20
95.665504
  0
LINE
  5
1D8
100
AcDbEntity
  8
ALPHA
100
AcDbLine
 10
65.929042
 20
96.552321
 30
0.0
 11
57.78914
 21
95.964033
 31
0.0
  0
LINE
  5
1D9
100
AcDbEntity
  8
ALPHA
100
AcDbLine
 10
66.766224
 20
94.718693
 30
0.0
 11
66.90164
 21
94.741457
 31
0.0
  0
LINE
  5
1DA
100
AcDbEntity
  8
ALPHA
100
AcDbLine
 10
66.793307
 20
94.610148
 30
0.0
 11
66.874557
 21
94.631165
 31
0.0
  0
LINE
  5
1DB
100
AcDbEntity
  8
ALPHA
100
AcDbLine
 10
67.47039
 20
94.242821
 30
0.0
 11
67.47039
 21
94.564922
 31
0.0
  0
LINE
  5
1DC
100
AcDbEntity
  8
ALPHA
100
AcDbLine
 10
67.443307
 20
94.472347
 30
0.0
 11
67.443307
 21
94.6911
 31
0.0
  0
LINE
  5
1DD
100
AcDbEntity
  8
ALPHA
100
AcDbLine
 10
67.38914
 20
94.569126
 30
0.0
 11
67.38914
 21
94.791166
 31
0.0
  0
LINE
  5
1DE
100
AcDbEntity
  8
ALPHA
100
AcDbLine
 10
67.334974
 20
94.242821
 30
0.0
 11
67.334974
 21
94.272025
 31
0.0
  0
LINE
  5
1DF
100
AcDbEntity
  8
ALPHA
100
AcDbLine
 10
67.30789
 20
94.652525
 30
0.0
 11
67.30789
 21
94.853333
 31
0.0
  0
LINE
  5
1E0
100
AcDbEntity
  8
ALPHA
100
AcDbLine
 10
67.30789
 20
94.400678
 30
0.0
 11
67.30789
 21
94.453958
 31
0.0
  0
LINE
  5
1E1
100
AcDbEntity
  8
ALPHA
100
AcDbLine
 10
67.30789
 20
94.162077
 30
0.0
 11
67.30789
 21
94.262225
 31
0.0
  0
LINE
  5
1E2
100
AcDbEntity
  8
ALPHA
100
AcDbLine
 10
67.28914
 20
108.183038
 30
0.0
 11
67.28914
 21
108.492557
 31
0.0
  0
LINE
  5
1E3
100
AcDbEntity
  8
ALPHA
100
AcDbLine
 10
67.280807
 20
94.350178
 30
0.0
 11
67.280807
 21
94.510083
 31
0.0
  0
LINE
  5
1E4
100
AcDbEntity
  8
ALPHA
100
AcDbLine
 10
67.280807
 20
94.125488
 30
0.0
 11
67.280807
 21
94.252428
 31
0.0
  0
LINE
  5
1E5
100
AcDbEntity
  8
ALPHA
100
AcDbLine
 10
67.22664
 20
94.318025
 30
0.0
 11
67.22664
 21
94.531739
 31
0.0
  0
LINE
  5
1E6
100
AcDbEntity
  8
ALPHA
100
AcDbLine
 10
67.22664
 20
94.091367
 30
0.0
 11
67.22664
 21
94.233345
 31
0.0
  0
LINE
  5
1E7
100
AcDbEntity
  8
ALPHA
100
AcDbLine
 10
67.172474
 20
94.718693
 30
0.0
 11
67.172474
 21
94.853333
 31
0.0
  0
LINE
  5
1E8
100
AcDbEntity
  8
ALPHA
100
AcDbLine
 10
67.14539
 20
94.287064
 30
0.0
 11
67.14539
 21
94.499795
 31
0.0
  0
LINE
  5
1E9
100
AcDbEntity
  8
ALPHA
100
AcDbLine
 10
67.14539
 20
94.069974
 30
0.0
 11
67.14539
 21
94.212038
 31
0.0
  0
LINE
  5
1EA
100
AcDbEntity
  8
ALPHA
100
AcDbLine
 10
67.06414
 20
94.272025
 30
0.0
 11
67.06414
 21
94.484282
 31
0.0
  0
LINE
  5
1EB
100
AcDbEntity
  8
ALPHA
100
AcDbLine
 10
67.06414
 20
94.05968
 30
0.0
 11
67.06414
 21
94.20388
 31
0.0
  0
LINE
  5
1EC
100
AcDbEntity
  8
ALPHA
100
AcDbLine
 10
67.037057
 20
94.741457
 30
0.0
 11
67.037057
 21
94.853333
 31
0.0
  0
LINE
  5
1ED
100
AcDbEntity
  8
ALPHA
100
AcDbLine
 10
66.90164
 20
94.741457
 30
0.0
 11
66.90164
 21
94.853333
 31
0.0
  0
LINE
  5
1EE
100
AcDbEntity
  8
ALPHA
100
AcDbLine
 10
66.90164
 20
94.05968
 30
0.0
 11
66.90164
 21
94.201175
 31
0.0
  0
LINE
  5
1EF
100
AcDbEntity
  8
ALPHA
100
AcDbLine
 10
66.874557
 20
94.272025
 30
0.0
 11
66.874557
 21
94.484282
 31
0.0
  0
LINE
  5
1F0
100
AcDbEntity
  8
ALPHA
100
AcDbLine
 10
66.82039
 20
94.069974
 30
0.0
 11
66.82039
 21
94.209304
 31
0.0
  0
LINE
  5
1F1
100
AcDbEntity
  8
ALPHA
100
AcDbLine
 10
66.793307
 20
94.287064
 30
0.0
 11
66.793307
 21
94.499795
 31
0.0
  0
LINE
  5
1F2
100
AcDbEntity
  8
ALPHA
100
AcDbLine
 10
66.766224
 20
94.718693
 30
0.0
 11
66.766224
 21
94.853333
 31
0.0
  0
LINE
  5
1F3
100
AcDbEntity
  8
ALPHA
100
AcDbLine
 10
66.73914
 20
94.091367
 30
0.0
 11
66.73914
 21
94.223101
 31
0.0
  0
LINE
  5
1F4
100
AcDbEntity
  8
ALPHA
100
AcDbLine
 10
66.712057
 20
94.318025
 30
0.0
 11
66.712057
 21
94.531739
 31
0.0
  0
LINE
  5
1F5
100
AcDbEntity
  8
ALPHA
100
AcDbLine
 10
66.684974
 20
94.125488
 30
0.0
 11
66.684974
 21
94.239988
 31
0.0
  0
LINE
  5
1F6
100
AcDbEntity
  8
ALPHA
100
AcDbLine
 10
66.65789
 20
94.350178
 30
0.0
 11
66.65789
 21
94.510083
 31
0.0
  0
LINE
  5
1F7
100
AcDbEntity
  8
ALPHA
100
AcDbLine
 10
66.630807
 20
94.652525
 30
0.0
 11
66.630807
 21
94.853333
 31
0.0
  0
LINE
  5
1F8
100
AcDbEntity
  8
ALPHA
100
AcDbLine
 10
66.630807
 20
94.400678
 30
0.0
 11
66.630807
 21
94.453958
 31
0.0
  0
LINE
  5
1F9
100
AcDbEntity
  8
ALPHA
100
AcDbLine
 10
66.549557
 20
94.569126
 30
0.0
 11
66.549557
 21
94.791166
 31
0.0
  0
LINE
  5
1FA
100
AcDbEntity
  8
ALPHA
100
AcDbLine
 10
66.549557
 20
94.125488
 30
0.0
 11
66.549557
 21
94.302396
 31
0.0
  0
LINE
  5
1FB
100
AcDbEntity
  8
ALPHA
100
AcDbLine
 10
66.49539
 20
94.383539
 30
0.0
 11
66.49539
 21
94.6911
 31
0.0
  0
LINE
  5
1FC
100
AcDbEntity
  8
ALPHA
100
AcDbLine
 10
66.278724
 20
94.741457
 30
0.0
 11
66.278724
 21
94.853333
 31
0.0
  0
LINE
  5
1FD
100
AcDbEntity
  8
ALPHA
100
AcDbLine
 10
66.116224
 20
94.741457
 30
0.0
 11
66.116224
 21
94.853333
 31
0.0
  0
LINE
  5
1FE
100
AcDbEntity
  8
ALPHA
100
AcDbLine
 10
66.00789
 20
94.491054
 30
0.0
 11
66.00789
 21
94.710435
 31
0.0
  0
LINE
  5
1FF
100
AcDbEntity
  8
ALPHA
100
AcDbLine
 10
65.737057
 20
94.049653
 30
0.0
 11
65.737057
 21
94.255143
 31
0.0
  0
LWPOLYLINE
  5
200
100
AcDbEntity
  8
ALPHA
100
AcDbPolyline
 90
       10
 70
     0
 43
0.0
 10
63.91414
 20
102.090359
 10
63.880187
 20
102.345226
 10
63.837501
 20
102.600993
 10
63.786075
 20
102.857959
 10
63.725876
 20
103.116478
 10
63.656837
 20
103.376965
 10
63.578848
 20
103.6399
 10
63.491739
 20
103.905834
 10
63.395275
 20
104.175398
 10
63.28914
 20
104.449305
  0
LWPOLYLINE
  5
20C
100
AcDbEntity
  8
ALPHA
100
AcDbPolyline
 90
        3
 70
     0
 43
0.0
 10
67.30789
 20
94.453958
 10
67.294319
 20
94.481721
 10
67.280807
 20
94.510083
  0
LWPOLYLINE
  5
211
100
AcDbEntity
  8
ALPHA
100
AcDbPolyline
 90
        3
 70
     0
 43
0.0
 10
67.87664
 20
94.383539
 10
67.863071
 20
94.409416
 10
67.849557
 20
94.435885
  0
LWPOLYLINE
  5
216
100
AcDbEntity
  8
ALPHA
100
AcDbPolyline
 90
        4
 70
     0
 43
0.0
 10
67.38914
 20
94.791166
 10
67.407097
 20
94.757047
 10
67.425153
 20
94.723691
 10
67.443307
 20
94.6911
  0
LWPOLYLINE
  5
21C
100
AcDbEntity
  8
ALPHA
100
AcDbPolyline
 90
        3
 70
     0
 43
0.0
 10
67.71414
 20
94.366706
 10
67.700572
 20
94.39212
 10
67.687057
 20
94.418126
  0
LWPOLYLINE
  5
221
100
AcDbEntity
  8
ALPHA
100
AcDbPolyline
 90
        3
 70
     0
 43
0.0
 10
66.65789
 20
94.350178
 10
66.644323
 20
94.375133
 10
66.630807
 20
94.400678
  0
LWPOLYLINE
  5
226
100
AcDbEntity
  8
ALPHA
100
AcDbPolyline
 90
        4
 70
     0
 43
0.0
 10
67.443307
 20
94.472347
 10
67.42516
 20
94.503866
 10
67.407103
 20
94.536128
 10
67.38914
 20
94.569126
  0
LWPOLYLINE
  5
22C
100
AcDbEntity
  8
ALPHA
100
AcDbPolyline
 90
        3
 70
     0
 43
0.0
 10
67.87664
 20
94.102468
 10
67.863081
 20
94.119653
 10
67.849557
 20
94.137408
  0
LWPOLYLINE
  5
231
100
AcDbEntity
  8
ALPHA
100
AcDbPolyline
 90
        3
 70
     0
 43
0.0
 10
67.71414
 20
94.091367
 10
67.700582
 20
94.108142
 10
67.687057
 20
94.125488
  0
LWPOLYLINE
  5
236
100
AcDbEntity
  8
ALPHA
100
AcDbPolyline
 90
        4
 70
     0
 43
0.0
 10
67.330127
 20
94.853333
 10
67.334828
 20
94.848229
 10
67.361912
 20
94.819457
 10
67.38914
 20
94.791166
  0
LWPOLYLINE
  5
23C
100
AcDbEntity
  8
ALPHA
100
AcDbPolyline
 90
        3
 70
     0
 43
0.0
 10
67.280807
 20
94.510083
 10
67.253654
 20
94.539311
 10
67.22664
 20
94.569126
  0
LWPOLYLINE
  5
241
100
AcDbEntity
  8
ALPHA
100
AcDbPolyline
 90
        4
 70
     0
 43
0.0
 10
67.38914
 20
94.569126
 10
67.361922
 20
94.596462
 10
67.334837
 20
94.624263
 10
67.30789
 20
94.652525
  0
LWPOLYLINE
  5
247
100
AcDbEntity
  8
ALPHA
100
AcDbPolyline
 90
        4
 70
     0
 43
0.0
 10
67.79539
 20
94.302396
 10
67.768206
 20
94.32338
 10
67.741121
 20
94.344817
 10
67.71414
 20
94.366706
  0
LINE
  5
24D
100
AcDbEntity
  8
ALPHA
100
AcDbLine
 10
67.88914
 20
94.37577
 30
0.0
 11
67.87664
 21
94.383539
 31
0.0
  0
LWPOLYLINE
  5
24E
100
AcDbEntity
  8
ALPHA
100
AcDbPolyline
 90
        4
 70
     0
 43
0.0
 10
67.30789
 20
94.652525
 10
67.262511
 20
94.674348
 10
67.217371
 20
94.696405
 10
67.172474
 20
94.718693
  0
LINE
  5
254
100
AcDbEntity
  8
ALPHA
100
AcDbLine
 10
67.849557
 20
94.287064
 30
0.0
 11
67.79539
 21
94.302396
 31
0.0
  0
LINE
  5
255
100
AcDbEntity
  8
ALPHA
100
AcDbLine
 10
67.14539
 20
94.610148
 30
0.0
 11
67.06414
 21
94.631165
 31
0.0
  0
LINE
  5
256
100
AcDbEntity
  8
ALPHA
100
AcDbLine
 10
66.793307
 20
94.499795
 30
0.0
 11
66.874557
 21
94.484282
 31
0.0
  0
LINE
  5
257
100
AcDbEntity
  8
ALPHA
100
AcDbLine
 10
66.874557
 20
94.272025
 30
0.0
 11
66.793307
 21
94.287064
 31
0.0
  0
LINE
  5
258
100
AcDbEntity
  8
ALPHA
100
AcDbLine
 10
67.172474
 20
94.718693
 30
0.0
 11
67.037057
 21
94.741457
 31
0.0
  0
LINE
  5
259
100
AcDbEntity
  8
ALPHA
100
AcDbLine
 10
66.90164
 20
94.05968
 30
0.0
 11
66.82039
 21
94.069974
 31
0.0
  0
LINE
  5
25A
100
AcDbEntity
  8
ALPHA
100
AcDbLine
 10
66.90164
 20
94.201175
 30
0.0
 11
66.766224
 21
94.214771
 31
0.0
  0
LINE
  5
25B
100
AcDbEntity
  8
ALPHA
100
AcDbLine
 10
66.928724
 20
94.012191
 30
0.0
 11
66.793307
 21
94.021162
 31
0.0
  0
LWPOLYLINE
  5
25C
100
AcDbEntity
  8
ALPHA
100
AcDbPolyline
 90
       21
 70
     0
 43
0.0
 10
44.146717
 20
94.8403
 10
44.154981
 20
94.840136
 10
44.168342
 20
94.839172
 10
44.181775
 20
94.837325
 10
44.195044
 20
94.834615
 10
44.207965
 20
94.831104
 10
44.220469
 20
94.826847
 10
44.232508
 20
94.821904
 10
44.24405
 20
94.816333
 10
44.255082
 20
94.810178
 10
44.26559
 20
94.803484
 10
44.275567
 20
94.79629
 10
44.285007
 20
94.788624
 10
44.293909
 20
94.780502
 10
44.302277
 20
94.771929
 10
44.310097
 20
94.762906
 10
44.317322
 20
94.753468
 10
44.323895
 20
94.743661
 10
44.329754
 20
94.733547
 10
44.334832
 20
94.723205
 10
44.33825
 20
94.714938
  0
LINE
  5
273
100
AcDbEntity
  8
ALPHA
100
AcDbLine
 10
76.13914
 20
95.433038
 30
0.0
 11
76.38914
 21
95.433038
 31
0.0
  0
LINE
  5
274
100
AcDbEntity
  8
ALPHA
100
AcDbLine
 10
75.58914
 20
95.333038
 30
0.0
 11
76.38914
 21
95.333038
 31
0.0
  0
LINE
  5
275
100
AcDbEntity
  8
ALPHA
100
AcDbLine
 10
69.08914
 20
95.233038
 30
0.0
 11
67.88914
 21
95.233038
 31
0.0
  0
LINE
  5
276
100
AcDbEntity
  8
ALPHA
100
AcDbLine
 10
99.38914
 20
95.133038
 30
0.0
 11
92.08914
 21
95.133038
 31
0.0
  0
LINE
  5
277
100
AcDbEntity
  8
ALPHA
100
AcDbLine
 10
57.78914
 20
94.92963
 30
0.0
 11
63.91414
 21
94.92963
 31
0.0
  0
LINE
  5
278
100
AcDbEntity
  8
ALPHA
100
AcDbLine
 10
67.88914
 20
94.853333
 30
0.0
 11
64.38914
 21
94.853333
 31
0.0
  0
LINE
  5
279
100
AcDbEntity
  8
ALPHA
100
AcDbLine
 10
44.146717
 20
94.8403
 30
0.0
 11
43.473876
 21
94.8403
 31
0.0
  0
LINE
  5
27A
100
AcDbEntity
  8
ALPHA
100
AcDbLine
 10
64.978724
 20
94.741457
 30
0.0
 11
64.843307
 21
94.741457
 31
0.0
  0
LINE
  5
27B
100
AcDbEntity
  8
ALPHA
100
AcDbLine
 10
65.35789
 20
94.741457
 30
0.0
 11
65.19539
 21
94.741457
 31
0.0
  0
LINE
  5
27C
100
AcDbEntity
  8
ALPHA
100
AcDbLine
 10
66.278724
 20
94.741457
 30
0.0
 11
66.116224
 21
94.741457
 31
0.0
  0
LINE
  5
27D
100
AcDbEntity
  8
ALPHA
100
AcDbLine
 10
67.037057
 20
94.741457
 30
0.0
 11
66.90164
 21
94.741457
 31
0.0
  0
LINE
  5
27E
100
AcDbEntity
  8
ALPHA
100
AcDbLine
 10
65.466224
 20
94.710435
 30
0.0
 11
66.00789
 21
94.710435
 31
0.0
  0
LINE
  5
27F
100
AcDbEntity
  8
ALPHA
100
AcDbLine
 10
99.38914
 20
94.633038
 30
0.0
 11
92.08914
 21
94.633038
 31
0.0
  0
LINE
  5
280
100
AcDbEntity
  8
ALPHA
100
AcDbLine
 10
64.978724
 20
94.631165
 30
0.0
 11
64.843307
 21
94.631165
 31
0.0
  0
LINE
  5
281
100
AcDbEntity
  8
ALPHA
100
AcDbLine
 10
67.06414
 20
94.631165
 30
0.0
 11
66.874557
 21
94.631165
 31
0.0
  0
LINE
  5
282
100
AcDbEntity
  8
ALPHA
100
AcDbLine
 10
66.00789
 20
94.491054
 30
0.0
 11
65.466224
 21
94.491054
 31
0.0
  0
LINE
  5
283
100
AcDbEntity
  8
ALPHA
100
AcDbLine
 10
66.874557
 20
94.484282
 30
0.0
 11
67.06414
 21
94.484282
 31
0.0
  0
LINE
  5
284
100
AcDbEntity
  8
ALPHA
100
AcDbLine
 10
63.28914
 20
94.47575
 30
0.0
 11
57.78914
 21
94.47575
 31
0.0
  0
LINE
  5
285
100
AcDbEntity
  8
ALPHA
100
AcDbLine
 10
75.58914
 20
94.433038
 30
0.0
 11
75.48914
 21
94.433038
 31
0.0
  0
LINE
  5
286
100
AcDbEntity
  8
ALPHA
100
AcDbLine
 10
65.980807
 20
94.418126
 30
0.0
 11
65.493307
 21
94.418126
 31
0.0
  0
LINE
  5
287
100
AcDbEntity
  8
ALPHA
100
AcDbLine
 10
76.08914
 20
94.408038
 30
0.0
 11
75.58914
 21
94.408038
 31
0.0
  0
LINE
  5
288
100
AcDbEntity
  8
ALPHA
100
AcDbLine
 10
53.28914
 20
94.398699
 30
0.0
 11
57.78914
 21
94.398699
 31
0.0
  0
LINE
  5
289
100
AcDbEntity
  8
ALPHA
100
AcDbLine
 10
75.88914
 20
94.283038
 30
0.0
 11
75.48914
 21
94.283038
 31
0.0
  0
LINE
  5
28A
100
AcDbEntity
  8
ALPHA
100
AcDbLine
 10
67.06414
 20
94.272025
 30
0.0
 11
66.874557
 21
94.272025
 31
0.0
  0
LINE
  5
28B
100
AcDbEntity
  8
ALPHA
100
AcDbLine
 10
67.037057
 20
94.201175
 30
0.0
 11
66.90164
 21
94.201175
 31
0.0
  0
LINE
  5
28C
100
AcDbEntity
  8
ALPHA
100
AcDbLine
 10
64.38914
 20
94.17679
 30
0.0
 11
65.489685
 21
94.17679
 31
0.0
  0
LINE
  5
28D
100
AcDbEntity
  8
ALPHA
100
AcDbLine
 10
66.549557
 20
94.17679
 30
0.0
 11
65.984429
 21
94.17679
 31
0.0
  0
LINE
  5
28E
100
AcDbEntity
  8
ALPHA
100
AcDbLine
 10
67.687057
 20
94.17679
 30
0.0
 11
67.451615
 21
94.17679
 31
0.0
  0
LINE
  5
28F
100
AcDbEntity
  8
ALPHA
100
AcDbLine
 10
66.684974
 20
94.125488
 30
0.0
 11
66.549557
 21
94.125488
 31
0.0
  0
LINE
  5
290
100
AcDbEntity
  8
ALPHA
100
AcDbLine
 10
67.06414
 20
94.05968
 30
0.0
 11
66.90164
 21
94.05968
 31
0.0
  0
LINE
  5
291
100
AcDbEntity
  8
ALPHA
100
AcDbLine
 10
65.84539
 20
94.012191
 30
0.0
 11
65.628724
 21
94.012191
 31
0.0
  0
LINE
  5
292
100
AcDbEntity
  8
ALPHA
100
AcDbLine
 10
67.037057
 20
94.012191
 30
0.0
 11
66.928724
 21
94.012191
 31
0.0
  0
LINE
  5
293
100
AcDbEntity
  8
ALPHA
100
AcDbLine
 10
67.88914
 20
93.973518
 30
0.0
 11
64.38914
 21
93.973518
 31
0.0
  0
LINE
  5
294
100
AcDbEntity
  8
ALPHA
100
AcDbLine
 10
44.659236
 20
93.911282
 30
0.0
 11
44.58914
 21
93.911282
 31
0.0
  0
LINE
  5
295
100
AcDbEntity
  8
ALPHA
100
AcDbLine
 10
63.91414
 20
93.858038
 30
0.0
 11
57.78914
 21
93.858038
 31
0.0
  0
LINE
  5
296
100
AcDbEntity
  8
ALPHA
100
AcDbLine
 10
64.78914
 20
93.858038
 30
0.0
 11
63.91414
 21
93.858038
 31
0.0
  0
LINE
  5
297
100
AcDbEntity
  8
ALPHA
100
AcDbLine
 10
44.58914
 20
93.843038
 30
0.0
 11
44.687889
 21
93.843038
 31
0.0
  0
LINE
  5
298
100
AcDbEntity
  8
ALPHA
100
AcDbLine
 10
53.28914
 20
93.702763
 30
0.0
 11
57.78914
 21
93.702763
 31
0.0
  0
LINE
  5
299
100
AcDbEntity
  8
ALPHA
100
AcDbLine
 10
44.58914
 20
93.643038
 30
0.0
 11
43.515843
 21
93.643038
 31
0.0
  0
LINE
  5
29A
100
AcDbEntity
  8
ALPHA
100
AcDbLine
 10
53.28914
 20
93.538334
 30
0.0
 11
57.78914
 21
93.538334
 31
0.0
  0
LINE
  5
29B
100
AcDbEntity
  8
ALPHA
100
AcDbLine
 10
76.08914
 20
93.533038
 30
0.0
 11
92.08914
 21
93.533038
 31
0.0
  0
LINE
  5
29C
100
AcDbEntity
  8
ALPHA
100
AcDbLine
 10
67.037057
 20
94.012191
 30
0.0
 11
67.172474
 21
94.021162
 31
0.0
  0
LINE
  5
29D
100
AcDbEntity
  8
ALPHA
100
AcDbLine
 10
67.037057
 20
94.201175
 30
0.0
 11
67.172474
 21
94.214771
 31
0.0
  0
LINE
  5
29E
100
AcDbEntity
  8
ALPHA
100
AcDbLine
 10
67.06414
 20
94.05968
 30
0.0
 11
67.14539
 21
94.069974
 31
0.0
  0
LINE
  5
29F
100
AcDbEntity
  8
ALPHA
100
AcDbLine
 10
67.06414
 20
94.272025
 30
0.0
 11
67.14539
 21
94.287064
 31
0.0
  0
LINE
  5
2A0
100
AcDbEntity
  8
ALPHA
100
AcDbLine
 10
67.06414
 20
94.484282
 30
0.0
 11
67.14539
 21
94.499795
 31
0.0
  0
LWPOLYLINE
  5
2A1
100
AcDbEntity
  8
ALPHA
100
AcDbPolyline
 90
        4
 70
     0
 43
0.0
 10
67.172474
 20
94.021162
 10
67.21771
 20
94.030415
 10
67.26285
 20
94.039913
 10
67.30789
 20
94.049653
  0
LWPOLYLINE
  5
2A7
100
AcDbEntity
  8
ALPHA
100
AcDbPolyline
 90
        3
 70
     0
 43
0.0
 10
67.14539
 20
94.069974
 10
67.186063
 20
94.080549
 10
67.22664
 20
94.091367
  0
LINE
  5
2AC
100
AcDbEntity
  8
ALPHA
100
AcDbLine
 10
67.79539
 20
94.272025
 30
0.0
 11
67.849557
 21
94.287064
 31
0.0
  0
LWPOLYLINE
  5
2AD
100
AcDbEntity
  8
ALPHA
100
AcDbPolyline
 90
       10
 70
     0
 43
0.0
 10
63.28914
 20
98.01677
 10
63.395436
 20
98.291109
 10
63.491988
 20
98.560968
 10
63.579128
 20
98.827074
 10
63.657106
 20
99.090069
 10
63.726105
 20
99.350517
 10
63.786246
 20
99.60891
 10
63.83761
 20
99.865673
 10
63.880235
 20
100.121171
 10
63.91414
 20
100.375716
  0
LINE
  5
2B9
100
AcDbEntity
  8
ALPHA
100
AcDbLine
 10
65.466224
 20
94.491054
 30
0.0
 11
65.466224
 21
94.710435
 31
0.0
  0
LINE
  5
2BA
100
AcDbEntity
  8
ALPHA
100
AcDbLine
 10
65.35789
 20
94.741457
 30
0.0
 11
65.35789
 21
94.853333
 31
0.0
  0
LINE
  5
2BB
100
AcDbEntity
  8
ALPHA
100
AcDbLine
 10
65.19539
 20
94.741457
 30
0.0
 11
65.19539
 21
94.853333
 31
0.0
  0
LINE
  5
2BC
100
AcDbEntity
  8
ALPHA
100
AcDbLine
 10
64.978724
 20
94.631165
 30
0.0
 11
64.978724
 21
94.853333
 31
0.0
  0
LINE
  5
2BD
100
AcDbEntity
  8
ALPHA
100
AcDbLine
 10
64.843307
 20
94.631165
 30
0.0
 11
64.843307
 21
94.853333
 31
0.0
  0
LINE
  5
2BE
100
AcDbEntity
  8
ALPHA
100
AcDbLine
 10
64.78914
 20
93.858038
 30
0.0
 11
64.78914
 21
94.17679
 31
0.0
  0
LINE
  5
2BF
100
AcDbEntity
  8
ALPHA
100
AcDbLine
 10
64.78914
 20
108.608038
 30
0.0
 11
64.78914
 21
108.492557
 31
0.0
  0
LINE
  5
2C0
100
AcDbEntity
  8
ALPHA
100
AcDbLine
 10
64.38914
 20
93.973518
 30
0.0
 11
64.38914
 21
94.853333
 31
0.0
  0
LINE
  5
2C1
100
AcDbEntity
  8
ALPHA
100
AcDbLine
 10
63.91414
 20
93.858038
 30
0.0
 11
63.91414
 21
108.608038
 31
0.0
  0
LWPOLYLINE
  5
2C2
100
AcDbEntity
  8
ALPHA
100
AcDbPolyline
 90
        3
 70
     0
 43
0.0
 10
65.40411
 20
94.853333
 10
65.429608
 20
94.792333
 10
65.466224
 20
94.710435
  0
LWPOLYLINE
  5
2C7
100
AcDbEntity
  8
ALPHA
100
AcDbPolyline
 90
        4
 70
     0
 43
0.0
 10
65.466224
 20
94.491054
 10
65.429642
 20
94.570178
 10
65.393521
 20
94.653671
 10
65.35789
 20
94.741457
  0
LWPOLYLINE
  5
2CD
100
AcDbEntity
  8
ALPHA
100
AcDbPolyline
 90
        4
 70
     0
 43
0.0
 10
66.549557
 20
94.302396
 10
66.531426
 20
94.32872
 10
66.51337
 20
94.355769
 10
66.49539
 20
94.383539
  0
LWPOLYLINE
  5
2D3
100
AcDbEntity
  8
ALPHA
100
AcDbPolyline
 90
        3
 70
     0
 43
0.0
 10
65.615363
 20
94.418126
 10
65.674833
 20
94.331933
 10
65.737057
 20
94.255143
  0
LWPOLYLINE
  5
2D8
100
AcDbEntity
  8
ALPHA
100
AcDbPolyline
 90
        3
 70
     0
 43
0.0
 10
66.57664
 20
94.091367
 10
66.563082
 20
94.108142
 10
66.549557
 20
94.125488
  0
LWPOLYLINE
  5
2DD
100
AcDbEntity
  8
ALPHA
100
AcDbPolyline
 90
        5
 70
     0
 43
0.0
 10
65.737057
 20
94.049653
 10
65.674916
 20
94.124115
 10
65.613502
 20
94.210472
 10
65.552929
 20
94.308545
 10
65.493307
 20
94.418126
  0
LWPOLYLINE
  5
2E4
100
AcDbEntity
  8
ALPHA
100
AcDbPolyline
 90
        8
 70
     0
 43
0.0
 10
65.628724
 20
94.012191
 10
65.564153
 20
94.080573
 10
65.500281
 20
94.161209
 10
65.437227
 20
94.253927
 10
65.375103
 20
94.358537
 10
65.314018
 20
94.474825
 10
65.254078
 20
94.602554
 10
65.19539
 20
94.741457
  0
LWPOLYLINE
  5
2EE
100
AcDbEntity
  8
ALPHA
100
AcDbPolyline
 90
        3
 70
     0
 43
0.0
 10
66.73914
 20
94.091367
 10
66.712019
 20
94.108145
 10
66.684974
 20
94.125488
  0
LINE
  5
2F3
100
AcDbEntity
  8
ALPHA
100
AcDbLine
 10
66.690193
 20
94.544995
 30
0.0
 11
66.712057
 21
94.531739
 31
0.0
  0
LWPOLYLINE
  5
2F4
100
AcDbEntity
  8
ALPHA
100
AcDbPolyline
 90
        3
 70
     0
 43
0.0
 10
66.712057
 20
94.318025
 10
66.684932
 20
94.333976
 10
66.65789
 20
94.350178
  0
LWPOLYLINE
  5
2F9
100
AcDbEntity
  8
ALPHA
100
AcDbPolyline
 90
        4
 70
     0
 43
0.0
 10
66.630807
 20
94.257278
 10
66.603646
 20
94.272067
 10
66.576562
 20
94.287108
 10
66.549557
 20
94.302396
  0
LWPOLYLINE
  5
2FF
100
AcDbEntity
  8
ALPHA
100
AcDbPolyline
 90
        3
 70
     0
 43
0.0
 10
67.22664
 20
94.569126
 10
67.185919
 20
94.589518
 10
67.14539
 20
94.610148
  0
LWPOLYLINE
  5
304
100
AcDbEntity
  8
ALPHA
100
AcDbPolyline
 90
        4
 70
     0
 43
0.0
 10
67.79539
 20
94.049653
 10
67.768243
 20
94.063114
 10
67.741159
 20
94.077019
 10
67.71414
 20
94.091367
  0
LWPOLYLINE
  5
30A
100
AcDbEntity
  8
ALPHA
100
AcDbPolyline
 90
        4
 70
     0
 43
0.0
 10
66.65789
 20
94.049653
 10
66.630743
 20
94.063114
 10
66.603659
 20
94.077019
 10
66.57664
 20
94.091367
  0
LINE
  5
310
100
AcDbEntity
  8
ALPHA
100
AcDbLine
 10
67.88914
 20
94.097345
 30
0.0
 11
67.87664
 21
94.102468
 31
0.0
  0
LWPOLYLINE
  5
311
100
AcDbEntity
  8
ALPHA
100
AcDbPolyline
 90
        4
 70
     0
 43
0.0
 10
66.712057
 20
94.531739
 10
66.739073
 20
94.520981
 10
66.766157
 20
94.510333
 10
66.793307
 20
94.499795
  0
LWPOLYLINE
  5
317
100
AcDbEntity
  8
ALPHA
100
AcDbPolyline
 90
        3
 70
     0
 43
0.0
 10
66.793307
 20
94.287064
 10
66.752611
 20
94.302423
 10
66.712057
 20
94.318025
  0
LWPOLYLINE
  5
31C
100
AcDbEntity
  8
ALPHA
100
AcDbPolyline
 90
        4
 70
     0
 43
0.0
 10
66.766224
 20
94.214771
 10
66.720936
 20
94.228699
 10
66.675796
 20
94.242869
 10
66.630807
 20
94.257278
  0
LWPOLYLINE
  5
322
100
AcDbEntity
  8
ALPHA
100
AcDbPolyline
 90
        3
 70
     0
 43
0.0
 10
66.82039
 20
94.069974
 10
66.779717
 20
94.080549
 10
66.73914
 20
94.091367
  0
LWPOLYLINE
  5
327
100
AcDbEntity
  8
ALPHA
100
AcDbPolyline
 90
        4
 70
     0
 43
0.0
 10
67.88914
 20
94.024891
 10
67.867541
 20
94.030413
 10
67.831429
 20
94.039911
 10
67.79539
 20
94.049653
  0
LWPOLYLINE
  5
32D
100
AcDbEntity
  8
ALPHA
100
AcDbPolyline
 90
        4
 70
     0
 43
0.0
 10
66.793307
 20
94.021162
 10
66.748071
 20
94.030415
 10
66.702931
 20
94.039913
 10
66.65789
 20
94.049653
  0
LINE
  5
333
100
AcDbEntity
  8
ALPHA
100
AcDbLine
 10
71.88914
 20
93.483038
 30
0.0
 11
87.19632
 21
93.483038
 31
0.0
  0
LINE
  5
334
100
AcDbEntity
  8
ALPHA
100
AcDbLine
 10
69.78914
 20
93.233038
 30
0.0
 11
71.88914
 21
93.233038
 31
0.0
  0
LINE
  5
335
100
AcDbEntity
  8
ALPHA
100
AcDbLine
 10
63.28914
 20
93.233038
 30
0.0
 11
57.78914
 21
93.233038
 31
0.0
  0
LINE
  5
336
100
AcDbEntity
  8
ALPHA
100
AcDbLine
 10
69.08914
 20
93.233038
 30
0.0
 11
67.88914
 21
93.233038
 31
0.0
  0
LINE
  5
337
100
AcDbEntity
  8
ALPHA
100
AcDbLine
 10
90.52008
 20
93.133038
 30
0.0
 11
92.08914
 21
93.133038
 31
0.0
  0
LINE
  5
338
100
AcDbEntity
  8
ALPHA
100
AcDbLine
 10
69.78914
 20
92.958038
 30
0.0
 11
71.88914
 21
92.958038
 31
0.0
  0
LINE
  5
339
100
AcDbEntity
  8
ALPHA
100
AcDbLine
 10
67.88914
 20
92.958038
 30
0.0
 11
69.08914
 21
92.958038
 31
0.0
  0
LINE
  5
33A
100
AcDbEntity
  8
ALPHA
100
AcDbLine
 10
56.58914
 20
92.861664
 30
0.0
 11
57.78914
 21
92.861664
 31
0.0
  0
LINE
  5
33B
100
AcDbEntity
  8
ALPHA
100
AcDbLine
 10
71.88914
 20
92.633038
 30
0.0
 11
87.88914
 21
92.633038
 31
0.0
  0
LINE
  5
33C
100
AcDbEntity
  8
ALPHA
100
AcDbLine
 10
53.28914
 20
92.460353
 30
0.0
 11
56.58914
 21
92.460353
 31
0.0
  0
LINE
  5
33D
100
AcDbEntity
  8
ALPHA
100
AcDbLine
 10
45.48914
 20
92.358038
 30
0.0
 11
50.78914
 21
92.358038
 31
0.0
  0
LINE
  5
33E
100
AcDbEntity
  8
ALPHA
100
AcDbLine
 10
50.78914
 20
92.333038
 30
0.0
 11
53.28914
 21
92.333038
 31
0.0
  0
LWPOLYLINE
  5
33F
100
AcDbEntity
  8
ALPHA
100
AcDbPolyline
 90
        6
 70
     0
 43
0.0
 10
69.43914
 20
91.846463
 10
69.547296
 20
91.858576
 10
69.644865
 20
91.893729
 10
69.722296
 20
91.948481
 10
69.77201
 20
92.017473
 10
69.78914
 20
92.09395
  0
LINE
  5
347
100
AcDbEntity
  8
ALPHA
100
AcDbLine
 10
90.399001
 20
96.127337
 30
0.0
 11
90.08914
 21
96.077882
 31
0.0
  0
LINE
  5
348
100
AcDbEntity
  8
ALPHA
100
AcDbLine
 10
99.88914
 20
98.530228
 30
0.0
 11
99.38914
 21
98.433038
 31
0.0
  0
LINE
  5
349
100
AcDbEntity
  8
ALPHA
100
AcDbLine
 10
63.28914
 20
94.47575
 30
0.0
 11
63.28914
 21
93.233038
 31
0.0
  0
LINE
  5
34A
100
AcDbEntity
  8
ALPHA
100
AcDbLine
 10
63.28914
 20
98.01677
 30
0.0
 11
63.28914
 21
96.950624
 31
0.0
  0
LINE
  5
34B
100
AcDbEntity
  8
ALPHA
100
AcDbLine
 10
63.28914
 20
109.233038
 30
0.0
 11
63.28914
 21
104.449305
 31
0.0
  0
LINE
  5
34C
100
AcDbEntity
  8
ALPHA
100
AcDbLine
 10
99.88914
 20
94.730228
 30
0.0
 11
99.38914
 21
94.633038
 31
0.0
  0
LINE
  5
34D
100
AcDbEntity
  8
ALPHA
100
AcDbLine
 10
57.78914
 20
103.983038
 30
0.0
 11
57.78914
 21
109.604412
 31
0.0
  0
LINE
  5
34E
100
AcDbEntity
  8
ALPHA
100
AcDbLine
 10
57.78914
 20
92.861664
 30
0.0
 11
57.78914
 21
98.483038
 31
0.0
  0
LINE
  5
34F
100
AcDbEntity
  8
ALPHA
100
AcDbLine
 10
56.58914
 20
98.211433
 30
0.0
 11
56.58914
 21
104.254643
 31
0.0
  0
LINE
  5
350
100
AcDbEntity
  8
ALPHA
100
AcDbLine
 10
56.58914
 20
92.861664
 30
0.0
 11
56.58914
 21
92.460353
 31
0.0
  0
LINE
  5
351
100
AcDbEntity
  8
ALPHA
100
AcDbLine
 10
56.58914
 20
110.005723
 30
0.0
 11
56.58914
 21
109.604412
 31
0.0
  0
LINE
  5
352
100
AcDbEntity
  8
ALPHA
100
AcDbLine
 10
53.28914
 20
92.460353
 30
0.0
 11
53.28914
 21
92.333038
 31
0.0
  0
LINE
  5
353
100
AcDbEntity
  8
ALPHA
100
AcDbLine
 10
53.28914
 20
94.398699
 30
0.0
 11
53.28914
 21
93.538334
 31
0.0
  0
LINE
  5
354
100
AcDbEntity
  8
ALPHA
100
AcDbLine
 10
53.28914
 20
96.760729
 30
0.0
 11
53.28914
 21
95.532001
 31
0.0
  0
LINE
  5
355
100
AcDbEntity
  8
ALPHA
100
AcDbLine
 10
53.28914
 20
102.733038
 30
0.0
 11
53.28914
 21
99.733038
 31
0.0
  0
LINE
  5
356
100
AcDbEntity
  8
ALPHA
100
AcDbLine
 10
53.28914
 20
106.934074
 30
0.0
 11
53.28914
 21
105.705346
 31
0.0
  0
LINE
  5
357
100
AcDbEntity
  8
ALPHA
100
AcDbLine
 10
53.28914
 20
108.927741
 30
0.0
 11
53.28914
 21
108.067376
 31
0.0
  0
LINE
  5
358
100
AcDbEntity
  8
ALPHA
100
AcDbLine
 10
53.28914
 20
110.133038
 30
0.0
 11
53.28914
 21
110.005723
 31
0.0
  0
LINE
  5
359
100
AcDbEntity
  8
ALPHA
100
AcDbLine
 10
50.78914
 20
110.133038
 30
0.0
 11
50.78914
 21
92.333038
 31
0.0
  0
LWPOLYLINE
  5
35A
100
AcDbEntity
  8
ALPHA
100
AcDbPolyline
 90
       10
 70
     0
 43
0.0
 10
44.338252
 20
94.714935
 10
44.436756
 20
94.459561
 10
44.533749
 20
94.215849
 10
44.627142
 20
93.987722
 10
44.716252
 20
93.775486
 10
44.800461
 20
93.57939
 10
44.879223
 20
93.399612
 10
44.952109
 20
93.236166
 10
45.018781
 20
93.088964
 10
45.078957
 20
92.957896
  0
LINE
  5
366
100
AcDbEntity
  8
ALPHA
100
AcDbLine
 10
45.078987
 20
92.957832
 30
0.0
 11
45.132446
 21
92.842755
 31
0.0
  0
LINE
  5
367
100
AcDbEntity
  8
ALPHA
100
AcDbLine
 10
45.132423
 20
92.842804
 30
0.0
 11
45.218595
 21
92.659867
 31
0.0
  0
LINE
  5
368
100
AcDbEntity
  8
ALPHA
100
AcDbLine
 10
45.218595
 20
92.659867
 30
0.0
 11
45.309057
 21
92.471032
 31
0.0
  0
LINE
  5
369
100
AcDbEntity
  8
ALPHA
100
AcDbLine
 10
45.309058
 20
109.995045
 30
0.0
 11
45.251084
 21
109.874394
 31
0.0
  0
LINE
  5
36A
100
AcDbEntity
  8
ALPHA
100
AcDbLine
 10
45.251084
 20
109.874394
 30
0.0
 11
45.179012
 21
109.722559
 31
0.0
  0
LINE
  5
36B
100
AcDbEntity
  8
ALPHA
100
AcDbLine
 10
45.179012
 20
109.722559
 30
0.0
 11
45.078957
 21
109.508179
 31
0.0
  0
LWPOLYLINE
  5
36C
100
AcDbEntity
  8
ALPHA
100
AcDbPolyline
 90
        6
 70
     0
 43
0.0
 10
45.078957
 20
109.508179
 10
45.018781
 20
109.377111
 10
44.952109
 20
109.229909
 10
44.879223
 20
109.066464
 10
44.800461
 20
108.886686
 10
44.716252
 20
108.69059
  0
LWPOLYLINE
  5
374
100
AcDbEntity
  8
ALPHA
100
AcDbPolyline
 90
        5
 70
     0
 43
0.0
 10
44.716252
 20
108.69059
 10
44.627226
 20
108.478554
 10
44.533843
 20
108.250457
 10
44.436859
 20
108.006777
 10
44.338252
 20
107.75114
  0
LWPOLYLINE
  5
37B
100
AcDbEntity
  8
ALPHA
100
AcDbPolyline
 90
       20
 70
     0
 43
0.0
 10
44.338251
 20
107.751139
 10
44.334578
 20
107.742305
 10
44.329337
 20
107.731755
 10
44.323308
 20
107.72148
 10
44.316514
 20
107.711489
 10
44.308953
 20
107.701779
 10
44.300585
 20
107.69233
 10
44.291425
 20
107.683211
 10
44.281549
 20
107.674539
 10
44.271053
 20
107.666422
 10
44.25999
 20
107.658918
 10
44.248358
 20
107.652046
 10
44.236108
 20
107.645818
 10
44.223225
 20
107.640285
 10
44.209831
 20
107.635552
 10
44.19609
 20
107.631712
 10
44.182217
 20
107.628827
 10
44.168478
 20
107.626917
 10
44.15514
 20
107.625946
 10
44.146716
 20
107.625775
  0
LINE
  5
391
100
AcDbEntity
  8
ALPHA
100
AcDbLine
 10
44.58914
 20
108.554793
 30
0.0
 11
44.58914
 21
108.823038
 31
0.0
  0
LINE
  5
392
100
AcDbEntity
  8
ALPHA
100
AcDbLine
 10
44.58914
 20
93.643038
 30
0.0
 11
44.58914
 21
93.911282
 31
0.0
  0
LWPOLYLINE
  5
393
100
AcDbEntity
  8
ALPHA
100
AcDbPolyline
 90
       13
 70
     0
 43
0.0
 10
43.276312
 20
95.009181
 10
43.28097
 20
94.987507
 10
43.28818
 20
94.966023
 10
43.297739
 20
94.945559
 10
43.310501
 20
94.924937
 10
43.326114
 20
94.905517
 10
43.342777
 20
94.88926
 10
43.363102
 20
94.873779
 10
43.383738
 20
94.861764
 10
43.406141
 20
94.852119
 10
43.428581
 20
94.845497
 10
43.451547
 20
94.84155
 10
43.473876
 20
94.8403
  0
INSERT
  5
3E7
100
AcDbEntity
  8
ALPHA
100
AcDbBlockReference
  2
SCH_ISO
 10
0.0
 20
0.0
 30
0.0
  0
DIMENSION
  5
3F9
100
AcDbEntity
  8
COTATION1
100
AcDbDimension
  2
*D6
 10
25.806005
 20
109.233038
 30
0.0
 11
23.306005
 21
101.233038
 31
0.0
  3
SC_STAND
100
AcDbAlignedDimension
 13
57.78914
 23
93.233038
 33
0.0
 14
57.78914
 24
109.233038
 34
0.0
 50
90.0
100
AcDbRotatedDimension
  0
DIMENSION
  5
406
100
AcDbEntity
  8
COTATION1
100
AcDbDimension
  2
*D5
 10
42.78914
 20
68.205092
 30
0.0
 11
50.28914
 21
70.705092
 31
0.0
  3
SC_STAND
100
AcDbAlignedDimension
 13
57.78914
 23
92.861664
 33
0.0
 14
42.78914
 24
101.233038
 34
0.0
100
AcDbRotatedDimension
  0
ENDSEC
  0
SECTION
  2
OBJECTS
  0
DICTIONARY
  5
430
100
AcDbDictionary
  3
ACAD_GROUP
350
431
  3
ACAD_MLINESTYLE
350
43E
  3
ACDBVARIABLEDICTIONARY
350
47E
  0
DICTIONARY
  5
431
102
{ACAD_REACTORS
330
430
102
}
100
AcDbDictionary
  0
DICTIONARY
  5
43E
102
{ACAD_REACTORS
330
430
102
}
100
AcDbDictionary
  3
STANDARD
350
43F
  0
DICTIONARY
  5
47E
102
{ACAD_REACTORS
330
430
102
}
100
AcDbDictionary
  3
DIMADEC
350
47F
  0
MLINESTYLE
  5
43F
102
{ACAD_REACTORS
330
43E
102
}
100
AcDbMlineStyle
  2
STANDARD
 70
     0
  3

 62
   256
 51
90.0
 52
90.0
 71
     2
 49
0.5
 62
   256
  6
BYLAYER
 49
-0.5
 62
   256
  6
BYLAYER
  0
DICTIONARYVAR
  5
47F
102
{ACAD_REACTORS
330
47E
102
}
100
DictionaryVariables
280
     0
  1
0
  0
ENDSEC
  0
EOF
