  0
SECTION
  2
HEADER
  9
$ACADVER
  1
AC1012
  9
$DWGCODEPAGE
  3
ANSI_1252
  9
$INSBASE
 10
0.0
 20
0.0
 30
0.0
  9
$EXTMIN
 10
15.730351
 20
28.498415
 30
-0.001526
  9
$EXTMAX
 10
124.863822
 20
370.662806
 30
0.0
  9
$LIMMIN
 10
21.500324
 20
168.366123
  9
$LIMMAX
 10
144.764979
 20
237.902791
  9
$ORTHOMODE
 70
     1
  9
$REGENMODE
 70
     1
  9
$FILLMODE
 70
     1
  9
$QTEXTMODE
 70
     0
  9
$MIRRTEXT
 70
     1
  9
$DRAGMODE
 70
     2
  9
$LTSCALE
 40
10.0
  9
$OSMODE
 70
    39
  9
$ATTMODE
 70
     1
  9
$TEXTSIZE
 40
0.2
  9
$TRACEWID
 40
0.05
  9
$TEXTSTYLE
  7
STANDARD
  9
$CLAYER
  8
0
  9
$CELTYPE
  6
CONTINUOUS
  9
$CECOLOR
 62
   256
  9
$CELTSCALE
 40
1.0
  9
$DELOBJ
 70
     1
  9
$DISPSILH
 70
     0
  9
$DIMSCALE
 40
1.0
  9
$DIMASZ
 40
0.18
  9
$DIMEXO
 40
0.0625
  9
$DIMDLI
 40
0.38
  9
$DIMRND
 40
0.0
  9
$DIMDLE
 40
0.0
  9
$DIMEXE
 40
0.18
  9
$DIMTP
 40
0.0
  9
$DIMTM
 40
0.0
  9
$DIMTXT
 40
0.18
  9
$DIMCEN
 40
0.09
  9
$DIMTSZ
 40
0.0
  9
$DIMTOL
 70
     0
  9
$DIMLIM
 70
     0
  9
$DIMTIH
 70
     1
  9
$DIMTOH
 70
     1
  9
$DIMSE1
 70
     0
  9
$DIMSE2
 70
     0
  9
$DIMTAD
 70
     0
  9
$DIMZIN
 70
     0
  9
$DIMBLK
  1

  9
$DIMASO
 70
     1
  9
$DIMSHO
 70
     1
  9
$DIMPOST
  1

  9
$DIMAPOST
  1

  9
$DIMALT
 70
     0
  9
$DIMALTD
 70
     2
  9
$DIMALTF
 40
25.4
  9
$DIMLFAC
 40
1.0
  9
$DIMTOFL
 70
     0
  9
$DIMTVP
 40
0.0
  9
$DIMTIX
 70
     0
  9
$DIMSOXD
 70
     0
  9
$DIMSAH
 70
     0
  9
$DIMBLK1
  1

  9
$DIMBLK2
  1

  9
$DIMSTYLE
  2
STANDARD
  9
$DIMCLRD
 70
     0
  9
$DIMCLRE
 70
     0
  9
$DIMCLRT
 70
     0
  9
$DIMTFAC
 40
1.0
  9
$DIMGAP
 40
0.09
  9
$DIMJUST
 70
     0
  9
$DIMSD1
 70
     0
  9
$DIMSD2
 70
     0
  9
$DIMTOLJ
 70
     1
  9
$DIMTZIN
 70
     0
  9
$DIMALTZ
 70
     0
  9
$DIMALTTZ
 70
     0
  9
$DIMFIT
 70
     3
  9
$DIMUPT
 70
     0
  9
$DIMUNIT
 70
     2
  9
$DIMDEC
 70
     4
  9
$DIMTDEC
 70
     4
  9
$DIMALTU
 70
     2
  9
$DIMALTTD
 70
     2
  9
$DIMTXSTY
  7
STANDARD
  9
$DIMAUNIT
 70
     0
  9
$LUNITS
 70
     2
  9
$LUPREC
 70
     4
  9
$SKETCHINC
 40
0.1
  9
$FILLETRAD
 40
0.0
  9
$AUNITS
 70
     0
  9
$AUPREC
 70
     0
  9
$MENU
  1
acad
  9
$ELEVATION
 40
0.0
  9
$PELEVATION
 40
0.0
  9
$THICKNESS
 40
0.0
  9
$LIMCHECK
 70
     0
  9
$BLIPMODE
 70
     0
  9
$CHAMFERA
 40
0.0
  9
$CHAMFERB
 40
0.0
  9
$CHAMFERC
 40
0.0
  9
$CHAMFERD
 40
0.0
  9
$SKPOLY
 70
     0
  9
$TDCREATE
 40
2453627.679171909
  9
$TDUPDATE
 40
2453689.696477824
  9
$TDINDWG
 40
0.0868159954
  9
$TDUSRTIMER
 40
0.0868154514
  9
$USRTIMER
 70
     1
  9
$ANGBASE
 50
0.0
  9
$ANGDIR
 70
     0
  9
$PDMODE
 70
     0
  9
$PDSIZE
 40
0.0
  9
$PLINEWID
 40
0.0
  9
$COORDS
 70
     0
  9
$SPLFRAME
 70
     0
  9
$SPLINETYPE
 70
     6
  9
$SPLINESEGS
 70
     8
  9
$ATTDIA
 70
     0
  9
$ATTREQ
 70
     1
  9
$HANDLING
 70
     1
  9
$HANDSEED
  5
944
  9
$SURFTAB1
 70
     6
  9
$SURFTAB2
 70
     6
  9
$SURFTYPE
 70
     6
  9
$SURFU
 70
     6
  9
$SURFV
 70
     6
  9
$UCSNAME
  2

  9
$UCSORG
 10
0.0
 20
0.0
 30
0.0
  9
$UCSXDIR
 10
1.0
 20
0.0
 30
0.0
  9
$UCSYDIR
 10
0.0
 20
1.0
 30
0.0
  9
$PUCSNAME
  2

  9
$PUCSORG
 10
0.0
 20
0.0
 30
0.0
  9
$PUCSXDIR
 10
1.0
 20
0.0
 30
0.0
  9
$PUCSYDIR
 10
0.0
 20
1.0
 30
0.0
  9
$USERI1
 70
     0
  9
$USERI2
 70
     0
  9
$USERI3
 70
     0
  9
$USERI4
 70
     0
  9
$USERI5
 70
     0
  9
$USERR1
 40
0.0
  9
$USERR2
 40
0.0
  9
$USERR3
 40
0.0
  9
$USERR4
 40
0.0
  9
$USERR5
 40
0.0
  9
$WORLDVIEW
 70
     1
  9
$SHADEDGE
 70
     3
  9
$SHADEDIF
 70
    70
  9
$TILEMODE
 70
     1
  9
$MAXACTVP
 70
    16
  9
$PINSBASE
 10
0.0
 20
0.0
 30
0.0
  9
$PLIMCHECK
 70
     0
  9
$PEXTMIN
 10
1.000000E+20
 20
1.000000E+20
 30
1.000000E+20
  9
$PEXTMAX
 10
-1.000000E+20
 20
-1.000000E+20
 30
-1.000000E+20
  9
$PLIMMIN
 10
0.0
 20
0.0
  9
$PLIMMAX
 10
12.0
 20
9.0
  9
$UNITMODE
 70
     0
  9
$VISRETAIN
 70
     0
  9
$PLINEGEN
 70
     1
  9
$PSLTSCALE
 70
     0
  9
$TREEDEPTH
 70
  3020
  9
$PICKSTYLE
 70
     1
  9
$CMLSTYLE
  2
STANDARD
  9
$CMLJUST
 70
     0
  9
$CMLSCALE
 40
1.0
  9
$SAVEIMAGES
 70
     0
  0
ENDSEC
  0
SECTION
  2
CLASSES
  0
CLASS
  1
LWPOLYLINE
  2
AcDbPolyline
  3
"AutoCAD"
 90
    32768
280
     0
281
     1
  0
CLASS
  1
IMAGE
  2
AcDbRasterImage
  3
ISM
 90
    32895
280
     0
281
     1
  0
CLASS
  1
OLE2FRAME
  2
AcDbOle2Frame
  3
""
 90
    32768
280
     0
281
     1
  0
CLASS
  1
HATCH
  2
AcDbHatch
  3
"ACAD_SEDONA"
 90
    32768
280
     0
281
     1
  0
CLASS
  1
DICTIONARYVAR
  2
AcDbDictionaryVar
  3
"AutoCAD"
 90
    32768
280
     0
281
     0
  0
CLASS
  1
RASTERVARIABLES
  2
AcDbRasterVariables
  3
ISM
 90
    32768
280
     0
281
     0
  0
CLASS
  1
IMAGEDEF
  2
AcDbRasterImageDef
  3
ISM
 90
    32768
280
     0
281
     0
  0
CLASS
  1
IMAGEDEF_REACTOR
  2
AcDbRasterImageDefReactor
  3
ISM
 90
    32769
280
     0
281
     0
  0
CLASS
  1
SPATIAL_FILTER
  2
AcDbSpatialFilter
  3
"Acad"
 90
    32768
280
     0
281
     0
  0
CLASS
  1
XRECORD
  2
AcDbXrecord
  3
"<Built In>"
 90
    32768
280
     0
281
     0
  0
CLASS
  1
SORTENTSTABLE
  2
AcDbSortentsTable
  3
"AutoCAD"
 90
    32768
280
     0
281
     0
  0
CLASS
  1
LAYER_INDEX
  2
AcDbLayerIndex
  3
"Acad"
 90
    32768
280
     0
281
     0
  0
CLASS
  1
SPATIAL_INDEX
  2
AcDbSpatialIndex
  3
"Acad"
 90
    32768
280
     0
281
     0
  0
CLASS
  1
OBJECT_PTR
  2
CAseDLPNTableRecord
  3
"ASE-LPNTableRecord"
 90
    32769
280
     0
281
     0
  0
CLASS
  1
LAYOUT
  2
AcDbLayout
  3
AutoCAD 2000
 90
    32768
280
     0
281
     0
  0
CLASS
  1
PLOTSETTINGS
  2
AcDbPlotSettings
  3
AutoCAD 2000
 90
    32768
280
     0
281
     0
  0
CLASS
  1
ACDBDICTIONARYWDFLT
  2
AcDbDictionaryWithDefault
  3
AutoCAD 2000
 90
    32768
280
     0
281
     0
  0
CLASS
  1
ACDBPLACEHOLDER
  2
AcDbPlaceHolder
  3
AutoCAD 2000
 90
    32768
280
     0
281
     0
  0
CLASS
  1
VBA_PROJECT
  2
AcDbVbaProject
  3
acad
 90
    32768
280
     0
281
     0
  0
CLASS
  1
WIPEOUT
  2
AcDbWipeout
  3
"WipeOut|Product Desc: Object Enabler for WipeOut entity^I^I^I^I^I^I|Company: Autodesk, Inc.^I^I^I^I^I^I|WEB Address: www.autodesk.com"
 90
    32895
280
     0
281
     1
  0
CLASS
  1
WIPEOUTVARIABLES
  2
AcDbWipeoutVariables
  3
"WipeOut|Product Desc:     WipeOut Dbx Application|Company:          Autodesk, Inc.|WEB Address:      www.autodesk.com"
 90
    32768
280
     0
281
     0
  0
CLASS
  1
RTEXT
  2
RText
  3
RText|AutoCAD Express Tool|expresstools@autodesk.com
 90
    32768
280
     0
281
     1
  0
CLASS
  1
ARCALIGNEDTEXT
  2
AcDbArcAlignedText
  3
ATEXT|AutoCAD Express Tool|expresstools@autodesk.com
 90
    32768
280
     0
281
     1
  0
CLASS
  1
TABLESTYLE
  2
AcDbTableStyle
  3
ObjectDBX Classes
 90
    34815
280
     0
281
     0
  0
CLASS
  1
ACAD_PROXY_OBJECT_WRAPPER
  2
AcDbProxyObjectWrapper
  3
AutoCAD 2000
 90
    32768
280
     0
281
     0
  0
CLASS
  1
LONG_TRANSACTION
  2
AcDbLongTransaction
  3
AutoCAD 2000
 90
    32768
280
     0
281
     0
  0
CLASS
  1
LWPOLYLINE
  2
AcDbPolyline
  3
"AutoCAD"
 90
    32768
280
     0
281
     1
  0
CLASS
  1
HATCH
  2
AcDbHatch
  3
"ACAD_SEDONA"
 90
    32768
280
     0
281
     1
  0
CLASS
  1
XRECORD
  2
AcDbXrecord
  3
"<Built In>"
 90
    32768
280
     0
281
     0
  0
ENDSEC
  0
SECTION
  2
TABLES
  0
TABLE
  2
VPORT
  5
7
100
AcDbSymbolTable
 70
     2
  0
VPORT
  5
943
100
AcDbSymbolTableRecord
100
AcDbViewportTableRecord
  2
*ACTIVE
 70
     0
 10
0.0
 20
0.0
 11
1.0
 21
1.0
 12
70.297087
 22
199.58061
 13
0.0
 23
0.0
 14
1.0
 24
1.0
 15
0.0
 25
0.0
 16
0.0
 26
0.0
 36
1.0
 17
0.0
 27
0.0
 37
0.0
 40
345.722426
 41
1.673611
 42
50.0
 43
0.0
 44
0.0
 50
0.0
 51
0.0
 71
     0
 72
   100
 73
     1
 74
     3
 75
     0
 76
     0
 77
     0
 78
     0
  0
ENDTAB
  0
TABLE
  2
LTYPE
  5
4
100
AcDbSymbolTable
 70
     2
  0
LTYPE
  5
11
102
{ACAD_XDICTIONARY
360
904
102
}
100
AcDbSymbolTableRecord
100
AcDbLinetypeTableRecord
  2
BYBLOCK
 70
     0
  3

 72
    65
 73
     0
 40
0.0
  0
LTYPE
  5
12
102
{ACAD_XDICTIONARY
360
906
102
}
100
AcDbSymbolTableRecord
100
AcDbLinetypeTableRecord
  2
BYLAYER
 70
     0
  3

 72
    65
 73
     0
 40
0.0
  0
LTYPE
  5
13
102
{ACAD_XDICTIONARY
360
908
102
}
100
AcDbSymbolTableRecord
100
AcDbLinetypeTableRecord
  2
CONTINUOUS
 70
     0
  3
Solid line
 72
    65
 73
     0
 40
0.0
  0
LTYPE
  5
FA
100
AcDbSymbolTableRecord
100
AcDbLinetypeTableRecord
  2
AXES2
 70
     0
  3
___ _ ___ _ ___ _ ___ _ ___ _ ___ _ ___ _ ___ _
 72
    65
 73
     4
 40
1.125
 49
0.75
 74
     0
 49
-0.125
 74
     0
 49
0.125
 74
     0
 49
-0.125
 74
     0
  0
ENDTAB
  0
TABLE
  2
LAYER
  5
2
100
AcDbSymbolTable
 70
     5
  0
LAYER
  5
14
100
AcDbSymbolTableRecord
100
AcDbLayerTableRecord
  2
0
 70
     0
 62
     7
  6
CONTINUOUS
  0
LAYER
  5
FC
100
AcDbSymbolTableRecord
100
AcDbLayerTableRecord
  2
COTATION1
 70
     0
 62
     2
  6
CONTINUOUS
  0
LAYER
  5
FD
100
AcDbSymbolTableRecord
100
AcDbLayerTableRecord
  2
AXE
 70
     0
 62
    80
  6
AXES2
  0
LAYER
  5
FE
102
{ACAD_XDICTIONARY
360
93A
102
}
100
AcDbSymbolTableRecord
100
AcDbLayerTableRecord
  2
DEFPOINTS
 70
     0
 62
     7
  6
CONTINUOUS
  0
LAYER
  5
FF
100
AcDbSymbolTableRecord
100
AcDbLayerTableRecord
  2
ALPHA
 70
     0
 62
   254
  6
CONTINUOUS
  0
ENDTAB
  0
TABLE
  2
STYLE
  5
3
100
AcDbSymbolTable
 70
     2
  0
STYLE
  5
17
102
{ACAD_XDICTIONARY
360
90A
102
}
100
AcDbSymbolTableRecord
100
AcDbTextStyleTableRecord
  2
STANDARD
 70
     0
 40
0.0
 41
1.0
 50
0.0
 71
     0
 42
0.0
  3
txt
  4

  0
STYLE
  5
101
100
AcDbSymbolTableRecord
100
AcDbTextStyleTableRecord
  2
ROMANS
 70
     0
 40
0.0
 41
1.0
 50
0.0
 71
     0
 42
6.0
  3
romans
  4

  0
ENDTAB
  0
TABLE
  2
VIEW
  5
5
100
AcDbSymbolTable
 70
     0
  0
ENDTAB
  0
TABLE
  2
UCS
  5
6
100
AcDbSymbolTable
 70
     0
  0
ENDTAB
  0
TABLE
  2
APPID
  5
8
100
AcDbSymbolTable
 70
     1
  0
APPID
  5
16
100
AcDbSymbolTableRecord
100
AcDbRegAppTableRecord
  2
ACAD
 70
     0
  0
ENDTAB
  0
TABLE
  2
DIMSTYLE
  5
9
100
AcDbSymbolTable
 70
     2
  0
DIMSTYLE
105
18
102
{ACAD_XDICTIONARY
360
902
102
}
100
AcDbSymbolTableRecord
100
AcDbDimStyleTableRecord
  2
STANDARD
 70
     0
  3

  4

  5

  6

  7

 40
1.0
 41
0.18
 42
0.0625
 43
0.38
 44
0.18
 45
0.0
 46
0.0
 47
0.0
 48
0.0
140
0.18
141
0.09
142
0.0
143
25.4
144
1.0
145
0.0
146
1.0
147
0.09
 71
     0
 72
     0
 73
     1
 74
     1
 75
     0
 76
     0
 77
     0
 78
     0
170
     0
171
     2
172
     0
173
     0
174
     0
175
     0
176
     0
177
     0
178
     0
270
     2
271
     4
272
     4
273
     2
274
     2
340
17
275
     0
280
     0
281
     0
282
     0
283
     1
284
     0
285
     0
286
     0
287
     3
288
     0
  0
DIMSTYLE
105
102
102
{ACAD_XDICTIONARY
360
93C
102
}
102
{ACAD_REACTORS
330
2F4
330
34E
330
4CD
330
4E3
330
4E5
330
4EC
102
}
100
AcDbSymbolTableRecord
100
AcDbDimStyleTableRecord
  2
SC_DEFAUT
 70
     0
  3

  4

  5
OPEN30
  6

  7

 40
1.0
 41
5.0
 42
2.0
 43
0.38
 44
2.5
 45
0.0
 46
0.0
 47
0.0
 48
0.0
140
2.5
141
0.0
142
0.0
143
25.4
144
1.0
145
0.0
146
1.0
147
2.0
 71
     0
 72
     0
 73
     1
 74
     1
 75
     0
 76
     0
 77
     1
 78
    12
170
     0
171
     2
172
     0
173
     0
174
     0
175
     0
176
     0
177
     0
178
     0
270
     2
271
     1
272
     1
273
     2
274
     2
340
101
275
     0
280
     0
281
     0
282
     0
283
     1
284
    12
285
    12
286
    12
287
     5
288
     0
  0
ENDTAB
  0
TABLE
  2
BLOCK_RECORD
  5
1
100
AcDbSymbolTable
 70
     3
  0
BLOCK_RECORD
  5
A
102
{ACAD_XDICTIONARY
360
1B0
102
}
100
AcDbSymbolTableRecord
100
AcDbBlockTableRecord
  2
*MODEL_SPACE
  0
BLOCK_RECORD
  5
B
102
{ACAD_XDICTIONARY
360
930
102
}
100
AcDbSymbolTableRecord
100
AcDbBlockTableRecord
  2
*PAPER_SPACE
  0
BLOCK_RECORD
  5
CF
100
AcDbSymbolTableRecord
100
AcDbBlockTableRecord
  2
_OPEN30
  0
BLOCK_RECORD
  5
2F5
100
AcDbSymbolTableRecord
100
AcDbBlockTableRecord
  2
*D1
  0
BLOCK_RECORD
  5
34F
100
AcDbSymbolTableRecord
100
AcDbBlockTableRecord
  2
*D2
  0
ENDTAB
  0
ENDSEC
  0
SECTION
  2
BLOCKS
  0
BLOCK
  5
D
100
AcDbEntity
  8
0
100
AcDbBlockBegin
  2
*MODEL_SPACE
 70
     0
 10
0.0
 20
0.0
 30
0.0
  3
*MODEL_SPACE
  1

  0
ENDBLK
  5
E
100
AcDbEntity
  8
0
100
AcDbBlockEnd
  0
BLOCK
  5
F
100
AcDbEntity
 67
     1
  8
0
100
AcDbBlockBegin
  2
*PAPER_SPACE
 70
     0
 10
0.0
 20
0.0
 30
0.0
  3
*PAPER_SPACE
  1

  0
ENDBLK
  5
10
100
AcDbEntity
 67
     1
  8
0
100
AcDbBlockEnd
  0
BLOCK
  5
D0
100
AcDbEntity
  8
0
100
AcDbBlockBegin
  2
_OPEN30
 70
     0
 10
0.0
 20
0.0
 30
0.0
  3
_OPEN30
  1

  0
LINE
  5
D1
100
AcDbEntity
  8
COTATION1
 62
     0
100
AcDbLine
 10
-1.0
 20
0.267949
 30
0.0
 11
0.0
 21
0.0
 31
0.0
1001
ACAD
1000
RTLwPs
1070
   158
  0
LINE
  5
D2
100
AcDbEntity
  8
COTATION1
 62
     0
100
AcDbLine
 10
0.0
 20
0.0
 30
0.0
 11
-1.0
 21
-0.267949
 31
0.0
1001
ACAD
1000
RTLwPs
1070
   158
  0
LINE
  5
D3
100
AcDbEntity
  8
COTATION1
 62
     0
100
AcDbLine
 10
0.0
 20
0.0
 30
0.0
 11
-1.0
 21
0.0
 31
0.0
1001
ACAD
1000
RTLwPs
1070
   158
  0
ENDBLK
  5
D4
100
AcDbEntity
  8
0
100
AcDbBlockEnd
  0
BLOCK
  5
300
100
AcDbEntity
  8
0
100
AcDbBlockBegin
  2
*D1
 70
     1
 10
0.0
 20
0.0
 30
0.0
  3
*D1
  1

1001
ACAD
1000
RTLwPs
1070
   128
  0
LINE
  5
8BC
100
AcDbEntity
  8
COTATION1
 62
     0
100
AcDbLine
 10
65.230355
 20
69.205585
 30
0.0
 11
65.230355
 21
38.508856
 31
0.0
1001
ACAD
1000
RTLwPs
1070
   158
  0
LINE
  5
8BD
100
AcDbEntity
  8
COTATION1
 62
     0
100
AcDbLine
 10
110.730379
 20
181.018097
 30
0.0
 11
110.730379
 21
38.508856
 31
0.0
1001
ACAD
1000
RTLwPs
1070
   158
  0
LINE
  5
8BE
100
AcDbEntity
  8
COTATION1
 62
     0
100
AcDbLine
 10
70.230355
 20
41.008856
 30
0.0
 11
105.730379
 21
41.008856
 31
0.0
1001
ACAD
1000
RTLwPs
1070
   158
  0
INSERT
  5
8BF
100
AcDbEntity
  8
COTATION1
 62
     0
100
AcDbBlockReference
  2
_OPEN30
 10
65.230355
 20
41.008856
 30
0.0
 41
5.0
 42
5.0
 43
5.0
 50
180.0
1001
ACAD
1000
RTLwPs
1070
   158
  0
INSERT
  5
8C0
100
AcDbEntity
  8
COTATION1
 62
     0
100
AcDbBlockReference
  2
_OPEN30
 10
110.730379
 20
41.008856
 30
0.0
 41
5.0
 42
5.0
 43
5.0
1001
ACAD
1000
RTLwPs
1070
   158
  0
MTEXT
  5
8C1
100
AcDbEntity
  8
COTATION1
 62
     0
100
AcDbMText
 10
87.980367
 20
44.258856
 30
0.0
 40
2.5
 41
0.0
 71
     5
 72
     1
  1
\A1;45.5
  7
ROMANS
1001
ACAD
1000
MTEXTBEGIN
1070
    73
1070
     1
1070
    44
1040
1.0
1070
    74
1070
     0
1000
MTEXTEND
  0
POINT
  5
8C2
100
AcDbEntity
  8
DEFPOINTS
 62
     0
100
AcDbPoint
 10
65.230355
 20
71.205585
 30
0.0
1001
ACAD
1000
RTLwPs
1070
   128
  0
POINT
  5
8C3
100
AcDbEntity
  8
DEFPOINTS
 62
     0
100
AcDbPoint
 10
110.730379
 20
183.018097
 30
0.0
1001
ACAD
1000
RTLwPs
1070
   128
  0
POINT
  5
8C4
100
AcDbEntity
  8
DEFPOINTS
 62
     0
100
AcDbPoint
 10
110.730379
 20
41.008856
 30
0.0
1001
ACAD
1000
RTLwPs
1070
   128
  0
ENDBLK
  5
301
100
AcDbEntity
  8
0
100
AcDbBlockEnd
1001
ACAD
1000
RTLwPs
1070
   128
  0
BLOCK
  5
35A
100
AcDbEntity
  8
0
100
AcDbBlockBegin
  2
*D2
 70
     1
 10
0.0
 20
0.0
 30
0.0
  3
*D2
  1

1001
ACAD
1000
RTLwPs
1070
   128
  0
LINE
  5
8CE
100
AcDbEntity
  8
COTATION1
 62
     0
100
AcDbLine
 10
25.734289
 20
219.001972
 30
0.0
 11
25.734289
 21
28.508856
 31
0.0
1001
ACAD
1000
RTLwPs
1070
   158
  0
LINE
  5
8CF
100
AcDbEntity
  8
COTATION1
 62
     0
100
AcDbLine
 10
110.730379
 20
181.018097
 30
0.0
 11
110.730379
 21
28.508856
 31
0.0
1001
ACAD
1000
RTLwPs
1070
   158
  0
LINE
  5
8D0
100
AcDbEntity
  8
COTATION1
 62
     0
100
AcDbLine
 10
30.734289
 20
31.008856
 30
0.0
 11
105.730379
 21
31.008856
 31
0.0
1001
ACAD
1000
RTLwPs
1070
   158
  0
INSERT
  5
8D1
100
AcDbEntity
  8
COTATION1
 62
     0
100
AcDbBlockReference
  2
_OPEN30
 10
25.734289
 20
31.008856
 30
0.0
 41
5.0
 42
5.0
 43
5.0
 50
180.0
1001
ACAD
1000
RTLwPs
1070
   158
  0
INSERT
  5
8D2
100
AcDbEntity
  8
COTATION1
 62
     0
100
AcDbBlockReference
  2
_OPEN30
 10
110.730379
 20
31.008856
 30
0.0
 41
5.0
 42
5.0
 43
5.0
1001
ACAD
1000
RTLwPs
1070
   158
  0
MTEXT
  5
8D3
100
AcDbEntity
  8
COTATION1
 62
     0
100
AcDbMText
 10
68.232334
 20
34.258856
 30
0.0
 40
2.5
 41
0.0
 71
     5
 72
     1
  1
\A1;85
  7
ROMANS
1001
ACAD
1000
MTEXTBEGIN
1070
    73
1070
     1
1070
    44
1040
1.0
1070
    74
1070
     0
1000
MTEXTEND
  0
POINT
  5
8D4
100
AcDbEntity
  8
DEFPOINTS
 62
     0
100
AcDbPoint
 10
25.734289
 20
221.001972
 30
0.0
1001
ACAD
1000
RTLwPs
1070
   128
  0
POINT
  5
8D5
100
AcDbEntity
  8
DEFPOINTS
 62
     0
100
AcDbPoint
 10
110.730379
 20
183.018097
 30
0.0
1001
ACAD
1000
RTLwPs
1070
   128
  0
POINT
  5
8D6
100
AcDbEntity
  8
DEFPOINTS
 62
     0
100
AcDbPoint
 10
110.730379
 20
31.008856
 30
0.0
1001
ACAD
1000
RTLwPs
1070
   128
  0
ENDBLK
  5
35B
100
AcDbEntity
  8
0
100
AcDbBlockEnd
1001
ACAD
1000
RTLwPs
1070
   128
  0
ENDSEC
  0
SECTION
  2
ENTITIES
  0
POLYLINE
  5
41
100
AcDbEntity
  8
ALPHA
100
AcDb2dPolyline
 66
     1
 10
0.0
 20
0.0
 30
0.0
 70
     1
  0
VERTEX
  5
42
100
AcDbEntity
  8
ALPHA
100
AcDbVertex
100
AcDb2dVertex
 10
27.045189
 20
249.154099
 30
0.0
  0
VERTEX
  5
43
100
AcDbEntity
  8
ALPHA
100
AcDbVertex
100
AcDb2dVertex
 10
29.008609
 20
249.154099
 30
0.0
  0
VERTEX
  5
44
100
AcDbEntity
  8
ALPHA
100
AcDbVertex
100
AcDb2dVertex
 10
29.008609
 20
218.383103
 30
0.0
  0
VERTEX
  5
45
100
AcDbEntity
  8
ALPHA
100
AcDbVertex
100
AcDb2dVertex
 10
27.045189
 20
218.383103
 30
0.0
  0
SEQEND
  5
46
100
AcDbEntity
  8
ALPHA
  0
POLYLINE
  5
3C
100
AcDbEntity
  8
ALPHA
100
AcDb2dPolyline
 66
     1
 10
0.0
 20
0.0
 30
0.0
  0
VERTEX
  5
3D
100
AcDbEntity
  8
ALPHA
100
AcDbVertex
100
AcDb2dVertex
 10
59.617651
 20
164.151389
 30
0.0
  0
VERTEX
  5
3E
100
AcDbEntity
  8
ALPHA
100
AcDbVertex
100
AcDb2dVertex
 10
59.617651
 20
160.926868
 30
0.0
  0
VERTEX
  5
3F
100
AcDbEntity
  8
ALPHA
100
AcDbVertex
100
AcDb2dVertex
 10
62.248243
 20
160.926868
 30
0.0
  0
SEQEND
  5
40
100
AcDbEntity
  8
ALPHA
  0
SPLINE
  5
3B
100
AcDbEntity
  8
ALPHA
100
AcDbSpline
210
0.0
220
0.0
230
-1.0
 70
     8
 71
     3
 72
    26
 73
    22
 74
     0
 42
0.0000001
 43
0.0000001
 40
0.0
 40
0.0
 40
0.0
 40
0.0
 40
1.0
 40
1.0
 40
1.0
 40
2.0
 40
2.0
 40
2.0
 40
3.0
 40
3.0
 40
3.0
 40
4.0
 40
4.0
 40
4.0
 40
5.0
 40
5.0
 40
5.0
 40
6.0
 40
6.0
 40
6.0
 40
7.0
 40
7.0
 40
7.0
 40
7.0
 10
72.94342681819819
 20
353.4241050917539
 30
0.0
 10
72.94342681819819
 20
353.4241050917539
 30
0.0
 10
73.70579935876623
 20
358.4897447297068
 30
0.0
 10
73.70579935876623
 20
358.4897447297068
 30
0.0
 10
73.31545875922472
 20
358.4897447297068
 30
0.0
 10
73.00054983276528
 20
358.9196320316412
 30
0.0
 10
73.00054983276528
 20
359.4505831285784
 30
0.0
 10
73.00054983276528
 20
359.9815342255158
 30
0.0
 10
73.31545875922472
 20
360.6523634735082
 30
0.0
 10
73.70579935876623
 20
360.6523634735082
 30
0.0
 10
73.70579935876623
 20
360.6523634735082
 30
0.0
 10
81.293639793757
 20
360.6523634735082
 30
0.0
 10
81.293639793757
 20
360.6523634735082
 30
0.0
 10
81.68324804695799
 20
360.6523634735082
 30
0.0
 10
81.99962166609868
 20
359.9815342255158
 30
0.0
 10
81.99962166609868
 20
359.4505831285784
 30
0.0
 10
81.99962166609868
 20
358.9196320316412
 30
0.0
 10
81.68324804695799
 20
358.4897447297068
 30
0.0
 10
81.293639793757
 20
358.4897447297068
 30
0.0
 10
81.293639793757
 20
358.4897447297068
 30
0.0
 10
82.05820937334687
 20
353.4241050917539
 30
0.0
 10
82.05820937334687
 20
353.4241050917539
 30
0.0
  0
LINE
  5
3A
100
AcDbEntity
  8
ALPHA
100
AcDbLine
 10
81.293639
 20
358.489744
 30
0.0
 11
73.705797
 21
358.489744
 31
0.0
  0
SPLINE
  5
38
100
AcDbEntity
  8
ALPHA
100
AcDbSpline
210
0.0
220
0.0
230
-1.0
 70
     8
 71
     3
 72
    11
 73
     7
 74
     0
 42
0.0000001
 43
0.0000001
 40
0.0
 40
0.0
 40
0.0
 40
0.0
 40
1.0
 40
1.0
 40
1.0
 40
2.0
 40
2.0
 40
2.0
 40
2.0
 10
108.4015180768516
 20
155.7220840215091
 30
0.0
 10
106.1810439721423
 20
156.610420132661
 30
0.0
 10
102.8225036541356
 20
157.9718519798424
 30
0.0
 10
104.2608318670806
 20
162.598816159774
 30
0.0
 10
106.107809338082
 20
168.5337509040231
 30
0.0
 10
108.9258780567236
 20
175.6265252127661
 30
0.0
 10
110.7845730691747
 20
181.6185829715823
 30
0.0
  0
SPLINE
  5
37
100
AcDbEntity
  8
ALPHA
100
AcDbSpline
210
0.0
220
0.0
230
1.0
 70
     8
 71
     3
 72
    11
 73
     7
 74
     0
 42
0.0000001
 43
0.0000001
 40
0.0
 40
0.0
 40
0.0
 40
0.0
 40
1.0
 40
1.0
 40
1.0
 40
2.0
 40
2.0
 40
2.0
 40
2.0
 10
110.73037943997
 20
183.0180968284752
 30
0.0
 10
108.4161650036636
 20
182.7192995215091
 30
0.0
 10
96.55947774929627
 20
180.264474587807
 30
0.0
 10
96.59755975900765
 20
190.9765045118113
 30
0.0
 10
96.62099484190697
 20
197.5229484504644
 30
0.0
 10
106.6512103228097
 20
206.5432583276749
 30
0.0
 10
110.6483566498223
 20
209.260995597654
 30
0.0
  0
SPLINE
  5
36
100
AcDbEntity
  8
ALPHA
100
AcDbSpline
210
0.0
220
0.0
230
-1.0
 70
    11
 71
     3
 72
    20
 73
    16
 74
     0
 42
0.0000001
 43
0.0000001
 40
0.0
 40
0.0
 40
0.0
 40
0.0
 40
1.0
 40
1.0
 40
1.0
 40
2.0
 40
2.0
 40
2.0
 40
3.0
 40
3.0
 40
3.0
 40
4.0
 40
4.0
 40
4.0
 40
5.0
 40
5.0
 40
5.0
 40
5.0
 10
102.4519364057904
 20
288.422947346352
 30
0.0
 10
104.3882601303454
 20
286.0625950905873
 30
0.0
 10
105.2407112708077
 20
282.1416127829974
 30
0.0
 10
103.6061142385811
 20
282.1284305488664
 30
0.0
 10
103.6061142385811
 20
282.1284305488664
 30
0.0
 10
86.89462460669103
 20
282.0874191537926
 30
0.0
 10
86.89462460669103
 20
282.0874191537926
 30
0.0
 10
86.89462460669103
 20
282.0874191537926
 30
0.0
 10
86.89462460669103
 20
290.3351036416671
 30
0.0
 10
86.89462460669103
 20
290.3351036416671
 30
0.0
 10
86.89462460669103
 20
290.3351036416671
 30
0.0
 10
94.48400822002652
 20
290.2948245929338
 30
0.0
 10
94.48400822002652
 20
290.2948245929338
 30
0.0
 10
96.77332288075252
 20
290.2948245929338
 30
0.0
 10
100.7924395979833
 20
289.4387117207687
 30
0.0
 10
102.4519364057904
 20
288.422947346352
 30
0.0
  0
LINE
  5
34
100
AcDbEntity
  8
ALPHA
100
AcDbLine
 10
71.388654
 20
345.227683
 30
0.0
 11
83.788012
 21
345.227683
 31
0.0
  0
LINE
  5
33
100
AcDbEntity
  8
ALPHA
100
AcDbLine
 10
83.788012
 20
343.065066
 30
0.0
 11
71.388654
 21
343.065066
 31
0.0
  0
LINE
  5
32
100
AcDbEntity
  8
ALPHA
100
AcDbLine
 10
70.58747
 20
337.575397
 30
0.0
 11
84.590662
 21
337.575397
 31
0.0
  0
LINE
  5
31
100
AcDbEntity
  8
ALPHA
100
AcDbLine
 10
84.590662
 20
335.424497
 30
0.0
 11
70.404382
 21
335.424497
 31
0.0
  0
LINE
  5
30
100
AcDbEntity
  8
ALPHA
100
AcDbLine
 10
72.753366
 20
327.439724
 30
0.0
 11
86.2692
 21
327.439724
 31
0.0
  0
LINE
  5
2F
100
AcDbEntity
  8
ALPHA
100
AcDbLine
 10
82.748079
 20
351.116481
 30
0.0
 11
72.426389
 21
351.116481
 31
0.0
  0
SPLINE
  5
2E
100
AcDbEntity
  8
ALPHA
100
AcDbSpline
210
0.0
220
0.0
230
1.0
 70
    11
 71
     3
 72
    29
 73
    25
 74
     0
 42
0.0000001
 43
0.0000001
 40
0.0
 40
0.0
 40
0.0
 40
0.0
 40
1.0
 40
1.0
 40
1.0
 40
2.0
 40
2.0
 40
2.0
 40
3.0
 40
3.0
 40
3.0
 40
4.0
 40
4.0
 40
4.0
 40
5.0
 40
5.0
 40
5.0
 40
6.0
 40
6.0
 40
6.0
 40
7.0
 40
7.0
 40
7.0
 40
8.0
 40
8.0
 40
8.0
 40
8.0
 10
65.51816727082138
 20
332.4328619310414
 30
0.0
 10
65.51816727082138
 20
332.4328619310414
 30
0.0
 10
77.09363353039714
 20
324.4444280477408
 30
0.0
 10
77.09363353039714
 20
324.4444280477408
 30
0.0
 10
77.09363353039714
 20
324.4444280477408
 30
0.0
 10
78.90985245509319
 20
323.7032935510502
 30
0.0
 10
78.98235474281301
 20
321.301929900212
 30
0.0
 10
78.98235474281301
 20
321.301929900212
 30
0.0
 10
78.98235474281301
 20
300.6948749758413
 30
0.0
 10
78.98235474281301
 20
300.6948749758413
 30
0.0
 10
78.98235474281301
 20
300.6948749758413
 30
0.0
 10
76.43378947751347
 20
300.7205070977624
 30
0.0
 10
76.43378947751347
 20
300.7205070977624
 30
0.0
 10
76.43378947751347
 20
300.7205070977624
 30
0.0
 10
76.43378947751347
 20
319.9924946432134
 30
0.0
 10
76.43378947751347
 20
319.9924946432134
 30
0.0
 10
76.65422572603517
 20
322.6113651572108
 30
0.0
 10
74.55019468948188
 20
323.1349927907419
 30
0.0
 10
74.55019468948188
 20
323.1349927907419
 30
0.0
 10
74.55019468948188
 20
323.1349927907419
 30
0.0
 10
63.77225359482304
 20
330.1047329142637
 30
0.0
 10
63.77225359482304
 20
330.1047329142637
 30
0.0
 10
61.66309613388557
 20
332.4328619310414
 30
0.0
 10
64.79241204728345
 20
333.1600818472606
 30
0.0
 10
65.51816727082138
 20
332.4328619310414
 30
0.0
  0
SPLINE
  5
1E1
100
AcDbEntity
  8
ALPHA
100
AcDbSpline
210
0.0
220
0.0
230
-1.0
 70
     8
 71
     3
 72
     8
 73
     4
 74
     0
 42
0.0000001
 43
0.0000001
 40
0.0
 40
0.0
 40
0.0
 40
0.0
 40
1.0
 40
1.0
 40
1.0
 40
1.0
 10
68.3223214089914
 20
67.20990350083866
 30
0.0
 10
66.54418449400663
 20
67.66908465639687
 30
0.0
 10
65.23035515896424
 20
69.28464068376775
 30
0.0
 10
65.23035515896424
 20
71.20558513517017
 30
0.0
  0
SPLINE
  5
1E2
100
AcDbEntity
  8
ALPHA
100
AcDbSpline
210
-0.9999999911455665
220
0.0001330746668986
230
0.0
 70
    24
 71
     3
 72
     8
 73
     4
 74
     0
 42
0.0000001
 43
0.0000001
 40
1.0
 40
1.0
 40
1.0
 40
1.0
 40
2.0
 40
2.0
 40
2.0
 40
2.0
 10
65.23035515896424
 20
71.20558513517017
 30
0.0
 10
65.23035515896424
 20
71.20558513517017
 30
0.0
 10
65.24060800773265
 20
148.2514190010148
 30
0.0
 10
65.24060800773265
 20
148.2514190010148
 30
0.0
  0
SPLINE
  5
1E3
100
AcDbEntity
  8
ALPHA
100
AcDbSpline
210
0.0
220
0.0
230
1.0
 70
     8
 71
     3
 72
     8
 73
     4
 74
     0
 42
0.0000001
 43
0.0000001
 40
2.0
 40
2.0
 40
2.0
 40
2.0
 40
3.0
 40
3.0
 40
3.0
 40
3.0
 10
65.24060800773265
 20
148.2514190010148
 30
0.0
 10
65.24060800773265
 20
156.0479781430775
 30
0.0
 10
62.53605297188477
 20
162.5812398475997
 30
0.0
 10
58.90068573713
 20
164.3029860943578
 30
0.0
  0
SPLINE
  5
1E4
100
AcDbEntity
  8
ALPHA
100
AcDbSpline
210
0.4215810632685153
220
0.9067907184645132
230
0.0
 70
    24
 71
     3
 72
     8
 73
     4
 74
     0
 42
0.0000001
 43
0.0000001
 40
3.0
 40
3.0
 40
3.0
 40
3.0
 40
4.0
 40
4.0
 40
4.0
 40
4.0
 10
58.90068573713
 20
164.3029860943578
 30
0.0
 10
58.90068573713
 20
164.3029860943578
 30
0.0
 10
54.9137922588855
 20
166.156554682425
 30
0.0
 10
54.9137922588855
 20
166.156554682425
 30
0.0
  0
SPLINE
  5
1E5
100
AcDbEntity
  8
ALPHA
100
AcDbSpline
210
0.0
220
0.0
230
-1.0
 70
     8
 71
     3
 72
     8
 73
     4
 74
     0
 42
0.0000001
 43
0.0000001
 40
4.0
 40
4.0
 40
4.0
 40
4.0
 40
5.0
 40
5.0
 40
5.0
 40
5.0
 10
54.9137922588855
 20
166.156554682425
 30
0.0
 10
53.73544699685499
 20
166.6933645500872
 30
0.0
 10
52.85150496374666
 20
167.7721107097958
 30
0.0
 10
52.58346620308595
 20
169.0742225033885
 30
0.0
  0
SPLINE
  5
1E6
100
AcDbEntity
  8
ALPHA
100
AcDbSpline
210
-0.9953836552338422
220
-0.0959759287181737
230
0.0
 70
    24
 71
     3
 72
     8
 73
     4
 74
     0
 42
0.0000001
 43
0.0000001
 40
5.0
 40
5.0
 40
5.0
 40
5.0
 40
6.0
 40
6.0
 40
6.0
 40
6.0
 10
52.58346620308595
 20
169.0742225033885
 30
0.0
 10
52.58346620308595
 20
169.0742225033885
 30
0.0
 10
44.5789207002918
 20
252.0908066351566
 30
0.0
 10
44.5789207002918
 20
252.0908066351566
 30
0.0
  0
SPLINE
  5
1E7
100
AcDbEntity
  8
ALPHA
100
AcDbSpline
210
0.0
220
0.0
230
-1.0
 70
     8
 71
     3
 72
    11
 73
     7
 74
     0
 42
0.0000001
 43
0.0000001
 40
6.0
 40
6.0
 40
6.0
 40
6.0
 40
7.0
 40
7.0
 40
7.0
 40
8.0
 40
8.0
 40
8.0
 40
8.0
 10
44.5789207002918
 20
252.0908066351566
 30
0.0
 10
44.52619176376834
 20
252.3559160104551
 30
0.0
 10
44.49763025648491
 20
252.6290811954999
 30
0.0
 10
44.49763025648491
 20
252.9095698439511
 30
0.0
 10
44.49763025648491
 20
253.1944525704458
 30
0.0
 10
44.52619176376834
 20
253.4720118335343
 30
0.0
 10
44.58185008565431
 20
253.7400505941954
 30
0.0
  0
SPLINE
  5
1E8
100
AcDbEntity
  8
ALPHA
100
AcDbSpline
210
-0.9921237440768887
220
0.1252616319503149
230
0.0
 70
    24
 71
     3
 72
     8
 73
     4
 74
     0
 42
0.0000001
 43
0.0000001
 40
8.0
 40
8.0
 40
8.0
 40
8.0
 40
9.0
 40
9.0
 40
9.0
 40
9.0
 10
44.58185008565431
 20
253.7400505941954
 30
0.0
 10
44.58185008565431
 20
253.7400505941954
 30
0.0
 10
50.12497953768065
 20
297.6439201208882
 30
0.0
 10
50.12497953768065
 20
297.6439201208882
 30
0.0
  0
SPLINE
  5
1E9
100
AcDbEntity
  8
ALPHA
100
AcDbSpline
210
0.0
220
0.0
230
-1.0
 70
     8
 71
     3
 72
     8
 73
     4
 74
     0
 42
0.0000001
 43
0.0000001
 40
9.0
 40
9.0
 40
9.0
 40
9.0
 40
10.0
 40
10.0
 40
10.0
 40
10.0
 10
50.12497953768065
 20
297.6439201208882
 30
0.0
 10
50.52410829330938
 20
299.3371048603628
 30
0.0
 10
51.5091141214209
 20
300.7366187172556
 30
0.0
 10
53.21767813404841
 20
300.7366187172556
 30
0.0
  0
SPLINE
  5
1EA
100
AcDbEntity
  8
ALPHA
100
AcDbSpline
210
0.0009730419748379
220
0.9999995265945456
230
0.0
 70
    24
 71
     3
 72
     8
 73
     4
 74
     0
 42
0.0000001
 43
0.0000001
 40
10.0
 40
10.0
 40
10.0
 40
10.0
 40
11.0
 40
11.0
 40
11.0
 40
11.0
 10
53.21767813404841
 20
300.7366187172556
 30
0.0
 10
53.21767813404841
 20
300.7366187172556
 30
0.0
 10
88.5915495635324
 20
300.7021984392475
 30
0.0
 10
88.5915495635324
 20
300.7021984392475
 30
0.0
  0
SPLINE
  5
1EB
100
AcDbEntity
  8
ALPHA
100
AcDbSpline
210
0.0
220
0.0
230
-1.0
 70
     8
 71
     3
 72
     8
 73
     4
 74
     0
 42
0.0000001
 43
0.0000001
 40
11.0
 40
11.0
 40
11.0
 40
11.0
 40
12.0
 40
12.0
 40
12.0
 40
12.0
 10
88.5915495635324
 20
300.7021984392475
 30
0.0
 10
89.43814193326971
 20
300.7021984392475
 30
0.0
 10
90.20271151285959
 20
300.3631220835482
 30
0.0
 10
90.76222411708062
 20
299.8145946744361
 30
0.0
  0
SPLINE
  5
1EC
100
AcDbEntity
  8
ALPHA
100
AcDbSpline
210
0.7054178173919593
220
0.7087917203988522
230
0.0
 70
    24
 71
     3
 72
     8
 73
     4
 74
     0
 42
0.0000001
 43
0.0000001
 40
12.0
 40
12.0
 40
12.0
 40
12.0
 40
13.0
 40
13.0
 40
13.0
 40
13.0
 10
90.76222411708062
 20
299.8145946744361
 30
0.0
 10
90.76222411708062
 20
299.8145946744361
 30
0.0
 10
109.8398462897965
 20
280.8277834479551
 30
0.0
 10
109.8398462897965
 20
280.8277834479551
 30
0.0
  0
SPLINE
  5
1ED
100
AcDbEntity
  8
ALPHA
100
AcDbSpline
210
0.0
220
0.0
230
1.0
 70
     8
 71
     3
 72
     8
 73
     4
 74
     0
 42
0.0000001
 43
0.0000001
 40
13.0
 40
13.0
 40
13.0
 40
13.0
 40
14.0
 40
14.0
 40
14.0
 40
14.0
 10
109.8398462897965
 20
280.8277834479551
 30
0.0
 10
110.3978942013361
 20
280.2682708437343
 30
0.0
 10
110.7464910594634
 20
279.4941807617162
 30
0.0
 10
110.7464910594634
 20
278.6395325822325
 30
0.0
  0
SPLINE
  5
1EE
100
AcDbEntity
  8
ALPHA
100
AcDbSpline
210
-0.9999992297749049
220
0.0012411484993624
230
0.0
 70
    24
 71
     3
 72
     8
 73
     4
 74
     0
 42
0.0000001
 43
0.0000001
 40
14.0
 40
14.0
 40
14.0
 40
14.0
 40
15.0
 40
15.0
 40
15.0
 40
15.0
 10
110.7464910594634
 20
278.6395325822325
 30
0.0
 10
110.7464910594634
 20
278.6395325822325
 30
0.0
 10
110.7157325131579
 20
253.8572260086918
 30
0.0
 10
110.7157325131579
 20
253.8572260086918
 30
0.0
  0
SPLINE
  5
1EF
100
AcDbEntity
  8
ALPHA
100
AcDbSpline
210
0.0
220
1.0
230
0.0
 70
    24
 71
     3
 72
     8
 73
     4
 74
     0
 42
0.0000001
 43
0.0000001
 40
15.0
 40
15.0
 40
15.0
 40
15.0
 40
16.0
 40
16.0
 40
16.0
 40
16.0
 10
110.7157325131579
 20
253.8572260086918
 30
0.0
 10
110.7157325131579
 20
253.8572260086918
 30
0.0
 10
109.8603519873333
 20
253.8572260086918
 30
0.0
 10
109.8603519873333
 20
253.8572260086918
 30
0.0
  0
SPLINE
  5
1F0
100
AcDbEntity
  8
ALPHA
100
AcDbSpline
210
-1.0
220
0.0
230
0.0
 70
    24
 71
     3
 72
     8
 73
     4
 74
     0
 42
0.0000001
 43
0.0000001
 40
16.0
 40
16.0
 40
16.0
 40
16.0
 40
17.0
 40
17.0
 40
17.0
 40
17.0
 10
109.8603519873333
 20
253.8572260086918
 30
0.0
 10
109.8603519873333
 20
253.8572260086918
 30
0.0
 10
109.8603519873333
 20
222.9426899328046
 30
0.0
 10
109.8603519873333
 20
222.9426899328046
 30
0.0
  0
SPLINE
  5
1F1
100
AcDbEntity
  8
ALPHA
100
AcDbSpline
210
0.0
220
1.0
230
0.0
 70
    24
 71
     3
 72
     8
 73
     4
 74
     0
 42
0.0000001
 43
0.0000001
 40
17.0
 40
17.0
 40
17.0
 40
17.0
 40
18.0
 40
18.0
 40
18.0
 40
18.0
 10
109.8603519873333
 20
222.9426899328046
 30
0.0
 10
109.8603519873333
 20
222.9426899328046
 30
0.0
 10
110.7391675960574
 20
222.9426899328046
 30
0.0
 10
110.7391675960574
 20
222.9426899328046
 30
0.0
  0
SPLINE
  5
1F2
100
AcDbEntity
  8
ALPHA
100
AcDbSpline
210
-0.9999963159258621
220
-0.0027144308249887
230
0.0
 70
    24
 71
     3
 72
     8
 73
     4
 74
     0
 42
0.0000001
 43
0.0000001
 40
18.0
 40
18.0
 40
18.0
 40
18.0
 40
19.0
 40
19.0
 40
19.0
 40
19.0
 10
110.7391675960574
 20
222.9426899328046
 30
0.0
 10
110.7391675960574
 20
222.9426899328046
 30
0.0
 10
110.7757849130875
 20
209.4528703388921
 30
0.0
 10
110.7757849130875
 20
209.4528703388921
 30
0.0
  0
SPLINE
  5
1F3
100
AcDbEntity
  8
ALPHA
100
AcDbSpline
210
0.0
220
0.0
230
1.0
 70
     8
 71
     3
 72
     8
 73
     4
 74
     0
 42
0.0000001
 43
0.0000001
 40
19.0
 40
19.0
 40
19.0
 40
19.0
 40
20.0
 40
20.0
 40
20.0
 40
20.0
 10
110.7757849130875
 20
209.4528703388921
 30
0.0
 10
110.7757849130875
 20
208.9761128711592
 30
0.0
 10
110.6952268156212
 20
208.5183964082821
 30
0.0
 10
110.5472928548193
 20
208.0943678770728
 30
0.0
  0
SPLINE
  5
1F4
100
AcDbEntity
  8
ALPHA
100
AcDbSpline
210
0.0
220
0.0
230
-1.0
 70
     8
 71
     3
 72
     8
 73
     4
 74
     0
 42
0.0000001
 43
0.0000001
 40
20.0
 40
20.0
 40
20.0
 40
20.0
 40
21.0
 40
21.0
 40
21.0
 40
21.0
 10
110.5472928548193
 20
208.0943678770728
 30
0.0
 10
109.1807345832535
 20
204.5351646617406
 30
0.0
 10
107.4904792291411
 20
200.0004761207252
 30
0.0
 10
106.547217142444
 20
193.5228727380889
 30
0.0
  0
SPLINE
  5
1F5
100
AcDbEntity
  8
ALPHA
100
AcDbSpline
210
0.0
220
0.0
230
-1.0
 70
     8
 71
     3
 72
     8
 73
     4
 74
     0
 42
0.0000001
 43
0.0000001
 40
21.0
 40
21.0
 40
21.0
 40
21.0
 40
22.0
 40
22.0
 40
22.0
 40
22.0
 10
106.547217142444
 20
193.5228727380889
 30
0.0
 10
105.8339118066966
 20
188.6286021438372
 30
0.0
 10
108.5099053352609
 20
183.9057005932864
 30
0.0
 10
110.73037943997
 20
183.0180968284752
 30
0.0
  0
SPLINE
  5
1F6
100
AcDbEntity
  8
ALPHA
100
AcDbSpline
210
-0.9994135069084231
220
0.0342438638153968
230
0.0
 70
    24
 71
     3
 72
     8
 73
     4
 74
     0
 42
0.0000001
 43
0.0000001
 40
22.0
 40
22.0
 40
22.0
 40
22.0
 40
23.0
 40
23.0
 40
23.0
 40
23.0
 10
110.73037943997
 20
183.0180968284752
 30
0.0
 10
110.73037943997
 20
183.0180968284752
 30
0.0
 10
110.6512860351849
 20
180.7097411628937
 30
0.0
 10
110.6512860351849
 20
180.7097411628937
 30
0.0
  0
SPLINE
  5
1F7
100
AcDbEntity
  8
ALPHA
100
AcDbSpline
210
0.0
220
0.0
230
-1.0
 70
     8
 71
     3
 72
     8
 73
     4
 74
     0
 42
0.0000001
 43
0.0000001
 40
23.0
 40
23.0
 40
23.0
 40
23.0
 40
24.0
 40
24.0
 40
24.0
 40
24.0
 10
110.6512860351849
 20
180.7097411628937
 30
0.0
 10
108.7442561642538
 20
174.6261401115021
 30
0.0
 10
108.1056501552478
 20
172.5360236554202
 30
0.0
 10
107.171176224638
 20
166.3264590334449
 30
0.0
  0
SPLINE
  5
1F8
100
AcDbEntity
  8
ALPHA
100
AcDbSpline
210
0.0
220
0.0
230
-1.0
 70
     8
 71
     3
 72
     8
 73
     4
 74
     0
 42
0.0000001
 43
0.0000001
 40
24.0
 40
24.0
 40
24.0
 40
24.0
 40
25.0
 40
25.0
 40
25.0
 40
25.0
 10
107.171176224638
 20
166.3264590334449
 30
0.0
 10
106.447618040122
 20
161.5361816195588
 30
0.0
 10
106.5926226155614
 20
156.610420132661
 30
0.0
 10
108.8145614129519
 20
155.7220840215091
 30
0.0
  0
SPLINE
  5
1F9
100
AcDbEntity
  8
ALPHA
100
AcDbSpline
210
-0.8934309881857604
220
0.4492004779042601
230
0.0
 70
    24
 71
     3
 72
     8
 73
     4
 74
     0
 42
0.0000001
 43
0.0000001
 40
25.0
 40
25.0
 40
25.0
 40
25.0
 40
26.0
 40
26.0
 40
26.0
 40
26.0
 10
108.8145614129519
 20
155.7220840215091
 30
0.0
 10
108.8145614129519
 20
155.7220840215091
 30
0.0
 10
102.5925469031863
 20
143.3468955579945
 30
0.0
 10
102.5925469031863
 20
143.3468955579945
 30
0.0
  0
SPLINE
  5
1FA
100
AcDbEntity
  8
ALPHA
100
AcDbSpline
210
-0.9999933717389478
220
0.003640944681027
230
0.0
 70
    24
 71
     3
 72
     8
 73
     4
 74
     0
 42
0.0000001
 43
0.0000001
 40
26.0
 40
26.0
 40
26.0
 40
26.0
 40
27.0
 40
27.0
 40
27.0
 40
27.0
 10
102.5925469031863
 20
143.3468955579945
 30
0.0
 10
102.5925469031863
 20
143.3468955579945
 30
0.0
 10
102.5588589715184
 20
134.0944318908123
 30
0.0
 10
102.5588589715184
 20
134.0944318908123
 30
0.0
  0
SPLINE
  5
1FB
100
AcDbEntity
  8
ALPHA
100
AcDbSpline
210
0.0
220
0.0
230
-1.0
 70
     8
 71
     3
 72
    11
 73
     7
 74
     0
 42
0.0000001
 43
0.0000001
 40
27.0
 40
27.0
 40
27.0
 40
27.0
 40
28.0
 40
28.0
 40
28.0
 40
29.0
 40
29.0
 40
29.0
 40
29.0
 10
102.5588589715184
 20
134.0944318908123
 30
0.0
 10
101.9436880454118
 20
133.3745354379994
 30
0.0
 10
101.5335740946738
 20
132.4415262000708
 30
0.0
 10
101.5335740946738
 20
131.4191707085886
 30
0.0
 10
101.5335740946738
 20
130.3521420903296
 30
0.0
 10
101.9334351966433
 20
129.4059506182702
 30
0.0
 10
102.5969409812299
 20
128.6728719313263
 30
0.0
  0
SPLINE
  5
1FC
100
AcDbEntity
  8
ALPHA
100
AcDbSpline
210
-0.9999994476710782
220
0.001051026897206
230
0.0
 70
    24
 71
     3
 72
     8
 73
     4
 74
     0
 42
0.0000001
 43
0.0000001
 40
29.0
 40
29.0
 40
29.0
 40
29.0
 40
30.0
 40
30.0
 40
30.0
 40
30.0
 10
102.5969409812299
 20
128.6728719313263
 30
0.0
 10
102.5969409812299
 20
128.6728719313263
 30
0.0
 10
102.5544648934747
 20
88.25900202245861
 30
0.0
 10
102.5544648934747
 20
88.25900202245861
 30
0.0
  0
SPLINE
  5
1FD
100
AcDbEntity
  8
ALPHA
100
AcDbSpline
210
0.0
220
0.0
230
-1.0
 70
     8
 71
     3
 72
    11
 73
     7
 74
     0
 42
0.0000001
 43
0.0000001
 40
30.0
 40
30.0
 40
30.0
 40
30.0
 40
31.0
 40
31.0
 40
31.0
 40
32.0
 40
32.0
 40
32.0
 40
32.0
 10
102.5544648934747
 20
88.25900202245861
 30
0.0
 10
101.9392939673681
 20
87.53910556964559
 30
0.0
 10
101.5335740946738
 20
86.57460543907109
 30
0.0
 10
101.5335740946738
 20
85.55298229392917
 30
0.0
 10
101.5335740946738
 20
84.48668602201099
 30
0.0
 10
101.931970503962
 20
83.58370298404713
 30
0.0
 10
102.5954762885487
 20
82.85208898978442
 30
0.0
  0
SPLINE
  5
1FE
100
AcDbEntity
  8
ALPHA
100
AcDbSpline
210
-0.9999971128567967
220
0.0024029727570722
230
0.0
 70
    24
 71
     3
 72
     8
 73
     4
 74
     0
 42
0.0000001
 43
0.0000001
 40
32.0
 40
32.0
 40
32.0
 40
32.0
 40
33.0
 40
33.0
 40
33.0
 40
33.0
 10
102.5954762885487
 20
82.85208898978442
 30
0.0
 10
102.5954762885487
 20
82.85208898978442
 30
0.0
 10
102.5661824349245
 20
70.66145180410194
 30
0.0
 10
102.5661824349245
 20
70.66145180410194
 30
0.0
  0
SPLINE
  5
1FF
100
AcDbEntity
  8
ALPHA
100
AcDbSpline
210
0.0
220
0.0
230
1.0
 70
     8
 71
     3
 72
     8
 73
     4
 74
     0
 42
0.0000001
 43
0.0000001
 40
33.0
 40
33.0
 40
33.0
 40
33.0
 40
34.0
 40
34.0
 40
34.0
 40
34.0
 10
102.5661824349245
 20
70.66145180410194
 30
0.0
 10
102.5661824349245
 20
69.16600057659002
 30
0.0
 10
101.505744933731
 20
67.91954710488323
 30
0.0
 10
100.0967105744102
 20
67.63173499302627
 30
0.0
  0
SPLINE
  5
200
100
AcDbEntity
  8
ALPHA
100
AcDbSpline
210
-0.0860619441767107
220
0.9962897880458902
230
0.0
 70
    24
 71
     3
 72
     8
 73
     4
 74
     0
 42
0.0000001
 43
0.0000001
 40
34.0
 40
34.0
 40
34.0
 40
34.0
 40
35.0
 40
35.0
 40
35.0
 40
35.0
 10
100.0967105744102
 20
67.63173499302627
 30
0.0
 10
100.0967105744102
 20
67.63173499302627
 30
0.0
 10
77.62165524197206
 20
65.69028484408659
 30
0.0
 10
77.62165524197206
 20
65.69028484408659
 30
0.0
  0
SPLINE
  5
201
100
AcDbEntity
  8
ALPHA
100
AcDbSpline
210
0.1612724899567384
220
0.9869099168531818
230
0.0
 70
    24
 71
     3
 72
     8
 73
     4
 74
     0
 42
0.0000001
 43
0.0000001
 40
35.0
 40
35.0
 40
35.0
 40
35.0
 40
36.0
 40
36.0
 40
36.0
 40
36.0
 10
77.62165524197206
 20
65.69028484408659
 30
0.0
 10
77.62165524197206
 20
65.69028484408659
 30
0.0
 10
68.3223214089914
 20
67.20990350083866
 30
0.0
 10
68.3223214089914
 20
67.20990350083866
 30
0.0
  0
SPLINE
  5
2E1
100
AcDbEntity
  8
ALPHA
100
AcDbSpline
210
-1.0
220
0.0
230
0.0
 70
    24
 71
     3
 72
     8
 73
     4
 74
     0
 42
0.0000001
 43
0.0000001
 40
0.0
 40
0.0
 40
0.0
 40
0.0
 40
1.0
 40
1.0
 40
1.0
 40
1.0
 10
68.02279175568469
 20
300.7263658684872
 30
0.0
 10
68.02279175568469
 20
300.7263658684872
 30
0.0
 10
68.02279175568469
 20
326.2416059675812
 30
0.0
 10
68.02279175568469
 20
326.2416059675812
 30
0.0
  0
SPLINE
  5
2E2
100
AcDbEntity
  8
ALPHA
100
AcDbSpline
210
0.0
220
0.0
230
-1.0
 70
     8
 71
     3
 72
     8
 73
     4
 74
     0
 42
0.0000001
 43
0.0000001
 40
1.0
 40
1.0
 40
1.0
 40
1.0
 40
1.564944410757284
 40
1.564944410757284
 40
1.564944410757284
 40
1.564944410757284
 10
68.02279175568469
 20
326.2416059675812
 30
0.0
 10
68.02279175568469
 20
326.5407363522377
 30
0.0
 10
68.16163168805843
 20
326.884276816273
 30
0.0
 10
68.37764487595854
 20
327.1265777995958
 30
0.0
  0
SPLINE
  5
2E3
100
AcDbEntity
  8
ALPHA
100
AcDbSpline
210
-0.9846187614269062
220
0.1747166123931702
230
0.0
 70
    24
 71
     3
 72
     8
 73
     4
 74
     0
 42
0.0000001
 43
0.0000001
 40
2.355841955183422
 40
2.355841955183422
 40
2.355841955183422
 40
2.355841955183422
 40
3.0
 40
3.0
 40
3.0
 40
3.0
 10
69.39685996979136
 20
329.7561075364846
 30
0.0
 10
69.8157674872786
 20
332.1168687449982
 30
0.0
 10
70.40438205532655
 20
335.4340172348339
 30
0.0
 10
70.40438205532655
 20
335.4340172348339
 30
0.0
  0
SPLINE
  5
2E4
100
AcDbEntity
  8
ALPHA
100
AcDbSpline
210
0.0
220
0.0
230
-1.0
 70
     8
 71
     3
 72
    11
 73
     7
 74
     0
 42
0.0000001
 43
0.0000001
 40
3.0
 40
3.0
 40
3.0
 40
3.0
 40
4.0
 40
4.0
 40
4.0
 40
5.0
 40
5.0
 40
5.0
 40
5.0
 10
70.40438205532655
 20
335.4340172348339
 30
0.0
 10
69.96058017292097
 20
335.5197017566843
 30
0.0
 10
69.62589789526521
 20
335.9078453172042
 30
0.0
 10
69.62589789526521
 20
336.3772793215308
 30
0.0
 10
69.62589789526521
 20
336.9067657257871
 30
0.0
 10
70.05651754354005
 20
337.5753979347578
 30
0.0
 10
70.58746864047731
 20
337.5753979347578
 30
0.0
  0
SPLINE
  5
2E5
100
AcDbEntity
  8
ALPHA
100
AcDbSpline
210
-0.9895172668748276
220
0.1444146064516012
230
0.0
 70
    24
 71
     3
 72
     8
 73
     4
 74
     0
 42
0.0000001
 43
0.0000001
 40
5.0
 40
5.0
 40
5.0
 40
5.0
 40
6.0
 40
6.0
 40
6.0
 40
6.0
 10
70.58746864047731
 20
337.5753979347578
 30
0.0
 10
70.58746864047731
 20
337.5753979347578
 30
0.0
 10
71.38865553709741
 20
343.06506610392
 30
0.0
 10
71.38865553709741
 20
343.06506610392
 30
0.0
  0
SPLINE
  5
2E6
100
AcDbEntity
  8
ALPHA
100
AcDbSpline
210
0.0
220
0.0
230
-1.0
 70
     8
 71
     3
 72
    11
 73
     7
 74
     0
 42
0.0000001
 43
0.0000001
 40
6.0
 40
6.0
 40
6.0
 40
6.0
 40
7.0
 40
7.0
 40
7.0
 40
8.0
 40
8.0
 40
8.0
 40
8.0
 10
71.38865553709741
 20
343.06506610392
 30
0.0
 10
70.85770444016003
 20
343.06506610392
 30
0.0
 10
70.4270847918853
 20
343.4956857521949
 30
0.0
 10
70.4270847918853
 20
344.0266368491322
 30
0.0
 10
70.4270847918853
 20
344.5575879460697
 30
0.0
 10
70.85770444016003
 20
345.2276848477218
 30
0.0
 10
71.38865553709741
 20
345.2276848477218
 30
0.0
  0
SPLINE
  5
2E7
100
AcDbEntity
  8
ALPHA
100
AcDbSpline
210
-0.9848254513086263
220
0.1735477757125119
230
0.0
 70
    24
 71
     3
 72
     8
 73
     4
 74
     0
 42
0.0000001
 43
0.0000001
 40
8.0
 40
8.0
 40
8.0
 40
8.0
 40
9.0
 40
9.0
 40
9.0
 40
9.0
 10
71.38865553709741
 20
345.2276848477218
 30
0.0
 10
71.38865553709741
 20
345.2276848477218
 30
0.0
 10
72.42639030173222
 20
351.1164817725127
 30
0.0
 10
72.42639030173222
 20
351.1164817725127
 30
0.0
  0
SPLINE
  5
2E8
100
AcDbEntity
  8
ALPHA
100
AcDbSpline
210
0.0
220
0.0
230
-1.0
 70
     8
 71
     3
 72
    11
 73
     7
 74
     0
 42
0.0000001
 43
0.0000001
 40
9.0
 40
9.0
 40
9.0
 40
9.0
 40
10.0
 40
10.0
 40
10.0
 40
11.0
 40
11.0
 40
11.0
 40
11.0
 10
72.42639030173222
 20
351.1164817725127
 30
0.0
 10
71.89543920479491
 20
351.1164817725127
 30
0.0
 10
71.46774894188252
 20
351.546369074447
 30
0.0
 10
71.46774894188252
 20
352.0780525177249
 30
0.0
 10
71.46774894188252
 20
352.6082712683217
 30
0.0
 10
71.89543920479491
 20
353.2791005163145
 30
0.0
 10
72.42639030173222
 20
353.2791005163145
 30
0.0
  0
SPLINE
  5
2E9
100
AcDbEntity
  8
ALPHA
100
AcDbSpline
210
0.0
220
1.0
230
0.0
 70
    24
 71
     3
 72
     8
 73
     4
 74
     0
 42
0.0000001
 43
0.0000001
 40
11.0
 40
11.0
 40
11.0
 40
11.0
 40
12.0
 40
12.0
 40
12.0
 40
12.0
 10
72.42639030173222
 20
353.2791005163145
 30
0.0
 10
72.42639030173222
 20
353.2791005163145
 30
0.0
 10
82.74807962619519
 20
353.2791005163145
 30
0.0
 10
82.74807962619519
 20
353.2791005163145
 30
0.0
  0
SPLINE
  5
2EA
100
AcDbEntity
  8
ALPHA
100
AcDbSpline
210
0.0
220
0.0
230
1.0
 70
     8
 71
     3
 72
    11
 73
     7
 74
     0
 42
0.0000001
 43
0.0000001
 40
12.0
 40
12.0
 40
12.0
 40
12.0
 40
13.0
 40
13.0
 40
13.0
 40
14.0
 40
14.0
 40
14.0
 40
14.0
 10
82.74807962619519
 20
353.2791005163145
 30
0.0
 10
83.27976306947318
 20
353.2791005163145
 30
0.0
 10
83.70891802506662
 20
352.6082712683217
 30
0.0
 10
83.70891802506662
 20
352.0780525177249
 30
0.0
 10
83.70891802506662
 20
351.546369074447
 30
0.0
 10
83.27976306947318
 20
351.1164817725127
 30
0.0
 10
82.74807962619519
 20
351.1164817725127
 30
0.0
  0
SPLINE
  5
2EB
100
AcDbEntity
  8
ALPHA
100
AcDbSpline
210
-0.9847625924225736
220
-0.173904101634125
230
0.0
 70
    24
 71
     3
 72
     8
 73
     4
 74
     0
 42
0.0000001
 43
0.0000001
 40
14.0
 40
14.0
 40
14.0
 40
14.0
 40
15.0
 40
15.0
 40
15.0
 40
15.0
 10
82.74807962619519
 20
351.1164817725127
 30
0.0
 10
82.74807962619519
 20
351.1164817725127
 30
0.0
 10
83.7880114298518
 20
345.2276848477218
 30
0.0
 10
83.7880114298518
 20
345.2276848477218
 30
0.0
  0
SPLINE
  5
2EC
100
AcDbEntity
  8
ALPHA
100
AcDbSpline
210
0.0
220
0.0
230
1.0
 70
     8
 71
     3
 72
    11
 73
     7
 74
     0
 42
0.0000001
 43
0.0000001
 40
15.0
 40
15.0
 40
15.0
 40
15.0
 40
16.0
 40
16.0
 40
16.0
 40
17.0
 40
17.0
 40
17.0
 40
17.0
 10
83.7880114298518
 20
345.2276848477218
 30
0.0
 10
84.31969487312988
 20
345.2276848477218
 30
0.0
 10
84.7503145214045
 20
344.5575879460697
 30
0.0
 10
84.7503145214045
 20
344.0266368491322
 30
0.0
 10
84.7503145214045
 20
343.4956857521949
 30
0.0
 10
84.31969487312988
 20
343.06506610392
 30
0.0
 10
83.7880114298518
 20
343.06506610392
 30
0.0
  0
SPLINE
  5
2ED
100
AcDbEntity
  8
ALPHA
100
AcDbSpline
210
-0.9894795070274298
220
-0.1446730976123571
230
0.0
 70
    24
 71
     3
 72
     8
 73
     4
 74
     0
 42
0.0000001
 43
0.0000001
 40
17.0
 40
17.0
 40
17.0
 40
17.0
 40
18.0
 40
18.0
 40
18.0
 40
18.0
 10
83.7880114298518
 20
343.06506610392
 30
0.0
 10
83.7880114298518
 20
343.06506610392
 30
0.0
 10
84.59066301915312
 20
337.5753979347578
 30
0.0
 10
84.59066301915312
 20
337.5753979347578
 30
0.0
  0
SPLINE
  5
2EE
100
AcDbEntity
  8
ALPHA
100
AcDbSpline
210
0.0
220
0.0
230
1.0
 70
     8
 71
     3
 72
    11
 73
     7
 74
     0
 42
0.0000001
 43
0.0000001
 40
18.0
 40
18.0
 40
18.0
 40
18.0
 40
19.0
 40
19.0
 40
19.0
 40
20.0
 40
20.0
 40
20.0
 40
20.0
 10
84.59066301915312
 20
337.5753979347578
 30
0.0
 10
85.11941707706876
 20
337.5753979347578
 30
0.0
 10
85.55003672534338
 20
336.9067657257871
 30
0.0
 10
85.55003672534338
 20
336.3772793215308
 30
0.0
 10
85.55003672534338
 20
335.8463282245933
 30
0.0
 10
85.11941707706876
 20
335.4142438836375
 30
0.0
 10
84.59066301915312
 20
335.4142438836375
 30
0.0
  0
SPLINE
  5
2EF
100
AcDbEntity
  8
ALPHA
100
AcDbSpline
210
-0.9785574122502126
220
-0.2059742482209072
230
0.0
 70
    24
 71
     3
 72
     8
 73
     4
 74
     0
 42
0.0000001
 43
0.0000001
 40
20.0
 40
20.0
 40
20.0
 40
20.0
 40
21.0
 40
21.0
 40
21.0
 40
21.0
 10
84.59066301915312
 20
335.4142438836375
 30
0.0
 10
84.59066301915312
 20
335.4142438836375
 30
0.0
 10
86.26920083181586
 20
327.4397245808082
 30
0.0
 10
86.26920083181586
 20
327.4397245808082
 30
0.0
  0
SPLINE
  5
2F0
100
AcDbEntity
  8
ALPHA
100
AcDbSpline
210
0.0
220
0.0
230
1.0
 70
     8
 71
     3
 72
     8
 73
     4
 74
     0
 42
0.0000001
 43
0.0000001
 40
21.0
 40
21.0
 40
21.0
 40
21.0
 40
22.0
 40
22.0
 40
22.0
 40
22.0
 10
86.26920083181586
 20
327.4397245808082
 30
0.0
 10
86.80088427509383
 20
327.4397245808082
 30
0.0
 10
87.21978638191894
 20
326.3023907138514
 30
0.0
 10
87.21978638191894
 20
326.3023907138514
 30
0.0
  0
SPLINE
  5
2F1
100
AcDbEntity
  8
ALPHA
100
AcDbSpline
210
-1.0
220
0.0
230
0.0
 70
    24
 71
     3
 72
     8
 73
     4
 74
     0
 42
0.0000001
 43
0.0000001
 40
22.0
 40
22.0
 40
22.0
 40
22.0
 40
23.0
 40
23.0
 40
23.0
 40
23.0
 10
87.21978638191894
 20
326.3023907138514
 30
0.0
 10
87.21978638191894
 20
326.3023907138514
 30
0.0
 10
87.21978638191894
 20
300.7263658684872
 30
0.0
 10
87.21978638191894
 20
300.7263658684872
 30
0.0
  0
SPLINE
  5
2F2
100
AcDbEntity
  8
ALPHA
100
AcDbSpline
210
0.0
220
1.0
230
0.0
 70
    24
 71
     3
 72
     8
 73
     4
 74
     0
 42
0.0000001
 43
0.0000001
 40
23.0
 40
23.0
 40
23.0
 40
23.0
 40
24.0
 40
24.0
 40
24.0
 40
24.0
 10
87.21978638191894
 20
300.7263658684872
 30
0.0
 10
87.21978638191894
 20
300.7263658684872
 30
0.0
 10
68.02279175568469
 20
300.7263658684872
 30
0.0
 10
68.02279175568469
 20
300.7263658684872
 30
0.0
  0
DIMENSION
  5
2F4
100
AcDbEntity
  8
COTATION1
100
AcDbDimension
  2
*D1
 10
110.730379
 20
41.008856
 30
0.0
 11
87.980367
 21
44.258856
 31
0.0
 70
    32
  3
SC_DEFAUT
100
AcDbAlignedDimension
 13
65.230355
 23
71.205585
 33
0.0
 14
110.730379
 24
183.018097
 34
0.0
100
AcDbRotatedDimension
  0
SPLINE
  5
349
100
AcDbEntity
  8
ALPHA
100
AcDbSpline
210
0.0
220
1.0
230
0.0
 70
    24
 71
     3
 72
     8
 73
     4
 74
     0
 42
0.0000001
 43
0.0000001
 40
0.0
 40
0.0
 40
0.0
 40
0.0
 40
0.8254979854494941
 40
0.8254979854494941
 40
0.8254979854494941
 40
0.8254979854494941
 10
47.65624002350693
 20
219.691072180526
 30
0.0
 10
47.65624002350693
 20
219.691072180526
 30
0.0
 10
33.83298201106981
 20
219.691072180526
 30
0.0
 10
29.00860926942641
 20
219.691072180526
 30
0.0
  0
SPLINE
  5
34A
100
AcDbEntity
  8
ALPHA
100
AcDbSpline
210
0.0
220
0.0
230
-1.0
 70
     8
 71
     3
 72
     8
 73
     4
 74
     0
 42
0.0000001
 43
0.0000001
 40
1.123555892689767
 40
1.123555892689767
 40
1.123555892689767
 40
1.123555892689767
 40
2.0
 40
2.0
 40
2.0
 40
2.0
 10
27.04518894247644
 20
219.7170616520661
 30
0.0
 10
26.297968780364
 20
219.8379735179314
 30
0.0
 10
25.73428869939675
 20
220.3665301018214
 30
0.0
 10
25.73428869939675
 20
221.0019721302059
 30
0.0
  0
SPLINE
  5
34B
100
AcDbEntity
  8
ALPHA
100
AcDbSpline
210
-1.0
220
0.0
230
0.0
 70
    24
 71
     3
 72
     8
 73
     4
 74
     0
 42
0.0000001
 43
0.0000001
 40
2.0
 40
2.0
 40
2.0
 40
2.0
 40
3.0
 40
3.0
 40
3.0
 40
3.0
 10
25.73428869939675
 20
221.0019721302059
 30
0.0
 10
25.73428869939675
 20
221.0019721302059
 30
0.0
 10
25.73428869939675
 20
246.206403788409
 30
0.0
 10
25.73428869939675
 20
246.206403788409
 30
0.0
  0
SPLINE
  5
34C
100
AcDbEntity
  8
ALPHA
100
AcDbSpline
210
0.0
220
0.0
230
-1.0
 70
     8
 71
     3
 72
     8
 73
     4
 74
     0
 42
0.0000001
 43
0.0000001
 40
3.0
 40
3.0
 40
3.0
 40
3.0
 40
4.0
 40
4.0
 40
4.0
 40
4.0
 10
25.73428869939675
 20
246.206403788409
 30
0.0
 10
25.73428869939675
 20
247.109386826373
 30
0.0
 10
27.04518864907652
 20
247.8431978596574
 30
0.0
 10
27.04518864907652
 20
247.8431978596574
 30
0.0
  0
SPLINE
  5
34D
100
AcDbEntity
  8
ALPHA
100
AcDbSpline
210
0.0
220
1.0
230
0.0
 70
    24
 71
     3
 72
     8
 73
     4
 74
     0
 42
0.0000001
 43
0.0000001
 40
4.20539679618083
 40
4.20539679618083
 40
4.20539679618083
 40
4.20539679618083
 40
5.0
 40
5.0
 40
5.0
 40
5.0
 10
29.00860926942642
 20
247.8431978596574
 30
0.0
 10
33.67073121222495
 20
247.8431978596574
 30
0.0
 10
45.01979319733504
 20
247.8431978596574
 30
0.0
 10
45.01979319733504
 20
247.8431978596574
 30
0.0
  0
DIMENSION
  5
34E
100
AcDbEntity
  8
COTATION1
100
AcDbDimension
  2
*D2
 10
110.730379
 20
31.008856
 30
0.0
 11
68.232334
 21
34.258856
 31
0.0
 70
    32
  3
SC_DEFAUT
100
AcDbAlignedDimension
 13
25.734289
 23
221.001972
 33
0.0
 14
110.730379
 24
183.018097
 34
0.0
100
AcDbRotatedDimension
  0
LINE
  5
389
100
AcDbEntity
  8
AXE
100
AcDbLine
 10
77.500085
 20
51.008856
 30
0.0
 11
77.499956
 21
370.652363
 31
0.0
  0
TEXT
  5
38A
100
AcDbEntity
  8
AXE
100
AcDbText
 10
70.023894
 20
51.008856
 30
0.0
 40
8.0
  1
Y
  7
ROMANS
 72
     2
 11
76.500085
 21
51.008856
 31
0.0
100
AcDbText
  0
LINE
  5
38B
100
AcDbEntity
  8
AXE
100
AcDbLine
 10
15.734289
 20
233.603748
 30
0.0
 11
124.860352
 21
233.603748
 31
0.0
  0
TEXT
  5
38C
100
AcDbEntity
  8
AXE
100
AcDbText
 10
118.384162
 20
234.603748
 30
0.0
 40
8.0
  1
Z
  7
ROMANS
 72
     2
 11
124.860352
 21
234.603748
 31
0.0
100
AcDbText
  0
LEADER
  5
4CD
100
AcDbEntity
  8
COTATION1
100
AcDbLeader
  3
SC_DEFAUT
 73
     0
 74
     0
 40
2.5
 41
10.119048
 76
     2
 10
81.994011
 20
359.576441
 30
0.0
 10
100.54756
 20
355.134535
 30
0.0
 77
   256
340
4CE
213
0.0
223
-0.09
233
0.0
1001
ACAD
1000
DSTYLE
1002
{
1070
     5
1000
OPEN30
1002
}
1000
LEANOF
1010
0.0
1020
-0.09
1030
0.0
  0
MTEXT
  5
4CE
102
{ACAD_REACTORS
330
4CD
102
}
100
AcDbEntity
  8
COTATION1
100
AcDbMText
 10
102.54756
 20
359.724535
 30
0.0
 40
2.5
 41
0.0
 71
     1
 72
     1
  1
\A1;Ø7...9
  7
ROMANS
1001
ACAD
1000
MTEXTBEGIN
1070
    73
1070
     1
1070
    44
1040
1.0
1070
    74
1070
     0
1000
MTEXTEND
  0
LEADER
  5
4E3
100
AcDbEntity
  8
COTATION1
100
AcDbLeader
  3
SC_DEFAUT
 73
     0
 74
     0
 40
2.5
 41
11.904762
 76
     2
 10
83.705413
 20
352.162655
 30
0.0
 10
100.54756
 20
347.774955
 30
0.0
 77
   256
340
4E4
213
0.0
223
-0.09
233
0.0
1001
ACAD
1000
DSTYLE
1002
{
1070
     5
1000
OPEN30
1002
}
1000
LEANOF
1010
0.0
1020
-0.09
1030
0.0
  0
MTEXT
  5
4E4
102
{ACAD_REACTORS
330
4E3
102
}
100
AcDbEntity
  8
COTATION1
100
AcDbMText
 10
102.54756
 20
352.364955
 30
0.0
 40
2.5
 41
0.0
 71
     1
 72
     1
  1
\A1;Ø9...11
  7
ROMANS
1001
ACAD
1000
MTEXTBEGIN
1070
    73
1070
     1
1070
    44
1040
1.0
1070
    74
1070
     0
1000
MTEXTEND
  0
LEADER
  5
4E5
100
AcDbEntity
  8
COTATION1
100
AcDbLeader
  3
SC_DEFAUT
 73
     0
 74
     0
 75
     1
 40
2.5
 41
15.0
 76
     3
 10
84.746799
 20
344.111325
 30
0.0
 10
95.54756
 20
339.495428
 30
0.0
 10
100.54756
 20
339.495428
 30
0.0
 77
   256
340
4E6
213
0.0
223
-0.09
233
0.0
1001
ACAD
1000
DSTYLE
1002
{
1070
     5
1000
OPEN30
1002
}
1000
LEANOF
1010
0.0
1020
-0.09
1030
0.0
  0
MTEXT
  5
4E6
102
{ACAD_REACTORS
330
4E5
102
}
100
AcDbEntity
  8
COTATION1
100
AcDbMText
 10
102.54756
 20
344.085428
 30
0.0
 40
2.5
 41
0.0
 71
     1
 72
     1
  1
\A1;Ø11...13
  7
ROMANS
1001
ACAD
1000
MTEXTBEGIN
1070
    73
1070
     1
1070
    44
1040
1.0
1070
    74
1070
     0
1000
MTEXTEND
  0
LEADER
  5
4EC
100
AcDbEntity
  8
COTATION1
100
AcDbLeader
  3
SC_DEFAUT
 73
     0
 74
     0
 75
     1
 40
2.5
 41
15.0
 76
     3
 10
85.546635
 20
336.460345
 30
0.0
 10
95.54756
 20
331.982523
 30
0.0
 10
100.54756
 20
331.982523
 30
0.0
 77
   256
340
4ED
213
0.0
223
-0.09
233
0.0
1001
ACAD
1000
DSTYLE
1002
{
1070
     5
1000
OPEN30
1002
}
1000
LEANOF
1010
0.0
1020
-0.09
1030
0.0
  0
MTEXT
  5
4ED
102
{ACAD_REACTORS
330
4EC
102
}
100
AcDbEntity
  8
COTATION1
100
AcDbMText
 10
102.54756
 20
336.572523
 30
0.0
 40
2.5
 41
0.0
 71
     1
 72
     1
  1
\A1;Ø13...15
  7
ROMANS
1001
ACAD
1000
MTEXTBEGIN
1070
    73
1070
     1
1070
    44
1040
1.0
1070
    74
1070
     0
1000
MTEXTEND
  0
ENDSEC
  0
SECTION
  2
OBJECTS
  0
DICTIONARY
  5
19
102
{ACAD_XDICTIONARY
360
932
102
}
100
AcDbDictionary
  3
ACAD_COLOR
350
BF
  3
ACAD_GROUP
350
1A
  3
ACAD_LAYOUT
350
1E
  3
ACAD_MATERIAL
350
BE
  3
ACAD_MLINESTYLE
350
1B
  3
ACAD_PLOTSETTINGS
350
22
  3
ACAD_PLOTSTYLENAME
350
1F
  3
ACAD_TABLESTYLE
350
C0
  3
ACAD_WIPEOUT_VARS
350
23
  3
ACDBHEADERROUNDTRIPXREC
350
90E
  3
ACDBVARIABLEDICTIONARY
350
1D2
  0
DICTIONARY
  5
904
100
AcDbDictionary
  3
ACAD_XREC_ROUNDTRIP
360
905
  0
DICTIONARY
  5
906
100
AcDbDictionary
  3
ACAD_XREC_ROUNDTRIP
360
907
  0
DICTIONARY
  5
908
100
AcDbDictionary
  3
ACAD_XREC_ROUNDTRIP
360
909
  0
DICTIONARY
  5
93A
100
AcDbDictionary
  3
ACAD_XREC_ROUNDTRIP
360
93B
  0
DICTIONARY
  5
90A
100
AcDbDictionary
  3
ACAD_XREC_ROUNDTRIP
360
90B
  0
DICTIONARY
  5
902
100
AcDbDictionary
  3
ACAD_XREC_ROUNDTRIP
360
903
  0
DICTIONARY
  5
93C
100
AcDbDictionary
  3
ACAD_XREC_ROUNDTRIP
360
93D
  0
DICTIONARY
  5
1B0
100
AcDbDictionary
  3
ACAD_LAYOUTSELFREF
360
92F
  3
ACAD_SORTENTS
360
1B1
  0
DICTIONARY
  5
930
100
AcDbDictionary
  3
ACAD_LAYOUTSELFREF
360
931
  0
DICTIONARY
  5
932
100
AcDbDictionary
  3
ACAD_XREC_ROUNDTRIP
360
933
  0
DICTIONARY
  5
BF
102
{ACAD_REACTORS
330
19
102
}
100
AcDbDictionary
  0
DICTIONARY
  5
1A
102
{ACAD_REACTORS
330
19
102
}
100
AcDbDictionary
  0
DICTIONARY
  5
1E
102
{ACAD_XDICTIONARY
360
936
102
}
102
{ACAD_REACTORS
330
19
102
}
100
AcDbDictionary
  3
LAYOUT1
350
21
  3
MODEL
350
20
  0
DICTIONARY
  5
BE
102
{ACAD_REACTORS
330
19
102
}
100
AcDbDictionary
  0
DICTIONARY
  5
1B
102
{ACAD_XDICTIONARY
360
934
102
}
102
{ACAD_REACTORS
330
19
102
}
100
AcDbDictionary
  3
STANDARD
350
1C
  0
DICTIONARY
  5
22
102
{ACAD_REACTORS
330
19
102
}
100
AcDbDictionary
  0
ACAD_ZOMBIE_OBJECT
  5
1F
102
{ACAD_REACTORS
330
19
102
}
100
AcDbZombieObject
 90
      499
 91
      517
 93
       86
310
405010041939BDC9B585B2
350
1D
340
1D
 94
        0
  0
DICTIONARY
  5
C0
102
{ACAD_XDICTIONARY
360
938
102
}
102
{ACAD_REACTORS
330
19
102
}
100
AcDbDictionary
  3
STANDARD
350
C1
  0
ACAD_ZOMBIE_OBJECT
  5
23
102
{ACAD_REACTORS
330
19
102
}
100
AcDbZombieObject
 90
      499
 91
      525
 93
       10
310
4047
 94
        0
1001
ACAD
1000
AcadProxyRoundTripData
1071
      521
1071
   851991
1070
     0
  0
DICTIONARY
  5
90E
102
{ACAD_REACTORS
330
19
102
}
100
AcDbDictionary
  3
CEPSNTYPE
350
918
  3
DIMSTYLEDATA
350
91C
  3
FINGERPRINTGUID
350
919
  3
HYPERLINKBASE
350
911
  3
INSUNITS
350
917
  3
LAYOUTDICT
350
913
  3
LWETCUNION
350
916
  3
PLOTSETDICT
350
914
  3
PLOTSTYLNAMDICT
350
915
  3
PSVPSCALE
350
91B
  3
PUCSBASE
350
91F
  3
PUCSORGBACK
350
925
  3
PUCSORGBOTTOM
350
921
  3
PUCSORGFRONT
350
924
  3
PUCSORGLEFT
350
922
  3
PUCSORGRIGHT
350
923
  3
PUCSORGTOP
350
920
  3
PUCSORTHOREF
350
91D
  3
PUCSORTHOVIEW
350
91E
  3
STYLESHEET
350
912
  3
TSTACKALIGN
350
90F
  3
TSTACKSIZE
350
910
  3
UCSBASE
350
928
  3
UCSORGBACK
350
92E
  3
UCSORGBOTTOM
350
92A
  3
UCSORGFRONT
350
92D
  3
UCSORGLEFT
350
92B
  3
UCSORGRIGHT
350
92C
  3
UCSORGTOP
350
929
  3
UCSORTHOREF
350
926
  3
UCSORTHOVIEW
350
927
  3
VERSIONGUID
350
91A
  0
DICTIONARY
  5
1D2
102
{ACAD_REACTORS
330
19
102
}
100
AcDbDictionary
  3
CTABLESTYLE
350
1D3
  3
DIMASSOC
350
1D4
  3
PROJECTNAME
350
1D5
  0
XRECORD
  5
905
102
{ACAD_REACTORS
330
904
102
}
100
AcDbXrecord
102
EXTNAMES
  1
BYBLOCK
  2
ByBlock
  0
XRECORD
  5
907
102
{ACAD_REACTORS
330
906
102
}
100
AcDbXrecord
102
EXTNAMES
  1
BYLAYER
  2
ByLayer
  0
XRECORD
  5
909
102
{ACAD_REACTORS
330
908
102
}
100
AcDbXrecord
102
EXTNAMES
  1
CONTINUOUS
  2
Continuous
  0
XRECORD
  5
93B
102
{ACAD_REACTORS
330
93A
102
}
100
AcDbXrecord
102
PLOTBIT
280
     0
  0
XRECORD
  5
90B
102
{ACAD_REACTORS
330
90A
102
}
100
AcDbXrecord
102
EXTNAMES
  1
STANDARD
  2
Standard
  0
XRECORD
  5
903
102
{ACAD_REACTORS
330
902
102
}
100
AcDbXrecord
102
EXTNAMES
  1
STANDARD
  2
Standard
  0
XRECORD
  5
93D
102
{ACAD_REACTORS
330
93C
102
}
100
AcDbXrecord
102
ACADR14ROUNDTRIP
1000
DSTYLE
1002
{
1070
   279
 70
     2
1070
   341
340
CF
1070
   342
340
CF
1002
}
  0
XRECORD
  5
92F
102
{ACAD_REACTORS
330
1B0
102
}
100
AcDbXrecord
340
A
  0
SORTENTSTABLE
  5
1B1
102
{ACAD_REACTORS
330
1B0
102
}
100
AcDbSortentsTable
330
A
331
38A
  5
537
331
1FE
  5
9C
331
2F4
  5
533
331
36
  5
5F
331
1F4
  5
8A
331
1EB
  5
74
331
2E1
  5
36
331
4CD
  5
53C
331
2EA
  5
4A
331
38B
  5
538
331
1E1
  5
6A
331
1FF
  5
9D
331
37
  5
64
331
2EB
  5
4B
331
1EC
  5
75
331
2E2
  5
37
331
4CE
  5
53D
331
1F5
  5
8B
331
1E2
  5
6B
331
200
  5
9E
331
38C
  5
539
331
38
  5
69
331
41
  5
A3
331
1F6
  5
8C
331
2EC
  5
4C
331
2E3
  5
38
331
1ED
  5
76
331
349
  5
A5
331
2E
  5
2E
331
1E3
  5
6C
331
201
  5
9F
331
1F7
  5
95
331
2ED
  5
4D
331
2E4
  5
3A
331
1EE
  5
77
331
34A
  5
A6
331
2F
  5
2F
331
1E4
  5
6D
331
4EC
  5
542
331
3A
  5
A0
331
30
  5
30
331
34B
  5
A7
331
1EF
  5
78
331
2E5
  5
3B
331
1F8
  5
96
331
2EE
  5
53
331
4ED
  5
543
331
1E5
  5
6E
331
3B
  5
A1
331
1F9
  5
97
331
2EF
  5
54
331
4E3
  5
53E
331
2E6
  5
3C
331
34C
  5
A8
331
31
  5
31
331
1E6
  5
6F
331
3C
  5
A2
331
1FA
  5
98
331
2F0
  5
59
331
4E4
  5
53F
331
2E7
  5
41
331
34D
  5
A9
331
32
  5
32
331
1F0
  5
79
331
1E7
  5
70
331
1FB
  5
99
331
2F1
  5
5A
331
4E5
  5
540
331
34E
  5
535
331
33
  5
33
331
1F1
  5
7A
331
1E8
  5
71
331
1FC
  5
9A
331
2F2
  5
5E
331
4E6
  5
541
331
34
  5
34
331
1F2
  5
80
331
1E9
  5
72
331
2E8
  5
47
331
389
  5
536
331
1FD
  5
9B
331
1F3
  5
81
331
1EA
  5
73
331
2E9
  5
49
  0
XRECORD
  5
931
102
{ACAD_REACTORS
330
930
102
}
100
AcDbXrecord
340
B
  0
XRECORD
  5
933
102
{ACAD_REACTORS
330
932
102
}
100
AcDbXrecord
102
EXTNAMES
  1
ACDBVARIABLEDICTIONARY
  2
AcDbVariableDictionary
  0
DICTIONARY
  5
936
100
AcDbDictionary
  3
ACAD_XREC_ROUNDTRIP
360
937
  0
ACAD_ZOMBIE_OBJECT
  5
21
102
{ACAD_XDICTIONARY
360
8FB
102
}
102
{ACAD_REACTORS
330
1E
102
}
100
AcDbZombieObject
 90
      499
 91
      515
 93
      812
310
AAAAAAAAAA5A69074C61796F757431406A800000000000000000000000000000000000000000000A1000000000000008902A6A6A10232D5E076BC5510408CB5781DAF154410232D5E076BC5510408CB5781DAF15C410232D5E076BC5710408CB5781DAF15C40
330
B
330
0
340
0
340
0
 94
        0
  0
ACAD_ZOMBIE_OBJECT
  5
20
102
{ACAD_XDICTIONARY
360
8F9
102
}
102
{ACAD_REACTORS
330
1E
102
}
100
AcDbZombieObject
 90
      499
 91
      515
 93
      420
310
A00012AAAAAAAA5A69054D6F64656CAA80000000000000000000000000000000000000000000000000000000000000002AAAAAAAAE
330
A
330
0
340
0
340
0
 94
        0
  0
DICTIONARY
  5
934
100
AcDbDictionary
  3
ACAD_XREC_ROUNDTRIP
360
935
  0
MLINESTYLE
  5
1C
102
{ACAD_REACTORS
330
1B
102
}
100
AcDbMlineStyle
  2
STANDARD
 70
     0
  3

 62
     0
 51
90.0
 52
90.0
 71
     2
 49
0.5
 62
   256
  6
BYLAYER
 49
-0.5
 62
   256
  6
BYLAYER
  0
ACAD_ZOMBIE_OBJECT
  5
1D
102
{ACAD_REACTORS
330
1F
102
}
100
AcDbZombieObject
 90
      499
 91
      518
 93
        0
 94
        0
  0
DICTIONARY
  5
938
100
AcDbDictionary
  3
ACAD_XREC_ROUNDTRIP
360
939
  0
ACAD_ZOMBIE_OBJECT
  5
C1
102
{ACAD_REACTORS
330
C0
102
}
100
AcDbZombieObject
 90
      499
 91
      525
 93
     1841
310
4214DD185B99185C9928000000000000F83F0000000000003E0FC00000000000004901028000000C1008070000C3001FDFF8000000C1003FBFF000000182007F7FE00000030400FEFFC00000060801FDFF8000000C1003FBFF000000182000000000000000C2020B0000001820100E000186003FBFF000000182007F7FE000
310
00030400FEFFC00000060801FDFF8000000C1003FBFF000000182007F7FE0000003040000000000000012404160000003040201C00030C007F7FE00000030400FEFFC00000060801FDFF8000000C1003FBFF000000182007F7FE00000030400FEFFC000000608000
340
17
340
17
340
17
 94
        0
1001
ACAD
1000
AcadProxyRoundTripData
1071
      524
1071
   851991
1070
     0
  0
XRECORD
  5
918
102
{ACAD_REACTORS
330
90E
102
}
100
AcDbXrecord
 90
        0
  0
XRECORD
  5
91C
102
{ACAD_REACTORS
330
90E
102
}
100
AcDbXrecord
1000
DSTYLE
1002
{
1070
   278
 70
     0
1070
   371
 70
     0
1070
   372
 70
     0
1002
}
  0
XRECORD
  5
919
102
{ACAD_REACTORS
330
90E
102
}
100
AcDbXrecord
  1

  0
XRECORD
  5
911
102
{ACAD_REACTORS
330
90E
102
}
100
AcDbXrecord
  1

  0
XRECORD
  5
917
102
{ACAD_REACTORS
330
90E
102
}
100
AcDbXrecord
 90
        0
  0
XRECORD
  5
913
102
{ACAD_REACTORS
330
90E
102
}
100
AcDbXrecord
340
1E
  0
XRECORD
  5
916
102
{ACAD_REACTORS
330
90E
102
}
100
AcDbXrecord
 90
    10752
  0
XRECORD
  5
914
102
{ACAD_REACTORS
330
90E
102
}
100
AcDbXrecord
340
22
  0
XRECORD
  5
915
102
{ACAD_REACTORS
330
90E
102
}
100
AcDbXrecord
340
1F
  0
XRECORD
  5
91B
102
{ACAD_REACTORS
330
90E
102
}
100
AcDbXrecord
 40
0.0
  0
XRECORD
  5
91F
102
{ACAD_REACTORS
330
90E
102
}
100
AcDbXrecord
340
0
  0
XRECORD
  5
925
102
{ACAD_REACTORS
330
90E
102
}
100
AcDbXrecord
 10
0.0
 20
0.0
 30
0.0
  0
XRECORD
  5
921
102
{ACAD_REACTORS
330
90E
102
}
100
AcDbXrecord
 10
0.0
 20
0.0
 30
0.0
  0
XRECORD
  5
924
102
{ACAD_REACTORS
330
90E
102
}
100
AcDbXrecord
 10
0.0
 20
0.0
 30
0.0
  0
XRECORD
  5
922
102
{ACAD_REACTORS
330
90E
102
}
100
AcDbXrecord
 10
0.0
 20
0.0
 30
0.0
  0
XRECORD
  5
923
102
{ACAD_REACTORS
330
90E
102
}
100
AcDbXrecord
 10
0.0
 20
0.0
 30
0.0
  0
XRECORD
  5
920
102
{ACAD_REACTORS
330
90E
102
}
100
AcDbXrecord
 10
0.0
 20
0.0
 30
0.0
  0
XRECORD
  5
91D
102
{ACAD_REACTORS
330
90E
102
}
100
AcDbXrecord
340
0
  0
XRECORD
  5
91E
102
{ACAD_REACTORS
330
90E
102
}
100
AcDbXrecord
 70
     0
  0
XRECORD
  5
912
102
{ACAD_REACTORS
330
90E
102
}
100
AcDbXrecord
  1

  0
XRECORD
  5
90F
102
{ACAD_REACTORS
330
90E
102
}
100
AcDbXrecord
 90
        1
  0
XRECORD
  5
910
102
{ACAD_REACTORS
330
90E
102
}
100
AcDbXrecord
 90
       70
  0
XRECORD
  5
928
102
{ACAD_REACTORS
330
90E
102
}
100
AcDbXrecord
340
0
  0
XRECORD
  5
92E
102
{ACAD_REACTORS
330
90E
102
}
100
AcDbXrecord
 10
0.0
 20
0.0
 30
0.0
  0
XRECORD
  5
92A
102
{ACAD_REACTORS
330
90E
102
}
100
AcDbXrecord
 10
0.0
 20
0.0
 30
0.0
  0
XRECORD
  5
92D
102
{ACAD_REACTORS
330
90E
102
}
100
AcDbXrecord
 10
0.0
 20
0.0
 30
0.0
  0
XRECORD
  5
92B
102
{ACAD_REACTORS
330
90E
102
}
100
AcDbXrecord
 10
0.0
 20
0.0
 30
0.0
  0
XRECORD
  5
92C
102
{ACAD_REACTORS
330
90E
102
}
100
AcDbXrecord
 10
0.0
 20
0.0
 30
0.0
  0
XRECORD
  5
929
102
{ACAD_REACTORS
330
90E
102
}
100
AcDbXrecord
 10
0.0
 20
0.0
 30
0.0
  0
XRECORD
  5
926
102
{ACAD_REACTORS
330
90E
102
}
100
AcDbXrecord
340
0
  0
XRECORD
  5
927
102
{ACAD_REACTORS
330
90E
102
}
100
AcDbXrecord
 70
     0
  0
XRECORD
  5
91A
102
{ACAD_REACTORS
330
90E
102
}
100
AcDbXrecord
  1
{2DF8675F-16DB-40A5-A83F-9A16DB0CFBE7}
  0
DICTIONARYVAR
  5
1D3
102
{ACAD_REACTORS
330
1D2
102
}
100
DictionaryVariables
280
     0
  1
STANDARD
  0
DICTIONARYVAR
  5
1D4
102
{ACAD_REACTORS
330
1D2
102
}
100
DictionaryVariables
280
     0
  1
1
  0
DICTIONARYVAR
  5
1D5
102
{ACAD_REACTORS
330
1D2
102
}
100
DictionaryVariables
280
     0
  1

  0
XRECORD
  5
937
102
{ACAD_REACTORS
330
936
102
}
100
AcDbXrecord
102
EXTNAMES
  1
LAYOUT1
  2
Layout1
  1
MODEL
  2
Model
  0
DICTIONARY
  5
8FB
100
AcDbDictionary
  3
ACAD_XREC_ROUNDTRIP
360
8FC
  0
DICTIONARY
  5
8F9
100
AcDbDictionary
  3
ACAD_XREC_ROUNDTRIP
360
8FA
  0
XRECORD
  5
935
102
{ACAD_REACTORS
330
934
102
}
100
AcDbXrecord
102
EXTNAMES
  1
STANDARD
  2
Standard
  0
XRECORD
  5
939
102
{ACAD_REACTORS
330
938
102
}
100
AcDbXrecord
102
EXTNAMES
  1
STANDARD
  2
Standard
  0
XRECORD
  5
8FC
102
{ACAD_REACTORS
330
8FB
102
}
100
AcDbXrecord
102
SHADEPLOT
 70
     0
102
SHADEPLOTRESLEVEL
 70
     2
102
SHADEPLOTCUSTOMDPI
 70
   300
  0
XRECORD
  5
8FA
102
{ACAD_REACTORS
330
8F9
102
}
100
AcDbXrecord
102
SHADEPLOT
 70
     0
102
SHADEPLOTRESLEVEL
 70
     2
102
SHADEPLOTCUSTOMDPI
 70
   300
  0
ENDSEC
  0
EOF
