  0
SECTION
  2
HEADER
  9
$ACADVER
  1
AC1014
  9
$ACADMAINTVER
 70
     0
  9
$DWGCODEPAGE
  3
ANSI_1252
  9
$INSBASE
 10
76.791089
 20
107.525
 30
0.0
  9
$EXTMIN
 10
13.184713
 20
72.754398
 30
0.0
  9
$EXTMAX
 10
104.662686
 20
116.959222
 30
0.0
  9
$LIMMIN
 10
0.0
 20
0.0
  9
$LIMMAX
 10
210.0
 20
297.0
  9
$ORTHOMODE
 70
     0
  9
$REGENMODE
 70
     1
  9
$FILLMODE
 70
     1
  9
$QTEXTMODE
 70
     0
  9
$MIRRTEXT
 70
     1
  9
$DRAGMODE
 70
     2
  9
$LTSCALE
 40
19.36
  9
$OSMODE
 70
     0
  9
$ATTMODE
 70
     1
  9
$TEXTSIZE
 40
0.2
  9
$TRACEWID
 40
0.05
  9
$TEXTSTYLE
  7
ROMANS
  9
$CLAYER
  8
0
  9
$CELTYPE
  6
BYLAYER
  9
$CECOLOR
 62
   256
  9
$CELTSCALE
 40
1.0
  9
$DELOBJ
 70
     1
  9
$DISPSILH
 70
     0
  9
$DIMSCALE
 40
1.0
  9
$DIMASZ
 40
3.0
  9
$DIMEXO
 40
0.0625
  9
$DIMDLI
 40
0.38
  9
$DIMRND
 40
0.01
  9
$DIMDLE
 40
0.0
  9
$DIMEXE
 40
0.18
  9
$DIMTP
 40
0.0
  9
$DIMTM
 40
0.0
  9
$DIMTXT
 40
2.5
  9
$DIMCEN
 40
0.09
  9
$DIMTSZ
 40
0.0
  9
$DIMTOL
 70
     0
  9
$DIMLIM
 70
     0
  9
$DIMTIH
 70
     0
  9
$DIMTOH
 70
     0
  9
$DIMSE1
 70
     0
  9
$DIMSE2
 70
     0
  9
$DIMTAD
 70
     1
  9
$DIMZIN
 70
    12
  9
$DIMBLK
  1

  9
$DIMASO
 70
     1
  9
$DIMSHO
 70
     1
  9
$DIMPOST
  1

  9
$DIMAPOST
  1

  9
$DIMALT
 70
     0
  9
$DIMALTD
 70
     2
  9
$DIMALTF
 40
25.4
  9
$DIMLFAC
 40
1.0
  9
$DIMTOFL
 70
     1
  9
$DIMTVP
 40
0.0
  9
$DIMTIX
 70
     0
  9
$DIMSOXD
 70
     0
  9
$DIMSAH
 70
     0
  9
$DIMBLK1
  1

  9
$DIMBLK2
  1

  9
$DIMSTYLE
  2
SC_STAND
  9
$DIMCLRD
 70
     0
  9
$DIMCLRE
 70
     0
  9
$DIMCLRT
 70
     0
  9
$DIMTFAC
 40
1.0
  9
$DIMGAP
 40
1.0
  9
$DIMJUST
 70
     0
  9
$DIMSD1
 70
     0
  9
$DIMSD2
 70
     0
  9
$DIMTOLJ
 70
     1
  9
$DIMTZIN
 70
    12
  9
$DIMALTZ
 70
    12
  9
$DIMALTTZ
 70
    12
  9
$DIMFIT
 70
     5
  9
$DIMUPT
 70
     0
  9
$DIMUNIT
 70
     2
  9
$DIMDEC
 70
     4
  9
$DIMTDEC
 70
     4
  9
$DIMALTU
 70
     2
  9
$DIMALTTD
 70
     2
  9
$DIMTXSTY
  7
ROMANS
  9
$DIMAUNIT
 70
     0
  9
$LUNITS
 70
     2
  9
$LUPREC
 70
     4
  9
$SKETCHINC
 40
0.1
  9
$FILLETRAD
 40
0.0
  9
$AUNITS
 70
     0
  9
$AUPREC
 70
     0
  9
$MENU
  1
acad
  9
$ELEVATION
 40
0.0
  9
$PELEVATION
 40
0.0
  9
$THICKNESS
 40
0.0
  9
$LIMCHECK
 70
     0
  9
$BLIPMODE
 70
     1
  9
$CHAMFERA
 40
0.0
  9
$CHAMFERB
 40
0.0
  9
$CHAMFERC
 40
0.0
  9
$CHAMFERD
 40
0.0
  9
$SKPOLY
 70
     0
  9
$TDCREATE
 40
2450574.673725925
  9
$TDUPDATE
 40
2451387.895609757
  9
$TDINDWG
 40
0.0006945718
  9
$TDUSRTIMER
 40
0.0006945718
  9
$USRTIMER
 70
     1
  9
$ANGBASE
 50
0.0
  9
$ANGDIR
 70
     0
  9
$PDMODE
 70
     0
  9
$PDSIZE
 40
0.0
  9
$PLINEWID
 40
0.0
  9
$COORDS
 70
     1
  9
$SPLFRAME
 70
     0
  9
$SPLINETYPE
 70
     6
  9
$SPLINESEGS
 70
     8
  9
$ATTDIA
 70
     0
  9
$ATTREQ
 70
     1
  9
$HANDLING
 70
     1
  9
$HANDSEED
  5
26D
  9
$SURFTAB1
 70
     6
  9
$SURFTAB2
 70
     6
  9
$SURFTYPE
 70
     6
  9
$SURFU
 70
     6
  9
$SURFV
 70
     6
  9
$UCSNAME
  2

  9
$UCSORG
 10
0.0
 20
0.0
 30
0.0
  9
$UCSXDIR
 10
1.0
 20
0.0
 30
0.0
  9
$UCSYDIR
 10
0.0
 20
1.0
 30
0.0
  9
$PUCSNAME
  2

  9
$PUCSORG
 10
0.0
 20
0.0
 30
0.0
  9
$PUCSXDIR
 10
1.0
 20
0.0
 30
0.0
  9
$PUCSYDIR
 10
0.0
 20
1.0
 30
0.0
  9
$USERI1
 70
     0
  9
$USERI2
 70
     0
  9
$USERI3
 70
     0
  9
$USERI4
 70
     0
  9
$USERI5
 70
     0
  9
$USERR1
 40
0.0
  9
$USERR2
 40
0.0
  9
$USERR3
 40
0.0
  9
$USERR4
 40
0.0
  9
$USERR5
 40
0.0
  9
$WORLDVIEW
 70
     1
  9
$SHADEDGE
 70
     3
  9
$SHADEDIF
 70
    70
  9
$TILEMODE
 70
     1
  9
$MAXACTVP
 70
    16
  9
$PINSBASE
 10
0.0
 20
0.0
 30
0.0
  9
$PLIMCHECK
 70
     0
  9
$PEXTMIN
 10
1.000000E+20
 20
1.000000E+20
 30
1.000000E+20
  9
$PEXTMAX
 10
-1.000000E+20
 20
-1.000000E+20
 30
-1.000000E+20
  9
$PLIMMIN
 10
0.0
 20
0.0
  9
$PLIMMAX
 10
12.0
 20
9.0
  9
$UNITMODE
 70
     0
  9
$VISRETAIN
 70
     0
  9
$PLINEGEN
 70
     0
  9
$PSLTSCALE
 70
     1
  9
$TREEDEPTH
 70
  3020
  9
$PICKSTYLE
 70
     1
  9
$CMLSTYLE
  2
STANDARD
  9
$CMLJUST
 70
     0
  9
$CMLSCALE
 40
1.0
  9
$PROXYGRAPHICS
 70
     1
  9
$MEASUREMENT
 70
     0
  0
ENDSEC
  0
SECTION
  2
CLASSES
  0
CLASS
  1
DICTIONARYVAR
  2
AcDbDictionaryVar
  3
"AutoCAD"
 90
        0
280
     0
281
     0
  0
CLASS
  1
LWPOLYLINE
  2
AcDbPolyline
  3
"AutoCAD"
 90
        0
280
     0
281
     1
  0
ENDSEC
  0
SECTION
  2
TABLES
  0
TABLE
  2
VPORT
  5
211
100
AcDbSymbolTable
 70
     1
  0
VPORT
  5
268
100
AcDbSymbolTableRecord
100
AcDbViewportTableRecord
  2
*ACTIVE
 70
     0
 10
0.0
 20
0.0
 11
1.0
 21
1.0
 12
283.244621
 22
169.500718
 13
0.0
 23
0.0
 14
1.0
 24
1.0
 15
10.0
 25
10.0
 16
0.0
 26
0.0
 36
1.0
 17
0.0
 27
0.0
 37
0.0
 40
339.001436
 41
1.671053
 42
50.0
 43
0.0
 44
0.0
 50
0.0
 51
0.0
 71
     0
 72
   100
 73
     1
 74
     1
 75
     0
 76
     1
 77
     0
 78
     0
  0
ENDTAB
  0
TABLE
  2
LTYPE
  5
20E
100
AcDbSymbolTable
 70
    23
  0
LTYPE
  5
21A
100
AcDbSymbolTableRecord
100
AcDbLinetypeTableRecord
  2
BYBLOCK
 70
     0
  3

 72
    65
 73
     0
 40
0.0
  0
LTYPE
  5
21B
100
AcDbSymbolTableRecord
100
AcDbLinetypeTableRecord
  2
BYLAYER
 70
     0
  3

 72
    65
 73
     0
 40
0.0
  0
LTYPE
  5
21C
100
AcDbSymbolTableRecord
100
AcDbLinetypeTableRecord
  2
CONTINUOUS
 70
     0
  3
Solid line
 72
    65
 73
     0
 40
0.0
  0
LTYPE
  5
22F
100
AcDbSymbolTableRecord
100
AcDbLinetypeTableRecord
  2
AXES
 70
     0
  3
____ _ ____ _ ____ _ ____ _ ____ _ ____ _ ____ 
 72
    65
 73
     4
 40
2.0
 49
1.25
 74
     0
 49
-0.25
 74
     0
 49
0.25
 74
     0
 49
-0.25
 74
     0
  0
LTYPE
  5
230
100
AcDbSymbolTableRecord
100
AcDbLinetypeTableRecord
  2
AXES2
 70
     0
  3
___ _ ___ _ ___ _ ___ _ ___ _ ___ _ ___ _ ___ _
 72
    65
 73
     4
 40
1.125
 49
0.75
 74
     0
 49
-0.125
 74
     0
 49
0.125
 74
     0
 49
-0.125
 74
     0
  0
LTYPE
  5
231
100
AcDbSymbolTableRecord
100
AcDbLinetypeTableRecord
  2
AXESX2
 70
     0
  3
________  __  ________  __  ________  __  _____
 72
    65
 73
     4
 40
4.0
 49
2.5
 74
     0
 49
-0.5
 74
     0
 49
0.5
 74
     0
 49
-0.5
 74
     0
  0
LTYPE
  5
232
100
AcDbSymbolTableRecord
100
AcDbLinetypeTableRecord
  2
TIRETPT
 70
     0
  3
__ . __ . __ . __ . __ . __ . __ . __ . __ . __
 72
    65
 73
     4
 40
1.0
 49
0.5
 74
     0
 49
-0.25
 74
     0
 49
0.0
 74
     0
 49
-0.25
 74
     0
  0
LTYPE
  5
233
100
AcDbSymbolTableRecord
100
AcDbLinetypeTableRecord
  2
TIRETPT2
 70
     0
  3
_._._._._._._._._._._._._._._._._._._._._._._._
 72
    65
 73
     4
 40
0.5
 49
0.25
 74
     0
 49
-0.125
 74
     0
 49
0.0
 74
     0
 49
-0.125
 74
     0
  0
LTYPE
  5
234
100
AcDbSymbolTableRecord
100
AcDbLinetypeTableRecord
  2
TIRETPTX2
 70
     0
  3
____  .  ____  .  ____  .  ____  .  ____  .  __
 72
    65
 73
     4
 40
2.0
 49
1.0
 74
     0
 49
-0.5
 74
     0
 49
0.0
 74
     0
 49
-0.5
 74
     0
  0
LTYPE
  5
235
100
AcDbSymbolTableRecord
100
AcDbLinetypeTableRecord
  2
DISCONTINU
 70
     0
  3
__ __ __ __ __ __ __ __ __ __ __ __ __ __ __ __
 72
    65
 73
     2
 40
0.75
 49
0.5
 74
     0
 49
-0.25
 74
     0
  0
LTYPE
  5
236
100
AcDbSymbolTableRecord
100
AcDbLinetypeTableRecord
  2
DISCONTINU2
 70
     0
  3
_ _ _ _ _ _ _ _ _ _ _ _ _ _ _ _ _ _ _ _ _ _ _ _
 72
    65
 73
     2
 40
0.375
 49
0.25
 74
     0
 49
-0.125
 74
     0
  0
LTYPE
  5
237
100
AcDbSymbolTableRecord
100
AcDbLinetypeTableRecord
  2
DISCONTINUX2
 70
     0
  3
____  ____  ____  ____  ____  ____  ____  ____ 
 72
    65
 73
     2
 40
1.5
 49
1.0
 74
     0
 49
-0.5
 74
     0
  0
LTYPE
  5
238
100
AcDbSymbolTableRecord
100
AcDbLinetypeTableRecord
  2
DIVISE
 70
     0
  3
____ . . ____ . . ____ . . ____ . . ____ . . __
 72
    65
 73
     6
 40
1.25
 49
0.5
 74
     0
 49
-0.25
 74
     0
 49
0.0
 74
     0
 49
-0.25
 74
     0
 49
0.0
 74
     0
 49
-0.25
 74
     0
  0
LTYPE
  5
239
100
AcDbSymbolTableRecord
100
AcDbLinetypeTableRecord
  2
DIVISE2
 70
     0
  3
__..__..__..__..__..__..__..__..__..__..__..__.
 72
    65
 73
     6
 40
0.625
 49
0.25
 74
     0
 49
-0.125
 74
     0
 49
0.0
 74
     0
 49
-0.125
 74
     0
 49
0.0
 74
     0
 49
-0.125
 74
     0
  0
LTYPE
  5
23A
100
AcDbSymbolTableRecord
100
AcDbLinetypeTableRecord
  2
DIVISEX2
 70
     0
  3
________  .  .  ________  .  .  ________  .  . 
 72
    65
 73
     6
 40
2.5
 49
1.0
 74
     0
 49
-0.5
 74
     0
 49
0.0
 74
     0
 49
-0.5
 74
     0
 49
0.0
 74
     0
 49
-0.5
 74
     0
  0
LTYPE
  5
23B
100
AcDbSymbolTableRecord
100
AcDbLinetypeTableRecord
  2
POINTILLE
 70
     0
  3
. . . . . . . . . . . . . . . . . . . . . . . .
 72
    65
 73
     2
 40
0.25
 49
0.0
 74
     0
 49
-0.25
 74
     0
  0
LTYPE
  5
23C
100
AcDbSymbolTableRecord
100
AcDbLinetypeTableRecord
  2
POINTILLE2
 70
     0
  3
...............................................
 72
    65
 73
     2
 40
0.125
 49
0.0
 74
     0
 49
-0.125
 74
     0
  0
LTYPE
  5
23D
100
AcDbSymbolTableRecord
100
AcDbLinetypeTableRecord
  2
POINTILLEX2
 70
     0
  3
.  .  .  .  .  .  .  .  .  .  .  .  .  .  .  . 
 72
    65
 73
     2
 40
0.5
 49
0.0
 74
     0
 49
-0.5
 74
     0
  0
LTYPE
  5
23E
100
AcDbSymbolTableRecord
100
AcDbLinetypeTableRecord
  2
CACHE
 70
     0
  3
__ __ __ __ __ __ __ __ __ __ __ __ __ __ __ __
 72
    65
 73
     2
 40
0.375
 49
0.25
 74
     0
 49
-0.125
 74
     0
  0
LTYPE
  5
23F
100
AcDbSymbolTableRecord
100
AcDbLinetypeTableRecord
  2
CACHE2
 70
     0
  3
_ _ _ _ _ _ _ _ _ _ _ _ _ _ _ _ _ _ _ _ _ _ _ _
 72
    65
 73
     2
 40
0.1875
 49
0.125
 74
     0
 49
-0.0625
 74
     0
  0
LTYPE
  5
240
100
AcDbSymbolTableRecord
100
AcDbLinetypeTableRecord
  2
CACHEX2
 70
     0
  3
____ ____ ____ ____ ____ ____ ____ ____ ____ __
 72
    65
 73
     2
 40
0.75
 49
0.5
 74
     0
 49
-0.25
 74
     0
  0
LTYPE
  5
241
100
AcDbSymbolTableRecord
100
AcDbLinetypeTableRecord
  2
FANTOME
 70
     0
  3
______  __  __  ______  __  __  ______  __  __ 
 72
    65
 73
     6
 40
2.5
 49
1.25
 74
     0
 49
-0.25
 74
     0
 49
0.25
 74
     0
 49
-0.25
 74
     0
 49
0.25
 74
     0
 49
-0.25
 74
     0
  0
LTYPE
  5
242
100
AcDbSymbolTableRecord
100
AcDbLinetypeTableRecord
  2
FANTOME2
 70
     0
  3
___ _ _ ___ _ _ ___ _ _ ___ _ _ ___ _ _ ___ _ _
 72
    65
 73
     6
 40
1.25
 49
0.625
 74
     0
 49
-0.125
 74
     0
 49
0.125
 74
     0
 49
-0.125
 74
     0
 49
0.125
 74
     0
 49
-0.125
 74
     0
  0
LTYPE
  5
243
100
AcDbSymbolTableRecord
100
AcDbLinetypeTableRecord
  2
FANTOMEX2
 70
     0
  3
____________    ____    ____    ____________   
 72
    65
 73
     6
 40
5.0
 49
2.5
 74
     0
 49
-0.5
 74
     0
 49
0.5
 74
     0
 49
-0.5
 74
     0
 49
0.5
 74
     0
 49
-0.5
 74
     0
  0
LTYPE
  5
244
100
AcDbSymbolTableRecord
100
AcDbLinetypeTableRecord
  2
0
 70
     0
  3
MEDUSA PEN 0
 72
    65
 73
     0
 40
0.0
  0
ENDTAB
  0
TABLE
  2
LAYER
  5
20B
100
AcDbSymbolTable
 70
    21
  0
LAYER
  5
217
100
AcDbSymbolTableRecord
100
AcDbLayerTableRecord
  2
0
 70
     0
 62
     7
  6
CONTINUOUS
  0
LAYER
  5
24B
100
AcDbSymbolTableRecord
100
AcDbLayerTableRecord
  2
AXE
 70
     0
 62
    80
  6
AXES2
  0
LAYER
  5
24C
100
AcDbSymbolTableRecord
100
AcDbLayerTableRecord
  2
CONSTRUCTION
 70
     0
 62
     6
  6
CONTINUOUS
  0
LAYER
  5
24D
100
AcDbSymbolTableRecord
100
AcDbLayerTableRecord
  2
COTATION1
 70
     0
 62
     2
  6
CONTINUOUS
  0
LAYER
  5
24E
100
AcDbSymbolTableRecord
100
AcDbLayerTableRecord
  2
HACHURES
 70
     0
 62
     9
  6
CONTINUOUS
  0
LAYER
  5
24F
100
AcDbSymbolTableRecord
100
AcDbLayerTableRecord
  2
FMULT
 70
     0
 62
     6
  6
CONTINUOUS
  0
LAYER
  5
250
100
AcDbSymbolTableRecord
100
AcDbLayerTableRecord
  2
TEXTE
 70
     0
 62
   131
  6
CONTINUOUS
  0
LAYER
  5
251
100
AcDbSymbolTableRecord
100
AcDbLayerTableRecord
  2
FDP_CARTOUCHE
 70
     0
 62
     4
  6
CONTINUOUS
  0
LAYER
  5
252
100
AcDbSymbolTableRecord
100
AcDbLayerTableRecord
  2
FDP_TEXTES
 70
     0
 62
     5
  6
CONTINUOUS
  0
LAYER
  5
253
100
AcDbSymbolTableRecord
100
AcDbLayerTableRecord
  2
FDP_LOGO_MG
 70
     0
 62
    30
  6
CONTINUOUS
  0
LAYER
  5
254
100
AcDbSymbolTableRecord
100
AcDbLayerTableRecord
  2
FDP_LOGO_SCH
 70
     0
 62
     3
  6
CONTINUOUS
  0
LAYER
  5
255
100
AcDbSymbolTableRecord
100
AcDbLayerTableRecord
  2
FDP_FDP
 70
     0
 62
     5
  6
CONTINUOUS
  0
LAYER
  5
256
100
AcDbSymbolTableRecord
100
AcDbLayerTableRecord
  2
COTATION2
 70
     0
 62
     2
  6
CONTINUOUS
  0
LAYER
  5
257
100
AcDbSymbolTableRecord
100
AcDbLayerTableRecord
  2
COTATION3
 70
     0
 62
     2
  6
CONTINUOUS
  0
LAYER
  5
258
100
AcDbSymbolTableRecord
100
AcDbLayerTableRecord
  2
COTATION4
 70
     0
 62
     2
  6
CONTINUOUS
  0
LAYER
  5
259
100
AcDbSymbolTableRecord
100
AcDbLayerTableRecord
  2
ASHADE
 70
     0
 62
     7
  6
CONTINUOUS
  0
LAYER
  5
25A
100
AcDbSymbolTableRecord
100
AcDbLayerTableRecord
  2
POINTILLE_COURT
 70
     0
 62
    40
  6
CACHE2
  0
LAYER
  5
25B
100
AcDbSymbolTableRecord
100
AcDbLayerTableRecord
  2
POINTILLE_MOYEN
 70
     0
 62
   140
  6
CACHE
  0
LAYER
  5
25C
100
AcDbSymbolTableRecord
100
AcDbLayerTableRecord
  2
POINTILLE_LONG
 70
     0
 62
   240
  6
CACHEX2
  0
LAYER
  5
25D
100
AcDbSymbolTableRecord
100
AcDbLayerTableRecord
  2
ALPHA
 70
     0
 62
   255
  6
CONTINUOUS
  0
LAYER
  5
25E
100
AcDbSymbolTableRecord
100
AcDbLayerTableRecord
  2
DEFPOINTS
 70
     0
 62
     7
  6
CONTINUOUS
  0
ENDTAB
  0
TABLE
  2
STYLE
  5
20C
100
AcDbSymbolTable
 70
     4
  0
STYLE
  5
218
100
AcDbSymbolTableRecord
100
AcDbTextStyleTableRecord
  2
STANDARD
 70
     0
 40
0.0
 41
1.0
 50
0.0
 71
     0
 42
0.2
  3
txt
  4

  0
STYLE
  5
22C
100
AcDbSymbolTableRecord
100
AcDbTextStyleTableRecord
  2
ROMANS
 70
     0
 40
0.0
 41
1.0
 50
0.0
 71
     0
 42
2.9
  3
romans.shx
  4

  0
STYLE
  5
22D
100
AcDbSymbolTableRecord
100
AcDbTextStyleTableRecord
  2
INFOCAR
 70
     0
 40
0.0
 41
1.34
 50
0.0
 71
     0
 42
2.0
  3
ROMANS.SHX
  4

  0
STYLE
  5
22E
100
AcDbSymbolTableRecord
100
AcDbTextStyleTableRecord
  2
CARTOUCHE
 70
     0
 40
0.0
 41
1.0
 50
0.0
 71
     0
 42
0.2
  3
ROMANS.SHX
  4

  0
ENDTAB
  0
TABLE
  2
VIEW
  5
20F
100
AcDbSymbolTable
 70
     0
  0
ENDTAB
  0
TABLE
  2
UCS
  5
210
100
AcDbSymbolTable
 70
     0
  0
ENDTAB
  0
TABLE
  2
APPID
  5
212
100
AcDbSymbolTable
 70
     3
  0
APPID
  5
219
100
AcDbSymbolTableRecord
100
AcDbRegAppTableRecord
  2
ACAD
 70
     0
  0
APPID
  5
247
100
AcDbSymbolTableRecord
100
AcDbRegAppTableRecord
  2
AVE_RENDER
 70
     0
  0
APPID
  5
248
100
AcDbSymbolTableRecord
100
AcDbRegAppTableRecord
  2
AVE_MATERIAL
 70
     0
  0
ENDTAB
  0
TABLE
  2
DIMSTYLE
  5
213
100
AcDbSymbolTable
 70
     2
  0
DIMSTYLE
105
249
100
AcDbSymbolTableRecord
100
AcDbDimStyleTableRecord
  2
STANDARD
 70
     0
  3

  4

  5

  6

  7

 40
1.0
 41
0.18
 42
0.0625
 43
0.38
 44
0.18
 45
0.0
 46
0.0
 47
0.0
 48
0.0
140
0.18
141
0.09
142
0.0
143
25.4
144
1.0
145
0.0
146
1.0
147
0.09
 71
     0
 72
     0
 73
     1
 74
     1
 75
     0
 76
     0
 77
     0
 78
     0
170
     0
171
     2
172
     0
173
     0
174
     0
175
     0
176
     0
177
     0
178
     0
270
     2
271
     4
272
     4
273
     2
274
     2
340
22C
275
     0
280
     0
281
     0
282
     0
283
     1
284
    12
285
    12
286
    12
287
     5
288
     0
  0
DIMSTYLE
105
24A
102
{ACAD_REACTORS
330
1DC
330
1E9
102
}
100
AcDbSymbolTableRecord
100
AcDbDimStyleTableRecord
  2
SC_STAND
 70
     0
  3

  4

  5

  6

  7

 40
1.0
 41
3.0
 42
0.0625
 43
0.38
 44
0.18
 45
0.01
 46
0.0
 47
0.0
 48
0.0
140
2.5
141
0.09
142
0.0
143
25.4
144
1.0
145
0.0
146
1.0
147
1.0
 71
     0
 72
     0
 73
     0
 74
     0
 75
     0
 76
     0
 77
     1
 78
    12
170
     0
171
     2
172
     1
173
     0
174
     0
175
     0
176
     0
177
     0
178
     0
270
     2
271
     4
272
     4
273
     2
274
     2
340
22C
275
     0
280
     0
281
     0
282
     0
283
     1
284
    12
285
    12
286
    12
287
     5
288
     0
  0
ENDTAB
  0
TABLE
  2
BLOCK_RECORD
  5
20A
100
AcDbSymbolTable
 70
     7
  0
BLOCK_RECORD
  5
220
100
AcDbSymbolTableRecord
100
AcDbBlockTableRecord
  2
*MODEL_SPACE
  0
BLOCK_RECORD
  5
21D
100
AcDbSymbolTableRecord
100
AcDbBlockTableRecord
  2
*PAPER_SPACE
  0
BLOCK_RECORD
  5
225
100
AcDbSymbolTableRecord
100
AcDbBlockTableRecord
  2
AVE_RENDER
  0
BLOCK_RECORD
  5
226
100
AcDbSymbolTableRecord
100
AcDbBlockTableRecord
  2
AVE_GLOBAL
  0
BLOCK_RECORD
  5
227
100
AcDbSymbolTableRecord
100
AcDbBlockTableRecord
  2
SCH_ISO
  0
BLOCK_RECORD
  5
22A
100
AcDbSymbolTableRecord
100
AcDbBlockTableRecord
  2
*D5
  0
BLOCK_RECORD
  5
22B
100
AcDbSymbolTableRecord
100
AcDbBlockTableRecord
  2
*D6
  0
ENDTAB
  0
ENDSEC
  0
SECTION
  2
BLOCKS
  0
BLOCK
  5
261
100
AcDbEntity
  8
0
100
AcDbBlockBegin
  2
*MODEL_SPACE
 70
     0
 10
0.0
 20
0.0
 30
0.0
  3
*MODEL_SPACE
  1

  0
ENDBLK
  5
262
100
AcDbEntity
  8
0
100
AcDbBlockEnd
  0
BLOCK
  5
25F
100
AcDbEntity
 67
     1
  8
0
100
AcDbBlockBegin
  2
*PAPER_SPACE
 70
     0
 10
0.0
 20
0.0
 30
0.0
  3
*PAPER_SPACE
  1

  0
ENDBLK
  5
260
100
AcDbEntity
 67
     1
  8
0
100
AcDbBlockEnd
  0
BLOCK
  5
18D
100
AcDbEntity
  8
0
100
AcDbBlockBegin
  2
AVE_RENDER
 70
     0
 10
0.0
 20
0.0
 30
0.0
  3
AVE_RENDER
  1
AVE_RENDER
  0
ENDBLK
  5
18E
100
AcDbEntity
  8
0
100
AcDbBlockEnd
  0
BLOCK
  5
190
100
AcDbEntity
  8
0
100
AcDbBlockBegin
  2
AVE_GLOBAL
 70
     0
 10
0.0
 20
0.0
 30
0.0
  3
AVE_GLOBAL
  1
AVE_GLOBAL
  0
ENDBLK
  5
191
100
AcDbEntity
  8
0
100
AcDbBlockEnd
  0
BLOCK
  5
1CC
100
AcDbEntity
  8
0
100
AcDbBlockBegin
  2
SCH_ISO
 70
     0
 10
0.0
 20
0.0
 30
0.0
  3
SCH_ISO
  1

  0
INSERT
  5
1C3
100
AcDbEntity
  8
ASHADE
 62
     1
100
AcDbBlockReference
  2
AVE_RENDER
 10
0.0
 20
0.0
 30
0.0
1001
AVE_RENDER
1002
{
1070
     6
1000
Pref
1070
    50
1070
    20
1070
     1
1070
     0
1000

1070
    10
1070
     1
1070
    30
1040
25.4
1070
     1
1040
0.3
1040
0.7
1040
0.0
1040
10.0
1010
-1.0
1020
-1.0
1030
-1.0
1040
0.3
1070
    49
1070
     0
1070
     0
1010
1.0
1020
1.0
1030
1.0
1040
45.0
1070
     1
1070
     0
1000
WCS
1040
0.0
1002
}
  0
INSERT
  5
1C4
100
AcDbEntity
  8
ASHADE
 62
     3
100
AcDbBlockReference
  2
AVE_RENDER
 10
0.0
 20
0.0
 30
0.0
1001
AVE_RENDER
1002
{
1070
     0
1000
Full Opt
1070
     0
1070
     1
1070
     1
1070
     1
1070
     0
1070
     0
1070
     0
1070
     1
1070
     1
1040
0.0001
1040
0.0001
1002
}
  0
INSERT
  5
1C5
100
AcDbEntity
  8
ASHADE
 62
     4
100
AcDbBlockReference
  2
AVE_RENDER
 10
0.0
 20
0.0
 30
0.0
1001
AVE_RENDER
1002
{
1070
     0
1000
Quick Opt
1070
     0
1070
     1
1070
     1
1070
     1
1070
     0
1070
     0
1070
     1
1002
}
  0
INSERT
  5
1C6
100
AcDbEntity
  8
ASHADE
 62
     5
100
AcDbBlockReference
  2
AVE_RENDER
 10
0.0
 20
0.0
 30
0.0
1001
AVE_RENDER
1002
{
1070
     1
1000
Scanl Opt
1070
     2
1070
     0
1070
     2
1040
2.0
1040
4.0
1070
     0
1070
     1
1070
     0
1040
0.03
1002
}
  0
INSERT
  5
1C7
100
AcDbEntity
  8
ASHADE
 62
     6
100
AcDbBlockReference
  2
AVE_RENDER
 10
0.0
 20
0.0
 30
0.0
1001
AVE_RENDER
1002
{
1070
     2
1000
Raytr Opt
1070
     2
1070
     0
1070
     2
1040
2.0
1040
4.0
1070
     0
1070
     1
1070
     1
1040
0.03
1070
     3
1040
0.03
1002
}
  0
INSERT
  5
1C8
100
AcDbEntity
  8
ASHADE
 62
     7
100
AcDbBlockReference
  2
AVE_RENDER
 10
0.0
 20
0.0
 30
0.0
1001
AVE_RENDER
1002
{
1070
     0
1000
RFile Opt
1070
     5
1070
   640
1070
   480
1070
 10000
1070
     3
1070
    32
1070
    24
1070
     0
1070
     0
1070
     0
1070
     1
1070
     0
1070
     0
1070
     0
1002
}
  0
INSERT
  5
1C9
100
AcDbEntity
  8
ASHADE
 62
     8
100
AcDbBlockReference
  2
AVE_RENDER
 10
0.0
 20
0.0
 30
0.0
1001
AVE_RENDER
1002
{
1070
     0
1000
Fog Opt
1070
     0
1070
     0
1040
0.0
1040
1.0
1040
0.0
1040
1.0
1010
0.5
1020
0.5
1030
0.5
1002
}
  0
INSERT
  5
1CA
100
AcDbEntity
  8
ASHADE
 62
     9
100
AcDbBlockReference
  2
AVE_RENDER
 10
0.0
 20
0.0
 30
0.0
1001
AVE_RENDER
1002
{
1070
     0
1000
BG Opt
1070
     0
1070
     1
1010
0.0
1020
0.0
1030
0.0
1010
1.0
1020
0.0
1030
0.0
1010
0.0
1020
1.0
1030
0.0
1010
0.0
1020
0.0
1030
1.0
1040
0.5
1040
0.33
1040
0.0
1000

1070
     1
1000

1070
     1
1070
     1
1040
1.0
1040
1.0
1040
0.0
1040
0.0
1070
     0
1002
}
  0
INSERT
  5
1CB
100
AcDbEntity
  8
ASHADE
 62
     1
100
AcDbBlockReference
  2
AVE_GLOBAL
 10
0.0
 20
0.0
 30
0.0
1001
AVE_MATERIAL
1002
{
1000
*GLOBAL*
1000
1
1000
Finition globale.
1002
{
1002
}
1002
{
1070
    63
1002
{
1002
{
1010
-1.0
1020
-1.0
1030
-1.0
1002
}
1040
0.1
1000

1040
0.0
1002
{
1002
}
1040
0.0
1002
{
1002
}
1040
0.0
1002
}
1002
{
1002
{
1010
-1.0
1020
-1.0
1030
-1.0
1002
}
1040
0.7
1000

1040
0.0
1002
{
1002
}
1040
0.0
1002
{
1002
}
1040
0.0
1002
}
1002
{
1002
{
1010
-1.0
1020
-1.0
1030
-1.0
1002
}
1040
0.2
1000

1040
0.0
1002
{
1002
}
1040
0.0
1002
{
1002
}
1040
0.0
1002
}
1002
{
1070
     0
1002
{
1070
     1
1002
{
1040
1.0
1040
1.0
1000

1040
0.0
1002
{
1002
}
1040
0.0
1002
{
1002
}
1040
0.0
1002
}
1002
}
1040
1.0
1040
0.0
1040
0.0
1002
}
1002
{
1040
1.0
1040
1.0
1000

1040
0.0
1002
{
1002
}
1040
0.0
1002
{
1002
}
1040
0.0
1002
}
1002
{
1040
0.5
1040
1.0
1000

1040
0.0
1002
{
1002
}
1040
0.0
1002
{
1002
}
1040
0.0
1002
}
1002
{
1070
     0
1040
0.0
1002
{
1002
}
1040
1.0
1002
{
1002
}
1040
0.0
1002
}
1002
{
1040
0.0
1002
{
1002
{
1010
0.0
1020
0.0
1030
0.0
1002
}
1040
1.0
1000

1040
0.0
1002
{
1002
}
1040
0.0
1002
{
1002
}
1040
0.0
1002
}
1002
}
1002
{
1002
{
1070
     1
1002
{
1040
0.0
1040
1.0
1000

1040
0.0
1002
{
1002
}
1040
0.0
1002
{
1002
}
1040
0.0
1002
}
1002
}
1040
0.0
1002
{
1002
}
1010
1.0
1020
0.0
1030
0.0
1010
0.0
1020
1.0
1030
0.0
1010
0.0
1020
0.0
1030
1.0
1070
     0
1002
}
1002
{
1002
{
1040
1.0
1040
1.0
1002
{
1070
     1
1002
{
1040
1.0
1040
1.0
1000

1040
0.0
1002
{
1002
}
1040
0.0
1002
{
1002
}
1040
0.0
1002
}
1002
}
1002
}
1070
     0
1040
0.0
1002
{
1002
}
1002
}
1002
{
1002
}
1002
}
1002
{
1071
        3
1070
     3
1070
     0
1002
{
1070
     2
1070
     0
1070
     0
1040
0.0
1002
}
1070
     0
1070
     2
1002
{
1002
}
1002
}
1002
{
1040
8030.0
1040
190.300003
1040
0.305
1040
228.0
1040
545.0
1040
14.0
1040
17.4
1040
0.456
1002
}
1002
}
  0
ENDBLK
  5
1CD
100
AcDbEntity
  8
0
100
AcDbBlockEnd
  0
BLOCK
  5
1F4
100
AcDbEntity
  8
0
100
AcDbBlockBegin
  2
*D5
 70
     1
 10
0.0
 20
0.0
 30
0.0
  3
*D5
  1

  0
LINE
  5
1F5
100
AcDbEntity
  8
0
  6
BYBLOCK
 62
     0
100
AcDbLine
 10
37.312686
 20
107.496722
 30
0.0
 11
37.312686
 21
73.074398
 31
0.0
  0
LINE
  5
1F6
100
AcDbEntity
  8
0
  6
BYBLOCK
 62
     0
100
AcDbLine
 10
64.162686
 20
99.125348
 30
0.0
 11
64.162686
 21
73.074398
 31
0.0
  0
LINE
  5
1F7
100
AcDbEntity
  8
0
  6
BYBLOCK
 62
     0
100
AcDbLine
 10
40.312686
 20
73.254398
 30
0.0
 11
61.162686
 21
73.254398
 31
0.0
  0
SOLID
  5
1F8
100
AcDbEntity
  8
0
  6
BYBLOCK
 62
     0
100
AcDbTrace
 10
40.312686
 20
73.754398
 30
0.0
 11
40.312686
 21
72.754398
 31
0.0
 12
37.312686
 22
73.254398
 32
0.0
 13
37.312686
 23
73.254398
 33
0.0
  0
SOLID
  5
1F9
100
AcDbEntity
  8
0
  6
BYBLOCK
 62
     0
100
AcDbTrace
 10
61.162686
 20
73.754398
 30
0.0
 11
61.162686
 21
72.754398
 31
0.0
 12
64.162686
 22
73.254398
 32
0.0
 13
64.162686
 23
73.254398
 33
0.0
  0
TEXT
  5
1FA
100
AcDbEntity
  8
0
  6
BYBLOCK
 62
     0
100
AcDbText
 10
45.380543
 20
74.504398
 30
0.0
 40
2.5
  1
26.85
  7
ROMANS
 72
     1
 11
50.737686
 21
75.754398
 31
0.0
100
AcDbText
 73
     2
  0
POINT
  5
1FB
100
AcDbEntity
  8
DEFPOINTS
  6
BYBLOCK
 62
     0
100
AcDbPoint
 10
37.312686
 20
107.559222
 30
0.0
  0
POINT
  5
1FC
100
AcDbEntity
  8
DEFPOINTS
  6
BYBLOCK
 62
     0
100
AcDbPoint
 10
64.162686
 20
99.187848
 30
0.0
  0
POINT
  5
1FD
100
AcDbEntity
  8
DEFPOINTS
  6
BYBLOCK
 62
     0
100
AcDbPoint
 10
64.162686
 20
73.254398
 30
0.0
  0
ENDBLK
  5
1FE
100
AcDbEntity
  8
0
100
AcDbBlockEnd
  0
BLOCK
  5
1FF
100
AcDbEntity
  8
0
100
AcDbBlockBegin
  2
*D6
 70
     1
 10
0.0
 20
0.0
 30
0.0
  3
*D6
  1

  0
LINE
  5
200
100
AcDbEntity
  8
0
  6
BYBLOCK
 62
     0
100
AcDbLine
 10
64.100186
 20
99.607217
 30
0.0
 11
16.754713
 21
99.607217
 31
0.0
  0
LINE
  5
201
100
AcDbEntity
  8
0
  6
BYBLOCK
 62
     0
100
AcDbLine
 10
64.100186
 20
115.511226
 30
0.0
 11
16.754713
 21
115.511226
 31
0.0
  0
LINE
  5
202
100
AcDbEntity
  8
0
  6
BYBLOCK
 62
     0
100
AcDbLine
 10
16.934713
 20
102.607217
 30
0.0
 11
16.934713
 21
112.511226
 31
0.0
  0
SOLID
  5
203
100
AcDbEntity
  8
0
  6
BYBLOCK
 62
     0
100
AcDbTrace
 10
16.434713
 20
102.607217
 30
0.0
 11
17.434713
 21
102.607217
 31
0.0
 12
16.934713
 22
99.607217
 32
0.0
 13
16.934713
 23
99.607217
 33
0.0
  0
SOLID
  5
204
100
AcDbEntity
  8
0
  6
BYBLOCK
 62
     0
100
AcDbTrace
 10
16.434713
 20
112.511226
 30
0.0
 11
17.434713
 21
112.511226
 31
0.0
 12
16.934713
 22
115.511226
 32
0.0
 13
16.934713
 23
115.511226
 33
0.0
  0
TEXT
  5
205
100
AcDbEntity
  8
0
  6
BYBLOCK
 62
     0
100
AcDbText
 10
15.684713
 20
103.273507
 30
0.0
 40
2.5
  1
15.9
 50
90.0
  7
ROMANS
 72
     1
 11
14.434713
 21
107.559222
 31
0.0
100
AcDbText
 73
     2
  0
POINT
  5
206
100
AcDbEntity
  8
DEFPOINTS
  6
BYBLOCK
 62
     0
100
AcDbPoint
 10
64.162686
 20
99.607217
 30
0.0
  0
POINT
  5
207
100
AcDbEntity
  8
DEFPOINTS
  6
BYBLOCK
 62
     0
100
AcDbPoint
 10
64.162686
 20
115.511226
 30
0.0
  0
POINT
  5
208
100
AcDbEntity
  8
DEFPOINTS
  6
BYBLOCK
 62
     0
100
AcDbPoint
 10
16.934713
 20
115.511226
 30
0.0
  0
ENDBLK
  5
209
100
AcDbEntity
  8
0
100
AcDbBlockEnd
  0
ENDSEC
  0
SECTION
  2
ENTITIES
  0
ARC
  5
1D
100
AcDbEntity
  8
ALPHA
100
AcDbCircle
 10
73.312686
 20
107.559222
 30
0.0
 40
36.0
100
AcDbArc
 50
190.957361
 51
191.28998
  0
ARC
  5
1E
100
AcDbEntity
  8
ALPHA
100
AcDbCircle
 10
73.312686
 20
107.559222
 30
0.0
 40
36.0
100
AcDbArc
 50
185.89915
 51
190.957361
  0
ARC
  5
1F
100
AcDbEntity
  8
ALPHA
100
AcDbCircle
 10
38.499649
 20
100.609222
 30
0.0
 40
0.5
100
AcDbArc
 50
191.28998
 51
270.0
  0
ARC
  5
20
100
AcDbEntity
  8
ALPHA
100
AcDbCircle
 10
73.312686
 20
107.559222
 30
0.0
 40
36.0
100
AcDbArc
 50
168.71002
 51
185.89915
  0
ARC
  5
21
100
AcDbEntity
  8
ALPHA
100
AcDbCircle
 10
38.499649
 20
114.509222
 30
0.0
 40
0.5
100
AcDbArc
 50
90.0
 51
168.71002
  0
ARC
  5
22
100
AcDbEntity
  8
ALPHA
100
AcDbCircle
 10
48.642616
 20
98.734222
 30
0.0
 40
0.1
100
AcDbArc
 50
192.672361
 51
270.0
  0
ARC
  5
23
100
AcDbEntity
  8
ALPHA
100
AcDbCircle
 10
87.890498
 20
107.559222
 30
0.0
 40
40.327813
100
AcDbArc
 50
167.327639
 51
192.672361
  0
ARC
  5
24
100
AcDbEntity
  8
ALPHA
100
AcDbCircle
 10
48.642616
 20
116.384222
 30
0.0
 40
0.1
100
AcDbArc
 50
90.0
 51
167.327639
  0
ARC
  5
25
100
AcDbEntity
  8
ALPHA
100
AcDbCircle
 10
96.929194
 20
104.459222
 30
0.0
 40
0.3
100
AcDbArc
 50
90.0
 51
102.842888
  0
ARC
  5
26
100
AcDbEntity
  8
ALPHA
100
AcDbCircle
 10
96.929194
 20
104.459222
 30
0.0
 40
0.8
100
AcDbArc
 50
90.0
 51
94.790291
  0
ARC
  5
27
100
AcDbEntity
  8
ALPHA
100
AcDbCircle
 10
96.929194
 20
110.659222
 30
0.0
 40
0.3
100
AcDbArc
 50
257.157112
 51
270.0
  0
ARC
  5
28
100
AcDbEntity
  8
ALPHA
100
AcDbCircle
 10
96.929194
 20
110.659222
 30
0.0
 40
0.8
100
AcDbArc
 50
265.209709
 51
270.0
  0
ARC
  5
29
100
AcDbEntity
  8
ALPHA
100
AcDbCircle
 10
74.212686
 20
115.809222
 30
0.0
 40
0.35
100
AcDbArc
 50
0.0
 51
180.0
  0
LINE
  5
2A
100
AcDbEntity
  8
ALPHA
100
AcDbLine
 10
104.662686
 20
104.856412
 30
0.0
 11
104.662686
 21
105.162031
 31
0.0
  0
LINE
  5
2B
100
AcDbEntity
  8
ALPHA
100
AcDbLine
 10
104.662686
 20
101.056412
 30
0.0
 11
104.662686
 21
101.362031
 31
0.0
  0
LINE
  5
2C
100
AcDbEntity
  8
ALPHA
100
AcDbLine
 10
104.662686
 20
110.262031
 30
0.0
 11
104.662686
 21
109.956412
 31
0.0
  0
LINE
  5
2D
100
AcDbEntity
  8
ALPHA
100
AcDbLine
 10
104.662686
 20
114.062031
 30
0.0
 11
104.662686
 21
113.756412
 31
0.0
  0
LINE
  5
2E
100
AcDbEntity
  8
ALPHA
100
AcDbLine
 10
104.162686
 20
104.759222
 30
0.0
 11
104.162686
 21
105.259222
 31
0.0
  0
LINE
  5
2F
100
AcDbEntity
  8
ALPHA
100
AcDbLine
 10
104.162686
 20
100.959222
 30
0.0
 11
104.162686
 21
101.459222
 31
0.0
  0
LINE
  5
30
100
AcDbEntity
  8
ALPHA
100
AcDbLine
 10
104.162686
 20
110.359222
 30
0.0
 11
104.162686
 21
109.859222
 31
0.0
  0
LINE
  5
31
100
AcDbEntity
  8
ALPHA
100
AcDbLine
 10
104.162686
 20
114.159222
 30
0.0
 11
104.162686
 21
113.659222
 31
0.0
  0
LINE
  5
32
100
AcDbEntity
  8
ALPHA
100
AcDbLine
 10
104.062686
 20
109.849222
 30
0.0
 11
104.062686
 21
109.859222
 31
0.0
  0
LINE
  5
33
100
AcDbEntity
  8
ALPHA
100
AcDbLine
 10
104.062686
 20
105.259222
 30
0.0
 11
104.062686
 21
105.269222
 31
0.0
  0
LINE
  5
34
100
AcDbEntity
  8
ALPHA
100
AcDbLine
 10
96.978156
 20
109.849222
 30
0.0
 11
96.978156
 21
109.859222
 31
0.0
  0
LINE
  5
35
100
AcDbEntity
  8
ALPHA
100
AcDbLine
 10
96.978156
 20
105.259222
 30
0.0
 11
96.978156
 21
105.269222
 31
0.0
  0
LINE
  5
36
100
AcDbEntity
  8
ALPHA
100
AcDbLine
 10
96.862686
 20
99.459222
 30
0.0
 11
96.862686
 21
115.659222
 31
0.0
  0
LINE
  5
37
100
AcDbEntity
  8
ALPHA
100
AcDbLine
 10
96.462686
 20
111.445258
 30
0.0
 11
96.462686
 21
112.668896
 31
0.0
  0
LINE
  5
38
100
AcDbEntity
  8
ALPHA
100
AcDbLine
 10
96.462686
 20
102.445258
 30
0.0
 11
96.462686
 21
103.673185
 31
0.0
  0
LINE
  5
39
100
AcDbEntity
  8
ALPHA
100
AcDbLine
 10
96.462686
 20
109.759222
 30
0.0
 11
96.462686
 21
105.359222
 31
0.0
  0
LINE
  5
3A
100
AcDbEntity
  8
ALPHA
100
AcDbLine
 10
96.062686
 20
102.459222
 30
0.0
 11
96.062686
 21
103.659222
 31
0.0
  0
LINE
  5
3B
100
AcDbEntity
  8
ALPHA
100
AcDbLine
 10
96.062686
 20
102.445258
 30
0.0
 11
96.062686
 21
102.359222
 31
0.0
  0
LINE
  5
3C
100
AcDbEntity
  8
ALPHA
100
AcDbLine
 10
96.062686
 20
103.759222
 30
0.0
 11
96.062686
 21
103.673185
 31
0.0
  0
LINE
  5
3D
100
AcDbEntity
  8
ALPHA
100
AcDbLine
 10
96.062686
 20
111.445258
 30
0.0
 11
96.062686
 21
111.359222
 31
0.0
  0
LINE
  5
3E
100
AcDbEntity
  8
ALPHA
100
AcDbLine
 10
96.062686
 20
112.759222
 30
0.0
 11
96.062686
 21
112.673185
 31
0.0
  0
LINE
  5
3F
100
AcDbEntity
  8
ALPHA
100
AcDbLine
 10
96.062686
 20
112.659222
 30
0.0
 11
96.062686
 21
111.459222
 31
0.0
  0
LINE
  5
40
100
AcDbEntity
  8
ALPHA
100
AcDbLine
 10
95.662686
 20
112.759222
 30
0.0
 11
95.662686
 21
115.259222
 31
0.0
  0
LINE
  5
41
100
AcDbEntity
  8
ALPHA
100
AcDbLine
 10
95.662686
 20
109.759222
 30
0.0
 11
95.662686
 21
111.359222
 31
0.0
  0
LINE
  5
42
100
AcDbEntity
  8
ALPHA
100
AcDbLine
 10
95.662686
 20
103.759222
 30
0.0
 11
95.662686
 21
105.359222
 31
0.0
  0
LINE
  5
43
100
AcDbEntity
  8
ALPHA
100
AcDbLine
 10
95.662686
 20
99.859222
 30
0.0
 11
95.662686
 21
102.359222
 31
0.0
  0
LINE
  5
44
100
AcDbEntity
  8
ALPHA
100
AcDbLine
 10
95.408266
 20
111.459222
 30
0.0
 11
95.408266
 21
112.659222
 31
0.0
  0
LINE
  5
45
100
AcDbEntity
  8
ALPHA
100
AcDbLine
 10
95.408266
 20
102.459222
 30
0.0
 11
95.408266
 21
103.659222
 31
0.0
  0
LINE
  5
46
100
AcDbEntity
  8
ALPHA
100
AcDbLine
 10
95.172546
 20
111.453521
 30
0.0
 11
95.172546
 21
112.664923
 31
0.0
  0
LINE
  5
47
100
AcDbEntity
  8
ALPHA
100
AcDbLine
 10
95.172546
 20
102.453521
 30
0.0
 11
95.172546
 21
103.664923
 31
0.0
  0
LINE
  5
48
100
AcDbEntity
  8
ALPHA
100
AcDbLine
 10
94.862686
 20
103.759222
 30
0.0
 11
94.862686
 21
102.359222
 31
0.0
  0
LINE
  5
49
100
AcDbEntity
  8
ALPHA
100
AcDbLine
 10
94.862686
 20
112.759222
 30
0.0
 11
94.862686
 21
111.359222
 31
0.0
  0
LINE
  5
4A
100
AcDbEntity
  8
ALPHA
100
AcDbLine
 10
94.462686
 20
103.759222
 30
0.0
 11
94.462686
 21
102.359222
 31
0.0
  0
LINE
  5
4B
100
AcDbEntity
  8
ALPHA
100
AcDbLine
 10
94.462686
 20
112.759222
 30
0.0
 11
94.462686
 21
111.359222
 31
0.0
  0
LINE
  5
4C
100
AcDbEntity
  8
ALPHA
100
AcDbLine
 10
92.662686
 20
99.409222
 30
0.0
 11
92.662686
 21
98.959222
 31
0.0
  0
LINE
  5
4D
100
AcDbEntity
  8
ALPHA
100
AcDbLine
 10
92.662686
 20
116.159222
 30
0.0
 11
92.662686
 21
115.709222
 31
0.0
  0
LINE
  5
4E
100
AcDbEntity
  8
ALPHA
100
AcDbLine
 10
91.462686
 20
99.859222
 30
0.0
 11
91.462686
 21
99.809222
 31
0.0
  0
LINE
  5
4F
100
AcDbEntity
  8
ALPHA
100
AcDbLine
 10
91.462686
 20
115.309222
 30
0.0
 11
91.462686
 21
115.259222
 31
0.0
  0
LINE
  5
50
100
AcDbEntity
  8
ALPHA
100
AcDbLine
 10
95.062686
 20
99.859222
 30
0.0
 11
95.293626
 21
99.459222
 31
0.0
  0
LINE
  5
51
100
AcDbEntity
  8
ALPHA
100
AcDbLine
 10
95.293626
 20
115.659222
 30
0.0
 11
95.062686
 21
115.259222
 31
0.0
  0
LINE
  5
52
100
AcDbEntity
  8
ALPHA
100
AcDbLine
 10
104.662686
 20
114.062031
 30
0.0
 11
104.162686
 21
114.159222
 31
0.0
  0
LINE
  5
53
100
AcDbEntity
  8
ALPHA
100
AcDbLine
 10
84.862686
 20
115.259222
 30
0.0
 11
84.862686
 21
115.309222
 31
0.0
  0
LINE
  5
54
100
AcDbEntity
  8
ALPHA
100
AcDbLine
 10
84.862686
 20
99.809222
 30
0.0
 11
84.862686
 21
99.859222
 31
0.0
  0
LINE
  5
55
100
AcDbEntity
  8
ALPHA
100
AcDbLine
 10
81.162686
 20
103.859222
 30
0.0
 11
81.162686
 21
101.659222
 31
0.0
  0
LINE
  5
56
100
AcDbEntity
  8
ALPHA
100
AcDbLine
 10
81.162686
 20
113.459222
 30
0.0
 11
81.162686
 21
111.259222
 31
0.0
  0
LINE
  5
57
100
AcDbEntity
  8
ALPHA
100
AcDbLine
 10
81.112686
 20
103.759222
 30
0.0
 11
81.112686
 21
101.759222
 31
0.0
  0
LINE
  5
58
100
AcDbEntity
  8
ALPHA
100
AcDbLine
 10
81.112686
 20
113.359222
 30
0.0
 11
81.112686
 21
111.359222
 31
0.0
  0
LINE
  5
59
100
AcDbEntity
  8
ALPHA
100
AcDbLine
 10
80.912686
 20
103.759222
 30
0.0
 11
80.912686
 21
101.759222
 31
0.0
  0
LINE
  5
5A
100
AcDbEntity
  8
ALPHA
100
AcDbLine
 10
80.912686
 20
113.359222
 30
0.0
 11
80.912686
 21
111.359222
 31
0.0
  0
LINE
  5
5B
100
AcDbEntity
  8
ALPHA
100
AcDbLine
 10
80.862686
 20
100.734222
 30
0.0
 11
80.862686
 21
99.859222
 31
0.0
  0
LINE
  5
5C
100
AcDbEntity
  8
ALPHA
100
AcDbLine
 10
80.862686
 20
110.334222
 30
0.0
 11
80.862686
 21
104.784222
 31
0.0
  0
LINE
  5
5D
100
AcDbEntity
  8
ALPHA
100
AcDbLine
 10
80.862686
 20
115.259222
 30
0.0
 11
80.862686
 21
114.384222
 31
0.0
  0
LINE
  5
5E
100
AcDbEntity
  8
ALPHA
100
AcDbLine
 10
80.662686
 20
114.509222
 30
0.0
 11
80.662686
 21
115.309222
 31
0.0
  0
LINE
  5
5F
100
AcDbEntity
  8
ALPHA
100
AcDbLine
 10
80.662686
 20
104.909222
 30
0.0
 11
80.662686
 21
110.209222
 31
0.0
  0
LINE
  5
60
100
AcDbEntity
  8
ALPHA
100
AcDbLine
 10
80.662686
 20
99.809222
 30
0.0
 11
80.662686
 21
100.609222
 31
0.0
  0
LINE
  5
61
100
AcDbEntity
  8
ALPHA
100
AcDbLine
 10
104.662686
 20
110.262031
 30
0.0
 11
104.162686
 21
110.359222
 31
0.0
  0
LINE
  5
62
100
AcDbEntity
  8
ALPHA
100
AcDbLine
 10
95.172546
 20
112.664923
 30
0.0
 11
94.862686
 21
112.714378
 31
0.0
  0
LINE
  5
63
100
AcDbEntity
  8
ALPHA
100
AcDbLine
 10
73.862686
 20
116.959222
 30
0.0
 11
72.662686
 21
116.959222
 31
0.0
  0
LINE
  5
64
100
AcDbEntity
  8
ALPHA
100
AcDbLine
 10
48.642616
 20
116.484222
 30
0.0
 11
55.462686
 21
116.484222
 31
0.0
  0
LINE
  5
65
100
AcDbEntity
  8
ALPHA
100
AcDbLine
 10
55.462686
 20
116.459222
 30
0.0
 11
59.662686
 21
116.459222
 31
0.0
  0
LINE
  5
66
100
AcDbEntity
  8
ALPHA
100
AcDbLine
 10
73.862686
 20
116.459222
 30
0.0
 11
72.662686
 21
116.459222
 31
0.0
  0
LINE
  5
67
100
AcDbEntity
  8
ALPHA
100
AcDbLine
 10
59.662686
 20
116.331907
 30
0.0
 11
62.962686
 21
116.331907
 31
0.0
  0
LINE
  5
68
100
AcDbEntity
  8
ALPHA
100
AcDbLine
 10
76.662686
 20
116.159222
 30
0.0
 11
92.662686
 21
116.159222
 31
0.0
  0
LINE
  5
69
100
AcDbEntity
  8
ALPHA
100
AcDbLine
 10
62.962686
 20
115.930596
 30
0.0
 11
64.162686
 21
115.930596
 31
0.0
  0
LINE
  5
6A
100
AcDbEntity
  8
ALPHA
100
AcDbLine
 10
74.662686
 20
115.834222
 30
0.0
 11
76.662686
 21
115.834222
 31
0.0
  0
LINE
  5
6B
100
AcDbEntity
  8
ALPHA
100
AcDbLine
 10
96.862686
 20
115.659222
 30
0.0
 11
95.293626
 21
115.659222
 31
0.0
  0
LINE
  5
6C
100
AcDbEntity
  8
ALPHA
100
AcDbLine
 10
64.162686
 20
115.511226
 30
0.0
 11
68.062686
 21
115.511226
 31
0.0
  0
LINE
  5
6D
100
AcDbEntity
  8
ALPHA
100
AcDbLine
 10
74.562686
 20
115.459222
 30
0.0
 11
74.662686
 21
115.459222
 31
0.0
  0
LINE
  5
6E
100
AcDbEntity
  8
ALPHA
100
AcDbLine
 10
76.662686
 20
115.309222
 30
0.0
 11
91.969865
 21
115.309222
 31
0.0
  0
LINE
  5
6F
100
AcDbEntity
  8
ALPHA
100
AcDbLine
 10
96.862686
 20
115.259222
 30
0.0
 11
80.862686
 21
115.259222
 31
0.0
  0
LINE
  5
70
100
AcDbEntity
  8
ALPHA
100
AcDbLine
 10
59.662686
 20
115.253925
 30
0.0
 11
64.162686
 21
115.253925
 31
0.0
  0
LINE
  5
71
100
AcDbEntity
  8
ALPHA
100
AcDbLine
 10
48.307927
 20
115.134222
 30
0.0
 11
47.562686
 21
115.134222
 31
0.0
  0
LINE
  5
72
100
AcDbEntity
  8
ALPHA
100
AcDbLine
 10
59.662686
 20
115.089496
 30
0.0
 11
64.162686
 21
115.089496
 31
0.0
  0
LINE
  5
73
100
AcDbEntity
  8
ALPHA
100
AcDbLine
 10
38.499649
 20
115.009222
 30
0.0
 11
47.513975
 21
115.009222
 31
0.0
  0
LINE
  5
74
100
AcDbEntity
  8
ALPHA
100
AcDbLine
 10
72.062686
 20
114.934222
 30
0.0
 11
68.635953
 21
114.934222
 31
0.0
  0
LINE
  5
75
100
AcDbEntity
  8
ALPHA
100
AcDbLine
 10
80.362686
 20
104.784222
 30
0.0
 11
80.362686
 21
100.734222
 31
0.0
  0
LINE
  5
76
100
AcDbEntity
  8
ALPHA
100
AcDbLine
 10
80.362686
 20
114.384222
 30
0.0
 11
80.362686
 21
110.334222
 31
0.0
  0
LINE
  5
77
100
AcDbEntity
  8
ALPHA
100
AcDbLine
 10
80.262686
 20
104.909222
 30
0.0
 11
80.262686
 21
100.609222
 31
0.0
  0
LINE
  5
78
100
AcDbEntity
  8
ALPHA
100
AcDbLine
 10
80.262686
 20
114.509222
 30
0.0
 11
80.262686
 21
110.209222
 31
0.0
  0
LINE
  5
79
100
AcDbEntity
  8
ALPHA
100
AcDbLine
 10
95.172546
 20
112.664923
 30
0.0
 11
95.408266
 21
112.659222
 31
0.0
  0
LINE
  5
7A
100
AcDbEntity
  8
ALPHA
100
AcDbLine
 10
72.662686
 20
114.803228
 30
0.0
 11
73.862686
 21
114.803228
 31
0.0
  0
LINE
  5
7B
100
AcDbEntity
  8
ALPHA
100
AcDbLine
 10
72.262686
 20
114.509222
 30
0.0
 11
72.662686
 21
114.509222
 31
0.0
  0
LINE
  5
7C
100
AcDbEntity
  8
ALPHA
100
AcDbLine
 10
80.662686
 20
114.509222
 30
0.0
 11
80.262686
 21
114.509222
 31
0.0
  0
LINE
  5
7D
100
AcDbEntity
  8
ALPHA
100
AcDbLine
 10
59.662686
 20
114.39356
 30
0.0
 11
64.162686
 21
114.39356
 31
0.0
  0
LINE
  5
7E
100
AcDbEntity
  8
ALPHA
100
AcDbLine
 10
80.862686
 20
114.384222
 30
0.0
 11
80.362686
 21
114.384222
 31
0.0
  0
LINE
  5
7F
100
AcDbEntity
  8
ALPHA
100
AcDbLine
 10
80.362686
 20
114.359222
 30
0.0
 11
80.262686
 21
114.359222
 31
0.0
  0
LINE
  5
80
100
AcDbEntity
  8
ALPHA
100
AcDbLine
 10
72.662686
 20
114.309222
 30
0.0
 11
72.062686
 21
114.309222
 31
0.0
  0
LINE
  5
81
100
AcDbEntity
  8
ALPHA
100
AcDbLine
 10
104.162686
 20
114.159222
 30
0.0
 11
96.862686
 21
114.159222
 31
0.0
  0
LINE
  5
82
100
AcDbEntity
  8
ALPHA
100
AcDbLine
 10
104.162686
 20
113.659222
 30
0.0
 11
96.862686
 21
113.659222
 31
0.0
  0
LINE
  5
83
100
AcDbEntity
  8
ALPHA
100
AcDbLine
 10
80.362686
 20
113.459222
 30
0.0
 11
81.162686
 21
113.459222
 31
0.0
  0
LINE
  5
84
100
AcDbEntity
  8
ALPHA
100
AcDbLine
 10
80.912686
 20
113.359222
 30
0.0
 11
81.162686
 21
113.359222
 31
0.0
  0
LINE
  5
85
100
AcDbEntity
  8
ALPHA
100
AcDbLine
 10
59.662686
 20
113.260258
 30
0.0
 11
64.162686
 21
113.260258
 31
0.0
  0
LINE
  5
86
100
AcDbEntity
  8
ALPHA
100
AcDbLine
 10
73.862686
 20
113.159222
 30
0.0
 11
72.662686
 21
113.159222
 31
0.0
  0
LINE
  5
87
100
AcDbEntity
  8
ALPHA
100
AcDbLine
 10
59.662686
 20
113.145124
 30
0.0
 11
64.162686
 21
113.145124
 31
0.0
  0
LINE
  5
88
100
AcDbEntity
  8
ALPHA
100
AcDbLine
 10
96.862686
 20
112.759222
 30
0.0
 11
94.462686
 21
112.759222
 31
0.0
  0
LINE
  5
89
100
AcDbEntity
  8
ALPHA
100
AcDbLine
 10
96.062686
 20
112.714378
 30
0.0
 11
94.862686
 21
112.714378
 31
0.0
  0
LINE
  5
8A
100
AcDbEntity
  8
ALPHA
100
AcDbLine
 10
96.062686
 20
112.673185
 30
0.0
 11
96.462686
 21
112.673185
 31
0.0
  0
LINE
  5
8B
100
AcDbEntity
  8
ALPHA
100
AcDbLine
 10
73.862686
 20
112.659222
 30
0.0
 11
72.662686
 21
112.659222
 31
0.0
  0
LINE
  5
8C
100
AcDbEntity
  8
ALPHA
100
AcDbLine
 10
96.062686
 20
112.659222
 30
0.0
 11
95.408266
 21
112.659222
 31
0.0
  0
LINE
  5
8D
100
AcDbEntity
  8
ALPHA
100
AcDbLine
 10
76.662686
 20
98.959222
 30
0.0
 11
76.662686
 21
116.159222
 31
0.0
  0
LINE
  5
8E
100
AcDbEntity
  8
ALPHA
100
AcDbLine
 10
68.687686
 20
114.882131
 30
0.0
 11
68.062686
 21
115.511226
 31
0.0
  0
LINE
  5
8F
100
AcDbEntity
  8
ALPHA
100
AcDbLine
 10
91.969865
 20
99.809222
 30
0.0
 11
92.662686
 21
99.409222
 31
0.0
  0
LINE
  5
90
100
AcDbEntity
  8
ALPHA
100
AcDbLine
 10
104.662686
 20
105.162031
 30
0.0
 11
104.162686
 21
105.259222
 31
0.0
  0
LINE
  5
91
100
AcDbEntity
  8
ALPHA
100
AcDbLine
 10
104.119398
 20
105.259222
 30
0.0
 11
104.062686
 21
105.269222
 31
0.0
  0
LINE
  5
92
100
AcDbEntity
  8
ALPHA
100
AcDbLine
 10
96.062686
 20
111.459222
 30
0.0
 11
96.462686
 21
111.449547
 31
0.0
  0
LINE
  5
93
100
AcDbEntity
  8
ALPHA
100
AcDbLine
 10
74.562686
 20
112.483968
 30
0.0
 11
74.662686
 21
112.483968
 31
0.0
  0
LINE
  5
94
100
AcDbEntity
  8
ALPHA
100
AcDbLine
 10
59.662686
 20
112.03153
 30
0.0
 11
64.162686
 21
112.03153
 31
0.0
  0
LINE
  5
95
100
AcDbEntity
  8
ALPHA
100
AcDbLine
 10
95.408266
 20
111.459222
 30
0.0
 11
96.062686
 21
111.459222
 31
0.0
  0
LINE
  5
96
100
AcDbEntity
  8
ALPHA
100
AcDbLine
 10
73.862686
 20
111.459222
 30
0.0
 11
72.662686
 21
111.459222
 31
0.0
  0
LINE
  5
97
100
AcDbEntity
  8
ALPHA
100
AcDbLine
 10
74.662686
 20
111.459222
 30
0.0
 11
74.562686
 21
111.459222
 31
0.0
  0
LINE
  5
98
100
AcDbEntity
  8
ALPHA
100
AcDbLine
 10
96.062686
 20
111.445258
 30
0.0
 11
96.462686
 21
111.445258
 31
0.0
  0
LINE
  5
99
100
AcDbEntity
  8
ALPHA
100
AcDbLine
 10
96.062686
 20
111.404066
 30
0.0
 11
94.862686
 21
111.404066
 31
0.0
  0
LINE
  5
9A
100
AcDbEntity
  8
ALPHA
100
AcDbLine
 10
80.912686
 20
111.359222
 30
0.0
 11
81.162686
 21
111.359222
 31
0.0
  0
LINE
  5
9B
100
AcDbEntity
  8
ALPHA
100
AcDbLine
 10
96.862686
 20
111.359222
 30
0.0
 11
94.462686
 21
111.359222
 31
0.0
  0
LINE
  5
9C
100
AcDbEntity
  8
ALPHA
100
AcDbLine
 10
80.362686
 20
111.259222
 30
0.0
 11
81.162686
 21
111.259222
 31
0.0
  0
LINE
  5
9D
100
AcDbEntity
  8
ALPHA
100
AcDbLine
 10
68.062686
 20
111.097495
 30
0.0
 11
64.162686
 21
111.097495
 31
0.0
  0
LINE
  5
9E
100
AcDbEntity
  8
ALPHA
100
AcDbLine
 10
73.862686
 20
110.747971
 30
0.0
 11
73.562686
 21
110.747971
 31
0.0
  0
LINE
  5
9F
100
AcDbEntity
  8
ALPHA
100
AcDbLine
 10
62.962686
 20
110.580827
 30
0.0
 11
64.162686
 21
110.580827
 31
0.0
  0
LINE
  5
A0
100
AcDbEntity
  8
ALPHA
100
AcDbLine
 10
96.929194
 20
110.359222
 30
0.0
 11
104.162686
 21
110.359222
 31
0.0
  0
LINE
  5
A1
100
AcDbEntity
  8
ALPHA
100
AcDbLine
 10
80.862686
 20
110.334222
 30
0.0
 11
80.362686
 21
110.334222
 31
0.0
  0
LINE
  5
A2
100
AcDbEntity
  8
ALPHA
100
AcDbLine
 10
62.962686
 20
110.309222
 30
0.0
 11
64.162686
 21
110.309222
 31
0.0
  0
LINE
  5
A3
100
AcDbEntity
  8
ALPHA
100
AcDbLine
 10
96.062686
 20
112.659222
 30
0.0
 11
96.462686
 21
112.668896
 31
0.0
  0
LINE
  5
A4
100
AcDbEntity
  8
ALPHA
100
AcDbLine
 10
95.172546
 20
111.453521
 30
0.0
 11
95.408266
 21
111.459222
 31
0.0
  0
LINE
  5
A5
100
AcDbEntity
  8
ALPHA
100
AcDbLine
 10
92.662686
 20
115.709222
 30
0.0
 11
91.969865
 21
115.309222
 31
0.0
  0
LINE
  5
A6
100
AcDbEntity
  8
ALPHA
100
AcDbLine
 10
68.062686
 20
99.607217
 30
0.0
 11
68.687686
 21
100.236312
 31
0.0
  0
LINE
  5
A7
100
AcDbEntity
  8
ALPHA
100
AcDbLine
 10
74.662686
 20
102.634475
 30
0.0
 11
74.662686
 21
112.483968
 31
0.0
  0
LINE
  5
A8
100
AcDbEntity
  8
ALPHA
100
AcDbLine
 10
74.662686
 20
115.834222
 30
0.0
 11
74.662686
 21
115.459222
 31
0.0
  0
LINE
  5
A9
100
AcDbEntity
  8
ALPHA
100
AcDbLine
 10
74.562686
 20
98.420134
 30
0.0
 11
74.562686
 21
115.809222
 31
0.0
  0
LINE
  5
AA
100
AcDbEntity
  8
ALPHA
100
AcDbLine
 10
73.862686
 20
98.420134
 30
0.0
 11
73.862686
 21
116.959222
 31
0.0
  0
LWPOLYLINE
  5
AB
100
AcDbEntity
  8
ALPHA
100
AcDbPolyline
 90
        6
 70
     0
 43
0.0
 10
73.862686
 20
98.420134
 10
73.879816
 20
98.343657
 10
73.92953
 20
98.274665
 10
74.006961
 20
98.219913
 10
74.10453
 20
98.18476
 10
74.212686
 20
98.172647
  0
LINE
  5
B3
100
AcDbEntity
  8
ALPHA
100
AcDbLine
 10
104.662686
 20
101.362031
 30
0.0
 11
104.162686
 21
101.459222
 31
0.0
  0
LINE
  5
B4
100
AcDbEntity
  8
ALPHA
100
AcDbLine
 10
80.662686
 20
110.209222
 30
0.0
 11
80.262686
 21
110.209222
 31
0.0
  0
LINE
  5
B5
100
AcDbEntity
  8
ALPHA
100
AcDbLine
 10
104.162686
 20
109.859222
 30
0.0
 11
96.929194
 21
109.859222
 31
0.0
  0
LINE
  5
B6
100
AcDbEntity
  8
ALPHA
100
AcDbLine
 10
96.862686
 20
109.849222
 30
0.0
 11
104.062686
 21
109.849222
 31
0.0
  0
LINE
  5
B7
100
AcDbEntity
  8
ALPHA
100
AcDbLine
 10
96.462686
 20
109.759222
 30
0.0
 11
95.662686
 21
109.759222
 31
0.0
  0
LINE
  5
B8
100
AcDbEntity
  8
ALPHA
100
AcDbLine
 10
80.662686
 20
109.559222
 30
0.0
 11
80.862686
 21
109.559222
 31
0.0
  0
LINE
  5
B9
100
AcDbEntity
  8
ALPHA
100
AcDbLine
 10
68.692686
 20
109.265094
 30
0.0
 11
68.687686
 21
109.265094
 31
0.0
  0
LINE
  5
BA
100
AcDbEntity
  8
ALPHA
100
AcDbLine
 10
59.662686
 20
109.059222
 30
0.0
 11
62.962686
 21
109.059222
 31
0.0
  0
LINE
  5
BB
100
AcDbEntity
  8
ALPHA
100
AcDbLine
 10
73.562686
 20
104.370472
 30
0.0
 11
73.562686
 21
110.747971
 31
0.0
  0
LINE
  5
BC
100
AcDbEntity
  8
ALPHA
100
AcDbLine
 10
72.662686
 20
111.459222
 30
0.0
 11
72.662686
 21
116.959222
 31
0.0
  0
LINE
  5
BD
100
AcDbEntity
  8
ALPHA
100
AcDbLine
 10
72.662686
 20
99.284222
 30
0.0
 11
72.662686
 21
103.659222
 31
0.0
  0
LINE
  5
BE
100
AcDbEntity
  8
ALPHA
100
AcDbLine
 10
72.475452
 20
114.309222
 30
0.0
 11
72.475452
 21
114.509222
 31
0.0
  0
LINE
  5
BF
100
AcDbEntity
  8
ALPHA
100
AcDbLine
 10
72.262686
 20
114.309222
 30
0.0
 11
72.262686
 21
114.509222
 31
0.0
  0
LINE
  5
C0
100
AcDbEntity
  8
ALPHA
100
AcDbLine
 10
72.062686
 20
114.309222
 30
0.0
 11
72.062686
 21
114.934222
 31
0.0
  0
LWPOLYLINE
  5
C1
100
AcDbEntity
  8
ALPHA
100
AcDbPolyline
 90
        4
 70
     0
 43
0.0
 10
68.687686
 20
109.265094
 10
68.52778
 20
109.86013
 10
68.320341
 20
110.468393
 10
68.062686
 20
111.097495
  0
LINE
  5
C7
100
AcDbEntity
  8
ALPHA
100
AcDbLine
 10
94.862686
 20
103.714378
 30
0.0
 11
95.172546
 21
103.664923
 31
0.0
  0
LINE
  5
C8
100
AcDbEntity
  8
ALPHA
100
AcDbLine
 10
59.662686
 20
106.059222
 30
0.0
 11
62.962686
 21
106.059222
 31
0.0
  0
LINE
  5
C9
100
AcDbEntity
  8
ALPHA
100
AcDbLine
 10
68.692686
 20
105.853349
 30
0.0
 11
68.687686
 21
105.853349
 31
0.0
  0
LINE
  5
CA
100
AcDbEntity
  8
ALPHA
100
AcDbLine
 10
80.862686
 20
105.559222
 30
0.0
 11
80.662686
 21
105.559222
 31
0.0
  0
LINE
  5
CB
100
AcDbEntity
  8
ALPHA
100
AcDbLine
 10
95.172546
 20
111.453521
 30
0.0
 11
94.862686
 21
111.404066
 31
0.0
  0
LINE
  5
CC
100
AcDbEntity
  8
ALPHA
100
AcDbLine
 10
104.662686
 20
113.756412
 30
0.0
 11
104.162686
 21
113.659222
 31
0.0
  0
LWPOLYLINE
  5
CD
100
AcDbEntity
  8
ALPHA
100
AcDbPolyline
 90
        4
 70
     0
 43
0.0
 10
68.062686
 20
104.020949
 10
68.321023
 20
104.651866
 10
68.528295
 20
105.26
 10
68.687686
 20
105.853349
  0
LINE
  5
D3
100
AcDbEntity
  8
ALPHA
100
AcDbLine
 10
95.172546
 20
103.664923
 30
0.0
 11
95.408266
 21
103.659222
 31
0.0
  0
LINE
  5
D4
100
AcDbEntity
  8
ALPHA
100
AcDbLine
 10
96.462686
 20
105.359222
 30
0.0
 11
95.662686
 21
105.359222
 31
0.0
  0
LINE
  5
D5
100
AcDbEntity
  8
ALPHA
100
AcDbLine
 10
104.062686
 20
105.269222
 30
0.0
 11
96.862686
 21
105.269222
 31
0.0
  0
LINE
  5
D6
100
AcDbEntity
  8
ALPHA
100
AcDbLine
 10
104.162686
 20
105.259222
 30
0.0
 11
96.929194
 21
105.259222
 31
0.0
  0
LINE
  5
D7
100
AcDbEntity
  8
ALPHA
100
AcDbLine
 10
80.662686
 20
104.909222
 30
0.0
 11
80.262686
 21
104.909222
 31
0.0
  0
LINE
  5
D8
100
AcDbEntity
  8
ALPHA
100
AcDbLine
 10
62.962686
 20
104.809222
 30
0.0
 11
64.162686
 21
104.809222
 31
0.0
  0
LINE
  5
D9
100
AcDbEntity
  8
ALPHA
100
AcDbLine
 10
80.862686
 20
104.784222
 30
0.0
 11
80.362686
 21
104.784222
 31
0.0
  0
LINE
  5
DA
100
AcDbEntity
  8
ALPHA
100
AcDbLine
 10
96.929194
 20
104.759222
 30
0.0
 11
104.162686
 21
104.759222
 31
0.0
  0
LINE
  5
DB
100
AcDbEntity
  8
ALPHA
100
AcDbLine
 10
62.962686
 20
104.537617
 30
0.0
 11
64.162686
 21
104.537617
 31
0.0
  0
LINE
  5
DC
100
AcDbEntity
  8
ALPHA
100
AcDbLine
 10
73.862686
 20
104.370472
 30
0.0
 11
73.562686
 21
104.370472
 31
0.0
  0
LINE
  5
DD
100
AcDbEntity
  8
ALPHA
100
AcDbLine
 10
68.062686
 20
104.020949
 30
0.0
 11
64.162686
 21
104.020949
 31
0.0
  0
LINE
  5
DE
100
AcDbEntity
  8
ALPHA
100
AcDbLine
 10
80.362686
 20
103.859222
 30
0.0
 11
81.162686
 21
103.859222
 31
0.0
  0
LINE
  5
DF
100
AcDbEntity
  8
ALPHA
100
AcDbLine
 10
80.912686
 20
103.759222
 30
0.0
 11
81.162686
 21
103.759222
 31
0.0
  0
LINE
  5
E0
100
AcDbEntity
  8
ALPHA
100
AcDbLine
 10
96.862686
 20
103.759222
 30
0.0
 11
94.462686
 21
103.759222
 31
0.0
  0
LINE
  5
E1
100
AcDbEntity
  8
ALPHA
100
AcDbLine
 10
96.062686
 20
103.714378
 30
0.0
 11
94.862686
 21
103.714378
 31
0.0
  0
LINE
  5
E2
100
AcDbEntity
  8
ALPHA
100
AcDbLine
 10
96.462686
 20
103.673185
 30
0.0
 11
96.062686
 21
103.673185
 31
0.0
  0
LINE
  5
E3
100
AcDbEntity
  8
ALPHA
100
AcDbLine
 10
73.862686
 20
103.659222
 30
0.0
 11
72.662686
 21
103.659222
 31
0.0
  0
LINE
  5
E4
100
AcDbEntity
  8
ALPHA
100
AcDbLine
 10
74.662686
 20
103.659222
 30
0.0
 11
74.562686
 21
103.659222
 31
0.0
  0
LINE
  5
E5
100
AcDbEntity
  8
ALPHA
100
AcDbLine
 10
96.062686
 20
103.659222
 30
0.0
 11
95.408266
 21
103.659222
 31
0.0
  0
LINE
  5
E6
100
AcDbEntity
  8
ALPHA
100
AcDbLine
 10
104.119398
 20
109.859222
 30
0.0
 11
104.062686
 21
109.849222
 31
0.0
  0
LINE
  5
E7
100
AcDbEntity
  8
ALPHA
100
AcDbLine
 10
104.662686
 20
109.956412
 30
0.0
 11
104.162686
 21
109.859222
 31
0.0
  0
LINE
  5
E8
100
AcDbEntity
  8
ALPHA
100
AcDbLine
 10
68.692686
 20
105.853349
 30
0.0
 11
68.692686
 21
109.265094
 31
0.0
  0
LINE
  5
E9
100
AcDbEntity
  8
ALPHA
100
AcDbLine
 10
68.687686
 20
100.184222
 30
0.0
 11
68.687686
 21
114.934222
 31
0.0
  0
LINE
  5
EA
100
AcDbEntity
  8
ALPHA
100
AcDbLine
 10
68.062686
 20
111.097495
 30
0.0
 11
68.062686
 21
115.511226
 31
0.0
  0
LINE
  5
EB
100
AcDbEntity
  8
ALPHA
100
AcDbLine
 10
68.062686
 20
99.607217
 30
0.0
 11
68.062686
 21
104.020949
 31
0.0
  0
LINE
  5
EC
100
AcDbEntity
  8
ALPHA
100
AcDbLine
 10
96.062686
 20
102.459222
 30
0.0
 11
96.462686
 21
102.449547
 31
0.0
  0
LINE
  5
ED
100
AcDbEntity
  8
ALPHA
100
AcDbLine
 10
59.662686
 20
103.086913
 30
0.0
 11
64.162686
 21
103.086913
 31
0.0
  0
LINE
  5
EE
100
AcDbEntity
  8
ALPHA
100
AcDbLine
 10
74.662686
 20
102.634475
 30
0.0
 11
76.662686
 21
102.634475
 31
0.0
  0
LINE
  5
EF
100
AcDbEntity
  8
ALPHA
100
AcDbLine
 10
95.408266
 20
102.459222
 30
0.0
 11
96.062686
 21
102.459222
 31
0.0
  0
LINE
  5
F0
100
AcDbEntity
  8
ALPHA
100
AcDbLine
 10
96.062686
 20
102.445258
 30
0.0
 11
96.462686
 21
102.445258
 31
0.0
  0
LINE
  5
F1
100
AcDbEntity
  8
ALPHA
100
AcDbLine
 10
96.062686
 20
102.404066
 30
0.0
 11
94.862686
 21
102.404066
 31
0.0
  0
LINE
  5
F2
100
AcDbEntity
  8
ALPHA
100
AcDbLine
 10
96.862686
 20
102.359222
 30
0.0
 11
94.462686
 21
102.359222
 31
0.0
  0
LINE
  5
F3
100
AcDbEntity
  8
ALPHA
100
AcDbLine
 10
59.662686
 20
101.97332
 30
0.0
 11
64.162686
 21
101.97332
 31
0.0
  0
LINE
  5
F4
100
AcDbEntity
  8
ALPHA
100
AcDbLine
 10
59.662686
 20
101.858185
 30
0.0
 11
64.162686
 21
101.858185
 31
0.0
  0
LINE
  5
F5
100
AcDbEntity
  8
ALPHA
100
AcDbLine
 10
80.912686
 20
101.759222
 30
0.0
 11
81.162686
 21
101.759222
 31
0.0
  0
LINE
  5
F6
100
AcDbEntity
  8
ALPHA
100
AcDbLine
 10
80.362686
 20
101.659222
 30
0.0
 11
81.162686
 21
101.659222
 31
0.0
  0
LINE
  5
F7
100
AcDbEntity
  8
ALPHA
100
AcDbLine
 10
73.862686
 20
101.559222
 30
0.0
 11
72.662686
 21
101.559222
 31
0.0
  0
LINE
  5
F8
100
AcDbEntity
  8
ALPHA
100
AcDbLine
 10
104.162686
 20
101.459222
 30
0.0
 11
96.862686
 21
101.459222
 31
0.0
  0
LINE
  5
F9
100
AcDbEntity
  8
ALPHA
100
AcDbLine
 10
104.162686
 20
100.959222
 30
0.0
 11
96.862686
 21
100.959222
 31
0.0
  0
LINE
  5
FA
100
AcDbEntity
  8
ALPHA
100
AcDbLine
 10
96.062686
 20
103.659222
 30
0.0
 11
96.462686
 21
103.668896
 31
0.0
  0
LINE
  5
FB
100
AcDbEntity
  8
ALPHA
100
AcDbLine
 10
95.172546
 20
102.453521
 30
0.0
 11
95.408266
 21
102.459222
 31
0.0
  0
LINE
  5
FC
100
AcDbEntity
  8
ALPHA
100
AcDbLine
 10
80.362686
 20
100.759222
 30
0.0
 11
80.262686
 21
100.759222
 31
0.0
  0
LINE
  5
FD
100
AcDbEntity
  8
ALPHA
100
AcDbLine
 10
80.862686
 20
100.734222
 30
0.0
 11
80.362686
 21
100.734222
 31
0.0
  0
LINE
  5
FE
100
AcDbEntity
  8
ALPHA
100
AcDbLine
 10
59.662686
 20
100.724883
 30
0.0
 11
64.162686
 21
100.724883
 31
0.0
  0
LINE
  5
FF
100
AcDbEntity
  8
ALPHA
100
AcDbLine
 10
80.662686
 20
100.609222
 30
0.0
 11
80.262686
 21
100.609222
 31
0.0
  0
LINE
  5
100
100
AcDbEntity
  8
ALPHA
100
AcDbLine
 10
72.662686
 20
100.184222
 30
0.0
 11
68.635953
 21
100.184222
 31
0.0
  0
LINE
  5
101
100
AcDbEntity
  8
ALPHA
100
AcDbLine
 10
38.499649
 20
100.109222
 30
0.0
 11
47.513975
 21
100.109222
 31
0.0
  0
LINE
  5
102
100
AcDbEntity
  8
ALPHA
100
AcDbLine
 10
59.662686
 20
100.028947
 30
0.0
 11
64.162686
 21
100.028947
 31
0.0
  0
LINE
  5
103
100
AcDbEntity
  8
ALPHA
100
AcDbLine
 10
48.307927
 20
99.984222
 30
0.0
 11
47.562686
 21
99.984222
 31
0.0
  0
LINE
  5
104
100
AcDbEntity
  8
ALPHA
100
AcDbLine
 10
59.662686
 20
99.864518
 30
0.0
 11
64.162686
 21
99.864518
 31
0.0
  0
LINE
  5
105
100
AcDbEntity
  8
ALPHA
100
AcDbLine
 10
80.862686
 20
99.859222
 30
0.0
 11
96.862686
 21
99.859222
 31
0.0
  0
LINE
  5
106
100
AcDbEntity
  8
ALPHA
100
AcDbLine
 10
76.662686
 20
99.809222
 30
0.0
 11
91.969865
 21
99.809222
 31
0.0
  0
LINE
  5
107
100
AcDbEntity
  8
ALPHA
100
AcDbLine
 10
68.062686
 20
99.607217
 30
0.0
 11
64.162686
 21
99.607217
 31
0.0
  0
LINE
  5
108
100
AcDbEntity
  8
ALPHA
100
AcDbLine
 10
74.562686
 20
99.559222
 30
0.0
 11
76.662686
 21
99.559222
 31
0.0
  0
LINE
  5
109
100
AcDbEntity
  8
ALPHA
100
AcDbLine
 10
73.862686
 20
99.559222
 30
0.0
 11
72.662686
 21
99.559222
 31
0.0
  0
LINE
  5
10A
100
AcDbEntity
  8
ALPHA
100
AcDbLine
 10
95.293626
 20
99.459222
 30
0.0
 11
96.862686
 21
99.459222
 31
0.0
  0
LINE
  5
10B
100
AcDbEntity
  8
ALPHA
100
AcDbLine
 10
74.562686
 20
99.284222
 30
0.0
 11
76.662686
 21
99.284222
 31
0.0
  0
LINE
  5
10C
100
AcDbEntity
  8
ALPHA
100
AcDbLine
 10
72.662686
 20
99.284222
 30
0.0
 11
73.862686
 21
99.284222
 31
0.0
  0
LINE
  5
10D
100
AcDbEntity
  8
ALPHA
100
AcDbLine
 10
62.962686
 20
99.187848
 30
0.0
 11
64.162686
 21
99.187848
 31
0.0
  0
LINE
  5
10E
100
AcDbEntity
  8
ALPHA
100
AcDbLine
 10
76.662686
 20
98.959222
 30
0.0
 11
92.662686
 21
98.959222
 31
0.0
  0
LINE
  5
10F
100
AcDbEntity
  8
ALPHA
100
AcDbLine
 10
59.662686
 20
98.786537
 30
0.0
 11
62.962686
 21
98.786537
 31
0.0
  0
LINE
  5
110
100
AcDbEntity
  8
ALPHA
100
AcDbLine
 10
55.462686
 20
98.659222
 30
0.0
 11
59.662686
 21
98.659222
 31
0.0
  0
LINE
  5
111
100
AcDbEntity
  8
ALPHA
100
AcDbLine
 10
55.462686
 20
98.634222
 30
0.0
 11
48.642616
 21
98.634222
 31
0.0
  0
LINE
  5
112
100
AcDbEntity
  8
ALPHA
100
AcDbLine
 10
95.172546
 20
102.453521
 30
0.0
 11
94.862686
 21
102.404066
 31
0.0
  0
LWPOLYLINE
  5
113
100
AcDbEntity
  8
ALPHA
100
AcDbPolyline
 90
       21
 70
     0
 43
0.0
 10
71.736315
 20
100.208376
 10
71.796867
 20
100.219461
 10
71.831243
 20
100.225542
 10
71.868138
 20
100.231899
 10
71.907388
 20
100.238466
 10
71.948825
 20
100.245181
 10
71.992315
 20
100.251983
 10
72.037832
 20
100.258828
 10
72.085381
 20
100.265678
 10
72.134967
 20
100.272492
 10
72.186594
 20
100.279231
 10
72.240237
 20
100.285851
 10
72.295748
 20
100.292297
 10
72.352951
 20
100.298508
 10
72.411668
 20
100.304423
 10
72.471723
 20
100.309983
 10
72.509194
 20
100.313197
 10
72.547064
 20
100.316247
 10
72.585292
 20
100.319127
 10
72.623839
 20
100.32183
 10
72.662666
 20
100.324349
  0
LINE
  5
12A
100
AcDbEntity
  8
ALPHA
100
AcDbLine
 10
71.687384
 20
100.199059
 30
0.0
 11
71.736315
 21
100.208376
 31
0.0
  0
LINE
  5
12B
100
AcDbEntity
  8
ALPHA
100
AcDbLine
 10
71.636836
 20
100.189098
 30
0.0
 11
71.687384
 21
100.199059
 31
0.0
  0
LINE
  5
12C
100
AcDbEntity
  8
ALPHA
100
AcDbLine
 10
71.612686
 20
100.184222
 30
0.0
 11
71.636836
 21
100.189098
 31
0.0
  0
LINE
  5
12D
100
AcDbEntity
  8
ALPHA
100
AcDbLine
 10
64.162686
 20
110.309222
 30
0.0
 11
64.162686
 21
115.930596
 31
0.0
  0
LINE
  5
12E
100
AcDbEntity
  8
ALPHA
100
AcDbLine
 10
64.162686
 20
99.187848
 30
0.0
 11
64.162686
 21
104.809222
 31
0.0
  0
LINE
  5
12F
100
AcDbEntity
  8
ALPHA
100
AcDbLine
 10
62.962686
 20
104.537617
 30
0.0
 11
62.962686
 21
110.580827
 31
0.0
  0
LINE
  5
130
100
AcDbEntity
  8
ALPHA
100
AcDbLine
 10
62.962686
 20
99.187848
 30
0.0
 11
62.962686
 21
98.786537
 31
0.0
  0
LINE
  5
131
100
AcDbEntity
  8
ALPHA
100
AcDbLine
 10
62.962686
 20
116.331907
 30
0.0
 11
62.962686
 21
115.930596
 31
0.0
  0
LINE
  5
132
100
AcDbEntity
  8
ALPHA
100
AcDbLine
 10
57.055506
 20
114.149937
 30
0.0
 11
56.112744
 21
116.459222
 31
0.0
  0
LWPOLYLINE
  5
133
100
AcDbEntity
  8
ALPHA
100
AcDbPolyline
 90
        6
 70
     0
 43
0.0
 10
74.212686
 20
98.172647
 10
74.320842
 20
98.18476
 10
74.41841
 20
98.219913
 10
74.495842
 20
98.274665
 10
74.545555
 20
98.343657
 10
74.562686
 20
98.420134
  0
LINE
  5
13B
100
AcDbEntity
  8
ALPHA
100
AcDbLine
 10
104.662686
 20
104.856412
 30
0.0
 11
104.162686
 21
104.759222
 31
0.0
  0
LINE
  5
13C
100
AcDbEntity
  8
ALPHA
100
AcDbLine
 10
57.055506
 20
100.968506
 30
0.0
 11
56.112744
 21
98.659222
 31
0.0
  0
LWPOLYLINE
  5
13D
100
AcDbEntity
  8
ALPHA
100
AcDbPolyline
 90
        4
 70
     0
 43
0.0
 10
57.055506
 20
100.968506
 10
57.112948
 20
101.141493
 10
57.149907
 20
101.332783
 10
57.162686
 20
101.534192
  0
LINE
  5
143
100
AcDbEntity
  8
ALPHA
100
AcDbLine
 10
59.662686
 20
98.786537
 30
0.0
 11
59.662686
 21
98.659222
 31
0.0
  0
LINE
  5
144
100
AcDbEntity
  8
ALPHA
100
AcDbLine
 10
59.662686
 20
100.724883
 30
0.0
 11
59.662686
 21
99.864518
 31
0.0
  0
LINE
  5
145
100
AcDbEntity
  8
ALPHA
100
AcDbLine
 10
59.662686
 20
103.086913
 30
0.0
 11
59.662686
 21
101.858185
 31
0.0
  0
LINE
  5
146
100
AcDbEntity
  8
ALPHA
100
AcDbLine
 10
59.662686
 20
109.059222
 30
0.0
 11
59.662686
 21
106.059222
 31
0.0
  0
LINE
  5
147
100
AcDbEntity
  8
ALPHA
100
AcDbLine
 10
59.662686
 20
113.260258
 30
0.0
 11
59.662686
 21
112.03153
 31
0.0
  0
LINE
  5
148
100
AcDbEntity
  8
ALPHA
100
AcDbLine
 10
59.662686
 20
115.253925
 30
0.0
 11
59.662686
 21
114.39356
 31
0.0
  0
LINE
  5
149
100
AcDbEntity
  8
ALPHA
100
AcDbLine
 10
59.662686
 20
116.459222
 30
0.0
 11
59.662686
 21
116.331907
 31
0.0
  0
LINE
  5
14A
100
AcDbEntity
  8
ALPHA
100
AcDbLine
 10
56.162686
 20
113.508464
 30
0.0
 11
55.462686
 21
115.223107
 31
0.0
  0
LINE
  5
14B
100
AcDbEntity
  8
ALPHA
100
AcDbLine
 10
104.662686
 20
101.056412
 30
0.0
 11
104.162686
 21
100.959222
 31
0.0
  0
LINE
  5
14C
100
AcDbEntity
  8
ALPHA
100
AcDbLine
 10
56.162686
 20
101.609979
 30
0.0
 11
55.462686
 21
99.895336
 31
0.0
  0
LWPOLYLINE
  5
14D
100
AcDbEntity
  8
ALPHA
100
AcDbPolyline
 90
        4
 70
     0
 43
0.0
 10
57.162686
 20
113.584252
 10
57.149906
 20
113.785664
 10
57.112947
 20
113.976953
 10
57.055506
 20
114.149937
  0
LINE
  5
153
100
AcDbEntity
  8
ALPHA
100
AcDbLine
 10
57.162686
 20
98.659222
 30
0.0
 11
57.162686
 21
116.459222
 31
0.0
  0
LINE
  5
154
100
AcDbEntity
  8
ALPHA
100
AcDbLine
 10
56.162686
 20
101.609979
 30
0.0
 11
56.162686
 21
113.508464
 31
0.0
  0
LINE
  5
155
100
AcDbEntity
  8
ALPHA
100
AcDbLine
 10
55.562686
 20
100.140285
 30
0.0
 11
55.562686
 21
114.978158
 31
0.0
  0
LINE
  5
156
100
AcDbEntity
  8
ALPHA
100
AcDbLine
 10
55.462686
 20
98.634222
 30
0.0
 11
55.462686
 21
116.484222
 31
0.0
  0
LWPOLYLINE
  5
157
100
AcDbEntity
  8
ALPHA
100
AcDbPolyline
 90
        7
 70
     0
 43
0.0
 10
47.513975
 20
100.322506
 10
47.509003
 20
100.363457
 10
47.494224
 20
100.429227
 10
47.46994
 20
100.517479
 10
47.436975
 20
100.624145
 10
47.396925
 20
100.743121
 10
47.351893
 20
100.867393
  0
LWPOLYLINE
  5
160
100
AcDbEntity
  8
ALPHA
100
AcDbPolyline
 90
        3
 70
     0
 43
0.0
 10
46.856543
 20
102.24851
 10
46.835144
 20
102.333817
 10
46.828101
 20
102.42034
  0
LWPOLYLINE
  5
165
100
AcDbEntity
  8
ALPHA
100
AcDbPolyline
 90
        4
 70
     0
 43
0.0
 10
47.351893
 20
100.867393
 10
47.173853
 20
101.349071
 10
47.008911
 20
101.80955
 10
46.856543
 20
102.24851
  0
LINE
  5
16B
100
AcDbEntity
  8
ALPHA
100
AcDbLine
 10
47.562686
 20
99.984222
 30
0.0
 11
47.513975
 21
100.109222
 31
0.0
  0
LINE
  5
16C
100
AcDbEntity
  8
ALPHA
100
AcDbLine
 10
47.562686
 20
115.134222
 30
0.0
 11
47.513975
 21
115.009222
 31
0.0
  0
LWPOLYLINE
  5
16D
100
AcDbEntity
  8
ALPHA
100
AcDbPolyline
 90
        7
 70
     0
 43
0.0
 10
47.351893
 20
114.25105
 10
47.396925
 20
114.375322
 10
47.436975
 20
114.494298
 10
47.46994
 20
114.600964
 10
47.494224
 20
114.689216
 10
47.509003
 20
114.754986
 10
47.513975
 20
114.795938
  0
LWPOLYLINE
  5
176
100
AcDbEntity
  8
ALPHA
100
AcDbPolyline
 90
        4
 70
     0
 43
0.0
 10
46.856543
 20
112.869933
 10
47.008905
 20
113.308877
 10
47.173847
 20
113.769356
 10
47.351893
 20
114.25105
  0
LWPOLYLINE
  5
17C
100
AcDbEntity
  8
ALPHA
100
AcDbPolyline
 90
        3
 70
     0
 43
0.0
 10
46.856543
 20
112.869933
 10
46.835144
 20
112.784626
 10
46.828101
 20
112.698103
  0
LINE
  5
181
100
AcDbEntity
  8
ALPHA
100
AcDbLine
 10
47.562686
 20
99.984222
 30
0.0
 11
47.562686
 21
115.134222
 31
0.0
  0
LINE
  5
182
100
AcDbEntity
  8
ALPHA
100
AcDbLine
 10
47.513975
 20
100.322506
 30
0.0
 11
47.513975
 21
100.109222
 31
0.0
  0
LINE
  5
183
100
AcDbEntity
  8
ALPHA
100
AcDbLine
 10
47.513975
 20
115.009222
 30
0.0
 11
47.513975
 21
114.795938
 31
0.0
  0
LINE
  5
184
100
AcDbEntity
  8
ALPHA
100
AcDbLine
 10
46.828101
 20
112.698105
 30
0.0
 11
46.828101
 21
102.420338
 31
0.0
  0
LINE
  5
185
100
AcDbEntity
  8
ALPHA
100
AcDbLine
 10
37.433766
 20
104.609117
 30
0.0
 11
37.438946
 21
104.546784
 31
0.0
  0
LINE
  5
186
100
AcDbEntity
  8
ALPHA
100
AcDbLine
 10
37.438946
 20
104.546784
 30
0.0
 11
37.453025
 21
104.383568
 31
0.0
  0
LINE
  5
187
100
AcDbEntity
  8
ALPHA
100
AcDbLine
 10
37.453025
 20
104.383568
 30
0.0
 11
37.468902
 21
104.20912
 31
0.0
  0
LINE
  5
188
100
AcDbEntity
  8
ALPHA
100
AcDbLine
 10
37.468902
 20
104.20912
 30
0.0
 11
37.48533
 21
104.037769
 31
0.0
  0
LINE
  5
189
100
AcDbEntity
  8
ALPHA
100
AcDbLine
 10
37.48533
 20
104.037769
 30
0.0
 11
37.503329
 21
103.859222
 31
0.0
  0
INSERT
  5
1CF
100
AcDbEntity
  8
0
100
AcDbBlockReference
  2
SCH_ISO
 10
0.0
 20
0.0
 30
0.0
  0
DIMENSION
  5
1DC
100
AcDbEntity
  8
COTATION1
100
AcDbDimension
  2
*D6
 10
16.934713
 20
115.511226
 30
0.0
 11
14.434713
 21
107.559222
 31
0.0
  3
SC_STAND
100
AcDbAlignedDimension
 13
64.162686
 23
99.607217
 33
0.0
 14
64.162686
 24
115.511226
 34
0.0
 50
90.0
100
AcDbRotatedDimension
  0
DIMENSION
  5
1E9
100
AcDbEntity
  8
COTATION1
100
AcDbDimension
  2
*D5
 10
64.162686
 20
73.254398
 30
0.0
 11
50.737686
 21
75.754398
 31
0.0
  3
SC_STAND
100
AcDbAlignedDimension
 13
37.312686
 23
107.559222
 33
0.0
 14
64.162686
 24
99.187848
 34
0.0
100
AcDbRotatedDimension
  0
ENDSEC
  0
SECTION
  2
OBJECTS
  0
DICTIONARY
  5
215
100
AcDbDictionary
  3
ACAD_GROUP
350
216
  3
ACAD_MLINESTYLE
350
223
  3
ACDBVARIABLEDICTIONARY
350
263
  0
DICTIONARY
  5
216
102
{ACAD_REACTORS
330
215
102
}
100
AcDbDictionary
  0
DICTIONARY
  5
223
102
{ACAD_REACTORS
330
215
102
}
100
AcDbDictionary
  3
STANDARD
350
224
  0
DICTIONARY
  5
263
102
{ACAD_REACTORS
330
215
102
}
100
AcDbDictionary
  3
DIMADEC
350
264
  0
MLINESTYLE
  5
224
102
{ACAD_REACTORS
330
223
102
}
100
AcDbMlineStyle
  2
STANDARD
 70
     0
  3

 62
   256
 51
90.0
 52
90.0
 71
     2
 49
0.5
 62
   256
  6
BYLAYER
 49
-0.5
 62
   256
  6
BYLAYER
  0
DICTIONARYVAR
  5
264
102
{ACAD_REACTORS
330
263
102
}
100
DictionaryVariables
280
     0
  1
0
  0
ENDSEC
  0
EOF
