  0
SECTION
  2
HEADER
  9
$ACADVER
  1
AC1014
  9
$ACADMAINTVER
 70
     9
  9
$DWGCODEPAGE
  3
ANSI_1252
  9
$INSBASE
 10
0.0
 20
0.0
 30
0.0
  9
$EXTMIN
 10
0.0
 20
0.0
 30
0.0
  9
$EXTMAX
 10
32.79999999999999
 20
20.1908
 30
0.0
  9
$LIMMIN
 10
0.0
 20
0.0
  9
$LIMMAX
 10
1632.0
 20
1056.0
  9
$ORTHOMODE
 70
     1
  9
$REGENMODE
 70
     1
  9
$FILLMODE
 70
     1
  9
$QTEXTMODE
 70
     0
  9
$MIRRTEXT
 70
     1
  9
$DRAGMODE
 70
     2
  9
$LTSCALE
 40
1.0
  9
$OSMODE
 70
   171
  9
$ATTMODE
 70
     1
  9
$TEXTSIZE
 40
0.2
  9
$TRACEWID
 40
0.05
  9
$TEXTSTYLE
  7
ROMANS
  9
$CLAYER
  8
0
  9
$CELTYPE
  6
BYLAYER
  9
$CECOLOR
 62
   256
  9
$CELTSCALE
 40
1.0
  9
$DELOBJ
 70
     1
  9
$DISPSILH
 70
     0
  9
$DIMSCALE
 40
0.0
  9
$DIMASZ
 40
0.07
  9
$DIMEXO
 40
0.0625
  9
$DIMDLI
 40
0.38
  9
$DIMRND
 40
0.001
  9
$DIMDLE
 40
0.0
  9
$DIMEXE
 40
0.0625
  9
$DIMTP
 40
0.0
  9
$DIMTM
 40
0.0
  9
$DIMTXT
 40
0.1
  9
$DIMCEN
 40
0.09
  9
$DIMTSZ
 40
0.0
  9
$DIMTOL
 70
     0
  9
$DIMLIM
 70
     0
  9
$DIMTIH
 70
     1
  9
$DIMTOH
 70
     1
  9
$DIMSE1
 70
     0
  9
$DIMSE2
 70
     0
  9
$DIMTAD
 70
     0
  9
$DIMZIN
 70
     4
  9
$DIMBLK
  1
SEARROW
  9
$DIMASO
 70
     1
  9
$DIMSHO
 70
     1
  9
$DIMPOST
  1
\P{\H0.8x;
  9
$DIMAPOST
  1

  9
$DIMALT
 70
     1
  9
$DIMALTD
 70
     0
  9
$DIMALTF
 40
25.4
  9
$DIMLFAC
 40
1.0
  9
$DIMTOFL
 70
     0
  9
$DIMTVP
 40
0.0
  9
$DIMTIX
 70
     0
  9
$DIMSOXD
 70
     0
  9
$DIMSAH
 70
     0
  9
$DIMBLK1
  1

  9
$DIMBLK2
  1

  9
$DIMSTYLE
  2
SCHNEIDERELECTRIC_DUAL_BEL
  9
$DIMCLRD
 70
   256
  9
$DIMCLRE
 70
   256
  9
$DIMCLRT
 70
   256
  9
$DIMTFAC
 40
1.0
  9
$DIMGAP
 40
0.04
  9
$DIMJUST
 70
     0
  9
$DIMSD1
 70
     0
  9
$DIMSD2
 70
     0
  9
$DIMTOLJ
 70
     1
  9
$DIMTZIN
 70
     0
  9
$DIMALTZ
 70
     4
  9
$DIMALTTZ
 70
     0
  9
$DIMFIT
 70
     3
  9
$DIMUPT
 70
     0
  9
$DIMUNIT
 70
     2
  9
$DIMDEC
 70
     2
  9
$DIMTDEC
 70
     2
  9
$DIMALTU
 70
     2
  9
$DIMALTTD
 70
     0
  9
$DIMTXSTY
  7
ROMANS
  9
$DIMAUNIT
 70
     0
  9
$LUNITS
 70
     2
  9
$LUPREC
 70
     4
  9
$SKETCHINC
 40
0.1
  9
$FILLETRAD
 40
0.5
  9
$AUNITS
 70
     0
  9
$AUPREC
 70
     0
  9
$MENU
  1
.
  9
$ELEVATION
 40
0.0
  9
$PELEVATION
 40
0.0
  9
$THICKNESS
 40
0.0
  9
$LIMCHECK
 70
     0
  9
$BLIPMODE
 70
     0
  9
$CHAMFERA
 40
0.5
  9
$CHAMFERB
 40
0.5
  9
$CHAMFERC
 40
1.0
  9
$CHAMFERD
 40
0.0
  9
$SKPOLY
 70
     0
  9
$TDCREATE
 40
2451764.618375243
  9
$TDUPDATE
 40
2452951.489529282
  9
$TDINDWG
 40
0.8570100926
  9
$TDUSRTIMER
 40
0.8570098611
  9
$USRTIMER
 70
     1
  9
$ANGBASE
 50
0.0
  9
$ANGDIR
 70
     0
  9
$PDMODE
 70
     0
  9
$PDSIZE
 40
0.0
  9
$PLINEWID
 40
0.0
  9
$COORDS
 70
     1
  9
$SPLFRAME
 70
     0
  9
$SPLINETYPE
 70
     6
  9
$SPLINESEGS
 70
     8
  9
$ATTDIA
 70
     0
  9
$ATTREQ
 70
     1
  9
$HANDLING
 70
 22529
  9
$HANDSEED
  5
4CE8
  9
$SURFTAB1
 70
     6
  9
$SURFTAB2
 70
     6
  9
$SURFTYPE
 70
     6
  9
$SURFU
 70
     6
  9
$SURFV
 70
     6
  9
$UCSNAME
  2

  9
$UCSORG
 10
0.0
 20
0.0
 30
0.0
  9
$UCSXDIR
 10
1.0
 20
0.0
 30
0.0
  9
$UCSYDIR
 10
0.0
 20
1.0
 30
0.0
  9
$PUCSNAME
  2

  9
$PUCSORG
 10
0.0
 20
0.0
 30
0.0
  9
$PUCSXDIR
 10
1.0
 20
0.0
 30
0.0
  9
$PUCSYDIR
 10
0.0
 20
1.0
 30
0.0
  9
$USERI1
 70
     0
  9
$USERI2
 70
     0
  9
$USERI3
 70
     0
  9
$USERI4
 70
     0
  9
$USERI5
 70
     0
  9
$USERR1
 40
0.0
  9
$USERR2
 40
0.0
  9
$USERR3
 40
0.0
  9
$USERR4
 40
0.0
  9
$USERR5
 40
0.0
  9
$WORLDVIEW
 70
     1
  9
$SHADEDGE
 70
     3
  9
$SHADEDIF
 70
    70
  9
$TILEMODE
 70
     0
  9
$MAXACTVP
 70
    48
  9
$PINSBASE
 10
0.0
 20
0.0
 30
0.0
  9
$PLIMCHECK
 70
     0
  9
$PEXTMIN
 10
-0.0006046908817368
 20
-0.1513150645872407
 30
-0.0000000000112498
  9
$PEXTMAX
 10
16.40121979591246
 20
10.10075990589714
 30
0.0000000000002956
  9
$PLIMMIN
 10
-0.3067282422221667
 20
-1.591710995638156
  9
$PLIMMAX
 10
16.70734433451142
 20
11.55552682009375
  9
$UNITMODE
 70
     0
  9
$VISRETAIN
 70
     1
  9
$PLINEGEN
 70
     0
  9
$PSLTSCALE
 70
     1
  9
$TREEDEPTH
 70
  3020
  9
$PICKSTYLE
 70
     1
  9
$CMLSTYLE
  2
STANDARD
  9
$CMLJUST
 70
     0
  9
$CMLSCALE
 40
1.0
  9
$PROXYGRAPHICS
 70
     1
  9
$MEASUREMENT
 70
     0
  0
ENDSEC
  0
SECTION
  2
CLASSES
  0
CLASS
  1
ACDBDICTIONARYWDFLT
  2
AcDbDictionaryWithDefault
  3
AutoCAD 2000
 90
        0
280
     0
281
     0
  0
CLASS
  1
ACDBPLACEHOLDER
  2
AcDbPlaceHolder
  3
AutoCAD 2000
 90
        0
280
     0
281
     0
  0
CLASS
  1
LAYOUT
  2
AcDbLayout
  3
AutoCAD 2000
 90
        0
280
     0
281
     0
  0
CLASS
  1
LONG_TRANSACTION
  2
AcDbLongTransaction
  3
AutoCAD 2000
 90
        0
280
     0
281
     0
  0
CLASS
  1
LWPOLYLINE
  2
AcDbPolyline
  3
AutoCAD 2000
 90
        0
280
     0
281
     1
  0
CLASS
  1
HATCH
  2
AcDbHatch
  3
AutoCAD 2000
 90
        0
280
     0
281
     1
  0
CLASS
  1
XRECORD
  2
AcDbXrecord
  3
AutoCAD 2000
 90
        0
280
     0
281
     0
  0
CLASS
  1
LONG_TRANSACTION
  2
AcDbLongTransaction
  3
AutoCAD 2000
 90
        0
280
     0
281
     0
  0
CLASS
  1
LWPOLYLINE
  2
AcDbPolyline
  3
AutoCAD 2000
 90
        0
280
     0
281
     1
  0
CLASS
  1
HATCH
  2
AcDbHatch
  3
AutoCAD 2000
 90
        0
280
     0
281
     1
  0
CLASS
  1
XRECORD
  2
AcDbXrecord
  3
AutoCAD 2000
 90
        0
280
     0
281
     0
  0
CLASS
  1
PLOTSETTINGS
  2
AcDbPlotSettings
  3
AutoCAD 2000
 90
        0
280
     0
281
     0
  0
CLASS
  1
LONG_TRANSACTION
  2
AcDbLongTransaction
  3
AutoCAD 2000
 90
        0
280
     0
281
     0
  0
CLASS
  1
LWPOLYLINE
  2
AcDbPolyline
  3
AutoCAD 2000
 90
        0
280
     0
281
     1
  0
CLASS
  1
HATCH
  2
AcDbHatch
  3
AutoCAD 2000
 90
        0
280
     0
281
     1
  0
CLASS
  1
XRECORD
  2
AcDbXrecord
  3
AutoCAD 2000
 90
        0
280
     0
281
     0
  0
CLASS
  1
LONG_TRANSACTION
  2
AcDbLongTransaction
  3
AutoCAD 2000
 90
        0
280
     0
281
     0
  0
CLASS
  1
LWPOLYLINE
  2
AcDbPolyline
  3
AutoCAD 2000
 90
        0
280
     0
281
     1
  0
CLASS
  1
HATCH
  2
AcDbHatch
  3
AutoCAD 2000
 90
        0
280
     0
281
     1
  0
CLASS
  1
XRECORD
  2
AcDbXrecord
  3
AutoCAD 2000
 90
        0
280
     0
281
     0
  0
CLASS
  1
DICTIONARYVAR
  2
AcDbDictionaryVar
  3
AutoCAD 2000
 90
        0
280
     0
281
     0
  0
CLASS
  1
LONG_TRANSACTION
  2
AcDbLongTransaction
  3
AutoCAD 2000
 90
        0
280
     0
281
     0
  0
CLASS
  1
LWPOLYLINE
  2
AcDbPolyline
  3
AutoCAD 2000
 90
        0
280
     0
281
     1
  0
CLASS
  1
HATCH
  2
AcDbHatch
  3
AutoCAD 2000
 90
        0
280
     0
281
     1
  0
CLASS
  1
XRECORD
  2
AcDbXrecord
  3
AutoCAD 2000
 90
        0
280
     0
281
     0
  0
CLASS
  1
LONG_TRANSACTION
  2
AcDbLongTransaction
  3
AutoCAD 2000
 90
        0
280
     0
281
     0
  0
CLASS
  1
LWPOLYLINE
  2
AcDbPolyline
  3
AutoCAD 2000
 90
        0
280
     0
281
     1
  0
CLASS
  1
HATCH
  2
AcDbHatch
  3
AutoCAD 2000
 90
        0
280
     0
281
     1
  0
CLASS
  1
XRECORD
  2
AcDbXrecord
  3
AutoCAD 2000
 90
        0
280
     0
281
     0
  0
CLASS
  1
LONG_TRANSACTION
  2
AcDbLongTransaction
  3
AutoCAD 2000
 90
        0
280
     0
281
     0
  0
CLASS
  1
LWPOLYLINE
  2
AcDbPolyline
  3
AutoCAD 2000
 90
        0
280
     0
281
     1
  0
CLASS
  1
HATCH
  2
AcDbHatch
  3
AutoCAD 2000
 90
        0
280
     0
281
     1
  0
CLASS
  1
XRECORD
  2
AcDbXrecord
  3
AutoCAD 2000
 90
        0
280
     0
281
     0
  0
CLASS
  1
LONG_TRANSACTION
  2
AcDbLongTransaction
  3
AutoCAD 2000
 90
        0
280
     0
281
     0
  0
CLASS
  1
LWPOLYLINE
  2
AcDbPolyline
  3
AutoCAD 2000
 90
        0
280
     0
281
     1
  0
CLASS
  1
HATCH
  2
AcDbHatch
  3
AutoCAD 2000
 90
        0
280
     0
281
     1
  0
CLASS
  1
XRECORD
  2
AcDbXrecord
  3
AutoCAD 2000
 90
        0
280
     0
281
     0
  0
CLASS
  1
LONG_TRANSACTION
  2
AcDbLongTransaction
  3
AutoCAD 2000
 90
        0
280
     0
281
     0
  0
CLASS
  1
LWPOLYLINE
  2
AcDbPolyline
  3
AutoCAD 2000
 90
        0
280
     0
281
     1
  0
CLASS
  1
HATCH
  2
AcDbHatch
  3
AutoCAD 2000
 90
        0
280
     0
281
     1
  0
CLASS
  1
XRECORD
  2
AcDbXrecord
  3
AutoCAD 2000
 90
        0
280
     0
281
     0
  0
CLASS
  1
LONG_TRANSACTION
  2
AcDbLongTransaction
  3
AutoCAD 2000
 90
        0
280
     0
281
     0
  0
CLASS
  1
LWPOLYLINE
  2
AcDbPolyline
  3
AutoCAD 2000
 90
        0
280
     0
281
     1
  0
CLASS
  1
HATCH
  2
AcDbHatch
  3
AutoCAD 2000
 90
        0
280
     0
281
     1
  0
CLASS
  1
XRECORD
  2
AcDbXrecord
  3
AutoCAD 2000
 90
        0
280
     0
281
     0
  0
CLASS
  1
LONG_TRANSACTION
  2
AcDbLongTransaction
  3
AutoCAD 2000
 90
        0
280
     0
281
     0
  0
CLASS
  1
LWPOLYLINE
  2
AcDbPolyline
  3
AutoCAD 2000
 90
        0
280
     0
281
     1
  0
CLASS
  1
HATCH
  2
AcDbHatch
  3
AutoCAD 2000
 90
        0
280
     0
281
     1
  0
CLASS
  1
XRECORD
  2
AcDbXrecord
  3
AutoCAD 2000
 90
        0
280
     0
281
     0
  0
CLASS
  1
LONG_TRANSACTION
  2
AcDbLongTransaction
  3
AutoCAD 2000
 90
        0
280
     0
281
     0
  0
CLASS
  1
LWPOLYLINE
  2
AcDbPolyline
  3
AutoCAD 2000
 90
        0
280
     0
281
     1
  0
CLASS
  1
HATCH
  2
AcDbHatch
  3
AutoCAD 2000
 90
        0
280
     0
281
     1
  0
CLASS
  1
XRECORD
  2
AcDbXrecord
  3
AutoCAD 2000
 90
        0
280
     0
281
     0
  0
CLASS
  1
LONG_TRANSACTION
  2
AcDbLongTransaction
  3
AutoCAD 2000
 90
        0
280
     0
281
     0
  0
CLASS
  1
LWPOLYLINE
  2
AcDbPolyline
  3
AutoCAD 2000
 90
        0
280
     0
281
     1
  0
CLASS
  1
HATCH
  2
AcDbHatch
  3
AutoCAD 2000
 90
        0
280
     0
281
     1
  0
CLASS
  1
XRECORD
  2
AcDbXrecord
  3
AutoCAD 2000
 90
        0
280
     0
281
     0
  0
ENDSEC
  0
SECTION
  2
TABLES
  0
TABLE
  2
VPORT
  5
8
330
0
100
AcDbSymbolTable
 70
     1
  0
VPORT
  5
4A07
330
8
100
AcDbSymbolTableRecord
100
AcDbViewportTableRecord
  2
*ACTIVE
 70
     0
 10
0.0
 20
0.0
 11
1.0
 21
1.0
 12
16.38574505642236
 22
10.11914248079915
 13
0.0
 23
0.0
 14
0.5
 24
0.5
 15
0.5
 25
0.5
 16
0.0
 26
0.0
 36
1.0
 17
0.0
 27
0.0
 37
0.0
 40
20.47775673109391
 41
1.702158273381295
 42
50.0
 43
0.0
 44
0.0
 50
0.0
 51
0.0
 71
     0
 72
   100
 73
     1
 74
     2
 75
     0
 76
     0
 77
     0
 78
     0
  0
ENDTAB
  0
TABLE
  2
LTYPE
  5
5
330
0
100
AcDbSymbolTable
 70
     3
  0
LTYPE
  5
14
330
5
100
AcDbSymbolTableRecord
100
AcDbLinetypeTableRecord
  2
BYBLOCK
 70
     0
  3

 72
    65
 73
     0
 40
0.0
  0
LTYPE
  5
15
330
5
100
AcDbSymbolTableRecord
100
AcDbLinetypeTableRecord
  2
BYLAYER
 70
     0
  3

 72
    65
 73
     0
 40
0.0
  0
LTYPE
  5
16
330
5
100
AcDbSymbolTableRecord
100
AcDbLinetypeTableRecord
  2
CONTINUOUS
 70
     0
  3
Solid line
 72
    65
 73
     0
 40
0.0
  0
LTYPE
  5
3D
330
5
100
AcDbSymbolTableRecord
100
AcDbLinetypeTableRecord
  2
CENTER2
 70
     0
  3
Center (.5x) ___ _ ___ _ ___ _ ___ _ ___ _ ___
 72
    65
 73
     4
 40
1.125
 49
0.75
 74
     0
 49
-0.125
 74
     0
 49
0.125
 74
     0
 49
-0.125
 74
     0
  0
LTYPE
  5
3B6B
330
5
100
AcDbSymbolTableRecord
100
AcDbLinetypeTableRecord
  2
HIDDEN2
 70
     0
  3
Hidden (.5x) _ _ _ _ _ _ _ _ _ _ _ _ _ _ _ _ _
 72
    65
 73
     2
 40
0.1875
 49
0.125
 74
     0
 49
-0.0625
 74
     0
  0
ENDTAB
  0
TABLE
  2
LAYER
  5
2
330
0
100
AcDbSymbolTable
 70
    11
  0
LAYER
  5
10
330
2
100
AcDbSymbolTableRecord
100
AcDbLayerTableRecord
  2
0
 70
     0
 62
     7
  6
CONTINUOUS
  0
LAYER
  5
47
330
2
100
AcDbSymbolTableRecord
100
AcDbLayerTableRecord
  2
CONTINUOUS1
 70
     0
 62
     7
  6
CONTINUOUS
  0
LAYER
  5
48
330
2
100
AcDbSymbolTableRecord
100
AcDbLayerTableRecord
  2
CONTINUOUS2
 70
     0
 62
   254
  6
CONTINUOUS
  0
LAYER
  5
49
330
2
100
AcDbSymbolTableRecord
100
AcDbLayerTableRecord
  2
CONTINUOUS3
 70
     0
 62
   253
  6
CONTINUOUS
  0
LAYER
  5
4D
330
2
100
AcDbSymbolTableRecord
100
AcDbLayerTableRecord
  2
DIM
 70
     0
 62
     2
  6
CONTINUOUS
  0
LAYER
  5
55
330
2
100
AcDbSymbolTableRecord
100
AcDbLayerTableRecord
  2
TEXT1
 70
     0
 62
     3
  6
CONTINUOUS
  0
LAYER
  5
58
330
2
100
AcDbSymbolTableRecord
100
AcDbLayerTableRecord
  2
TITLEBLOCK
 70
     0
 62
     9
  6
CONTINUOUS
  0
LAYER
  5
59
330
2
100
AcDbSymbolTableRecord
100
AcDbLayerTableRecord
  2
VIEWPORT
 70
     0
 62
     9
  6
CONTINUOUS
  0
LAYER
  5
19F
330
2
100
AcDbSymbolTableRecord
100
AcDbLayerTableRecord
  2
DEFPOINTS
 70
     0
 62
     7
  6
CONTINUOUS
  0
LAYER
  5
1DB4
330
2
100
AcDbSymbolTableRecord
100
AcDbLayerTableRecord
  2
CENTER2
 70
     0
 62
    50
  6
CENTER2
  0
LAYER
  5
3B73
330
2
100
AcDbSymbolTableRecord
100
AcDbLayerTableRecord
  2
HIDDEN1
 70
     0
 62
     5
  6
HIDDEN2
  0
ENDTAB
  0
TABLE
  2
STYLE
  5
3
330
0
100
AcDbSymbolTable
 70
     3
  0
STYLE
  5
11
330
3
100
AcDbSymbolTableRecord
100
AcDbTextStyleTableRecord
  2
STANDARD
 70
     0
 40
0.0
 41
1.0
 50
0.0
 71
     0
 42
0.2
  3
txt
  4

  0
STYLE
  5
36
330
3
100
AcDbSymbolTableRecord
100
AcDbTextStyleTableRecord
  2
ROMANS
 70
     0
 40
0.0
 41
1.0
 50
0.0
 71
     0
 42
0.2
  3
romans.shx
  4

  0
STYLE
  5
531
330
3
100
AcDbSymbolTableRecord
100
AcDbTextStyleTableRecord
  2
M_STANDARD
 70
     0
 40
0.0
 41
0.8
 50
0.0
 71
     0
 42
0.0
  3
MEDUSA.SHX
  4

  0
ENDTAB
  0
TABLE
  2
VIEW
  5
6
330
0
100
AcDbSymbolTable
 70
     0
  0
ENDTAB
  0
TABLE
  2
UCS
  5
7
330
0
100
AcDbSymbolTable
 70
     0
  0
ENDTAB
  0
TABLE
  2
APPID
  5
9
330
0
100
AcDbSymbolTable
 70
    11
  0
APPID
  5
12
330
9
100
AcDbSymbolTableRecord
100
AcDbRegAppTableRecord
  2
ACAD
 70
     0
  0
APPID
  5
6B
330
9
100
AcDbSymbolTableRecord
100
AcDbRegAppTableRecord
  2
DCO15
 70
     0
  0
APPID
  5
532
330
9
100
AcDbSymbolTableRecord
100
AcDbRegAppTableRecord
  2
MCAD_NO_VIS
 70
     0
  0
APPID
  5
533
330
9
100
AcDbSymbolTableRecord
100
AcDbRegAppTableRecord
  2
ACAD_TEMP_GRAPHIC
 70
     0
  0
APPID
  5
534
330
9
100
AcDbSymbolTableRecord
100
AcDbRegAppTableRecord
  2
GENIUS_GENSCREG_15
 70
     0
  0
APPID
  5
535
330
9
100
AcDbSymbolTableRecord
100
AcDbRegAppTableRecord
  2
GENIUS_GENODEF_13
 70
     0
  0
APPID
  5
536
330
9
100
AcDbSymbolTableRecord
100
AcDbRegAppTableRecord
  2
GENIUS_GENOBJ-N-SDF_13
 70
     0
  0
APPID
  5
537
330
9
100
AcDbSymbolTableRecord
100
AcDbRegAppTableRecord
  2
GENIUS_GENOENT_13
 70
     0
  0
APPID
  5
538
330
9
100
AcDbSymbolTableRecord
100
AcDbRegAppTableRecord
  2
GENIUS_GENOREF_13
 70
     0
  0
APPID
  5
539
330
9
100
AcDbSymbolTableRecord
100
AcDbRegAppTableRecord
  2
GENIUS_GENOLIS_13
 70
     0
  0
APPID
  5
53A
330
9
100
AcDbSymbolTableRecord
100
AcDbRegAppTableRecord
  2
MED_PRIMTYPE
 70
     0
  0
ENDTAB
  0
TABLE
  2
DIMSTYLE
  5
A
330
0
100
AcDbSymbolTable
 70
     1
  0
DIMSTYLE
105
1A1
102
{ACAD_REACTORS
330
3EF4
330
3FB8
330
3FB1
330
3FAF
330
3FAE
330
3FAD
330
3FB4
330
3FB0
330
3FAC
330
3FAB
102
}
330
A
100
AcDbSymbolTableRecord
100
AcDbDimStyleTableRecord
  2
SCHNEIDERELECTRIC_DUAL_BEL
 70
     0
  3
\P{\H0.8x;
  4

  5
SEARROW
  6

  7

 40
0.0
 41
0.07
 42
0.0625
 43
0.38
 44
0.0625
 45
0.001
 46
0.0
 47
0.0
 48
0.0
140
0.1
141
0.09
142
0.0
143
25.4
144
1.0
145
0.0
146
1.0
147
0.04
 71
     0
 72
     0
 73
     1
 74
     1
 75
     0
 76
     0
 77
     0
 78
     4
170
     1
171
     0
172
     0
173
     0
174
     0
175
     0
176
   256
177
   256
178
   256
270
     2
271
     2
272
     2
273
     2
274
     0
340
36
275
     0
280
     0
281
     0
282
     0
283
     1
284
     0
285
     4
286
     0
287
     3
288
     0
  0
ENDTAB
  0
TABLE
  2
BLOCK_RECORD
  5
1
330
0
100
AcDbSymbolTable
 70
    15
  0
BLOCK_RECORD
  5
1F
102
{ACAD_XDICTIONARY
360
73
102
}
330
1
100
AcDbSymbolTableRecord
100
AcDbBlockTableRecord
  2
*MODEL_SPACE
  0
BLOCK_RECORD
  5
1B
102
{ACAD_XDICTIONARY
360
75
102
}
330
1
100
AcDbSymbolTableRecord
100
AcDbBlockTableRecord
  2
*PAPER_SPACE
  0
BLOCK_RECORD
  5
195
330
1
100
AcDbSymbolTableRecord
100
AcDbBlockTableRecord
  2
SEARROW
1001
ACAD
1000
DesignCenter Data
1002
{
1070
     1
1070
     1
1002
}
  0
BLOCK_RECORD
  5
53C
330
1
100
AcDbSymbolTableRecord
100
AcDbBlockTableRecord
  2
TB-PAD
  0
BLOCK_RECORD
  5
557
330
1
100
AcDbSymbolTableRecord
100
AcDbBlockTableRecord
  2
LOGO-PAD
  0
BLOCK_RECORD
  5
3FB9
330
1
100
AcDbSymbolTableRecord
100
AcDbBlockTableRecord
  2
*D3
  0
BLOCK_RECORD
  5
3FC6
330
1
100
AcDbSymbolTableRecord
100
AcDbBlockTableRecord
  2
*D4
  0
BLOCK_RECORD
  5
3FD3
330
1
100
AcDbSymbolTableRecord
100
AcDbBlockTableRecord
  2
*D5
  0
BLOCK_RECORD
  5
3FE0
330
1
100
AcDbSymbolTableRecord
100
AcDbBlockTableRecord
  2
*D6
  0
BLOCK_RECORD
  5
3FED
330
1
100
AcDbSymbolTableRecord
100
AcDbBlockTableRecord
  2
*D7
  0
BLOCK_RECORD
  5
3FFA
330
1
100
AcDbSymbolTableRecord
100
AcDbBlockTableRecord
  2
*D8
  0
BLOCK_RECORD
  5
4007
330
1
100
AcDbSymbolTableRecord
100
AcDbBlockTableRecord
  2
*D9
  0
BLOCK_RECORD
  5
4015
330
1
100
AcDbSymbolTableRecord
100
AcDbBlockTableRecord
  2
*D10
  0
BLOCK_RECORD
  5
4022
330
1
100
AcDbSymbolTableRecord
100
AcDbBlockTableRecord
  2
*D11
  0
BLOCK_RECORD
  5
402F
330
1
100
AcDbSymbolTableRecord
100
AcDbBlockTableRecord
  2
*D12
  0
BLOCK_RECORD
  5
4367
330
1
100
AcDbSymbolTableRecord
100
AcDbBlockTableRecord
  2
DUALDIM
1001
ACAD
1000
DesignCenter Data
1002
{
1070
     1
1070
     1
1002
}
  0
BLOCK_RECORD
  5
44D4
330
1
100
AcDbSymbolTableRecord
100
AcDbBlockTableRecord
  2
ATTRIBUTES_FIXED
1001
ACAD
1000
DesignCenter Data
1002
{
1070
     1
1070
     1
1002
}
  0
ENDTAB
  0
ENDSEC
  0
SECTION
  2
BLOCKS
  0
BLOCK
  5
20
330
1F
100
AcDbEntity
  8
0
100
AcDbBlockBegin
  2
*MODEL_SPACE
 70
     0
 10
0.0
 20
0.0
 30
0.0
  3
*MODEL_SPACE
  1

  0
ENDBLK
  5
21
330
1F
100
AcDbEntity
  8
0
100
AcDbBlockEnd
  0
BLOCK
  5
1C
330
1B
100
AcDbEntity
 67
     1
  8
0
100
AcDbBlockBegin
  2
*PAPER_SPACE
 70
     0
 10
0.0
 20
0.0
 30
0.0
  3
*PAPER_SPACE
  1

  0
ENDBLK
  5
1D
330
1B
100
AcDbEntity
 67
     1
  8
0
100
AcDbBlockEnd
  0
BLOCK
  5
197
330
195
100
AcDbEntity
  8
0
100
AcDbBlockBegin
  2
SEARROW
 70
     0
 10
0.0
 20
0.0
 30
0.0
  3
SEARROW
  1

  0
LWPOLYLINE
  5
196
330
195
100
AcDbEntity
  8
0
  6
BYBLOCK
100
AcDbPolyline
 90
        2
 70
     0
 10
0.0
 20
0.0
 40
0.0
 41
0.5000000001500001
 10
-1.000000000300019
 20
0.0
 40
0.5000000001500001
 41
0.5000000001500001
  0
ENDBLK
  5
198
330
195
100
AcDbEntity
  8
0
100
AcDbBlockEnd
  0
BLOCK
  5
54B
330
53C
100
AcDbEntity
  8
0
100
AcDbBlockBegin
  2
TB-PAD
 70
     2
 10
0.0
 20
0.0
 30
0.0
  3
TB-PAD
  1

  0
LWPOLYLINE
  5
53D
330
53C
100
AcDbEntity
  8
CONTINUOUS2
 62
     0
100
AcDbPolyline
 90
        7
 70
     1
 43
0.0
 10
16.4000010086626
 20
-0.0000000084245251
 10
16.4000010086626
 20
-0.0000000084245251
 10
16.4000010086626
 20
-0.0000000084245251
 10
8.002461008662603
 20
-0.0000000084245251
 10
8.002461008662603
 20
0.9120019915754742
 10
16.4000010086626
 20
0.9120019915754742
 10
16.4000010086626
 20
-0.0000000084245251
  0
LINE
  5
53E
330
53C
100
AcDbEntity
  8
CONTINUOUS2
 62
     0
100
AcDbLine
 10
16.4000010086626
 20
0.3039999915754752
 30
0.0
 11
12.2457010086626
 21
0.3039999915754752
 31
0.0
  0
LINE
  5
53F
330
53C
100
AcDbEntity
  8
CONTINUOUS2
 62
     0
100
AcDbLine
 10
12.2457010086626
 20
0.9120019915754742
 30
0.0
 11
12.2457010086626
 21
-0.0000000084245251
 31
0.0
  0
TEXT
  5
540
330
53C
100
AcDbEntity
  8
TEXT1
  6
CONTINUOUS
 62
     0
100
AcDbText
 10
12.36897712979916
 20
0.0611566646937659
 30
0.0
 40
0.0699999951940822
  1
NO.
  7
ROMANS
 11
12.36897712979916
 21
0.096156662290807
 31
0.0
100
AcDbText
 73
     2
  0
TEXT
  5
541
330
53C
100
AcDbEntity
  8
TEXT1
  6
CONTINUOUS
 62
     0
100
AcDbText
 10
12.36897712979916
 20
0.1661566646937658
 30
0.0
 40
0.0699999951940822
  1
DWG#
  7
ROMANS
 11
12.36897712979916
 21
0.2011566622908068
 31
0.0
100
AcDbText
 73
     2
  0
ATTDEF
  5
542
330
53C
100
AcDbEntity
  8
TEXT1
 62
     0
100
AcDbText
 10
10.10183835760059
 20
0.7474460800344916
 30
0.0
 40
0.1
  1

  7
ROMANS
 72
     4
 11
10.10183835760059
 21
0.7474460800344916
 31
0.0
100
AcDbAttributeDefinition
  3
DESCRIPTION 1
  2
DESCRIPTION 1
 70
     0
  0
ATTDEF
  5
543
330
53C
100
AcDbEntity
  8
TEXT1
 62
     0
100
AcDbText
 10
10.10183835760059
 20
0.6017231627161466
 30
0.0
 40
0.1
  1

  7
ROMANS
 72
     4
 11
10.10183835760059
 21
0.6017231627161466
 31
0.0
100
AcDbAttributeDefinition
  3
DESCRIPTION 2
  2
DESCRIPTION 2
 70
     0
  0
ATTDEF
  5
544
330
53C
100
AcDbEntity
  8
TEXT1
 62
     0
100
AcDbText
 10
10.10183835760059
 20
0.4560002453978016
 30
0.0
 40
0.08
  1

  7
ROMANS
 72
     4
 11
10.10183835760059
 21
0.4560002453978016
 31
0.0
100
AcDbAttributeDefinition
  3
DESCRIPTION 3
  2
DESCRIPTION 3
 70
     0
  0
ATTDEF
  5
545
330
53C
100
AcDbEntity
  8
TEXT1
 62
     0
100
AcDbText
 10
10.10183835760059
 20
0.3202773280794582
 30
0.0
 40
0.08
  1

  7
ROMANS
 72
     4
 11
10.10183835760059
 21
0.3202773280794582
 31
0.0
100
AcDbAttributeDefinition
  3
DESCRIPTION 4
  2
DESCRIPTION 4
 70
     0
  0
ATTDEF
  5
546
330
53C
100
AcDbEntity
  8
TEXT1
 62
     0
100
AcDbText
 10
10.10183835760059
 20
0.1845544107611148
 30
0.0
 40
0.08
  1

  7
ROMANS
 72
     4
 11
10.10183835760059
 21
0.1845544107611148
 31
0.0
100
AcDbAttributeDefinition
  3
DESCRIPTION 5
  2
DESCRIPTION 5
 70
     0
  0
ATTDEF
  5
547
330
53C
100
AcDbEntity
  8
TEXT1
 62
     0
100
AcDbText
 10
12.74772367969455
 20
0.09654053761198
 30
0.0
 40
0.12
  1

 41
0.9512024731840066
  7
M_STANDARD
 11
12.74772367969455
 21
0.1565405376119799
 31
0.0
100
AcDbAttributeDefinition
  3
DRAWING NUMBER
  2
DWGNO
 70
     0
 74
     2
  0
ATTDEF
  5
548
330
53C
100
AcDbEntity
  8
TEXT1
 62
     0
100
AcDbText
 10
16.35506455815586
 20
-0.1507193164174602
 30
0.0
 40
0.08
  1

  7
ROMANS
 72
     2
 11
16.35506455815586
 21
-0.1107193164174602
 31
0.0
100
AcDbAttributeDefinition
  3
REF DWG #
  2
REF
 70
     0
 74
     2
  0
ATTDEF
  5
549
330
53C
100
AcDbEntity
  8
TEXT1
 62
     0
100
AcDbText
 10
0.0266402460664743
 20
-0.1507193164174602
 30
0.0
 40
0.08
  1

  7
ROMANS
 11
0.0266402460664743
 21
-0.1107193164174602
 31
0.0
100
AcDbAttributeDefinition
  3
DATE MODIFIED
  2
DATE
 70
     0
 74
     2
  0
LWPOLYLINE
  5
54A
330
53C
100
AcDbEntity
  8
CONTINUOUS3
 62
     0
100
AcDbPolyline
 90
        4
 70
   129
 43
0.0
 10
0.0000000086626031
 20
-0.0000000084245251
 10
16.4000010086626
 20
-0.0000000084245251
 10
16.4000010086626
 20
10.1
 10
0.0000000086626031
 20
10.1
  0
ENDBLK
  5
54C
330
53C
100
AcDbEntity
  8
0
100
AcDbBlockEnd
  0
BLOCK
  5
599
330
557
100
AcDbEntity
  8
0
100
AcDbBlockBegin
  2
LOGO-PAD
 70
     0
 10
0.0
 20
0.0
 30
0.0
  3
LOGO-PAD
  1

  0
HATCH
  5
558
330
557
100
AcDbEntity
  8
CONTINUOUS1
 62
     9
100
AcDbHatch
 10
0.0
 20
0.0
 30
0.0
210
0.0
220
0.0
230
1.0
  2
SOLID
 70
     1
 71
     1
 91
        1
 92
        1
 93
        4
 72
     1
 10
1.830314246824318
 20
0.3820863083685713
 11
1.830314246824318
 21
0.3931967807444612
 72
     2
 10
1.808269786605604
 20
0.3584765545696773
 40
0.0411272699308212
 50
57.58784372121493
 51
302.4121562787851
 73
     1
 72
     1
 10
1.830314246824318
 20
0.3237563283948935
 11
1.830314246824318
 21
0.3348668007707834
 72
     2
 10
1.812192479989335
 20
0.3584765545696773
 40
0.0297627100188455
 50
52.49180531393309
 51
307.5081946860668
 73
     0
 97
        1
330
55D
 75
     0
 76
     1
 98
        1
 10
-6.623918024059631
 20
-0.1308261527660757
  0
HATCH
  5
559
330
557
100
AcDbEntity
  8
CONTINUOUS1
 62
     9
100
AcDbHatch
 10
0.0
 20
0.0
 30
0.0
210
0.0
220
0.0
230
1.0
  2
SOLID
 70
     1
 71
     1
 91
        1
 92
        1
 93
        4
 72
     1
 10
2.998736751853392
 20
0.4763401613594179
 11
1.673816157100507
 21
0.4763642794500816
 72
     1
 10
1.673816157100507
 20
0.4763642794500816
 11
1.673816157100507
 21
0.4979941642056934
 72
     1
 10
1.673816157100507
 20
0.4979941642056934
 11
2.998736751853392
 21
0.4979700461150296
 72
     1
 10
2.998736751853392
 20
0.4979700461150296
 11
2.998736751853392
 21
0.4763401613594179
 97
        1
330
55B
 75
     0
 76
     1
 98
        1
 10
-6.623918024059631
 20
-0.1308261527660757
  0
HATCH
  5
55A
330
557
100
AcDbEntity
  8
CONTINUOUS1
 62
     9
100
AcDbHatch
 10
0.0
 20
0.0
 30
0.0
210
0.0
220
0.0
230
1.0
  2
SOLID
 70
     1
 71
     1
 91
        1
 92
        1
 93
       26
 72
     1
 10
1.706158971979878
 20
0.6423016628555165
 11
1.794659236046104
 21
0.6423016628555165
 72
     2
 10
1.794659059797441
 20
0.6315206045637596
 40
0.0107810582931976
 50
270.0009366709926
 51
360.0009366862294
 73
     0
 72
     1
 10
1.805440118089197
 20
0.6315204283122289
 11
1.827002575925892
 21
0.6315204283122289
 72
     1
 10
1.827002575925892
 20
0.6315204283122289
 11
1.827002575925892
 21
0.6423016628555165
 72
     2
 10
1.805440021527005
 20
0.6423017594181574
 40
0.0215625543991029
 50
359.9997434148255
 51
449.9997434160171
 73
     1
 72
     1
 10
1.805440118089197
 20
0.6638643138170442
 11
1.695377564936368
 21
0.6638643138170442
 72
     2
 10
1.695378186492716
 20
0.6423022844272413
 40
0.0215620293987615
 50
90.00165163282238
 51
180.0014125206716
 73
     1
 72
     1
 10
1.673816157100507
 20
0.6423017528555879
 11
1.673816157100507
 21
0.6107079034654821
 72
     2
 10
1.695378141491446
 20
0.6107073268949657
 40
0.0215619843986482
 50
179.9984679027414
 51
269.9984679437649
 73
     1
 72
     1
 10
1.695377564936368
 20
0.5891453425040259
 11
1.794659236046104
 21
0.5891456106290894
 72
     2
 10
1.794659058859963
 20
0.5783645513998547
 40
0.0107810592306907
 50
270.0009416531222
 51
360.0009416684906
 73
     0
 72
     1
 10
1.805440118089197
 20
0.5783643742108216
 11
1.805440286839289
 21
0.5675829596673912
 72
     2
 10
1.79465900917095
 20
0.5675828227932667
 40
0.0107812776692073
 50
359.9992725992319
 51
449.9997907459047
 73
     0
 72
     1
 10
1.794659048546041
 20
0.5568015451241313
 11
1.706158971979878
 21
0.5568015451239608
 72
     2
 10
1.706158926979733
 20
0.5675830946673887
 40
0.0107815495435218
 50
89.99976085827134
 51
179.9997608594354
 73
     0
 72
     1
 10
1.695377377436305
 20
0.5675830496674626
 11
1.673816157100507
 21
0.5675830496674626
 72
     1
 10
1.673816157100507
 20
0.5675830496674626
 11
1.673816157100507
 21
0.5568018132491948
 72
     2
 10
1.695378051486819
 20
0.5568010585565073
 40
0.0215618943995201
 50
179.9979945776083
 51
269.9987071039833
 73
     1
 72
     1
 10
1.695377564936368
 20
0.5352391641624768
 11
1.805440118089197
 21
0.5352391641624768
 72
     2
 10
1.805440156527087
 20
0.5568015835616184
 40
0.0215624193991759
 50
269.9998978626278
 51
359.9996636967671
 73
     1
 72
     1
 10
1.827002575925892
 20
0.5568014569988696
 11
1.827002575925892
 21
0.5887705485089332
 72
     2
 10
1.805440111526664
 20
0.5887705550714311
 40
0.0215624643992291
 50
359.9999825621309
 51
449.9999825620353
 73
     1
 72
     1
 10
1.805440118089197
 20
0.6103330194706591
 11
1.706158971979878
 21
0.6103327513454251
 72
     2
 10
1.706158881980003
 20
0.6211142558887484
 40
0.0107815045436989
 50
89.99952171675658
 51
179.9999900368059
 73
     0
 72
     1
 10
1.695377377436305
 20
0.6211142540139467
 11
1.695377564936368
 21
0.6315205164371496
 72
     2
 10
1.706158885728571
 20
0.6315203420622487
 40
0.0107813207936129
 50
180.0009266903443
 51
270.0004583701721
 73
     0
 97
        1
330
55C
 75
     0
 76
     1
 98
        1
 10
-6.623918024059631
 20
-0.1308261527660757
  0
LWPOLYLINE
  5
55B
102
{ACAD_REACTORS
330
559
102
}
330
557
100
AcDbEntity
  8
CONTINUOUS1
  6
CONTINUOUS
 62
     9
100
AcDbPolyline
 90
        4
 70
     1
 43
0.0
 10
2.998736751853392
 20
0.4763401613594179
 10
1.673816157100507
 20
0.4763642794500816
 10
1.673816157100507
 20
0.4979941642056934
 10
2.998736751853392
 20
0.4979700461150296
  0
LWPOLYLINE
  5
55C
102
{ACAD_REACTORS
330
55A
102
}
330
557
100
AcDbEntity
  8
CONTINUOUS1
  6
CONTINUOUS
 62
     9
100
AcDbPolyline
 90
       26
 70
     1
 43
0.0
 10
1.706158971979878
 20
0.6423016628555165
 10
1.794659236046104
 20
0.6423016628555165
 42
-0.4142135624509854
 10
1.805440118089197
 20
0.6315204283122289
 10
1.827002575925892
 20
0.6315204283122289
 10
1.827002575925892
 20
0.6423016628555165
 42
0.4142135623791847
 10
1.805440118089197
 20
0.6638643138170442
 10
1.695377564936368
 20
0.6638643138170442
 42
0.4142123400440204
 10
1.673816157100507
 20
0.6423017528555879
 10
1.673816157100507
 20
0.6107079034654821
 42
0.4142135625828059
 10
1.695377564936368
 20
0.5891453425040259
 10
1.794659236046104
 20
0.5891456106290894
 42
-0.4142135624516547
 10
1.805440118089197
 20
0.5783643742108216
 10
1.805440286839289
 20
0.5675829596673912
 42
-0.4142162111159897
 10
1.794659048546041
 20
0.5568015451241313
 10
1.706158971979878
 20
0.5568015451239608
 42
-0.4142135623790486
 10
1.695377377436305
 20
0.5675830496674626
 10
1.673816157100507
 20
0.5675830496674626
 10
1.673816157100507
 20
0.5568018132491948
 42
0.4142172047777202
 10
1.695377564936368
 20
0.5352391641624768
 10
1.805440118089197
 20
0.5352391641624768
 42
0.4142123653291911
 10
1.827002575925892
 20
0.5568014569988696
 10
1.827002575925892
 20
0.5887705485089332
 42
0.4142135623726066
 10
1.805440118089197
 20
0.6103330194706591
 10
1.706158971979878
 20
0.6103327513454251
 42
-0.4142159564042797
 10
1.695377377436305
 20
0.6211142540139467
 10
1.695377564936368
 20
0.6315205164371496
 42
-0.4142111683453352
  0
LWPOLYLINE
  5
55D
102
{ACAD_REACTORS
330
558
102
}
330
557
100
AcDbEntity
  8
CONTINUOUS1
  6
CONTINUOUS
 62
     9
100
AcDbPolyline
 90
        4
 70
     1
 43
0.0
 10
1.830314246824318
 20
0.3820863083685713
 10
1.830314246824318
 20
0.3931967807444612
 42
1.819450421535996
 10
1.830314246824318
 20
0.3237563283948935
 10
1.830314246824318
 20
0.3348668007707834
 42
-2.028165022884401
  0
HATCH
  5
55E
330
557
100
AcDbEntity
  8
CONTINUOUS1
 62
     9
100
AcDbHatch
 10
0.0
 20
0.0
 30
0.0
210
0.0
220
0.0
230
1.0
  2
SOLID
 70
     1
 71
     1
 91
        4
 92
        1
 93
        4
 72
     1
 10
1.486316041326151
 20
0.6638643138170442
 11
1.111315796341873
 21
0.6638643138170442
 72
     1
 10
1.111315796341873
 20
0.6638643138170442
 11
1.111315796341873
 21
0.2888644264609757
 72
     1
 10
1.111315796341873
 20
0.2888644264609757
 11
1.486316041326151
 21
0.2888644264609757
 72
     1
 10
1.486316041326151
 20
0.2888644264609757
 11
1.486316041326151
 21
0.6638643138170442
 97
        1
330
55F
 92
        0
 93
       10
 72
     1
 10
1.392565980080039
 20
0.6001142882630579
 11
1.175065956006481
 21
0.6001142882630579
 72
     1
 10
1.175065956006481
 20
0.6001142882630579
 11
1.175065956006481
 21
0.5569891671065084
 72
     1
 10
1.175065956006481
 20
0.5569891671065084
 11
1.208816124682616
 21
0.5569891671065084
 72
     1
 10
1.208816124682616
 20
0.5569891671065084
 11
1.208816124682616
 21
0.3957395731715114
 72
     1
 10
1.208816124682616
 20
0.3957395731715114
 11
1.175065956006481
 21
0.3957395731715114
 72
     1
 10
1.175065956006481
 20
0.3957395731715114
 11
1.175065956006481
 21
0.3526143179045111
 72
     1
 10
1.175065956006481
 20
0.3526143179045111
 11
1.392565980080039
 21
0.3526143179045111
 72
     1
 10
1.392565980080039
 20
0.3526143179045111
 11
1.422565792254577
 21
0.3826143535964666
 72
     1
 10
1.422565792254577
 20
0.3826143535964666
 11
1.422565792254577
 21
0.5701142078676189
 72
     1
 10
1.422565792254577
 20
0.5701142078676189
 11
1.392565980080039
 21
0.6001142882630579
 97
        1
330
560
 92
       16
 93
        4
 72
     1
 10
1.454440827383312
 20
0.631989144577688
 11
1.143190831470779
 21
0.631989144577688
 72
     1
 10
1.143190831470779
 20
0.631989144577688
 11
1.143190831470779
 21
0.3207393721827434
 72
     1
 10
1.143190831470779
 20
0.3207393721827434
 11
1.454440827383312
 21
0.3207393721827434
 72
     1
 10
1.454440827383312
 20
0.3207393721827434
 11
1.454440827383312
 21
0.631989144577688
 97
        1
330
561
 92
        0
 93
        4
 72
     1
 10
1.251941245839166
 20
0.5569891671065084
 11
1.251941245839166
 21
0.3957395731715114
 72
     1
 10
1.251941245839166
 20
0.3957395731715114
 11
1.379440760504994
 21
0.3957395731715114
 72
     1
 10
1.379440760504994
 20
0.3957395731715114
 11
1.379440760504994
 21
0.5569891671065084
 72
     1
 10
1.379440760504994
 20
0.5569891671065084
 11
1.251941245839166
 21
0.5569891671065084
 97
        1
330
562
 75
     0
 76
     1
 98
        1
 10
-6.623918024059631
 20
-0.1308261527660757
  0
LWPOLYLINE
  5
55F
102
{ACAD_REACTORS
330
55E
102
}
330
557
100
AcDbEntity
  8
CONTINUOUS1
  6
CONTINUOUS
 62
     9
100
AcDbPolyline
 90
        4
 70
     1
 43
0.0
 10
1.486316041326151
 20
0.6638643138170442
 10
1.111315796341873
 20
0.6638643138170442
 10
1.111315796341873
 20
0.2888644264609757
 10
1.486316041326151
 20
0.2888644264609757
  0
LWPOLYLINE
  5
560
102
{ACAD_REACTORS
330
55E
102
}
330
557
100
AcDbEntity
  8
CONTINUOUS1
  6
CONTINUOUS
 62
     9
100
AcDbPolyline
 90
       10
 70
     1
 43
0.0
 10
1.392565980080039
 20
0.6001142882630579
 10
1.175065956006481
 20
0.6001142882630579
 10
1.175065956006481
 20
0.5569891671065084
 10
1.208816124682616
 20
0.5569891671065084
 10
1.208816124682616
 20
0.3957395731715114
 10
1.175065956006481
 20
0.3957395731715114
 10
1.175065956006481
 20
0.3526143179045111
 10
1.392565980080039
 20
0.3526143179045111
 10
1.422565792254577
 20
0.3826143535964666
 10
1.422565792254577
 20
0.5701142078676189
  0
LWPOLYLINE
  5
561
102
{ACAD_REACTORS
330
55E
102
}
330
557
100
AcDbEntity
  8
CONTINUOUS1
  6
CONTINUOUS
 62
     9
100
AcDbPolyline
 90
        4
 70
     1
 43
0.0
 10
1.454440827383312
 20
0.631989144577688
 10
1.143190831470779
 20
0.631989144577688
 10
1.143190831470779
 20
0.3207393721827434
 10
1.454440827383312
 20
0.3207393721827434
  0
LWPOLYLINE
  5
562
102
{ACAD_REACTORS
330
55E
102
}
330
557
100
AcDbEntity
  8
CONTINUOUS1
  6
CONTINUOUS
 62
     9
100
AcDbPolyline
 90
        4
 70
     1
 43
0.0
 10
1.251941245839166
 20
0.5569891671065084
 10
1.251941245839166
 20
0.3957395731715114
 10
1.379440760504994
 20
0.3957395731715114
 10
1.379440760504994
 20
0.5569891671065084
  0
HATCH
  5
563
330
557
100
AcDbEntity
  8
CONTINUOUS1
 62
     9
100
AcDbHatch
 10
0.0
 20
0.0
 30
0.0
210
0.0
220
0.0
230
1.0
  2
SOLID
 70
     1
 71
     1
 91
        1
 92
        1
 93
       89
 72
     2
 10
1.645257337476965
 20
0.0814143414971476
 40
0.3138538690791401
 50
284.6944519958721
 51
285.4191253488387
 73
     0
 72
     2
 10
1.720457213394254
 20
0.3531253338612149
 40
0.0319296518074947
 50
284.9683007167665
 51
291.8740039713858
 73
     0
 72
     2
 10
1.718195577080778
 20
0.3443304300779819
 40
0.0409509237081425
 50
290.2257686458062
 51
296.0035662963085
 73
     0
 72
     2
 10
1.723145951745611
 20
0.3537733468281424
 40
0.03029514361352
 50
295.4187775578133
 51
306.3988581780342
 73
     0
 72
     2
 10
1.730025090825645
 20
0.361238674598352
 40
0.0202344686019184
 50
303.2624042499299
 51
317.2878846799652
 73
     0
 72
     2
 10
1.730612078202064
 20
0.3607780556607589
 40
0.020129094400107
 50
315.1907124339081
 51
326.491623175255
 73
     0
 72
     2
 10
1.731384680029217
 20
0.3604855391145842
 40
0.0196578170187556
 50
324.5371901048512
 51
336.7528223782183
 73
     0
 72
     2
 10
1.740306489368903
 20
0.3630067677477766
 40
0.010534371298408
 50
330.1851072060051
 51
345.1051507906124
 73
     0
 72
     2
 10
1.730807356874115
 20
0.3584209650416715
 40
0.0209876439961993
 50
339.6643160257257
 51
350.0934782379625
 73
     0
 72
     2
 10
1.736619499258567
 20
0.3581357520531636
 40
0.0153647146054285
 50
345.3114316897937
 51
354.9413954442734
 73
     0
 72
     2
 10
1.736768036672925
 20
0.3568918841578895
 40
0.0153774953930229
 50
350.2708870332077
 51
359.9231366677855
 73
     0
 72
     2
 10
1.730590676285319
 20
0.3543834528394247
 40
0.0217027039382442
 50
353.3080009674445
 51
359.6430783683235
 73
     0
 72
     2
 10
1.740274031623637
 20
0.3541129784720702
 40
0.0120257717465822
 50
358.0668546617
 51
370.2286816408812
 73
     0
 72
     2
 10
1.734983328508104
 20
0.3525209240439113
 40
0.0171339680084187
 50
1.817597670723338
 51
10.12122589077241
 73
     0
 72
     2
 10
1.720741037007381
 20
0.3544475624347459
 40
0.0314990269535056
 50
9.018567450089102
 51
13.77874652122404
 73
     0
 72
     2
 10
1.736924488523371
 20
0.3496574086216055
 40
0.0146621286791565
 50
10.65944881196782
 51
20.70103934564237
 73
     0
 72
     2
 10
1.736504343267595
 20
0.3481737388171249
 40
0.0146116828357803
 50
14.66530941358183
 51
25.10867622728001
 73
     0
 72
     2
 10
1.732146476908513
 20
0.3484117679524195
 40
0.0187301362989411
 50
20.10490982839594
 51
28.61210132811445
 73
     0
 72
     2
 10
1.735923851992663
 20
0.3448321994977361
 40
0.0137646232530976
 50
23.05247272481711
 51
34.97873691770351
 73
     0
 72
     2
 10
1.736817050777414
 20
0.3420413163283825
 40
0.0115697541019348
 50
26.15519936339335
 51
41.26754379759793
 73
     0
 72
     2
 10
1.718278281875029
 20
0.3540391568686173
 40
0.0335714709763407
 50
35.78123864162426
 51
41.15363322202676
 73
     0
 72
     2
 10
1.727768982569827
 20
0.3459769352513192
 40
0.0211206067808035
 50
41.628953043204
 51
51.13236693201276
 73
     0
 72
     2
 10
1.7049361419961
 20
0.3726572867131739
 40
0.0562315357389319
 50
50.07766185775984
 51
54.48975877743823
 73
     0
 72
     2
 10
1.721996710283804
 20
0.3482674527964862
 40
0.0264697940015853
 50
53.88519289323266
 51
64.03139621868574
 73
     0
 72
     2
 10
1.715493236291391
 20
0.3583918783868049
 40
0.0384457260336787
 50
61.9242647104902
 51
71.20704351412759
 73
     0
 72
     2
 10
1.713056446365431
 20
0.3691361880596826
 40
0.0494157401965211
 50
72.54563927506668
 51
79.16534470614535
 73
     0
 72
     2
 10
1.712368390340278
 20
0.3780092416234319
 40
0.0582684049416463
 50
80.14095651381145
 51
90.04168888939144
 73
     0
 72
     2
 10
1.711034894028758
 20
0.4162808932093566
 40
0.096548674122413
 50
89.23378781360083
 51
94.71296871457887
 73
     0
 72
     2
 10
1.715019285167041
 20
0.4355757642229089
 40
0.1161301845769511
 50
95.89003491054317
 51
99.42152931169466
 73
     0
 72
     2
 10
1.707384050587419
 20
0.3824129170476944
 40
0.0624455715380243
 50
100.4954159019732
 51
106.3873755254328
 73
     0
 72
     2
 10
1.716129204411812
 20
0.4114303679072302
 40
0.0927517156651874
 50
106.5128967706919
 51
110.569048796056
 73
     0
 72
     2
 10
1.696198413310064
 20
0.3625905204389435
 40
0.0400511678448031
 50
108.4212700638492
 51
114.2391927251731
 73
     0
 72
     2
 10
1.710118011273556
 20
0.4023608384343337
 40
0.0821104676997662
 50
111.7018026255307
 51
116.2385814647558
 73
     0
 72
     1
 10
1.673816157100507
 20
0.3287109620632696
 11
1.673816157100507
 21
0.348755448516386
 72
     2
 10
1.683151915978065
 20
0.3592465940770362
 40
0.0140435226704221
 50
228.3350642341723
 51
234.1997399115519
 73
     1
 72
     2
 10
1.71106741933919
 20
0.3855932213725186
 40
0.0522443504544944
 50
226.2457929287056
 51
246.6255762978013
 73
     1
 72
     2
 10
1.712465308887799
 20
0.3860023780454533
 40
0.0531863360228969
 50
245.4180460169443
 51
259.9919736394332
 73
     1
 72
     2
 10
1.710648990849527
 20
0.3758156686850265
 40
0.0428389866137079
 50
260.0165443283766
 51
273.918275789354
 73
     1
 72
     2
 10
1.704270595794476
 20
0.4586741074147547
 40
0.1259415582555879
 50
274.2374069265415
 51
275.5960285914576
 73
     1
 72
     2
 10
1.687010818636518
 20
0.5411427391697574
 40
0.209899131885849
 50
278.0905665143727
 51
278.7875532853597
 73
     1
 72
     2
 10
1.674916599532424
 20
0.5319581852745105
 40
0.2031096024358981
 50
282.5577335184532
 51
283.2741998696473
 73
     1
 72
     2
 10
1.712960478455042
 20
0.3650274495505624
 40
0.0319300969034179
 50
285.6107769316447
 51
293.9249150269271
 73
     1
 72
     2
 10
1.717091548593949
 20
0.3539696976826635
 40
0.0201595864519345
 50
295.9382025947186
 51
314.8152667683904
 73
     1
 72
     2
 10
1.6400442733431
 20
0.4219905414971168
 40
0.1229006178787137
 50
317.946563084173
 51
318.8734190764908
 73
     1
 72
     2
 10
1.689533775167257
 20
0.3727603930704881
 40
0.0534349306228062
 50
323.7393060910156
 51
325.837101150859
 73
     1
 72
     2
 10
1.732847152652873
 20
0.3433656347877086
 40
0.0010889614970514
 50
325.8371011415724
 51
338.3720801963297
 73
     1
 72
     2
 10
1.729762363574411
 20
0.3455270350755859
 40
0.0048325847932002
 50
327.9736107298059
 51
337.3435922236617
 73
     1
 72
     2
 10
1.728938576684471
 20
0.3470616501634721
 40
0.0062808146373789
 50
327.2675058013627
 51
338.1636262704576
 73
     1
 72
     2
 10
1.718066376903955
 20
0.3518592455185608
 40
0.0181620471788818
 50
336.8720644633642
 51
339.5841382784865
 73
     1
 72
     2
 10
1.728443171512713
 20
0.3485112543123717
 40
0.0072851481640175
 50
335.7900569772929
 51
348.3736154223734
 73
     1
 72
     2
 10
1.727754169766591
 20
0.3495237604987841
 40
0.0082084908006837
 50
342.4097077310385
 51
352.3427229945881
 73
     1
 72
     2
 10
1.728619171594272
 20
0.350484083118158
 40
0.0075548925971311
 50
344.2233826564188
 51
361.8598518928811
 73
     1
 72
     2
 10
1.720733754063239
 20
0.3523571712334882
 40
0.0155219307481706
 50
353.9799134066502
 51
362.7705430541222
 73
     1
 72
     2
 10
1.726132206714244
 20
0.3535683939447039
 40
0.0101158423979222
 50
357.3882870010593
 51
372.3082229322088
 73
     1
 72
     2
 10
1.724756018715516
 20
0.3547830051705612
 40
0.0112988364300851
 50
4.781307968932278
 51
20.9890143012321
 73
     1
 72
     2
 10
1.726660663964364
 20
0.3566320215872781
 40
0.0089195903363641
 50
14.26667085840954
 51
35.42677828019306
 73
     1
 72
     2
 10
1.725007785367363
 20
0.3573460494205584
 40
0.0099721744159253
 50
26.54339514703667
 51
53.39459405095758
 73
     1
 72
     2
 10
1.719832069396285
 20
0.353126094907573
 40
0.0165274923585893
 50
47.70505911180744
 51
69.77619662811839
 73
     1
 72
     2
 10
1.710207974215595
 20
0.3313170294772276
 40
0.0403465351747173
 50
67.65746071435112
 51
78.07775985177975
 73
     1
 72
     2
 10
1.601474124602898
 20
-0.0764452376149089
 40
0.4623065683695236
 50
75.33141058767751
 51
77.08564753834979
 73
     1
 72
     2
 10
1.727562810239215
 20
0.4665872614049197
 40
0.0951825269178677
 50
103.8381813161474
 51
111.0296444355487
 73
     0
 72
     2
 10
1.70471971545613
 20
0.4062361413736136
 40
0.0306556695553271
 50
111.6565749726404
 51
141.0002630637686
 73
     0
 72
     2
 10
1.700542583280421
 20
0.4033450635238994
 40
0.0255928623197818
 50
140.1451628894058
 51
170.4005157591877
 73
     0
 72
     2
 10
1.707946390985723
 20
0.4059675729609214
 40
0.0333577023314165
 50
168.0791562340354
 51
196.7149182761541
 73
     0
 72
     2
 10
1.706228373491397
 20
0.4054484368029154
 40
0.0318770017390912
 50
198.4970064170469
 51
236.9071959398739
 73
     0
 72
     2
 10
1.712467544153361
 20
0.3958721183130906
 40
0.0433064866190046
 50
236.909234471574
 51
272.999378241069
 73
     0
 72
     2
 10
1.713943818059903
 20
0.3576895869998347
 40
0.0814335220491864
 50
270.5556637982259
 51
294.5824803086021
 73
     0
 72
     1
 10
1.747820387170609
 20
0.4317422478475242
 11
1.747820387170609
 21
0.4116977613945783
 72
     2
 10
1.740625727683456
 20
0.4079966488085459
 40
0.0080908194585325
 50
27.22242166817361
 51
41.56665402458706
 73
     1
 72
     2
 10
1.706598002528516
 20
0.3661008206880739
 40
0.0619708439541241
 50
49.70116220293752
 51
59.84734228048464
 73
     1
 72
     2
 10
1.71458845708311
 20
0.3777828381052394
 40
0.0478671962964793
 50
61.09387816236775
 51
68.2131535601986
 73
     1
 72
     2
 10
1.721754113738913
 20
0.4005694677942343
 40
0.0241161586298673
 50
63.92424707162143
 51
76.50768984030026
 73
     1
 72
     2
 10
1.720387329033739
 20
0.4052584665162603
 40
0.0200226190349932
 50
69.55689277879168
 51
79.95640428982568
 73
     1
 72
     2
 10
1.714854713299164
 20
0.3864537173573991
 40
0.0395635296700699
 50
76.81466162170224
 51
103.1853383782977
 73
     1
 72
     2
 10
1.711556222792086
 20
0.401176318347385
 40
0.0244771044560783
 50
103.5287750504816
 51
118.7111022038478
 73
     1
 72
     2
 10
1.709210382761595
 20
0.405247847997013
 40
0.0197794909640232
 50
118.4171119187515
 51
136.9427492139027
 73
     1
 72
     2
 10
1.705219023490787
 20
0.4088531486190613
 40
0.0144019602014122
 50
136.5818159972836
 51
158.3117054654103
 73
     1
 72
     2
 10
1.705906344939513
 20
0.4084853055890463
 40
0.0151768177531204
 50
157.9802459264035
 51
175.7279862744332
 73
     1
 72
     2
 10
1.708158378716641
 20
0.4073882615894271
 40
0.0175288039263106
 50
172.6990132420624
 51
188.9919500615152
 73
     1
 72
     2
 10
1.709434724792038
 20
0.4071277136839012
 40
0.0187543063783412
 50
187.5961529692756
 51
202.8514728843155
 73
     1
 72
     2
 10
1.713415982510704
 20
0.4098029626068266
 40
0.023480008316952
 50
205.0950362901143
 51
208.7062773863666
 73
     1
 72
     2
 10
1.716530427614822
 20
0.4130319444988484
 40
0.0277947475210849
 50
211.4617467723872
 51
214.4776167681857
 73
     1
 72
     2
 10
1.798805844752166
 20
0.4794678086208627
 40
0.1334781556174937
 50
217.9960096590553
 51
218.6051445060782
 73
     1
 72
     2
 10
1.71411393594937
 20
0.4147818027158589
 40
0.0270311104968983
 50
223.4727412172603
 51
231.5765454796656
 73
     1
 72
     2
 10
1.714970516181898
 20
0.4199578584883053
 40
0.0317208861058427
 50
236.179619535215
 51
243.9627139296273
 73
     1
 72
     2
 10
1.714189405924324
 20
0.4219347204146949
 40
0.0331913735031555
 50
246.673189613459
 51
253.572200697409
 73
     1
 72
     2
 10
1.744025458148191
 20
0.5256870746424274
 40
0.141147928729737
 50
253.8660232573638
 51
256.4915086256218
 73
     1
 72
     2
 10
1.777665220868061
 20
0.6375281662311756
 40
0.257836948239798
 50
255.028221488952
 51
257.0441428996437
 73
     1
 72
     2
 10
1.81666665574025
 20
0.7631436335592352
 40
0.3891233421787054
 50
255.5942969765304
 51
256.3550761129649
 73
     1
 97
        1
330
564
 75
     0
 76
     1
 98
        1
 10
-6.623918024059631
 20
-0.1308261527660757
  0
LWPOLYLINE
  5
564
102
{ACAD_REACTORS
330
563
102
}
330
557
100
AcDbEntity
  8
CONTINUOUS1
  6
CONTINUOUS
 62
     9
100
AcDbPolyline
 90
       89
 70
     1
 43
0.0
 10
1.724870853814341
 20
0.3850027786161268
 42
-0.0031619945407147
 10
1.728704150753092
 20
0.3839715765618625
 42
-0.030140937208008
 10
1.732353140628195
 20
0.3827562228082688
 42
-0.0252157404289211
 10
1.736149571400208
 20
0.3811357590471407
 42
-0.0479463296275325
 10
1.741123176189407
 20
0.3781580782775795
 42
-0.0612742161665951
 10
1.744892795204041
 20
0.3749640192613701
 42
-0.0493495283417487
 10
1.747395820137942
 20
0.3718905012960936
 42
-0.0533512835500878
 10
1.749446491741114
 20
0.3682444519009782
 42
-0.0651930963851117
 10
1.750486897271546
 20
0.3657145848738996
 42
-0.0455372415571768
 10
1.751482069845824
 20
0.3620317051387478
 42
-0.0420433899694379
 10
1.751924368767706
 20
0.3594905303429532
 42
-0.0421408027509401
 10
1.752145518228733
 20
0.3569125133419679
 42
-0.0276490321326908
 10
1.752292959125814
 20
0.3545186480399711
 42
-0.0531158483705343
 10
1.752108675831355
 20
0.351977473244347
 42
-0.0362472752477507
 10
1.751850660203931
 20
0.3495099472627889
 42
-0.0207731867223286
 10
1.751333606869341
 20
0.3469453382139709
 42
-0.0438427632265486
 10
1.750639995259209
 20
0.344474466177076
 42
-0.0455993495213645
 10
1.749735288597239
 20
0.3419734677764841
 42
-0.0371366834740924
 10
1.748589323656208
 20
0.3394423311468704
 42
-0.0520851678945367
 10
1.747202100436116
 20
0.3369413208807833
 42
-0.0660357795919543
 10
1.745513316251706
 20
0.3344101842511696
 42
-0.023445788208571
 10
1.743555844029206
 20
0.3319464314809016
 42
-0.0414902487431464
 10
1.741022655867912
 20
0.3295324779815592
 42
-0.0192537831905492
 10
1.737598143154318
 20
0.3268841582216742
 42
-0.0443001092257388
 10
1.733587265860453
 20
0.3244702047221613
 42
-0.0405259275577274
 10
1.727878500744825
 20
0.321995737455723
 42
-0.0288919489310161
 10
1.722345390671794
 20
0.320601346009426
 42
-0.0432269886872848
 10
1.712325993764213
 20
0.3197408521058383
 42
-0.0239119926891615
 10
1.703102059868147
 20
0.320058668037746
 42
-0.0154102708889789
 10
1.696009161539993
 20
0.3210120921031608
 42
-0.0257141890330953
 10
1.689766276740588
 20
0.3225041242924367
 42
-0.0177001500616332
 10
1.68354219344852
 20
0.3245916238161617
 42
-0.0253909309126544
 10
1.679755531853889
 20
0.3260702836495857
 42
-0.0197980181237655
 10
1.673816157100507
 20
0.3287109620632696
 10
1.673816157100507
 20
0.348755448516386
 42
0.0255950620068941
 10
1.674936997903589
 20
0.3478564382385803
 42
0.0891587087538363
 10
1.690340091136224
 20
0.3376364698146977
 42
0.0636766101274314
 10
1.703222261160565
 20
0.3336253562873144
 42
0.0607322500225615
 10
1.713576329651434
 20
0.333076816786218
 42
0.0059281747790857
 10
1.716551650349604
 20
0.3333327662903689
 42
0.0030411878748934
 10
1.719077351184896
 20
0.3337074888945045
 42
0.0031261843860593
 10
1.721552898821219
 20
0.33427519108858
 42
0.0362931935570043
 10
1.725909381570975
 20
0.3358408602267678
 42
0.0825535038755105
 10
1.731300493913952
 20
0.3396688306178253
 42
0.004044194237512
 10
1.732620188585404
 20
0.3411557606659703
 42
0.0091536133499963
 10
1.733748207713492
 20
0.3427541309694111
 42
0.054748767696608
 10
1.733859447984034
 20
0.342964267992159
 42
0.0409070518720577
 10
1.734222024712014
 20
0.3436655038990471
 42
0.0475791486181886
 10
1.734768742118806
 20
0.3447254559255275
 42
0.0118342068154451
 10
1.735087583355696
 20
0.3455237511688556
 42
0.0549613731019633
 10
1.735578847012138
 20
0.3470430857462366
 42
0.0433681134276899
 10
1.73588946407526
 20
0.3484300019622428
 42
0.0771058776446834
 10
1.736170084296336
 20
0.3507292759402394
 42
0.0383751788318603
 10
1.736237541537239
 20
0.3531074432588643
 42
0.0651926246618979
 10
1.736015536381987
 20
0.355724794208641
 42
0.0708375912954788
 10
1.735305167423494
 20
0.3588301234306077
 42
0.092591635874942
 10
1.733928854306643
 20
0.3618023698267057
 42
0.1176994875674221
 10
1.730954199148673
 20
0.3653513242892363
 42
0.0966023314025739
 10
1.725545426224218
 20
0.3686346589100826
 42
0.045498488973316
 10
1.718542922500464
 20
0.370793244312154
 42
0.0076544521501666
 10
1.704797000298331
 20
0.3741673970455399
 42
-0.0313889801307479
 10
1.693406471978821
 20
0.3777443776881459
 42
-0.1287402518965054
 10
1.68089569708869
 20
0.3869440128048614
 42
-0.1327861629458718
 10
1.675308084036803
 20
0.399077201103069
 42
-0.1256013842756795
 10
1.675998130253706
 20
0.4155615784346769
 42
-0.1691830721684855
 10
1.688823634294099
 20
0.4321545839108017
 42
-0.1587876586997674
 10
1.714733561235252
 20
0.4391192794900581
 42
-0.1052225384089748
 10
1.747820387170609
 20
0.4317422478475242
 10
1.747820387170609
 20
0.4116977613945783
 42
0.0626703755683868
 10
1.746679152318026
 20
0.4133648337628988
 42
0.0443000075885412
 10
1.737726307158229
 20
0.4196863985170585
 42
0.0310736945441558
 10
1.732354590554709
 20
0.4222309312336852
 42
0.0549608668437835
 10
1.727380771841954
 20
0.4240200504235081
 42
0.0454075984514084
 10
1.723879222863931
 20
0.4249742457425332
 42
0.1155742899323605
 10
1.705830203734397
 20
0.4249742457425332
 42
0.0663424745816582
 10
1.699797582061794
 20
0.4226440385507435
 42
0.0810098588725135
 10
1.694758065035475
 20
0.418751876104921
 42
0.0950996757952028
 10
1.691836605545322
 20
0.4141754927995867
 42
0.0775942943034753
 10
1.69077169387825
 20
0.4096158516364317
 42
0.0712113554365052
 10
1.690844998364273
 20
0.4046485849914921
 42
0.0666623741392031
 10
1.692152356774816
 20
0.3998445987287487
 42
0.0157583160010225
 10
1.692821818787681
 20
0.3985250545067633
 42
0.0131599749339241
 10
1.693617899800845
 20
0.3972977759814289
 42
0.0026578584258268
 10
1.694497411016957
 20
0.3961841446839576
 42
0.0353742605666019
 10
1.697314951177393
 20
0.3936045733095743
 42
0.0339732171468453
 10
1.70104644425314
 20
0.391456370171682
 42
0.0301117106030551
 10
1.704802657389084
 20
0.3900983225819918
 42
0.0114563422017746
 10
1.711054788441661
 20
0.3884439592457061
 42
0.0087963433832554
 10
1.719858101006852
 20
0.3862549508440911
 42
0.0033195373957588
  0
HATCH
  5
565
330
557
100
AcDbEntity
  8
CONTINUOUS1
 62
     9
100
AcDbHatch
 10
0.0
 20
0.0
 30
0.0
210
0.0
220
0.0
230
1.0
  2
SOLID
 70
     1
 71
     1
 91
        1
 92
        1
 93
       63
 72
     1
 10
2.811736575584777
 20
0.3185392197908646
 11
2.814514193678665
 21
0.3185392197908646
 72
     1
 10
2.814514193678665
 20
0.3185392197908646
 11
2.817291811772722
 21
0.3185392197908646
 72
     1
 10
2.817291811772722
 20
0.3185392197908646
 11
2.82006942986678
 21
0.3185392197908646
 72
     1
 10
2.82006942986678
 20
0.3185392197908646
 11
2.822847047960667
 21
0.3185392197908646
 72
     1
 10
2.822847047960667
 20
0.3185392197908646
 11
2.825624666054725
 21
0.3185392197908646
 72
     1
 10
2.825624666054725
 20
0.3185392197908646
 11
2.825624666054725
 21
0.3213168378847518
 72
     1
 10
2.825624666054725
 20
0.3213168378847518
 11
2.825624666054725
 21
0.3240944559788095
 72
     1
 10
2.825624666054725
 20
0.3240944559788095
 11
2.825624666054725
 21
0.3629811092945947
 72
     1
 10
2.825624666054725
 20
0.3629811092945947
 11
2.825624666054725
 21
0.3657587273886524
 72
     1
 10
2.825624666054725
 20
0.3657587273886524
 11
2.825624666054725
 21
0.3685363454825397
 72
     1
 10
2.825624666054725
 20
0.3685363454825397
 11
2.826336506825416
 21
0.3713139635765974
 72
     1
 10
2.826336506825416
 20
0.3713139635765974
 11
2.827485670177711
 21
0.3740915816706551
 72
     1
 10
2.827485670177711
 20
0.3740915816706551
 11
2.828930031586512
 21
0.3764803332313709
 72
     1
 10
2.828930031586512
 20
0.3764803332313709
 11
2.83117990224267
 21
0.378258008811486
 72
     1
 10
2.83117990224267
 20
0.378258008811486
 11
2.833957520336728
 21
0.3803481447481549
 72
     1
 10
2.833957520336728
 20
0.3803481447481549
 11
2.836458499551472
 21
0.3821533245041455
 72
     1
 10
2.836458499551472
 20
0.3821533245041455
 11
2.838496571758387
 21
0.3835311386972085
 72
     1
 10
2.838496571758387
 20
0.3835311386972085
 11
2.840318265771859
 21
0.3843965447991882
 72
     1
 10
2.840318265771859
 20
0.3843965447991882
 11
2.84229037461856
 21
0.3852020540465451
 72
     1
 10
2.84229037461856
 20
0.3852020540465451
 11
2.845067992712618
 21
0.3860225445559995
 72
     1
 10
2.845067992712618
 20
0.3860225445559995
 11
2.848792121584697
 21
0.3859647625154712
 72
     1
 10
2.848792121584697
 20
0.3859647625154712
 11
2.851394365793826
 21
0.3851557727118125
 72
     1
 10
2.851394365793826
 20
0.3851557727118125
 11
2.85340084699462
 21
0.3838132449996015
 72
     1
 10
2.85340084699462
 20
0.3838132449996015
 11
2.855500116228117
 21
0.3819776024104162
 72
     1
 10
2.855500116228117
 20
0.3819776024104162
 11
2.857567274135451
 21
0.3796468178584296
 72
     1
 10
2.857567274135451
 20
0.3796468178584296
 11
2.858956083182565
 21
0.3784524420782422
 72
     1
 10
2.858956083182565
 20
0.3784524420782422
 11
2.859999004466235
 21
0.380049012932091
 72
     1
 10
2.859999004466235
 20
0.380049012932091
 11
2.861508043922615
 21
0.3823591474088066
 72
     1
 10
2.861508043922615
 20
0.3823591474088066
 11
2.86329254810855
 21
0.3850909809773389
 72
     1
 10
2.86329254810855
 20
0.3850909809773389
 11
2.864332596004462
 21
0.3866831530647805
 72
     1
 10
2.864332596004462
 20
0.3866831530647805
 11
2.865705695150868
 21
0.3887851813877892
 72
     1
 10
2.865705695150868
 20
0.3887851813877892
 11
2.86451131937051
 21
0.39075729023449
 72
     1
 10
2.86451131937051
 20
0.39075729023449
 11
2.862459275569538
 21
0.3932298076646252
 72
     1
 10
2.862459275569538
 20
0.3932298076646252
 11
2.859413586285572
 21
0.3956385659741959
 72
     1
 10
2.859413586285572
 20
0.3956385659741959
 11
2.857697565716623
 21
0.3970016751998178
 72
     1
 10
2.857697565716623
 20
0.3970016751998178
 11
2.855372955841321
 21
0.3982846352691358
 72
     1
 10
2.855372955841321
 20
0.3982846352691358
 11
2.85340084699462
 21
0.3990901445163222
 72
     1
 10
2.85340084699462
 20
0.3990901445163222
 11
2.850623228900563
 21
0.3990901445163222
 72
     1
 10
2.850623228900563
 20
0.3990901445163222
 11
2.847845610806505
 21
0.3990901445163222
 72
     1
 10
2.847845610806505
 20
0.3990901445163222
 11
2.845067992712618
 21
0.3987012779831507
 72
     1
 10
2.845067992712618
 20
0.3987012779831507
 11
2.84229037461856
 21
0.3977013354693786
 72
     1
 10
2.84229037461856
 20
0.3977013354693786
 11
2.839707189791258
 21
0.3961180931558492
 72
     1
 10
2.839707189791258
 20
0.3961180931558492
 11
2.837429542954087
 21
0.394229312851849
 72
     1
 10
2.837429542954087
 20
0.394229312851849
 11
2.835346329383671
 21
0.3921460992814336
 72
     1
 10
2.835346329383671
 20
0.3921460992814336
 11
2.833263115813085
 21
0.3900628857110182
 72
     1
 10
2.833263115813085
 20
0.3900628857110182
 11
2.831537288210913
 21
0.3878950002004449
 72
     1
 10
2.831537288210913
 20
0.3878950002004449
 11
2.829863986653013
 21
0.3860075632937314
 72
     1
 10
2.829863986653013
 20
0.3860075632937314
 11
2.825624666054725
 21
0.3814779152569376
 72
     1
 10
2.825624666054725
 20
0.3814779152569376
 11
2.825624666054725
 21
0.3860075632937314
 72
     1
 10
2.825624666054725
 20
0.3860075632937314
 11
2.825624666054725
 21
0.3879796721404323
 72
     1
 10
2.825624666054725
 20
0.3879796721404323
 11
2.825624666054725
 21
0.39075729023449
 72
     1
 10
2.825624666054725
 20
0.39075729023449
 11
2.825624666054725
 21
0.3935349083285478
 72
     1
 10
2.825624666054725
 20
0.3935349083285478
 11
2.825624666054725
 21
0.396312526422435
 72
     1
 10
2.825624666054725
 20
0.396312526422435
 11
2.822847047960667
 21
0.396312526422435
 72
     1
 10
2.822847047960667
 20
0.396312526422435
 11
2.82006942986678
 21
0.396312526422435
 72
     1
 10
2.82006942986678
 20
0.396312526422435
 11
2.817291811772722
 21
0.396312526422435
 72
     1
 10
2.817291811772722
 20
0.396312526422435
 11
2.814514193678665
 21
0.396312526422435
 72
     1
 10
2.814514193678665
 20
0.396312526422435
 11
2.811736575584777
 21
0.396312526422435
 72
     1
 10
2.811736575584777
 20
0.396312526422435
 11
2.811736575584777
 21
0.3935349083285478
 72
     1
 10
2.811736575584777
 20
0.3935349083285478
 11
2.811736575584777
 21
0.39075729023449
 72
     1
 10
2.811736575584777
 20
0.39075729023449
 11
2.811736575584777
 21
0.3240944559788095
 72
     1
 10
2.811736575584777
 20
0.3240944559788095
 11
2.811736575584777
 21
0.3213168378847518
 72
     1
 10
2.811736575584777
 20
0.3213168378847518
 11
2.811736575584777
 21
0.3185392197908646
 97
        1
330
566
 75
     0
 76
     1
 98
        1
 10
-6.623918024059631
 20
-0.1308261527660757
  0
LWPOLYLINE
  5
566
102
{ACAD_REACTORS
330
565
102
}
330
557
100
AcDbEntity
  8
CONTINUOUS1
  6
CONTINUOUS
 62
     9
100
AcDbPolyline
 90
       64
 70
     0
 43
0.0
 10
2.811736575584777
 20
0.3185392197908646
 10
2.814514193678665
 20
0.3185392197908646
 10
2.817291811772722
 20
0.3185392197908646
 10
2.82006942986678
 20
0.3185392197908646
 10
2.822847047960667
 20
0.3185392197908646
 10
2.825624666054725
 20
0.3185392197908646
 10
2.825624666054725
 20
0.3213168378847518
 10
2.825624666054725
 20
0.3240944559788095
 10
2.825624666054725
 20
0.3629811092945947
 10
2.825624666054725
 20
0.3657587273886524
 10
2.825624666054725
 20
0.3685363454825397
 10
2.826336506825416
 20
0.3713139635765974
 10
2.827485670177711
 20
0.3740915816706551
 10
2.828930031586512
 20
0.3764803332313709
 10
2.83117990224267
 20
0.378258008811486
 10
2.833957520336728
 20
0.3803481447481549
 10
2.836458499551472
 20
0.3821533245041455
 10
2.838496571758387
 20
0.3835311386972085
 10
2.840318265771859
 20
0.3843965447991882
 10
2.84229037461856
 20
0.3852020540465451
 10
2.845067992712618
 20
0.3860225445559995
 10
2.848792121584697
 20
0.3859647625154712
 10
2.851394365793826
 20
0.3851557727118125
 10
2.85340084699462
 20
0.3838132449996015
 10
2.855500116228117
 20
0.3819776024104162
 10
2.857567274135451
 20
0.3796468178584296
 10
2.858956083182565
 20
0.3784524420782422
 10
2.859999004466235
 20
0.380049012932091
 10
2.861508043922615
 20
0.3823591474088066
 10
2.86329254810855
 20
0.3850909809773389
 10
2.864332596004462
 20
0.3866831530647805
 10
2.865705695150868
 20
0.3887851813877892
 10
2.86451131937051
 20
0.39075729023449
 10
2.862459275569538
 20
0.3932298076646252
 10
2.859413586285572
 20
0.3956385659741959
 10
2.857697565716623
 20
0.3970016751998178
 10
2.855372955841321
 20
0.3982846352691358
 10
2.85340084699462
 20
0.3990901445163222
 10
2.850623228900563
 20
0.3990901445163222
 10
2.847845610806505
 20
0.3990901445163222
 10
2.845067992712618
 20
0.3987012779831507
 10
2.84229037461856
 20
0.3977013354693786
 10
2.839707189791258
 20
0.3961180931558492
 10
2.837429542954087
 20
0.394229312851849
 10
2.835346329383671
 20
0.3921460992814336
 10
2.833263115813085
 20
0.3900628857110182
 10
2.831537288210913
 20
0.3878950002004449
 10
2.829863986653013
 20
0.3860075632937314
 10
2.825624666054725
 20
0.3814779152569376
 10
2.825624666054725
 20
0.3860075632937314
 10
2.825624666054725
 20
0.3879796721404323
 10
2.825624666054725
 20
0.39075729023449
 10
2.825624666054725
 20
0.3935349083285478
 10
2.825624666054725
 20
0.396312526422435
 10
2.822847047960667
 20
0.396312526422435
 10
2.82006942986678
 20
0.396312526422435
 10
2.817291811772722
 20
0.396312526422435
 10
2.814514193678665
 20
0.396312526422435
 10
2.811736575584777
 20
0.396312526422435
 10
2.811736575584777
 20
0.3935349083285478
 10
2.811736575584777
 20
0.39075729023449
 10
2.811736575584777
 20
0.3240944559788095
 10
2.811736575584777
 20
0.3213168378847518
 10
2.811736575584777
 20
0.3185392197908646
  0
HATCH
  5
567
330
557
100
AcDbEntity
  8
CONTINUOUS1
 62
     9
100
AcDbHatch
 10
0.0
 20
0.0
 30
0.0
210
0.0
220
0.0
230
1.0
  2
SOLID
 70
     1
 71
     1
 91
        2
 92
        1
 93
       10
 72
     1
 10
2.824501390082563
 20
0.6423016628555165
 11
2.824501390082563
 21
0.5568015451240994
 72
     1
 10
2.824501390082563
 20
0.5568015451240994
 11
2.803688857735931
 21
0.5568015451240994
 72
     1
 10
2.803688857735931
 20
0.5568015451240994
 11
2.803688857735931
 21
0.5352391641626002
 72
     1
 10
2.803688857735931
 20
0.5352391641626002
 11
2.97056404175391
 21
0.5352391641626002
 72
     2
 10
2.970564089566778
 20
0.5568015929366667
 40
0.0215624287741196
 50
269.9998729514371
 51
359.9996387859521
 73
     1
 72
     1
 10
2.992126518340469
 20
0.5568014569990419
 11
2.992126518340469
 21
0.6423016628555165
 72
     2
 10
2.970563865504514
 20
0.6423018391063527
 40
0.0215626528366762
 50
359.9995316703782
 51
449.999531674205
 73
     1
 72
     1
 10
2.97056404175391
 20
0.6638644919423083
 11
2.803688857735931
 21
0.6638644919423083
 72
     1
 10
2.803688857735931
 20
0.6638644919423083
 11
2.803688857735931
 21
0.6423016628555165
 72
     1
 10
2.803688857735931
 20
0.6423016628555165
 11
2.824501390082563
 21
0.6423016628555165
 97
        1
330
568
 92
       16
 93
        6
 72
     1
 10
2.846064035419235
 20
0.6423016628555165
 11
2.959782634710521
 21
0.6423016628555165
 72
     2
 10
2.959782720960921
 20
0.6315203420625278
 40
0.0107813207933337
 50
269.9995416346471
 51
359.9995416383139
 73
     0
 72
     1
 10
2.97056404175391
 20
0.6315204283122381
 11
2.97056404175391
 21
0.5675829596674955
 72
     2
 10
2.959782585960379
 20
0.5675830009175986
 40
0.0107814557936096
 50
0.0002192149982456
 51
89.99974092762393
 73
     0
 72
     1
 10
2.959782634710521
 20
0.5568015451240994
 11
2.846064035419235
 21
0.5568015451240994
 72
     1
 10
2.846064035419235
 20
0.5568015451240994
 11
2.846064035419235
 21
0.6423016628555165
 97
        1
330
598
 75
     0
 76
     1
 98
        1
 10
-6.623918024059631
 20
-0.1308261527660757
  0
LWPOLYLINE
  5
568
102
{ACAD_REACTORS
330
567
102
}
330
557
100
AcDbEntity
  8
CONTINUOUS1
  6
CONTINUOUS
 62
     9
100
AcDbPolyline
 90
       11
 70
     0
 43
0.0
 10
2.824501390082563
 20
0.6423016628555165
 10
2.824501390082563
 20
0.5568015451240994
 10
2.803688857735931
 20
0.5568015451240994
 10
2.803688857735931
 20
0.5352391641626002
 10
2.97056404175391
 20
0.5352391641626002
 42
0.4142123653311114
 10
2.992126518340469
 20
0.5568014569990419
 10
2.992126518340469
 20
0.6423016628555165
 42
0.4142135623926597
 10
2.97056404175391
 20
0.6638644919423083
 10
2.803688857735931
 20
0.6638644919423083
 10
2.803688857735931
 20
0.6423016628555165
 10
2.824501390082563
 20
0.6423016628555165
  0
HATCH
  5
569
330
557
100
AcDbEntity
  8
CONTINUOUS1
 62
     9
100
AcDbHatch
 10
0.0
 20
0.0
 30
0.0
210
0.0
220
0.0
230
1.0
  2
SOLID
 70
     1
 71
     1
 91
        2
 92
        1
 93
        8
 72
     1
 10
2.270499521908366
 20
0.6638644919422068
 11
2.186814373487525
 21
0.5352389860374847
 72
     1
 10
2.186814373487525
 20
0.5352389860374847
 11
2.212539634043626
 21
0.5352391641624768
 72
     1
 10
2.212539634043626
 20
0.5352391641624768
 11
2.226567774458121
 21
0.5568015451239608
 72
     1
 10
2.226567774458121
 20
0.5568015451239608
 11
2.329499210452329
 21
0.5568015451239608
 72
     1
 10
2.329499210452329
 20
0.5568015451239608
 11
2.343527538366888
 21
0.5352394322875403
 72
     1
 10
2.343527538366888
 20
0.5352394322875403
 11
2.369251898922275
 21
0.5352394322875403
 72
     1
 10
2.369251898922275
 20
0.5352394322875403
 11
2.285566919251696
 21
0.6638644919422068
 72
     1
 10
2.285566919251696
 20
0.6638644919422068
 11
2.270499521908366
 21
0.6638644919422068
 97
        1
330
56A
 92
       16
 93
        3
 72
     1
 10
2.278033314329977
 20
0.6359049480514618
 11
2.315470001287028
 21
0.5783643742108216
 72
     1
 10
2.315470001287028
 20
0.5783643742108216
 11
2.240596983623252
 21
0.578364196085659
 72
     1
 10
2.240596983623252
 20
0.578364196085659
 11
2.278033126829914
 21
0.635904589926327
 97
        1
330
580
 75
     0
 76
     1
 98
        1
 10
-6.623918024059631
 20
-0.1308261527660757
  0
LWPOLYLINE
  5
56A
102
{ACAD_REACTORS
330
569
102
}
330
557
100
AcDbEntity
  8
CONTINUOUS1
  6
CONTINUOUS
 62
     9
100
AcDbPolyline
 90
        9
 70
     0
 43
0.0
 10
2.270499521908366
 20
0.6638644919422068
 10
2.186814373487525
 20
0.5352389860374847
 10
2.212539634043626
 20
0.5352391641624768
 10
2.226567774458121
 20
0.5568015451239608
 10
2.329499210452329
 20
0.5568015451239608
 10
2.343527538366888
 20
0.5352394322875403
 10
2.369251898922275
 20
0.5352394322875403
 10
2.285566919251696
 20
0.6638644919422068
 10
2.270499521908366
 20
0.6638644919422068
  0
HATCH
  5
56B
330
557
100
AcDbEntity
  8
CONTINUOUS1
 62
     9
100
AcDbHatch
 10
0.0
 20
0.0
 30
0.0
210
0.0
220
0.0
230
1.0
  2
SOLID
 70
     1
 71
     0
 91
        2
 92
        7
 72
     0
 73
     1
 93
       20
 10
2.128442524464478
 20
0.39075729023449
 10
2.128442524464478
 20
0.3935349083285478
 10
2.128443163460961
 20
0.396312526422435
 10
2.125664906370591
 20
0.396312526422435
 10
2.122887288276533
 20
0.396312526422435
 10
2.120109670182646
 20
0.396312526422435
 10
2.117332052088588
 20
0.396312526422435
 10
2.114554433994529
 20
0.3963125264224349
 10
2.114554433994531
 20
0.3935349083285478
 10
2.114554433994531
 20
0.39075729023449
 10
2.114554433994531
 20
0.3240944559788095
 10
2.114554433994531
 20
0.3213168378847518
 10
2.114554433994529
 20
0.3185392197908645
 10
2.117332052088588
 20
0.3185392197908646
 10
2.120109670182646
 20
0.3185392197908646
 10
2.122887288276533
 20
0.3185392197908646
 10
2.125664906370591
 20
0.3185392197908646
 10
2.128442524464478
 20
0.3185392197908646
 10
2.128442524464478
 20
0.3213168378847518
 10
2.128442524464478
 20
0.3240944559788095
 97
        0
 92
        7
 72
     1
 73
     1
 93
        2
 10
2.129831333511544
 20
0.4213110892682726
 42
1.0
 10
2.113165624947635
 20
0.4213110892682726
 42
1.0
 97
        0
 75
     0
 76
     1
 47
0.0005102668735142
 98
        2
 10
2.122640693305477
 20
0.3456997447544359
 10
2.123406352313963
 20
0.4207089780563021
  0
HATCH
  5
56C
330
557
100
AcDbEntity
  8
CONTINUOUS1
 62
     9
100
AcDbHatch
 10
0.0
 20
0.0
 30
0.0
210
0.0
220
0.0
230
1.0
  2
SOLID
 70
     1
 71
     1
 91
        2
 92
       16
 93
       18
 72
     2
 10
2.321414633785401
 20
0.3528851545616271
 40
0.0664396543383195
 50
198.4619958207184
 51
200.1842354247362
 73
     0
 72
     2
 10
2.346555496252457
 20
0.3352454129199108
 40
0.0964455865170718
 50
204.8718608834223
 51
205.9393865440838
 73
     0
 72
     2
 10
2.284841225309382
 20
0.3643060230231959
 40
0.0282500412151291
 50
207.6881291807199
 51
212.1468522298004
 73
     0
 72
     2
 10
2.282909253313798
 20
0.3643452262975983
 40
0.0266120055644414
 50
214.2891439355242
 51
220.1522516266461
 73
     0
 72
     2
 10
2.278385727874132
 20
0.3678076991082785
 40
0.0209235948276606
 50
220.8926611798598
 51
232.6516971443604
 73
     0
 72
     2
 10
2.276895739610929
 20
0.3706911836161677
 40
0.0177364140530904
 50
230.82683481755
 51
247.1055208447427
 73
     0
 72
     2
 10
2.276817950372624
 20
0.370391197006481
 40
0.0179834923776298
 50
247.705671628196
 51
261.2030821651476
 73
     0
 72
     2
 10
2.278151306688851
 20
0.36717654635147
 40
0.0213802051303731
 50
258.9888491839005
 51
271.7108857747937
 73
     0
 72
     2
 10
2.279349636213084
 20
0.3639169558453035
 40
0.0246366297664502
 50
268.6975355392293
 51
280.2804749251185
 73
     0
 72
     2
 10
2.280596940506968
 20
0.369608213028888
 40
0.0188153276110621
 50
279.6361688894481
 51
298.0573516433601
 73
     0
 72
     2
 10
2.281663127814024
 20
0.3730218708912919
 40
0.0153157982727258
 50
300.5449189786832
 51
323.3255645340616
 73
     0
 72
     2
 10
2.278053685300496
 20
0.3712331984285728
 40
0.0192925244149342
 50
325.4679485472495
 51
338.7424644189135
 73
     0
 72
     2
 10
2.275723409085839
 20
0.3699536532293334
 40
0.021930916939798
 50
337.8342522704158
 51
350.2507032151336
 73
     0
 72
     2
 10
2.256877395661121
 20
0.3664737796651569
 40
0.0410947224300684
 50
349.9184788839779
 51
358.9348353768807
 73
     0
 72
     1
 10
2.297965016891087
 20
0.3672377124287327
 11
2.257140622649931
 21
0.3672377124287327
 72
     2
 10
2.308122798849585
 20
0.3622878182718704
 40
0.0512219068584594
 50
185.5455046984017
 51
188.2011430538267
 73
     0
 72
     2
 10
2.608837683911045
 20
0.3072422364761533
 40
0.3569017845664973
 50
190.0614576287786
 51
190.4239000976597
 73
     0
 72
     2
 10
2.44271291905515
 20
0.3231292571124805
 40
0.1911897814441117
 50
194.7530117273464
 51
195.4074903055051
 73
     0
 97
        1
330
57E
 92
        1
 93
       47
 72
     2
 10
2.281525461809295
 20
0.3532598947256552
 40
0.024175292391828
 50
138.3496533346525
 51
148.4595555609697
 73
     0
 72
     2
 10
2.281020321028989
 20
0.3521059761880958
 40
0.0231523339774945
 50
150.2396979683238
 51
156.5937677099167
 73
     0
 72
     2
 10
2.296899550485688
 20
0.3585924636724107
 40
0.0403031923619966
 50
157.0988242481766
 51
160.8634840437793
 73
     0
 72
     2
 10
2.359186125642749
 20
0.3744094790060188
 40
0.1044765553251899
 50
163.8678439431618
 51
165.4002231692523
 73
     0
 72
     2
 10
2.290868471540939
 20
0.3551965516179018
 40
0.0335500157708659
 50
167.7439659185813
 51
173.0844435487629
 73
     0
 72
     2
 10
2.296499925882826
 20
0.356927593697432
 40
0.0393626795107538
 50
171.569896694779
 51
180.4334275361526
 73
     0
 72
     1
 10
2.257138372636379
 20
0.3572253591981966
 11
2.310532446287798
 21
0.3572253591981966
 72
     1
 10
2.310532446287798
 20
0.3572253591981966
 11
2.310532446287798
 21
0.367418047889942
 72
     2
 10
2.275762964348938
 20
0.36817833181333
 40
0.0347777932873957
 50
358.7473463266968
 51
388.6031824377397
 73
     1
 72
     2
 10
2.281548948774631
 20
0.3715980049238856
 40
0.0280617767156418
 50
28.12879544758867
 51
54.95063515022651
 73
     1
 72
     2
 10
2.282693890302712
 20
0.3712425033481648
 40
0.0277188046407913
 50
57.31076922041467
 51
82.49402453740287
 73
     1
 72
     2
 10
2.280728554650892
 20
0.3702747845720343
 40
0.0289922752746188
 50
78.89077226525315
 51
93.81071159195634
 73
     1
 72
     2
 10
2.277977672205905
 20
0.3689225917587154
 40
0.0302915785144063
 50
88.44115042377268
 51
109.8107905333598
 73
     1
 72
     2
 10
2.275222109874092
 20
0.3727814463646621
 40
0.025759254820317
 50
106.9521716693689
 51
124.6036615698551
 73
     1
 72
     2
 10
2.274773416578598
 20
0.370745022031955
 40
0.0272234165647708
 50
121.3907074886562
 51
136.2843774046682
 73
     1
 72
     2
 10
2.281149153841504
 20
0.3640611980123525
 40
0.0364531928221075
 50
135.6167017519914
 51
147.4469381469267
 73
     1
 72
     2
 10
2.274957111114594
 20
0.367416191215975
 40
0.029433018103049
 50
146.4659438100718
 51
157.2122986253002
 73
     1
 72
     2
 10
2.267138403680967
 20
0.3693204846406612
 40
0.021524679866432
 50
153.8226534473673
 51
165.5519937306936
 73
     1
 72
     2
 10
2.282236151108304
 20
0.3626756489903522
 40
0.0378968651110212
 50
161.5152717472222
 51
170.1818189345486
 73
     1
 72
     2
 10
2.283166665329934
 20
0.3609961355594354
 40
0.0391287629611649
 50
167.9903558377852
 51
176.6960496179406
 73
     1
 72
     2
 10
2.304890836559503
 20
0.3584175027964993
 40
0.0609797779044613
 50
175.4535176021835
 51
184.5464823978165
 73
     1
 72
     2
 10
2.295769604053972
 20
0.3567421254133762
 40
0.0517631080522547
 50
183.4981100536811
 51
194.4293890325717
 73
     1
 72
     2
 10
2.267924221356158
 20
0.3485424727520853
 40
0.0227749164074823
 50
191.9070472796617
 51
206.3889894285749
 73
     1
 72
     2
 10
2.273199831303322
 20
0.3487142209845105
 40
0.0276640261495292
 50
201.8464660881789
 51
222.1274079961564
 73
     1
 72
     2
 10
2.275568744886119
 20
0.3494265410796771
 40
0.0299175639630396
 50
220.0955596825687
 51
233.675919742643
 73
     1
 72
     2
 10
2.276351476329497
 20
0.3502744687142416
 40
0.0310646393940601
 50
233.439172883081
 51
246.8725717081741
 73
     1
 72
     2
 10
2.278595672201572
 20
0.3544982286952896
 40
0.0358327073408587
 50
246.225226272516
 51
255.221905210868
 73
     1
 72
     2
 10
2.281256856845732
 20
0.3625382973605903
 40
0.0442887031977099
 50
254.5461626614633
 51
261.2833187503212
 73
     1
 72
     2
 10
2.282043884726467
 20
0.3737944212376279
 40
0.0555418412898209
 50
262.2405778669429
 51
267.8667696922759
 73
     1
 72
     2
 10
2.283144833705299
 20
0.3642090186578022
 40
0.0460271287848912
 50
266.052771916529
 51
277.1377488483282
 73
     1
 72
     2
 10
2.281272771008767
 20
0.3743809067507015
 40
0.0563559280448383
 50
277.7413046158851
 51
284.9308091026926
 73
     1
 72
     2
 10
2.279338009686233
 20
0.3840626065593293
 40
0.066212197599104
 50
284.3899023200388
 51
289.2072984924262
 73
     1
 72
     2
 10
2.224525220617301
 20
0.5275821421545017
 40
0.2198223362827564
 50
290.3921624947599
 51
292.6481637583185
 73
     1
 72
     1
 10
2.309172482915673
 20
0.3247109995190845
 11
2.309172482915673
 21
0.3403736793267176
 72
     2
 10
2.305671207258227
 20
0.3412559357119335
 40
0.0036107211964762
 50
14.14304208538207
 51
40.58091881066668
 73
     0
 72
     2
 10
2.288515538402338
 20
0.3631952191068923
 40
0.0313981308170948
 50
50.67407287050084
 51
56.95139529671177
 73
     0
 72
     2
 10
2.289265767974785
 20
0.3612619791193873
 40
0.0293716166250665
 50
56.1214437023511
 51
61.73823032856219
 73
     0
 72
     2
 10
2.280777067438011
 20
0.3754051721516405
 40
0.0458548879987643
 50
60.76359459619574
 51
64.75139576529142
 73
     0
 72
     2
 10
2.279144285908056
 20
0.3763099703744814
 40
0.047382263147091
 50
63.43218982647736
 51
70.38756687457111
 73
     0
 72
     2
 10
2.276591631531689
 20
0.3888655443368394
 40
0.0600934929530562
 50
72.11336347133137
 51
75.85532826122248
 73
     0
 72
     2
 10
2.283489762083886
 20
0.3621959788453819
 40
0.0325472503124579
 50
76.15762347795421
 51
80.15486191885152
 73
     0
 72
     2
 10
2.280375450633645
 20
0.3826983276081179
 40
0.0532819675598692
 50
80.6249603204364
 51
83.12798914716191
 73
     0
 72
     2
 10
2.282758565718186
 20
0.368048205585744
 40
0.0384568363547721
 50
84.04143915734451
 51
95.95856084265548
 73
     0
 72
     2
 10
2.281672526878255
 20
0.3621321664056745
 40
0.0324633646414816
 50
95.13601524590475
 51
98.33322003417473
 73
     0
 72
     2
 10
2.28073781445788
 20
0.3541936259354742
 40
0.0244742127063063
 50
98.86157888905927
 51
112.1101640742391
 73
     0
 72
     2
 10
2.279691010914149
 20
0.3522740777554137
 40
0.0223031909484426
 50
111.4747791446629
 51
123.1250142208027
 73
     0
 72
     2
 10
2.280026853888052
 20
0.3517336784423094
 40
0.0220416868943372
 50
124.6239441549415
 51
138.7251729097484
 73
     0
 97
        1
330
57F
 75
     0
 76
     1
 98
        1
 10
-6.623918024059631
 20
-0.1308261527660757
  0
HATCH
  5
56D
330
557
100
AcDbEntity
  8
CONTINUOUS1
 62
     9
100
AcDbHatch
 10
0.0
 20
0.0
 30
0.0
210
0.0
220
0.0
230
1.0
  2
SOLID
 70
     1
 71
     1
 91
        2
 92
       16
 93
       18
 72
     2
 10
2.101715475561753
 20
0.3528851545616271
 40
0.0664396543383195
 50
198.4619958207184
 51
200.1842354247362
 73
     0
 72
     2
 10
2.126856338028809
 20
0.3352454129199108
 40
0.0964455865170718
 50
204.8718608834223
 51
205.9393865440838
 73
     0
 72
     2
 10
2.065142067085734
 20
0.3643060230231959
 40
0.0282500412151291
 50
207.6881291807199
 51
212.1468522298004
 73
     0
 72
     2
 10
2.06321009509015
 20
0.3643452262975983
 40
0.0266120055644414
 50
214.2891439355242
 51
220.1522516266461
 73
     0
 72
     2
 10
2.058686569650484
 20
0.3678076991082785
 40
0.0209235948276606
 50
220.8926611798598
 51
232.6516971443604
 73
     0
 72
     2
 10
2.057196581387281
 20
0.3706911836161677
 40
0.0177364140530904
 50
230.82683481755
 51
247.1055208447427
 73
     0
 72
     2
 10
2.057118792149062
 20
0.3703911970057605
 40
0.0179834923783288
 50
247.7056716288155
 51
261.2030821657672
 73
     0
 72
     2
 10
2.058452148465288
 20
0.3671765463522348
 40
0.021380205129606
 50
258.9888491837334
 51
271.7108857746265
 73
     0
 72
     2
 10
2.059650477989436
 20
0.3639169558453035
 40
0.0246366297664502
 50
268.6975355392293
 51
280.2804749251185
 73
     0
 72
     2
 10
2.060897782283405
 20
0.3696082130283622
 40
0.0188153276115662
 50
279.6361688889241
 51
298.057351642836
 73
     0
 72
     2
 10
2.061963969590547
 20
0.3730218708912919
 40
0.0153157982727258
 50
300.5449189786832
 51
323.3255645340616
 73
     0
 72
     2
 10
2.058354527077018
 20
0.3712331984285728
 40
0.0192925244149342
 50
325.4679485472495
 51
338.7424644189135
 73
     0
 72
     2
 10
2.056024250862277
 20
0.3699536532301172
 40
0.0219309169395812
 50
337.8342522723962
 51
350.2507032171141
 73
     0
 72
     2
 10
2.037178237437474
 20
0.3664737796651569
 40
0.0410947224300684
 50
349.9184788839779
 51
358.9348353768807
 73
     0
 72
     1
 10
2.078265858667439
 20
0.3672377124287327
 11
2.037441464426283
 21
0.3672377124287327
 72
     2
 10
2.088423640626022
 20
0.3622878182681918
 40
0.0512219068588998
 50
185.545504702488
 51
188.201143057913
 73
     0
 72
     2
 10
2.389138525687483
 20
0.3072422365031111
 40
0.3569017845617037
 50
190.0614576245198
 51
190.4239000934009
 73
     0
 72
     2
 10
2.223013760831502
 20
0.3231292571124805
 40
0.1911897814441117
 50
194.7530117273464
 51
195.4074903055051
 73
     0
 97
        1
330
57B
 92
        1
 93
       47
 72
     2
 10
2.061826303585648
 20
0.3532598947256552
 40
0.024175292391828
 50
138.3496533346525
 51
148.4595555609697
 73
     0
 72
     2
 10
2.061321162805342
 20
0.3521059761880958
 40
0.0231523339774945
 50
150.2396979683238
 51
156.5937677099167
 73
     0
 72
     2
 10
2.07720039226204
 20
0.3585924636724107
 40
0.0403031923619966
 50
157.0988242481766
 51
160.8634840437793
 73
     0
 72
     2
 10
2.139486967419101
 20
0.3744094790060188
 40
0.1044765553251899
 50
163.8678439431618
 51
165.4002231692523
 73
     0
 72
     2
 10
2.071169313317291
 20
0.3551965516179018
 40
0.0335500157708659
 50
167.7439659185813
 51
173.0844435487629
 73
     0
 72
     2
 10
2.076800767659178
 20
0.356927593697432
 40
0.0393626795107538
 50
171.569896694779
 51
180.4334275361526
 73
     0
 72
     1
 10
2.037439214412732
 20
0.3572253591981966
 11
2.09083328806415
 21
0.3572253591981966
 72
     1
 10
2.09083328806415
 20
0.3572253591981966
 11
2.09083328806415
 21
0.367418047889942
 72
     2
 10
2.05606380612529
 20
0.36817833181333
 40
0.0347777932873957
 50
358.7473463266968
 51
388.6031824377397
 73
     1
 72
     2
 10
2.061849790550983
 20
0.3715980049238856
 40
0.0280617767156418
 50
28.12879544758867
 51
54.95063515022651
 73
     1
 72
     2
 10
2.062994732079065
 20
0.3712425033481648
 40
0.0277188046407913
 50
57.31076922041467
 51
82.49402453740287
 73
     1
 72
     2
 10
2.061029396427244
 20
0.3702747845720343
 40
0.0289922752746188
 50
78.89077226525315
 51
93.81071159195634
 73
     1
 72
     2
 10
2.058278513982257
 20
0.3689225917587154
 40
0.0302915785144063
 50
88.44115042377268
 51
109.8107905333598
 73
     1
 72
     2
 10
2.055522951650444
 20
0.3727814463646621
 40
0.025759254820317
 50
106.9521716693689
 51
124.6036615698551
 73
     1
 72
     2
 10
2.05507425835495
 20
0.370745022031955
 40
0.0272234165647708
 50
121.3907074886562
 51
136.2843774046682
 73
     1
 72
     2
 10
2.061449995617856
 20
0.3640611980123525
 40
0.0364531928221075
 50
135.6167017519914
 51
147.4469381469267
 73
     1
 72
     2
 10
2.055257952890947
 20
0.367416191215975
 40
0.029433018103049
 50
146.4659438100718
 51
157.2122986253002
 73
     1
 72
     2
 10
2.047439245457319
 20
0.3693204846406612
 40
0.021524679866432
 50
153.8226534473673
 51
165.5519937306936
 73
     1
 72
     2
 10
2.062536992884656
 20
0.3626756489903522
 40
0.0378968651110212
 50
161.5152717472222
 51
170.1818189345486
 73
     1
 72
     2
 10
2.063467507106286
 20
0.3609961355594354
 40
0.0391287629611649
 50
167.9903558377852
 51
176.6960496179406
 73
     1
 72
     2
 10
2.085191678335855
 20
0.3584175027964993
 40
0.0609797779044613
 50
175.4535176021835
 51
184.5464823978165
 73
     1
 72
     2
 10
2.076070445830324
 20
0.3567421254133762
 40
0.0517631080522547
 50
183.4981100536811
 51
194.4293890325717
 73
     1
 72
     2
 10
2.04822506313251
 20
0.3485424727520853
 40
0.0227749164074823
 50
191.9070472796617
 51
206.3889894285749
 73
     1
 72
     2
 10
2.053500673079674
 20
0.3487142209845105
 40
0.0276640261495292
 50
201.8464660881789
 51
222.1274079961564
 73
     1
 72
     2
 10
2.055869586662471
 20
0.3494265410796771
 40
0.0299175639630396
 50
220.0955596825687
 51
233.675919742643
 73
     1
 72
     2
 10
2.056652318105849
 20
0.3502744687142416
 40
0.0310646393940601
 50
233.439172883081
 51
246.8725717081741
 73
     1
 72
     2
 10
2.058896513977924
 20
0.3544982286952896
 40
0.0358327073408587
 50
246.225226272516
 51
255.221905210868
 73
     1
 72
     2
 10
2.061557698622084
 20
0.3625382973605903
 40
0.0442887031977099
 50
254.5461626614633
 51
261.2833187503212
 73
     1
 72
     2
 10
2.062344726502819
 20
0.3737944212376279
 40
0.0555418412898209
 50
262.2405778669429
 51
267.8667696922759
 73
     1
 72
     2
 10
2.063445675481736
 20
0.3642090186586808
 40
0.0460271287857737
 50
266.0527719164984
 51
277.1377488482976
 73
     1
 72
     2
 10
2.061573612785205
 20
0.3743809067493442
 40
0.0563559280435049
 50
277.7413046161568
 51
284.9308091029643
 73
     1
 72
     2
 10
2.059638851462585
 20
0.3840626065593293
 40
0.066212197599104
 50
284.3899023200388
 51
289.2072984924262
 73
     1
 72
     2
 10
2.004826062393653
 20
0.5275821421545017
 40
0.2198223362827564
 50
290.3921624947599
 51
292.6481637583185
 73
     1
 72
     1
 10
2.089473324692026
 20
0.3247109995190845
 11
2.089473324692026
 21
0.3403736793267176
 72
     2
 10
2.085972049034579
 20
0.3412559357119335
 40
0.0036107211964762
 50
14.14304208538207
 51
40.58091881066668
 73
     0
 72
     2
 10
2.06881638017869
 20
0.3631952191068923
 40
0.0313981308170948
 50
50.67407287050084
 51
56.95139529671177
 73
     0
 72
     2
 10
2.069566609751138
 20
0.3612619791193873
 40
0.0293716166250665
 50
56.1214437023511
 51
61.73823032856219
 73
     0
 72
     2
 10
2.061077909214363
 20
0.3754051721516405
 40
0.0458548879987643
 50
60.76359459619574
 51
64.75139576529142
 73
     0
 72
     2
 10
2.059445127684409
 20
0.3763099703744814
 40
0.047382263147091
 50
63.43218982647736
 51
70.38756687457111
 73
     0
 72
     2
 10
2.056892473308042
 20
0.3888655443368394
 40
0.0600934929530562
 50
72.11336347133137
 51
75.85532826122248
 73
     0
 72
     2
 10
2.063790603860238
 20
0.3621959788453819
 40
0.0325472503124579
 50
76.15762347795421
 51
80.15486191885152
 73
     0
 72
     2
 10
2.060676292409997
 20
0.3826983276081179
 40
0.0532819675598692
 50
80.6249603204364
 51
83.12798914716191
 73
     0
 72
     2
 10
2.063059407494538
 20
0.368048205585744
 40
0.0384568363547721
 50
84.04143915734451
 51
95.95856084265548
 73
     0
 72
     2
 10
2.061973368654692
 20
0.3621321664026192
 40
0.0324633646384463
 50
95.13601524653735
 51
98.33322003480732
 73
     0
 72
     2
 10
2.061038656234402
 20
0.3541936259354742
 40
0.0244742127063063
 50
98.86157888905927
 51
112.1101640742391
 73
     0
 72
     2
 10
2.059991852690672
 20
0.3522740777554137
 40
0.0223031909484426
 50
111.4747791446629
 51
123.1250142208027
 73
     0
 72
     2
 10
2.060327695664489
 20
0.3517336784429987
 40
0.022041686894856
 50
124.623944153741
 51
138.725172908548
 73
     0
 97
        1
330
57C
 75
     0
 76
     1
 98
        1
 10
-6.623918024059631
 20
-0.1308261527660757
  0
HATCH
  5
56E
330
557
100
AcDbEntity
  8
CONTINUOUS1
 62
     9
100
AcDbHatch
 10
0.0
 20
0.0
 30
0.0
210
0.0
220
0.0
230
1.0
  2
SOLID
 70
     1
 71
     1
 91
        1
 92
        1
 93
       78
 72
     1
 10
1.93678687597961
 20
0.3185392197908646
 11
1.939564494073497
 21
0.3185392197908646
 72
     1
 10
1.939564494073497
 20
0.3185392197908646
 11
1.942342112167555
 21
0.3185392197908646
 72
     1
 10
1.942342112167555
 20
0.3185392197908646
 11
1.945119730261442
 21
0.3185392197908646
 72
     1
 10
1.945119730261442
 20
0.3185392197908646
 11
1.9478973483555
 21
0.3185392197908646
 72
     1
 10
1.9478973483555
 20
0.3185392197908646
 11
1.950674966449557
 21
0.3185392197908646
 72
     1
 10
1.950674966449557
 20
0.3185392197908646
 11
1.950674966449557
 21
0.3213168378847518
 72
     1
 10
1.950674966449557
 20
0.3213168378847518
 11
1.950674966449557
 21
0.3240944559788095
 72
     1
 10
1.950674966449557
 20
0.3240944559788095
 11
1.950674966449557
 21
0.3713139635765974
 72
     1
 10
1.950674966449557
 20
0.3713139635765974
 11
1.950674966449557
 21
0.3740915816706551
 72
     1
 10
1.950674966449557
 20
0.3740915816706551
 11
1.950674966449557
 21
0.3764121066624857
 72
     1
 10
1.950674966449557
 20
0.3764121066624857
 11
1.953452584543445
 21
0.3787302038875286
 72
     1
 10
1.953452584543445
 20
0.3787302038875286
 11
1.956003614602682
 21
0.3809067470338623
 72
     1
 10
1.956003614602682
 20
0.3809067470338623
 11
1.958366196022527
 21
0.3826818394989009
 72
     1
 10
1.958366196022527
 20
0.3826818394989009
 11
1.961291878825964
 21
0.3848664295055646
 72
     1
 10
1.961291878825964
 20
0.3848664295055646
 11
1.963519951262444
 21
0.3862728726654727
 72
     1
 10
1.963519951262444
 20
0.3862728726654727
 11
1.965368566166691
 21
0.3871741628932459
 72
     1
 10
1.965368566166691
 20
0.3871741628932459
 11
1.967340675013392
 21
0.3877239703094806
 72
     1
 10
1.967340675013392
 20
0.3877239703094806
 11
1.97011829310745
 21
0.3879796721404323
 72
     1
 10
1.97011829310745
 20
0.3879796721404323
 11
1.972895911201337
 21
0.3879796721404323
 72
     1
 10
1.972895911201337
 20
0.3879796721404323
 11
1.975673529295395
 21
0.3875908056072608
 72
     1
 10
1.975673529295395
 20
0.3875908056072608
 11
1.978408481664164
 21
0.3864723471903067
 72
     1
 10
1.978408481664164
 20
0.3864723471903067
 11
1.980423256236154
 21
0.3848131875133736
 72
     1
 10
1.980423256236154
 20
0.3848131875133736
 11
1.982347794679387
 21
0.3828455775268371
 72
     1
 10
1.982347794679387
 20
0.3828455775268371
 11
1.983898127081747
 21
0.3807960064739295
 72
     1
 10
1.983898127081747
 20
0.3807960064739295
 11
1.985408544715742
 21
0.3785266344276583
 72
     1
 10
1.985408544715742
 20
0.3785266344276583
 11
1.986436641229861
 21
0.3760636905171855
 72
     1
 10
1.986436641229861
 20
0.3760636905171855
 11
1.986784001671285
 21
0.3740915816706551
 72
     1
 10
1.986784001671285
 20
0.3740915816706551
 11
1.986784001671285
 21
0.3713139635765974
 72
     1
 10
1.986784001671285
 20
0.3713139635765974
 11
1.986784001671285
 21
0.3240944559788095
 72
     1
 10
1.986784001671285
 20
0.3240944559788095
 11
1.986784001671285
 21
0.3213168378847518
 72
     1
 10
1.986784001671285
 20
0.3213168378847518
 11
1.986784001671285
 21
0.3185392197908646
 72
     1
 10
1.986784001671285
 20
0.3185392197908646
 11
1.989561619765343
 21
0.3185392197908646
 72
     1
 10
1.989561619765343
 20
0.3185392197908646
 11
1.99233923785923
 21
0.3185392197908646
 72
     1
 10
1.99233923785923
 20
0.3185392197908646
 11
1.995116855953288
 21
0.3185392197908646
 72
     1
 10
1.995116855953288
 20
0.3185392197908646
 11
1.997894474047175
 21
0.3185392197908646
 72
     1
 10
1.997894474047175
 20
0.3185392197908646
 11
2.000672092141233
 21
0.3185392197908646
 72
     1
 10
2.000672092141233
 20
0.3185392197908646
 11
2.000672092141233
 21
0.3213168378847518
 72
     1
 10
2.000672092141233
 20
0.3213168378847518
 11
2.000672092141233
 21
0.3240944559788095
 72
     1
 10
2.000672092141233
 20
0.3240944559788095
 11
2.000672092141233
 21
0.3740915816706551
 72
     1
 10
2.000672092141233
 20
0.3740915816706551
 11
2.000672092141233
 21
0.3768691997645424
 72
     1
 10
2.000672092141233
 20
0.3768691997645424
 11
2.000394330331776
 21
0.3796468178584296
 72
     1
 10
2.000394330331776
 20
0.3796468178584296
 11
1.999755478170161
 21
0.3824244359524873
 72
     1
 10
1.999755478170161
 20
0.3824244359524873
 11
1.998811088018246
 21
0.3852020540465451
 72
     1
 10
1.998811088018246
 20
0.3852020540465451
 11
1.997366726609445
 21
0.3877019103309753
 72
     1
 10
1.997366726609445
 20
0.3877019103309753
 11
1.995116855953288
 21
0.3898406762634186
 72
     1
 10
1.995116855953288
 20
0.3898406762634186
 11
1.992605073201364
 21
0.3920766850267801
 72
     1
 10
1.992605073201364
 20
0.3920766850267801
 11
1.989896866645583
 21
0.3938452989406192
 72
     1
 10
1.989896866645583
 20
0.3938452989406192
 11
1.987855574154341
 21
0.3953124560483166
 72
     1
 10
1.987855574154341
 20
0.3953124560483166
 11
1.985252932763362
 21
0.3964598354054947
 72
     1
 10
1.985252932763362
 20
0.3964598354054947
 11
1.982498395711534
 21
0.3975734953987744
 72
     1
 10
1.982498395711534
 20
0.3975734953987744
 11
1.980191734394711
 21
0.3984640481231172
 72
     1
 10
1.980191734394711
 20
0.3984640481231172
 11
1.978042304217613
 21
0.3990083828482516
 72
     1
 10
1.978042304217613
 20
0.3990083828482516
 11
1.975645085390201
 21
0.3994741650645897
 72
     1
 10
1.975645085390201
 20
0.3994741650645897
 11
1.972895911201337
 21
0.3994820966067327
 72
     1
 10
1.972895911201337
 20
0.3994820966067327
 11
1.970108168823831
 21
0.3992749623910759
 72
     1
 10
1.970108168823831
 20
0.3992749623910759
 11
1.967507332098964
 21
0.39861794944045
 72
     1
 10
1.967507332098964
 20
0.39861794944045
 11
1.965118580538248
 21
0.3974235736599217
 72
     1
 10
1.965118580538248
 20
0.3974235736599217
 11
1.962966544042192
 21
0.3962323293606009
 72
     1
 10
1.962966544042192
 20
0.3962323293606009
 11
1.960659803288965
 21
0.3947017891629803
 72
     1
 10
1.960659803288965
 20
0.3947017891629803
 11
1.958231061444994
 21
0.3928857065760103
 72
     1
 10
1.958231061444994
 20
0.3928857065760103
 11
1.95606354555176
 21
0.3912294853105327
 72
     1
 10
1.95606354555176
 20
0.3912294853105327
 11
1.953417691445029
 21
0.3893715454285034
 72
     1
 10
1.953417691445029
 20
0.3893715454285034
 11
1.950674966449557
 21
0.3873342800367259
 72
     1
 10
1.950674966449557
 20
0.3873342800367259
 11
1.950674966449557
 21
0.3935349083285478
 72
     1
 10
1.950674966449557
 20
0.3935349083285478
 11
1.950674966449557
 21
0.396312526422435
 72
     1
 10
1.950674966449557
 20
0.396312526422435
 11
1.950674966449557
 21
0.39075729023449
 72
     1
 10
1.950674966449557
 20
0.39075729023449
 11
1.950674966449557
 21
0.3935349083285478
 72
     1
 10
1.950674966449557
 20
0.3935349083285478
 11
1.950674966449557
 21
0.396312526422435
 72
     1
 10
1.950674966449557
 20
0.396312526422435
 11
1.9478973483555
 21
0.396312526422435
 72
     1
 10
1.9478973483555
 20
0.396312526422435
 11
1.945119730261442
 21
0.396312526422435
 72
     1
 10
1.945119730261442
 20
0.396312526422435
 11
1.942342112167555
 21
0.396312526422435
 72
     1
 10
1.942342112167555
 20
0.396312526422435
 11
1.939564494073497
 21
0.396312526422435
 72
     1
 10
1.939564494073497
 20
0.396312526422435
 11
1.93678687597961
 21
0.396312526422435
 72
     1
 10
1.93678687597961
 20
0.396312526422435
 11
1.93678687597961
 21
0.3935349083285478
 72
     1
 10
1.93678687597961
 20
0.3935349083285478
 11
1.93678687597961
 21
0.39075729023449
 72
     1
 10
1.93678687597961
 20
0.39075729023449
 11
1.93678687597961
 21
0.3240944559788095
 72
     1
 10
1.93678687597961
 20
0.3240944559788095
 11
1.93678687597961
 21
0.3213168378847518
 72
     1
 10
1.93678687597961
 20
0.3213168378847518
 11
1.93678687597961
 21
0.3185392197908646
 97
        1
330
576
 75
     0
 76
     1
 98
        1
 10
-6.623918024059631
 20
-0.1308261527660757
  0
HATCH
  5
56F
330
557
100
AcDbEntity
  8
CONTINUOUS1
 62
     9
100
AcDbHatch
 10
0.0
 20
0.0
 30
0.0
210
0.0
220
0.0
230
1.0
  2
SOLID
 70
     1
 71
     1
 91
        1
 92
        1
 93
       78
 72
     1
 10
1.847903096971979
 20
0.3185392197908646
 11
1.850680715066037
 21
0.3185392197908646
 72
     1
 10
1.850680715066037
 20
0.3185392197908646
 11
1.853458333160094
 21
0.3185392197908646
 72
     1
 10
1.853458333160094
 20
0.3185392197908646
 11
1.856235951253982
 21
0.3185392197908646
 72
     1
 10
1.856235951253982
 20
0.3185392197908646
 11
1.859013569348039
 21
0.3185392197908646
 72
     1
 10
1.859013569348039
 20
0.3185392197908646
 11
1.861791187441927
 21
0.3185392197908646
 72
     1
 10
1.861791187441927
 20
0.3185392197908646
 11
1.861791187441927
 21
0.3213168378847518
 72
     1
 10
1.861791187441927
 20
0.3213168378847518
 11
1.861791187441927
 21
0.3240944559788095
 72
     1
 10
1.861791187441927
 20
0.3240944559788095
 11
1.861791187441927
 21
0.3713139635765974
 72
     1
 10
1.861791187441927
 20
0.3713139635765974
 11
1.861791187441927
 21
0.3740915816706551
 72
     1
 10
1.861791187441927
 20
0.3740915816706551
 11
1.861791187441927
 21
0.3764121066624857
 72
     1
 10
1.861791187441927
 20
0.3764121066624857
 11
1.864568805535984
 21
0.3787302038875286
 72
     1
 10
1.864568805535984
 20
0.3787302038875286
 11
1.867119835595051
 21
0.3809067470338623
 72
     1
 10
1.867119835595051
 20
0.3809067470338623
 11
1.869482417015067
 21
0.3826818394989009
 72
     1
 10
1.869482417015067
 20
0.3826818394989009
 11
1.872408099818333
 21
0.3848664295055646
 72
     1
 10
1.872408099818333
 20
0.3848664295055646
 11
1.874636172254813
 21
0.3862728726654727
 72
     1
 10
1.874636172254813
 20
0.3862728726654727
 11
1.876484787159231
 21
0.3871741628932459
 72
     1
 10
1.876484787159231
 20
0.3871741628932459
 11
1.878456896005932
 21
0.3877239703094806
 72
     1
 10
1.878456896005932
 20
0.3877239703094806
 11
1.881234514099819
 21
0.3879796721404323
 72
     1
 10
1.881234514099819
 20
0.3879796721404323
 11
1.884012132193877
 21
0.3879796721404323
 72
     1
 10
1.884012132193877
 20
0.3879796721404323
 11
1.886789750287764
 21
0.3875908056072608
 72
     1
 10
1.886789750287764
 20
0.3875908056072608
 11
1.889524702656704
 21
0.3864723471903067
 72
     1
 10
1.889524702656704
 20
0.3864723471903067
 11
1.891539477228523
 21
0.3848131875133736
 72
     1
 10
1.891539477228523
 20
0.3848131875133736
 11
1.893464015671927
 21
0.3828455775268371
 72
     1
 10
1.893464015671927
 20
0.3828455775268371
 11
1.895014348074116
 21
0.3807960064739295
 72
     1
 10
1.895014348074116
 20
0.3807960064739295
 11
1.896524765708281
 21
0.3785266344276583
 72
     1
 10
1.896524765708281
 20
0.3785266344276583
 11
1.897552862222401
 21
0.3760636905171855
 72
     1
 10
1.897552862222401
 20
0.3760636905171855
 11
1.897900222663825
 21
0.3740915816706551
 72
     1
 10
1.897900222663825
 20
0.3740915816706551
 11
1.897900222663825
 21
0.3713139635765974
 72
     1
 10
1.897900222663825
 20
0.3713139635765974
 11
1.897900222663825
 21
0.3240944559788095
 72
     1
 10
1.897900222663825
 20
0.3240944559788095
 11
1.897900222663825
 21
0.3213168378847518
 72
     1
 10
1.897900222663825
 20
0.3213168378847518
 11
1.897900222663825
 21
0.3185392197908646
 72
     1
 10
1.897900222663825
 20
0.3185392197908646
 11
1.900677840757712
 21
0.3185392197908646
 72
     1
 10
1.900677840757712
 20
0.3185392197908646
 11
1.90345545885177
 21
0.3185392197908646
 72
     1
 10
1.90345545885177
 20
0.3185392197908646
 11
1.906233076945657
 21
0.3185392197908646
 72
     1
 10
1.906233076945657
 20
0.3185392197908646
 11
1.909010695039714
 21
0.3185392197908646
 72
     1
 10
1.909010695039714
 20
0.3185392197908646
 11
1.911788313133772
 21
0.3185392197908646
 72
     1
 10
1.911788313133772
 20
0.3185392197908646
 11
1.911788313133772
 21
0.3213168378847518
 72
     1
 10
1.911788313133772
 20
0.3213168378847518
 11
1.911788313133772
 21
0.3240944559788095
 72
     1
 10
1.911788313133772
 20
0.3240944559788095
 11
1.911788313133772
 21
0.3740915816706551
 72
     1
 10
1.911788313133772
 20
0.3740915816706551
 11
1.911788313133772
 21
0.3768691997645424
 72
     1
 10
1.911788313133772
 20
0.3768691997645424
 11
1.911510551324315
 21
0.3796468178584296
 72
     1
 10
1.911510551324315
 20
0.3796468178584296
 11
1.910871699162701
 21
0.3824244359524873
 72
     1
 10
1.910871699162701
 20
0.3824244359524873
 11
1.909927309010786
 21
0.3852020540465451
 72
     1
 10
1.909927309010786
 20
0.3852020540465451
 11
1.908482947601815
 21
0.3877019103309753
 72
     1
 10
1.908482947601815
 20
0.3877019103309753
 11
1.906233076945657
 21
0.3898406762634186
 72
     1
 10
1.906233076945657
 20
0.3898406762634186
 11
1.903721294193903
 21
0.3920766850267801
 72
     1
 10
1.903721294193903
 20
0.3920766850267801
 11
1.901013087638123
 21
0.3938452989406192
 72
     1
 10
1.901013087638123
 20
0.3938452989406192
 11
1.898971795146881
 21
0.3953124560483166
 72
     1
 10
1.898971795146881
 20
0.3953124560483166
 11
1.896369153755731
 21
0.3964598354054947
 72
     1
 10
1.896369153755731
 20
0.3964598354054947
 11
1.893614616703903
 21
0.3975734953987744
 72
     1
 10
1.893614616703903
 20
0.3975734953987744
 11
1.89130795538708
 21
0.3984640481231172
 72
     1
 10
1.89130795538708
 20
0.3984640481231172
 11
1.889158525210152
 21
0.3990083828482516
 72
     1
 10
1.889158525210152
 20
0.3990083828482516
 11
1.886761306382741
 21
0.3994741650645897
 72
     1
 10
1.886761306382741
 20
0.3994741650645897
 11
1.884012132193877
 21
0.3994820966067327
 72
     1
 10
1.884012132193877
 20
0.3994820966067327
 11
1.88122438981637
 21
0.3992749623910759
 72
     1
 10
1.88122438981637
 20
0.3992749623910759
 11
1.878623553091504
 21
0.39861794944045
 72
     1
 10
1.878623553091504
 20
0.39861794944045
 11
1.876234801530788
 21
0.3974235736599217
 72
     1
 10
1.876234801530788
 20
0.3974235736599217
 11
1.874082765034561
 21
0.3962323293606009
 72
     1
 10
1.874082765034561
 20
0.3962323293606009
 11
1.871776024281334
 21
0.3947017891629803
 72
     1
 10
1.871776024281334
 20
0.3947017891629803
 11
1.869347282437363
 21
0.3928857065760103
 72
     1
 10
1.869347282437363
 20
0.3928857065760103
 11
1.8671797665443
 21
0.3912294853105327
 72
     1
 10
1.8671797665443
 20
0.3912294853105327
 11
1.864533912437398
 21
0.3893715454285034
 72
     1
 10
1.864533912437398
 20
0.3893715454285034
 11
1.861791187441927
 21
0.3873342800367259
 72
     1
 10
1.861791187441927
 20
0.3873342800367259
 11
1.861791187441927
 21
0.3935349083285478
 72
     1
 10
1.861791187441927
 20
0.3935349083285478
 11
1.861791187441927
 21
0.396312526422435
 72
     1
 10
1.861791187441927
 20
0.396312526422435
 11
1.861791187441927
 21
0.432421561644333
 72
     1
 10
1.861791187441927
 20
0.432421561644333
 11
1.861791187441927
 21
0.4351991797382202
 72
     1
 10
1.861791187441927
 20
0.4351991797382202
 11
1.861791187441927
 21
0.4379767978321075
 72
     1
 10
1.861791187441927
 20
0.4379767978321075
 11
1.859013569348039
 21
0.4379767978321075
 72
     1
 10
1.859013569348039
 20
0.4379767978321075
 11
1.856235951253982
 21
0.4379767978321075
 72
     1
 10
1.856235951253982
 20
0.4379767978321075
 11
1.853458333160094
 21
0.4379767978321075
 72
     1
 10
1.853458333160094
 20
0.4379767978321075
 11
1.850680715066037
 21
0.4379767978321075
 72
     1
 10
1.850680715066037
 20
0.4379767978321075
 11
1.847903096971979
 21
0.4379767978321075
 72
     1
 10
1.847903096971979
 20
0.4379767978321075
 11
1.847903096971979
 21
0.4351991797382202
 72
     1
 10
1.847903096971979
 20
0.4351991797382202
 11
1.847903096971979
 21
0.432421561644333
 72
     1
 10
1.847903096971979
 20
0.432421561644333
 11
1.847903096971979
 21
0.3240944559788095
 72
     1
 10
1.847903096971979
 20
0.3240944559788095
 11
1.847903096971979
 21
0.3213168378847518
 72
     1
 10
1.847903096971979
 20
0.3213168378847518
 11
1.847903096971979
 21
0.3185392197908646
 97
        1
330
575
 75
     0
 76
     1
 98
        1
 10
-6.623918024059631
 20
-0.1308261527660757
  0
HATCH
  5
570
330
557
100
AcDbEntity
  8
CONTINUOUS1
 62
     9
100
AcDbHatch
 10
0.0
 20
0.0
 30
0.0
210
0.0
220
0.0
230
1.0
  2
SOLID
 70
     1
 71
     1
 91
        1
 92
        1
 93
       12
 72
     1
 10
2.047689882598749
 20
0.6638644919422068
 11
2.026127593512317
 21
0.6638644919422068
 72
     1
 10
2.026127593512317
 20
0.6638644919422068
 11
2.026127406012253
 21
0.5568018132491948
 72
     2
 10
2.047689923847383
 20
0.5568015038747939
 40
0.0215625178373487
 50
179.999177932392
 51
269.9998903944047
 73
     1
 72
     1
 10
2.047689882598749
 20
0.5352389860374847
 11
2.16525206565112
 21
0.5352391641624768
 72
     2
 10
2.165252113464067
 20
0.5568015929365722
 40
0.0215624287741484
 50
269.9998729512306
 51
359.9996387857453
 73
     1
 72
     1
 10
2.186814542237787
 20
0.5568014569988696
 11
2.186814898487941
 21
0.6638644919422068
 72
     1
 10
2.186814898487941
 20
0.6638644919422068
 11
2.16525206565112
 21
0.6638644919422068
 72
     1
 10
2.16525206565112
 20
0.6638644919422068
 11
2.16525206565112
 21
0.5675830496674626
 72
     2
 10
2.154470694233568
 20
0.5675829165415133
 40
0.0107813714183743
 50
359.9992925246018
 51
449.9992925333428
 73
     0
 72
     1
 10
2.154470827357872
 20
0.5568015451239608
 11
2.058471120891997
 21
0.5568015451239608
 72
     2
 10
2.05847116026702
 20
0.5675830102922954
 40
0.0107814651684066
 50
90.00020925009865
 51
180.0002092508632
 73
     0
 72
     1
 10
2.047689695098686
 20
0.5675830496674626
 11
2.047689882598749
 21
0.6638644919422068
 97
        1
330
573
 75
     0
 76
     1
 98
        1
 10
-6.623918024059631
 20
-0.1308261527660757
  0
HATCH
  5
571
330
557
100
AcDbEntity
  8
CONTINUOUS1
 62
     9
100
AcDbHatch
 10
0.0
 20
0.0
 30
0.0
210
0.0
220
0.0
230
1.0
  2
SOLID
 70
     1
 71
     1
 91
        2
 92
        1
 93
       11
 72
     2
 10
1.859439987429169
 20
0.6423016656678994
 40
0.021562648149145
 50
90.00000747299615
 51
179.9997683268519
 73
     1
 72
     1
 10
1.837877339280201
 20
0.6423017528555879
 11
1.837877170530109
 21
0.5568018132491948
 72
     2
 10
1.859439857117431
 20
0.5568016726252254
 40
0.0215626865877803
 50
179.9996263378447
 51
269.9998903896791
 73
     1
 72
     1
 10
1.859439815866696
 20
0.5352389860374847
 11
1.986189823671427
 21
0.5352391641624768
 72
     2
 10
1.986190043351474
 20
0.5568016288008568
 40
0.021562464639499
 50
269.9994162661951
 51
311.7040125634685
 73
     1
 72
     1
 10
2.000535176793139
 20
0.5407032739821039
 11
2.007752112757859
 21
0.5352391641624768
 72
     1
 10
2.007752112757859
 20
0.5352391641624768
 11
2.020768165011109
 21
0.5524296310179584
 72
     1
 10
2.020768165011109
 20
0.5524296310179584
 11
2.007752300257923
 21
0.5622850574563363
 72
     1
 10
2.007752300257923
 20
0.5622850574563363
 11
2.007752469008014
 21
0.6423016628555165
 72
     2
 10
1.986189820858957
 20
0.6423016656679872
 40
0.0215626481490571
 50
359.9999925267666
 51
449.9999925267689
 73
     1
 72
     1
 10
1.986189823671427
 20
0.6638643138170442
 11
1.859439984616788
 21
0.6638643138170442
 97
        1
330
574
 92
       16
 93
       10
 72
     2
 10
1.870221492910582
 20
0.6315205108123614
 40
0.0107811520434708
 50
90.00043844291411
 51
179.9999701074038
 73
     1
 72
     1
 10
1.859440340867113
 20
0.6315205164371496
 11
1.859440340867113
 21
0.5675830496674626
 72
     2
 10
1.870221627908248
 20
0.5675828321650959
 40
0.010781287043329
 50
179.9988441113203
 51
269.9988441346418
 73
     1
 72
     1
 10
1.87022141041027
 20
0.5568015451239608
 11
1.979274912904006
 21
0.5568015451239608
 72
     1
 10
1.979274912904006
 20
0.5568015451239608
 11
1.936536734983437
 21
0.5891612556392834
 72
     1
 10
1.936536734983437
 20
0.5891612556392834
 11
1.949552787236687
 21
0.6063515462445826
 72
     1
 10
1.949552787236687
 20
0.6063515462445826
 11
1.986189823671427
 21
0.5786120318725812
 72
     1
 10
1.986189823671427
 20
0.5786120318725812
 11
1.986189823671427
 21
0.6315204283122289
 72
     2
 10
1.975408587253074
 20
0.631520426437163
 40
0.0107812364183537
 50
0.0000099648460607
 51
90.00000996484134
 73
     1
 72
     1
 10
1.975408585378009
 20
0.6423016628555165
 11
1.87022141041027
 21
0.6423016628555165
 97
        1
330
577
 75
     0
 76
     1
 98
        1
 10
-6.623918024059631
 20
-0.1308261527660757
  0
HATCH
  5
572
330
557
100
AcDbEntity
  8
CONTINUOUS1
 62
     9
100
AcDbHatch
 10
0.0
 20
0.0
 30
0.0
210
0.0
220
0.0
230
1.0
  2
SOLID
 70
     1
 71
     0
 91
        2
 92
        7
 72
     1
 73
     1
 93
       21
 10
2.220103921565996
 20
0.432421561644333
 42
0.0
 10
2.220103921565996
 20
0.4351991797382202
 42
0.0
 10
2.220103921565996
 20
0.4379767978321075
 42
0.0
 10
2.217326303472109
 20
0.4379767978321075
 42
0.0
 10
2.214548685378051
 20
0.4379767978321075
 42
0.0
 10
2.211771067283994
 20
0.4379767978321075
 42
0.0
 10
2.208993449190106
 20
0.4379767978321075
 42
0.0
 10
2.206215831096052
 20
0.4379767978321075
 42
0.0
 10
2.206215831096049
 20
0.4351991797382202
 42
0.0
 10
2.206215831096049
 20
0.432421561644333
 42
0.0
 10
2.206215831096049
 20
0.40186776261038
 42
0.0
 10
2.206215831096049
 20
0.3990901445163222
 42
0.0
 10
2.206215831096049
 20
0.3971180356697919
 42
0.0
 10
2.206215831096049
 20
0.3941013219383648
 42
0.0
 10
2.201629434357208
 20
0.3959268898694769
 42
1.048263601672966
 10
2.180190518556941
 20
0.3185392197908646
 42
0.0
 10
2.214548685378051
 20
0.3185392197908646
 42
0.0
 10
2.217326303472109
 20
0.3185392197908646
 42
0.0
 10
2.220103921565996
 20
0.3185392197908643
 42
0.0
 10
2.220103921565996
 20
0.3213168378847518
 42
0.0
 10
2.220103921565996
 20
0.3240944559788095
 42
0.0
 97
        0
 92
       22
 72
     1
 73
     1
 93
        3
 10
2.206215831096049
 20
0.3829908495624749
 42
0.0
 10
2.206215831096049
 20
0.3296496921667545
 42
0.0
 10
2.184394809861462
 20
0.3296496921667545
 42
-1.076204956628309
 97
        0
 75
     0
 76
     1
 47
0.0005102668735142
 98
        2
 10
2.160923651331266
 20
0.3732541591595107
 10
2.160923651331266
 20
0.3732541591595107
  0
LWPOLYLINE
  5
573
102
{ACAD_REACTORS
330
570
102
}
330
557
100
AcDbEntity
  8
CONTINUOUS1
  6
CONTINUOUS
 62
     9
100
AcDbPolyline
 90
       13
 70
     0
 43
0.0
 10
2.047689882598749
 20
0.6638644919422068
 10
2.026127593512317
 20
0.6638644919422068
 10
2.026127406012253
 20
0.5568018132491948
 42
0.4142172044487012
 10
2.047689882598749
 20
0.5352389860374847
 10
2.16525206565112
 20
0.5352391641624768
 42
0.4142123653311114
 10
2.186814542237787
 20
0.5568014569988696
 10
2.186814898487941
 20
0.6638644919422068
 10
2.16525206565112
 20
0.6638644919422068
 10
2.16525206565112
 20
0.5675830496674626
 42
-0.414213562417775
 10
2.154470827357872
 20
0.5568015451239608
 10
2.058471120891997
 20
0.5568015451239608
 42
-0.4142135623770039
 10
2.047689695098686
 20
0.5675830496674626
 10
2.047689882598749
 20
0.6638644919422068
  0
LWPOLYLINE
  5
574
102
{ACAD_REACTORS
330
571
102
}
330
557
100
AcDbEntity
  8
CONTINUOUS1
  6
CONTINUOUS
 62
     9
100
AcDbPolyline
 90
       12
 70
     0
 43
0.0
 10
1.859439984616788
 20
0.6638643138170442
 42
0.4142123398702456
 10
1.837877339280201
 20
0.6423017528555879
 10
1.837877170530109
 20
0.5568018132491948
 42
0.4142149121937861
 10
1.859439815866696
 20
0.5352389860374847
 10
1.986189823671427
 20
0.5352391641624768
 42
0.1840061449277652
 10
2.000535176793139
 20
0.5407032739821039
 10
2.007752112757859
 20
0.5352391641624768
 10
2.020768165011109
 20
0.5524296310179584
 10
2.007752300257923
 20
0.5622850574563363
 10
2.007752469008014
 20
0.6423016628555165
 42
0.4142135623731064
 10
1.986189823671427
 20
0.6638643138170442
 10
1.859439984616788
 20
0.6638643138170442
  0
LWPOLYLINE
  5
575
102
{ACAD_REACTORS
330
56F
102
}
330
557
100
AcDbEntity
  8
CONTINUOUS1
  6
CONTINUOUS
 62
     9
100
AcDbPolyline
 90
       79
 70
     0
 43
0.0
 10
1.847903096971979
 20
0.3185392197908646
 10
1.850680715066037
 20
0.3185392197908646
 10
1.853458333160094
 20
0.3185392197908646
 10
1.856235951253982
 20
0.3185392197908646
 10
1.859013569348039
 20
0.3185392197908646
 10
1.861791187441927
 20
0.3185392197908646
 10
1.861791187441927
 20
0.3213168378847518
 10
1.861791187441927
 20
0.3240944559788095
 10
1.861791187441927
 20
0.3713139635765974
 10
1.861791187441927
 20
0.3740915816706551
 10
1.861791187441927
 20
0.3764121066624857
 10
1.864568805535984
 20
0.3787302038875286
 10
1.867119835595051
 20
0.3809067470338623
 10
1.869482417015067
 20
0.3826818394989009
 10
1.872408099818333
 20
0.3848664295055646
 10
1.874636172254813
 20
0.3862728726654727
 10
1.876484787159231
 20
0.3871741628932459
 10
1.878456896005932
 20
0.3877239703094806
 10
1.881234514099819
 20
0.3879796721404323
 10
1.884012132193877
 20
0.3879796721404323
 10
1.886789750287764
 20
0.3875908056072608
 10
1.889524702656704
 20
0.3864723471903067
 10
1.891539477228523
 20
0.3848131875133736
 10
1.893464015671927
 20
0.3828455775268371
 10
1.895014348074116
 20
0.3807960064739295
 10
1.896524765708281
 20
0.3785266344276583
 10
1.897552862222401
 20
0.3760636905171855
 10
1.897900222663825
 20
0.3740915816706551
 10
1.897900222663825
 20
0.3713139635765974
 10
1.897900222663825
 20
0.3240944559788095
 10
1.897900222663825
 20
0.3213168378847518
 10
1.897900222663825
 20
0.3185392197908646
 10
1.900677840757712
 20
0.3185392197908646
 10
1.90345545885177
 20
0.3185392197908646
 10
1.906233076945657
 20
0.3185392197908646
 10
1.909010695039714
 20
0.3185392197908646
 10
1.911788313133772
 20
0.3185392197908646
 10
1.911788313133772
 20
0.3213168378847518
 10
1.911788313133772
 20
0.3240944559788095
 10
1.911788313133772
 20
0.3740915816706551
 10
1.911788313133772
 20
0.3768691997645424
 10
1.911510551324315
 20
0.3796468178584296
 10
1.910871699162701
 20
0.3824244359524873
 10
1.909927309010786
 20
0.3852020540465451
 10
1.908482947601815
 20
0.3877019103309753
 10
1.906233076945657
 20
0.3898406762634186
 10
1.903721294193903
 20
0.3920766850267801
 10
1.901013087638123
 20
0.3938452989406192
 10
1.898971795146881
 20
0.3953124560483166
 10
1.896369153755731
 20
0.3964598354054947
 10
1.893614616703903
 20
0.3975734953987744
 10
1.89130795538708
 20
0.3984640481231172
 10
1.889158525210152
 20
0.3990083828482516
 10
1.886761306382741
 20
0.3994741650645897
 10
1.884012132193877
 20
0.3994820966067327
 10
1.88122438981637
 20
0.3992749623910759
 10
1.878623553091504
 20
0.39861794944045
 10
1.876234801530788
 20
0.3974235736599217
 10
1.874082765034561
 20
0.3962323293606009
 10
1.871776024281334
 20
0.3947017891629803
 10
1.869347282437363
 20
0.3928857065760103
 10
1.8671797665443
 20
0.3912294853105327
 10
1.864533912437398
 20
0.3893715454285034
 10
1.861791187441927
 20
0.3873342800367259
 10
1.861791187441927
 20
0.3935349083285478
 10
1.861791187441927
 20
0.396312526422435
 10
1.861791187441927
 20
0.432421561644333
 10
1.861791187441927
 20
0.4351991797382202
 10
1.861791187441927
 20
0.4379767978321075
 10
1.859013569348039
 20
0.4379767978321075
 10
1.856235951253982
 20
0.4379767978321075
 10
1.853458333160094
 20
0.4379767978321075
 10
1.850680715066037
 20
0.4379767978321075
 10
1.847903096971979
 20
0.4379767978321075
 10
1.847903096971979
 20
0.4351991797382202
 10
1.847903096971979
 20
0.432421561644333
 10
1.847903096971979
 20
0.3240944559788095
 10
1.847903096971979
 20
0.3213168378847518
 10
1.847903096971979
 20
0.3185392197908646
  0
LWPOLYLINE
  5
576
102
{ACAD_REACTORS
330
56E
102
}
330
557
100
AcDbEntity
  8
CONTINUOUS1
  6
CONTINUOUS
 62
     9
100
AcDbPolyline
 90
       79
 70
     0
 43
0.0
 10
1.93678687597961
 20
0.3185392197908646
 10
1.939564494073497
 20
0.3185392197908646
 10
1.942342112167555
 20
0.3185392197908646
 10
1.945119730261442
 20
0.3185392197908646
 10
1.9478973483555
 20
0.3185392197908646
 10
1.950674966449557
 20
0.3185392197908646
 10
1.950674966449557
 20
0.3213168378847518
 10
1.950674966449557
 20
0.3240944559788095
 10
1.950674966449557
 20
0.3713139635765974
 10
1.950674966449557
 20
0.3740915816706551
 10
1.950674966449557
 20
0.3764121066624857
 10
1.953452584543445
 20
0.3787302038875286
 10
1.956003614602682
 20
0.3809067470338623
 10
1.958366196022527
 20
0.3826818394989009
 10
1.961291878825964
 20
0.3848664295055646
 10
1.963519951262444
 20
0.3862728726654727
 10
1.965368566166691
 20
0.3871741628932459
 10
1.967340675013392
 20
0.3877239703094806
 10
1.97011829310745
 20
0.3879796721404323
 10
1.972895911201337
 20
0.3879796721404323
 10
1.975673529295395
 20
0.3875908056072608
 10
1.978408481664164
 20
0.3864723471903067
 10
1.980423256236154
 20
0.3848131875133736
 10
1.982347794679387
 20
0.3828455775268371
 10
1.983898127081747
 20
0.3807960064739295
 10
1.985408544715742
 20
0.3785266344276583
 10
1.986436641229861
 20
0.3760636905171855
 10
1.986784001671285
 20
0.3740915816706551
 10
1.986784001671285
 20
0.3713139635765974
 10
1.986784001671285
 20
0.3240944559788095
 10
1.986784001671285
 20
0.3213168378847518
 10
1.986784001671285
 20
0.3185392197908646
 10
1.989561619765343
 20
0.3185392197908646
 10
1.99233923785923
 20
0.3185392197908646
 10
1.995116855953288
 20
0.3185392197908646
 10
1.997894474047175
 20
0.3185392197908646
 10
2.000672092141233
 20
0.3185392197908646
 10
2.000672092141233
 20
0.3213168378847518
 10
2.000672092141233
 20
0.3240944559788095
 10
2.000672092141233
 20
0.3740915816706551
 10
2.000672092141233
 20
0.3768691997645424
 10
2.000394330331776
 20
0.3796468178584296
 10
1.999755478170161
 20
0.3824244359524873
 10
1.998811088018246
 20
0.3852020540465451
 10
1.997366726609445
 20
0.3877019103309753
 10
1.995116855953288
 20
0.3898406762634186
 10
1.992605073201364
 20
0.3920766850267801
 10
1.989896866645583
 20
0.3938452989406192
 10
1.987855574154341
 20
0.3953124560483166
 10
1.985252932763362
 20
0.3964598354054947
 10
1.982498395711534
 20
0.3975734953987744
 10
1.980191734394711
 20
0.3984640481231172
 10
1.978042304217613
 20
0.3990083828482516
 10
1.975645085390201
 20
0.3994741650645897
 10
1.972895911201337
 20
0.3994820966067327
 10
1.970108168823831
 20
0.3992749623910759
 10
1.967507332098964
 20
0.39861794944045
 10
1.965118580538248
 20
0.3974235736599217
 10
1.962966544042192
 20
0.3962323293606009
 10
1.960659803288965
 20
0.3947017891629803
 10
1.958231061444994
 20
0.3928857065760103
 10
1.95606354555176
 20
0.3912294853105327
 10
1.953417691445029
 20
0.3893715454285034
 10
1.950674966449557
 20
0.3873342800367259
 10
1.950674966449557
 20
0.3935349083285478
 10
1.950674966449557
 20
0.396312526422435
 10
1.950674966449557
 20
0.39075729023449
 10
1.950674966449557
 20
0.3935349083285478
 10
1.950674966449557
 20
0.396312526422435
 10
1.9478973483555
 20
0.396312526422435
 10
1.945119730261442
 20
0.396312526422435
 10
1.942342112167555
 20
0.396312526422435
 10
1.939564494073497
 20
0.396312526422435
 10
1.93678687597961
 20
0.396312526422435
 10
1.93678687597961
 20
0.3935349083285478
 10
1.93678687597961
 20
0.39075729023449
 10
1.93678687597961
 20
0.3240944559788095
 10
1.93678687597961
 20
0.3213168378847518
 10
1.93678687597961
 20
0.3185392197908646
  0
LWPOLYLINE
  5
577
102
{ACAD_REACTORS
330
571
102
}
330
557
100
AcDbEntity
  8
CONTINUOUS1
  6
CONTINUOUS
 62
     9
100
AcDbPolyline
 90
       11
 70
     0
 43
0.0
 10
1.87022141041027
 20
0.6423016628555165
 42
0.4142111682669343
 10
1.859440340867113
 20
0.6315205164371496
 10
1.859440340867113
 20
0.5675830496674626
 42
0.4142135624923141
 10
1.87022141041027
 20
0.5568015451239608
 10
1.979274912904006
 20
0.5568015451239608
 10
1.936536734983437
 20
0.5891612556392834
 10
1.949552787236687
 20
0.6063515462445826
 10
1.986189823671427
 20
0.5786120318725812
 10
1.986189823671427
 20
0.6315204283122289
 42
0.414213562373068
 10
1.975408585378009
 20
0.6423016628555165
 10
1.87022141041027
 20
0.6423016628555165
  0
LWPOLYLINE
  5
578
330
557
100
AcDbEntity
  8
CONTINUOUS1
 62
     9
100
AcDbPolyline
 90
        3
 70
     1
 43
0.0
 10
2.206215831096049
 20
0.3296496921667545
 10
2.206215831096049
 20
0.3829908495624754
 42
1.076204956628191
 10
2.184394809861462
 20
0.3296496921667545
  0
LWPOLYLINE
  5
579
330
557
100
AcDbEntity
  8
CONTINUOUS1
  6
CONTINUOUS
 62
     9
100
AcDbPolyline
 90
       22
 70
     0
 43
0.0
 10
2.201629434357208
 20
0.3959268898694763
 42
1.048263601673104
 10
2.180190518556944
 20
0.3185392197908646
 10
2.214548685378051
 20
0.3185392197908646
 10
2.217326303472109
 20
0.3185392197908646
 10
2.220103921565996
 20
0.3185392197908646
 10
2.220103921565996
 20
0.3213168378847518
 10
2.220103921565996
 20
0.3240944559788095
 10
2.220103921565996
 20
0.432421561644333
 10
2.220103921565996
 20
0.4351991797382202
 10
2.220103921565996
 20
0.4379767978321075
 10
2.217326303472109
 20
0.4379767978321075
 10
2.214548685378051
 20
0.4379767978321075
 10
2.211771067283994
 20
0.4379767978321075
 10
2.208993449190106
 20
0.4379767978321075
 10
2.206215831096049
 20
0.4379767978321075
 10
2.206215831096049
 20
0.4351991797382202
 10
2.206215831096049
 20
0.432421561644333
 10
2.206215831096049
 20
0.40186776261038
 10
2.206215831096049
 20
0.3990901445163222
 10
2.206215831096049
 20
0.3971180356697919
 10
2.206215831096049
 20
0.3941013219383653
 10
2.200684753003745
 20
0.3963029105415221
  0
LWPOLYLINE
  5
57A
330
557
100
AcDbEntity
  8
CONTINUOUS1
  6
CONTINUOUS
 62
     9
100
AcDbPolyline
 90
       21
 70
     0
 43
0.0
 10
2.114554433994531
 20
0.3185392197908646
 10
2.117332052088588
 20
0.3185392197908646
 10
2.120109670182646
 20
0.3185392197908646
 10
2.122887288276533
 20
0.3185392197908646
 10
2.125664906370591
 20
0.3185392197908646
 10
2.128442524464478
 20
0.3185392197908646
 10
2.128442524464478
 20
0.3213168378847518
 10
2.128442524464478
 20
0.3240944559788095
 10
2.128442524464478
 20
0.39075729023449
 10
2.128442524464478
 20
0.3935349083285478
 10
2.128443163460961
 20
0.396312526422435
 10
2.125664906370591
 20
0.396312526422435
 10
2.122887288276533
 20
0.396312526422435
 10
2.120109670182646
 20
0.396312526422435
 10
2.117332052088588
 20
0.396312526422435
 10
2.114554433994531
 20
0.396312526422435
 10
2.114554433994531
 20
0.3935349083285478
 10
2.114554433994531
 20
0.39075729023449
 10
2.114554433994531
 20
0.3240944559788095
 10
2.114554433994531
 20
0.3213168378847518
 10
2.114554433994531
 20
0.3185392197908646
  0
LWPOLYLINE
  5
57B
102
{ACAD_REACTORS
330
56D
102
}
330
557
100
AcDbEntity
  8
CONTINUOUS1
 62
     9
100
AcDbPolyline
 90
       18
 70
     1
 43
0.0
 10
2.038695210178193
 20
0.3739249696649272
 42
-0.0075148293555971
 10
2.039356013682695
 20
0.3758094905988973
 42
-0.004657993094582
 10
2.04012694049155
 20
0.3774326474991771
 42
-0.0194573042781228
 10
2.04122312161596
 20
0.3793376189554469
 42
-0.025588215895386
 10
2.042869643316212
 20
0.3815052047880845
 42
-0.0513535452749696
 10
2.045993086639416
 20
0.3844411686669678
 42
-0.0711488595792178
 10
2.05029649225165
 20
0.387030374336121
 42
-0.0589617480196389
 10
2.054368528547261
 20
0.388163142544784
 42
-0.055567443413236
 10
2.059090479130848
 20
0.3885472203085105
 42
-0.0505831829207604
 10
2.064047301410798
 20
0.3881580670007456
 42
-0.0805511158347094
 10
2.069747668259342
 20
0.386212311056966
 42
-0.0997279791482863
 10
2.074247886376642
 20
0.3821694970928324
 42
-0.05798586112659
 10
2.07633439185648
 20
0.3782279079159712
 42
-0.0542300556945522
 10
2.077638444514636
 20
0.3736673778522577
 42
-0.0393615860447316
 10
2.078265858667439
 20
0.3672377124287327
 10
2.037441464426283
 20
0.3672377124287327
 42
-0.0115879268951182
 10
2.037725560475539
 20
0.3695945556602855
 42
-0.0015814549261624
 10
2.038127018079851
 20
0.3718162665023788
 42
-0.0028557092809637
  0
LWPOLYLINE
  5
57C
102
{ACAD_REACTORS
330
56D
102
}
330
557
100
AcDbEntity
  8
CONTINUOUS1
 62
     9
100
AcDbPolyline
 90
       47
 70
     1
 43
0.0
 10
2.043762176988739
 20
0.3371934049870338
 42
-0.0441414060654578
 10
2.041222399913497
 20
0.3406137919386656
 42
-0.0277319653937625
 10
2.040074001493767
 20
0.342908764392917
 42
-0.0164279047561354
 10
2.03912434719442
 20
0.3453802682993233
 42
-0.0066863653619568
 10
2.038383944154166
 20
0.3480745345536893
 42
-0.0233064481414024
 10
2.037863384418049
 20
0.3511569156956971
 42
-0.0386937426355895
 10
2.037439214412732
 20
0.3572253591981966
 10
2.09083328806415
 20
0.3572253591981966
 10
2.09083328806415
 20
0.367418047889942
 42
0.1310126142130034
 10
2.086597191819212
 20
0.384827874269718
 42
0.1175696112009137
 10
2.077965163461872
 20
0.3945709905457311
 42
0.1103270754359441
 10
2.066615628186159
 20
0.3987237922934814
 42
0.0651926395407652
 10
2.059102557033643
 20
0.3992029596881825
 42
0.0935138111535395
 10
2.048012240298962
 20
0.3974214224988377
 42
0.0771718076448178
 10
2.040894364920664
 20
0.3939838910158646
 42
0.0650775313207389
 10
2.035397751656748
 20
0.3895585675142574
 42
0.0516650400356126
 10
2.030723836739614
 20
0.3836759482660459
 42
0.0469242136237456
 10
2.028122290424708
 20
0.3788161200391191
 42
0.051223632580995
 10
2.026595295387071
 20
0.3746909211984648
 42
0.037832980863087
 10
2.02519517139601
 20
0.3691379050324035
 42
0.0380040356892352
 10
2.024403782199872
 20
0.3632512380642088
 42
0.0396963751324013
 10
2.024403782199872
 20
0.3535837675287898
 42
0.0477329049617882
 10
2.025940180595942
 20
0.3438434486300826
 42
0.0632736306522388
 10
2.027823357022132
 20
0.3384198641380185
 42
0.0887240198666166
 10
2.03298350835573
 20
0.3301577047572555
 42
0.0593249496237894
 10
2.038147862544949
 20
0.3253225760990977
 42
0.0586814778487906
 10
2.04445082971765
 20
0.321706383342701
 42
0.039275593781097
 10
2.049756446549199
 20
0.3198508322162757
 42
0.0294048595279412
 10
2.054845807362514
 20
0.3187611372579231
 42
0.0245538255625254
 10
2.060277276366523
 20
0.3182910719351076
 42
0.0484050884053723
 10
2.069164787393422
 20
0.318538586832347
 42
0.0313804255658969
 10
2.076093852673157
 20
0.3199276859149341
 42
0.0210229524573495
 10
2.081421799827726
 20
0.3215361459892283
 42
0.0098439804496088
 10
2.089473324692026
 20
0.3247109995190845
 10
2.089473324692026
 20
0.3403736793267176
 42
-0.1158714317854296
 10
2.088714348426808
 20
0.3389070845880729
 42
-0.0273968376187686
 10
2.085939360030554
 20
0.3368770470617056
 42
-0.0245127629396402
 10
2.083474088120656
 20
0.3353916503899091
 42
-0.0174018213192927
 10
2.080637160672413
 20
0.3339310062675627
 42
-0.0303578783463293
 10
2.075349268004035
 20
0.3316766063780965
 42
-0.0163288525489418
 10
2.071577587289514
 20
0.3305939790356552
 42
-0.0174430116847887
 10
2.069355720146038
 20
0.33012803560564
 42
-0.0109219578339942
 10
2.067051578922619
 20
0.329799142463799
 42
-0.0520451680420305
 10
2.059067236066457
 20
0.329799142463799
 42
-0.0139513426612014
 10
2.057268456374604
 20
0.3300115523971959
 42
-0.0578723374760443
 10
2.051826841083116
 20
0.3315192009325761
 42
-0.0508775714496942
 10
2.047803880554656
 20
0.3335955965084172
 42
-0.061605978241212
  0
CIRCLE
  5
57D
330
557
100
AcDbEntity
  8
CONTINUOUS1
 62
     9
100
AcDbCircle
 10
2.12149847922959
 20
0.4213110892682726
 30
0.0
 40
0.0083328542819542
  0
LWPOLYLINE
  5
57E
102
{ACAD_REACTORS
330
56C
102
}
330
557
100
AcDbEntity
  8
CONTINUOUS1
 62
     9
100
AcDbPolyline
 90
       18
 70
     1
 43
0.0
 10
2.258394368401841
 20
0.3739249696649272
 42
-0.0075148293555971
 10
2.259055171906343
 20
0.3758094905988973
 42
-0.004657993094582
 10
2.259826098715198
 20
0.3774326474991771
 42
-0.0194573042781228
 10
2.260922279839608
 20
0.3793376189554469
 42
-0.025588215895386
 10
2.26256880153986
 20
0.3815052047880845
 42
-0.0513535452749696
 10
2.265692244863064
 20
0.3844411686669678
 42
-0.0711488595792178
 10
2.269995650475298
 20
0.387030374336121
 42
-0.0589617480196389
 10
2.274067686770738
 20
0.388163142544784
 42
-0.055567443413236
 10
2.278789637354496
 20
0.3885472203085105
 42
-0.0505831829207604
 10
2.283746459634446
 20
0.3881580670007456
 42
-0.0805511158347094
 10
2.289446826482819
 20
0.386212311056966
 42
-0.0997279791482863
 10
2.29394704460012
 20
0.3821694970928324
 42
-0.05798586112659
 10
2.296033550079958
 20
0.3782279079159712
 42
-0.0542300556945522
 10
2.297337602738284
 20
0.3736673778522577
 42
-0.0393615860447316
 10
2.297965016891087
 20
0.3672377124287327
 10
2.257140622649931
 20
0.3672377124287327
 42
-0.0115879268951182
 10
2.257424718699017
 20
0.3695945556602855
 42
-0.0015814549261624
 10
2.257826176303499
 20
0.3718162665023788
 42
-0.0028557092809637
  0
LWPOLYLINE
  5
57F
102
{ACAD_REACTORS
330
56C
102
}
330
557
100
AcDbEntity
  8
CONTINUOUS1
 62
     9
100
AcDbPolyline
 90
       47
 70
     1
 43
0.0
 10
2.263461335212387
 20
0.3371934049870338
 42
-0.0441414060654578
 10
2.260921558137145
 20
0.3406137919386656
 42
-0.0277319653937625
 10
2.259773159717415
 20
0.342908764392917
 42
-0.0164279047561354
 10
2.258823505418067
 20
0.3453802682993233
 42
-0.0066863653619568
 10
2.258083102377813
 20
0.3480745345536893
 42
-0.0233064481414024
 10
2.257562542641696
 20
0.3511569156956971
 42
-0.0386937426355895
 10
2.257138372636379
 20
0.3572253591981966
 10
2.310532446287798
 20
0.3572253591981966
 10
2.310532446287798
 20
0.367418047889942
 42
0.1310126142130034
 10
2.30629635004286
 20
0.384827874269718
 42
0.1175696112009137
 10
2.29766432168552
 20
0.3945709905457311
 42
0.1103270754359441
 10
2.286314786409807
 20
0.3987237922934814
 42
0.0651926395407652
 10
2.278801715257291
 20
0.3992029596881825
 42
0.0935138111535395
 10
2.26771139852261
 20
0.3974214224988377
 42
0.0771718076448178
 10
2.260593523144311
 20
0.3939838910158646
 42
0.0650775313207389
 10
2.255096909880396
 20
0.3895585675142574
 42
0.0516650400356126
 10
2.250422994963262
 20
0.3836759482660459
 42
0.0469242136237456
 10
2.247821448648355
 20
0.3788161200391191
 42
0.051223632580995
 10
2.246294453610719
 20
0.3746909211984648
 42
0.037832980863087
 10
2.244894329619658
 20
0.3691379050324035
 42
0.0380040356892352
 10
2.24410294042352
 20
0.3632512380642088
 42
0.0396963751324013
 10
2.24410294042352
 20
0.3535837675287898
 42
0.0477329049617882
 10
2.245639338819589
 20
0.3438434486300826
 42
0.0632736306522388
 10
2.24752251524578
 20
0.3384198641380185
 42
0.0887240198666166
 10
2.252682666579378
 20
0.3301577047572555
 42
0.0593249496237894
 10
2.257847020768597
 20
0.3253225760990977
 42
0.0586814778487906
 10
2.264149987941298
 20
0.321706383342701
 42
0.039275593781097
 10
2.269455604772847
 20
0.3198508322162757
 42
0.0294048595279412
 10
2.274544965586162
 20
0.3187611372579231
 42
0.0245538255625254
 10
2.279976434590171
 20
0.3182910719351076
 42
0.0484050884053723
 10
2.288863945616899
 20
0.318538586832347
 42
0.0313804255658969
 10
2.295793010896804
 20
0.3199276859149341
 42
0.0210229524573495
 10
2.301120958051374
 20
0.3215361459892283
 42
0.0098439804496088
 10
2.309172482915673
 20
0.3247109995190845
 10
2.309172482915673
 20
0.3403736793267176
 42
-0.1158714317854296
 10
2.308413506650456
 20
0.3389070845880729
 42
-0.0273968376187686
 10
2.305638518254202
 20
0.3368770470617056
 42
-0.0245127629396402
 10
2.303173246344304
 20
0.3353916503899091
 42
-0.0174018213192927
 10
2.300336318896061
 20
0.3339310062675627
 42
-0.0303578783463293
 10
2.295048426227683
 20
0.3316766063780965
 42
-0.0163288525489418
 10
2.291276745513162
 20
0.3305939790356552
 42
-0.0174430116847887
 10
2.289054878369686
 20
0.33012803560564
 42
-0.0109219578339942
 10
2.286750737146267
 20
0.329799142463799
 42
-0.0520451680420305
 10
2.278766394290105
 20
0.329799142463799
 42
-0.0139513426612014
 10
2.276967614598081
 20
0.3300115523971959
 42
-0.0578723374760443
 10
2.271525999306593
 20
0.3315192009325761
 42
-0.0508775714496942
 10
2.267503038778134
 20
0.3335955965084172
 42
-0.061605978241212
  0
LWPOLYLINE
  5
580
102
{ACAD_REACTORS
330
569
102
}
330
557
100
AcDbEntity
  8
CONTINUOUS1
  6
CONTINUOUS
 62
     9
100
AcDbPolyline
 90
        4
 70
     0
 43
0.0
 10
2.278033314329977
 20
0.6359049480514618
 10
2.315470001287028
 20
0.5783643742108216
 10
2.240596983623252
 20
0.578364196085659
 10
2.278033126829914
 20
0.635904589926327
  0
HATCH
  5
581
330
557
100
AcDbEntity
  8
CONTINUOUS1
 62
     9
100
AcDbHatch
 10
0.0
 20
0.0
 30
0.0
210
0.0
220
0.0
230
1.0
  2
SOLID
 70
     1
 71
     1
 91
        1
 92
        1
 93
       79
 72
     1
 10
2.768100195328234
 20
0.3193447290382215
 11
2.770072304174934
 21
0.3185392197908646
 72
     1
 10
2.770072304174934
 20
0.3185392197908646
 11
2.776853223288274
 21
0.3177266059119579
 72
     1
 10
2.776853223288274
 20
0.3177266059119579
 11
2.783960394644882
 21
0.3185392197908646
 72
     1
 10
2.783960394644882
 20
0.3185392197908646
 11
2.78673801273894
 21
0.3190948244196652
 72
     1
 10
2.78673801273894
 20
0.3190948244196652
 11
2.788710121585641
 21
0.3197586133924238
 72
     1
 10
2.788710121585641
 20
0.3197586133924238
 11
2.790321140080184
 21
0.3205113286375654
 72
     1
 10
2.790321140080184
 20
0.3205113286375654
 11
2.792293248926885
 21
0.3213168378847518
 72
     1
 10
2.792293248926885
 20
0.3213168378847518
 11
2.795070867020772
 21
0.3223769226657969
 72
     1
 10
2.795070867020772
 20
0.3223769226657969
 11
2.79784848511483
 21
0.323705589445638
 72
     1
 10
2.79784848511483
 20
0.323705589445638
 11
2.79784848511483
 21
0.3240944559788095
 72
     1
 10
2.79784848511483
 20
0.3240944559788095
 11
2.79784848511483
 21
0.3268720740728673
 72
     1
 10
2.79784848511483
 20
0.3268720740728673
 11
2.79784848511483
 21
0.3296496921667545
 72
     1
 10
2.79784848511483
 20
0.3296496921667545
 11
2.79784848511483
 21
0.3324273102608122
 72
     1
 10
2.79784848511483
 20
0.3324273102608122
 11
2.79784848511483
 21
0.3348160618216985
 72
     1
 10
2.79784848511483
 20
0.3348160618216985
 11
2.795070867020772
 21
0.3340302206436268
 72
     1
 10
2.795070867020772
 20
0.3340302206436268
 11
2.792365821896428
 21
0.3330627471016219
 72
     1
 10
2.792365821896428
 20
0.3330627471016219
 11
2.789656082622375
 21
0.3319722328952826
 72
     1
 10
2.789656082622375
 20
0.3319722328952826
 11
2.787543521986126
 21
0.3310528956835701
 72
     1
 10
2.787543521986126
 20
0.3310528956835701
 11
2.785932503491583
 21
0.3304552014141114
 72
     1
 10
2.785932503491583
 20
0.3304552014141114
 11
2.783960394644882
 21
0.3296496921667545
 72
     1
 10
2.783960394644882
 20
0.3296496921667545
 11
2.781182776550995
 21
0.3294142968159695
 72
     1
 10
2.781182776550995
 20
0.3294142968159695
 11
2.778405158456937
 21
0.3296496921667545
 72
     1
 10
2.778405158456937
 20
0.3296496921667545
 11
2.776433049610236
 21
0.3304552014141114
 72
     1
 10
2.776433049610236
 20
0.3304552014141114
 11
2.774670597445183
 21
0.3314126783258194
 72
     1
 10
2.774670597445183
 20
0.3314126783258194
 11
2.772849922268992
 21
0.3324273102608122
 72
     1
 10
2.772849922268992
 20
0.3324273102608122
 11
2.771309634063275
 21
0.3337080859405437
 72
     1
 10
2.771309634063275
 20
0.3337080859405437
 11
2.770072304174934
 21
0.33520492835487
 72
     1
 10
2.770072304174934
 20
0.33520492835487
 11
2.769017502196309
 21
0.3370752134098898
 72
     1
 10
2.769017502196309
 20
0.3370752134098898
 11
2.768100195328234
 21
0.3387880556961141
 72
     1
 10
2.768100195328234
 20
0.3387880556961141
 11
2.767294686081047
 21
0.3407601645426444
 72
     1
 10
2.767294686081047
 20
0.3407601645426444
 11
2.767294686081047
 21
0.3435377826367021
 72
     1
 10
2.767294686081047
 20
0.3435377826367021
 11
2.767294686081047
 21
0.3796468178584296
 72
     1
 10
2.767294686081047
 20
0.3796468178584296
 11
2.767294686081047
 21
0.3824244359524873
 72
     1
 10
2.767294686081047
 20
0.3824244359524873
 11
2.767294686081047
 21
0.3852020540465451
 72
     1
 10
2.767294686081047
 20
0.3852020540465451
 11
2.770072304174934
 21
0.3852020540465451
 72
     1
 10
2.770072304174934
 20
0.3852020540465451
 11
2.772849922268992
 21
0.3852020540465451
 72
     1
 10
2.772849922268992
 20
0.3852020540465451
 11
2.78673801273894
 21
0.3852020540465451
 72
     1
 10
2.78673801273894
 20
0.3852020540465451
 11
2.789515630832827
 21
0.3852020540465451
 72
     1
 10
2.789515630832827
 20
0.3852020540465451
 11
2.792293248926885
 21
0.3852020540465451
 72
     1
 10
2.792293248926885
 20
0.3852020540465451
 11
2.792293248926885
 21
0.3879796721404323
 72
     1
 10
2.792293248926885
 20
0.3879796721404323
 11
2.792293248926885
 21
0.39075729023449
 72
     1
 10
2.792293248926885
 20
0.39075729023449
 11
2.792293248926885
 21
0.3935349083285478
 72
     1
 10
2.792293248926885
 20
0.3935349083285478
 11
2.792293248926885
 21
0.396312526422435
 72
     1
 10
2.792293248926885
 20
0.396312526422435
 11
2.789515630832827
 21
0.396312526422435
 72
     1
 10
2.789515630832827
 20
0.396312526422435
 11
2.78673801273894
 21
0.396312526422435
 72
     1
 10
2.78673801273894
 20
0.396312526422435
 11
2.772849922268992
 21
0.396312526422435
 72
     1
 10
2.772849922268992
 20
0.396312526422435
 11
2.770072304174934
 21
0.396312526422435
 72
     1
 10
2.770072304174934
 20
0.396312526422435
 11
2.767294686081047
 21
0.396312526422435
 72
     1
 10
2.767294686081047
 20
0.396312526422435
 11
2.767294686081047
 21
0.3990901445163222
 72
     1
 10
2.767294686081047
 20
0.3990901445163222
 11
2.767294686081047
 21
0.40186776261038
 72
     1
 10
2.767294686081047
 20
0.40186776261038
 11
2.767294686081047
 21
0.4046453807044377
 72
     1
 10
2.767294686081047
 20
0.4046453807044377
 11
2.767294686081047
 21
0.4074229987983249
 72
     1
 10
2.767294686081047
 20
0.4074229987983249
 11
2.767294686081047
 21
0.4101951770153965
 72
     1
 10
2.767294686081047
 20
0.4101951770153965
 11
2.765072591605903
 21
0.4082562842266957
 72
     1
 10
2.765072591605903
 20
0.4082562842266957
 11
2.762850497130589
 21
0.4063119515608383
 72
     1
 10
2.762850497130589
 20
0.4063119515608383
 11
2.749517930279555
 21
0.3946459555660344
 72
     1
 10
2.749517930279555
 20
0.3946459555660344
 11
2.747295835804241
 21
0.392701622900177
 72
     1
 10
2.747295835804241
 20
0.392701622900177
 11
2.745037428605176
 21
0.390774564389972
 72
     1
 10
2.745037428605176
 20
0.390774564389972
 11
2.742784501548531
 21
0.3888087685731994
 72
     1
 10
2.742784501548531
 20
0.3888087685731994
 11
2.740784200988546
 21
0.3870634024897304
 72
     1
 10
2.740784200988546
 20
0.3870634024897304
 11
2.73865097726642
 21
0.3852020540465451
 72
     1
 10
2.73865097726642
 20
0.3852020540465451
 11
2.74229612323521
 21
0.3852020540465451
 72
     1
 10
2.74229612323521
 20
0.3852020540465451
 11
2.745073741329097
 21
0.3852020540465451
 72
     1
 10
2.745073741329097
 20
0.3852020540465451
 11
2.747851359423155
 21
0.3852020540465451
 72
     1
 10
2.747851359423155
 20
0.3852020540465451
 11
2.750628977517042
 21
0.3852020540465451
 72
     1
 10
2.750628977517042
 20
0.3852020540465451
 11
2.7534065956111
 21
0.3852020540465451
 72
     1
 10
2.7534065956111
 20
0.3852020540465451
 11
2.7534065956111
 21
0.3824244359524873
 72
     1
 10
2.7534065956111
 20
0.3824244359524873
 11
2.7534065956111
 21
0.3796468178584296
 72
     1
 10
2.7534065956111
 20
0.3796468178584296
 11
2.7534065956111
 21
0.3379825464487572
 72
     1
 10
2.7534065956111
 20
0.3379825464487572
 11
2.7534065956111
 21
0.33520492835487
 72
     1
 10
2.7534065956111
 20
0.33520492835487
 11
2.753795462144271
 21
0.3324273102608122
 72
     1
 10
2.753795462144271
 20
0.3324273102608122
 11
2.754795404658043
 21
0.3296496921667545
 72
     1
 10
2.754795404658043
 20
0.3296496921667545
 11
2.756573080238158
 21
0.3272609406060388
 72
     1
 10
2.756573080238158
 20
0.3272609406060388
 11
2.758810686828073
 21
0.3252801639712293
 72
     1
 10
2.758810686828073
 20
0.3252801639712293
 11
2.760933940645745
 21
0.323705589445638
 72
     1
 10
2.760933940645745
 20
0.323705589445638
 11
2.762735804659516
 21
0.322316540818179
 72
     1
 10
2.762735804659516
 20
0.322316540818179
 11
2.764517067986989
 21
0.3213168378847518
 72
     1
 10
2.764517067986989
 20
0.3213168378847518
 11
2.766384493876135
 21
0.3202550358792001
 72
     1
 10
2.766384493876135
 20
0.3202550358792001
 11
2.768100195328234
 21
0.3193447290382215
 97
        1
330
590
 75
     0
 76
     1
 98
        1
 10
-6.623918024059631
 20
-0.1308261527660757
  0
HATCH
  5
582
330
557
100
AcDbEntity
  8
CONTINUOUS1
 62
     9
100
AcDbHatch
 10
0.0
 20
0.0
 30
0.0
210
0.0
220
0.0
230
1.0
  2
SOLID
 70
     1
 71
     1
 91
        1
 92
        1
 93
        4
 72
     1
 10
2.728340921353581
 20
0.3820863083685713
 11
2.728340921353581
 21
0.3931967807444612
 72
     2
 10
2.706296461134866
 20
0.3584765545696773
 40
0.0411272699308212
 50
57.58784372121493
 51
302.4121562787851
 73
     1
 72
     1
 10
2.728340921353581
 20
0.3237563283948935
 11
2.728340921353581
 21
0.3348668007707834
 72
     2
 10
2.710219154518597
 20
0.3584765545696773
 40
0.0297627100188455
 50
52.49180531393309
 51
307.5081946860668
 73
     0
 97
        1
330
591
 75
     0
 76
     1
 98
        1
 10
-6.623918024059631
 20
-0.1308261527660757
  0
HATCH
  5
583
330
557
100
AcDbEntity
  8
CONTINUOUS1
 62
     9
100
AcDbHatch
 10
0.0
 20
0.0
 30
0.0
210
0.0
220
0.0
230
1.0
  2
SOLID
 70
     1
 71
     1
 91
        2
 92
       16
 93
       18
 72
     2
 10
2.660106775440886
 20
0.3528851545616271
 40
0.0664396543383195
 50
198.4619958207184
 51
200.1842354247362
 73
     0
 72
     2
 10
2.685247637907942
 20
0.3352454129199108
 40
0.0964455865170718
 50
204.8718608834223
 51
205.9393865440838
 73
     0
 72
     2
 10
2.623533366964867
 20
0.3643060230231959
 40
0.0282500412151291
 50
207.6881291807199
 51
212.1468522298004
 73
     0
 72
     2
 10
2.621601394969284
 20
0.3643452262975983
 40
0.0266120055644414
 50
214.2891439355242
 51
220.1522516266461
 73
     0
 72
     2
 10
2.617077869529617
 20
0.3678076991082785
 40
0.0209235948276606
 50
220.8926611798598
 51
232.6516971443604
 73
     0
 72
     2
 10
2.615587881266415
 20
0.3706911836161677
 40
0.0177364140530904
 50
230.82683481755
 51
247.1055208447427
 73
     0
 72
     2
 10
2.61551009202811
 20
0.370391197006481
 40
0.0179834923776298
 50
247.705671628196
 51
261.2030821651476
 73
     0
 72
     2
 10
2.616843448344337
 20
0.36717654635147
 40
0.0213802051303731
 50
258.9888491839005
 51
271.7108857747937
 73
     0
 72
     2
 10
2.61804177786857
 20
0.3639169558453035
 40
0.0246366297664502
 50
268.6975355392293
 51
280.2804749251185
 73
     0
 72
     2
 10
2.619289082162453
 20
0.369608213028888
 40
0.0188153276110621
 50
279.6361688894481
 51
298.0573516433601
 73
     0
 72
     2
 10
2.62035526946951
 20
0.3730218708912919
 40
0.0153157982727258
 50
300.5449189786832
 51
323.3255645340616
 73
     0
 72
     2
 10
2.616745826955981
 20
0.3712331984285728
 40
0.0192925244149342
 50
325.4679485472495
 51
338.7424644189135
 73
     0
 72
     2
 10
2.614415550741325
 20
0.3699536532293334
 40
0.021930916939798
 50
337.8342522704158
 51
350.2507032151336
 73
     0
 72
     2
 10
2.595569537316607
 20
0.3664737796651569
 40
0.0410947224300684
 50
349.9184788839779
 51
358.9348353768807
 73
     0
 72
     1
 10
2.636657158546572
 20
0.3672377124287327
 11
2.595832764305416
 21
0.3672377124287327
 72
     2
 10
2.64681494050507
 20
0.3622878182718704
 40
0.0512219068584594
 50
185.5455046984017
 51
188.2011430538267
 73
     0
 72
     2
 10
2.947529825566531
 20
0.3072422364761533
 40
0.3569017845664973
 50
190.0614576287786
 51
190.4239000976597
 73
     0
 72
     2
 10
2.781405060710635
 20
0.3231292571124805
 40
0.1911897814441117
 50
194.7530117273464
 51
195.4074903055051
 73
     0
 97
        1
330
58A
 92
        1
 93
       47
 72
     2
 10
2.620217603464781
 20
0.3532598947256552
 40
0.024175292391828
 50
138.3496533346525
 51
148.4595555609697
 73
     0
 72
     2
 10
2.619712462684475
 20
0.3521059761880958
 40
0.0231523339774945
 50
150.2396979683238
 51
156.5937677099167
 73
     0
 72
     2
 10
2.635591692141173
 20
0.3585924636724107
 40
0.0403031923619966
 50
157.0988242481766
 51
160.8634840437793
 73
     0
 72
     2
 10
2.697878267298235
 20
0.3744094790060188
 40
0.1044765553251899
 50
163.8678439431618
 51
165.4002231692523
 73
     0
 72
     2
 10
2.629560613196424
 20
0.3551965516179018
 40
0.0335500157708659
 50
167.7439659185813
 51
173.0844435487629
 73
     0
 72
     2
 10
2.635192067538312
 20
0.356927593697432
 40
0.0393626795107538
 50
171.569896694779
 51
180.4334275361526
 73
     0
 72
     1
 10
2.595830514291865
 20
0.3572253591981966
 11
2.649224587943283
 21
0.3572253591981966
 72
     1
 10
2.649224587943283
 20
0.3572253591981966
 11
2.649224587943283
 21
0.367418047889942
 72
     2
 10
2.614455106004424
 20
0.36817833181333
 40
0.0347777932873957
 50
358.7473463266968
 51
388.6031824377397
 73
     1
 72
     2
 10
2.620241090430116
 20
0.3715980049238856
 40
0.0280617767156418
 50
28.12879544758867
 51
54.95063515022651
 73
     1
 72
     2
 10
2.621386031958198
 20
0.3712425033481648
 40
0.0277188046407913
 50
57.31076922041467
 51
82.49402453740287
 73
     1
 72
     2
 10
2.619420696306377
 20
0.3702747845720343
 40
0.0289922752746188
 50
78.89077226525315
 51
93.81071159195634
 73
     1
 72
     2
 10
2.61666981386139
 20
0.3689225917587154
 40
0.0302915785144063
 50
88.44115042377268
 51
109.8107905333598
 73
     1
 72
     2
 10
2.613914251529578
 20
0.3727814463646621
 40
0.025759254820317
 50
106.9521716693689
 51
124.6036615698551
 73
     1
 72
     2
 10
2.613465558234083
 20
0.370745022031955
 40
0.0272234165647708
 50
121.3907074886562
 51
136.2843774046682
 73
     1
 72
     2
 10
2.61984129549699
 20
0.3640611980123525
 40
0.0364531928221075
 50
135.6167017519914
 51
147.4469381469267
 73
     1
 72
     2
 10
2.61364925277008
 20
0.367416191215975
 40
0.029433018103049
 50
146.4659438100718
 51
157.2122986253002
 73
     1
 72
     2
 10
2.605830545336452
 20
0.3693204846406612
 40
0.021524679866432
 50
153.8226534473673
 51
165.5519937306936
 73
     1
 72
     2
 10
2.620928292763789
 20
0.3626756489903522
 40
0.0378968651110212
 50
161.5152717472222
 51
170.1818189345486
 73
     1
 72
     2
 10
2.621858806985419
 20
0.3609961355594354
 40
0.0391287629611649
 50
167.9903558377852
 51
176.6960496179406
 73
     1
 72
     2
 10
2.643582978214989
 20
0.3584175027964993
 40
0.0609797779044613
 50
175.4535176021835
 51
184.5464823978165
 73
     1
 72
     2
 10
2.634461745709457
 20
0.3567421254133762
 40
0.0517631080522547
 50
183.4981100536811
 51
194.4293890325717
 73
     1
 72
     2
 10
2.606616363011643
 20
0.3485424727520853
 40
0.0227749164074823
 50
191.9070472796617
 51
206.3889894285749
 73
     1
 72
     2
 10
2.611891972958808
 20
0.3487142209845105
 40
0.0276640261495292
 50
201.8464660881789
 51
222.1274079961564
 73
     1
 72
     2
 10
2.614260886541605
 20
0.3494265410796771
 40
0.0299175639630396
 50
220.0955596825687
 51
233.675919742643
 73
     1
 72
     2
 10
2.615043617984982
 20
0.3502744687142416
 40
0.0310646393940601
 50
233.439172883081
 51
246.8725717081741
 73
     1
 72
     2
 10
2.617287813857058
 20
0.3544982286952896
 40
0.0358327073408587
 50
246.225226272516
 51
255.221905210868
 73
     1
 72
     2
 10
2.619948998501217
 20
0.3625382973605903
 40
0.0442887031977099
 50
254.5461626614633
 51
261.2833187503212
 73
     1
 72
     2
 10
2.620736026381952
 20
0.3737944212376279
 40
0.0555418412898209
 50
262.2405778669429
 51
267.8667696922759
 73
     1
 72
     2
 10
2.621836975360784
 20
0.3642090186578022
 40
0.0460271287848912
 50
266.052771916529
 51
277.1377488483282
 73
     1
 72
     2
 10
2.619964912664253
 20
0.3743809067507015
 40
0.0563559280448383
 50
277.7413046158851
 51
284.9308091026926
 73
     1
 72
     2
 10
2.618030151341718
 20
0.3840626065593293
 40
0.066212197599104
 50
284.3899023200388
 51
289.2072984924262
 73
     1
 72
     2
 10
2.563217362272786
 20
0.5275821421545017
 40
0.2198223362827564
 50
290.3921624947599
 51
292.6481637583185
 73
     1
 72
     1
 10
2.647864624571159
 20
0.3247109995190845
 11
2.647864624571159
 21
0.3403736793267176
 72
     2
 10
2.644363348913712
 20
0.3412559357119335
 40
0.0036107211964762
 50
14.14304208538207
 51
40.58091881066668
 73
     0
 72
     2
 10
2.627207680057823
 20
0.3631952191068923
 40
0.0313981308170948
 50
50.67407287050084
 51
56.95139529671177
 73
     0
 72
     2
 10
2.627957909630271
 20
0.3612619791193873
 40
0.0293716166250665
 50
56.1214437023511
 51
61.73823032856219
 73
     0
 72
     2
 10
2.619469209093497
 20
0.3754051721516405
 40
0.0458548879987643
 50
60.76359459619574
 51
64.75139576529142
 73
     0
 72
     2
 10
2.617836427563542
 20
0.3763099703744814
 40
0.047382263147091
 50
63.43218982647736
 51
70.38756687457111
 73
     0
 72
     2
 10
2.615283773187175
 20
0.3888655443368394
 40
0.0600934929530562
 50
72.11336347133137
 51
75.85532826122248
 73
     0
 72
     2
 10
2.622181903739371
 20
0.3621959788453819
 40
0.0325472503124579
 50
76.15762347795421
 51
80.15486191885152
 73
     0
 72
     2
 10
2.61906759228913
 20
0.3826983276081179
 40
0.0532819675598692
 50
80.6249603204364
 51
83.12798914716191
 73
     0
 72
     2
 10
2.621450707373671
 20
0.368048205585744
 40
0.0384568363547721
 50
84.04143915734451
 51
95.95856084265548
 73
     0
 72
     2
 10
2.62036466853374
 20
0.3621321664056745
 40
0.0324633646414816
 50
95.13601524590475
 51
98.33322003417473
 73
     0
 72
     2
 10
2.61942995611345
 20
0.35419362593474
 40
0.024474212705594
 50
98.86157888952128
 51
112.1101640747011
 73
     0
 72
     2
 10
2.61838315256972
 20
0.3522740777562495
 40
0.0223031909491892
 50
111.474779143673
 51
123.1250142198128
 73
     0
 72
     2
 10
2.618718995543537
 20
0.3517336784423094
 40
0.0220416868943372
 50
124.6239441549415
 51
138.7251729097484
 73
     0
 97
        1
330
58B
 75
     0
 76
     1
 98
        1
 10
-6.623918024059631
 20
-0.1308261527660757
  0
HATCH
  5
584
330
557
100
AcDbEntity
  8
CONTINUOUS1
 62
     9
100
AcDbHatch
 10
0.0
 20
0.0
 30
0.0
210
0.0
220
0.0
230
1.0
  2
SOLID
 70
     1
 71
     1
 91
        1
 92
        1
 93
       20
 72
     1
 10
2.545085238562226
 20
0.3185392197908646
 11
2.547862856656283
 21
0.3185392197908646
 72
     1
 10
2.547862856656283
 20
0.3185392197908646
 11
2.550640474750171
 21
0.3185392197908646
 72
     1
 10
2.550640474750171
 20
0.3185392197908646
 11
2.553418092844228
 21
0.3185392197908646
 72
     1
 10
2.553418092844228
 20
0.3185392197908646
 11
2.556195710938116
 21
0.3185392197908646
 72
     1
 10
2.556195710938116
 20
0.3185392197908646
 11
2.558973329032173
 21
0.3185392197908646
 72
     1
 10
2.558973329032173
 20
0.3185392197908646
 11
2.558973329032173
 21
0.3213168378847518
 72
     1
 10
2.558973329032173
 20
0.3213168378847518
 11
2.558973329032173
 21
0.3240944559788095
 72
     1
 10
2.558973329032173
 20
0.3240944559788095
 11
2.558973329032173
 21
0.432421561644333
 72
     1
 10
2.558973329032173
 20
0.432421561644333
 11
2.558973329032173
 21
0.4351991797382202
 72
     1
 10
2.558973329032173
 20
0.4351991797382202
 11
2.558973329032173
 21
0.4379767978321075
 72
     1
 10
2.558973329032173
 20
0.4379767978321075
 11
2.556195710938116
 21
0.4379767978321075
 72
     1
 10
2.556195710938116
 20
0.4379767978321075
 11
2.553418092844228
 21
0.4379767978321075
 72
     1
 10
2.553418092844228
 20
0.4379767978321075
 11
2.550640474750171
 21
0.4379767978321075
 72
     1
 10
2.550640474750171
 20
0.4379767978321075
 11
2.547862856656283
 21
0.4379767978321075
 72
     1
 10
2.547862856656283
 20
0.4379767978321075
 11
2.545085238562226
 21
0.4379767978321075
 72
     1
 10
2.545085238562226
 20
0.4379767978321075
 11
2.545085238562226
 21
0.4351991797382202
 72
     1
 10
2.545085238562226
 20
0.4351991797382202
 11
2.545085238562226
 21
0.432421561644333
 72
     1
 10
2.545085238562226
 20
0.432421561644333
 11
2.545085238562226
 21
0.3240944559788095
 72
     1
 10
2.545085238562226
 20
0.3240944559788095
 11
2.545085238562226
 21
0.3213168378847518
 72
     1
 10
2.545085238562226
 20
0.3213168378847518
 11
2.545085238562226
 21
0.3185392197908646
 97
        1
330
58E
 75
     0
 76
     1
 98
        1
 10
-6.623918024059631
 20
-0.1308261527660757
  0
HATCH
  5
585
330
557
100
AcDbEntity
  8
CONTINUOUS1
 62
     9
100
AcDbHatch
 10
0.0
 20
0.0
 30
0.0
210
0.0
220
0.0
230
1.0
  2
SOLID
 70
     1
 71
     1
 91
        1
 92
        1
 93
       60
 72
     1
 10
2.456201459554765
 20
0.3185392197908646
 11
2.458979077648653
 21
0.3185392197908646
 72
     1
 10
2.458979077648653
 20
0.3185392197908646
 11
2.46175669574271
 21
0.3185392197908646
 72
     1
 10
2.46175669574271
 20
0.3185392197908646
 11
2.520086675716388
 21
0.3185392197908646
 72
     1
 10
2.520086675716388
 20
0.3185392197908646
 11
2.522864293810275
 21
0.3185392197908646
 72
     1
 10
2.522864293810275
 20
0.3185392197908646
 11
2.525641911904333
 21
0.3185392197908646
 72
     1
 10
2.525641911904333
 20
0.3185392197908646
 11
2.525641911904333
 21
0.3213168378847518
 72
     1
 10
2.525641911904333
 20
0.3213168378847518
 11
2.525641911904333
 21
0.3240944559788095
 72
     1
 10
2.525641911904333
 20
0.3240944559788095
 11
2.525641911904333
 21
0.3268720740728673
 72
     1
 10
2.525641911904333
 20
0.3268720740728673
 11
2.525641911904333
 21
0.3296496921667545
 72
     1
 10
2.525641911904333
 20
0.3296496921667545
 11
2.525641911904333
 21
0.3324273102608122
 72
     1
 10
2.525641911904333
 20
0.3324273102608122
 11
2.522864293810275
 21
0.3324273102608122
 72
     1
 10
2.522864293810275
 20
0.3324273102608122
 11
2.520086675716388
 21
0.3324273102608122
 72
     1
 10
2.520086675716388
 20
0.3324273102608122
 11
2.478422404306545
 21
0.3324273102608122
 72
     1
 10
2.478422404306545
 20
0.3324273102608122
 11
2.475644786212658
 21
0.3324273102608122
 72
     1
 10
2.475644786212658
 20
0.3324273102608122
 11
2.4728671681186
 21
0.3324273102608122
 72
     1
 10
2.4728671681186
 20
0.3324273102608122
 11
2.4728671681186
 21
0.33520492835487
 72
     1
 10
2.4728671681186
 20
0.33520492835487
 11
2.4728671681186
 21
0.3379825464487572
 72
     1
 10
2.4728671681186
 20
0.3379825464487572
 11
2.4728671681186
 21
0.3657587273886524
 72
     1
 10
2.4728671681186
 20
0.3657587273886524
 11
2.4728671681186
 21
0.3685363454825397
 72
     1
 10
2.4728671681186
 20
0.3685363454825397
 11
2.4728671681186
 21
0.3713139635765974
 72
     1
 10
2.4728671681186
 20
0.3713139635765974
 11
2.475644786212658
 21
0.3713139635765974
 72
     1
 10
2.475644786212658
 20
0.3713139635765974
 11
2.478422404306545
 21
0.3713139635765974
 72
     1
 10
2.478422404306545
 20
0.3713139635765974
 11
2.51730905762233
 21
0.3713139635765974
 72
     1
 10
2.51730905762233
 20
0.3713139635765974
 11
2.520086675716388
 21
0.3713139635765974
 72
     1
 10
2.520086675716388
 20
0.3713139635765974
 11
2.522864293810275
 21
0.3713139635765974
 72
     1
 10
2.522864293810275
 20
0.3713139635765974
 11
2.522864293810275
 21
0.3740915816706551
 72
     1
 10
2.522864293810275
 20
0.3740915816706551
 11
2.522864293810275
 21
0.3768691997645424
 72
     1
 10
2.522864293810275
 20
0.3768691997645424
 11
2.522864293810275
 21
0.3796468178584296
 72
     1
 10
2.522864293810275
 20
0.3796468178584296
 11
2.522864293810275
 21
0.3824244359524873
 72
     1
 10
2.522864293810275
 20
0.3824244359524873
 11
2.522864293810275
 21
0.3852020540465451
 72
     1
 10
2.522864293810275
 20
0.3852020540465451
 11
2.520086675716388
 21
0.3852020540465451
 72
     1
 10
2.520086675716388
 20
0.3852020540465451
 11
2.51730905762233
 21
0.3852020540465451
 72
     1
 10
2.51730905762233
 20
0.3852020540465451
 11
2.478422404306545
 21
0.3852020540465451
 72
     1
 10
2.478422404306545
 20
0.3852020540465451
 11
2.475644786212658
 21
0.3852020540465451
 72
     1
 10
2.475644786212658
 20
0.3852020540465451
 11
2.4728671681186
 21
0.3852020540465451
 72
     1
 10
2.4728671681186
 20
0.3852020540465451
 11
2.4728671681186
 21
0.3879796721404323
 72
     1
 10
2.4728671681186
 20
0.3879796721404323
 11
2.4728671681186
 21
0.39075729023449
 72
     1
 10
2.4728671681186
 20
0.39075729023449
 11
2.4728671681186
 21
0.4185334711742148
 72
     1
 10
2.4728671681186
 20
0.4185334711742148
 11
2.4728671681186
 21
0.4213110892682726
 72
     1
 10
2.4728671681186
 20
0.4213110892682726
 11
2.4728671681186
 21
0.4240887073623303
 72
     1
 10
2.4728671681186
 20
0.4240887073623303
 11
2.475644786212658
 21
0.4240887073623303
 72
     1
 10
2.475644786212658
 20
0.4240887073623303
 11
2.478422404306545
 21
0.4240887073623303
 72
     1
 10
2.478422404306545
 20
0.4240887073623303
 11
2.51730905762233
 21
0.4240887073623303
 72
     1
 10
2.51730905762233
 20
0.4240887073623303
 11
2.520086675716388
 21
0.4240887073623303
 72
     1
 10
2.520086675716388
 20
0.4240887073623303
 11
2.522864293810275
 21
0.4240887073623303
 72
     1
 10
2.522864293810275
 20
0.4240887073623303
 11
2.522864293810275
 21
0.4268663254562175
 72
     1
 10
2.522864293810275
 20
0.4268663254562175
 11
2.522864293810275
 21
0.4296439435502753
 72
     1
 10
2.522864293810275
 20
0.4296439435502753
 11
2.522864293810275
 21
0.432421561644333
 72
     1
 10
2.522864293810275
 20
0.432421561644333
 11
2.522864293810275
 21
0.4351991797382202
 72
     1
 10
2.522864293810275
 20
0.4351991797382202
 11
2.522864293810275
 21
0.4379767978321075
 72
     1
 10
2.522864293810275
 20
0.4379767978321075
 11
2.520086675716388
 21
0.4379767978321075
 72
     1
 10
2.520086675716388
 20
0.4379767978321075
 11
2.51730905762233
 21
0.4379767978321075
 72
     1
 10
2.51730905762233
 20
0.4379767978321075
 11
2.46175669574271
 21
0.4379767978321075
 72
     1
 10
2.46175669574271
 20
0.4379767978321075
 11
2.458979077648653
 21
0.4379767978321075
 72
     1
 10
2.458979077648653
 20
0.4379767978321075
 11
2.456201459554765
 21
0.4379767978321075
 72
     1
 10
2.456201459554765
 20
0.4379767978321075
 11
2.456201459554765
 21
0.4351991797382202
 72
     1
 10
2.456201459554765
 20
0.4351991797382202
 11
2.456201459554765
 21
0.432421561644333
 72
     1
 10
2.456201459554765
 20
0.432421561644333
 11
2.456201459554765
 21
0.3240944559788095
 72
     1
 10
2.456201459554765
 20
0.3240944559788095
 11
2.456201459554765
 21
0.3213168378847518
 72
     1
 10
2.456201459554765
 20
0.3213168378847518
 11
2.456201459554765
 21
0.3185392197908646
 97
        1
330
58C
 75
     0
 76
     1
 98
        1
 10
-6.623918024059631
 20
-0.1308261527660757
  0
HATCH
  5
586
330
557
100
AcDbEntity
  8
CONTINUOUS1
 62
     9
100
AcDbHatch
 10
0.0
 20
0.0
 30
0.0
210
0.0
220
0.0
230
1.0
  2
SOLID
 70
     1
 71
     1
 91
        1
 92
        1
 93
       63
 72
     1
 10
2.333986263419465
 20
0.3185392197908646
 11
2.336763881513352
 21
0.3185392197908646
 72
     1
 10
2.336763881513352
 20
0.3185392197908646
 11
2.33954149960741
 21
0.3185392197908646
 72
     1
 10
2.33954149960741
 20
0.3185392197908646
 11
2.342319117701297
 21
0.3185392197908646
 72
     1
 10
2.342319117701297
 20
0.3185392197908646
 11
2.345096735795355
 21
0.3185392197908646
 72
     1
 10
2.345096735795355
 20
0.3185392197908646
 11
2.347874353889242
 21
0.3185392197908646
 72
     1
 10
2.347874353889242
 20
0.3185392197908646
 11
2.347874353889242
 21
0.3213168378847518
 72
     1
 10
2.347874353889242
 20
0.3213168378847518
 11
2.347874353889242
 21
0.3240944559788095
 72
     1
 10
2.347874353889242
 20
0.3240944559788095
 11
2.347874353889242
 21
0.3629811092945947
 72
     1
 10
2.347874353889242
 20
0.3629811092945947
 11
2.347874353889242
 21
0.3657587273886524
 72
     1
 10
2.347874353889242
 20
0.3657587273886524
 11
2.347874353889242
 21
0.3685363454825397
 72
     1
 10
2.347874353889242
 20
0.3685363454825397
 11
2.348586194660104
 21
0.3713139635765974
 72
     1
 10
2.348586194660104
 20
0.3713139635765974
 11
2.349735358012228
 21
0.3740915816706551
 72
     1
 10
2.349735358012228
 20
0.3740915816706551
 11
2.3511797194212
 21
0.3764803332313709
 72
     1
 10
2.3511797194212
 20
0.3764803332313709
 11
2.353429590077357
 21
0.378258008811486
 72
     1
 10
2.353429590077357
 20
0.378258008811486
 11
2.356207208171245
 21
0.3803481447481549
 72
     1
 10
2.356207208171245
 20
0.3803481447481549
 11
2.358708187386159
 21
0.3821533245041455
 72
     1
 10
2.358708187386159
 20
0.3821533245041455
 11
2.360746259593074
 21
0.3835311386972085
 72
     1
 10
2.360746259593074
 20
0.3835311386972085
 11
2.362567953606546
 21
0.3843965447991882
 72
     1
 10
2.362567953606546
 20
0.3843965447991882
 11
2.364540062453247
 21
0.3852020540465451
 72
     1
 10
2.364540062453247
 20
0.3852020540465451
 11
2.367317680547134
 21
0.3860225445559995
 72
     1
 10
2.367317680547134
 20
0.3860225445559995
 11
2.371041809419384
 21
0.3859647625154712
 72
     1
 10
2.371041809419384
 20
0.3859647625154712
 11
2.373644053628343
 21
0.3851557727118125
 72
     1
 10
2.373644053628343
 20
0.3851557727118125
 11
2.375650534829137
 21
0.3838132449996015
 72
     1
 10
2.375650534829137
 20
0.3838132449996015
 11
2.377749804062805
 21
0.3819776024104162
 72
     1
 10
2.377749804062805
 20
0.3819776024104162
 11
2.379816961970139
 21
0.3796468178584296
 72
     1
 10
2.379816961970139
 20
0.3796468178584296
 11
2.381205771017082
 21
0.3784524420782422
 72
     1
 10
2.381205771017082
 20
0.3784524420782422
 11
2.382248692300752
 21
0.380049012932091
 72
     1
 10
2.382248692300752
 20
0.380049012932091
 11
2.383757731757302
 21
0.3823591474088066
 72
     1
 10
2.383757731757302
 20
0.3823591474088066
 11
2.385542235943237
 21
0.3850909809773389
 72
     1
 10
2.385542235943237
 20
0.3850909809773389
 11
2.386582283838979
 21
0.3866831530647805
 72
     1
 10
2.386582283838979
 20
0.3866831530647805
 11
2.387955382985555
 21
0.3887851813877892
 72
     1
 10
2.387955382985555
 20
0.3887851813877892
 11
2.386761007205027
 21
0.39075729023449
 72
     1
 10
2.386761007205027
 20
0.39075729023449
 11
2.384708963404055
 21
0.3932298076646252
 72
     1
 10
2.384708963404055
 20
0.3932298076646252
 11
2.38166327412026
 21
0.3956385659741959
 72
     1
 10
2.38166327412026
 20
0.3956385659741959
 11
2.379947253551311
 21
0.3970016751998178
 72
     1
 10
2.379947253551311
 20
0.3970016751998178
 11
2.377622643675838
 21
0.3982846352691358
 72
     1
 10
2.377622643675838
 20
0.3982846352691358
 11
2.375650534829137
 21
0.3990901445163222
 72
     1
 10
2.375650534829137
 20
0.3990901445163222
 11
2.37287291673525
 21
0.3990901445163222
 72
     1
 10
2.37287291673525
 20
0.3990901445163222
 11
2.370095298641192
 21
0.3990901445163222
 72
     1
 10
2.370095298641192
 20
0.3990901445163222
 11
2.367317680547134
 21
0.3987012779831507
 72
     1
 10
2.367317680547134
 20
0.3987012779831507
 11
2.364540062453247
 21
0.3977013354693786
 72
     1
 10
2.364540062453247
 20
0.3977013354693786
 11
2.361956877625775
 21
0.3961180931558492
 72
     1
 10
2.361956877625775
 20
0.3961180931558492
 11
2.359679230788774
 21
0.394229312851849
 72
     1
 10
2.359679230788774
 20
0.394229312851849
 11
2.357596017218188
 21
0.3921460992814336
 72
     1
 10
2.357596017218188
 20
0.3921460992814336
 11
2.355512803647773
 21
0.3900628857110182
 72
     1
 10
2.355512803647773
 20
0.3900628857110182
 11
2.35378697604543
 21
0.3878950002004449
 72
     1
 10
2.35378697604543
 20
0.3878950002004449
 11
2.3521136744877
 21
0.3860075632937314
 72
     1
 10
2.3521136744877
 20
0.3860075632937314
 11
2.347874353889242
 21
0.3814779152569376
 72
     1
 10
2.347874353889242
 20
0.3814779152569376
 11
2.347874353889242
 21
0.3860075632937314
 72
     1
 10
2.347874353889242
 20
0.3860075632937314
 11
2.347874353889242
 21
0.3879796721404323
 72
     1
 10
2.347874353889242
 20
0.3879796721404323
 11
2.347874353889242
 21
0.39075729023449
 72
     1
 10
2.347874353889242
 20
0.39075729023449
 11
2.347874353889242
 21
0.3935349083285478
 72
     1
 10
2.347874353889242
 20
0.3935349083285478
 11
2.347874353889242
 21
0.396312526422435
 72
     1
 10
2.347874353889242
 20
0.396312526422435
 11
2.345096735795355
 21
0.396312526422435
 72
     1
 10
2.345096735795355
 20
0.396312526422435
 11
2.342319117701297
 21
0.396312526422435
 72
     1
 10
2.342319117701297
 20
0.396312526422435
 11
2.33954149960741
 21
0.396312526422435
 72
     1
 10
2.33954149960741
 20
0.396312526422435
 11
2.336763881513352
 21
0.396312526422435
 72
     1
 10
2.336763881513352
 20
0.396312526422435
 11
2.333986263419465
 21
0.396312526422435
 72
     1
 10
2.333986263419465
 20
0.396312526422435
 11
2.333986263419465
 21
0.3935349083285478
 72
     1
 10
2.333986263419465
 20
0.3935349083285478
 11
2.333986263419465
 21
0.39075729023449
 72
     1
 10
2.333986263419465
 20
0.39075729023449
 11
2.333986263419465
 21
0.3240944559788095
 72
     1
 10
2.333986263419465
 20
0.3240944559788095
 11
2.333986263419465
 21
0.3213168378847518
 72
     1
 10
2.333986263419465
 20
0.3213168378847518
 11
2.333986263419465
 21
0.3185392197908646
 97
        1
330
58D
 75
     0
 76
     1
 98
        1
 10
-6.623918024059631
 20
-0.1308261527660757
  0
HATCH
  5
587
330
557
100
AcDbEntity
  8
CONTINUOUS1
 62
     9
100
AcDbHatch
 10
0.0
 20
0.0
 30
0.0
210
0.0
220
0.0
230
1.0
  2
SOLID
 70
     1
 71
     1
 91
        2
 92
        1
 93
       13
 72
     2
 10
2.507627067133951
 20
0.5672078009861301
 40
0.0215625675244632
 50
0.0002565813902296
 51
90.00070498518937
 73
     1
 72
     2
 10
2.507627067134452
 20
0.6103329360318659
 40
0.0215625675245372
 50
269.9992950134795
 51
359.9995092535441
 73
     1
 72
     1
 10
2.529189634658198
 20
0.6103327513454251
 11
2.529189634658198
 21
0.6423016562928301
 72
     2
 10
2.50762667305249
 20
0.6423015303381832
 40
0.0215629616060761
 50
0.0003346789653151
 51
89.99920945081219
 73
     1
 72
     1
 10
2.507626970571468
 20
0.6638644919422068
 11
2.376002128332206
 21
0.6638644919422068
 72
     1
 10
2.376002128332206
 20
0.6638644919422068
 11
2.376002128332206
 21
0.5352391641624768
 72
     1
 10
2.376002128332206
 20
0.5352391641624768
 11
2.397564961169027
 21
0.5352391641624768
 72
     1
 10
2.397564961169027
 20
0.5352391641624768
 11
2.397564961169027
 21
0.577989312090836
 72
     1
 10
2.397564961169027
 20
0.577989312090836
 11
2.496845563528129
 21
0.577989312090836
 72
     2
 10
2.496845471653384
 20
0.5672081694230766
 40
0.0107811426681508
 50
270.0004882631927
 51
360.0004882673548
 73
     0
 72
     1
 10
2.507626614321143
 20
0.5672080775475484
 11
2.507626970571468
 21
0.5352391641624768
 72
     1
 10
2.507626970571468
 20
0.5352391641624768
 11
2.529189634658198
 21
0.5352391641624768
 72
     1
 10
2.529189634658198
 20
0.5352391641624768
 11
2.529189634658198
 21
0.5672078975474056
 97
        1
330
589
 92
       16
 93
        6
 72
     2
 10
2.496845471653384
 20
0.6315205201877572
 40
0.0107811426681508
 50
270.0004882631927
 51
360.0004882673548
 73
     0
 72
     1
 10
2.507626614321143
 20
0.6315204283122289
 11
2.507626970571468
 21
0.6103328394705163
 72
     2
 10
2.4968456497785
 20
0.6103329257201973
 40
0.0107813207933134
 50
0.0004583615308307
 51
90.00045836519712
 73
     0
 72
     1
 10
2.496845563528129
 20
0.5995516049272287
 11
2.397564961169027
 21
0.5995518730522922
 72
     1
 10
2.397564961169027
 20
0.5995518730522922
 11
2.397564961169027
 21
0.6423016628555165
 72
     1
 10
2.397564961169027
 20
0.6423016628555165
 11
2.496845563528129
 21
0.6423016628555165
 97
        1
330
58F
 75
     0
 76
     1
 98
        1
 10
-6.623918024059631
 20
-0.1308261527660757
  0
LWPOLYLINE
  5
588
102
{ACAD_REACTORS
330
592
102
}
330
557
100
AcDbEntity
  8
CONTINUOUS1
  6
CONTINUOUS
 62
     9
100
AcDbPolyline
 90
       13
 70
     0
 43
0.0
 10
2.682377122234047
 20
0.6638644919422068
 10
2.545877089309929
 20
0.6638644919422068
 10
2.545877089309929
 20
0.5352391641624768
 10
2.682377122234047
 20
0.5352391641624768
 10
2.682377122234047
 20
0.5568015451239608
 10
2.567439378396361
 20
0.5568015451239608
 10
2.567439378396361
 20
0.5887705485089332
 10
2.682377122234047
 20
0.5887705485089332
 10
2.682377122234047
 20
0.6103328394705163
 10
2.567439378396361
 20
0.6103328394705163
 10
2.567439378396361
 20
0.6423016628555165
 10
2.682377122234047
 20
0.6423016628555165
 10
2.682377122234047
 20
0.6638644919422068
  0
LWPOLYLINE
  5
589
102
{ACAD_REACTORS
330
587
102
}
330
557
100
AcDbEntity
  8
CONTINUOUS1
  6
CONTINUOUS
 62
     9
100
AcDbPolyline
 90
       14
 70
     0
 43
0.0
 10
2.529189634658198
 20
0.5672078975474056
 42
0.4142158545932141
 10
2.507626801821377
 20
0.588770368508961
 42
0.4142146575582358
 10
2.529189634658198
 20
0.6103327513454251
 10
2.529189634658198
 20
0.6423016562928301
 42
0.4142078102735817
 10
2.507626970571468
 20
0.6638644919422068
 10
2.376002128332206
 20
0.6638644919422068
 10
2.376002128332206
 20
0.5352391641624768
 10
2.397564961169027
 20
0.5352391641624768
 10
2.397564961169027
 20
0.577989312090836
 10
2.496845563528129
 20
0.577989312090836
 42
-0.4142135623943674
 10
2.507626614321143
 20
0.5672080775475484
 10
2.507626970571468
 20
0.5352391641624768
 10
2.529189634658198
 20
0.5352391641624768
 10
2.529189634658198
 20
0.5672078975474056
  0
LWPOLYLINE
  5
58A
102
{ACAD_REACTORS
330
583
102
}
330
557
100
AcDbEntity
  8
CONTINUOUS1
 62
     9
100
AcDbPolyline
 90
       18
 70
     1
 43
0.0
 10
2.597086510057327
 20
0.3739249696649272
 42
-0.0075148293555971
 10
2.597747313561828
 20
0.3758094905988973
 42
-0.004657993094582
 10
2.598518240370683
 20
0.3774326474991771
 42
-0.0194573042781228
 10
2.599614421495093
 20
0.3793376189554469
 42
-0.025588215895386
 10
2.601260943195345
 20
0.3815052047880845
 42
-0.0513535452749696
 10
2.60438438651855
 20
0.3844411686669678
 42
-0.0711488595792178
 10
2.608687792130783
 20
0.387030374336121
 42
-0.0589617480196389
 10
2.612759828426224
 20
0.388163142544784
 42
-0.055567443413236
 10
2.617481779009981
 20
0.3885472203085105
 42
-0.0505831829207604
 10
2.622438601289932
 20
0.3881580670007456
 42
-0.0805511158347094
 10
2.628138968138305
 20
0.386212311056966
 42
-0.0997279791482863
 10
2.632639186255605
 20
0.3821694970928324
 42
-0.05798586112659
 10
2.634725691735443
 20
0.3782279079159712
 42
-0.0542300556945522
 10
2.63602974439377
 20
0.3736673778522577
 42
-0.0393615860447316
 10
2.636657158546572
 20
0.3672377124287327
 10
2.595832764305416
 20
0.3672377124287327
 42
-0.0115879268951182
 10
2.596116860354502
 20
0.3695945556602855
 42
-0.0015814549261624
 10
2.596518317958985
 20
0.3718162665023788
 42
-0.0028557092809637
  0
LWPOLYLINE
  5
58B
102
{ACAD_REACTORS
330
583
102
}
330
557
100
AcDbEntity
  8
CONTINUOUS1
 62
     9
100
AcDbPolyline
 90
       47
 70
     1
 43
0.0
 10
2.602153476867872
 20
0.3371934049870338
 42
-0.0441414060654578
 10
2.59961369979263
 20
0.3406137919386656
 42
-0.0277319653937625
 10
2.5984653013729
 20
0.342908764392917
 42
-0.0164279047561354
 10
2.597515647073553
 20
0.3453802682993233
 42
-0.0066863653619568
 10
2.596775244033299
 20
0.3480745345536893
 42
-0.0233064481414024
 10
2.596254684297182
 20
0.3511569156956971
 42
-0.0386937426355895
 10
2.595830514291865
 20
0.3572253591981966
 10
2.649224587943283
 20
0.3572253591981966
 10
2.649224587943283
 20
0.367418047889942
 42
0.1310126142130034
 10
2.644988491698345
 20
0.384827874269718
 42
0.1175696112009137
 10
2.636356463341005
 20
0.3945709905457311
 42
0.1103270754359441
 10
2.625006928065293
 20
0.3987237922934814
 42
0.0651926395407652
 10
2.617493856912776
 20
0.3992029596881825
 42
0.0935138111535395
 10
2.606403540178096
 20
0.3974214224988377
 42
0.0771718076448178
 10
2.599285664799797
 20
0.3939838910158646
 42
0.0650775313207389
 10
2.593789051535882
 20
0.3895585675142574
 42
0.0516650400356126
 10
2.589115136618747
 20
0.3836759482660459
 42
0.0469242136237456
 10
2.586513590303841
 20
0.3788161200391191
 42
0.051223632580995
 10
2.584986595266205
 20
0.3746909211984648
 42
0.037832980863087
 10
2.583586471275143
 20
0.3691379050324035
 42
0.0380040356892352
 10
2.582795082079005
 20
0.3632512380642088
 42
0.0396963751324013
 10
2.582795082079005
 20
0.3535837675287898
 42
0.0477329049617882
 10
2.584331480475075
 20
0.3438434486300826
 42
0.0632736306522388
 10
2.586214656901265
 20
0.3384198641380185
 42
0.0887240198666166
 10
2.591374808234863
 20
0.3301577047572555
 42
0.0593249496237894
 10
2.596539162424083
 20
0.3253225760990977
 42
0.0586814778487906
 10
2.602842129596783
 20
0.321706383342701
 42
0.039275593781097
 10
2.608147746428333
 20
0.3198508322162757
 42
0.0294048595279412
 10
2.613237107241648
 20
0.3187611372579231
 42
0.0245538255625254
 10
2.618668576245656
 20
0.3182910719351076
 42
0.0484050884053723
 10
2.627556087272385
 20
0.318538586832347
 42
0.0313804255658969
 10
2.63448515255229
 20
0.3199276859149341
 42
0.0210229524573495
 10
2.639813099706859
 20
0.3215361459892283
 42
0.0098439804496088
 10
2.647864624571159
 20
0.3247109995190845
 10
2.647864624571159
 20
0.3403736793267176
 42
-0.1158714317854296
 10
2.647105648305942
 20
0.3389070845880729
 42
-0.0273968376187686
 10
2.644330659909687
 20
0.3368770470617056
 42
-0.0245127629396402
 10
2.641865387999789
 20
0.3353916503899091
 42
-0.0174018213192927
 10
2.639028460551546
 20
0.3339310062675627
 42
-0.0303578783463293
 10
2.633740567883169
 20
0.3316766063780965
 42
-0.0163288525489418
 10
2.629968887168647
 20
0.3305939790356552
 42
-0.0174430116847887
 10
2.627747020025172
 20
0.33012803560564
 42
-0.0109219578339942
 10
2.625442878801752
 20
0.329799142463799
 42
-0.0520451680420305
 10
2.617458535945591
 20
0.329799142463799
 42
-0.0139513426612014
 10
2.615659756253567
 20
0.3300115523971959
 42
-0.0578723374760443
 10
2.610218140962249
 20
0.3315192009325761
 42
-0.0508775714496942
 10
2.606195180433619
 20
0.3335955965084172
 42
-0.061605978241212
  0
LWPOLYLINE
  5
58C
102
{ACAD_REACTORS
330
585
102
}
330
557
100
AcDbEntity
  8
CONTINUOUS1
  6
CONTINUOUS
 62
     9
100
AcDbPolyline
 90
       61
 70
     0
 43
0.0
 10
2.456201459554765
 20
0.3185392197908646
 10
2.458979077648653
 20
0.3185392197908646
 10
2.46175669574271
 20
0.3185392197908646
 10
2.520086675716388
 20
0.3185392197908646
 10
2.522864293810275
 20
0.3185392197908646
 10
2.525641911904333
 20
0.3185392197908646
 10
2.525641911904333
 20
0.3213168378847518
 10
2.525641911904333
 20
0.3240944559788095
 10
2.525641911904333
 20
0.3268720740728673
 10
2.525641911904333
 20
0.3296496921667545
 10
2.525641911904333
 20
0.3324273102608122
 10
2.522864293810275
 20
0.3324273102608122
 10
2.520086675716388
 20
0.3324273102608122
 10
2.478422404306545
 20
0.3324273102608122
 10
2.475644786212658
 20
0.3324273102608122
 10
2.4728671681186
 20
0.3324273102608122
 10
2.4728671681186
 20
0.33520492835487
 10
2.4728671681186
 20
0.3379825464487572
 10
2.4728671681186
 20
0.3657587273886524
 10
2.4728671681186
 20
0.3685363454825397
 10
2.4728671681186
 20
0.3713139635765974
 10
2.475644786212658
 20
0.3713139635765974
 10
2.478422404306545
 20
0.3713139635765974
 10
2.51730905762233
 20
0.3713139635765974
 10
2.520086675716388
 20
0.3713139635765974
 10
2.522864293810275
 20
0.3713139635765974
 10
2.522864293810275
 20
0.3740915816706551
 10
2.522864293810275
 20
0.3768691997645424
 10
2.522864293810275
 20
0.3796468178584296
 10
2.522864293810275
 20
0.3824244359524873
 10
2.522864293810275
 20
0.3852020540465451
 10
2.520086675716388
 20
0.3852020540465451
 10
2.51730905762233
 20
0.3852020540465451
 10
2.478422404306545
 20
0.3852020540465451
 10
2.475644786212658
 20
0.3852020540465451
 10
2.4728671681186
 20
0.3852020540465451
 10
2.4728671681186
 20
0.3879796721404323
 10
2.4728671681186
 20
0.39075729023449
 10
2.4728671681186
 20
0.4185334711742148
 10
2.4728671681186
 20
0.4213110892682726
 10
2.4728671681186
 20
0.4240887073623303
 10
2.475644786212658
 20
0.4240887073623303
 10
2.478422404306545
 20
0.4240887073623303
 10
2.51730905762233
 20
0.4240887073623303
 10
2.520086675716388
 20
0.4240887073623303
 10
2.522864293810275
 20
0.4240887073623303
 10
2.522864293810275
 20
0.4268663254562175
 10
2.522864293810275
 20
0.4296439435502753
 10
2.522864293810275
 20
0.432421561644333
 10
2.522864293810275
 20
0.4351991797382202
 10
2.522864293810275
 20
0.4379767978321075
 10
2.520086675716388
 20
0.4379767978321075
 10
2.51730905762233
 20
0.4379767978321075
 10
2.46175669574271
 20
0.4379767978321075
 10
2.458979077648653
 20
0.4379767978321075
 10
2.456201459554765
 20
0.4379767978321075
 10
2.456201459554765
 20
0.4351991797382202
 10
2.456201459554765
 20
0.432421561644333
 10
2.456201459554765
 20
0.3240944559788095
 10
2.456201459554765
 20
0.3213168378847518
 10
2.456201459554765
 20
0.3185392197908646
  0
LWPOLYLINE
  5
58D
102
{ACAD_REACTORS
330
586
102
}
330
557
100
AcDbEntity
  8
CONTINUOUS1
  6
CONTINUOUS
 62
     9
100
AcDbPolyline
 90
       64
 70
     0
 43
0.0
 10
2.333986263419465
 20
0.3185392197908646
 10
2.336763881513352
 20
0.3185392197908646
 10
2.33954149960741
 20
0.3185392197908646
 10
2.342319117701297
 20
0.3185392197908646
 10
2.345096735795355
 20
0.3185392197908646
 10
2.347874353889242
 20
0.3185392197908646
 10
2.347874353889242
 20
0.3213168378847518
 10
2.347874353889242
 20
0.3240944559788095
 10
2.347874353889242
 20
0.3629811092945947
 10
2.347874353889242
 20
0.3657587273886524
 10
2.347874353889242
 20
0.3685363454825397
 10
2.348586194660104
 20
0.3713139635765974
 10
2.349735358012228
 20
0.3740915816706551
 10
2.3511797194212
 20
0.3764803332313709
 10
2.353429590077357
 20
0.378258008811486
 10
2.356207208171245
 20
0.3803481447481549
 10
2.358708187386159
 20
0.3821533245041455
 10
2.360746259593074
 20
0.3835311386972085
 10
2.362567953606546
 20
0.3843965447991882
 10
2.364540062453247
 20
0.3852020540465451
 10
2.367317680547134
 20
0.3860225445559995
 10
2.371041809419384
 20
0.3859647625154712
 10
2.373644053628343
 20
0.3851557727118125
 10
2.375650534829137
 20
0.3838132449996015
 10
2.377749804062805
 20
0.3819776024104162
 10
2.379816961970139
 20
0.3796468178584296
 10
2.381205771017082
 20
0.3784524420782422
 10
2.382248692300752
 20
0.380049012932091
 10
2.383757731757302
 20
0.3823591474088066
 10
2.385542235943237
 20
0.3850909809773389
 10
2.386582283838979
 20
0.3866831530647805
 10
2.387955382985555
 20
0.3887851813877892
 10
2.386761007205027
 20
0.39075729023449
 10
2.384708963404055
 20
0.3932298076646252
 10
2.38166327412026
 20
0.3956385659741959
 10
2.379947253551311
 20
0.3970016751998178
 10
2.377622643675838
 20
0.3982846352691358
 10
2.375650534829137
 20
0.3990901445163222
 10
2.37287291673525
 20
0.3990901445163222
 10
2.370095298641192
 20
0.3990901445163222
 10
2.367317680547134
 20
0.3987012779831507
 10
2.364540062453247
 20
0.3977013354693786
 10
2.361956877625775
 20
0.3961180931558492
 10
2.359679230788774
 20
0.394229312851849
 10
2.357596017218188
 20
0.3921460992814336
 10
2.355512803647773
 20
0.3900628857110182
 10
2.35378697604543
 20
0.3878950002004449
 10
2.3521136744877
 20
0.3860075632937314
 10
2.347874353889242
 20
0.3814779152569376
 10
2.347874353889242
 20
0.3860075632937314
 10
2.347874353889242
 20
0.3879796721404323
 10
2.347874353889242
 20
0.39075729023449
 10
2.347874353889242
 20
0.3935349083285478
 10
2.347874353889242
 20
0.396312526422435
 10
2.345096735795355
 20
0.396312526422435
 10
2.342319117701297
 20
0.396312526422435
 10
2.33954149960741
 20
0.396312526422435
 10
2.336763881513352
 20
0.396312526422435
 10
2.333986263419465
 20
0.396312526422435
 10
2.333986263419465
 20
0.3935349083285478
 10
2.333986263419465
 20
0.39075729023449
 10
2.333986263419465
 20
0.3240944559788095
 10
2.333986263419465
 20
0.3213168378847518
 10
2.333986263419465
 20
0.3185392197908646
  0
LWPOLYLINE
  5
58E
102
{ACAD_REACTORS
330
584
102
}
330
557
100
AcDbEntity
  8
CONTINUOUS1
  6
CONTINUOUS
 62
     9
100
AcDbPolyline
 90
       21
 70
     0
 43
0.0
 10
2.545085238562226
 20
0.3185392197908646
 10
2.547862856656283
 20
0.3185392197908646
 10
2.550640474750171
 20
0.3185392197908646
 10
2.553418092844228
 20
0.3185392197908646
 10
2.556195710938116
 20
0.3185392197908646
 10
2.558973329032173
 20
0.3185392197908646
 10
2.558973329032173
 20
0.3213168378847518
 10
2.558973329032173
 20
0.3240944559788095
 10
2.558973329032173
 20
0.432421561644333
 10
2.558973329032173
 20
0.4351991797382202
 10
2.558973329032173
 20
0.4379767978321075
 10
2.556195710938116
 20
0.4379767978321075
 10
2.553418092844228
 20
0.4379767978321075
 10
2.550640474750171
 20
0.4379767978321075
 10
2.547862856656283
 20
0.4379767978321075
 10
2.545085238562226
 20
0.4379767978321075
 10
2.545085238562226
 20
0.4351991797382202
 10
2.545085238562226
 20
0.432421561644333
 10
2.545085238562226
 20
0.3240944559788095
 10
2.545085238562226
 20
0.3213168378847518
 10
2.545085238562226
 20
0.3185392197908646
  0
LWPOLYLINE
  5
58F
102
{ACAD_REACTORS
330
587
102
}
330
557
100
AcDbEntity
  8
CONTINUOUS1
  6
CONTINUOUS
 62
     9
100
AcDbPolyline
 90
        7
 70
     1
 43
0.0
 10
2.496845563528129
 20
0.6423016628555165
 42
-0.4142135623943683
 10
2.507626614321143
 20
0.6315204283122289
 10
2.507626970571468
 20
0.6103328394705163
 42
-0.4142135623918344
 10
2.496845563528129
 20
0.5995516049272287
 10
2.397564961169027
 20
0.5995518730522922
 10
2.397564961169027
 20
0.6423016628555165
 10
2.496845563528129
 20
0.6423016628555165
  0
LWPOLYLINE
  5
590
102
{ACAD_REACTORS
330
581
102
}
330
557
100
AcDbEntity
  8
CONTINUOUS1
  6
CONTINUOUS
 62
     9
100
AcDbPolyline
 90
       80
 70
     0
 43
0.0
 10
2.768100195328234
 20
0.3193447290382215
 10
2.770072304174934
 20
0.3185392197908646
 10
2.776853223288274
 20
0.3177266059119579
 10
2.783960394644882
 20
0.3185392197908646
 10
2.78673801273894
 20
0.3190948244196652
 10
2.788710121585641
 20
0.3197586133924238
 10
2.790321140080184
 20
0.3205113286375654
 10
2.792293248926885
 20
0.3213168378847518
 10
2.795070867020772
 20
0.3223769226657969
 10
2.79784848511483
 20
0.323705589445638
 10
2.79784848511483
 20
0.3240944559788095
 10
2.79784848511483
 20
0.3268720740728673
 10
2.79784848511483
 20
0.3296496921667545
 10
2.79784848511483
 20
0.3324273102608122
 10
2.79784848511483
 20
0.3348160618216985
 10
2.795070867020772
 20
0.3340302206436268
 10
2.792365821896428
 20
0.3330627471016219
 10
2.789656082622375
 20
0.3319722328952826
 10
2.787543521986126
 20
0.3310528956835701
 10
2.785932503491583
 20
0.3304552014141114
 10
2.783960394644882
 20
0.3296496921667545
 10
2.781182776550995
 20
0.3294142968159695
 10
2.778405158456937
 20
0.3296496921667545
 10
2.776433049610236
 20
0.3304552014141114
 10
2.774670597445183
 20
0.3314126783258194
 10
2.772849922268992
 20
0.3324273102608122
 10
2.771309634063275
 20
0.3337080859405437
 10
2.770072304174934
 20
0.33520492835487
 10
2.769017502196309
 20
0.3370752134098898
 10
2.768100195328234
 20
0.3387880556961141
 10
2.767294686081047
 20
0.3407601645426444
 10
2.767294686081047
 20
0.3435377826367021
 10
2.767294686081047
 20
0.3796468178584296
 10
2.767294686081047
 20
0.3824244359524873
 10
2.767294686081047
 20
0.3852020540465451
 10
2.770072304174934
 20
0.3852020540465451
 10
2.772849922268992
 20
0.3852020540465451
 10
2.78673801273894
 20
0.3852020540465451
 10
2.789515630832827
 20
0.3852020540465451
 10
2.792293248926885
 20
0.3852020540465451
 10
2.792293248926885
 20
0.3879796721404323
 10
2.792293248926885
 20
0.39075729023449
 10
2.792293248926885
 20
0.3935349083285478
 10
2.792293248926885
 20
0.396312526422435
 10
2.789515630832827
 20
0.396312526422435
 10
2.78673801273894
 20
0.396312526422435
 10
2.772849922268992
 20
0.396312526422435
 10
2.770072304174934
 20
0.396312526422435
 10
2.767294686081047
 20
0.396312526422435
 10
2.767294686081047
 20
0.3990901445163222
 10
2.767294686081047
 20
0.40186776261038
 10
2.767294686081047
 20
0.4046453807044377
 10
2.767294686081047
 20
0.4074229987983249
 10
2.767294686081047
 20
0.4101951770153965
 10
2.765072591605903
 20
0.4082562842266957
 10
2.762850497130589
 20
0.4063119515608383
 10
2.749517930279555
 20
0.3946459555660344
 10
2.747295835804241
 20
0.392701622900177
 10
2.745037428605176
 20
0.390774564389972
 10
2.742784501548531
 20
0.3888087685731994
 10
2.740784200988546
 20
0.3870634024897304
 10
2.73865097726642
 20
0.3852020540465451
 10
2.74229612323521
 20
0.3852020540465451
 10
2.745073741329097
 20
0.3852020540465451
 10
2.747851359423155
 20
0.3852020540465451
 10
2.750628977517042
 20
0.3852020540465451
 10
2.7534065956111
 20
0.3852020540465451
 10
2.7534065956111
 20
0.3824244359524873
 10
2.7534065956111
 20
0.3796468178584296
 10
2.7534065956111
 20
0.3379825464487572
 10
2.7534065956111
 20
0.33520492835487
 10
2.753795462144271
 20
0.3324273102608122
 10
2.754795404658043
 20
0.3296496921667545
 10
2.756573080238158
 20
0.3272609406060388
 10
2.758810686828073
 20
0.3252801639712293
 10
2.760933940645745
 20
0.323705589445638
 10
2.762735804659516
 20
0.322316540818179
 10
2.764517067986989
 20
0.3213168378847518
 10
2.766384493876135
 20
0.3202550358792001
 10
2.768100195328234
 20
0.3193447290382215
  0
LWPOLYLINE
  5
591
102
{ACAD_REACTORS
330
582
102
}
330
557
100
AcDbEntity
  8
CONTINUOUS1
  6
CONTINUOUS
 62
     9
100
AcDbPolyline
 90
        4
 70
     1
 43
0.0
 10
2.728340921353581
 20
0.3820863083685713
 10
2.728340921353581
 20
0.3931967807444612
 42
1.819450421535996
 10
2.728340921353581
 20
0.3237563283948935
 10
2.728340921353581
 20
0.3348668007707834
 42
-2.028165022884401
  0
HATCH
  5
592
330
557
100
AcDbEntity
  8
CONTINUOUS1
 62
     9
100
AcDbHatch
 10
0.0
 20
0.0
 30
0.0
210
0.0
220
0.0
230
1.0
  2
SOLID
 70
     1
 71
     1
 91
        1
 92
        1
 93
       12
 72
     1
 10
2.682377122234047
 20
0.6638644919422068
 11
2.545877089309929
 21
0.6638644919422068
 72
     1
 10
2.545877089309929
 20
0.6638644919422068
 11
2.545877089309929
 21
0.5352391641624768
 72
     1
 10
2.545877089309929
 20
0.5352391641624768
 11
2.682377122234047
 21
0.5352391641624768
 72
     1
 10
2.682377122234047
 20
0.5352391641624768
 11
2.682377122234047
 21
0.5568015451239608
 72
     1
 10
2.682377122234047
 20
0.5568015451239608
 11
2.567439378396361
 21
0.5568015451239608
 72
     1
 10
2.567439378396361
 20
0.5568015451239608
 11
2.567439378396361
 21
0.5887705485089332
 72
     1
 10
2.567439378396361
 20
0.5887705485089332
 11
2.682377122234047
 21
0.5887705485089332
 72
     1
 10
2.682377122234047
 20
0.5887705485089332
 11
2.682377122234047
 21
0.6103328394705163
 72
     1
 10
2.682377122234047
 20
0.6103328394705163
 11
2.567439378396361
 21
0.6103328394705163
 72
     1
 10
2.567439378396361
 20
0.6103328394705163
 11
2.567439378396361
 21
0.6423016628555165
 72
     1
 10
2.567439378396361
 20
0.6423016628555165
 11
2.682377122234047
 21
0.6423016628555165
 72
     1
 10
2.682377122234047
 20
0.6423016628555165
 11
2.682377122234047
 21
0.6638644919422068
 97
        1
330
588
 75
     0
 76
     1
 98
        1
 10
-6.623918024059631
 20
-0.1308261527660757
  0
HATCH
  5
593
330
557
100
AcDbEntity
  8
CONTINUOUS1
 62
     9
100
AcDbHatch
 10
0.0
 20
0.0
 30
0.0
210
0.0
220
0.0
230
1.0
  2
SOLID
 70
     1
 71
     1
 91
        1
 92
        1
 93
        4
 72
     1
 10
2.981203152099315
 20
0.3820863083685713
 11
2.981203152099315
 21
0.3931967807444612
 72
     2
 10
2.9591586918806
 20
0.3584765545696773
 40
0.0411272699308212
 50
57.58784372121493
 51
302.4121562787851
 73
     1
 72
     1
 10
2.981203152099315
 20
0.3237563283948935
 11
2.981203152099315
 21
0.3348668007707834
 72
     2
 10
2.963081385264331
 20
0.3584765545696773
 40
0.0297627100188455
 50
52.49180531393309
 51
307.5081946860668
 73
     0
 97
        1
330
595
 75
     0
 76
     1
 98
        1
 10
-6.623918024059631
 20
-0.1308261527660757
  0
HATCH
  5
594
330
557
100
AcDbEntity
  8
CONTINUOUS1
 62
     9
100
AcDbHatch
 10
0.0
 20
0.0
 30
0.0
210
0.0
220
0.0
230
1.0
  2
SOLID
 70
     1
 71
     1
 91
        2
 92
        1
 93
       20
 72
     1
 10
2.883954646028403
 20
0.3185392197908646
 11
2.88673226412229
 21
0.3185392197908646
 72
     1
 10
2.88673226412229
 20
0.3185392197908646
 11
2.889509882216348
 21
0.3185392197908646
 72
     1
 10
2.889509882216348
 20
0.3185392197908646
 11
2.892287500310406
 21
0.3185392197908646
 72
     1
 10
2.892287500310406
 20
0.3185392197908646
 11
2.895065118404293
 21
0.3185392197908646
 72
     1
 10
2.895065118404293
 20
0.3185392197908646
 11
2.897842736498351
 21
0.3185392197908646
 72
     1
 10
2.897842736498351
 20
0.3185392197908646
 11
2.897842736498351
 21
0.3213168378847518
 72
     1
 10
2.897842736498351
 20
0.3213168378847518
 11
2.897842736498351
 21
0.3240944559788095
 72
     1
 10
2.897842736498351
 20
0.3240944559788095
 11
2.897842736498351
 21
0.39075729023449
 72
     1
 10
2.897842736498351
 20
0.39075729023449
 11
2.897842736498351
 21
0.3935349083285478
 72
     1
 10
2.897842736498351
 20
0.3935349083285478
 11
2.897843375494833
 21
0.396312526422435
 72
     1
 10
2.897843375494833
 20
0.396312526422435
 11
2.895065118404293
 21
0.396312526422435
 72
     1
 10
2.895065118404293
 20
0.396312526422435
 11
2.892287500310406
 21
0.396312526422435
 72
     1
 10
2.892287500310406
 20
0.396312526422435
 11
2.889509882216348
 21
0.396312526422435
 72
     1
 10
2.889509882216348
 20
0.396312526422435
 11
2.88673226412229
 21
0.396312526422435
 72
     1
 10
2.88673226412229
 20
0.396312526422435
 11
2.883954646028403
 21
0.396312526422435
 72
     1
 10
2.883954646028403
 20
0.396312526422435
 11
2.883954646028403
 21
0.3935349083285478
 72
     1
 10
2.883954646028403
 20
0.3935349083285478
 11
2.883954646028403
 21
0.39075729023449
 72
     1
 10
2.883954646028403
 20
0.39075729023449
 11
2.883954646028403
 21
0.3240944559788095
 72
     1
 10
2.883954646028403
 20
0.3240944559788095
 11
2.883954646028403
 21
0.3213168378847518
 72
     1
 10
2.883954646028403
 20
0.3213168378847518
 11
2.883954646028403
 21
0.3185392197908646
 97
        1
330
596
 92
        1
 93
        1
 72
     2
 10
2.890898691263291
 20
0.4213110892682726
 40
0.0083328542819542
 50
0.0
 51
360.0
 73
     1
 97
        1
330
597
 75
     0
 76
     1
 98
        1
 10
-6.623918024059631
 20
-0.1308261527660757
  0
LWPOLYLINE
  5
595
102
{ACAD_REACTORS
330
593
102
}
330
557
100
AcDbEntity
  8
CONTINUOUS1
  6
CONTINUOUS
 62
     9
100
AcDbPolyline
 90
        4
 70
     1
 43
0.0
 10
2.981203152099315
 20
0.3820863083685713
 10
2.981203152099315
 20
0.3931967807444612
 42
1.819450421535996
 10
2.981203152099315
 20
0.3237563283948935
 10
2.981203152099315
 20
0.3348668007707834
 42
-2.028165022884401
  0
LWPOLYLINE
  5
596
102
{ACAD_REACTORS
330
594
102
}
330
557
100
AcDbEntity
  8
CONTINUOUS1
  6
CONTINUOUS
 62
     9
100
AcDbPolyline
 90
       21
 70
     0
 43
0.0
 10
2.883954646028403
 20
0.3185392197908646
 10
2.88673226412229
 20
0.3185392197908646
 10
2.889509882216348
 20
0.3185392197908646
 10
2.892287500310406
 20
0.3185392197908646
 10
2.895065118404293
 20
0.3185392197908646
 10
2.897842736498351
 20
0.3185392197908646
 10
2.897842736498351
 20
0.3213168378847518
 10
2.897842736498351
 20
0.3240944559788095
 10
2.897842736498351
 20
0.39075729023449
 10
2.897842736498351
 20
0.3935349083285478
 10
2.897843375494833
 20
0.396312526422435
 10
2.895065118404293
 20
0.396312526422435
 10
2.892287500310406
 20
0.396312526422435
 10
2.889509882216348
 20
0.396312526422435
 10
2.88673226412229
 20
0.396312526422435
 10
2.883954646028403
 20
0.396312526422435
 10
2.883954646028403
 20
0.3935349083285478
 10
2.883954646028403
 20
0.39075729023449
 10
2.883954646028403
 20
0.3240944559788095
 10
2.883954646028403
 20
0.3213168378847518
 10
2.883954646028403
 20
0.3185392197908646
  0
CIRCLE
  5
597
102
{ACAD_REACTORS
330
594
102
}
330
557
100
AcDbEntity
  8
CONTINUOUS1
 62
     9
100
AcDbCircle
 10
2.890898691263291
 20
0.4213110892682726
 30
0.0
 40
0.0083328542819542
  0
LWPOLYLINE
  5
598
102
{ACAD_REACTORS
330
567
102
}
330
557
100
AcDbEntity
  8
CONTINUOUS1
  6
CONTINUOUS
 62
     9
100
AcDbPolyline
 90
        7
 70
     0
 43
0.0
 10
2.846064035419235
 20
0.6423016628555165
 10
2.959782634710521
 20
0.6423016628555165
 42
-0.4142135623918432
 10
2.97056404175391
 20
0.6315204283122381
 10
2.97056404175391
 20
0.5675829596674955
 42
-0.4142111173935808
 10
2.959782634710521
 20
0.5568015451240994
 10
2.846064035419235
 20
0.5568015451240994
 10
2.846064035419235
 20
0.6423016628555165
  0
ENDBLK
  5
59A
330
557
100
AcDbEntity
  8
0
100
AcDbBlockEnd
  0
BLOCK
  5
3FC4
330
3FB9
100
AcDbEntity
  8
0
100
AcDbBlockBegin
  2
*D3
 70
     1
 10
0.0
 20
0.0
 30
0.0
  3
*D3
  1

  0
LINE
  5
4C01
330
3FB9
100
AcDbEntity
  8
DIM
100
AcDbLine
 10
18.97475972474589
 20
13.23797866905096
 30
0.0
 11
18.97475972474589
 21
15.70432618036545
 31
0.0
  0
LINE
  5
4C02
330
3FB9
100
AcDbEntity
  8
DIM
100
AcDbLine
 10
25.47475972474589
 20
14.78583581190811
 30
0.0
 11
25.47475972474589
 21
15.70432618036545
 31
0.0
  0
LINE
  5
4C03
330
3FB9
100
AcDbEntity
  8
DIM
100
AcDbLine
 10
19.11475972474589
 20
15.57932618036545
 30
0.0
 11
21.76380734379351
 21
15.57932618036545
 31
0.0
  0
LINE
  5
4C04
330
3FB9
100
AcDbEntity
  8
DIM
100
AcDbLine
 10
25.33475972474589
 20
15.57932618036545
 30
0.0
 11
22.68571210569827
 21
15.57932618036545
 31
0.0
  0
INSERT
  5
4C05
330
3FB9
100
AcDbEntity
  8
DIM
100
AcDbBlockReference
  2
SEARROW
 10
18.97475972474589
 20
15.57932618036545
 30
0.0
 41
0.14
 42
0.14
 43
0.14
 50
180.0
  0
INSERT
  5
4C06
330
3FB9
100
AcDbEntity
  8
DIM
100
AcDbBlockReference
  2
SEARROW
 10
25.47475972474589
 20
15.57932618036545
 30
0.0
 41
0.14
 42
0.14
 43
0.14
  0
MTEXT
  5
4C07
330
3FB9
100
AcDbEntity
  8
DIM
100
AcDbMText
 10
22.22475972474589
 20
15.57932618036545
 30
0.0
 40
0.2
 41
0.0
 71
     5
 72
     1
  1
\A1;6.50\P{\H0.8x; [165]
  7
ROMANS
1001
ACAD
1000
MTEXTBEGIN
1070
    73
1070
     1
1070
    44
1040
1.0
1070
    74
1070
     0
1000
MTEXTEND
  0
POINT
  5
4C08
330
3FB9
100
AcDbEntity
  8
DEFPOINTS
 62
     0
100
AcDbPoint
 10
18.97475972474589
 20
13.11297866905096
 30
0.0
  0
POINT
  5
4C09
330
3FB9
100
AcDbEntity
  8
DEFPOINTS
 62
     0
100
AcDbPoint
 10
25.47475972474589
 20
14.66083581190811
 30
0.0
  0
POINT
  5
4C0A
330
3FB9
100
AcDbEntity
  8
DEFPOINTS
 62
     0
100
AcDbPoint
 10
25.47475972474589
 20
15.57932618036545
 30
0.0
  0
ENDBLK
  5
3FC5
330
3FB9
100
AcDbEntity
  8
0
100
AcDbBlockEnd
  0
BLOCK
  5
3FD1
330
3FC6
100
AcDbEntity
  8
0
100
AcDbBlockBegin
  2
*D4
 70
     1
 10
0.0
 20
0.0
 30
0.0
  3
*D4
  1

  0
LINE
  5
4C0B
330
3FC6
100
AcDbEntity
  8
DIM
100
AcDbLine
 10
13.6778847247459
 20
14.64869295476525
 30
0.0
 11
13.6778847247459
 21
16.87897410464458
 31
0.0
  0
LINE
  5
4C0C
330
3FC6
100
AcDbEntity
  8
DIM
100
AcDbLine
 10
7.677884724745901
 20
14.64869295476525
 30
0.0
 11
7.677884724745901
 21
16.87897410464458
 31
0.0
  0
LINE
  5
4C0D
330
3FC6
100
AcDbEntity
  8
DIM
100
AcDbLine
 10
13.5378847247459
 20
16.75397410464458
 30
0.0
 11
11.1219478656288
 21
16.75397410464458
 31
0.0
  0
LINE
  5
4C0E
330
3FC6
100
AcDbEntity
  8
DIM
100
AcDbLine
 10
7.8178847247459
 20
16.75397410464458
 30
0.0
 11
10.20004310372403
 21
16.75397410464458
 31
0.0
  0
INSERT
  5
4C0F
330
3FC6
100
AcDbEntity
  8
DIM
100
AcDbBlockReference
  2
SEARROW
 10
13.6778847247459
 20
16.75397410464458
 30
0.0
 41
0.14
 42
0.14
 43
0.14
  0
INSERT
  5
4C10
330
3FC6
100
AcDbEntity
  8
DIM
100
AcDbBlockReference
  2
SEARROW
 10
7.677884724745901
 20
16.75397410464458
 30
0.0
 41
0.14
 42
0.14
 43
0.14
 50
180.0
  0
MTEXT
  5
4C11
330
3FC6
100
AcDbEntity
  8
DIM
100
AcDbMText
 10
10.66099548467642
 20
16.75397410464458
 30
0.0
 40
0.2
 41
0.0
 71
     5
 72
     1
  1
\A1;6.00\P{\H0.8x; [152]
  7
ROMANS
1001
ACAD
1000
MTEXTBEGIN
1070
    73
1070
     1
1070
    44
1040
1.0
1070
    74
1070
     0
1000
MTEXTEND
  0
POINT
  5
4C12
330
3FC6
100
AcDbEntity
  8
DEFPOINTS
 62
     0
100
AcDbPoint
 10
13.6778847247459
 20
14.52369295476525
 30
0.0
  0
POINT
  5
4C13
330
3FC6
100
AcDbEntity
  8
DEFPOINTS
 62
     0
100
AcDbPoint
 10
7.677884724745901
 20
14.52369295476525
 30
0.0
  0
POINT
  5
4C14
330
3FC6
100
AcDbEntity
  8
DEFPOINTS
 62
     0
100
AcDbPoint
 10
7.677884724745901
 20
16.75397410464458
 30
0.0
  0
ENDBLK
  5
3FD2
330
3FC6
100
AcDbEntity
  8
0
100
AcDbBlockEnd
  0
BLOCK
  5
3FDE
330
3FD3
100
AcDbEntity
  8
0
100
AcDbBlockBegin
  2
*D5
 70
     1
 10
0.0
 20
0.0
 30
0.0
  3
*D5
  1

  0
LINE
  5
4C15
330
3FD3
100
AcDbEntity
  8
DIM
100
AcDbLine
 10
13.6778847247459
 20
14.64869295476525
 30
0.0
 11
13.6778847247459
 21
16.00806795476525
 31
0.0
  0
LINE
  5
4C16
330
3FD3
100
AcDbEntity
  8
DIM
100
AcDbLine
 10
9.740384724745901
 20
14.47333581190811
 30
0.0
 11
9.740384724745901
 21
16.00806795476525
 31
0.0
  0
LINE
  5
4C17
330
3FD3
100
AcDbEntity
  8
DIM
100
AcDbLine
 10
13.5378847247459
 20
15.88306795476525
 30
0.0
 11
12.17008710569828
 21
15.88306795476525
 31
0.0
  0
LINE
  5
4C18
330
3FD3
100
AcDbEntity
  8
DIM
100
AcDbLine
 10
9.880384724745901
 20
15.88306795476525
 30
0.0
 11
11.24818234379352
 21
15.88306795476525
 31
0.0
  0
INSERT
  5
4C19
330
3FD3
100
AcDbEntity
  8
DIM
100
AcDbBlockReference
  2
SEARROW
 10
13.6778847247459
 20
15.88306795476525
 30
0.0
 41
0.14
 42
0.14
 43
0.14
  0
INSERT
  5
4C1A
330
3FD3
100
AcDbEntity
  8
DIM
100
AcDbBlockReference
  2
SEARROW
 10
9.740384724745901
 20
15.88306795476525
 30
0.0
 41
0.14
 42
0.14
 43
0.14
 50
180.0
  0
MTEXT
  5
4C1B
330
3FD3
100
AcDbEntity
  8
DIM
100
AcDbMText
 10
11.7091347247459
 20
15.88306795476525
 30
0.0
 40
0.2
 41
0.0
 71
     5
 72
     1
  1
\A1;3.94\P{\H0.8x; [100]
  7
ROMANS
1001
ACAD
1000
MTEXTBEGIN
1070
    73
1070
     1
1070
    44
1040
1.0
1070
    74
1070
     0
1000
MTEXTEND
  0
POINT
  5
4C1C
330
3FD3
100
AcDbEntity
  8
DEFPOINTS
 62
     0
100
AcDbPoint
 10
13.6778847247459
 20
14.52369295476525
 30
0.0
  0
POINT
  5
4C1D
330
3FD3
100
AcDbEntity
  8
DEFPOINTS
 62
     0
100
AcDbPoint
 10
9.740384724745901
 20
14.34833581190811
 30
0.0
  0
POINT
  5
4C1E
330
3FD3
100
AcDbEntity
  8
DEFPOINTS
 62
     0
100
AcDbPoint
 10
9.740384724745901
 20
15.88306795476525
 30
0.0
  0
ENDBLK
  5
3FDF
330
3FD3
100
AcDbEntity
  8
0
100
AcDbBlockEnd
  0
BLOCK
  5
3FEB
330
3FE0
100
AcDbEntity
  8
0
100
AcDbBlockBegin
  2
*D6
 70
     1
 10
0.0
 20
0.0
 30
0.0
  3
*D6
  1

  0
LINE
  5
4C1F
330
3FE0
100
AcDbEntity
  8
DIM
100
AcDbLine
 10
13.3341347247459
 20
7.213335811908111
 30
0.0
 11
13.3341347247459
 21
4.758042954765246
 31
0.0
  0
LINE
  5
4C20
330
3FE0
100
AcDbEntity
  8
DIM
100
AcDbLine
 10
8.021634724745901
 20
7.213335811908111
 30
0.0
 11
8.021634724745901
 21
4.758042954765246
 31
0.0
  0
LINE
  5
4C21
330
3FE0
100
AcDbEntity
  8
DIM
100
AcDbLine
 10
13.1941347247459
 20
4.883042954765246
 30
0.0
 11
11.13883710569828
 21
4.883042954765246
 31
0.0
  0
LINE
  5
4C22
330
3FE0
100
AcDbEntity
  8
DIM
100
AcDbLine
 10
8.161634724745901
 20
4.883042954765246
 30
0.0
 11
10.21693234379352
 21
4.883042954765246
 31
0.0
  0
INSERT
  5
4C23
330
3FE0
100
AcDbEntity
  8
DIM
100
AcDbBlockReference
  2
SEARROW
 10
13.3341347247459
 20
4.883042954765246
 30
0.0
 41
0.14
 42
0.14
 43
0.14
  0
INSERT
  5
4C24
330
3FE0
100
AcDbEntity
  8
DIM
100
AcDbBlockReference
  2
SEARROW
 10
8.021634724745901
 20
4.883042954765246
 30
0.0
 41
0.14
 42
0.14
 43
0.14
 50
180.0
  0
MTEXT
  5
4C25
330
3FE0
100
AcDbEntity
  8
DIM
100
AcDbMText
 10
10.6778847247459
 20
4.883042954765246
 30
0.0
 40
0.2
 41
0.0
 71
     5
 72
     1
  1
\A1;5.31\P{\H0.8x; [135]
  7
ROMANS
1001
ACAD
1000
MTEXTBEGIN
1070
    73
1070
     1
1070
    44
1040
1.0
1070
    74
1070
     0
1000
MTEXTEND
  0
POINT
  5
4C26
330
3FE0
100
AcDbEntity
  8
DEFPOINTS
 62
     0
100
AcDbPoint
 10
13.3341347247459
 20
7.338335811908111
 30
0.0
  0
POINT
  5
4C27
330
3FE0
100
AcDbEntity
  8
DEFPOINTS
 62
     0
100
AcDbPoint
 10
8.021634724745901
 20
7.338335811908111
 30
0.0
  0
POINT
  5
4C28
330
3FE0
100
AcDbEntity
  8
DEFPOINTS
 62
     0
100
AcDbPoint
 10
8.021634724745901
 20
4.883042954765246
 30
0.0
  0
ENDBLK
  5
3FEC
330
3FE0
100
AcDbEntity
  8
0
100
AcDbBlockEnd
  0
BLOCK
  5
3FF8
330
3FED
100
AcDbEntity
  8
0
100
AcDbBlockBegin
  2
*D7
 70
     1
 10
0.0
 20
0.0
 30
0.0
  3
*D7
  1

  0
LINE
  5
4C29
330
3FED
100
AcDbEntity
  8
DIM
100
AcDbLine
 10
13.6778847247459
 20
6.485478669050968
 30
0.0
 11
13.6778847247459
 21
5.439622732782462
 31
0.0
  0
LINE
  5
4C2A
330
3FED
100
AcDbEntity
  8
DIM
100
AcDbLine
 10
13.3341347247459
 20
7.213335811908111
 30
0.0
 11
13.3341347247459
 21
5.439622732782462
 31
0.0
  0
LINE
  5
4C2B
330
3FED
100
AcDbEntity
  8
DIM
100
AcDbLine
 10
13.8178847247459
 20
5.564622732782462
 30
0.0
 11
13.9578847247459
 21
5.564622732782462
 31
0.0
  0
LINE
  5
4C2C
330
3FED
100
AcDbEntity
  8
DIM
100
AcDbLine
 10
13.1941347247459
 20
5.564622732782462
 30
0.0
 11
12.5388966295078
 21
5.564622732782462
 31
0.0
  0
INSERT
  5
4C2D
330
3FED
100
AcDbEntity
  8
DIM
100
AcDbBlockReference
  2
SEARROW
 10
13.6778847247459
 20
5.564622732782462
 30
0.0
 41
0.14
 42
0.14
 43
0.14
 50
180.0
  0
INSERT
  5
4C2E
330
3FED
100
AcDbEntity
  8
DIM
100
AcDbBlockReference
  2
SEARROW
 10
13.3341347247459
 20
5.564622732782462
 30
0.0
 41
0.14
 42
0.14
 43
0.14
  0
MTEXT
  5
4C2F
330
3FED
100
AcDbEntity
  8
DIM
100
AcDbMText
 10
12.23032520093637
 20
5.564622732782462
 30
0.0
 40
0.2
 41
0.0
 71
     5
 72
     1
  1
\A1;.34\P{\H0.8x; [9]
  7
ROMANS
1001
ACAD
1000
MTEXTBEGIN
1070
    73
1070
     1
1070
    44
1040
1.0
1070
    74
1070
     0
1000
MTEXTEND
  0
POINT
  5
4C30
330
3FED
100
AcDbEntity
  8
DEFPOINTS
 62
     0
100
AcDbPoint
 10
13.6778847247459
 20
6.610478669050968
 30
0.0
  0
POINT
  5
4C31
330
3FED
100
AcDbEntity
  8
DEFPOINTS
 62
     0
100
AcDbPoint
 10
13.3341347247459
 20
7.338335811908111
 30
0.0
  0
POINT
  5
4C32
330
3FED
100
AcDbEntity
  8
DEFPOINTS
 62
     0
100
AcDbPoint
 10
13.3341347247459
 20
5.564622732782462
 30
0.0
  0
ENDBLK
  5
3FF9
330
3FED
100
AcDbEntity
  8
0
100
AcDbBlockEnd
  0
BLOCK
  5
4005
330
3FFA
100
AcDbEntity
  8
0
100
AcDbBlockBegin
  2
*D8
 70
     1
 10
0.0
 20
0.0
 30
0.0
  3
*D8
  1

  0
LINE
  5
4C33
330
3FFA
100
AcDbEntity
  8
DIM
100
AcDbLine
 10
13.66574186760304
 20
14.66083581190811
 30
0.0
 11
16.90840385180147
 21
14.66083581190811
 31
0.0
  0
LINE
  5
4C34
330
3FFA
100
AcDbEntity
  8
DIM
100
AcDbLine
 10
13.66574186760304
 20
6.473335811908111
 30
0.0
 11
16.90840385180146
 21
6.47333581190811
 31
0.0
  0
LINE
  5
4C35
330
3FFA
100
AcDbEntity
  8
DIM
100
AcDbLine
 10
16.78340385180147
 20
14.52083581190811
 30
0.0
 11
16.78340385180147
 21
10.94041914524144
 31
0.0
  0
LINE
  5
4C36
330
3FFA
100
AcDbEntity
  8
DIM
100
AcDbLine
 10
16.78340385180146
 20
6.613335811908109
 30
0.0
 11
16.78340385180147
 21
10.19375247857477
 31
0.0
  0
INSERT
  5
4C37
330
3FFA
100
AcDbEntity
  8
DIM
100
AcDbBlockReference
  2
SEARROW
 10
16.78340385180147
 20
14.66083581190811
 30
0.0
 41
0.14
 42
0.14
 43
0.14
 50
90.0
  0
INSERT
  5
4C38
330
3FFA
100
AcDbEntity
  8
DIM
100
AcDbBlockReference
  2
SEARROW
 10
16.78340385180146
 20
6.47333581190811
 30
0.0
 41
0.14
 42
0.14
 43
0.14
 50
270.0
  0
MTEXT
  5
4C39
330
3FFA
100
AcDbEntity
  8
DIM
100
AcDbMText
 10
16.78340385180146
 20
10.56708581190811
 30
0.0
 40
0.2
 41
0.0
 71
     5
 72
     1
  1
\A1;8.19\P{\H0.8x; [208]
  7
ROMANS
1001
ACAD
1000
MTEXTBEGIN
1070
    73
1070
     1
1070
    44
1040
1.0
1070
    74
1070
     0
1000
MTEXTEND
  0
POINT
  5
4C3A
330
3FFA
100
AcDbEntity
  8
DEFPOINTS
 62
     0
100
AcDbPoint
 10
13.54074186760304
 20
14.66083581190811
 30
0.0
  0
POINT
  5
4C3B
330
3FFA
100
AcDbEntity
  8
DEFPOINTS
 62
     0
100
AcDbPoint
 10
13.54074186760304
 20
6.473335811908111
 30
0.0
  0
POINT
  5
4C3C
330
3FFA
100
AcDbEntity
  8
DEFPOINTS
 62
     0
100
AcDbPoint
 10
16.78340385180146
 20
6.47333581190811
 30
0.0
  0
ENDBLK
  5
4006
330
3FFA
100
AcDbEntity
  8
0
100
AcDbBlockEnd
  0
BLOCK
  5
4013
330
4007
100
AcDbEntity
  8
0
100
AcDbBlockBegin
  2
*D9
 70
     1
 10
0.0
 20
0.0
 30
0.0
  3
*D9
  1

  0
LINE
  5
4C3D
330
4007
100
AcDbEntity
  8
DIM
100
AcDbLine
 10
13.66574186760304
 20
14.66083581190811
 30
0.0
 11
14.8497597247459
 21
14.66083581190811
 31
0.0
  0
LINE
  5
4C3E
330
4007
100
AcDbEntity
  8
DIM
100
AcDbLine
 10
9.865384724745901
 20
14.34833581190811
 30
0.0
 11
14.8497597247459
 21
14.3483358119081
 31
0.0
  0
LINE
  5
4C3F
330
4007
100
AcDbEntity
  8
DIM
100
AcDbLine
 10
14.7247597247459
 20
14.2083358119081
 30
0.0
 11
14.7247597247459
 21
14.0683358119081
 31
0.0
  0
LINE
  5
4C40
330
4007
100
AcDbEntity
  8
DIM
100
AcDbLine
 10
14.7247597247459
 20
14.80083581190811
 30
0.0
 11
14.7247597247459
 21
15.32838045476525
 31
0.0
  0
LINE
  5
4C41
330
4007
100
AcDbEntity
  8
DIM
100
AcDbLine
 10
14.7247597247459
 20
15.32838045476525
 30
0.0
 11
14.8647597247459
 21
15.32838045476525
 31
0.0
  0
INSERT
  5
4C42
330
4007
100
AcDbEntity
  8
DIM
100
AcDbBlockReference
  2
SEARROW
 10
14.7247597247459
 20
14.3483358119081
 30
0.0
 41
0.14
 42
0.14
 43
0.14
 50
90.0
  0
INSERT
  5
4C43
330
4007
100
AcDbEntity
  8
DIM
100
AcDbBlockReference
  2
SEARROW
 10
14.7247597247459
 20
14.66083581190811
 30
0.0
 41
0.14
 42
0.14
 43
0.14
 50
270.0
  0
MTEXT
  5
4C44
330
4007
100
AcDbEntity
  8
DIM
100
AcDbMText
 10
15.17333115331733
 20
15.32838045476525
 30
0.0
 40
0.2
 41
0.0
 71
     5
 72
     1
  1
\A1;.31\P{\H0.8x; [8]
  7
ROMANS
1001
ACAD
1000
MTEXTBEGIN
1070
    73
1070
     1
1070
    44
1040
1.0
1070
    74
1070
     0
1000
MTEXTEND
  0
POINT
  5
4C45
330
4007
100
AcDbEntity
  8
DEFPOINTS
 62
     0
100
AcDbPoint
 10
13.54074186760304
 20
14.66083581190811
 30
0.0
  0
POINT
  5
4C46
330
4007
100
AcDbEntity
  8
DEFPOINTS
 62
     0
100
AcDbPoint
 10
9.740384724745901
 20
14.34833581190811
 30
0.0
  0
POINT
  5
4C47
330
4007
100
AcDbEntity
  8
DEFPOINTS
 62
     0
100
AcDbPoint
 10
14.7247597247459
 20
14.3483358119081
 30
0.0
  0
ENDBLK
  5
4014
330
4007
100
AcDbEntity
  8
0
100
AcDbBlockEnd
  0
BLOCK
  5
4020
330
4015
100
AcDbEntity
  8
0
100
AcDbBlockBegin
  2
*D10
 70
     1
 10
0.0
 20
0.0
 30
0.0
  3
*D10
  1

  0
LINE
  5
4C48
330
4015
100
AcDbEntity
  8
DIM
100
AcDbLine
 10
9.865384724745901
 20
14.34833581190811
 30
0.0
 11
14.8497597247459
 21
14.3483358119081
 31
0.0
  0
LINE
  5
4C49
330
4015
100
AcDbEntity
  8
DIM
100
AcDbLine
 10
13.4591347247459
 20
7.338335811908111
 30
0.0
 11
14.8497597247459
 21
7.33833581190811
 31
0.0
  0
LINE
  5
4C4A
330
4015
100
AcDbEntity
  8
DIM
100
AcDbLine
 10
14.7247597247459
 20
14.2083358119081
 30
0.0
 11
14.7247597247459
 21
11.21666914524144
 31
0.0
  0
LINE
  5
4C4B
330
4015
100
AcDbEntity
  8
DIM
100
AcDbLine
 10
14.7247597247459
 20
7.47833581190811
 30
0.0
 11
14.7247597247459
 21
10.47000247857477
 31
0.0
  0
INSERT
  5
4C4C
330
4015
100
AcDbEntity
  8
DIM
100
AcDbBlockReference
  2
SEARROW
 10
14.7247597247459
 20
14.3483358119081
 30
0.0
 41
0.14
 42
0.14
 43
0.14
 50
90.0
  0
INSERT
  5
4C4D
330
4015
100
AcDbEntity
  8
DIM
100
AcDbBlockReference
  2
SEARROW
 10
14.7247597247459
 20
7.33833581190811
 30
0.0
 41
0.14
 42
0.14
 43
0.14
 50
270.0
  0
MTEXT
  5
4C4E
330
4015
100
AcDbEntity
  8
DIM
100
AcDbMText
 10
14.72475972474589
 20
10.84333581190811
 30
0.0
 40
0.2
 41
0.0
 71
     5
 72
     1
  1
\A1;7.01\P{\H0.8x; [178]
  7
ROMANS
1001
ACAD
1000
MTEXTBEGIN
1070
    73
1070
     1
1070
    44
1040
1.0
1070
    74
1070
     0
1000
MTEXTEND
  0
POINT
  5
4C4F
330
4015
100
AcDbEntity
  8
DEFPOINTS
 62
     0
100
AcDbPoint
 10
9.740384724745901
 20
14.34833581190811
 30
0.0
  0
POINT
  5
4C50
330
4015
100
AcDbEntity
  8
DEFPOINTS
 62
     0
100
AcDbPoint
 10
13.3341347247459
 20
7.338335811908111
 30
0.0
  0
POINT
  5
4C51
330
4015
100
AcDbEntity
  8
DEFPOINTS
 62
     0
100
AcDbPoint
 10
14.7247597247459
 20
7.33833581190811
 30
0.0
  0
ENDBLK
  5
4021
330
4015
100
AcDbEntity
  8
0
100
AcDbBlockEnd
  0
BLOCK
  5
402D
330
4022
100
AcDbEntity
  8
0
100
AcDbBlockBegin
  2
*D11
 70
     1
 10
0.0
 20
0.0
 30
0.0
  3
*D11
  1

  0
LINE
  5
4C52
330
4022
100
AcDbEntity
  8
DIM
100
AcDbLine
 10
9.740384724745901
 20
14.47333581190811
 30
0.0
 11
9.740384724745901
 21
16.00806795476525
 31
0.0
  0
LINE
  5
4C53
330
4022
100
AcDbEntity
  8
DIM
100
AcDbLine
 10
7.677884724745901
 20
14.64869295476525
 30
0.0
 11
7.677884724745901
 21
16.00806795476525
 31
0.0
  0
LINE
  5
4C54
330
4022
100
AcDbEntity
  8
DIM
100
AcDbLine
 10
9.6003847247459
 20
15.88306795476525
 30
0.0
 11
9.093896629507806
 21
15.88306795476525
 31
0.0
  0
LINE
  5
4C55
330
4022
100
AcDbEntity
  8
DIM
100
AcDbLine
 10
7.8178847247459
 20
15.88306795476525
 30
0.0
 11
8.324372819983995
 21
15.88306795476525
 31
0.0
  0
INSERT
  5
4C56
330
4022
100
AcDbEntity
  8
DIM
100
AcDbBlockReference
  2
SEARROW
 10
9.740384724745901
 20
15.88306795476525
 30
0.0
 41
0.14
 42
0.14
 43
0.14
  0
INSERT
  5
4C57
330
4022
100
AcDbEntity
  8
DIM
100
AcDbBlockReference
  2
SEARROW
 10
7.677884724745901
 20
15.88306795476525
 30
0.0
 41
0.14
 42
0.14
 43
0.14
 50
180.0
  0
MTEXT
  5
4C58
330
4022
100
AcDbEntity
  8
DIM
100
AcDbMText
 10
8.709134724745901
 20
15.88306795476525
 30
0.0
 40
0.2
 41
0.0
 71
     5
 72
     1
  1
\A1;2.06\P{\H0.8x; [52]
  7
ROMANS
1001
ACAD
1000
MTEXTBEGIN
1070
    73
1070
     1
1070
    44
1040
1.0
1070
    74
1070
     0
1000
MTEXTEND
  0
POINT
  5
4C59
330
4022
100
AcDbEntity
  8
DEFPOINTS
 62
     0
100
AcDbPoint
 10
9.740384724745901
 20
14.34833581190811
 30
0.0
  0
POINT
  5
4C5A
330
4022
100
AcDbEntity
  8
DEFPOINTS
 62
     0
100
AcDbPoint
 10
7.677884724745901
 20
14.52369295476525
 30
0.0
  0
POINT
  5
4C5B
330
4022
100
AcDbEntity
  8
DEFPOINTS
 62
     0
100
AcDbPoint
 10
7.677884724745901
 20
15.88306795476525
 30
0.0
  0
ENDBLK
  5
402E
330
4022
100
AcDbEntity
  8
0
100
AcDbBlockEnd
  0
BLOCK
  5
403A
330
402F
100
AcDbEntity
  8
0
100
AcDbBlockBegin
  2
*D12
 70
     1
 10
0.0
 20
0.0
 30
0.0
  3
*D12
  1

  0
LINE
  5
4C5C
330
402F
100
AcDbEntity
  8
DIM
100
AcDbLine
 10
9.740384724745901
 20
14.22333581190811
 30
0.0
 11
9.740384724745901
 21
5.508042954765246
 31
0.0
  0
LINE
  5
4C5D
330
402F
100
AcDbEntity
  8
DIM
100
AcDbLine
 10
8.021634724745901
 20
7.213335811908111
 30
0.0
 11
8.021634724745901
 21
5.508042954765246
 31
0.0
  0
LINE
  5
4C5E
330
402F
100
AcDbEntity
  8
DIM
100
AcDbLine
 10
9.6003847247459
 20
5.633042954765246
 30
0.0
 11
9.265771629507806
 21
5.633042954765246
 31
0.0
  0
LINE
  5
4C5F
330
402F
100
AcDbEntity
  8
DIM
100
AcDbLine
 10
8.161634724745901
 20
5.633042954765246
 30
0.0
 11
8.496247819983995
 21
5.633042954765246
 31
0.0
  0
INSERT
  5
4C60
330
402F
100
AcDbEntity
  8
DIM
100
AcDbBlockReference
  2
SEARROW
 10
9.740384724745901
 20
5.633042954765246
 30
0.0
 41
0.14
 42
0.14
 43
0.14
  0
INSERT
  5
4C61
330
402F
100
AcDbEntity
  8
DIM
100
AcDbBlockReference
  2
SEARROW
 10
8.021634724745901
 20
5.633042954765246
 30
0.0
 41
0.14
 42
0.14
 43
0.14
 50
180.0
  0
MTEXT
  5
4C62
330
402F
100
AcDbEntity
  8
DIM
100
AcDbMText
 10
8.881009724745901
 20
5.633042954765246
 30
0.0
 40
0.2
 41
0.0
 71
     5
 72
     1
  1
\A1;1.72\P{\H0.8x; [44]
  7
ROMANS
1001
ACAD
1000
MTEXTBEGIN
1070
    73
1070
     1
1070
    44
1040
1.0
1070
    74
1070
     0
1000
MTEXTEND
  0
POINT
  5
4C63
330
402F
100
AcDbEntity
  8
DEFPOINTS
 62
     0
100
AcDbPoint
 10
9.740384724745901
 20
14.34833581190811
 30
0.0
  0
POINT
  5
4C64
330
402F
100
AcDbEntity
  8
DEFPOINTS
 62
     0
100
AcDbPoint
 10
8.021634724745901
 20
7.338335811908111
 30
0.0
  0
POINT
  5
4C65
330
402F
100
AcDbEntity
  8
DEFPOINTS
 62
     0
100
AcDbPoint
 10
8.021634724745901
 20
5.633042954765246
 30
0.0
  0
ENDBLK
  5
403B
330
402F
100
AcDbEntity
  8
0
100
AcDbBlockEnd
  0
BLOCK
  5
436B
330
4367
100
AcDbEntity
  8
0
100
AcDbBlockBegin
  2
DUALDIM
 70
     0
 10
0.0
 20
0.0
 30
0.0
  3
DUALDIM
  1

  0
TEXT
  5
4368
330
4367
100
AcDbEntity
  8
TEXT1
100
AcDbText
 10
-2.030680408630159
 20
0.2153350361163993
 30
0.0
 40
0.0799999990332709
  1
DUAL DIMENSIONS:
  7
ROMANS
 11
-2.030680408630159
 21
0.2553350356330348
 31
0.0
100
AcDbText
 73
     2
  0
TEXT
  5
4369
330
4367
100
AcDbEntity
  8
TEXT1
100
AcDbText
 10
-0.8594752334243551
 20
0.2679392473614512
 30
0.0
 40
0.1000000031915378
  1
INCHES
  7
ROMANS
 11
-0.8594752334243551
 21
0.3179392489572201
 31
0.0
100
AcDbText
 73
     2
  0
TEXT
  5
436A
330
4367
100
AcDbEntity
  8
TEXT1
100
AcDbText
 10
-0.8594752334243551
 20
0.1279392329200802
 30
0.0
 40
0.0799999990332709
  1
MILLIMETERS
  7
ROMANS
 11
-0.8594752334243551
 21
0.1679392324367157
 31
0.0
100
AcDbText
 73
     2
  0
ENDBLK
  5
436C
330
4367
100
AcDbEntity
  8
0
100
AcDbBlockEnd
  0
BLOCK
  5
44E7
330
44D4
100
AcDbEntity
  8
0
100
AcDbBlockBegin
  2
ATTRIBUTES_FIXED
 70
     2
 10
0.0
 20
0.0
 30
0.0
  3
ATTRIBUTES_FIXED
  1

  0
ATTDEF
  5
44D5
330
44D4
100
AcDbEntity
  8
TEXT1
100
AcDbText
 10
1.28
 20
1.239999999999999
 30
0.0
 40
0.08
  1

  7
ROMANS
100
AcDbAttributeDefinition
  3
Catalog Number?
  2
CATALOG
 70
     0
  0
ATTDEF
  5
44D6
330
44D4
100
AcDbEntity
  8
TEXT1
100
AcDbText
 10
1.28
 20
1.101079875256662
 30
0.0
 40
0.08
  1

  7
ROMANS
100
AcDbAttributeDefinition
  3
Ratings?
  2
RATING
 70
     0
  0
ATTDEF
  5
44D7
330
44D4
100
AcDbEntity
  8
TEXT1
100
AcDbText
 10
1.287029312854811
 20
0.9599999999999999
 30
0.0
 40
0.08
  1

  7
ROMANS
100
AcDbAttributeDefinition
  3
UL File/Guide?
  2
UL
 70
     0
  0
ATTDEF
  5
44D8
330
44D4
100
AcDbEntity
  8
TEXT1
100
AcDbText
 10
1.28
 20
0.8281064926856728
 30
0.0
 40
0.08
  1

  7
ROMANS
100
AcDbAttributeDefinition
  3
CSA File/Guide
  2
CSA
 70
     0
  0
ATTDEF
  5
44D9
330
44D4
100
AcDbEntity
  8
TEXT1
100
AcDbText
 10
1.28
 20
0.6800000000000001
 30
0.0
 40
0.08
  1

  7
ROMANS
100
AcDbAttributeDefinition
  3
Meets Standards
  2
STANDARDS
 70
     0
  0
ATTDEF
  5
44DA
330
44D4
100
AcDbEntity
  8
TEXT1
100
AcDbText
 10
1.28
 20
0.5481065041704892
 30
0.0
 40
0.08
  1

  7
ROMANS
100
AcDbAttributeDefinition
  3
Weight?
  2
WEIGHT
 70
     0
  0
ATTDEF
  5
44DB
330
44D4
100
AcDbEntity
  8
TEXT1
100
AcDbText
 10
1.28
 20
0.4210798752566629
 30
0.0
 40
0.08
  1

  7
ROMANS
100
AcDbAttributeDefinition
  3
Wire Size?
  2
WIRE_SIZE
 70
     0
  0
TEXT
  5
44DC
330
44D4
100
AcDbEntity
  8
TEXT1
100
AcDbText
 10
0.12
 20
0.1428571428571429
 30
0.0
 40
0.08
  1
Mounting Hwd.:
  7
ROMANS
100
AcDbText
  0
TEXT
  5
44DD
330
44D4
100
AcDbEntity
  8
TEXT1
100
AcDbText
 10
0.12
 20
0.28
 30
0.0
 40
0.08
  1
Terminal torque:
  7
ROMANS
100
AcDbText
  0
TEXT
  5
44DE
330
44D4
100
AcDbEntity
  8
TEXT1
100
AcDbText
 10
0.12
 20
0.4171428571428573
 30
0.0
 40
0.08
  1
Wire Size:
  7
ROMANS
100
AcDbText
  0
TEXT
  5
44DF
330
44D4
100
AcDbEntity
  8
TEXT1
100
AcDbText
 10
0.12
 20
0.5542857142857145
 30
0.0
 40
0.08
  1
Weight:
  7
ROMANS
100
AcDbText
  0
TEXT
  5
44E0
330
44D4
100
AcDbEntity
  8
TEXT1
100
AcDbText
 10
0.12
 20
0.6914285714285714
 30
0.0
 40
0.08
  1
Meets Standards:
  7
ROMANS
100
AcDbText
  0
TEXT
  5
44E1
330
44D4
100
AcDbEntity
  8
TEXT1
100
AcDbText
 10
0.12
 20
0.8285714285714282
 30
0.0
 40
0.08
  1
CSA File/Class:
  7
ROMANS
100
AcDbText
  0
TEXT
  5
44E2
330
44D4
100
AcDbEntity
  8
TEXT1
100
AcDbText
 10
0.12
 20
0.9657142857142858
 30
0.0
 40
0.08
  1
UL File/CCN:
  7
ROMANS
100
AcDbText
  0
TEXT
  5
44E3
330
44D4
100
AcDbEntity
  8
TEXT1
100
AcDbText
 10
0.12
 20
1.102857142857143
 30
0.0
 40
0.08
  1
Ratings:
  7
ROMANS
100
AcDbText
  0
TEXT
  5
44E4
330
44D4
100
AcDbEntity
  8
TEXT1
100
AcDbText
 10
0.12
 20
1.239999999999999
 30
0.0
 40
0.08
  1
Catalog Number:
  7
ROMANS
100
AcDbText
  0
ATTDEF
  5
44E5
330
44D4
100
AcDbEntity
  8
TEXT1
100
AcDbText
 10
1.28
 20
0.2870266174290101
 30
0.0
 40
0.08
  1

  7
ROMANS
100
AcDbAttributeDefinition
  3
Terminal Torque
  2
TERM_TORQUE
 70
     0
  0
ATTDEF
  5
44E6
330
44D4
100
AcDbEntity
  8
TEXT1
100
AcDbText
 10
1.28
 20
0.1410798752566626
 30
0.0
 40
0.08
  1

  7
ROMANS
100
AcDbAttributeDefinition
  3
Mounting Hardware?
  2
MOUNTING_HWD
 70
     0
  0
ENDBLK
  5
44E8
330
44D4
100
AcDbEntity
  8
0
100
AcDbBlockEnd
  0
ENDSEC
  0
SECTION
  2
ENTITIES
  0
LWPOLYLINE
  5
52F
330
1F
100
AcDbEntity
  8
VIEWPORT
100
AcDbPolyline
 90
        6
 70
     1
 43
0.0
 10
0.0
 20
0.0
 10
16.005
 20
0.0
 10
16.005
 20
1.824
 10
32.79999999999999
 20
1.824
 10
32.79999999999999
 20
20.1908
 10
0.0
 20
20.1908
  0
VIEWPORT
  5
530
330
1F
100
AcDbEntity
  8
VIEWPORT
100
AcDbViewport
 10
16.39999999999999
 20
10.0954
 30
0.0
 40
32.79999999999999
 41
20.1908
 69
     0
1001
ACAD
1000
MVIEW
1002
{
1070
    16
1010
0.0
1020
0.0
1030
0.0
1010
0.0
1020
0.0
1030
0.0
1040
0.0
1040
-1.0
1040
0.0
1040
0.0
1040
0.0
1040
0.0
1040
0.0
1070
     0
1070
   100
1070
     1
1070
     0
1070
     0
1070
     0
1070
     0
1070
     0
1040
0.0
1040
0.0
1040
0.0
1040
0.0
1040
0.0
1040
0.0
1040
0.0
1070
     0
1002
{
1002
}
1002
}
  0
TEXT
  5
3EB7
330
1F
100
AcDbEntity
  8
TEXT1
100
AcDbText
 10
27.01991577058091
 20
18.51809669050072
 30
0.0
 40
0.16
  1
COIL VOLTAGE
  7
ROMANS
 72
     1
 11
27.86182053248567
 21
18.59809669050072
 31
0.0
100
AcDbText
 73
     2
  0
TEXT
  5
3EB8
330
1F
100
AcDbEntity
  8
TEXT1
100
AcDbText
 10
27.12597194880337
 20
18.25809669050072
 30
0.0
 40
0.16
  1
CODE (1)
  7
ROMANS
 72
     1
 11
27.70121004404146
 21
18.33809669050072
 31
0.0
100
AcDbText
 73
     2
  0
TEXT
  5
3EB9
330
1F
100
AcDbEntity
  8
TEXT1
100
AcDbText
 10
27.58971730084132
 20
17.89809669050073
 30
0.0
 40
0.16
  1
V02
  7
ROMANS
 72
     1
 11
27.80305063417465
 21
17.97809669050072
 31
0.0
100
AcDbText
 73
     2
  0
TEXT
  5
3EBA
330
1F
100
AcDbEntity
  8
TEXT1
100
AcDbText
 10
27.58971730084132
 20
17.25809669050073
 30
0.0
 40
0.16
  1
V03
  7
ROMANS
 72
     1
 11
27.80305063417465
 21
17.33809669050073
 31
0.0
100
AcDbText
 73
     2
  0
TEXT
  5
3EBB
330
1F
100
AcDbEntity
  8
TEXT1
100
AcDbText
 10
27.58971730084132
 20
17.57809669050073
 30
0.0
 40
0.16
  1
V08
  7
ROMANS
 72
     1
 11
27.80305063417465
 21
17.65809669050073
 31
0.0
100
AcDbText
 73
     2
  0
TEXT
  5
3EBC
330
1F
100
AcDbEntity
  8
TEXT1
100
AcDbText
 10
27.59352682465084
 20
16.29809669050073
 30
0.0
 40
0.16
  1
V99
  7
ROMANS
 72
     1
 11
27.80305063417465
 21
16.37809669050072
 31
0.0
100
AcDbText
 73
     2
  0
TEXT
  5
3EBD
330
1F
100
AcDbEntity
  8
TEXT1
100
AcDbText
 10
27.58971730084131
 20
16.61809669050072
 30
0.0
 40
0.16
  1
V07
  7
ROMANS
 72
     1
 11
27.80305063417465
 21
16.69809669050072
 31
0.0
100
AcDbText
 73
     2
  0
TEXT
  5
3EBE
330
1F
100
AcDbEntity
  8
TEXT1
100
AcDbText
 10
27.58971730084131
 20
16.93809669050073
 30
0.0
 40
0.16
  1
V06
  7
ROMANS
 72
     1
 11
27.80305063417465
 21
17.01809669050073
 31
0.0
100
AcDbText
 73
     2
  0
TEXT
  5
3EBF
330
1F
100
AcDbEntity
  8
TEXT1
100
AcDbText
 10
30.15073051497409
 20
18.51809669050072
 30
0.0
 40
0.16
  1
VOLTAGE
  7
ROMANS
 72
     1
 11
30.64596861021218
 21
18.59809669050072
 31
0.0
100
AcDbText
 73
     2
  0
TEXT
  5
3EC0
330
1F
100
AcDbEntity
  8
TEXT1
100
AcDbText
 10
29.2393451829947
 20
18.2180424134948
 30
0.0
 40
0.16
  1
60 HZ
  7
ROMANS
 72
     1
 11
29.63553565918518
 21
18.2980424134948
 31
0.0
100
AcDbText
 73
     2
  0
TEXT
  5
3EC1
330
1F
100
AcDbEntity
  8
TEXT1
100
AcDbText
 10
29.4871451578011
 20
17.89809669050073
 30
0.0
 40
0.16
  1
120
  7
ROMANS
 72
     1
 11
29.7271451578011
 21
17.97809669050072
 31
0.0
100
AcDbText
 73
     2
  0
TEXT
  5
3EC2
330
1F
100
AcDbEntity
  8
TEXT1
100
AcDbText
 10
29.48749622059208
 20
17.25809669050073
 30
0.0
 40
0.16
  1
240
  7
ROMANS
 72
     1
 11
29.71606764916352
 21
17.33809669050072
 31
0.0
100
AcDbText
 73
     2
  0
TEXT
  5
3EC3
330
1F
100
AcDbEntity
  8
TEXT1
100
AcDbText
 10
29.48749622059208
 20
17.57809669050073
 30
0.0
 40
0.16
  1
208
  7
ROMANS
 72
     1
 11
29.71606764916352
 21
17.65809669050072
 31
0.0
100
AcDbText
 73
     2
  0
TEXT
  5
3EC4
330
1F
100
AcDbEntity
  8
TEXT1
100
AcDbText
 10
29.23526531504957
 20
16.29809669050073
 30
0.0
 40
0.16
  1
SPECIFY
  7
ROMANS
 72
     1
 11
29.71907483885909
 21
16.37809669050072
 31
0.0
100
AcDbText
 73
     2
  0
TEXT
  5
3EC5
330
1F
100
AcDbEntity
  8
TEXT1
100
AcDbText
 10
29.48669388647815
 20
16.61809669050073
 30
0.0
 40
0.16
  1
600
  7
ROMANS
 72
     1
 11
29.7190748388591
 21
16.69809669050072
 31
0.0
100
AcDbText
 73
     2
  0
TEXT
  5
3EC6
330
1F
100
AcDbEntity
  8
TEXT1
100
AcDbText
 10
29.48749622059208
 20
16.93809669050073
 30
0.0
 40
0.16
  1
480
  7
ROMANS
 72
     1
 11
29.71606764916352
 21
17.01809669050072
 31
0.0
100
AcDbText
 73
     2
  0
TEXT
  5
3EC7
330
1F
100
AcDbEntity
  8
TEXT1
100
AcDbText
 10
31.13443791371718
 20
18.2180424134948
 30
0.0
 40
0.16
  1
50 HZ
  7
ROMANS
 72
     1
 11
31.52681886609814
 21
18.2980424134948
 31
0.0
100
AcDbText
 73
     2
  0
TEXT
  5
3EC8
330
1F
100
AcDbEntity
  8
TEXT1
100
AcDbText
 10
30.94645828045109
 20
16.29809669050073
 30
0.0
 40
0.16
  1
SPECIFY
  7
ROMANS
 72
     1
 11
31.43026780426061
 21
16.37809669050072
 31
0.0
100
AcDbText
 73
     2
  0
TEXT
  5
3EC9
330
1F
100
AcDbEntity
  8
TEXT1
100
AcDbText
 10
31.20169637568919
 20
16.61809669050073
 30
0.0
 40
0.16
  1
550
  7
ROMANS
 72
     1
 11
31.43026780426062
 21
16.69809669050072
 31
0.0
100
AcDbText
 73
     2
  0
TEXT
  5
3ECA
330
1F
100
AcDbEntity
  8
TEXT1
100
AcDbText
 10
31.19949440636839
 20
16.93809669050073
 30
0.0
 40
0.16
  1
440
  7
ROMANS
 72
     1
 11
31.42806583493982
 21
17.01809669050072
 31
0.0
100
AcDbText
 73
     2
  0
TEXT
  5
3ECB
330
1F
100
AcDbEntity
  8
TEXT1
100
AcDbText
 10
31.19949440636839
 20
17.25809669050073
 30
0.0
 40
0.16
  1
220
  7
ROMANS
 72
     1
 11
31.42806583493982
 21
17.33809669050072
 31
0.0
100
AcDbText
 73
     2
  0
TEXT
  5
3ECC
330
1F
100
AcDbEntity
  8
TEXT1
100
AcDbText
 10
31.20078499683038
 20
17.89809669050073
 30
0.0
 40
0.16
  1
110
  7
ROMANS
 72
     1
 11
31.44078499683038
 21
17.97809669050072
 31
0.0
100
AcDbText
 73
     2
  0
TEXT
  5
3ECD
330
1F
100
AcDbEntity
  8
TEXT1
100
AcDbText
 10
31.331220185213
 20
17.57809669050072
 30
0.0
 40
0.16
  1
-
  7
ROMANS
 72
     1
 11
31.43026780426061
 21
17.65809669050072
 31
0.0
100
AcDbText
 73
     2
  0
TEXT
  5
3ED0
330
1F
100
AcDbEntity
  8
TEXT1
100
AcDbText
 10
26.75599575639328
 20
19.00651797100278
 30
0.0
 40
0.16
  1
3-POLE POLYPHASE - 600 VAC, 50-60 HZ
  7
ROMANS
 72
     1
 11
29.53694813734566
 21
19.08651797100278
 31
0.0
100
AcDbText
 73
     2
  0
LINE
  5
3ED3
330
1F
100
AcDbEntity
  8
HIDDEN1
100
AcDbLine
 10
8.137884724745902
 20
19.02829927925167
 30
0.0
 11
13.2178847247459
 21
19.02829927925167
 31
0.0
  0
TEXT
  5
3ED4
330
1F
100
AcDbEntity
  8
TEXT1
100
AcDbText
 10
7.844989486650658
 20
19.07972785068024
 30
0.0
 40
0.16
  1
ELECTRICAL CLEARANCE/WIRE BENDING SPACE
  7
ROMANS
 72
     4
 11
10.68308472474589
 21
19.14829927925167
 31
0.0
100
AcDbText
  0
LINE
  5
3ED6
330
1F
100
AcDbEntity
  8
DIM
100
AcDbLine
 10
10.67788472474589
 20
14.36940724047954
 30
0.0
 11
10.67788472474589
 21
15.61702687573365
 31
0.0
  0
LINE
  5
3EE0
330
1F
100
AcDbEntity
  8
CONTINUOUS1
100
AcDbLine
 10
20.25600972474589
 20
6.473335811908112
 30
0.0
 11
24.66225972474591
 21
6.473335811908112
 31
0.0
  0
LINE
  5
3EE1
330
1F
100
AcDbEntity
  8
CONTINUOUS1
100
AcDbLine
 10
25.34975972474589
 20
14.66083581190811
 30
0.0
 11
25.34975972474589
 21
6.473335811908112
 31
0.0
  0
LINE
  5
3EE5
330
1F
100
AcDbEntity
  8
CONTINUOUS1
100
AcDbLine
 10
20.25600972474589
 20
14.40053914294867
 30
0.0
 11
24.53725972474589
 21
14.40053914294868
 31
0.0
  0
LINE
  5
3EE6
330
1F
100
AcDbEntity
  8
CONTINUOUS1
100
AcDbLine
 10
20.25600972474589
 20
14.40053914294867
 30
0.0
 11
20.25600972474589
 21
6.473335811908112
 31
0.0
  0
LINE
  5
3EEC
330
1F
100
AcDbEntity
  8
CONTINUOUS1
100
AcDbLine
 10
25.28725972474589
 20
6.473335811908112
 30
0.0
 11
25.34975972474589
 21
6.473335811908112
 31
0.0
  0
LINE
  5
3EED
330
1F
100
AcDbEntity
  8
CONTINUOUS1
100
AcDbLine
 10
24.53725972474589
 20
14.24428914294868
 30
0.0
 11
25.06850972474589
 21
14.24428914294868
 31
0.0
  0
LINE
  5
3EEE
330
1F
100
AcDbEntity
  8
CONTINUOUS1
100
AcDbLine
 10
24.53725972474589
 20
14.40053914294868
 30
0.0
 11
24.53725972474589
 21
14.24428914294868
 31
0.0
  0
LINE
  5
3EF1
330
1F
100
AcDbEntity
  8
CONTINUOUS1
100
AcDbLine
 10
24.97475972474589
 20
6.598335811908112
 30
0.0
 11
25.28725972474589
 21
6.598335811908112
 31
0.0
  0
LINE
  5
3EF2
330
1F
100
AcDbEntity
  8
CONTINUOUS1
100
AcDbLine
 10
24.66225972474591
 20
6.473335811908112
 30
0.0
 11
24.97475972474589
 21
6.598335811908112
 31
0.0
  0
DIMENSION
  5
3EF4
330
1F
100
AcDbEntity
  8
DIM
100
AcDbDimension
  2
*D3
 10
25.47475972474589
 20
15.57932618036545
 30
0.0
 11
22.22475972474589
 21
15.57932618036545
 31
0.0
 70
    32
  3
SCHNEIDERELECTRIC_DUAL_BEL
100
AcDbAlignedDimension
 13
18.97475972474589
 23
13.11297866905096
 33
0.0
 14
25.47475972474589
 24
14.66083581190811
 34
0.0
100
AcDbRotatedDimension
1001
ACAD
1000
DSTYLE
1002
{
1070
    40
1040
2.0
1002
}
  0
LINE
  5
3EF6
330
1F
100
AcDbEntity
  8
CONTINUOUS1
100
AcDbLine
 10
25.06850972474589
 20
14.24428914294868
 30
0.0
 11
25.28725972474589
 21
14.24428914294868
 31
0.0
  0
TEXT
  5
3EF7
330
1F
100
AcDbEntity
  8
TEXT1
100
AcDbText
 10
27.91361480401233
 20
19.32651797100278
 30
0.0
 40
0.16
  1
NEMA SIZE 4 CONTACTOR
  7
ROMANS
 72
     1
 11
29.48694813734566
 21
19.40651797100278
 31
0.0
100
AcDbText
 73
     2
  0
TEXT
  5
3F87
330
1F
100
AcDbEntity
  8
TEXT1
100
AcDbText
 10
10.49421418384168
 20
8.48084317206756
 30
0.0
 40
0.125
  1
OFF
  7
ROMANS
 72
     1
 11
10.67278561241311
 21
8.54334317206756
 31
0.0
100
AcDbText
 73
     2
  0
TEXT
  5
3F88
330
1F
100
AcDbEntity
  8
TEXT1
100
AcDbText
 10
8.695254660382254
 20
12.82056795476525
 30
0.0
 40
0.25
  1
1&L1
  7
ROMANS
100
AcDbText
  0
TEXT
  5
3F89
330
1F
100
AcDbEntity
  8
TEXT1
100
AcDbText
 10
10.55959478548084
 20
12.82056795476525
 30
0.0
 40
0.25
  1
L2
  7
ROMANS
100
AcDbText
  0
TEXT
  5
3F8A
330
1F
100
AcDbEntity
  8
TEXT1
100
AcDbText
 10
12.06302129124571
 20
12.82056795476525
 30
0.0
 40
0.25
  1
L3
  7
ROMANS
100
AcDbText
  0
LINE
  5
3F95
330
1F
100
AcDbEntity
  8
CONTINUOUS1
100
AcDbLine
 10
19.47475972474589
 20
11.45512152619382
 30
0.0
 11
20.26163216002498
 21
11.45512152619382
 31
0.0
  0
LINE
  5
3F96
330
1F
100
AcDbEntity
  8
CONTINUOUS1
100
AcDbLine
 10
19.47475972474589
 20
8.856192954765253
 30
0.0
 11
20.26163216002498
 21
8.856192954765253
 31
0.0
  0
LINE
  5
3F97
330
1F
100
AcDbEntity
  8
CONTINUOUS1
100
AcDbLine
 10
18.97475972474589
 20
9.130478669050969
 30
0.0
 11
19.47475972474589
 21
9.130478669050967
 31
0.0
  0
LINE
  5
3F98
330
1F
100
AcDbEntity
  8
CONTINUOUS1
100
AcDbLine
 10
18.97475972474589
 20
11.18083581190811
 30
0.0
 11
19.47475972474589
 21
11.18083581190811
 31
0.0
  0
LINE
  5
3FA4
330
1F
100
AcDbEntity
  8
CENTER2
100
AcDbLine
 10
9.560384724745901
 20
14.3483358119081
 30
0.0
 11
9.9203847247459
 21
14.3483358119081
 31
0.0
  0
LINE
  5
3FA5
330
1F
100
AcDbEntity
  8
CENTER2
100
AcDbLine
 10
9.740384724745901
 20
14.1683358119081
 30
0.0
 11
9.740384724745901
 21
14.5283358119081
 31
0.0
  0
LINE
  5
3FA6
330
1F
100
AcDbEntity
  8
CENTER2
100
AcDbLine
 10
7.841634724745901
 20
7.338335811908111
 30
0.0
 11
8.2016347247459
 21
7.338335811908111
 31
0.0
  0
LINE
  5
3FA7
330
1F
100
AcDbEntity
  8
CENTER2
100
AcDbLine
 10
8.021634724745901
 20
7.158335811908111
 30
0.0
 11
8.021634724745901
 21
7.51833581190811
 31
0.0
  0
LINE
  5
3FA8
330
1F
100
AcDbEntity
  8
CENTER2
100
AcDbLine
 10
13.1541347247459
 20
7.338335811908111
 30
0.0
 11
13.5141347247459
 21
7.338335811908111
 31
0.0
  0
LINE
  5
3FA9
330
1F
100
AcDbEntity
  8
CENTER2
100
AcDbLine
 10
13.3341347247459
 20
7.158335811908111
 30
0.0
 11
13.3341347247459
 21
7.51833581190811
 31
0.0
  0
DIMENSION
  5
3FAB
330
1F
100
AcDbEntity
  8
DIM
100
AcDbDimension
  2
*D4
 10
7.677884724745901
 20
16.75397410464458
 30
0.0
 11
10.66099548467642
 21
16.75397410464458
 31
0.0
 70
   160
  3
SCHNEIDERELECTRIC_DUAL_BEL
100
AcDbAlignedDimension
 13
13.6778847247459
 23
14.52369295476525
 33
0.0
 14
7.677884724745901
 24
14.52369295476525
 34
0.0
100
AcDbRotatedDimension
1001
ACAD
1000
DSTYLE
1002
{
1070
    40
1040
2.0
1002
}
  0
DIMENSION
  5
3FAC
330
1F
100
AcDbEntity
  8
DIM
100
AcDbDimension
  2
*D5
 10
9.740384724745901
 20
15.88306795476525
 30
0.0
 11
11.7091347247459
 21
15.88306795476525
 31
0.0
 70
    32
  3
SCHNEIDERELECTRIC_DUAL_BEL
100
AcDbAlignedDimension
 13
13.6778847247459
 23
14.52369295476525
 33
0.0
 14
9.740384724745901
 24
14.34833581190811
 34
0.0
100
AcDbRotatedDimension
1001
ACAD
1000
DSTYLE
1002
{
1070
    40
1040
2.0
1002
}
  0
DIMENSION
  5
3FAD
330
1F
100
AcDbEntity
  8
DIM
100
AcDbDimension
  2
*D6
 10
8.021634724745901
 20
4.883042954765246
 30
0.0
 11
10.6778847247459
 21
4.883042954765246
 31
0.0
 70
    32
  3
SCHNEIDERELECTRIC_DUAL_BEL
100
AcDbAlignedDimension
 13
13.3341347247459
 23
7.338335811908111
 33
0.0
 14
8.021634724745901
 24
7.338335811908111
 34
0.0
100
AcDbRotatedDimension
1001
ACAD
1000
DSTYLE
1002
{
1070
    40
1040
2.0
1002
}
  0
DIMENSION
  5
3FAE
330
1F
100
AcDbEntity
  8
DIM
100
AcDbDimension
  2
*D7
 10
13.3341347247459
 20
5.564622732782462
 30
0.0
 11
12.23032520093637
 21
5.564622732782462
 31
0.0
 70
   160
  3
SCHNEIDERELECTRIC_DUAL_BEL
100
AcDbAlignedDimension
 13
13.6778847247459
 23
6.610478669050968
 33
0.0
 14
13.3341347247459
 24
7.338335811908111
 34
0.0
100
AcDbRotatedDimension
1001
ACAD
1000
DSTYLE
1002
{
1070
    40
1040
2.0
1002
}
  0
DIMENSION
  5
3FAF
330
1F
100
AcDbEntity
  8
DIM
100
AcDbDimension
  2
*D8
 10
16.78340385180146
 20
6.47333581190811
 30
0.0
 11
16.78340385180146
 21
10.56708581190811
 31
0.0
 70
   160
  3
SCHNEIDERELECTRIC_DUAL_BEL
100
AcDbAlignedDimension
 13
13.54074186760304
 23
14.66083581190811
 33
0.0
 14
13.54074186760304
 24
6.473335811908111
 34
0.0
 50
90.0
100
AcDbRotatedDimension
1001
ACAD
1000
DSTYLE
1002
{
1070
    40
1040
2.0
1002
}
  0
DIMENSION
  5
3FB0
330
1F
100
AcDbEntity
  8
DIM
100
AcDbDimension
  2
*D9
 10
14.7247597247459
 20
14.3483358119081
 30
0.0
 11
15.17333115331733
 21
15.32838045476525
 31
0.0
 70
   160
  3
SCHNEIDERELECTRIC_DUAL_BEL
100
AcDbAlignedDimension
 13
13.54074186760304
 23
14.66083581190811
 33
0.0
 14
9.740384724745901
 24
14.34833581190811
 34
0.0
 50
90.0
100
AcDbRotatedDimension
1001
ACAD
1000
DSTYLE
1002
{
1070
    40
1040
2.0
1002
}
  0
DIMENSION
  5
3FB1
330
1F
100
AcDbEntity
  8
DIM
100
AcDbDimension
  2
*D10
 10
14.7247597247459
 20
7.33833581190811
 30
0.0
 11
14.72475972474589
 21
10.84333581190811
 31
0.0
 70
    32
  3
SCHNEIDERELECTRIC_DUAL_BEL
100
AcDbAlignedDimension
 13
9.740384724745901
 23
14.34833581190811
 33
0.0
 14
13.3341347247459
 24
7.338335811908111
 34
0.0
 50
90.0
100
AcDbRotatedDimension
1001
ACAD
1000
DSTYLE
1002
{
1070
    40
1040
2.0
1002
}
  0
DIMENSION
  5
3FB4
330
1F
100
AcDbEntity
  8
DIM
100
AcDbDimension
  2
*D11
 10
7.677884724745901
 20
15.88306795476525
 30
0.0
 11
8.709134724745901
 21
15.88306795476525
 31
0.0
 70
    32
  3
SCHNEIDERELECTRIC_DUAL_BEL
100
AcDbAlignedDimension
 13
9.740384724745901
 23
14.34833581190811
 33
0.0
 14
7.677884724745901
 24
14.52369295476525
 34
0.0
100
AcDbRotatedDimension
1001
ACAD
1000
DSTYLE
1002
{
1070
    40
1040
2.0
1002
}
  0
TEXT
  5
3FB5
330
1F
100
AcDbEntity
  8
TEXT1
100
AcDbText
 10
13.34788472474589
 20
18.3804710835311
 30
0.0
 40
0.160008
  1
MINIMUM TO WALL OR BARRIER TO INSURE ADEQUATE
  7
ROMANS
100
AcDbText
  0
TEXT
  5
3FB6
330
1F
100
AcDbEntity
  8
TEXT1
100
AcDbText
 10
13.34788472474589
 20
17.9004470835311
 30
0.0
 40
0.160008
  1
THE MAXIMUM WIRE SIZE IS USED. REF. NEC 430-10
  7
ROMANS
100
AcDbText
  0
TEXT
  5
3FB7
330
1F
100
AcDbEntity
  8
TEXT1
100
AcDbText
 10
13.34788472474589
 20
18.1404590835311
 30
0.0
 40
0.160008
  1
WIRE BENDING SPACE TO LUG SURFACE WHEN
  7
ROMANS
100
AcDbText
  0
DIMENSION
  5
3FB8
330
1F
100
AcDbEntity
  8
DIM
100
AcDbDimension
  2
*D12
 10
8.021634724745901
 20
5.633042954765246
 30
0.0
 11
8.881009724745901
 21
5.633042954765246
 31
0.0
 70
    32
  3
SCHNEIDERELECTRIC_DUAL_BEL
100
AcDbAlignedDimension
 13
9.740384724745901
 23
14.34833581190811
 33
0.0
 14
8.021634724745901
 24
7.338335811908111
 34
0.0
100
AcDbRotatedDimension
1001
ACAD
1000
DSTYLE
1002
{
1070
    40
1040
2.0
1002
}
  0
LWPOLYLINE
  5
4185
330
1F
100
AcDbEntity
  8
CONTINUOUS1
100
AcDbPolyline
 90
       10
 70
     0
 43
0.0
 10
13.62645615331732
 20
10.90655009762239
 42
0.4142135623730951
 10
13.35217043903161
 20
11.18083581190811
 10
13.0778847247459
 20
11.18083581190811
 10
13.0778847247459
 20
12.96369295476525
 42
0.4142135623730951
 10
12.80359901046018
 20
13.23797866905096
 10
8.552170439031613
 20
13.23797866905096
 42
0.4142135623730951
 10
8.277884724745902
 20
12.96369295476525
 10
8.277884724745902
 20
11.18083581190811
 10
8.003599010460185
 20
11.18083581190811
 42
0.4142135623730951
 10
7.729313296174471
 20
10.90655009762239
  0
LWPOLYLINE
  5
4186
330
1F
100
AcDbEntity
  8
CONTINUOUS1
100
AcDbPolyline
 90
       10
 70
     0
 43
0.0
 10
7.729313296174471
 20
9.404764383336681
 42
0.4142135623730951
 10
8.003599010460185
 20
9.130478669050967
 10
8.277884724745902
 20
9.130478669050967
 10
8.277884724745902
 20
7.896192954765252
 42
0.4142135623730951
 10
8.552170439031613
 20
7.621907240479538
 10
12.80359901046018
 20
7.621907240479538
 42
0.4142135623730951
 10
13.0778847247459
 20
7.896192954765252
 10
13.0778847247459
 20
9.130478669050967
 10
13.35217043903161
 20
9.130478669050967
 42
0.4142135623730951
 10
13.62645615331732
 20
9.404764383336681
  0
LWPOLYLINE
  5
4188
330
1F
100
AcDbEntity
  8
CONTINUOUS1
100
AcDbPolyline
 90
        5
 70
     0
 43
0.0
 10
9.409313296174468
 20
8.307621526193825
 42
-0.4142135623730951
 10
9.272170439031611
 20
8.170478669050966
 10
8.92931329617447
 20
8.170478669050968
 42
0.4142135623730951
 10
8.860741867603039
 20
8.101907240479539
 10
8.860741867603039
 20
7.621907240479538
  0
LWPOLYLINE
  5
4189
330
1F
100
AcDbEntity
  8
CONTINUOUS1
100
AcDbPolyline
 90
       10
 70
     0
 43
0.0
 10
8.860741867603039
 20
7.896192954765252
 10
9.272170439031611
 20
7.896192954765252
 42
0.4142135623730951
 10
9.409313296174468
 20
8.033335811908111
 10
9.409313296174474
 20
10.10665957941711
 42
-0.4142135623730951
 10
9.477884724745905
 20
10.17523100798854
 10
11.87788472474589
 20
10.17523100798854
 42
-0.4142135623730951
 10
11.94645615331732
 20
10.10665957941711
 10
11.94645615331732
 20
8.033335811908111
 42
0.4142135623730951
 10
12.08359901046019
 20
7.896192954765254
 10
12.49502758188876
 20
7.896192954765252
  0
LWPOLYLINE
  5
418A
330
1F
100
AcDbEntity
  8
CONTINUOUS1
100
AcDbPolyline
 90
        4
 70
     1
 43
0.0
 10
10.40359901046018
 20
8.684764383336682
 10
10.95217043903161
 20
8.684764383336682
 10
10.95217043903161
 20
8.410478669050968
 10
10.40359901046018
 20
8.410478669050968
  0
LWPOLYLINE
  5
418B
330
1F
100
AcDbEntity
  8
CONTINUOUS1
100
AcDbPolyline
 90
       30
 70
     0
 43
0.0
 10
11.94645615331732
 20
9.626659579417113
 10
11.38074186760304
 20
9.626659579417113
 10
11.38074186760304
 20
9.078088150845685
 10
11.24359901046018
 20
9.078088150845685
 10
11.24359901046018
 20
9.626659579417113
 10
10.74645615331732
 20
9.626659579417113
 10
10.74645615331732
 20
9.078088150845685
 10
10.60931329617447
 20
9.078088150845685
 10
10.60931329617447
 20
9.626659579417113
 10
10.11217043903161
 20
9.626659579417113
 10
10.11217043903161
 20
9.078088150845685
 10
9.97502758188876
 20
9.078088150845685
 10
9.97502758188876
 20
9.626659579417113
 10
9.409313296174472
 20
9.626659579417113
 10
9.97502758188876
 20
9.626659579417113
 10
9.97502758188876
 20
9.078088150845685
 10
10.11217043903161
 20
9.078088150845685
 10
10.11217043903161
 20
9.626659579417113
 10
10.60931329617447
 20
9.626659579417113
 10
10.60931329617447
 20
9.078088150845685
 10
10.74645615331732
 20
9.078088150845685
 10
10.74645615331732
 20
9.626659579417113
 10
11.24359901046018
 20
9.626659579417113
 10
11.24359901046018
 20
9.078088150845685
 10
11.38074186760304
 20
9.078088150845685
 10
11.38074186760304
 20
9.626659579417113
 10
11.94645615331732
 20
9.626659579417113
 10
11.94645615331732
 20
8.684764383336682
 10
9.409313296174474
 20
8.684764383336682
 10
9.409313296174472
 20
9.626659579417113
  0
LWPOLYLINE
  5
418C
330
1F
100
AcDbEntity
  8
CONTINUOUS1
100
AcDbPolyline
 90
        4
 70
     1
 43
0.0
 10
8.826456153317323
 20
7.347621526193824
 10
9.512170439031613
 20
7.347621526193824
 10
9.512170439031613
 20
6.490478669050967
 10
8.826456153317323
 20
6.490478669050967
  0
LWPOLYLINE
  5
418D
330
1F
100
AcDbEntity
  8
CONTINUOUS1
100
AcDbPolyline
 90
        4
 70
     1
 43
0.0
 10
9.512170439031613
 20
6.490478669050967
 10
8.826456153317323
 20
6.490478669050967
 10
8.826456153317323
 20
7.176192954765253
 10
9.512170439031613
 20
7.176192954765253
  0
LWPOLYLINE
  5
418E
330
1F
100
AcDbEntity
  8
CONTINUOUS1
100
AcDbPolyline
 90
        4
 70
     1
 43
0.0
 10
10.33502758188875
 20
7.347621526193824
 10
11.02074186760304
 20
7.347621526193824
 10
11.02074186760304
 20
6.490478669050967
 10
10.33502758188875
 20
6.490478669050967
  0
LWPOLYLINE
  5
418F
330
1F
100
AcDbEntity
  8
CONTINUOUS1
100
AcDbPolyline
 90
        4
 70
     1
 43
0.0
 10
11.02074186760304
 20
6.490478669050967
 10
10.33502758188875
 20
6.490478669050967
 10
10.33502758188875
 20
7.176192954765253
 10
11.02074186760304
 20
7.176192954765253
  0
LWPOLYLINE
  5
4190
330
1F
100
AcDbEntity
  8
CONTINUOUS1
100
AcDbPolyline
 90
        4
 70
     1
 43
0.0
 10
11.84359901046018
 20
7.347621526193824
 10
12.52931329617447
 20
7.347621526193824
 10
12.52931329617447
 20
6.490478669050967
 10
11.84359901046018
 20
6.490478669050967
  0
LWPOLYLINE
  5
4191
330
1F
100
AcDbEntity
  8
CONTINUOUS1
100
AcDbPolyline
 90
        4
 70
     1
 43
0.0
 10
12.52931329617447
 20
6.490478669050967
 10
11.84359901046018
 20
6.490478669050967
 10
11.84359901046018
 20
7.176192954765253
 10
12.52931329617447
 20
7.176192954765253
  0
LWPOLYLINE
  5
4192
330
1F
100
AcDbEntity
  8
CONTINUOUS1
100
AcDbPolyline
 90
       12
 70
     1
 43
0.0
 10
8.277884724745902
 20
7.421116161832076
 10
8.277884724745902
 20
6.471310279729728
 10
13.0778847247459
 20
6.471310279729728
 10
13.0778847247459
 20
7.421116161832074
 10
13.0778847247459
 20
6.473335811908111
 10
12.87217043903161
 20
6.471310279729728
 10
12.87217043903161
 20
7.351924113631964
 10
12.87217043903161
 20
6.473335811908111
 10
8.483599010460181
 20
6.471310279729728
 10
8.483599010460181
 20
7.351924113631966
 10
8.483599010460181
 20
6.473335811908111
 10
8.277884724745902
 20
6.473335811908111
  0
LWPOLYLINE
  5
4193
330
1F
100
AcDbEntity
  8
CONTINUOUS1
100
AcDbPolyline
 90
        4
 70
     1
 43
0.0
 10
18.97475972474589
 20
11.18083581190811
 10
19.47475972474589
 20
11.18083581190811
 10
19.47475972474589
 20
9.130478669050967
 10
18.97475972474589
 20
9.130478669050967
  0
LWPOLYLINE
  5
4194
330
1F
100
AcDbEntity
  8
CONTINUOUS1
100
AcDbPolyline
 90
        4
 70
     1
 43
0.0
 10
19.47475972474589
 20
11.45512152619382
 10
20.26163216002498
 20
11.45512152619382
 10
20.26163216002498
 20
8.856192954765253
 10
19.47475972474589
 20
8.856192954765253
  0
LWPOLYLINE
  5
4196
330
1F
100
AcDbEntity
  8
CONTINUOUS1
100
AcDbPolyline
 90
        4
 70
     1
 43
0.0
 10
25.06850972474589
 20
14.24428914294868
 10
25.28725972474589
 20
14.24428914294868
 10
25.28725972474589
 20
13.68178914294868
 10
25.06850972474589
 20
13.68178914294868
  0
LWPOLYLINE
  5
4197
330
1F
100
AcDbEntity
  8
CONTINUOUS1
100
AcDbPolyline
 90
        4
 70
     1
 43
0.0
 10
25.28725972474589
 20
14.66083581190811
 10
25.34975972474589
 20
14.66083581190811
 10
25.34975972474589
 20
6.473335811908112
 10
25.28725972474589
 20
6.473335811908112
  0
LWPOLYLINE
  5
4198
330
1F
100
AcDbEntity
  8
CONTINUOUS1
100
AcDbPolyline
 90
        6
 70
     0
 43
0.0
 10
20.26163216002498
 20
13.51226438333668
 10
19.56850972474589
 20
13.51226438333668
 42
0.4142135623731015
 10
19.47475972474589
 20
13.41851438333668
 10
19.47475972474589
 20
7.441371526193826
 42
0.4142135623730951
 10
19.56850972474589
 20
7.347621526193826
 10
20.26163216002498
 20
7.347621526193824
  0
LWPOLYLINE
  5
4199
330
1F
100
AcDbEntity
  8
CONTINUOUS1
100
AcDbPolyline
 90
        8
 70
     0
 43
0.0
 10
19.47475972474589
 20
7.496907240479538
 42
0.4142135623730951
 10
19.34975972474589
 20
7.621907240479538
 10
19.09975972474589
 20
7.62190724047954
 42
-0.4142135623730948
 10
18.97475972474589
 20
7.74690724047954
 10
18.97475972474589
 20
13.11297866905096
 42
-0.4142135623730953
 10
19.09975972474589
 20
13.23797866905096
 10
19.38100972474589
 20
13.23797866905096
 42
0.4142135623731034
 10
19.47475972474589
 20
13.33172866905097
  0
LWPOLYLINE
  5
419A
330
1F
100
AcDbEntity
  8
CONTINUOUS1
100
AcDbPolyline
 90
        9
 70
     0
 43
0.0
 10
20.9122597247459
 20
14.40053914294867
 10
24.53725972474589
 20
14.40053914294868
 10
24.53725972474589
 20
14.24428914294868
 10
25.28725972474589
 20
14.24428914294868
 10
25.28725972474589
 20
6.598335811908112
 10
24.97475972474589
 20
6.598335811908112
 10
24.66225972474591
 20
6.473335811908112
 10
20.9122597247459
 20
6.473335811908112
 10
20.91225972474589
 20
14.40053914294867
  0
LWPOLYLINE
  5
419B
330
1F
100
AcDbEntity
  8
CONTINUOUS1
100
AcDbPolyline
 90
        5
 70
     0
 43
0.0
 10
25.3497597247459
 20
13.89182618036544
 42
0.343107750141629
 10
25.4747597247459
 20
14.04807618036544
 10
25.47475972474589
 20
14.66083581190811
 10
25.28725972474589
 20
14.66083581190811
 10
25.28725972474589
 20
6.473335811908112
  0
LWPOLYLINE
  5
419C
330
1F
100
AcDbEntity
  8
CONTINUOUS1
100
AcDbPolyline
 90
        6
 70
     0
 43
0.0
 10
25.34975972474589
 20
7.051460811908111
 42
-0.3431077501416275
 10
25.42788472474589
 20
6.926460811908112
 10
25.42788472474589
 20
6.473335811908112
 10
25.47475972474589
 20
6.473335811908111
 10
25.4747597247459
 20
6.926460811908111
 42
0.3675770292243156
 10
25.3497597247459
 20
7.098335811908112
  0
LWPOLYLINE
  5
420B
330
1F
100
AcDbEntity
  8
CONTINUOUS1
100
AcDbPolyline
 90
        7
 70
     0
 43
0.0
 10
8.277884724745902
 20
13.43876974769842
 10
8.277884724745902
 20
14.38857562980077
 10
9.512170439031613
 20
14.38857562980077
 10
9.512170439031613
 20
14.06083581190811
 10
9.957884724745902
 20
14.06083581190811
 10
9.957884724745902
 20
13.78655009762239
 42
0.4142135623730951
 10
10.23217043903162
 20
13.51226438333668
  0
LWPOLYLINE
  5
420D
330
1F
100
AcDbEntity
  8
CONTINUOUS1
100
AcDbPolyline
 90
        4
 70
     0
 43
0.0
 10
9.512170439031613
 20
13.51226438333668
 10
9.512170439031613
 20
14.36940724047954
 10
8.826456153317323
 20
14.36940724047954
 10
8.826456153317323
 20
13.51226438333668
  0
LWPOLYLINE
  5
420E
330
1F
100
AcDbEntity
  8
CONTINUOUS1
100
AcDbPolyline
 90
        4
 70
     0
 43
0.0
 10
11.02074186760304
 20
13.51226438333668
 10
11.02074186760304
 20
14.36940724047954
 10
10.33502758188875
 20
14.36940724047954
 10
10.33502758188875
 20
13.51226438333668
  0
LWPOLYLINE
  5
420F
330
1F
100
AcDbEntity
  8
CONTINUOUS1
100
AcDbPolyline
 90
        8
 70
     0
 43
0.0
 10
11.12359901046018
 20
13.51226438333668
 42
0.4142135623730951
 10
11.39788472474589
 20
13.78655009762239
 10
11.3978847247459
 20
14.06083581190811
 10
11.74074186760303
 20
14.06083581190811
 10
11.84359901046018
 20
14.06083581190811
 10
11.84359901046018
 20
14.38857562980077
 10
13.0778847247459
 20
14.38857562980077
 10
13.0778847247459
 20
13.43876974769843
  0
LWPOLYLINE
  5
4211
330
1F
100
AcDbEntity
  8
CONTINUOUS1
100
AcDbPolyline
 90
        4
 70
     0
 43
0.0
 10
12.52931329617447
 20
13.51226438333668
 10
12.52931329617447
 20
14.36940724047954
 10
11.84359901046018
 20
14.36940724047954
 10
11.84359901046018
 20
13.51226438333668
  0
LWPOLYLINE
  5
4212
330
1F
100
AcDbEntity
  8
CONTINUOUS1
100
AcDbPolyline
 90
        5
 70
     0
 43
0.0
 10
11.94645615331733
 20
8.307621526193825
 42
0.4142135623730951
 10
12.08359901046019
 20
8.170478669050968
 10
12.42645615331733
 20
8.170478669050966
 42
-0.4142135623730951
 10
12.49502758188876
 20
8.101907240479539
 10
12.49502758188876
 20
7.621907240479538
  0
LWPOLYLINE
  5
4213
330
1F
100
AcDbEntity
  8
CONTINUOUS1
100
AcDbPolyline
 90
        4
 70
     1
 43
0.0
 10
26.72848719915234
 20
18.77809669050073
 10
28.87761406919696
 20
18.77809669050073
 10
28.87761406919696
 20
18.13809669050072
 10
26.72848719915234
 20
18.13809669050072
  0
LWPOLYLINE
  5
4214
330
1F
100
AcDbEntity
  8
CONTINUOUS1
100
AcDbPolyline
 90
        4
 70
     1
 43
0.0
 10
28.87761406919696
 20
18.77809669050073
 10
32.29999999999999
 20
18.77809669050073
 10
32.29999999999999
 20
18.45809669050072
 10
28.87761406919696
 20
18.45809669050072
  0
LWPOLYLINE
  5
4215
330
1F
100
AcDbEntity
  8
CONTINUOUS1
100
AcDbPolyline
 90
        4
 70
     1
 43
0.0
 10
28.87761406919696
 20
18.45809669050072
 10
30.56053560852123
 20
18.45809669050072
 10
30.56053560852123
 20
18.13809669050072
 10
28.87761406919696
 20
18.13809669050072
  0
LWPOLYLINE
  5
4216
330
1F
100
AcDbEntity
  8
CONTINUOUS1
100
AcDbPolyline
 90
        4
 70
     1
 43
0.0
 10
30.56053560852123
 20
18.45809669050072
 10
32.29999999999999
 20
18.45809669050072
 10
32.29999999999999
 20
18.13809669050072
 10
30.56053560852123
 20
18.13809669050072
  0
LWPOLYLINE
  5
4217
330
1F
100
AcDbEntity
  8
CONTINUOUS1
100
AcDbPolyline
 90
        4
 70
     1
 43
0.0
 10
26.72848719915234
 20
18.13809669050072
 10
28.87761406919696
 20
18.13809669050072
 10
28.87761406919696
 20
17.81809669050073
 10
26.72848719915234
 20
17.81809669050073
  0
LWPOLYLINE
  5
4218
330
1F
100
AcDbEntity
  8
CONTINUOUS1
100
AcDbPolyline
 90
        4
 70
     1
 43
0.0
 10
28.87761406919696
 20
18.13809669050072
 10
30.56053560852123
 20
18.13809669050072
 10
30.56053560852123
 20
17.81809669050073
 10
28.87761406919696
 20
17.81809669050073
  0
LWPOLYLINE
  5
4219
330
1F
100
AcDbEntity
  8
CONTINUOUS1
100
AcDbPolyline
 90
        4
 70
     1
 43
0.0
 10
30.56053560852123
 20
18.13809669050072
 10
32.29999999999999
 20
18.13809669050072
 10
32.29999999999999
 20
17.81809669050073
 10
30.56053560852123
 20
17.81809669050073
  0
LWPOLYLINE
  5
421A
330
1F
100
AcDbEntity
  8
CONTINUOUS1
100
AcDbPolyline
 90
        4
 70
     1
 43
0.0
 10
26.72848719915234
 20
17.81809669050073
 10
28.87761406919696
 20
17.81809669050073
 10
28.87761406919696
 20
17.49809669050073
 10
26.72848719915234
 20
17.49809669050073
  0
LWPOLYLINE
  5
421B
330
1F
100
AcDbEntity
  8
CONTINUOUS1
100
AcDbPolyline
 90
        4
 70
     1
 43
0.0
 10
28.87761406919696
 20
17.81809669050073
 10
30.56053560852123
 20
17.81809669050073
 10
30.56053560852123
 20
17.49809669050073
 10
28.87761406919696
 20
17.49809669050073
  0
LWPOLYLINE
  5
421C
330
1F
100
AcDbEntity
  8
CONTINUOUS1
100
AcDbPolyline
 90
        4
 70
     1
 43
0.0
 10
30.56053560852123
 20
17.81809669050073
 10
32.29999999999999
 20
17.81809669050073
 10
32.29999999999999
 20
17.49809669050073
 10
30.56053560852123
 20
17.49809669050073
  0
LWPOLYLINE
  5
421D
330
1F
100
AcDbEntity
  8
CONTINUOUS1
100
AcDbPolyline
 90
        4
 70
     1
 43
0.0
 10
26.72848719915234
 20
17.49809669050073
 10
28.87761406919696
 20
17.49809669050073
 10
28.87761406919696
 20
17.17809669050073
 10
26.72848719915234
 20
17.17809669050073
  0
LWPOLYLINE
  5
421E
330
1F
100
AcDbEntity
  8
CONTINUOUS1
100
AcDbPolyline
 90
        4
 70
     1
 43
0.0
 10
26.72848719915234
 20
17.17809669050073
 10
28.87761406919696
 20
17.17809669050073
 10
28.87761406919696
 20
16.85809669050073
 10
26.72848719915234
 20
16.85809669050073
  0
LWPOLYLINE
  5
4220
330
1F
100
AcDbEntity
  8
CONTINUOUS1
100
AcDbPolyline
 90
        4
 70
     1
 43
0.0
 10
26.72848719915234
 20
16.85809669050073
 10
28.87761406919696
 20
16.85809669050073
 10
28.87761406919696
 20
16.53809669050072
 10
26.72848719915234
 20
16.53809669050072
  0
LWPOLYLINE
  5
4221
330
1F
100
AcDbEntity
  8
CONTINUOUS1
100
AcDbPolyline
 90
        4
 70
     1
 43
0.0
 10
26.72848719915234
 20
16.53809669050072
 10
28.87761406919696
 20
16.53809669050072
 10
28.87761406919696
 20
16.21809669050072
 10
26.72848719915234
 20
16.21809669050072
  0
LWPOLYLINE
  5
4222
330
1F
100
AcDbEntity
  8
CONTINUOUS1
100
AcDbPolyline
 90
        4
 70
     1
 43
0.0
 10
28.87761406919696
 20
17.49809669050073
 10
30.56053560852123
 20
17.49809669050073
 10
30.56053560852123
 20
17.17809669050073
 10
28.87761406919696
 20
17.17809669050073
  0
LWPOLYLINE
  5
4223
330
1F
100
AcDbEntity
  8
CONTINUOUS1
100
AcDbPolyline
 90
        4
 70
     1
 43
0.0
 10
28.87761406919696
 20
17.17809669050073
 10
30.56053560852123
 20
17.17809669050073
 10
30.56053560852123
 20
16.85809669050073
 10
28.87761406919696
 20
16.85809669050073
  0
LWPOLYLINE
  5
4224
330
1F
100
AcDbEntity
  8
CONTINUOUS1
100
AcDbPolyline
 90
        4
 70
     1
 43
0.0
 10
28.87761406919696
 20
16.85809669050073
 10
30.56053560852123
 20
16.85809669050073
 10
30.56053560852123
 20
16.53809669050072
 10
28.87761406919696
 20
16.53809669050072
  0
LWPOLYLINE
  5
4225
330
1F
100
AcDbEntity
  8
CONTINUOUS1
100
AcDbPolyline
 90
        4
 70
     1
 43
0.0
 10
28.87761406919696
 20
16.53809669050072
 10
30.56053560852123
 20
16.53809669050072
 10
30.56053560852123
 20
16.21809669050072
 10
28.87761406919696
 20
16.21809669050072
  0
LWPOLYLINE
  5
4226
330
1F
100
AcDbEntity
  8
CONTINUOUS1
100
AcDbPolyline
 90
        4
 70
     1
 43
0.0
 10
30.56053560852123
 20
17.49809669050073
 10
32.29999999999999
 20
17.49809669050073
 10
32.29999999999999
 20
17.17809669050073
 10
30.56053560852123
 20
17.17809669050073
  0
LWPOLYLINE
  5
4227
330
1F
100
AcDbEntity
  8
CONTINUOUS1
100
AcDbPolyline
 90
        4
 70
     1
 43
0.0
 10
30.56053560852123
 20
17.17809669050073
 10
32.29999999999999
 20
17.17809669050073
 10
32.29999999999999
 20
16.85809669050073
 10
30.56053560852123
 20
16.85809669050073
  0
LWPOLYLINE
  5
4228
330
1F
100
AcDbEntity
  8
CONTINUOUS1
100
AcDbPolyline
 90
        4
 70
     1
 43
0.0
 10
30.56053560852123
 20
16.85809669050073
 10
32.29999999999999
 20
16.85809669050073
 10
32.29999999999999
 20
16.53809669050072
 10
30.56053560852123
 20
16.53809669050072
  0
LWPOLYLINE
  5
4229
330
1F
100
AcDbEntity
  8
CONTINUOUS1
100
AcDbPolyline
 90
        4
 70
     1
 43
0.0
 10
30.56053560852123
 20
16.53809669050072
 10
32.29999999999999
 20
16.53809669050072
 10
32.29999999999999
 20
16.21809669050072
 10
30.56053560852123
 20
16.21809669050072
  0
INSERT
  5
436D
330
1F
100
AcDbEntity
  8
TEXT1
100
AcDbBlockReference
  2
DUALDIM
 10
32.57099999999999
 20
2.067999999999999
 30
0.0
 41
2.0
 42
2.0
 43
2.0
  0
CIRCLE
  5
445F
330
1F
100
AcDbEntity
  8
CONTINUOUS1
100
AcDbCircle
 10
9.700741867603042
 20
9.318088150845683
 30
0.0
 40
0.1602989917259656
  0
CIRCLE
  5
4460
330
1F
100
AcDbEntity
  8
CONTINUOUS1
100
AcDbCircle
 10
11.66547144730564
 20
9.318088150845683
 30
0.0
 40
0.1602989917259656
  0
CIRCLE
  5
4461
330
1F
100
AcDbEntity
  8
CONTINUOUS1
100
AcDbCircle
 10
12.18645615331733
 20
6.83333581190811
 30
0.0
 40
0.2057142857142857
  0
CIRCLE
  5
4462
330
1F
100
AcDbEntity
  8
CONTINUOUS1
100
AcDbCircle
 10
10.6778847247459
 20
6.83333581190811
 30
0.0
 40
0.2057142857142857
  0
CIRCLE
  5
4463
330
1F
100
AcDbEntity
  8
CONTINUOUS1
100
AcDbCircle
 10
9.169313296174472
 20
6.83333581190811
 30
0.0
 40
0.2057142857142857
  0
CIRCLE
  5
4464
330
1F
100
AcDbEntity
  8
CONTINUOUS1
100
AcDbCircle
 10
9.169313296174472
 20
14.02655009762239
 30
0.0
 40
0.2057142857142857
  0
CIRCLE
  5
4465
330
1F
100
AcDbEntity
  8
CONTINUOUS1
100
AcDbCircle
 10
10.6778847247459
 20
14.02655009762239
 30
0.0
 40
0.2057142857142857
  0
CIRCLE
  5
4466
330
1F
100
AcDbEntity
  8
CONTINUOUS1
100
AcDbCircle
 10
12.18645615331733
 20
14.02655009762239
 30
0.0
 40
0.2057142857142857
  0
CIRCLE
  5
4467
330
1F
100
AcDbEntity
  8
CONTINUOUS2
100
AcDbCircle
 10
9.740384724745901
 20
14.34833581190811
 30
0.0
 40
0.1875
  0
CIRCLE
  5
4468
330
1F
100
AcDbEntity
  8
CONTINUOUS2
100
AcDbCircle
 10
13.3341347247459
 20
7.338335811908111
 30
0.0
 40
0.1875
  0
CIRCLE
  5
4469
330
1F
100
AcDbEntity
  8
CONTINUOUS2
100
AcDbCircle
 10
8.021634724745901
 20
7.338335811908111
 30
0.0
 40
0.1875
  0
LWPOLYLINE
  5
4472
330
1F
100
AcDbEntity
  8
CONTINUOUS2
100
AcDbPolyline
 90
        8
 70
     1
 43
0.0
 10
7.677884724745899
 20
14.52369295476525
 42
-0.4142135623730961
 10
7.815027581888756
 20
14.66083581190811
 10
13.54074186760304
 20
14.66083581190811
 42
-0.4142135623730961
 10
13.6778847247459
 20
14.52369295476525
 10
13.6778847247459
 20
6.610478669050968
 42
-0.4142135623730961
 10
13.54074186760304
 20
6.473335811908111
 10
7.815027581888755
 20
6.473335811908111
 42
-0.4142135623730961
 10
7.677884724745899
 20
6.610478669050968
  0
LWPOLYLINE
  5
4474
330
1F
100
AcDbEntity
  8
CONTINUOUS1
100
AcDbPolyline
 90
       16
 70
     1
 43
0.0
 10
13.62645615331732
 20
11.18083581190811
 42
0.4142135623730961
 10
13.35217043903161
 20
11.45512152619382
 10
13.35217043903161
 20
12.96369295476525
 42
0.4142135623730961
 10
12.80359901046018
 20
13.51226438333668
 10
8.552170439031611
 20
13.51226438333668
 42
0.4142135623730961
 10
8.003599010460185
 20
12.96369295476525
 10
8.003599010460183
 20
11.45512152619382
 42
0.4142135623730961
 10
7.729313296174471
 20
11.18083581190811
 10
7.729313296174471
 20
9.130478669050969
 42
0.4142135623730961
 10
8.003599010460185
 20
8.856192954765253
 10
8.003599010460185
 20
7.896192954765256
 42
0.4142135623730961
 10
8.552170439031613
 20
7.347621526193823
 10
12.80359901046018
 20
7.347621526193823
 42
0.4142135623730961
 10
13.35217043903161
 20
7.896192954765252
 10
13.3521704390316
 20
8.856192954765253
 42
0.4142135623730961
 10
13.62645615331732
 20
9.130478669050967
  0
LWPOLYLINE
  5
4476
330
1F
100
AcDbEntity
  8
CONTINUOUS1
100
AcDbPolyline
 90
        4
 70
     1
 43
0.0
 10
11.48116683545866
 20
9.503296781418589
 10
11.84126100262048
 20
9.503296781418589
 10
11.84126100262048
 20
9.122165054416171
 10
11.48116683545866
 20
9.122165054416171
  0
LWPOLYLINE
  5
447A
330
1F
100
AcDbEntity
  8
CONTINUOUS1
100
AcDbPolyline
 90
        4
 70
     1
 43
0.0
 10
9.516437255756059
 20
9.503296781418589
 10
9.876531422917878
 20
9.503296781418589
 10
9.876531422917878
 20
9.122165054416171
 10
9.516437255756059
 20
9.122165054416171
  0
LWPOLYLINE
  5
448C
330
1F
100
AcDbEntity
  8
CONTINUOUS1
100
AcDbPolyline
 90
        2
 70
     0
 43
0.0
 10
9.859951896573853
 20
9.299435177263026
 10
9.541531838632238
 20
9.299435177263026
  0
LWPOLYLINE
  5
448D
330
1F
100
AcDbEntity
  8
CONTINUOUS1
100
AcDbPolyline
 90
        2
 70
     0
 43
0.0
 10
9.859951896573853
 20
9.336741124428343
 10
9.541531838632238
 20
9.336741124428343
  0
LWPOLYLINE
  5
448E
330
1F
100
AcDbEntity
  8
CONTINUOUS1
100
AcDbPolyline
 90
        2
 70
     0
 43
0.0
 10
11.50626141833484
 20
9.336741124428343
 10
11.82468147627645
 20
9.336741124428343
  0
LWPOLYLINE
  5
448F
330
1F
100
AcDbEntity
  8
CONTINUOUS1
100
AcDbPolyline
 90
        2
 70
     0
 43
0.0
 10
11.50626141833484
 20
9.299435177263026
 10
11.82468147627645
 20
9.299435177263026
  0
LWPOLYLINE
  5
44A1
330
1F
100
AcDbEntity
  8
CONTINUOUS1
100
AcDbPolyline
 90
        2
 70
     0
 43
0.0
 10
12.52931329617447
 20
7.176192954765253
 10
11.84359901046018
 20
7.176192954765253
  0
LWPOLYLINE
  5
44A2
330
1F
100
AcDbEntity
  8
CONTINUOUS1
100
AcDbPolyline
 90
        2
 70
     0
 43
0.0
 10
12.3056399253682
 20
7.001006906097488
 10
12.01878505912794
 20
6.714152039857239
  0
LWPOLYLINE
  5
44A3
330
1F
100
AcDbEntity
  8
CONTINUOUS1
100
AcDbPolyline
 90
        2
 70
     0
 43
0.0
 10
12.35412724750671
 20
6.952519583958983
 10
12.06727238126645
 20
6.665664717718724
  0
LWPOLYLINE
  5
44A7
330
1F
100
AcDbEntity
  8
CONTINUOUS1
100
AcDbPolyline
 90
        2
 70
     0
 43
0.0
 10
11.02074186760304
 20
7.176192954765253
 10
10.33502758188875
 20
7.176192954765253
  0
LWPOLYLINE
  5
44A8
330
1F
100
AcDbEntity
  8
CONTINUOUS1
100
AcDbPolyline
 90
        2
 70
     0
 43
0.0
 10
10.79706849679677
 20
7.001006906097488
 10
10.51021363055652
 20
6.714152039857239
  0
LWPOLYLINE
  5
44A9
330
1F
100
AcDbEntity
  8
CONTINUOUS1
100
AcDbPolyline
 90
        2
 70
     0
 43
0.0
 10
10.84555581893528
 20
6.952519583958983
 10
10.55870095269502
 20
6.665664717718724
  0
LWPOLYLINE
  5
44AD
330
1F
100
AcDbEntity
  8
CONTINUOUS1
100
AcDbPolyline
 90
        2
 70
     0
 43
0.0
 10
9.512170439031613
 20
7.176192954765253
 10
8.826456153317323
 20
7.176192954765253
  0
LWPOLYLINE
  5
44AE
330
1F
100
AcDbEntity
  8
CONTINUOUS1
100
AcDbPolyline
 90
        2
 70
     0
 43
0.0
 10
9.288497068225346
 20
7.001006906097488
 10
9.001642201985092
 20
6.714152039857239
  0
LWPOLYLINE
  5
44AF
330
1F
100
AcDbEntity
  8
CONTINUOUS1
100
AcDbPolyline
 90
        2
 70
     0
 43
0.0
 10
9.336984390363852
 20
6.952519583958983
 10
9.050129524123597
 20
6.665664717718724
  0
LWPOLYLINE
  5
44BE
330
1F
100
AcDbEntity
  8
CONTINUOUS1
100
AcDbPolyline
 90
        2
 70
     0
 43
0.0
 10
9.512170439031613
 20
13.68369295476525
 10
8.826456153317323
 20
13.68369295476525
  0
LWPOLYLINE
  5
44BF
330
1F
100
AcDbEntity
  8
CONTINUOUS1
100
AcDbPolyline
 90
        2
 70
     0
 43
0.0
 10
9.336984390363852
 20
13.90736632557152
 10
9.050129524123597
 20
14.19422119181178
  0
LWPOLYLINE
  5
44C0
330
1F
100
AcDbEntity
  8
CONTINUOUS1
100
AcDbPolyline
 90
        2
 70
     0
 43
0.0
 10
9.288497068225346
 20
13.85887900343302
 10
9.001642201985092
 20
14.14573386967326
  0
LWPOLYLINE
  5
44C1
330
1F
100
AcDbEntity
  8
CONTINUOUS1
100
AcDbPolyline
 90
        2
 70
     0
 43
0.0
 10
11.02074186760304
 20
13.68369295476525
 10
10.33502758188875
 20
13.68369295476525
  0
LWPOLYLINE
  5
44C2
330
1F
100
AcDbEntity
  8
CONTINUOUS1
100
AcDbPolyline
 90
        2
 70
     0
 43
0.0
 10
10.84555581893528
 20
13.90736632557152
 10
10.55870095269502
 20
14.19422119181178
  0
LWPOLYLINE
  5
44C3
330
1F
100
AcDbEntity
  8
CONTINUOUS1
100
AcDbPolyline
 90
        2
 70
     0
 43
0.0
 10
10.79706849679677
 20
13.85887900343302
 10
10.51021363055652
 20
14.14573386967326
  0
LWPOLYLINE
  5
44C4
330
1F
100
AcDbEntity
  8
CONTINUOUS1
100
AcDbPolyline
 90
        2
 70
     0
 43
0.0
 10
12.52931329617447
 20
13.68369295476525
 10
11.84359901046018
 20
13.68369295476525
  0
LWPOLYLINE
  5
44C5
330
1F
100
AcDbEntity
  8
CONTINUOUS1
100
AcDbPolyline
 90
        2
 70
     0
 43
0.0
 10
12.35412724750671
 20
13.90736632557152
 10
12.06727238126645
 20
14.19422119181178
  0
LWPOLYLINE
  5
44C6
330
1F
100
AcDbEntity
  8
CONTINUOUS1
100
AcDbPolyline
 90
        2
 70
     0
 43
0.0
 10
12.3056399253682
 20
13.85887900343302
 10
12.01878505912794
 20
14.14573386967326
  0
LWPOLYLINE
  5
44C7
330
1F
100
AcDbEntity
  8
CONTINUOUS1
100
AcDbPolyline
 90
        2
 70
     0
 43
0.0
 10
12.87217043903161
 20
13.50796179589854
 10
12.87217043903161
 20
14.38857562980077
  0
LWPOLYLINE
  5
44C8
330
1F
100
AcDbEntity
  8
CONTINUOUS1
100
AcDbPolyline
 90
        2
 70
     0
 43
0.0
 10
11.74074186760304
 20
14.06083581190811
 10
11.74074186760304
 20
13.51226438333668
  0
LWPOLYLINE
  5
44C9
330
1F
100
AcDbEntity
  8
CONTINUOUS1
100
AcDbPolyline
 90
        3
 70
     0
 43
0.0
 10
9.957884724745902
 20
14.06083581190811
 10
9.615153605702346
 20
14.06083581190811
 10
9.615153605702346
 20
13.51226438333668
  0
LWPOLYLINE
  5
44CB
330
1F
100
AcDbEntity
  8
CONTINUOUS1
100
AcDbPolyline
 90
        2
 70
     0
 43
0.0
 10
8.483599010460181
 20
13.50796179589853
 10
8.483599010460181
 20
14.38857562980077
  0
LWPOLYLINE
  5
44CC
330
1F
100
AcDbEntity
  8
CONTINUOUS1
100
AcDbPolyline
 90
        2
 70
     0
 43
0.0
 10
9.512170439031613
 20
14.36940724047954
 10
11.84359901046018
 20
14.36940724047954
  0
INSERT
  5
44E9
330
1F
100
AcDbEntity
  8
TEXT1
100
AcDbBlockReference
 66
     1
  2
ATTRIBUTES_FIXED
 10
0.2382422345455524
 20
0.2139352148867033
 30
0.0
 41
2.0
 42
2.0
 43
2.0
  0
ATTRIB
  5
44EA
330
44E9
100
AcDbEntity
  8
TEXT1
100
AcDbText
 10
2.798242234545552
 20
2.693935214886703
 30
0.0
 40
0.16
  1
8502-SFO2(1)
  7
ROMANS
100
AcDbAttribute
  2
CATALOG
 70
     0
  0
ATTRIB
  5
44EB
330
44E9
100
AcDbEntity
  8
TEXT1
100
AcDbText
 10
2.798242234545552
 20
2.416094965400029
 30
0.0
 40
0.16
  1
SEE CHART
  7
ROMANS
100
AcDbAttribute
  2
RATING
 70
     0
  0
ATTRIB
  5
44EC
330
44E9
100
AcDbEntity
  8
TEXT1
100
AcDbText
 10
2.812300860255175
 20
2.133935214886703
 30
0.0
 40
0.16
  1
E78351/NLDX
  7
ROMANS
100
AcDbAttribute
  2
UL
 70
     0
  0
ATTRIB
  5
44ED
330
44E9
100
AcDbEntity
  8
TEXT1
100
AcDbText
 10
2.798242234545552
 20
1.870148200258048
 30
0.0
 40
0.16
  1
LR60905/3211 0
  7
ROMANS
100
AcDbAttribute
  2
CSA
 70
     0
  0
ATTRIB
  5
44EE
330
44E9
100
AcDbEntity
  8
TEXT1
100
AcDbText
 10
2.798242234545552
 20
1.573935214886703
 30
0.0
 40
0.16
  1
-
  7
ROMANS
100
AcDbAttribute
  2
STANDARDS
 70
     0
  0
ATTRIB
  5
44EF
330
44E9
100
AcDbEntity
  8
TEXT1
100
AcDbText
 10
2.798242234545552
 20
1.310148223227681
 30
0.0
 40
0.16
  1
18.00 lbs
  7
ROMANS
100
AcDbAttribute
  2
WEIGHT
 70
     0
  0
ATTRIB
  5
44F0
330
44E9
100
AcDbEntity
  8
TEXT1
100
AcDbText
 10
2.798242234545552
 20
1.056094965400029
 30
0.0
 40
0.16
  1
POWER - #8-250MCM I CONTROL - #16-#12
  7
ROMANS
100
AcDbAttribute
  2
WIRE_SIZE
 70
     0
  0
ATTRIB
  5
44F1
330
44E9
100
AcDbEntity
  8
TEXT1
100
AcDbText
 10
2.798242234545552
 20
0.7879884497447236
 30
0.0
 40
0.16
  1
200 LB/IN
  7
ROMANS
100
AcDbAttribute
  2
TERM_TORQUE
 70
     0
  0
ATTRIB
  5
44F2
330
44E9
100
AcDbEntity
  8
TEXT1
100
AcDbText
 10
2.798242234545552
 20
0.4960949654000287
 30
0.0
 40
0.16
  1
(3) 5/16" screws
  7
ROMANS
100
AcDbAttribute
  2
MOUNTING_HWD
 70
     0
  0
SEQEND
  5
44F3
330
44E9
100
AcDbEntity
  8
0
  0
LINE
  5
485F
330
1F
100
AcDbEntity
  8
DIM
100
AcDbLine
 10
10.6778847247459
 20
18.88829927920967
 30
0.0
 11
10.6778847247459
 21
18.61565499670115
 31
0.0
  0
INSERT
  5
4860
330
1F
100
AcDbEntity
  8
DIM
100
AcDbBlockReference
  2
SEARROW
 10
10.6778847247459
 20
19.02829927925167
 30
0.0
 41
0.1400000000000006
 42
0.1400000000000006
 43
0.14
 50
90.0
  0
MTEXT
  5
4861
330
1F
100
AcDbEntity
  8
DIM
100
AcDbMText
 10
10.6778847247459
 20
17.97025126277628
 30
0.0
 40
0.2
 41
0.0
 71
     5
 72
     1
  1
8.00\P{\H0.8x; [203]}
  7
ROMANS
1001
ACAD
1000
MTEXTBEGIN
1070
    73
1070
     1
1070
    44
1040
1.0
1070
    74
1070
     0
1000
MTEXTEND
  0
LWPOLYLINE
  5
4862
330
1F
100
AcDbEntity
  8
DIM
100
AcDbPolyline
 90
        4
 70
     0
 43
0.0
 10
10.41876150916449
 20
18.68022507505619
 10
10.5978847247459
 20
18.57064425313523
 10
10.76636075494706
 20
18.66543464554011
 10
10.9370079403273
 20
18.5769466272006
  0
LWPOLYLINE
  5
4863
330
1F
100
AcDbEntity
  8
DIM
100
AcDbPolyline
 90
        4
 70
     0
 43
0.0
 10
10.41876150916449
 20
18.56022507505619
 10
10.5978847247459
 20
18.45064425313523
 10
10.76636075494706
 20
18.54543464554011
 10
10.9370079403273
 20
18.4569466272006
  0
LINE
  5
4864
330
1F
100
AcDbEntity
  8
DIM
100
AcDbLine
 10
10.6778847247459
 20
17.21369551764674
 30
0.0
 11
10.6778847247459
 21
17.59405147430826
 31
0.0
  0
LINE
  5
4865
330
1F
100
AcDbEntity
  8
DIM
100
AcDbLine
 10
10.6778847247459
 20
18.49565499670116
 30
0.0
 11
10.6778847247459
 21
18.34624425313523
 31
0.0
  0
INSERT
  5
4872
330
1F
100
AcDbEntity
  8
DIM
100
AcDbBlockReference
  2
SEARROW
 10
10.67788472474589
 20
14.36940724047954
 30
0.0
 41
0.1400000000000006
 42
0.1400000000000006
 43
0.14
 50
270.0
  0
VIEWPORT
  5
32
330
1B
100
AcDbEntity
 67
     1
  8
0
100
AcDbViewport
 10
8.200307552515361
 20
4.97472242065495
 30
0.0
 40
16.48379582666974
 41
10.61341983168393
 68
     1
 69
     1
1001
ACAD
1000
MVIEW
1002
{
1070
    16
1010
0.0
1020
0.0
1030
0.0
1010
0.0
1020
0.0
1030
0.0
1040
0.0
1040
10.61341983168393
1040
8.200307552515361
1040
4.97472242065495
1040
0.0
1040
0.0
1040
0.0
1070
     0
1070
   100
1070
     1
1070
     0
1070
     0
1070
     0
1070
     0
1070
     0
1040
0.0
1040
0.0
1040
0.0
1040
0.0
1040
0.0
1040
0.0
1040
0.0
1070
     0
1002
{
1002
}
1002
}
  0
INSERT
  5
54D
330
1B
100
AcDbEntity
 67
     1
  8
TITLEBLOCK
100
AcDbBlockReference
 66
     1
  2
TB-PAD
 10
0.0
 20
0.0
 30
0.0
  0
ATTRIB
  5
54F
330
54D
100
AcDbEntity
 67
     1
  8
TEXT1
 62
     0
100
AcDbText
 10
10.10183835760059
 20
0.7474460800344916
 30
0.0
 40
0.1
  1

  7
ROMANS
 72
     4
 11
10.10183835760059
 21
0.7474460800344916
 31
0.0
100
AcDbAttribute
  2
DESCRIPTION 1
 70
     0
  0
ATTRIB
  5
550
330
54D
100
AcDbEntity
 67
     1
  8
TEXT1
 62
     0
100
AcDbText
 10
9.118505024267257
 20
0.5517231627161465
 30
0.0
 40
0.1
  1
NEMA SIZE 4 CONTACTOR
  7
ROMANS
 72
     4
 11
10.10183835760059
 21
0.6017231627161466
 31
0.0
100
AcDbAttribute
  2
DESCRIPTION 2
 70
     0
  0
ATTRIB
  5
551
330
54D
100
AcDbEntity
 67
     1
  8
TEXT1
 62
     0
100
AcDbText
 10
9.267552643314877
 20
0.4217145311120874
 30
0.0
 40
0.08
  1
CLASS 8502 TYPE SF02(1)
  7
ROMANS
 72
     4
 11
10.10183835760059
 21
0.4560002453978016
 31
0.0
100
AcDbAttribute
  2
DESCRIPTION 3
 70
     0
  0
ATTRIB
  5
552
330
54D
100
AcDbEntity
 67
     1
  8
TEXT1
 62
     0
100
AcDbText
 10
10.10183835760059
 20
0.3202773280794582
 30
0.0
 40
0.08
  1

  7
ROMANS
 72
     4
 11
10.10183835760059
 21
0.3202773280794582
 31
0.0
100
AcDbAttribute
  2
DESCRIPTION 4
 70
     0
  0
ATTRIB
  5
553
330
54D
100
AcDbEntity
 67
     1
  8
TEXT1
 62
     0
100
AcDbText
 10
10.10183835760059
 20
0.1845544107611148
 30
0.0
 40
0.08
  1

  7
ROMANS
 72
     4
 11
10.10183835760059
 21
0.1845544107611148
 31
0.0
100
AcDbAttribute
  2
DESCRIPTION 5
 70
     0
  0
ATTRIB
  5
554
330
54D
100
AcDbEntity
 67
     1
  8
TEXT1
 62
     0
100
AcDbText
 10
12.74772367969455
 20
0.09654053761198
 30
0.0
 40
0.12
  1
E0300601-01
 41
0.9512024731840066
  7
M_STANDARD
 11
12.74772367969455
 21
0.1565405376119799
 31
0.0
100
AcDbAttribute
  2
DWGNO
 70
     0
 74
     2
  0
ATTRIB
  5
555
330
54D
100
AcDbEntity
 67
     1
  8
TEXT1
 62
     0
100
AcDbText
 10
16.35506455815586
 20
-0.1507193164174602
 30
0.0
 40
0.08
  1

  7
ROMANS
 72
     2
 11
16.35506455815586
 21
-0.1107193164174602
 31
0.0
100
AcDbAttribute
  2
REF
 70
     0
 74
     2
  0
ATTRIB
  5
556
330
54D
100
AcDbEntity
 67
     1
  8
TEXT1
 62
     0
100
AcDbText
 10
0.0266402460664743
 20
-0.1507193164174602
 30
0.0
 40
0.08
  1
MARCH 2003
  7
ROMANS
 11
0.0266402460664743
 21
-0.1107193164174602
 31
0.0
100
AcDbAttribute
  2
DATE
 70
     0
 74
     2
  0
SEQEND
  5
54E
330
54D
100
AcDbEntity
 67
     1
  8
TITLEBLOCK
  0
INSERT
  5
59B
330
1B
100
AcDbEntity
 67
     1
  8
TITLEBLOCK
100
AcDbBlockReference
  2
LOGO-PAD
 10
12.275
 20
0.152
 30
0.0
  0
LWPOLYLINE
  5
45FE
330
1B
100
AcDbEntity
 67
     1
  8
VIEWPORT
100
AcDbPolyline
 90
        6
 70
     1
 43
0.0
 10
0.0
 20
0.0
 10
0.0
 20
10.0954
 10
16.39999999999999
 20
10.0954
 10
16.39999999999999
 20
0.9120000000000009
 10
8.002499999999999
 20
0.912
 10
8.002499999999999
 20
0.0000000000000009
  0
VIEWPORT
  5
4600
330
1B
100
AcDbEntity
 67
     1
  8
VIEWPORT
100
AcDbViewport
 10
8.199999999999999
 20
5.047699999999999
 30
0.0
 40
16.39999999999999
 41
10.0954
 68
     2
 69
     2
1001
ACAD
1000
MVIEW
1002
{
1070
    16
1010
0.0
1020
0.0
1030
0.0
1010
0.0
1020
0.0
1030
0.0
1040
0.0
1040
20.1908
1040
16.39999999999999
1040
10.0954
1040
0.0
1040
0.0
1040
0.0
1070
     0
1070
   100
1070
     1
1070
     0
1070
     0
1070
     0
1070
     0
1070
     0
1040
0.0
1040
0.0
1040
0.0
1040
0.0
1040
0.0
1040
0.0
1040
0.0
1070
     0
1002
{
1002
}
1002
}
  0
ENDSEC
  0
SECTION
  2
OBJECTS
  0
DICTIONARY
  5
C
330
0
100
AcDbDictionary
  3
ACAD_GROUP
350
D
  3
ACAD_LAYOUT
350
1A
  3
ACAD_MLINESTYLE
350
17
  3
ACAD_PLOTSETTINGS
350
19
  3
ACAD_PLOTSTYLENAME
350
E
  3
ACDBHEADERROUNDTRIPXREC
350
4CC5
  3
ACDBVARIABLEDICTIONARY
350
39D
  3
ASE_INDEX_DICTIONARY
350
159
  3
DWGPROPS
350
45C2
  0
DICTIONARY
  5
73
330
1F
100
AcDbDictionary
280
     1
  3
ACAD_LAYOUTSELFREF
360
4CE7
  0
DICTIONARY
  5
75
330
1B
100
AcDbDictionary
280
     1
  3
ACAD_LAYOUTSELFREF
360
4CE6
  0
DICTIONARY
  5
D
102
{ACAD_REACTORS
330
C
102
}
330
C
100
AcDbDictionary
  0
DICTIONARY
  5
1A
102
{ACAD_REACTORS
330
C
102
}
330
C
100
AcDbDictionary
  0
DICTIONARY
  5
17
102
{ACAD_REACTORS
330
C
102
}
330
C
100
AcDbDictionary
  3
STANDARD
350
18
  0
DICTIONARY
  5
19
102
{ACAD_REACTORS
330
C
102
}
330
C
100
AcDbDictionary
  3
A_SIZE_PAPER
350
52B
  3
B_SIZE_PAPER
350
52A
  3
D_SIZE_PAPER
350
53B
  0
ACDBDICTIONARYWDFLT
  5
E
102
{ACAD_REACTORS
330
C
102
}
330
C
100
AcDbDictionary
281
     1
  3
Normal
350
F
100
AcDbDictionaryWithDefault
340
F
  0
DICTIONARY
  5
4CC5
102
{ACAD_REACTORS
330
C
102
}
330
C
100
AcDbDictionary
  3
CEPSNTYPE
350
4CCF
  3
DIMSTYLEDATA
350
4CD3
  3
FINGERPRINTGUID
350
4CD0
  3
HYPERLINKBASE
350
4CC8
  3
INSUNITS
350
4CCE
  3
LAYOUTDICT
350
4CCA
  3
LWETCUNION
350
4CCD
  3
PLOTSETDICT
350
4CCB
  3
PLOTSTYLNAMDICT
350
4CCC
  3
PSVPSCALE
350
4CD2
  3
PUCSBASE
350
4CD6
  3
PUCSORGBACK
350
4CDC
  3
PUCSORGBOTTOM
350
4CD8
  3
PUCSORGFRONT
350
4CDB
  3
PUCSORGLEFT
350
4CD9
  3
PUCSORGRIGHT
350
4CDA
  3
PUCSORGTOP
350
4CD7
  3
PUCSORTHOREF
350
4CD4
  3
PUCSORTHOVIEW
350
4CD5
  3
STYLESHEET
350
4CC9
  3
TSTACKALIGN
350
4CC6
  3
TSTACKSIZE
350
4CC7
  3
UCSBASE
350
4CDF
  3
UCSORGBACK
350
4CE5
  3
UCSORGBOTTOM
350
4CE1
  3
UCSORGFRONT
350
4CE4
  3
UCSORGLEFT
350
4CE2
  3
UCSORGRIGHT
350
4CE3
  3
UCSORGTOP
350
4CE0
  3
UCSORTHOREF
350
4CDD
  3
UCSORTHOVIEW
350
4CDE
  3
VERSIONGUID
350
4CD1
  0
DICTIONARY
  5
39D
102
{ACAD_REACTORS
330
C
102
}
330
C
100
AcDbDictionary
  3
DIMASSOC
350
39E
  0
DICTIONARY
  5
159
102
{ACAD_REACTORS
330
C
102
}
330
C
100
AcDbDictionary
  3
ASEBLOCKHIERARCHYINDEXRECORD
350
15A
1001
DCO15
1040
1380956594.129
  0
XRECORD
  5
45C2
102
{ACAD_REACTORS
330
C
102
}
330
C
100
AcDbXrecord
  1
DWGPROPS COOKIE
  2

  3

  4

  6

  7

  8
ima332
  9

300
=
301
=
302
=
303
=
304
=
305
=
306
=
307
=
308
=
309
=
 40
0.8124401273148148
 41
2451764.618375243
 42
2452794.696781678
  1

 90
        0
  0
XRECORD
  5
4CE7
102
{ACAD_REACTORS
330
73
102
}
330
73
100
AcDbXrecord
340
1F
  0
XRECORD
  5
4CE6
102
{ACAD_REACTORS
330
75
102
}
330
75
100
AcDbXrecord
340
1B
  0
MLINESTYLE
  5
18
102
{ACAD_REACTORS
330
17
102
}
330
17
100
AcDbMlineStyle
  2
STANDARD
 70
     0
  3

 62
   256
 51
90.0
 52
90.0
 71
     2
 49
0.5
 62
   256
  6
BYLAYER
 49
-0.5
 62
   256
  6
BYLAYER
  0
PLOTSETTINGS
  5
52B
102
{ACAD_REACTORS
330
19
102
}
330
19
100
AcDbPlotSettings
  1
A Size Paper
  2
none_device
  4
ANSI_A_(8.50_x_11.00_Inches)
  6

 40
6.349999904632568
 41
19.04999923706054
 42
6.350006103515625
 43
19.04998779296875
 44
215.8999938964843
 45
279.3999938964843
 46
0.0
 47
0.0
 48
0.0
 49
0.0
140
0.0
141
0.0
142
1.0
143
1.6
 70
 15012
 72
     0
 73
     1
 74
     1
  7
monochrome.ctb
 75
    16
147
1.0
148
0.0
149
0.0
  0
PLOTSETTINGS
  5
52A
102
{ACAD_REACTORS
330
19
102
}
330
19
100
AcDbPlotSettings
  1
B Size Paper
  2
none_device
  4
ANSI_B_(11.00_x_17.00_Inches)
  6

 40
6.349999904632568
 41
19.04999923706054
 42
6.350006103515625
 43
19.04998779296875
 44
279.3999938964843
 45
431.7999877929687
 46
0.0
 47
0.0
 48
0.0
 49
0.0
140
0.0
141
0.0
142
1.0
143
1.0
 70
 15012
 72
     0
 73
     1
 74
     1
  7
monochrome.ctb
 75
    16
147
1.0
148
0.0
149
0.0
  0
PLOTSETTINGS
  5
53B
102
{ACAD_REACTORS
330
19
102
}
330
19
100
AcDbPlotSettings
  1
D Size Paper
  2
none_device
  4
ANSI_D_(22.00_x_34.00_Inches)
  6

 40
6.349999904632568
 41
19.04999923706054
 42
6.3499755859375
 43
19.04998779296875
 44
558.7999877929687
 45
863.5999755859375
 46
8.889999999999998
 47
-3.809999999999999
 48
0.0
 49
0.0
140
0.0
141
0.0
142
1.0
143
0.5
 70
   740
 72
     0
 73
     1
 74
     1
  7
monochrome.ctb
 75
     0
147
2.0
148
0.0034886547032954
149
0.0199946439100934
  0
ACDBPLACEHOLDER
  5
F
102
{ACAD_REACTORS
330
E
102
}
330
E
100
AcDbPlaceHolder
280
     0
  0
XRECORD
  5
4CCF
102
{ACAD_REACTORS
330
4CC5
102
}
330
4CC5
100
AcDbXrecord
 90
        0
  0
XRECORD
  5
4CD3
102
{ACAD_REACTORS
330
4CC5
102
}
330
4CC5
100
AcDbXrecord
1000
DSTYLE
1002
{
1070
    79
 70
     1
1070
   148
 40
0.1
1070
   341
340
195
1070
   342
340
195
1070
   371
 70
    -1
1070
   372
 70
    -1
1002
}
  0
XRECORD
  5
4CD0
102
{ACAD_REACTORS
330
4CC5
102
}
330
4CC5
100
AcDbXrecord
  1
{4E694E3A-6C64-11D4-81E3-0004AC4461C9}
  0
XRECORD
  5
4CC8
102
{ACAD_REACTORS
330
4CC5
102
}
330
4CC5
100
AcDbXrecord
  1

  0
XRECORD
  5
4CCE
102
{ACAD_REACTORS
330
4CC5
102
}
330
4CC5
100
AcDbXrecord
 90
        1
  0
XRECORD
  5
4CCA
102
{ACAD_REACTORS
330
4CC5
102
}
330
4CC5
100
AcDbXrecord
340
1A
  0
XRECORD
  5
4CCD
102
{ACAD_REACTORS
330
4CC5
102
}
330
4CC5
100
AcDbXrecord
 90
    10269
  0
XRECORD
  5
4CCB
102
{ACAD_REACTORS
330
4CC5
102
}
330
4CC5
100
AcDbXrecord
340
19
  0
XRECORD
  5
4CCC
102
{ACAD_REACTORS
330
4CC5
102
}
330
4CC5
100
AcDbXrecord
340
E
  0
XRECORD
  5
4CD2
102
{ACAD_REACTORS
330
4CC5
102
}
330
4CC5
100
AcDbXrecord
 40
1.0
  0
XRECORD
  5
4CD6
102
{ACAD_REACTORS
330
4CC5
102
}
330
4CC5
100
AcDbXrecord
340
0
  0
XRECORD
  5
4CDC
102
{ACAD_REACTORS
330
4CC5
102
}
330
4CC5
100
AcDbXrecord
 10
0.0
 20
0.0
 30
0.0
  0
XRECORD
  5
4CD8
102
{ACAD_REACTORS
330
4CC5
102
}
330
4CC5
100
AcDbXrecord
 10
0.0
 20
0.0
 30
0.0
  0
XRECORD
  5
4CDB
102
{ACAD_REACTORS
330
4CC5
102
}
330
4CC5
100
AcDbXrecord
 10
0.0
 20
0.0
 30
0.0
  0
XRECORD
  5
4CD9
102
{ACAD_REACTORS
330
4CC5
102
}
330
4CC5
100
AcDbXrecord
 10
0.0
 20
0.0
 30
0.0
  0
XRECORD
  5
4CDA
102
{ACAD_REACTORS
330
4CC5
102
}
330
4CC5
100
AcDbXrecord
 10
0.0
 20
0.0
 30
0.0
  0
XRECORD
  5
4CD7
102
{ACAD_REACTORS
330
4CC5
102
}
330
4CC5
100
AcDbXrecord
 10
0.0
 20
0.0
 30
0.0
  0
XRECORD
  5
4CD4
102
{ACAD_REACTORS
330
4CC5
102
}
330
4CC5
100
AcDbXrecord
340
0
  0
XRECORD
  5
4CD5
102
{ACAD_REACTORS
330
4CC5
102
}
330
4CC5
100
AcDbXrecord
 70
     0
  0
XRECORD
  5
4CC9
102
{ACAD_REACTORS
330
4CC5
102
}
330
4CC5
100
AcDbXrecord
  1

  0
XRECORD
  5
4CC6
102
{ACAD_REACTORS
330
4CC5
102
}
330
4CC5
100
AcDbXrecord
 90
        1
  0
XRECORD
  5
4CC7
102
{ACAD_REACTORS
330
4CC5
102
}
330
4CC5
100
AcDbXrecord
 90
       70
  0
XRECORD
  5
4CDF
102
{ACAD_REACTORS
330
4CC5
102
}
330
4CC5
100
AcDbXrecord
340
0
  0
XRECORD
  5
4CE5
102
{ACAD_REACTORS
330
4CC5
102
}
330
4CC5
100
AcDbXrecord
 10
0.0
 20
0.0
 30
0.0
  0
XRECORD
  5
4CE1
102
{ACAD_REACTORS
330
4CC5
102
}
330
4CC5
100
AcDbXrecord
 10
0.0
 20
0.0
 30
0.0
  0
XRECORD
  5
4CE4
102
{ACAD_REACTORS
330
4CC5
102
}
330
4CC5
100
AcDbXrecord
 10
0.0
 20
0.0
 30
0.0
  0
XRECORD
  5
4CE2
102
{ACAD_REACTORS
330
4CC5
102
}
330
4CC5
100
AcDbXrecord
 10
0.0
 20
0.0
 30
0.0
  0
XRECORD
  5
4CE3
102
{ACAD_REACTORS
330
4CC5
102
}
330
4CC5
100
AcDbXrecord
 10
0.0
 20
0.0
 30
0.0
  0
XRECORD
  5
4CE0
102
{ACAD_REACTORS
330
4CC5
102
}
330
4CC5
100
AcDbXrecord
 10
0.0
 20
0.0
 30
0.0
  0
XRECORD
  5
4CDD
102
{ACAD_REACTORS
330
4CC5
102
}
330
4CC5
100
AcDbXrecord
340
0
  0
XRECORD
  5
4CDE
102
{ACAD_REACTORS
330
4CC5
102
}
330
4CC5
100
AcDbXrecord
 70
     0
  0
XRECORD
  5
4CD1
102
{ACAD_REACTORS
330
4CC5
102
}
330
4CC5
100
AcDbXrecord
  1
{EEBA08B6-E3D2-46A8-B1B9-17A29E810A4F}
  0
DICTIONARYVAR
  5
39E
102
{ACAD_REACTORS
330
39D
102
}
330
39D
100
DictionaryVariables
280
     0
  1
1
  0
XRECORD
  5
15A
102
{ACAD_REACTORS
330
159
102
}
330
159
100
AcDbXrecord
  0
ENDSEC
  0
EOF
