  0
SECTION
  2
HEADER
  9
$ACADVER
  1
AC1014
  9
$ACADMAINTVER
 70
     0
  9
$DWGCODEPAGE
  3
ANSI_1252
  9
$INSBASE
 10
83.396774
 20
106.975
 30
0.0
  9
$EXTMIN
 10
32.885557
 20
77.858194
 30
0.0
  9
$EXTMAX
 10
105.162306
 20
132.286701
 30
0.0
  9
$LIMMIN
 10
0.0
 20
0.0
  9
$LIMMAX
 10
210.0
 20
297.0
  9
$ORTHOMODE
 70
     0
  9
$REGENMODE
 70
     1
  9
$FILLMODE
 70
     1
  9
$QTEXTMODE
 70
     0
  9
$MIRRTEXT
 70
     1
  9
$DRAGMODE
 70
     2
  9
$LTSCALE
 40
19.36
  9
$OSMODE
 70
     0
  9
$ATTMODE
 70
     1
  9
$TEXTSIZE
 40
0.2
  9
$TRACEWID
 40
0.05
  9
$TEXTSTYLE
  7
ROMANS
  9
$CLAYER
  8
0
  9
$CELTYPE
  6
BYLAYER
  9
$CECOLOR
 62
   256
  9
$CELTSCALE
 40
1.0
  9
$DELOBJ
 70
     1
  9
$DISPSILH
 70
     0
  9
$DIMSCALE
 40
1.0
  9
$DIMASZ
 40
3.0
  9
$DIMEXO
 40
0.0625
  9
$DIMDLI
 40
0.38
  9
$DIMRND
 40
0.01
  9
$DIMDLE
 40
0.0
  9
$DIMEXE
 40
0.18
  9
$DIMTP
 40
0.0
  9
$DIMTM
 40
0.0
  9
$DIMTXT
 40
2.5
  9
$DIMCEN
 40
0.09
  9
$DIMTSZ
 40
0.0
  9
$DIMTOL
 70
     0
  9
$DIMLIM
 70
     0
  9
$DIMTIH
 70
     0
  9
$DIMTOH
 70
     0
  9
$DIMSE1
 70
     0
  9
$DIMSE2
 70
     0
  9
$DIMTAD
 70
     1
  9
$DIMZIN
 70
    12
  9
$DIMBLK
  1

  9
$DIMASO
 70
     1
  9
$DIMSHO
 70
     1
  9
$DIMPOST
  1

  9
$DIMAPOST
  1

  9
$DIMALT
 70
     0
  9
$DIMALTD
 70
     2
  9
$DIMALTF
 40
25.4
  9
$DIMLFAC
 40
1.0
  9
$DIMTOFL
 70
     1
  9
$DIMTVP
 40
0.0
  9
$DIMTIX
 70
     0
  9
$DIMSOXD
 70
     0
  9
$DIMSAH
 70
     0
  9
$DIMBLK1
  1

  9
$DIMBLK2
  1

  9
$DIMSTYLE
  2
SC_STAND
  9
$DIMCLRD
 70
     0
  9
$DIMCLRE
 70
     0
  9
$DIMCLRT
 70
     0
  9
$DIMTFAC
 40
1.0
  9
$DIMGAP
 40
1.0
  9
$DIMJUST
 70
     0
  9
$DIMSD1
 70
     0
  9
$DIMSD2
 70
     0
  9
$DIMTOLJ
 70
     1
  9
$DIMTZIN
 70
    12
  9
$DIMALTZ
 70
    12
  9
$DIMALTTZ
 70
    12
  9
$DIMFIT
 70
     5
  9
$DIMUPT
 70
     0
  9
$DIMUNIT
 70
     2
  9
$DIMDEC
 70
     4
  9
$DIMTDEC
 70
     4
  9
$DIMALTU
 70
     2
  9
$DIMALTTD
 70
     2
  9
$DIMTXSTY
  7
ROMANS
  9
$DIMAUNIT
 70
     0
  9
$LUNITS
 70
     2
  9
$LUPREC
 70
     4
  9
$SKETCHINC
 40
0.1
  9
$FILLETRAD
 40
0.0
  9
$AUNITS
 70
     0
  9
$AUPREC
 70
     0
  9
$MENU
  1
acad
  9
$ELEVATION
 40
0.0
  9
$PELEVATION
 40
0.0
  9
$THICKNESS
 40
0.0
  9
$LIMCHECK
 70
     0
  9
$BLIPMODE
 70
     1
  9
$CHAMFERA
 40
0.0
  9
$CHAMFERB
 40
0.0
  9
$CHAMFERC
 40
0.0
  9
$CHAMFERD
 40
0.0
  9
$SKPOLY
 70
     0
  9
$TDCREATE
 40
2450574.673163310
  9
$TDUPDATE
 40
2451387.895598854
  9
$TDINDWG
 40
0.0005047454
  9
$TDUSRTIMER
 40
0.0005047454
  9
$USRTIMER
 70
     1
  9
$ANGBASE
 50
0.0
  9
$ANGDIR
 70
     0
  9
$PDMODE
 70
     0
  9
$PDSIZE
 40
0.0
  9
$PLINEWID
 40
0.0
  9
$COORDS
 70
     1
  9
$SPLFRAME
 70
     0
  9
$SPLINETYPE
 70
     6
  9
$SPLINESEGS
 70
     8
  9
$ATTDIA
 70
     0
  9
$ATTREQ
 70
     1
  9
$HANDLING
 70
     1
  9
$HANDSEED
  5
3FA
  9
$SURFTAB1
 70
     6
  9
$SURFTAB2
 70
     6
  9
$SURFTYPE
 70
     6
  9
$SURFU
 70
     6
  9
$SURFV
 70
     6
  9
$UCSNAME
  2

  9
$UCSORG
 10
0.0
 20
0.0
 30
0.0
  9
$UCSXDIR
 10
1.0
 20
0.0
 30
0.0
  9
$UCSYDIR
 10
0.0
 20
1.0
 30
0.0
  9
$PUCSNAME
  2

  9
$PUCSORG
 10
0.0
 20
0.0
 30
0.0
  9
$PUCSXDIR
 10
1.0
 20
0.0
 30
0.0
  9
$PUCSYDIR
 10
0.0
 20
1.0
 30
0.0
  9
$USERI1
 70
     0
  9
$USERI2
 70
     0
  9
$USERI3
 70
     0
  9
$USERI4
 70
     0
  9
$USERI5
 70
     0
  9
$USERR1
 40
0.0
  9
$USERR2
 40
0.0
  9
$USERR3
 40
0.0
  9
$USERR4
 40
0.0
  9
$USERR5
 40
0.0
  9
$WORLDVIEW
 70
     1
  9
$SHADEDGE
 70
     3
  9
$SHADEDIF
 70
    70
  9
$TILEMODE
 70
     1
  9
$MAXACTVP
 70
    16
  9
$PINSBASE
 10
0.0
 20
0.0
 30
0.0
  9
$PLIMCHECK
 70
     0
  9
$PEXTMIN
 10
1.000000E+20
 20
1.000000E+20
 30
1.000000E+20
  9
$PEXTMAX
 10
-1.000000E+20
 20
-1.000000E+20
 30
-1.000000E+20
  9
$PLIMMIN
 10
0.0
 20
0.0
  9
$PLIMMAX
 10
12.0
 20
9.0
  9
$UNITMODE
 70
     0
  9
$VISRETAIN
 70
     0
  9
$PLINEGEN
 70
     0
  9
$PSLTSCALE
 70
     1
  9
$TREEDEPTH
 70
  3020
  9
$PICKSTYLE
 70
     1
  9
$CMLSTYLE
  2
STANDARD
  9
$CMLJUST
 70
     0
  9
$CMLSCALE
 40
1.0
  9
$PROXYGRAPHICS
 70
     1
  9
$MEASUREMENT
 70
     0
  0
ENDSEC
  0
SECTION
  2
CLASSES
  0
CLASS
  1
DICTIONARYVAR
  2
AcDbDictionaryVar
  3
"AutoCAD"
 90
        0
280
     0
281
     0
  0
CLASS
  1
LWPOLYLINE
  2
AcDbPolyline
  3
"AutoCAD"
 90
        0
280
     0
281
     1
  0
ENDSEC
  0
SECTION
  2
TABLES
  0
TABLE
  2
VPORT
  5
39E
100
AcDbSymbolTable
 70
     1
  0
VPORT
  5
3F5
100
AcDbSymbolTableRecord
100
AcDbViewportTableRecord
  2
*ACTIVE
 70
     0
 10
0.0
 20
0.0
 11
1.0
 21
1.0
 12
283.244621
 22
169.500718
 13
0.0
 23
0.0
 14
1.0
 24
1.0
 15
10.0
 25
10.0
 16
0.0
 26
0.0
 36
1.0
 17
0.0
 27
0.0
 37
0.0
 40
339.001436
 41
1.671053
 42
50.0
 43
0.0
 44
0.0
 50
0.0
 51
0.0
 71
     0
 72
   100
 73
     1
 74
     1
 75
     0
 76
     1
 77
     0
 78
     0
  0
ENDTAB
  0
TABLE
  2
LTYPE
  5
39B
100
AcDbSymbolTable
 70
    23
  0
LTYPE
  5
3A7
100
AcDbSymbolTableRecord
100
AcDbLinetypeTableRecord
  2
BYBLOCK
 70
     0
  3

 72
    65
 73
     0
 40
0.0
  0
LTYPE
  5
3A8
100
AcDbSymbolTableRecord
100
AcDbLinetypeTableRecord
  2
BYLAYER
 70
     0
  3

 72
    65
 73
     0
 40
0.0
  0
LTYPE
  5
3A9
100
AcDbSymbolTableRecord
100
AcDbLinetypeTableRecord
  2
CONTINUOUS
 70
     0
  3
Solid line
 72
    65
 73
     0
 40
0.0
  0
LTYPE
  5
3BC
100
AcDbSymbolTableRecord
100
AcDbLinetypeTableRecord
  2
AXES
 70
     0
  3
____ _ ____ _ ____ _ ____ _ ____ _ ____ _ ____ 
 72
    65
 73
     4
 40
2.0
 49
1.25
 74
     0
 49
-0.25
 74
     0
 49
0.25
 74
     0
 49
-0.25
 74
     0
  0
LTYPE
  5
3BD
100
AcDbSymbolTableRecord
100
AcDbLinetypeTableRecord
  2
AXES2
 70
     0
  3
___ _ ___ _ ___ _ ___ _ ___ _ ___ _ ___ _ ___ _
 72
    65
 73
     4
 40
1.125
 49
0.75
 74
     0
 49
-0.125
 74
     0
 49
0.125
 74
     0
 49
-0.125
 74
     0
  0
LTYPE
  5
3BE
100
AcDbSymbolTableRecord
100
AcDbLinetypeTableRecord
  2
AXESX2
 70
     0
  3
________  __  ________  __  ________  __  _____
 72
    65
 73
     4
 40
4.0
 49
2.5
 74
     0
 49
-0.5
 74
     0
 49
0.5
 74
     0
 49
-0.5
 74
     0
  0
LTYPE
  5
3BF
100
AcDbSymbolTableRecord
100
AcDbLinetypeTableRecord
  2
TIRETPT
 70
     0
  3
__ . __ . __ . __ . __ . __ . __ . __ . __ . __
 72
    65
 73
     4
 40
1.0
 49
0.5
 74
     0
 49
-0.25
 74
     0
 49
0.0
 74
     0
 49
-0.25
 74
     0
  0
LTYPE
  5
3C0
100
AcDbSymbolTableRecord
100
AcDbLinetypeTableRecord
  2
TIRETPT2
 70
     0
  3
_._._._._._._._._._._._._._._._._._._._._._._._
 72
    65
 73
     4
 40
0.5
 49
0.25
 74
     0
 49
-0.125
 74
     0
 49
0.0
 74
     0
 49
-0.125
 74
     0
  0
LTYPE
  5
3C1
100
AcDbSymbolTableRecord
100
AcDbLinetypeTableRecord
  2
TIRETPTX2
 70
     0
  3
____  .  ____  .  ____  .  ____  .  ____  .  __
 72
    65
 73
     4
 40
2.0
 49
1.0
 74
     0
 49
-0.5
 74
     0
 49
0.0
 74
     0
 49
-0.5
 74
     0
  0
LTYPE
  5
3C2
100
AcDbSymbolTableRecord
100
AcDbLinetypeTableRecord
  2
DISCONTINU
 70
     0
  3
__ __ __ __ __ __ __ __ __ __ __ __ __ __ __ __
 72
    65
 73
     2
 40
0.75
 49
0.5
 74
     0
 49
-0.25
 74
     0
  0
LTYPE
  5
3C3
100
AcDbSymbolTableRecord
100
AcDbLinetypeTableRecord
  2
DISCONTINU2
 70
     0
  3
_ _ _ _ _ _ _ _ _ _ _ _ _ _ _ _ _ _ _ _ _ _ _ _
 72
    65
 73
     2
 40
0.375
 49
0.25
 74
     0
 49
-0.125
 74
     0
  0
LTYPE
  5
3C4
100
AcDbSymbolTableRecord
100
AcDbLinetypeTableRecord
  2
DISCONTINUX2
 70
     0
  3
____  ____  ____  ____  ____  ____  ____  ____ 
 72
    65
 73
     2
 40
1.5
 49
1.0
 74
     0
 49
-0.5
 74
     0
  0
LTYPE
  5
3C5
100
AcDbSymbolTableRecord
100
AcDbLinetypeTableRecord
  2
DIVISE
 70
     0
  3
____ . . ____ . . ____ . . ____ . . ____ . . __
 72
    65
 73
     6
 40
1.25
 49
0.5
 74
     0
 49
-0.25
 74
     0
 49
0.0
 74
     0
 49
-0.25
 74
     0
 49
0.0
 74
     0
 49
-0.25
 74
     0
  0
LTYPE
  5
3C6
100
AcDbSymbolTableRecord
100
AcDbLinetypeTableRecord
  2
DIVISE2
 70
     0
  3
__..__..__..__..__..__..__..__..__..__..__..__.
 72
    65
 73
     6
 40
0.625
 49
0.25
 74
     0
 49
-0.125
 74
     0
 49
0.0
 74
     0
 49
-0.125
 74
     0
 49
0.0
 74
     0
 49
-0.125
 74
     0
  0
LTYPE
  5
3C7
100
AcDbSymbolTableRecord
100
AcDbLinetypeTableRecord
  2
DIVISEX2
 70
     0
  3
________  .  .  ________  .  .  ________  .  . 
 72
    65
 73
     6
 40
2.5
 49
1.0
 74
     0
 49
-0.5
 74
     0
 49
0.0
 74
     0
 49
-0.5
 74
     0
 49
0.0
 74
     0
 49
-0.5
 74
     0
  0
LTYPE
  5
3C8
100
AcDbSymbolTableRecord
100
AcDbLinetypeTableRecord
  2
POINTILLE
 70
     0
  3
. . . . . . . . . . . . . . . . . . . . . . . .
 72
    65
 73
     2
 40
0.25
 49
0.0
 74
     0
 49
-0.25
 74
     0
  0
LTYPE
  5
3C9
100
AcDbSymbolTableRecord
100
AcDbLinetypeTableRecord
  2
POINTILLE2
 70
     0
  3
...............................................
 72
    65
 73
     2
 40
0.125
 49
0.0
 74
     0
 49
-0.125
 74
     0
  0
LTYPE
  5
3CA
100
AcDbSymbolTableRecord
100
AcDbLinetypeTableRecord
  2
POINTILLEX2
 70
     0
  3
.  .  .  .  .  .  .  .  .  .  .  .  .  .  .  . 
 72
    65
 73
     2
 40
0.5
 49
0.0
 74
     0
 49
-0.5
 74
     0
  0
LTYPE
  5
3CB
100
AcDbSymbolTableRecord
100
AcDbLinetypeTableRecord
  2
CACHE
 70
     0
  3
__ __ __ __ __ __ __ __ __ __ __ __ __ __ __ __
 72
    65
 73
     2
 40
0.375
 49
0.25
 74
     0
 49
-0.125
 74
     0
  0
LTYPE
  5
3CC
100
AcDbSymbolTableRecord
100
AcDbLinetypeTableRecord
  2
CACHE2
 70
     0
  3
_ _ _ _ _ _ _ _ _ _ _ _ _ _ _ _ _ _ _ _ _ _ _ _
 72
    65
 73
     2
 40
0.1875
 49
0.125
 74
     0
 49
-0.0625
 74
     0
  0
LTYPE
  5
3CD
100
AcDbSymbolTableRecord
100
AcDbLinetypeTableRecord
  2
CACHEX2
 70
     0
  3
____ ____ ____ ____ ____ ____ ____ ____ ____ __
 72
    65
 73
     2
 40
0.75
 49
0.5
 74
     0
 49
-0.25
 74
     0
  0
LTYPE
  5
3CE
100
AcDbSymbolTableRecord
100
AcDbLinetypeTableRecord
  2
FANTOME
 70
     0
  3
______  __  __  ______  __  __  ______  __  __ 
 72
    65
 73
     6
 40
2.5
 49
1.25
 74
     0
 49
-0.25
 74
     0
 49
0.25
 74
     0
 49
-0.25
 74
     0
 49
0.25
 74
     0
 49
-0.25
 74
     0
  0
LTYPE
  5
3CF
100
AcDbSymbolTableRecord
100
AcDbLinetypeTableRecord
  2
FANTOME2
 70
     0
  3
___ _ _ ___ _ _ ___ _ _ ___ _ _ ___ _ _ ___ _ _
 72
    65
 73
     6
 40
1.25
 49
0.625
 74
     0
 49
-0.125
 74
     0
 49
0.125
 74
     0
 49
-0.125
 74
     0
 49
0.125
 74
     0
 49
-0.125
 74
     0
  0
LTYPE
  5
3D0
100
AcDbSymbolTableRecord
100
AcDbLinetypeTableRecord
  2
FANTOMEX2
 70
     0
  3
____________    ____    ____    ____________   
 72
    65
 73
     6
 40
5.0
 49
2.5
 74
     0
 49
-0.5
 74
     0
 49
0.5
 74
     0
 49
-0.5
 74
     0
 49
0.5
 74
     0
 49
-0.5
 74
     0
  0
LTYPE
  5
3D1
100
AcDbSymbolTableRecord
100
AcDbLinetypeTableRecord
  2
0
 70
     0
  3
MEDUSA PEN 0
 72
    65
 73
     0
 40
0.0
  0
ENDTAB
  0
TABLE
  2
LAYER
  5
398
100
AcDbSymbolTable
 70
    21
  0
LAYER
  5
3A4
100
AcDbSymbolTableRecord
100
AcDbLayerTableRecord
  2
0
 70
     0
 62
     7
  6
CONTINUOUS
  0
LAYER
  5
3D8
100
AcDbSymbolTableRecord
100
AcDbLayerTableRecord
  2
AXE
 70
     0
 62
    80
  6
AXES2
  0
LAYER
  5
3D9
100
AcDbSymbolTableRecord
100
AcDbLayerTableRecord
  2
CONSTRUCTION
 70
     0
 62
     6
  6
CONTINUOUS
  0
LAYER
  5
3DA
100
AcDbSymbolTableRecord
100
AcDbLayerTableRecord
  2
COTATION1
 70
     0
 62
     2
  6
CONTINUOUS
  0
LAYER
  5
3DB
100
AcDbSymbolTableRecord
100
AcDbLayerTableRecord
  2
HACHURES
 70
     0
 62
     9
  6
CONTINUOUS
  0
LAYER
  5
3DC
100
AcDbSymbolTableRecord
100
AcDbLayerTableRecord
  2
FMULT
 70
     0
 62
     6
  6
CONTINUOUS
  0
LAYER
  5
3DD
100
AcDbSymbolTableRecord
100
AcDbLayerTableRecord
  2
TEXTE
 70
     0
 62
   131
  6
CONTINUOUS
  0
LAYER
  5
3DE
100
AcDbSymbolTableRecord
100
AcDbLayerTableRecord
  2
FDP_CARTOUCHE
 70
     0
 62
     4
  6
CONTINUOUS
  0
LAYER
  5
3DF
100
AcDbSymbolTableRecord
100
AcDbLayerTableRecord
  2
FDP_TEXTES
 70
     0
 62
     5
  6
CONTINUOUS
  0
LAYER
  5
3E0
100
AcDbSymbolTableRecord
100
AcDbLayerTableRecord
  2
FDP_LOGO_MG
 70
     0
 62
    30
  6
CONTINUOUS
  0
LAYER
  5
3E1
100
AcDbSymbolTableRecord
100
AcDbLayerTableRecord
  2
FDP_LOGO_SCH
 70
     0
 62
     3
  6
CONTINUOUS
  0
LAYER
  5
3E2
100
AcDbSymbolTableRecord
100
AcDbLayerTableRecord
  2
FDP_FDP
 70
     0
 62
     5
  6
CONTINUOUS
  0
LAYER
  5
3E3
100
AcDbSymbolTableRecord
100
AcDbLayerTableRecord
  2
COTATION2
 70
     0
 62
     2
  6
CONTINUOUS
  0
LAYER
  5
3E4
100
AcDbSymbolTableRecord
100
AcDbLayerTableRecord
  2
COTATION3
 70
     0
 62
     2
  6
CONTINUOUS
  0
LAYER
  5
3E5
100
AcDbSymbolTableRecord
100
AcDbLayerTableRecord
  2
COTATION4
 70
     0
 62
     2
  6
CONTINUOUS
  0
LAYER
  5
3E6
100
AcDbSymbolTableRecord
100
AcDbLayerTableRecord
  2
ASHADE
 70
     0
 62
     7
  6
CONTINUOUS
  0
LAYER
  5
3E7
100
AcDbSymbolTableRecord
100
AcDbLayerTableRecord
  2
POINTILLE_COURT
 70
     0
 62
    40
  6
CACHE2
  0
LAYER
  5
3E8
100
AcDbSymbolTableRecord
100
AcDbLayerTableRecord
  2
POINTILLE_MOYEN
 70
     0
 62
   140
  6
CACHE
  0
LAYER
  5
3E9
100
AcDbSymbolTableRecord
100
AcDbLayerTableRecord
  2
POINTILLE_LONG
 70
     0
 62
   240
  6
CACHEX2
  0
LAYER
  5
3EA
100
AcDbSymbolTableRecord
100
AcDbLayerTableRecord
  2
ALPHA
 70
     0
 62
   255
  6
CONTINUOUS
  0
LAYER
  5
3EB
100
AcDbSymbolTableRecord
100
AcDbLayerTableRecord
  2
DEFPOINTS
 70
     0
 62
     7
  6
CONTINUOUS
  0
ENDTAB
  0
TABLE
  2
STYLE
  5
399
100
AcDbSymbolTable
 70
     4
  0
STYLE
  5
3A5
100
AcDbSymbolTableRecord
100
AcDbTextStyleTableRecord
  2
STANDARD
 70
     0
 40
0.0
 41
1.0
 50
0.0
 71
     0
 42
0.2
  3
txt
  4

  0
STYLE
  5
3B9
100
AcDbSymbolTableRecord
100
AcDbTextStyleTableRecord
  2
ROMANS
 70
     0
 40
0.0
 41
1.0
 50
0.0
 71
     0
 42
2.9
  3
romans.shx
  4

  0
STYLE
  5
3BA
100
AcDbSymbolTableRecord
100
AcDbTextStyleTableRecord
  2
INFOCAR
 70
     0
 40
0.0
 41
1.34
 50
0.0
 71
     0
 42
2.0
  3
ROMANS.SHX
  4

  0
STYLE
  5
3BB
100
AcDbSymbolTableRecord
100
AcDbTextStyleTableRecord
  2
CARTOUCHE
 70
     0
 40
0.0
 41
1.0
 50
0.0
 71
     0
 42
0.2
  3
ROMANS.SHX
  4

  0
ENDTAB
  0
TABLE
  2
VIEW
  5
39C
100
AcDbSymbolTable
 70
     0
  0
ENDTAB
  0
TABLE
  2
UCS
  5
39D
100
AcDbSymbolTable
 70
     0
  0
ENDTAB
  0
TABLE
  2
APPID
  5
39F
100
AcDbSymbolTable
 70
     3
  0
APPID
  5
3A6
100
AcDbSymbolTableRecord
100
AcDbRegAppTableRecord
  2
ACAD
 70
     0
  0
APPID
  5
3D4
100
AcDbSymbolTableRecord
100
AcDbRegAppTableRecord
  2
AVE_RENDER
 70
     0
  0
APPID
  5
3D5
100
AcDbSymbolTableRecord
100
AcDbRegAppTableRecord
  2
AVE_MATERIAL
 70
     0
  0
ENDTAB
  0
TABLE
  2
DIMSTYLE
  5
3A0
100
AcDbSymbolTable
 70
     2
  0
DIMSTYLE
105
3D6
100
AcDbSymbolTableRecord
100
AcDbDimStyleTableRecord
  2
STANDARD
 70
     0
  3

  4

  5

  6

  7

 40
1.0
 41
0.18
 42
0.0625
 43
0.38
 44
0.18
 45
0.0
 46
0.0
 47
0.0
 48
0.0
140
0.18
141
0.09
142
0.0
143
25.4
144
1.0
145
0.0
146
1.0
147
0.09
 71
     0
 72
     0
 73
     1
 74
     1
 75
     0
 76
     0
 77
     0
 78
     0
170
     0
171
     2
172
     0
173
     0
174
     0
175
     0
176
     0
177
     0
178
     0
270
     2
271
     4
272
     4
273
     2
274
     2
340
3B9
275
     0
280
     0
281
     0
282
     0
283
     1
284
    12
285
    12
286
    12
287
     5
288
     0
  0
DIMSTYLE
105
3D7
102
{ACAD_REACTORS
330
366
330
373
102
}
100
AcDbSymbolTableRecord
100
AcDbDimStyleTableRecord
  2
SC_STAND
 70
     0
  3

  4

  5

  6

  7

 40
1.0
 41
3.0
 42
0.0625
 43
0.38
 44
0.18
 45
0.01
 46
0.0
 47
0.0
 48
0.0
140
2.5
141
0.09
142
0.0
143
25.4
144
1.0
145
0.0
146
1.0
147
1.0
 71
     0
 72
     0
 73
     0
 74
     0
 75
     0
 76
     0
 77
     1
 78
    12
170
     0
171
     2
172
     1
173
     0
174
     0
175
     0
176
     0
177
     0
178
     0
270
     2
271
     4
272
     4
273
     2
274
     2
340
3B9
275
     0
280
     0
281
     0
282
     0
283
     1
284
    12
285
    12
286
    12
287
     5
288
     0
  0
ENDTAB
  0
TABLE
  2
BLOCK_RECORD
  5
397
100
AcDbSymbolTable
 70
     7
  0
BLOCK_RECORD
  5
3AD
100
AcDbSymbolTableRecord
100
AcDbBlockTableRecord
  2
*MODEL_SPACE
  0
BLOCK_RECORD
  5
3AA
100
AcDbSymbolTableRecord
100
AcDbBlockTableRecord
  2
*PAPER_SPACE
  0
BLOCK_RECORD
  5
3B2
100
AcDbSymbolTableRecord
100
AcDbBlockTableRecord
  2
AVE_RENDER
  0
BLOCK_RECORD
  5
3B3
100
AcDbSymbolTableRecord
100
AcDbBlockTableRecord
  2
AVE_GLOBAL
  0
BLOCK_RECORD
  5
3B4
100
AcDbSymbolTableRecord
100
AcDbBlockTableRecord
  2
SCH_ISO
  0
BLOCK_RECORD
  5
3B7
100
AcDbSymbolTableRecord
100
AcDbBlockTableRecord
  2
*D5
  0
BLOCK_RECORD
  5
3B8
100
AcDbSymbolTableRecord
100
AcDbBlockTableRecord
  2
*D6
  0
ENDTAB
  0
ENDSEC
  0
SECTION
  2
BLOCKS
  0
BLOCK
  5
3EE
100
AcDbEntity
  8
0
100
AcDbBlockBegin
  2
*MODEL_SPACE
 70
     0
 10
0.0
 20
0.0
 30
0.0
  3
*MODEL_SPACE
  1

  0
ENDBLK
  5
3EF
100
AcDbEntity
  8
0
100
AcDbBlockEnd
  0
BLOCK
  5
3EC
100
AcDbEntity
 67
     1
  8
0
100
AcDbBlockBegin
  2
*PAPER_SPACE
 70
     0
 10
0.0
 20
0.0
 30
0.0
  3
*PAPER_SPACE
  1

  0
ENDBLK
  5
3ED
100
AcDbEntity
 67
     1
  8
0
100
AcDbBlockEnd
  0
BLOCK
  5
315
100
AcDbEntity
  8
0
100
AcDbBlockBegin
  2
AVE_RENDER
 70
     0
 10
0.0
 20
0.0
 30
0.0
  3
AVE_RENDER
  1
AVE_RENDER
  0
ENDBLK
  5
316
100
AcDbEntity
  8
0
100
AcDbBlockEnd
  0
BLOCK
  5
318
100
AcDbEntity
  8
0
100
AcDbBlockBegin
  2
AVE_GLOBAL
 70
     0
 10
0.0
 20
0.0
 30
0.0
  3
AVE_GLOBAL
  1
AVE_GLOBAL
  0
ENDBLK
  5
319
100
AcDbEntity
  8
0
100
AcDbBlockEnd
  0
BLOCK
  5
354
100
AcDbEntity
  8
0
100
AcDbBlockBegin
  2
SCH_ISO
 70
     0
 10
0.0
 20
0.0
 30
0.0
  3
SCH_ISO
  1

  0
INSERT
  5
34B
100
AcDbEntity
  8
ASHADE
 62
     1
100
AcDbBlockReference
  2
AVE_RENDER
 10
0.0
 20
0.0
 30
0.0
1001
AVE_RENDER
1002
{
1070
     6
1000
Pref
1070
    50
1070
    20
1070
     1
1070
     0
1000

1070
    10
1070
     1
1070
    30
1040
25.4
1070
     1
1040
0.3
1040
0.7
1040
0.0
1040
10.0
1010
-1.0
1020
-1.0
1030
-1.0
1040
0.3
1070
    49
1070
     0
1070
     0
1010
1.0
1020
1.0
1030
1.0
1040
45.0
1070
     1
1070
     0
1000
WCS
1040
0.0
1002
}
  0
INSERT
  5
34C
100
AcDbEntity
  8
ASHADE
 62
     3
100
AcDbBlockReference
  2
AVE_RENDER
 10
0.0
 20
0.0
 30
0.0
1001
AVE_RENDER
1002
{
1070
     0
1000
Full Opt
1070
     0
1070
     1
1070
     1
1070
     1
1070
     0
1070
     0
1070
     0
1070
     1
1070
     1
1040
0.0001
1040
0.0001
1002
}
  0
INSERT
  5
34D
100
AcDbEntity
  8
ASHADE
 62
     4
100
AcDbBlockReference
  2
AVE_RENDER
 10
0.0
 20
0.0
 30
0.0
1001
AVE_RENDER
1002
{
1070
     0
1000
Quick Opt
1070
     0
1070
     1
1070
     1
1070
     1
1070
     0
1070
     0
1070
     1
1002
}
  0
INSERT
  5
34E
100
AcDbEntity
  8
ASHADE
 62
     5
100
AcDbBlockReference
  2
AVE_RENDER
 10
0.0
 20
0.0
 30
0.0
1001
AVE_RENDER
1002
{
1070
     1
1000
Scanl Opt
1070
     2
1070
     0
1070
     2
1040
2.0
1040
4.0
1070
     0
1070
     1
1070
     0
1040
0.03
1002
}
  0
INSERT
  5
34F
100
AcDbEntity
  8
ASHADE
 62
     6
100
AcDbBlockReference
  2
AVE_RENDER
 10
0.0
 20
0.0
 30
0.0
1001
AVE_RENDER
1002
{
1070
     2
1000
Raytr Opt
1070
     2
1070
     0
1070
     2
1040
2.0
1040
4.0
1070
     0
1070
     1
1070
     1
1040
0.03
1070
     3
1040
0.03
1002
}
  0
INSERT
  5
350
100
AcDbEntity
  8
ASHADE
 62
     7
100
AcDbBlockReference
  2
AVE_RENDER
 10
0.0
 20
0.0
 30
0.0
1001
AVE_RENDER
1002
{
1070
     0
1000
RFile Opt
1070
     5
1070
   640
1070
   480
1070
 10000
1070
     3
1070
    32
1070
    24
1070
     0
1070
     0
1070
     0
1070
     1
1070
     0
1070
     0
1070
     0
1002
}
  0
INSERT
  5
351
100
AcDbEntity
  8
ASHADE
 62
     8
100
AcDbBlockReference
  2
AVE_RENDER
 10
0.0
 20
0.0
 30
0.0
1001
AVE_RENDER
1002
{
1070
     0
1000
Fog Opt
1070
     0
1070
     0
1040
0.0
1040
1.0
1040
0.0
1040
1.0
1010
0.5
1020
0.5
1030
0.5
1002
}
  0
INSERT
  5
352
100
AcDbEntity
  8
ASHADE
 62
     9
100
AcDbBlockReference
  2
AVE_RENDER
 10
0.0
 20
0.0
 30
0.0
1001
AVE_RENDER
1002
{
1070
     0
1000
BG Opt
1070
     0
1070
     1
1010
0.0
1020
0.0
1030
0.0
1010
1.0
1020
0.0
1030
0.0
1010
0.0
1020
1.0
1030
0.0
1010
0.0
1020
0.0
1030
1.0
1040
0.5
1040
0.33
1040
0.0
1000

1070
     1
1000

1070
     1
1070
     1
1040
1.0
1040
1.0
1040
0.0
1040
0.0
1070
     0
1002
}
  0
INSERT
  5
353
100
AcDbEntity
  8
ASHADE
 62
     1
100
AcDbBlockReference
  2
AVE_GLOBAL
 10
0.0
 20
0.0
 30
0.0
1001
AVE_MATERIAL
1002
{
1000
*GLOBAL*
1000
1
1000
Finition globale.
1002
{
1002
}
1002
{
1070
    63
1002
{
1002
{
1010
-1.0
1020
-1.0
1030
-1.0
1002
}
1040
0.1
1000

1040
0.0
1002
{
1002
}
1040
0.0
1002
{
1002
}
1040
0.0
1002
}
1002
{
1002
{
1010
-1.0
1020
-1.0
1030
-1.0
1002
}
1040
0.7
1000

1040
0.0
1002
{
1002
}
1040
0.0
1002
{
1002
}
1040
0.0
1002
}
1002
{
1002
{
1010
-1.0
1020
-1.0
1030
-1.0
1002
}
1040
0.2
1000

1040
0.0
1002
{
1002
}
1040
0.0
1002
{
1002
}
1040
0.0
1002
}
1002
{
1070
     0
1002
{
1070
     1
1002
{
1040
1.0
1040
1.0
1000

1040
0.0
1002
{
1002
}
1040
0.0
1002
{
1002
}
1040
0.0
1002
}
1002
}
1040
1.0
1040
0.0
1040
0.0
1002
}
1002
{
1040
1.0
1040
1.0
1000

1040
0.0
1002
{
1002
}
1040
0.0
1002
{
1002
}
1040
0.0
1002
}
1002
{
1040
0.5
1040
1.0
1000

1040
0.0
1002
{
1002
}
1040
0.0
1002
{
1002
}
1040
0.0
1002
}
1002
{
1070
     0
1040
0.0
1002
{
1002
}
1040
1.0
1002
{
1002
}
1040
0.0
1002
}
1002
{
1040
0.0
1002
{
1002
{
1010
0.0
1020
0.0
1030
0.0
1002
}
1040
1.0
1000

1040
0.0
1002
{
1002
}
1040
0.0
1002
{
1002
}
1040
0.0
1002
}
1002
}
1002
{
1002
{
1070
     1
1002
{
1040
0.0
1040
1.0
1000

1040
0.0
1002
{
1002
}
1040
0.0
1002
{
1002
}
1040
0.0
1002
}
1002
}
1040
0.0
1002
{
1002
}
1010
1.0
1020
0.0
1030
0.0
1010
0.0
1020
1.0
1030
0.0
1010
0.0
1020
0.0
1030
1.0
1070
     0
1002
}
1002
{
1002
{
1040
1.0
1040
1.0
1002
{
1070
     1
1002
{
1040
1.0
1040
1.0
1000

1040
0.0
1002
{
1002
}
1040
0.0
1002
{
1002
}
1040
0.0
1002
}
1002
}
1002
}
1070
     0
1040
0.0
1002
{
1002
}
1002
}
1002
{
1002
}
1002
}
1002
{
1071
        3
1070
     3
1070
     0
1002
{
1070
     2
1070
     0
1070
     0
1040
0.0
1002
}
1070
     0
1070
     2
1002
{
1002
}
1002
}
1002
{
1040
8030.0
1040
190.300003
1040
0.305
1040
228.0
1040
545.0
1040
14.0
1040
17.4
1040
0.456
1002
}
1002
}
  0
ENDBLK
  5
355
100
AcDbEntity
  8
0
100
AcDbBlockEnd
  0
BLOCK
  5
37E
100
AcDbEntity
  8
0
100
AcDbBlockBegin
  2
*D5
 70
     1
 10
0.0
 20
0.0
 30
0.0
  3
*D5
  1

  0
LINE
  5
37F
100
AcDbEntity
  8
0
  6
BYBLOCK
 62
     0
100
AcDbLine
 10
48.059614
 20
99.531344
 30
0.0
 11
48.059614
 21
78.178194
 31
0.0
  0
LINE
  5
380
100
AcDbEntity
  8
0
  6
BYBLOCK
 62
     0
100
AcDbLine
 10
63.062306
 20
99.83497
 30
0.0
 11
63.062306
 21
78.178194
 31
0.0
  0
LINE
  5
381
100
AcDbEntity
  8
0
  6
BYBLOCK
 62
     0
100
AcDbLine
 10
51.059614
 20
78.358194
 30
0.0
 11
60.062306
 21
78.358194
 31
0.0
  0
SOLID
  5
382
100
AcDbEntity
  8
0
  6
BYBLOCK
 62
     0
100
AcDbTrace
 10
51.059614
 20
78.858194
 30
0.0
 11
51.059614
 21
77.858194
 31
0.0
 12
48.059614
 22
78.358194
 32
0.0
 13
48.059614
 23
78.358194
 33
0.0
  0
SOLID
  5
383
100
AcDbEntity
  8
0
  6
BYBLOCK
 62
     0
100
AcDbTrace
 10
60.062306
 20
78.858194
 30
0.0
 11
60.062306
 21
77.858194
 31
0.0
 12
63.062306
 22
78.358194
 32
0.0
 13
63.062306
 23
78.358194
 33
0.0
  0
TEXT
  5
384
100
AcDbEntity
  8
0
  6
BYBLOCK
 62
     0
100
AcDbText
 10
53.001436
 20
79.608194
 30
0.0
 40
2.5
  1
15
  7
ROMANS
 72
     1
 11
55.56096
 21
80.858194
 31
0.0
100
AcDbText
 73
     2
  0
POINT
  5
385
100
AcDbEntity
  8
DEFPOINTS
  6
BYBLOCK
 62
     0
100
AcDbPoint
 10
48.059614
 20
99.593844
 30
0.0
  0
POINT
  5
386
100
AcDbEntity
  8
DEFPOINTS
  6
BYBLOCK
 62
     0
100
AcDbPoint
 10
63.062306
 20
99.89747
 30
0.0
  0
POINT
  5
387
100
AcDbEntity
  8
DEFPOINTS
  6
BYBLOCK
 62
     0
100
AcDbPoint
 10
63.062306
 20
78.358194
 30
0.0
  0
ENDBLK
  5
388
100
AcDbEntity
  8
0
100
AcDbBlockEnd
  0
BLOCK
  5
389
100
AcDbEntity
  8
0
100
AcDbBlockBegin
  2
*D6
 70
     1
 10
0.0
 20
0.0
 30
0.0
  3
*D6
  1

  0
LINE
  5
38A
100
AcDbEntity
  8
0
  6
BYBLOCK
 62
     0
100
AcDbLine
 10
62.999806
 20
100.893844
 30
0.0
 11
36.455557
 21
100.893844
 31
0.0
  0
LINE
  5
38B
100
AcDbEntity
  8
0
  6
BYBLOCK
 62
     0
100
AcDbLine
 10
62.999806
 20
115.643844
 30
0.0
 11
36.455557
 21
115.643844
 31
0.0
  0
LINE
  5
38C
100
AcDbEntity
  8
0
  6
BYBLOCK
 62
     0
100
AcDbLine
 10
36.635557
 20
97.893844
 30
0.0
 11
36.635557
 21
94.893844
 31
0.0
  0
LINE
  5
38D
100
AcDbEntity
  8
0
  6
BYBLOCK
 62
     0
100
AcDbLine
 10
36.635557
 20
118.643844
 30
0.0
 11
36.635557
 21
121.643844
 31
0.0
  0
LINE
  5
38E
100
AcDbEntity
  8
0
  6
BYBLOCK
 62
     0
100
AcDbLine
 10
36.635557
 20
121.643844
 30
0.0
 11
36.635557
 21
132.286701
 31
0.0
  0
SOLID
  5
38F
100
AcDbEntity
  8
0
  6
BYBLOCK
 62
     0
100
AcDbTrace
 10
36.135557
 20
97.893844
 30
0.0
 11
37.135557
 21
97.893844
 31
0.0
 12
36.635557
 22
100.893844
 32
0.0
 13
36.635557
 23
100.893844
 33
0.0
  0
SOLID
  5
390
100
AcDbEntity
  8
0
  6
BYBLOCK
 62
     0
100
AcDbTrace
 10
36.135557
 20
118.643844
 30
0.0
 11
37.135557
 21
118.643844
 31
0.0
 12
36.635557
 22
115.643844
 32
0.0
 13
36.635557
 23
115.643844
 33
0.0
  0
LINE
  5
391
100
AcDbEntity
  8
0
  6
BYBLOCK
 62
     0
100
AcDbLine
 10
36.635557
 20
100.893844
 30
0.0
 11
36.635557
 21
115.643844
 31
0.0
  0
TEXT
  5
392
100
AcDbEntity
  8
0
  6
BYBLOCK
 62
     0
100
AcDbText
 10
35.385557
 20
121.929558
 30
0.0
 40
2.5
  1
14.75
 50
90.0
  7
ROMANS
 72
     1
 11
34.135557
 21
127.465272
 31
0.0
100
AcDbText
 73
     2
  0
POINT
  5
393
100
AcDbEntity
  8
DEFPOINTS
  6
BYBLOCK
 62
     0
100
AcDbPoint
 10
63.062306
 20
100.893844
 30
0.0
  0
POINT
  5
394
100
AcDbEntity
  8
DEFPOINTS
  6
BYBLOCK
 62
     0
100
AcDbPoint
 10
63.062306
 20
115.643844
 30
0.0
  0
POINT
  5
395
100
AcDbEntity
  8
DEFPOINTS
  6
BYBLOCK
 62
     0
100
AcDbPoint
 10
36.635557
 20
115.643844
 30
0.0
  0
ENDBLK
  5
396
100
AcDbEntity
  8
0
100
AcDbBlockEnd
  0
ENDSEC
  0
SECTION
  2
ENTITIES
  0
ARC
  5
1D
100
AcDbEntity
  8
ALPHA
100
AcDbCircle
 10
49.420572
 20
102.675695
 30
0.0
 40
0.2
100
AcDbArc
 50
270.0
 51
340.885185
  0
ARC
  5
1E
100
AcDbEntity
  8
ALPHA
100
AcDbCircle
 10
33.282018
 20
108.268844
 30
0.0
 40
17.280288
100
AcDbArc
 50
340.885185
 51
19.114815
  0
ARC
  5
1F
100
AcDbEntity
  8
ALPHA
100
AcDbCircle
 10
49.420572
 20
113.861993
 30
0.0
 40
0.2
100
AcDbArc
 50
19.114815
 51
90.0
  0
ARC
  5
20
100
AcDbEntity
  8
ALPHA
100
AcDbCircle
 10
48.259614
 20
99.593844
 30
0.0
 40
0.2
100
AcDbArc
 50
180.0
 51
270.0
  0
ARC
  5
21
100
AcDbEntity
  8
ALPHA
100
AcDbCircle
 10
48.259614
 20
116.943844
 30
0.0
 40
0.2
100
AcDbArc
 50
90.0
 51
180.0
  0
ARC
  5
22
100
AcDbEntity
  8
ALPHA
100
AcDbCircle
 10
85.661943
 20
109.168844
 30
0.0
 40
0.2
100
AcDbArc
 50
90.0
 51
177.0
  0
ARC
  5
23
100
AcDbEntity
  8
ALPHA
100
AcDbCircle
 10
93.352099
 20
106.518844
 30
0.0
 40
0.2
100
AcDbArc
 50
195.122647
 51
270.0
  0
ARC
  5
24
100
AcDbEntity
  8
ALPHA
100
AcDbCircle
 10
102.862306
 20
114.268844
 30
0.0
 40
0.6
100
AcDbArc
 50
90.0
 51
270.0
  0
ARC
  5
25
100
AcDbEntity
  8
ALPHA
100
AcDbCircle
 10
103.462306
 20
114.268844
 30
0.0
 40
0.6
100
AcDbArc
 50
270.0
 51
90.0
  0
ARC
  5
26
100
AcDbEntity
  8
ALPHA
100
AcDbCircle
 10
102.862306
 20
102.268844
 30
0.0
 40
0.6
100
AcDbArc
 50
90.0
 51
270.0
  0
ARC
  5
27
100
AcDbEntity
  8
ALPHA
100
AcDbCircle
 10
103.462306
 20
102.268844
 30
0.0
 40
0.6
100
AcDbArc
 50
270.0
 51
90.0
  0
ARC
  5
28
100
AcDbEntity
  8
ALPHA
100
AcDbCircle
 10
103.062306
 20
108.168844
 30
0.0
 40
0.9
100
AcDbArc
 50
318.189685
 51
41.810315
  0
ARC
  5
29
100
AcDbEntity
  8
ALPHA
100
AcDbCircle
 10
103.062306
 20
108.168844
 30
0.0
 40
0.9
100
AcDbArc
 50
138.189685
 51
221.810315
  0
ARC
  5
2A
100
AcDbEntity
  8
ALPHA
100
AcDbCircle
 10
100.162306
 20
108.168844
 30
0.0
 40
0.9
100
AcDbArc
 50
318.189685
 51
41.810315
  0
ARC
  5
2B
100
AcDbEntity
  8
ALPHA
100
AcDbCircle
 10
100.162306
 20
108.168844
 30
0.0
 40
0.9
100
AcDbArc
 50
138.189685
 51
221.810315
  0
ARC
  5
2C
100
AcDbEntity
  8
ALPHA
100
AcDbCircle
 10
48.262306
 20
113.783372
 30
0.0
 40
0.2
100
AcDbArc
 50
180.364894
 51
187.823799
  0
ARC
  5
2D
100
AcDbEntity
  8
ALPHA
100
AcDbCircle
 10
74.712306
 20
115.275529
 30
0.0
 40
0.35
100
AcDbArc
 50
0.0
 51
180.0
  0
ARC
  5
2E
100
AcDbEntity
  8
ALPHA
100
AcDbCircle
 10
74.712306
 20
101.023671
 30
0.0
 40
0.35
100
AcDbArc
 50
180.0
 51
0.0
  0
LINE
  5
2F
100
AcDbEntity
  8
ALPHA
100
AcDbLine
 10
105.162306
 20
113.368844
 30
0.0
 11
105.162306
 21
115.168844
 31
0.0
  0
LINE
  5
30
100
AcDbEntity
  8
ALPHA
100
AcDbLine
 10
105.162306
 20
101.368844
 30
0.0
 11
105.162306
 21
103.168844
 31
0.0
  0
LINE
  5
31
100
AcDbEntity
  8
ALPHA
100
AcDbLine
 10
105.062306
 20
107.268844
 30
0.0
 11
105.062306
 21
109.068844
 31
0.0
  0
LINE
  5
32
100
AcDbEntity
  8
ALPHA
100
AcDbLine
 10
104.662306
 20
112.868844
 30
0.0
 11
104.662306
 21
115.668844
 31
0.0
  0
LINE
  5
33
100
AcDbEntity
  8
ALPHA
100
AcDbLine
 10
104.662306
 20
100.868844
 30
0.0
 11
104.662306
 21
103.668844
 31
0.0
  0
LINE
  5
34
100
AcDbEntity
  8
ALPHA
100
AcDbLine
 10
104.562306
 20
106.768844
 30
0.0
 11
104.562306
 21
109.568844
 31
0.0
  0
LINE
  5
35
100
AcDbEntity
  8
ALPHA
100
AcDbLine
 10
105.162306
 20
115.168844
 30
0.0
 11
104.662306
 21
115.668844
 31
0.0
  0
LINE
  5
36
100
AcDbEntity
  8
ALPHA
100
AcDbLine
 10
105.162306
 20
101.368844
 30
0.0
 11
104.662306
 21
100.868844
 31
0.0
  0
LINE
  5
37
100
AcDbEntity
  8
ALPHA
100
AcDbLine
 10
96.562306
 20
117.118844
 30
0.0
 11
96.937584
 21
116.468844
 31
0.0
  0
LINE
  5
38
100
AcDbEntity
  8
ALPHA
100
AcDbLine
 10
105.062306
 20
109.068844
 30
0.0
 11
104.562306
 21
109.568844
 31
0.0
  0
LINE
  5
39
100
AcDbEntity
  8
ALPHA
100
AcDbLine
 10
104.562306
 20
106.768844
 30
0.0
 11
105.062306
 21
107.268844
 31
0.0
  0
LINE
  5
3A
100
AcDbEntity
  8
ALPHA
100
AcDbLine
 10
97.362306
 20
112.068844
 30
0.0
 11
97.362306
 21
116.468844
 31
0.0
  0
LINE
  5
3B
100
AcDbEntity
  8
ALPHA
100
AcDbLine
 10
97.362306
 20
106.318844
 30
0.0
 11
97.362306
 21
110.468844
 31
0.0
  0
LINE
  5
3C
100
AcDbEntity
  8
ALPHA
100
AcDbLine
 10
97.362306
 20
100.068844
 30
0.0
 11
97.362306
 21
104.468844
 31
0.0
  0
LINE
  5
3D
100
AcDbEntity
  8
ALPHA
100
AcDbLine
 10
96.962306
 20
116.468844
 30
0.0
 11
96.962306
 21
117.218844
 31
0.0
  0
LINE
  5
3E
100
AcDbEntity
  8
ALPHA
100
AcDbLine
 10
96.962306
 20
111.318844
 30
0.0
 11
96.962306
 21
112.068844
 31
0.0
  0
LINE
  5
3F
100
AcDbEntity
  8
ALPHA
100
AcDbLine
 10
96.962306
 20
110.468844
 30
0.0
 11
96.962306
 21
111.218844
 31
0.0
  0
LINE
  5
40
100
AcDbEntity
  8
ALPHA
100
AcDbLine
 10
96.962306
 20
105.318844
 30
0.0
 11
96.962306
 21
106.318844
 31
0.0
  0
LINE
  5
41
100
AcDbEntity
  8
ALPHA
100
AcDbLine
 10
96.962306
 20
104.468844
 30
0.0
 11
96.962306
 21
105.218844
 31
0.0
  0
LINE
  5
42
100
AcDbEntity
  8
ALPHA
100
AcDbLine
 10
96.962306
 20
99.318844
 30
0.0
 11
96.962306
 21
100.068844
 31
0.0
  0
LINE
  5
43
100
AcDbEntity
  8
ALPHA
100
AcDbLine
 10
96.562306
 20
109.718844
 30
0.0
 11
96.562306
 21
111.218844
 31
0.0
  0
LINE
  5
44
100
AcDbEntity
  8
ALPHA
100
AcDbLine
 10
96.162306
 20
111.318844
 30
0.0
 11
96.162306
 21
112.068844
 31
0.0
  0
LINE
  5
45
100
AcDbEntity
  8
ALPHA
100
AcDbLine
 10
96.162306
 20
99.318844
 30
0.0
 11
96.162306
 21
100.068844
 31
0.0
  0
LINE
  5
46
100
AcDbEntity
  8
ALPHA
100
AcDbLine
 10
96.162306
 20
105.218844
 30
0.0
 11
96.162306
 21
104.468844
 31
0.0
  0
LINE
  5
47
100
AcDbEntity
  8
ALPHA
100
AcDbLine
 10
96.162306
 20
117.218844
 30
0.0
 11
96.162306
 21
116.468844
 31
0.0
  0
LINE
  5
48
100
AcDbEntity
  8
ALPHA
100
AcDbLine
 10
95.793247
 20
113.168844
 30
0.0
 11
95.793247
 21
115.368844
 31
0.0
  0
LINE
  5
49
100
AcDbEntity
  8
ALPHA
100
AcDbLine
 10
95.793247
 20
101.168844
 30
0.0
 11
95.793247
 21
103.368844
 31
0.0
  0
LINE
  5
4A
100
AcDbEntity
  8
ALPHA
100
AcDbLine
 10
95.562306
 20
113.168844
 30
0.0
 11
95.562306
 21
115.368844
 31
0.0
  0
LINE
  5
4B
100
AcDbEntity
  8
ALPHA
100
AcDbLine
 10
95.562306
 20
101.168844
 30
0.0
 11
95.562306
 21
103.368844
 31
0.0
  0
LINE
  5
4C
100
AcDbEntity
  8
ALPHA
100
AcDbLine
 10
96.18412
 20
109.718844
 30
0.0
 11
96.110749
 21
111.118844
 31
0.0
  0
LINE
  5
4D
100
AcDbEntity
  8
ALPHA
100
AcDbLine
 10
105.162306
 20
103.168844
 30
0.0
 11
104.662306
 21
103.668844
 31
0.0
  0
LINE
  5
4E
100
AcDbEntity
  8
ALPHA
100
AcDbLine
 10
105.162306
 20
113.368844
 30
0.0
 11
104.662306
 21
112.868844
 31
0.0
  0
LINE
  5
4F
100
AcDbEntity
  8
ALPHA
100
AcDbLine
 10
97.477777
 20
109.568844
 30
0.0
 11
97.362306
 21
109.368844
 31
0.0
  0
LINE
  5
50
100
AcDbEntity
  8
ALPHA
100
AcDbLine
 10
94.440493
 20
109.718844
 30
0.0
 11
94.513864
 21
111.118844
 31
0.0
  0
LINE
  5
51
100
AcDbEntity
  8
ALPHA
100
AcDbLine
 10
94.262306
 20
105.318844
 30
0.0
 11
94.262306
 21
106.318844
 31
0.0
  0
LINE
  5
52
100
AcDbEntity
  8
ALPHA
100
AcDbLine
 10
94.112306
 20
109.718844
 30
0.0
 11
94.112306
 21
110.068844
 31
0.0
  0
LINE
  5
53
100
AcDbEntity
  8
ALPHA
100
AcDbLine
 10
93.962306
 20
109.718844
 30
0.0
 11
93.962306
 21
111.218844
 31
0.0
  0
LINE
  5
54
100
AcDbEntity
  8
ALPHA
100
AcDbLine
 10
93.162306
 20
104.768844
 30
0.0
 11
93.162306
 21
99.768844
 31
0.0
  0
LINE
  5
55
100
AcDbEntity
  8
ALPHA
100
AcDbLine
 10
93.162306
 20
110.768844
 30
0.0
 11
93.162306
 21
105.768844
 31
0.0
  0
LINE
  5
56
100
AcDbEntity
  8
ALPHA
100
AcDbLine
 10
93.162306
 20
116.768844
 30
0.0
 11
93.162306
 21
111.768844
 31
0.0
  0
LINE
  5
57
100
AcDbEntity
  8
ALPHA
100
AcDbLine
 10
96.562306
 20
105.118844
 30
0.0
 11
96.937584
 21
104.468844
 31
0.0
  0
LINE
  5
58
100
AcDbEntity
  8
ALPHA
100
AcDbLine
 10
91.962306
 20
103.443844
 30
0.0
 11
91.962306
 21
101.093844
 31
0.0
  0
LINE
  5
59
100
AcDbEntity
  8
ALPHA
100
AcDbLine
 10
91.962306
 20
109.443844
 30
0.0
 11
91.962306
 21
107.093844
 31
0.0
  0
LINE
  5
5A
100
AcDbEntity
  8
ALPHA
100
AcDbLine
 10
91.962306
 20
115.443844
 30
0.0
 11
91.962306
 21
113.093844
 31
0.0
  0
LINE
  5
5B
100
AcDbEntity
  8
ALPHA
100
AcDbLine
 10
91.312306
 20
109.368844
 30
0.0
 11
91.312306
 21
109.443844
 31
0.0
  0
LINE
  5
5C
100
AcDbEntity
  8
ALPHA
100
AcDbLine
 10
90.512306
 20
109.443844
 30
0.0
 11
90.512306
 21
109.368844
 31
0.0
  0
LINE
  5
5D
100
AcDbEntity
  8
ALPHA
100
AcDbLine
 10
88.197947
 20
113.168844
 30
0.0
 11
88.197947
 21
115.368844
 31
0.0
  0
LINE
  5
5E
100
AcDbEntity
  8
ALPHA
100
AcDbLine
 10
88.197947
 20
101.168844
 30
0.0
 11
88.197947
 21
103.368844
 31
0.0
  0
LINE
  5
5F
100
AcDbEntity
  8
ALPHA
100
AcDbLine
 10
88.162306
 20
110.768844
 30
0.0
 11
88.162306
 21
111.768844
 31
0.0
  0
LINE
  5
60
100
AcDbEntity
  8
ALPHA
100
AcDbLine
 10
88.162306
 20
104.768844
 30
0.0
 11
88.162306
 21
105.768844
 31
0.0
  0
LINE
  5
61
100
AcDbEntity
  8
ALPHA
100
AcDbLine
 10
80.862306
 20
117.218844
 30
0.0
 11
96.962306
 21
117.218844
 31
0.0
  0
LINE
  5
62
100
AcDbEntity
  8
ALPHA
100
AcDbLine
 10
56.062306
 20
117.168844
 30
0.0
 11
58.562306
 21
117.168844
 31
0.0
  0
LINE
  5
63
100
AcDbEntity
  8
ALPHA
100
AcDbLine
 10
81.162306
 20
117.168844
 30
0.0
 11
77.162306
 21
117.168844
 31
0.0
  0
LINE
  5
64
100
AcDbEntity
  8
ALPHA
100
AcDbLine
 10
56.062306
 20
117.143844
 30
0.0
 11
48.259614
 21
117.143844
 31
0.0
  0
LINE
  5
65
100
AcDbEntity
  8
ALPHA
100
AcDbLine
 10
96.162306
 20
117.118844
 30
0.0
 11
96.562306
 21
117.118844
 31
0.0
  0
LINE
  5
66
100
AcDbEntity
  8
ALPHA
100
AcDbLine
 10
58.562306
 20
117.041529
 30
0.0
 11
61.862306
 21
117.041529
 31
0.0
  0
LINE
  5
67
100
AcDbEntity
  8
ALPHA
100
AcDbLine
 10
77.162306
 20
116.768844
 30
0.0
 11
93.162306
 21
116.768844
 31
0.0
  0
LINE
  5
68
100
AcDbEntity
  8
ALPHA
100
AcDbLine
 10
61.862306
 20
116.640218
 30
0.0
 11
63.062306
 21
116.640218
 31
0.0
  0
LINE
  5
69
100
AcDbEntity
  8
ALPHA
100
AcDbLine
 10
75.162306
 20
116.543844
 30
0.0
 11
77.162306
 21
116.543844
 31
0.0
  0
LINE
  5
6A
100
AcDbEntity
  8
ALPHA
100
AcDbLine
 10
85.352923
 20
107.093844
 30
0.0
 11
85.462217
 21
109.179311
 31
0.0
  0
LINE
  5
6B
100
AcDbEntity
  8
ALPHA
100
AcDbLine
 10
85.362306
 20
113.168844
 30
0.0
 11
85.362306
 21
115.368844
 31
0.0
  0
LINE
  5
6C
100
AcDbEntity
  8
ALPHA
100
AcDbLine
 10
85.362306
 20
101.168844
 30
0.0
 11
85.362306
 21
103.368844
 31
0.0
  0
LINE
  5
6D
100
AcDbEntity
  8
ALPHA
100
AcDbLine
 10
85.162306
 20
113.093844
 30
0.0
 11
85.162306
 21
115.443844
 31
0.0
  0
LINE
  5
6E
100
AcDbEntity
  8
ALPHA
100
AcDbLine
 10
85.162306
 20
107.093844
 30
0.0
 11
85.162306
 21
109.443844
 31
0.0
  0
LINE
  5
6F
100
AcDbEntity
  8
ALPHA
100
AcDbLine
 10
85.162306
 20
101.093844
 30
0.0
 11
85.162306
 21
103.443844
 31
0.0
  0
LINE
  5
70
100
AcDbEntity
  8
ALPHA
100
AcDbLine
 10
97.362306
 20
116.468844
 30
0.0
 11
96.162306
 21
116.468844
 31
0.0
  0
LINE
  5
71
100
AcDbEntity
  8
ALPHA
100
AcDbLine
 10
74.362306
 20
116.368844
 30
0.0
 11
73.162306
 21
116.368844
 31
0.0
  0
LINE
  5
72
100
AcDbEntity
  8
ALPHA
100
AcDbLine
 10
58.562306
 20
115.963547
 30
0.0
 11
63.062306
 21
115.963547
 31
0.0
  0
LINE
  5
73
100
AcDbEntity
  8
ALPHA
100
AcDbLine
 10
48.105114
 20
115.858844
 30
0.0
 11
48.062306
 21
115.858844
 31
0.0
  0
LINE
  5
74
100
AcDbEntity
  8
ALPHA
100
AcDbLine
 10
58.562306
 20
115.799118
 30
0.0
 11
63.062306
 21
115.799118
 31
0.0
  0
LINE
  5
75
100
AcDbEntity
  8
ALPHA
100
AcDbLine
 10
104.662306
 20
115.668844
 30
0.0
 11
97.362306
 21
115.668844
 31
0.0
  0
LINE
  5
76
100
AcDbEntity
  8
ALPHA
100
AcDbLine
 10
69.187306
 20
115.643844
 30
0.0
 11
63.062306
 21
115.643844
 31
0.0
  0
LINE
  5
77
100
AcDbEntity
  8
ALPHA
100
AcDbLine
 10
73.162306
 20
115.643844
 30
0.0
 11
69.187306
 21
115.643844
 31
0.0
  0
LINE
  5
78
100
AcDbEntity
  8
ALPHA
100
AcDbLine
 10
75.162306
 20
115.643844
 30
0.0
 11
75.062306
 21
115.643844
 31
0.0
  0
LINE
  5
79
100
AcDbEntity
  8
ALPHA
100
AcDbLine
 10
63.062306
 20
115.593844
 30
0.0
 11
69.187306
 21
115.593844
 31
0.0
  0
LINE
  5
7A
100
AcDbEntity
  8
ALPHA
100
AcDbLine
 10
85.162306
 20
115.443844
 30
0.0
 11
91.962306
 21
115.443844
 31
0.0
  0
LINE
  5
7B
100
AcDbEntity
  8
ALPHA
100
AcDbLine
 10
95.562306
 20
115.368844
 30
0.0
 11
97.362306
 21
115.368844
 31
0.0
  0
LINE
  5
7C
100
AcDbEntity
  8
ALPHA
100
AcDbLine
 10
91.962306
 20
115.368844
 30
0.0
 11
85.362306
 21
115.368844
 31
0.0
  0
LINE
  5
7D
100
AcDbEntity
  8
ALPHA
100
AcDbLine
 10
58.562306
 20
115.103182
 30
0.0
 11
63.062306
 21
115.103182
 31
0.0
  0
LINE
  5
7E
100
AcDbEntity
  8
ALPHA
100
AcDbLine
 10
63.062306
 20
115.026131
 30
0.0
 11
68.562306
 21
115.026131
 31
0.0
  0
LINE
  5
7F
100
AcDbEntity
  8
ALPHA
100
AcDbLine
 10
75.062306
 20
114.918844
 30
0.0
 11
77.162306
 21
114.918844
 31
0.0
  0
LINE
  5
80
100
AcDbEntity
  8
ALPHA
100
AcDbLine
 10
103.462306
 20
114.868844
 30
0.0
 11
102.862306
 21
114.868844
 31
0.0
  0
LINE
  5
81
100
AcDbEntity
  8
ALPHA
100
AcDbLine
 10
63.062306
 20
114.572252
 30
0.0
 11
69.187306
 21
114.572252
 31
0.0
  0
LINE
  5
82
100
AcDbEntity
  8
ALPHA
100
AcDbLine
 10
63.062306
 20
113.545236
 30
0.0
 11
71.761065
 21
112.949647
 31
0.0
  0
LWPOLYLINE
  5
83
100
AcDbEntity
  8
ALPHA
100
AcDbPolyline
 90
        5
 70
     0
 43
0.0
 10
73.162306
 20
113.878906
 10
71.528407
 20
113.982085
 10
68.019344
 20
114.192393
 10
64.546431
 20
114.389269
 10
63.062306
 20
114.46853
  0
LWPOLYLINE
  5
8A
100
AcDbEntity
  8
ALPHA
100
AcDbPolyline
 90
       17
 70
     0
 43
0.0
 10
49.015859
 20
114.061993
 10
49.002519
 20
114.062411
 10
48.987697
 20
114.063817
 10
48.971715
 20
114.066385
 10
48.954848
 20
114.070232
 10
48.937222
 20
114.07547
 10
48.919121
 20
114.082138
 10
48.900541
 20
114.090362
 10
48.881524
 20
114.100282
 10
48.862219
 20
114.11201
 10
48.842887
 20
114.125595
 10
48.823548
 20
114.141284
 10
48.804281
 20
114.159411
 10
48.78539
 20
114.180253
 10
48.767349
 20
114.204083
 10
48.750791
 20
114.231258
 10
48.736756
 20
114.261993
  0
LINE
  5
9D
100
AcDbEntity
  8
ALPHA
100
AcDbLine
 10
74.362306
 20
114.368844
 30
0.0
 11
73.162306
 21
114.368844
 31
0.0
  0
LINE
  5
9E
100
AcDbEntity
  8
ALPHA
100
AcDbLine
 10
49.015859
 20
114.061993
 30
0.0
 11
49.420572
 21
114.061993
 31
0.0
  0
LINE
  5
9F
100
AcDbEntity
  8
ALPHA
100
AcDbLine
 10
49.555393
 20
114.009506
 30
0.0
 11
48.789009
 21
114.009506
 31
0.0
  0
LINE
  5
A0
100
AcDbEntity
  8
ALPHA
100
AcDbLine
 10
58.562306
 20
113.96988
 30
0.0
 11
63.062306
 21
113.96988
 31
0.0
  0
LINE
  5
A1
100
AcDbEntity
  8
ALPHA
100
AcDbLine
 10
58.562306
 20
113.854746
 30
0.0
 11
63.062306
 21
113.854746
 31
0.0
  0
LINE
  5
A2
100
AcDbEntity
  8
ALPHA
100
AcDbLine
 10
102.862306
 20
113.668844
 30
0.0
 11
103.462306
 21
113.668844
 31
0.0
  0
LINE
  5
A3
100
AcDbEntity
  8
ALPHA
100
AcDbLine
 10
93.162306
 20
113.168844
 30
0.0
 11
97.362306
 21
113.168844
 31
0.0
  0
LINE
  5
A4
100
AcDbEntity
  8
ALPHA
100
AcDbLine
 10
91.962306
 20
113.168844
 30
0.0
 11
85.162306
 21
113.168844
 31
0.0
  0
LINE
  5
A5
100
AcDbEntity
  8
ALPHA
100
AcDbLine
 10
91.962306
 20
113.093844
 30
0.0
 11
85.162306
 21
113.093844
 31
0.0
  0
LINE
  5
A6
100
AcDbEntity
  8
ALPHA
100
AcDbLine
 10
104.662306
 20
112.868844
 30
0.0
 11
97.362306
 21
112.868844
 31
0.0
  0
LINE
  5
A7
100
AcDbEntity
  8
ALPHA
100
AcDbLine
 10
58.562306
 20
112.741152
 30
0.0
 11
63.062306
 21
112.741152
 31
0.0
  0
LINE
  5
A8
100
AcDbEntity
  8
ALPHA
100
AcDbLine
 10
75.062306
 20
112.652296
 30
0.0
 11
77.162306
 21
112.652296
 31
0.0
  0
LINE
  5
A9
100
AcDbEntity
  8
ALPHA
100
AcDbLine
 10
68.562306
 20
112.551257
 30
0.0
 11
63.062306
 21
112.551257
 31
0.0
  0
LWPOLYLINE
  5
AA
100
AcDbEntity
  8
ALPHA
100
AcDbPolyline
 90
        4
 70
     0
 43
0.0
 10
66.635984
 20
112.551257
 10
68.019344
 20
112.662269
 10
71.528407
 20
112.932479
 10
73.162306
 20
113.053041
  0
LINE
  5
B0
100
AcDbEntity
  8
ALPHA
100
AcDbLine
 10
81.362306
 20
116.768844
 30
0.0
 11
81.362306
 21
117.218844
 31
0.0
  0
LINE
  5
B1
100
AcDbEntity
  8
ALPHA
100
AcDbLine
 10
81.362306
 20
99.768844
 30
0.0
 11
81.362306
 21
99.318844
 31
0.0
  0
LINE
  5
B2
100
AcDbEntity
  8
ALPHA
100
AcDbLine
 10
81.162306
 20
116.768844
 30
0.0
 11
81.162306
 21
117.168844
 31
0.0
  0
LINE
  5
B3
100
AcDbEntity
  8
ALPHA
100
AcDbLine
 10
81.162306
 20
99.368844
 30
0.0
 11
81.162306
 21
99.768844
 31
0.0
  0
LWPOLYLINE
  5
B4
100
AcDbEntity
  8
ALPHA
100
AcDbPolyline
 90
        6
 70
     0
 43
0.0
 10
74.712306
 20
112.462356
 10
74.820462
 20
112.450243
 10
74.918031
 20
112.41509
 10
74.995462
 20
112.360338
 10
75.045176
 20
112.291347
 10
75.062306
 20
112.214869
  0
LWPOLYLINE
  5
BC
100
AcDbEntity
  8
ALPHA
100
AcDbPolyline
 90
        6
 70
     0
 43
0.0
 10
74.712306
 20
111.967382
 10
74.604151
 20
111.979494
 10
74.506582
 20
112.014647
 10
74.429151
 20
112.0694
 10
74.379437
 20
112.138391
 10
74.362306
 20
112.214869
  0
LINE
  5
C4
100
AcDbEntity
  8
ALPHA
100
AcDbLine
 10
97.362306
 20
112.068844
 30
0.0
 11
96.162306
 21
112.068844
 31
0.0
  0
LINE
  5
C5
100
AcDbEntity
  8
ALPHA
100
AcDbLine
 10
73.162306
 20
111.968844
 30
0.0
 11
69.662306
 21
111.968844
 31
0.0
  0
LINE
  5
C6
100
AcDbEntity
  8
ALPHA
100
AcDbLine
 10
70.278973
 20
111.768844
 30
0.0
 11
70.143556
 21
111.768844
 31
0.0
  0
LINE
  5
C7
100
AcDbEntity
  8
ALPHA
100
AcDbLine
 10
71.118556
 20
111.768844
 30
0.0
 11
70.874806
 21
111.768844
 31
0.0
  0
LINE
  5
C8
100
AcDbEntity
  8
ALPHA
100
AcDbLine
 10
72.310223
 20
111.768844
 30
0.0
 11
72.174806
 21
111.768844
 31
0.0
  0
LINE
  5
C9
100
AcDbEntity
  8
ALPHA
100
AcDbLine
 10
93.162306
 20
111.768844
 30
0.0
 11
88.162306
 21
111.768844
 31
0.0
  0
LINE
  5
CA
100
AcDbEntity
  8
ALPHA
100
AcDbLine
 10
70.278973
 20
111.556078
 30
0.0
 11
70.143556
 21
111.556078
 31
0.0
  0
LINE
  5
CB
100
AcDbEntity
  8
ALPHA
100
AcDbLine
 10
72.337306
 20
111.556078
 30
0.0
 11
72.147723
 21
111.556078
 31
0.0
  0
LINE
  5
CC
100
AcDbEntity
  8
ALPHA
100
AcDbLine
 10
71.118556
 20
111.513525
 30
0.0
 11
70.874806
 21
111.513525
 31
0.0
  0
LINE
  5
CD
100
AcDbEntity
  8
ALPHA
100
AcDbLine
 10
96.962306
 20
111.318844
 30
0.0
 11
88.162306
 21
111.318844
 31
0.0
  0
LINE
  5
CE
100
AcDbEntity
  8
ALPHA
100
AcDbLine
 10
61.862306
 20
111.290449
 30
0.0
 11
63.062306
 21
111.290449
 31
0.0
  0
LINE
  5
CF
100
AcDbEntity
  8
ALPHA
100
AcDbLine
 10
70.65814
 20
111.258205
 30
0.0
 11
70.49564
 21
111.258205
 31
0.0
  0
LINE
  5
D0
100
AcDbEntity
  8
ALPHA
100
AcDbLine
 10
88.162306
 20
111.218844
 30
0.0
 11
96.962306
 21
111.218844
 31
0.0
  0
LINE
  5
D1
100
AcDbEntity
  8
ALPHA
100
AcDbLine
 10
96.110749
 20
111.118844
 30
0.0
 11
94.513864
 21
111.118844
 31
0.0
  0
LINE
  5
D2
100
AcDbEntity
  8
ALPHA
100
AcDbLine
 10
61.862306
 20
111.018844
 30
0.0
 11
63.062306
 21
111.018844
 31
0.0
  0
LINE
  5
D3
100
AcDbEntity
  8
ALPHA
100
AcDbLine
 10
93.162306
 20
110.768844
 30
0.0
 11
88.162306
 21
110.768844
 31
0.0
  0
LINE
  5
D4
100
AcDbEntity
  8
ALPHA
100
AcDbLine
 10
72.337306
 20
110.705014
 30
0.0
 11
72.147723
 21
110.705014
 31
0.0
  0
LINE
  5
D5
100
AcDbEntity
  8
ALPHA
100
AcDbLine
 10
80.862306
 20
99.368844
 30
0.0
 11
80.862306
 21
99.318844
 31
0.0
  0
LINE
  5
D6
100
AcDbEntity
  8
ALPHA
100
AcDbLine
 10
80.862306
 20
117.218844
 30
0.0
 11
80.862306
 21
117.168844
 31
0.0
  0
LINE
  5
D7
100
AcDbEntity
  8
ALPHA
100
AcDbLine
 10
68.562306
 20
115.026131
 30
0.0
 11
69.187306
 21
114.572252
 31
0.0
  0
LINE
  5
D8
100
AcDbEntity
  8
ALPHA
100
AcDbLine
 10
72.418556
 20
111.513525
 30
0.0
 11
72.337306
 21
111.556078
 31
0.0
  0
LINE
  5
D9
100
AcDbEntity
  8
ALPHA
100
AcDbLine
 10
71.22689
 20
111.470971
 30
0.0
 11
71.118556
 21
111.513525
 31
0.0
  0
LINE
  5
DA
100
AcDbEntity
  8
ALPHA
100
AcDbLine
 10
72.44564
 20
111.72629
 30
0.0
 11
72.310223
 21
111.768844
 31
0.0
  0
LINE
  5
DB
100
AcDbEntity
  8
ALPHA
100
AcDbLine
 10
71.253973
 20
111.72629
 30
0.0
 11
71.118556
 21
111.768844
 31
0.0
  0
LINE
  5
DC
100
AcDbEntity
  8
ALPHA
100
AcDbLine
 10
72.174806
 20
110.492248
 30
0.0
 11
72.03939
 21
110.534801
 31
0.0
  0
LINE
  5
DD
100
AcDbEntity
  8
ALPHA
100
AcDbLine
 10
72.310223
 20
110.492248
 30
0.0
 11
72.174806
 21
110.492248
 31
0.0
  0
LINE
  5
DE
100
AcDbEntity
  8
ALPHA
100
AcDbLine
 10
97.362306
 20
110.468844
 30
0.0
 11
96.962306
 21
110.468844
 31
0.0
  0
LINE
  5
DF
100
AcDbEntity
  8
ALPHA
100
AcDbLine
 10
96.147435
 20
110.418844
 30
0.0
 11
96.562306
 21
110.418844
 31
0.0
  0
LINE
  5
E0
100
AcDbEntity
  8
ALPHA
100
AcDbLine
 10
93.962306
 20
110.418844
 30
0.0
 11
94.477178
 21
110.418844
 31
0.0
  0
LINE
  5
E1
100
AcDbEntity
  8
ALPHA
100
AcDbLine
 10
77.162306
 20
110.384411
 30
0.0
 11
73.162306
 21
110.384411
 31
0.0
  0
LINE
  5
E2
100
AcDbEntity
  8
ALPHA
100
AcDbLine
 10
70.65814
 20
110.279482
 30
0.0
 11
70.49564
 21
110.279482
 31
0.0
  0
LINE
  5
E3
100
AcDbEntity
  8
ALPHA
100
AcDbLine
 10
49.862306
 20
110.268844
 30
0.0
 11
50.44483
 21
110.268844
 31
0.0
  0
LINE
  5
E4
100
AcDbEntity
  8
ALPHA
100
AcDbLine
 10
96.155296
 20
110.268844
 30
0.0
 11
94.469317
 21
110.268844
 31
0.0
  0
LINE
  5
E5
100
AcDbEntity
  8
ALPHA
100
AcDbLine
 10
71.95814
 20
110.236929
 30
0.0
 11
71.822723
 21
110.236929
 31
0.0
  0
LINE
  5
E6
100
AcDbEntity
  8
ALPHA
100
AcDbLine
 10
94.112306
 20
110.068844
 30
0.0
 11
94.458836
 21
110.068844
 31
0.0
  0
LINE
  5
E7
100
AcDbEntity
  8
ALPHA
100
AcDbLine
 10
71.118556
 20
110.024163
 30
0.0
 11
70.874806
 21
110.024163
 31
0.0
  0
LINE
  5
E8
100
AcDbEntity
  8
ALPHA
100
AcDbLine
 10
72.337306
 20
109.98161
 30
0.0
 11
72.174806
 21
109.98161
 31
0.0
  0
LINE
  5
E9
100
AcDbEntity
  8
ALPHA
100
AcDbLine
 10
96.176259
 20
109.868844
 30
0.0
 11
94.448354
 21
109.868844
 31
0.0
  0
LINE
  5
EA
100
AcDbEntity
  8
ALPHA
100
AcDbLine
 10
58.562306
 20
109.768844
 30
0.0
 11
61.862306
 21
109.768844
 31
0.0
  0
LINE
  5
EB
100
AcDbEntity
  8
ALPHA
100
AcDbLine
 10
71.118556
 20
109.768844
 30
0.0
 11
70.874806
 21
109.768844
 31
0.0
  0
LINE
  5
EC
100
AcDbEntity
  8
ALPHA
100
AcDbLine
 10
72.310223
 20
109.768844
 30
0.0
 11
72.20189
 21
109.768844
 31
0.0
  0
LINE
  5
ED
100
AcDbEntity
  8
ALPHA
100
AcDbLine
 10
96.562306
 20
109.718844
 30
0.0
 11
93.962306
 21
109.718844
 31
0.0
  0
LINE
  5
EE
100
AcDbEntity
  8
ALPHA
100
AcDbLine
 10
97.477777
 20
109.568844
 30
0.0
 11
104.562306
 21
109.568844
 31
0.0
  0
LINE
  5
EF
100
AcDbEntity
  8
ALPHA
100
AcDbLine
 10
73.162306
 20
109.568844
 30
0.0
 11
69.662306
 21
109.568844
 31
0.0
  0
LINE
  5
F0
100
AcDbEntity
  8
ALPHA
100
AcDbLine
 10
85.162306
 20
109.443844
 30
0.0
 11
91.962306
 21
109.443844
 31
0.0
  0
LINE
  5
F1
100
AcDbEntity
  8
ALPHA
100
AcDbLine
 10
85.661943
 20
109.368844
 30
0.0
 11
91.962306
 21
109.368844
 31
0.0
  0
LINE
  5
F2
100
AcDbEntity
  8
ALPHA
100
AcDbLine
 10
102.391486
 20
108.768844
 30
0.0
 11
103.733127
 21
108.768844
 31
0.0
  0
LINE
  5
F3
100
AcDbEntity
  8
ALPHA
100
AcDbLine
 10
99.491486
 20
108.768844
 30
0.0
 11
100.833127
 21
108.768844
 31
0.0
  0
LINE
  5
F4
100
AcDbEntity
  8
ALPHA
100
AcDbLine
 10
77.162306
 20
99.368844
 30
0.0
 11
77.162306
 21
117.168844
 31
0.0
  0
LINE
  5
F5
100
AcDbEntity
  8
ALPHA
100
AcDbLine
 10
73.162296
 20
110.983263
 30
0.0
 11
73.149806
 21
111.002886
 31
0.0
  0
LINE
  5
F6
100
AcDbEntity
  8
ALPHA
100
AcDbLine
 10
73.162306
 20
109.828582
 30
0.0
 11
73.068556
 21
109.939056
 31
0.0
  0
LINE
  5
F7
100
AcDbEntity
  8
ALPHA
100
AcDbLine
 10
72.499807
 20
111.428418
 30
0.0
 11
72.418556
 21
111.513525
 31
0.0
  0
LINE
  5
F8
100
AcDbEntity
  8
ALPHA
100
AcDbLine
 10
72.066473
 20
110.747567
 30
0.0
 11
71.985223
 21
110.832674
 31
0.0
  0
LINE
  5
F9
100
AcDbEntity
  8
ALPHA
100
AcDbLine
 10
71.30814
 20
111.385865
 30
0.0
 11
71.22689
 21
111.470971
 31
0.0
  0
LINE
  5
FA
100
AcDbEntity
  8
ALPHA
100
AcDbLine
 10
72.581056
 20
111.598631
 30
0.0
 11
72.44564
 21
111.72629
 31
0.0
  0
LINE
  5
FB
100
AcDbEntity
  8
ALPHA
100
AcDbLine
 10
72.03939
 20
110.534801
 30
0.0
 11
71.903973
 21
110.662461
 31
0.0
  0
LINE
  5
FC
100
AcDbEntity
  8
ALPHA
100
AcDbLine
 10
73.122723
 20
110.747567
 30
0.0
 11
73.068556
 21
110.79012
 31
0.0
  0
LINE
  5
FD
100
AcDbEntity
  8
ALPHA
100
AcDbLine
 10
71.362306
 20
111.641184
 30
0.0
 11
71.253973
 21
111.72629
 31
0.0
  0
LINE
  5
FE
100
AcDbEntity
  8
ALPHA
100
AcDbLine
 10
69.187306
 20
112.097378
 30
0.0
 11
68.562306
 21
112.551257
 31
0.0
  0
LINE
  5
FF
100
AcDbEntity
  8
ALPHA
100
AcDbLine
 10
72.147723
 20
110.705014
 30
0.0
 11
72.066473
 21
110.747567
 31
0.0
  0
LINE
  5
100
100
AcDbEntity
  8
ALPHA
100
AcDbLine
 10
72.174806
 20
109.98161
 30
0.0
 11
72.093557
 21
110.024163
 31
0.0
  0
LINE
  5
101
100
AcDbEntity
  8
ALPHA
100
AcDbLine
 10
70.874806
 20
110.024163
 30
0.0
 11
70.766473
 21
110.066716
 31
0.0
  0
LINE
  5
102
100
AcDbEntity
  8
ALPHA
100
AcDbLine
 10
72.20189
 20
109.768844
 30
0.0
 11
72.066473
 21
109.811397
 31
0.0
  0
LINE
  5
103
100
AcDbEntity
  8
ALPHA
100
AcDbLine
 10
70.874806
 20
109.768844
 30
0.0
 11
70.73939
 21
109.811397
 31
0.0
  0
LINE
  5
104
100
AcDbEntity
  8
ALPHA
100
AcDbLine
 10
100.833127
 20
107.568844
 30
0.0
 11
99.491486
 21
107.568844
 31
0.0
  0
LINE
  5
105
100
AcDbEntity
  8
ALPHA
100
AcDbLine
 10
103.733127
 20
107.568844
 30
0.0
 11
102.391486
 21
107.568844
 31
0.0
  0
LINE
  5
106
100
AcDbEntity
  8
ALPHA
100
AcDbLine
 10
91.962306
 20
107.093844
 30
0.0
 11
85.162306
 21
107.093844
 31
0.0
  0
LINE
  5
107
100
AcDbEntity
  8
ALPHA
100
AcDbLine
 10
73.162306
 20
106.968844
 30
0.0
 11
70.062306
 21
106.968844
 31
0.0
  0
LINE
  5
108
100
AcDbEntity
  8
ALPHA
100
AcDbLine
 10
97.362306
 20
106.768844
 30
0.0
 11
104.562306
 21
106.768844
 31
0.0
  0
LINE
  5
109
100
AcDbEntity
  8
ALPHA
100
AcDbLine
 10
58.562306
 20
106.768844
 30
0.0
 11
61.862306
 21
106.768844
 31
0.0
  0
LINE
  5
10A
100
AcDbEntity
  8
ALPHA
100
AcDbLine
 10
75.162306
 20
114.918844
 30
0.0
 11
75.162306
 21
116.543766
 31
0.0
  0
LINE
  5
10B
100
AcDbEntity
  8
ALPHA
100
AcDbLine
 10
75.162306
 20
99.993922
 30
0.0
 11
75.162306
 21
101.618844
 31
0.0
  0
LINE
  5
10C
100
AcDbEntity
  8
ALPHA
100
AcDbLine
 10
75.062306
 20
112.214869
 30
0.0
 11
75.062306
 21
115.643844
 31
0.0
  0
LINE
  5
10D
100
AcDbEntity
  8
ALPHA
100
AcDbLine
 10
75.062306
 20
100.893844
 30
0.0
 11
75.062306
 21
104.084331
 31
0.0
  0
LINE
  5
10E
100
AcDbEntity
  8
ALPHA
100
AcDbLine
 10
73.149806
 20
111.002886
 30
0.0
 11
73.122723
 21
111.130546
 31
0.0
  0
LINE
  5
10F
100
AcDbEntity
  8
ALPHA
100
AcDbLine
 10
72.987306
 20
110.960333
 30
0.0
 11
72.960223
 21
111.087993
 31
0.0
  0
LINE
  5
110
100
AcDbEntity
  8
ALPHA
100
AcDbLine
 10
73.149806
 20
110.151822
 30
0.0
 11
73.122723
 21
110.279482
 31
0.0
  0
LINE
  5
111
100
AcDbEntity
  8
ALPHA
100
AcDbLine
 10
72.987306
 20
110.109269
 30
0.0
 11
72.960223
 21
110.236929
 31
0.0
  0
LINE
  5
112
100
AcDbEntity
  8
ALPHA
100
AcDbLine
 10
72.581056
 20
111.173099
 30
0.0
 11
72.553973
 21
111.300759
 31
0.0
  0
LWPOLYLINE
  5
113
100
AcDbEntity
  8
ALPHA
100
AcDbPolyline
 90
        6
 70
     0
 43
0.0
 10
75.062306
 20
104.084331
 10
75.045176
 20
104.160809
 10
74.995462
 20
104.229801
 10
74.918031
 20
104.284553
 10
74.820462
 20
104.319706
 10
74.712306
 20
104.331819
  0
LWPOLYLINE
  5
11B
100
AcDbEntity
  8
ALPHA
100
AcDbPolyline
 90
        6
 70
     0
 43
0.0
 10
74.362306
 20
104.084331
 10
74.379437
 20
104.007854
 10
74.429151
 20
103.938862
 10
74.506582
 20
103.88411
 10
74.604151
 20
103.848957
 10
74.712306
 20
103.836844
  0
LINE
  5
123
100
AcDbEntity
  8
ALPHA
100
AcDbLine
 10
72.716473
 20
111.215652
 30
0.0
 11
72.662306
 21
111.428418
 31
0.0
  0
LINE
  5
124
100
AcDbEntity
  8
ALPHA
100
AcDbLine
 10
72.553973
 20
111.300759
 30
0.0
 11
72.499807
 21
111.428418
 31
0.0
  0
LINE
  5
125
100
AcDbEntity
  8
ALPHA
100
AcDbLine
 10
72.012306
 20
110.109269
 30
0.0
 11
71.95814
 21
110.236929
 31
0.0
  0
LINE
  5
126
100
AcDbEntity
  8
ALPHA
100
AcDbLine
 10
71.362306
 20
111.258205
 30
0.0
 11
71.30814
 21
111.385865
 31
0.0
  0
LINE
  5
127
100
AcDbEntity
  8
ALPHA
100
AcDbLine
 10
73.068556
 20
110.79012
 30
0.0
 11
72.987306
 21
110.960333
 31
0.0
  0
LINE
  5
128
100
AcDbEntity
  8
ALPHA
100
AcDbLine
 10
72.662306
 20
111.428418
 30
0.0
 11
72.581056
 21
111.598631
 31
0.0
  0
LINE
  5
129
100
AcDbEntity
  8
ALPHA
100
AcDbLine
 10
73.068556
 20
109.939056
 30
0.0
 11
72.987306
 21
110.109269
 31
0.0
  0
LINE
  5
12A
100
AcDbEntity
  8
ALPHA
100
AcDbLine
 10
71.931056
 20
109.939056
 30
0.0
 11
71.849806
 21
110.109269
 31
0.0
  0
LINE
  5
12B
100
AcDbEntity
  8
ALPHA
100
AcDbLine
 10
73.1623
 20
110.132193
 30
0.0
 11
73.149806
 21
110.151822
 31
0.0
  0
LINE
  5
12C
100
AcDbEntity
  8
ALPHA
100
AcDbLine
 10
71.985223
 20
110.832674
 30
0.0
 11
71.931056
 21
110.91778
 31
0.0
  0
LINE
  5
12D
100
AcDbEntity
  8
ALPHA
100
AcDbLine
 10
71.47064
 20
111.470971
 30
0.0
 11
71.362306
 21
111.641184
 31
0.0
  0
LINE
  5
12E
100
AcDbEntity
  8
ALPHA
100
AcDbLine
 10
71.903973
 20
110.662461
 30
0.0
 11
71.822723
 21
110.79012
 31
0.0
  0
LINE
  5
12F
100
AcDbEntity
  8
ALPHA
100
AcDbLine
 10
72.093557
 20
110.024163
 30
0.0
 11
72.012306
 21
110.109269
 31
0.0
  0
LINE
  5
130
100
AcDbEntity
  8
ALPHA
100
AcDbLine
 10
70.766473
 20
110.066716
 30
0.0
 11
70.685223
 21
110.151822
 31
0.0
  0
LINE
  5
131
100
AcDbEntity
  8
ALPHA
100
AcDbLine
 10
72.066473
 20
109.811397
 30
0.0
 11
71.931056
 21
109.939056
 31
0.0
  0
LINE
  5
132
100
AcDbEntity
  8
ALPHA
100
AcDbLine
 10
70.73939
 20
109.811397
 30
0.0
 11
70.631056
 21
109.896503
 31
0.0
  0
LINE
  5
133
100
AcDbEntity
  8
ALPHA
100
AcDbLine
 10
93.162306
 20
106.318844
 30
0.0
 11
97.362306
 21
106.318844
 31
0.0
  0
LINE
  5
134
100
AcDbEntity
  8
ALPHA
100
AcDbLine
 10
49.862306
 20
106.268844
 30
0.0
 11
50.44483
 21
106.268844
 31
0.0
  0
LINE
  5
135
100
AcDbEntity
  8
ALPHA
100
AcDbLine
 10
73.162306
 20
106.153276
 30
0.0
 11
77.162306
 21
106.153276
 31
0.0
  0
LINE
  5
136
100
AcDbEntity
  8
ALPHA
100
AcDbLine
 10
93.162306
 20
105.768844
 30
0.0
 11
88.162306
 21
105.768844
 31
0.0
  0
LINE
  5
137
100
AcDbEntity
  8
ALPHA
100
AcDbLine
 10
61.862306
 20
105.518844
 30
0.0
 11
63.062306
 21
105.518844
 31
0.0
  0
LINE
  5
138
100
AcDbEntity
  8
ALPHA
100
AcDbLine
 10
96.962306
 20
105.318844
 30
0.0
 11
88.162306
 21
105.318844
 31
0.0
  0
LINE
  5
139
100
AcDbEntity
  8
ALPHA
100
AcDbLine
 10
61.862306
 20
105.247239
 30
0.0
 11
63.062306
 21
105.247239
 31
0.0
  0
LINE
  5
13A
100
AcDbEntity
  8
ALPHA
100
AcDbLine
 10
88.162306
 20
105.218844
 30
0.0
 11
96.962306
 21
105.218844
 31
0.0
  0
LINE
  5
13B
100
AcDbEntity
  8
ALPHA
100
AcDbLine
 10
96.162306
 20
105.118844
 30
0.0
 11
96.562306
 21
105.118844
 31
0.0
  0
LINE
  5
13C
100
AcDbEntity
  8
ALPHA
100
AcDbLine
 10
93.162306
 20
104.768844
 30
0.0
 11
88.162306
 21
104.768844
 31
0.0
  0
LWPOLYLINE
  5
13D
100
AcDbEntity
  8
ALPHA
100
AcDbPolyline
 90
        6
 70
     0
 43
0.0
 10
74.712306
 20
104.331819
 10
74.604151
 20
104.319706
 10
74.506582
 20
104.284553
 10
74.429151
 20
104.229801
 10
74.379437
 20
104.160809
 10
74.362306
 20
104.084331
  0
LINE
  5
145
100
AcDbEntity
  8
ALPHA
100
AcDbLine
 10
72.310223
 20
109.768844
 30
0.0
 11
72.44564
 21
109.811397
 31
0.0
  0
LINE
  5
146
100
AcDbEntity
  8
ALPHA
100
AcDbLine
 10
71.118556
 20
109.768844
 30
0.0
 11
71.253973
 21
109.811397
 31
0.0
  0
LINE
  5
147
100
AcDbEntity
  8
ALPHA
100
AcDbLine
 10
72.310223
 20
110.492248
 30
0.0
 11
72.44564
 21
110.534801
 31
0.0
  0
LINE
  5
148
100
AcDbEntity
  8
ALPHA
100
AcDbLine
 10
71.118556
 20
110.024163
 30
0.0
 11
71.22689
 21
110.066716
 31
0.0
  0
LINE
  5
149
100
AcDbEntity
  8
ALPHA
100
AcDbLine
 10
72.337306
 20
109.98161
 30
0.0
 11
72.418556
 21
110.024163
 31
0.0
  0
LWPOLYLINE
  5
14A
100
AcDbEntity
  8
ALPHA
100
AcDbPolyline
 90
        6
 70
     0
 43
0.0
 10
75.062306
 20
112.214869
 10
75.045176
 20
112.138391
 10
74.995462
 20
112.0694
 10
74.918031
 20
112.014647
 10
74.820462
 20
111.979494
 10
74.712306
 20
111.967382
  0
LWPOLYLINE
  5
152
100
AcDbEntity
  8
ALPHA
100
AcDbPolyline
 90
        6
 70
     0
 43
0.0
 10
74.362306
 20
112.214869
 10
74.379437
 20
112.291347
 10
74.429151
 20
112.360338
 10
74.506582
 20
112.41509
 10
74.604151
 20
112.450243
 10
74.712306
 20
112.462356
  0
LINE
  5
15A
100
AcDbEntity
  8
ALPHA
100
AcDbLine
 10
74.362306
 20
112.214869
 30
0.0
 11
74.362306
 21
116.368844
 31
0.0
  0
LINE
  5
15B
100
AcDbEntity
  8
ALPHA
100
AcDbLine
 10
74.362306
 20
100.168844
 30
0.0
 11
74.362306
 21
104.084331
 31
0.0
  0
LINE
  5
15C
100
AcDbEntity
  8
ALPHA
100
AcDbLine
 10
73.162306
 20
100.168844
 30
0.0
 11
73.162306
 21
116.368844
 31
0.0
  0
LINE
  5
15D
100
AcDbEntity
  8
ALPHA
100
AcDbLine
 10
73.122723
 20
111.130546
 30
0.0
 11
73.122723
 21
111.258205
 31
0.0
  0
LINE
  5
15E
100
AcDbEntity
  8
ALPHA
100
AcDbLine
 10
73.122723
 20
110.279482
 30
0.0
 11
73.122723
 21
110.364588
 31
0.0
  0
LINE
  5
15F
100
AcDbEntity
  8
ALPHA
100
AcDbLine
 10
72.960223
 20
111.087993
 30
0.0
 11
72.960223
 21
111.300759
 31
0.0
  0
LINE
  5
160
100
AcDbEntity
  8
ALPHA
100
AcDbLine
 10
72.960223
 20
110.236929
 30
0.0
 11
72.960223
 21
110.407141
 31
0.0
  0
LINE
  5
161
100
AcDbEntity
  8
ALPHA
100
AcDbLine
 10
72.743556
 20
110.91778
 30
0.0
 11
72.716473
 21
111.215652
 31
0.0
  0
LINE
  5
162
100
AcDbEntity
  8
ALPHA
100
AcDbLine
 10
71.55189
 20
111.087993
 30
0.0
 11
71.524806
 21
111.300759
 31
0.0
  0
LINE
  5
163
100
AcDbEntity
  8
ALPHA
100
AcDbLine
 10
71.38939
 20
111.087993
 30
0.0
 11
71.362306
 21
111.258205
 31
0.0
  0
LINE
  5
164
100
AcDbEntity
  8
ALPHA
100
AcDbLine
 10
71.931056
 20
110.91778
 30
0.0
 11
71.903973
 21
111.045439
 31
0.0
  0
LINE
  5
165
100
AcDbEntity
  8
ALPHA
100
AcDbLine
 10
71.849806
 20
110.109269
 30
0.0
 11
71.822723
 21
110.236929
 31
0.0
  0
LINE
  5
166
100
AcDbEntity
  8
ALPHA
100
AcDbLine
 10
70.685223
 20
110.151822
 30
0.0
 11
70.65814
 21
110.279482
 31
0.0
  0
LINE
  5
167
100
AcDbEntity
  8
ALPHA
100
AcDbLine
 10
71.822723
 20
110.79012
 30
0.0
 11
71.768556
 21
111.002886
 31
0.0
  0
LINE
  5
168
100
AcDbEntity
  8
ALPHA
100
AcDbLine
 10
71.524806
 20
111.300759
 30
0.0
 11
71.47064
 21
111.470971
 31
0.0
  0
LINE
  5
169
100
AcDbEntity
  8
ALPHA
100
AcDbLine
 10
70.631056
 20
109.896503
 30
0.0
 11
70.522723
 21
110.066716
 31
0.0
  0
LINE
  5
16A
100
AcDbEntity
  8
ALPHA
100
AcDbLine
 10
97.362306
 20
104.468844
 30
0.0
 11
96.162306
 21
104.468844
 31
0.0
  0
LINE
  5
16B
100
AcDbEntity
  8
ALPHA
100
AcDbLine
 10
75.062306
 20
103.885391
 30
0.0
 11
77.162306
 21
103.885391
 31
0.0
  0
LINE
  5
16C
100
AcDbEntity
  8
ALPHA
100
AcDbLine
 10
58.562306
 20
103.796535
 30
0.0
 11
63.062306
 21
103.796535
 31
0.0
  0
LINE
  5
16D
100
AcDbEntity
  8
ALPHA
100
AcDbLine
 10
104.662306
 20
103.668844
 30
0.0
 11
97.362306
 21
103.668844
 31
0.0
  0
LINE
  5
16E
100
AcDbEntity
  8
ALPHA
100
AcDbLine
 10
85.162306
 20
103.443844
 30
0.0
 11
91.962306
 21
103.443844
 31
0.0
  0
LINE
  5
16F
100
AcDbEntity
  8
ALPHA
100
AcDbLine
 10
95.562306
 20
103.368844
 30
0.0
 11
97.362306
 21
103.368844
 31
0.0
  0
LINE
  5
170
100
AcDbEntity
  8
ALPHA
100
AcDbLine
 10
91.962306
 20
103.368844
 30
0.0
 11
85.362306
 21
103.368844
 31
0.0
  0
LINE
  5
171
100
AcDbEntity
  8
ALPHA
100
AcDbLine
 10
103.462306
 20
102.868844
 30
0.0
 11
102.862306
 21
102.868844
 31
0.0
  0
LINE
  5
172
100
AcDbEntity
  8
ALPHA
100
AcDbLine
 10
58.562306
 20
102.682942
 30
0.0
 11
63.062306
 21
102.682942
 31
0.0
  0
LINE
  5
173
100
AcDbEntity
  8
ALPHA
100
AcDbLine
 10
58.562306
 20
102.567807
 30
0.0
 11
63.062306
 21
102.567807
 31
0.0
  0
LWPOLYLINE
  5
174
100
AcDbEntity
  8
ALPHA
100
AcDbPolyline
 90
       17
 70
     0
 43
0.0
 10
49.015859
 20
102.475695
 10
49.002519
 20
102.475276
 10
48.987697
 20
102.47387
 10
48.971715
 20
102.471303
 10
48.954848
 20
102.467456
 10
48.937222
 20
102.462217
 10
48.919121
 20
102.455549
 10
48.900541
 20
102.447325
 10
48.881524
 20
102.437405
 10
48.862219
 20
102.425677
 10
48.842887
 20
102.412092
 10
48.823548
 20
102.396403
 10
48.804281
 20
102.378276
 10
48.78539
 20
102.357434
 10
48.767349
 20
102.333604
 10
48.750791
 20
102.306429
 10
48.736756
 20
102.275695
  0
LWPOLYLINE
  5
187
100
AcDbEntity
  8
ALPHA
100
AcDbPolyline
 90
        6
 70
     0
 43
0.0
 10
74.712306
 20
103.836844
 10
74.820462
 20
103.848957
 10
74.918031
 20
103.88411
 10
74.995462
 20
103.938862
 10
75.045176
 20
104.007854
 10
75.062306
 20
104.084331
  0
LINE
  5
18F
100
AcDbEntity
  8
ALPHA
100
AcDbLine
 10
72.03939
 20
111.72629
 30
0.0
 11
72.174806
 21
111.768844
 31
0.0
  0
LINE
  5
190
100
AcDbEntity
  8
ALPHA
100
AcDbLine
 10
70.73939
 20
111.72629
 30
0.0
 11
70.874806
 21
111.768844
 31
0.0
  0
LINE
  5
191
100
AcDbEntity
  8
ALPHA
100
AcDbLine
 10
70.766473
 20
111.470971
 30
0.0
 11
70.874806
 21
111.513525
 31
0.0
  0
LINE
  5
192
100
AcDbEntity
  8
ALPHA
100
AcDbLine
 10
72.337306
 20
110.705014
 30
0.0
 11
72.418556
 21
110.747567
 31
0.0
  0
LINE
  5
193
100
AcDbEntity
  8
ALPHA
100
AcDbLine
 10
72.066473
 20
111.513525
 30
0.0
 11
72.147723
 21
111.556078
 31
0.0
  0
LINE
  5
194
100
AcDbEntity
  8
ALPHA
100
AcDbLine
 10
73.068556
 20
110.705014
 30
0.0
 11
73.122723
 21
110.747567
 31
0.0
  0
LINE
  5
195
100
AcDbEntity
  8
ALPHA
100
AcDbLine
 10
71.253973
 20
109.811397
 30
0.0
 11
71.362306
 21
109.896503
 31
0.0
  0
LINE
  5
196
100
AcDbEntity
  8
ALPHA
100
AcDbLine
 10
72.44564
 20
109.811397
 30
0.0
 11
72.581056
 21
109.939056
 31
0.0
  0
LINE
  5
197
100
AcDbEntity
  8
ALPHA
100
AcDbLine
 10
71.903973
 20
111.598631
 30
0.0
 11
72.03939
 21
111.72629
 31
0.0
  0
LINE
  5
198
100
AcDbEntity
  8
ALPHA
100
AcDbLine
 10
72.418556
 20
110.024163
 30
0.0
 11
72.499807
 21
110.109269
 31
0.0
  0
LINE
  5
199
100
AcDbEntity
  8
ALPHA
100
AcDbLine
 10
72.44564
 20
110.534801
 30
0.0
 11
72.60814
 21
110.705014
 31
0.0
  0
LINE
  5
19A
100
AcDbEntity
  8
ALPHA
100
AcDbLine
 10
72.418556
 20
110.747567
 30
0.0
 11
72.499807
 21
110.832674
 31
0.0
  0
LINE
  5
19B
100
AcDbEntity
  8
ALPHA
100
AcDbLine
 10
71.22689
 20
110.066716
 30
0.0
 11
71.30814
 21
110.151822
 31
0.0
  0
LINE
  5
19C
100
AcDbEntity
  8
ALPHA
100
AcDbLine
 10
71.985223
 20
111.428418
 30
0.0
 11
72.066473
 21
111.513525
 31
0.0
  0
LINE
  5
19D
100
AcDbEntity
  8
ALPHA
100
AcDbLine
 10
73.068556
 20
111.598631
 30
0.0
 11
73.162306
 21
111.709106
 31
0.0
  0
LINE
  5
19E
100
AcDbEntity
  8
ALPHA
100
AcDbLine
 10
73.149806
 20
110.492248
 30
0.0
 11
73.162315
 21
110.511902
 31
0.0
  0
LINE
  5
19F
100
AcDbEntity
  8
ALPHA
100
AcDbLine
 10
73.149806
 20
111.385865
 30
0.0
 11
73.16232
 21
111.405526
 31
0.0
  0
LINE
  5
1A0
100
AcDbEntity
  8
ALPHA
100
AcDbLine
 10
72.499807
 20
110.832674
 30
0.0
 11
72.553973
 21
110.91778
 31
0.0
  0
LINE
  5
1A1
100
AcDbEntity
  8
ALPHA
100
AcDbLine
 10
71.362306
 20
109.896503
 30
0.0
 11
71.47064
 21
110.066716
 31
0.0
  0
LINE
  5
1A2
100
AcDbEntity
  8
ALPHA
100
AcDbLine
 10
72.987306
 20
110.534801
 30
0.0
 11
73.068556
 21
110.705014
 31
0.0
  0
LINE
  5
1A3
100
AcDbEntity
  8
ALPHA
100
AcDbLine
 10
72.581056
 20
109.939056
 30
0.0
 11
72.662306
 21
110.109269
 31
0.0
  0
LINE
  5
1A4
100
AcDbEntity
  8
ALPHA
100
AcDbLine
 10
72.987306
 20
111.428418
 30
0.0
 11
73.068556
 21
111.598631
 31
0.0
  0
LINE
  5
1A5
100
AcDbEntity
  8
ALPHA
100
AcDbLine
 10
71.822723
 20
111.428418
 30
0.0
 11
71.903973
 21
111.598631
 31
0.0
  0
LINE
  5
1A6
100
AcDbEntity
  8
ALPHA
100
AcDbLine
 10
72.499807
 20
110.109269
 30
0.0
 11
72.553973
 21
110.236929
 31
0.0
  0
LINE
  5
1A7
100
AcDbEntity
  8
ALPHA
100
AcDbLine
 10
71.931056
 20
111.300759
 30
0.0
 11
71.985223
 21
111.428418
 31
0.0
  0
LINE
  5
1A8
100
AcDbEntity
  8
ALPHA
100
AcDbLine
 10
71.30814
 20
110.151822
 30
0.0
 11
71.362306
 21
110.279482
 31
0.0
  0
LINE
  5
1A9
100
AcDbEntity
  8
ALPHA
100
AcDbLine
 10
71.47064
 20
110.066716
 30
0.0
 11
71.524806
 21
110.236929
 31
0.0
  0
LINE
  5
1AA
100
AcDbEntity
  8
ALPHA
100
AcDbLine
 10
72.662306
 20
110.109269
 30
0.0
 11
72.716473
 21
110.322035
 31
0.0
  0
LINE
  5
1AB
100
AcDbEntity
  8
ALPHA
100
AcDbLine
 10
71.768556
 20
111.215652
 30
0.0
 11
71.822723
 21
111.428418
 31
0.0
  0
LINE
  5
1AC
100
AcDbEntity
  8
ALPHA
100
AcDbLine
 10
73.122723
 20
110.364588
 30
0.0
 11
73.149806
 21
110.492248
 31
0.0
  0
LINE
  5
1AD
100
AcDbEntity
  8
ALPHA
100
AcDbLine
 10
72.960223
 20
110.407141
 30
0.0
 11
72.987306
 21
110.534801
 31
0.0
  0
LINE
  5
1AE
100
AcDbEntity
  8
ALPHA
100
AcDbLine
 10
73.122723
 20
111.258205
 30
0.0
 11
73.149806
 21
111.385865
 31
0.0
  0
LINE
  5
1AF
100
AcDbEntity
  8
ALPHA
100
AcDbLine
 10
72.960223
 20
111.300759
 30
0.0
 11
72.987306
 21
111.428418
 31
0.0
  0
LINE
  5
1B0
100
AcDbEntity
  8
ALPHA
100
AcDbLine
 10
72.553973
 20
110.236929
 30
0.0
 11
72.581056
 21
110.364588
 31
0.0
  0
LINE
  5
1B1
100
AcDbEntity
  8
ALPHA
100
AcDbLine
 10
72.553973
 20
110.91778
 30
0.0
 11
72.581056
 21
111.045439
 31
0.0
  0
LINE
  5
1B2
100
AcDbEntity
  8
ALPHA
100
AcDbLine
 10
71.903973
 20
111.173099
 30
0.0
 11
71.931056
 21
111.300759
 31
0.0
  0
LINE
  5
1B3
100
AcDbEntity
  8
ALPHA
100
AcDbLine
 10
71.362306
 20
110.279482
 30
0.0
 11
71.38939
 21
110.449695
 31
0.0
  0
LINE
  5
1B4
100
AcDbEntity
  8
ALPHA
100
AcDbLine
 10
71.524806
 20
110.236929
 30
0.0
 11
71.55189
 21
110.449695
 31
0.0
  0
LINE
  5
1B5
100
AcDbEntity
  8
ALPHA
100
AcDbLine
 10
72.581056
 20
110.364588
 30
0.0
 11
72.60814
 21
110.619907
 31
0.0
  0
LINE
  5
1B6
100
AcDbEntity
  8
ALPHA
100
AcDbLine
 10
72.716473
 20
110.322035
 30
0.0
 11
72.743556
 21
110.619907
 31
0.0
  0
LINE
  5
1B7
100
AcDbEntity
  8
ALPHA
100
AcDbLine
 10
72.743556
 20
110.619907
 30
0.0
 11
72.743556
 21
110.91778
 31
0.0
  0
LINE
  5
1B8
100
AcDbEntity
  8
ALPHA
100
AcDbLine
 10
72.60814
 20
110.619907
 30
0.0
 11
72.60814
 21
110.705014
 31
0.0
  0
LINE
  5
1B9
100
AcDbEntity
  8
ALPHA
100
AcDbLine
 10
72.581056
 20
111.045439
 30
0.0
 11
72.581056
 21
111.173099
 31
0.0
  0
LINE
  5
1BA
100
AcDbEntity
  8
ALPHA
100
AcDbLine
 10
71.903973
 20
111.045439
 30
0.0
 11
71.903973
 21
111.173099
 31
0.0
  0
LINE
  5
1BB
100
AcDbEntity
  8
ALPHA
100
AcDbLine
 10
71.768556
 20
111.002886
 30
0.0
 11
71.768556
 21
111.215652
 31
0.0
  0
LINE
  5
1BC
100
AcDbEntity
  8
ALPHA
100
AcDbLine
 10
71.55189
 20
110.449695
 30
0.0
 11
71.55189
 21
111.087993
 31
0.0
  0
LINE
  5
1BD
100
AcDbEntity
  8
ALPHA
100
AcDbLine
 10
71.38939
 20
110.449695
 30
0.0
 11
71.38939
 21
111.087993
 31
0.0
  0
LINE
  5
1BE
100
AcDbEntity
  8
ALPHA
100
AcDbLine
 10
70.522723
 20
110.066716
 30
0.0
 11
70.49564
 21
110.279482
 31
0.0
  0
LWPOLYLINE
  5
1BF
100
AcDbEntity
  8
ALPHA
100
AcDbPolyline
 90
      188
 70
     0
 43
0.0
 10
73.151073
 20
102.991516
 10
73.139822
 20
102.995201
 10
73.13419
 20
102.997082
 10
73.11788
 20
103.002672
 10
73.101537
 20
103.008484
 10
73.085163
 20
103.014521
 10
73.068759
 20
103.020789
 10
73.052324
 20
103.027291
 10
73.035862
 20
103.034029
 10
73.019375
 20
103.041008
 10
73.002869
 20
103.048229
 10
72.986346
 20
103.055696
 10
72.969813
 20
103.063409
 10
72.953273
 20
103.071373
 10
72.936725
 20
103.079592
 10
72.920172
 20
103.088072
 10
72.903611
 20
103.096817
 10
72.887044
 20
103.105834
 10
72.870472
 20
103.115126
 10
72.8539
 20
103.124696
 10
72.837338
 20
103.134546
 10
72.820791
 20
103.144677
 10
72.804269
 20
103.155089
 10
72.787777
 20
103.165786
 10
72.771321
 20
103.17677
 10
72.754906
 20
103.188045
 10
72.738534
 20
103.199613
 10
72.722212
 20
103.211478
 10
72.705945
 20
103.223642
 10
72.689739
 20
103.236107
 10
72.673604
 20
103.248871
 10
72.65755
 20
103.261934
 10
72.641584
 20
103.275298
 10
72.625716
 20
103.288959
 10
72.609955
 20
103.302918
 10
72.594309
 20
103.317173
 10
72.578788
 20
103.33172
 10
72.563401
 20
103.346558
 10
72.548156
 20
103.361685
 10
72.533061
 20
103.3771
 10
72.518122
 20
103.392802
 10
72.503347
 20
103.40879
 10
72.488742
 20
103.425061
 10
72.474315
 20
103.441615
 10
72.460074
 20
103.458448
 10
72.446028
 20
103.475554
 10
72.432185
 20
103.492931
 10
72.418555
 20
103.510572
 10
72.405145
 20
103.528474
 10
72.391966
 20
103.546625
 10
72.379029
 20
103.565016
 10
72.366343
 20
103.583635
 10
72.35392
 20
103.602472
 10
72.341767
 20
103.621517
 10
72.329892
 20
103.640761
 10
72.3183
 20
103.660196
 10
72.306995
 20
103.679816
 10
72.295983
 20
103.699613
 10
72.285269
 20
103.719579
 10
72.274856
 20
103.739707
 10
72.264748
 20
103.759992
 10
72.254947
 20
103.780427
 10
72.245457
 20
103.801006
 10
72.236282
 20
103.821721
 10
72.227423
 20
103.842566
 10
72.218884
 20
103.863532
 10
72.210667
 20
103.884611
 10
72.202775
 20
103.905794
 10
72.195209
 20
103.927075
 10
72.187971
 20
103.948448
 10
72.181061
 20
103.969911
 10
72.17448
 20
103.99146
 10
72.168227
 20
104.013091
 10
72.162304
 20
104.0348
 10
72.156712
 20
104.056575
 10
72.151452
 20
104.078405
 10
72.146526
 20
104.100278
 10
72.141935
 20
104.122181
 10
72.137681
 20
104.144104
 10
72.133762
 20
104.166041
 10
72.130177
 20
104.187988
 10
72.126924
 20
104.209942
 10
72.124002
 20
104.231899
 10
72.121409
 20
104.253853
 10
72.119144
 20
104.275798
 10
72.117206
 20
104.297726
 10
72.115592
 20
104.31963
 10
72.114302
 20
104.341503
 10
72.113333
 20
104.363337
 10
72.112684
 20
104.385131
 10
72.112353
 20
104.406881
 10
72.112338
 20
104.428587
 10
72.112635
 20
104.450246
 10
72.113244
 20
104.471856
 10
72.114162
 20
104.493412
 10
72.115387
 20
104.514906
 10
72.116915
 20
104.536332
 10
72.118746
 20
104.557685
 10
72.120876
 20
104.578959
 10
72.123304
 20
104.600151
 10
72.126026
 20
104.621259
 10
72.129041
 20
104.64228
 10
72.132346
 20
104.663213
 10
72.135938
 20
104.684055
 10
72.139816
 20
104.704803
 10
72.143977
 20
104.725455
 10
72.148419
 20
104.746005
 10
72.153139
 20
104.766452
 10
72.158135
 20
104.786791
 10
72.163404
 20
104.807018
 10
72.168942
 20
104.827128
 10
72.174746
 20
104.847115
 10
72.180811
 20
104.866975
 10
72.187136
 20
104.886703
 10
72.19372
 20
104.906302
 10
72.200561
 20
104.925774
 10
72.20766
 20
104.945123
 10
72.215015
 20
104.964351
 10
72.222628
 20
104.983459
 10
72.230494
 20
105.002446
 10
72.238613
 20
105.021308
 10
72.246981
 20
105.040041
 10
72.255598
 20
105.058641
 10
72.264459
 20
105.077105
 10
72.273563
 20
105.095428
 10
72.282906
 20
105.113607
 10
72.292485
 20
105.131636
 10
72.302297
 20
105.149511
 10
72.312338
 20
105.167229
 10
72.322604
 20
105.184784
 10
72.333091
 20
105.202172
 10
72.343793
 20
105.219389
 10
72.354708
 20
105.236429
 10
72.365831
 20
105.253289
 10
72.37716
 20
105.26997
 10
72.388696
 20
105.286473
 10
72.400439
 20
105.3028
 10
72.412387
 20
105.318951
 10
72.424541
 20
105.334929
 10
72.436898
 20
105.35073
 10
72.449455
 20
105.366353
 10
72.462209
 20
105.381795
 10
72.475158
 20
105.397053
 10
72.488299
 20
105.412125
 10
72.501629
 20
105.427008
 10
72.515147
 20
105.441703
 10
72.528849
 20
105.456206
 10
72.542734
 20
105.470516
 10
72.556799
 20
105.484632
 10
72.571043
 20
105.498553
 10
72.585465
 20
105.512278
 10
72.600066
 20
105.525808
 10
72.614842
 20
105.539141
 10
72.629795
 20
105.552276
 10
72.644917
 20
105.56521
 10
72.660206
 20
105.577938
 10
72.675654
 20
105.590458
 10
72.691257
 20
105.602765
 10
72.707011
 20
105.614855
 10
72.722915
 20
105.626729
 10
72.73897
 20
105.638388
 10
72.755176
 20
105.649831
 10
72.771534
 20
105.66106
 10
72.788043
 20
105.672075
 10
72.804699
 20
105.682872
 10
72.821497
 20
105.693448
 10
72.83843
 20
105.7038
 10
72.855492
 20
105.713924
 10
72.87268
 20
105.723817
 10
72.889991
 20
105.733478
 10
72.907424
 20
105.742907
 10
72.92498
 20
105.752104
 10
72.942656
 20
105.761069
 10
72.960451
 20
105.7698
 10
72.978364
 20
105.778298
 10
72.996389
 20
105.786559
 10
73.014524
 20
105.794582
 10
73.032766
 20
105.802366
 10
73.05111
 20
105.809907
 10
73.069553
 20
105.817206
 10
73.08809
 20
105.82426
 10
73.106715
 20
105.831067
 10
73.125424
 20
105.837627
 10
73.132776
 20
105.840129
 10
73.14014
 20
105.842592
 10
73.147516
 20
105.845018
 10
73.154904
 20
105.847405
 10
73.162305
 20
105.849753
  0
LINE
  5
27D
100
AcDbEntity
  8
ALPHA
100
AcDbLine
 10
73.162309
 20
102.987933
 30
0.0
 11
73.151073
 21
102.991516
 31
0.0
  0
LINE
  5
27E
100
AcDbEntity
  8
ALPHA
100
AcDbLine
 10
49.555393
 20
102.528182
 30
0.0
 11
48.789009
 21
102.528182
 31
0.0
  0
LINE
  5
27F
100
AcDbEntity
  8
ALPHA
100
AcDbLine
 10
49.015859
 20
102.475695
 30
0.0
 11
49.420572
 21
102.475695
 31
0.0
  0
LINE
  5
280
100
AcDbEntity
  8
ALPHA
100
AcDbLine
 10
74.362306
 20
102.168844
 30
0.0
 11
73.162306
 21
102.168844
 31
0.0
  0
LINE
  5
281
100
AcDbEntity
  8
ALPHA
100
AcDbLine
 10
102.862306
 20
101.668844
 30
0.0
 11
103.462306
 21
101.668844
 31
0.0
  0
LINE
  5
282
100
AcDbEntity
  8
ALPHA
100
AcDbLine
 10
75.062306
 20
101.618844
 30
0.0
 11
77.162306
 21
101.618844
 31
0.0
  0
LINE
  5
283
100
AcDbEntity
  8
ALPHA
100
AcDbLine
 10
58.562306
 20
101.434505
 30
0.0
 11
63.062306
 21
101.434505
 31
0.0
  0
LINE
  5
284
100
AcDbEntity
  8
ALPHA
100
AcDbLine
 10
93.162306
 20
101.168844
 30
0.0
 11
97.362306
 21
101.168844
 31
0.0
  0
LINE
  5
285
100
AcDbEntity
  8
ALPHA
100
AcDbLine
 10
91.962306
 20
101.168844
 30
0.0
 11
85.162306
 21
101.168844
 31
0.0
  0
LINE
  5
286
100
AcDbEntity
  8
ALPHA
100
AcDbLine
 10
91.962306
 20
101.093844
 30
0.0
 11
85.162306
 21
101.093844
 31
0.0
  0
LINE
  5
287
100
AcDbEntity
  8
ALPHA
100
AcDbLine
 10
69.187306
 20
100.943844
 30
0.0
 11
63.062306
 21
100.943844
 31
0.0
  0
LINE
  5
288
100
AcDbEntity
  8
ALPHA
100
AcDbLine
 10
69.187306
 20
100.893844
 30
0.0
 11
63.062306
 21
100.893844
 31
0.0
  0
LINE
  5
289
100
AcDbEntity
  8
ALPHA
100
AcDbLine
 10
73.162306
 20
100.893844
 30
0.0
 11
69.187306
 21
100.893844
 31
0.0
  0
LINE
  5
28A
100
AcDbEntity
  8
ALPHA
100
AcDbLine
 10
75.162306
 20
100.893844
 30
0.0
 11
75.062306
 21
100.893844
 31
0.0
  0
LINE
  5
28B
100
AcDbEntity
  8
ALPHA
100
AcDbLine
 10
104.662306
 20
100.868844
 30
0.0
 11
97.362306
 21
100.868844
 31
0.0
  0
LINE
  5
28C
100
AcDbEntity
  8
ALPHA
100
AcDbLine
 10
58.562306
 20
100.738569
 30
0.0
 11
63.062306
 21
100.738569
 31
0.0
  0
LINE
  5
28D
100
AcDbEntity
  8
ALPHA
100
AcDbLine
 10
48.105114
 20
100.678844
 30
0.0
 11
48.062306
 21
100.678844
 31
0.0
  0
LINE
  5
28E
100
AcDbEntity
  8
ALPHA
100
AcDbLine
 10
58.562306
 20
100.57414
 30
0.0
 11
63.062306
 21
100.57414
 31
0.0
  0
LINE
  5
28F
100
AcDbEntity
  8
ALPHA
100
AcDbLine
 10
70.631056
 20
111.641184
 30
0.0
 11
70.73939
 21
111.72629
 31
0.0
  0
LINE
  5
290
100
AcDbEntity
  8
ALPHA
100
AcDbLine
 10
70.685223
 20
111.385865
 30
0.0
 11
70.766473
 21
111.470971
 31
0.0
  0
LINE
  5
291
100
AcDbEntity
  8
ALPHA
100
AcDbLine
 10
70.522723
 20
111.470971
 30
0.0
 11
70.631056
 21
111.641184
 31
0.0
  0
LINE
  5
292
100
AcDbEntity
  8
ALPHA
100
AcDbLine
 10
70.65814
 20
111.258205
 30
0.0
 11
70.685223
 21
111.385865
 31
0.0
  0
LINE
  5
293
100
AcDbEntity
  8
ALPHA
100
AcDbLine
 10
70.49564
 20
111.258205
 30
0.0
 11
70.522723
 21
111.470971
 31
0.0
  0
LINE
  5
294
100
AcDbEntity
  8
ALPHA
100
AcDbLine
 10
70.278973
 20
111.556078
 30
0.0
 11
70.278973
 21
111.768844
 31
0.0
  0
LINE
  5
295
100
AcDbEntity
  8
ALPHA
100
AcDbLine
 10
70.143556
 20
111.556078
 30
0.0
 11
70.143556
 21
111.768844
 31
0.0
  0
LINE
  5
296
100
AcDbEntity
  8
ALPHA
100
AcDbLine
 10
70.062306
 20
109.568844
 30
0.0
 11
70.062306
 21
106.968844
 31
0.0
  0
LINE
  5
297
100
AcDbEntity
  8
ALPHA
100
AcDbLine
 10
69.662306
 20
109.568844
 30
0.0
 11
69.662306
 21
111.968844
 31
0.0
  0
LINE
  5
298
100
AcDbEntity
  8
ALPHA
100
AcDbLine
 10
69.187306
 20
100.893844
 30
0.0
 11
69.187306
 21
115.643844
 31
0.0
  0
LINE
  5
299
100
AcDbEntity
  8
ALPHA
100
AcDbLine
 10
74.362306
 20
100.168844
 30
0.0
 11
73.162306
 21
100.168844
 31
0.0
  0
LINE
  5
29A
100
AcDbEntity
  8
ALPHA
100
AcDbLine
 10
97.362306
 20
100.068844
 30
0.0
 11
96.162306
 21
100.068844
 31
0.0
  0
LINE
  5
29B
100
AcDbEntity
  8
ALPHA
100
AcDbLine
 10
75.162306
 20
99.993844
 30
0.0
 11
77.162306
 21
99.993844
 31
0.0
  0
LINE
  5
29C
100
AcDbEntity
  8
ALPHA
100
AcDbLine
 10
61.862306
 20
99.89747
 30
0.0
 11
63.062306
 21
99.89747
 31
0.0
  0
LINE
  5
29D
100
AcDbEntity
  8
ALPHA
100
AcDbLine
 10
77.162306
 20
99.768844
 30
0.0
 11
93.162306
 21
99.768844
 31
0.0
  0
LINE
  5
29E
100
AcDbEntity
  8
ALPHA
100
AcDbLine
 10
58.562306
 20
99.496159
 30
0.0
 11
61.862306
 21
99.496159
 31
0.0
  0
LINE
  5
29F
100
AcDbEntity
  8
ALPHA
100
AcDbLine
 10
48.259614
 20
99.393844
 30
0.0
 11
56.062306
 21
99.393844
 31
0.0
  0
LINE
  5
2A0
100
AcDbEntity
  8
ALPHA
100
AcDbLine
 10
56.062306
 20
99.368844
 30
0.0
 11
58.562306
 21
99.368844
 31
0.0
  0
LINE
  5
2A1
100
AcDbEntity
  8
ALPHA
100
AcDbLine
 10
81.162306
 20
99.368844
 30
0.0
 11
77.162306
 21
99.368844
 31
0.0
  0
LINE
  5
2A2
100
AcDbEntity
  8
ALPHA
100
AcDbLine
 10
80.862306
 20
99.318844
 30
0.0
 11
96.962306
 21
99.318844
 31
0.0
  0
LINE
  5
2A3
100
AcDbEntity
  8
ALPHA
100
AcDbLine
 10
68.562306
 20
100.943844
 30
0.0
 11
68.562306
 21
112.551257
 31
0.0
  0
LINE
  5
2A4
100
AcDbEntity
  8
ALPHA
100
AcDbLine
 10
68.562306
 20
115.593844
 30
0.0
 11
68.562306
 21
115.026131
 31
0.0
  0
LINE
  5
2A5
100
AcDbEntity
  8
ALPHA
100
AcDbLine
 10
63.062306
 20
111.018844
 30
0.0
 11
63.062306
 21
116.640218
 31
0.0
  0
LINE
  5
2A6
100
AcDbEntity
  8
ALPHA
100
AcDbLine
 10
63.062306
 20
99.89747
 30
0.0
 11
63.062306
 21
105.518844
 31
0.0
  0
LINE
  5
2A7
100
AcDbEntity
  8
ALPHA
100
AcDbLine
 10
61.862306
 20
105.247239
 30
0.0
 11
61.862306
 21
111.290449
 31
0.0
  0
LINE
  5
2A8
100
AcDbEntity
  8
ALPHA
100
AcDbLine
 10
61.862306
 20
99.89747
 30
0.0
 11
61.862306
 21
99.496159
 31
0.0
  0
LINE
  5
2A9
100
AcDbEntity
  8
ALPHA
100
AcDbLine
 10
61.862306
 20
117.041529
 30
0.0
 11
61.862306
 21
116.640218
 31
0.0
  0
LINE
  5
2AA
100
AcDbEntity
  8
ALPHA
100
AcDbLine
 10
58.562306
 20
99.496159
 30
0.0
 11
58.562306
 21
99.368885
 31
0.0
  0
LINE
  5
2AB
100
AcDbEntity
  8
ALPHA
100
AcDbLine
 10
58.562306
 20
101.434505
 30
0.0
 11
58.562306
 21
100.57414
 31
0.0
  0
LINE
  5
2AC
100
AcDbEntity
  8
ALPHA
100
AcDbLine
 10
58.562306
 20
103.796535
 30
0.0
 11
58.562306
 21
102.567807
 31
0.0
  0
LINE
  5
2AD
100
AcDbEntity
  8
ALPHA
100
AcDbLine
 10
58.562306
 20
109.768844
 30
0.0
 11
58.562306
 21
106.768844
 31
0.0
  0
LINE
  5
2AE
100
AcDbEntity
  8
ALPHA
100
AcDbLine
 10
58.562306
 20
113.96988
 30
0.0
 11
58.562306
 21
112.741152
 31
0.0
  0
LINE
  5
2AF
100
AcDbEntity
  8
ALPHA
100
AcDbLine
 10
58.562306
 20
115.963547
 30
0.0
 11
58.562306
 21
115.103182
 31
0.0
  0
LINE
  5
2B0
100
AcDbEntity
  8
ALPHA
100
AcDbLine
 10
58.562306
 20
117.168803
 30
0.0
 11
58.562306
 21
117.041529
 31
0.0
  0
LINE
  5
2B1
100
AcDbEntity
  8
ALPHA
100
AcDbLine
 10
56.062306
 20
99.368844
 30
0.0
 11
56.062306
 21
117.168844
 31
0.0
  0
LINE
  5
2B2
100
AcDbEntity
  8
ALPHA
100
AcDbLine
 10
48.273682
 20
115.445868
 30
0.0
 11
48.401046
 21
115.127813
 31
0.0
  0
LINE
  5
2B3
100
AcDbEntity
  8
ALPHA
100
AcDbLine
 10
48.273647
 20
115.339688
 30
0.0
 11
48.15693
 21
115.628111
 31
0.0
  0
LINE
  5
2B4
100
AcDbEntity
  8
ALPHA
100
AcDbLine
 10
48.175227
 20
115.68814
 30
0.0
 11
48.273682
 21
115.445868
 31
0.0
  0
LINE
  5
2B5
100
AcDbEntity
  8
ALPHA
100
AcDbLine
 10
48.15693
 20
115.628111
 30
0.0
 11
48.062306
 21
115.858844
 31
0.0
  0
LINE
  5
2B6
100
AcDbEntity
  8
ALPHA
100
AcDbLine
 10
48.059614
 20
115.968845
 30
0.0
 11
48.175227
 21
115.68814
 31
0.0
  0
LINE
  5
2B7
100
AcDbEntity
  8
ALPHA
100
AcDbLine
 10
48.137141
 20
100.756634
 30
0.0
 11
48.059614
 21
100.568842
 31
0.0
  0
LINE
  5
2B8
100
AcDbEntity
  8
ALPHA
100
AcDbLine
 10
48.062306
 20
100.678844
 30
0.0
 11
48.15693
 21
100.909576
 31
0.0
  0
LINE
  5
2B9
100
AcDbEntity
  8
ALPHA
100
AcDbLine
 10
48.273682
 20
101.09182
 30
0.0
 11
48.137141
 21
100.756634
 31
0.0
  0
LINE
  5
2BA
100
AcDbEntity
  8
ALPHA
100
AcDbLine
 10
48.15693
 20
100.909576
 30
0.0
 11
48.273647
 21
101.197999
 31
0.0
  0
LINE
  5
2BB
100
AcDbEntity
  8
ALPHA
100
AcDbLine
 10
48.401046
 20
101.409875
 30
0.0
 11
48.273682
 21
101.09182
 31
0.0
  0
LINE
  5
2BC
100
AcDbEntity
  8
ALPHA
100
AcDbLine
 10
48.789009
 20
114.009506
 30
0.0
 11
48.634832
 21
114.417919
 31
0.0
  0
LINE
  5
2BD
100
AcDbEntity
  8
ALPHA
100
AcDbLine
 10
48.634832
 20
114.417919
 30
0.0
 11
48.496667
 21
114.776037
 31
0.0
  0
LWPOLYLINE
  5
2BE
100
AcDbEntity
  8
ALPHA
100
AcDbPolyline
 90
        4
 70
     0
 43
0.0
 10
48.401046
 20
115.127813
 10
48.556013
 20
114.733327
 10
48.643302
 20
114.507272
 10
48.736756
 20
114.261993
  0
LINE
  5
2C4
100
AcDbEntity
  8
ALPHA
100
AcDbLine
 10
48.496667
 20
114.776037
 30
0.0
 11
48.375895
 21
115.083388
 31
0.0
  0
LINE
  5
2C5
100
AcDbEntity
  8
ALPHA
100
AcDbLine
 10
48.375895
 20
115.083388
 30
0.0
 11
48.273647
 21
115.339688
 31
0.0
  0
LINE
  5
2C6
100
AcDbEntity
  8
ALPHA
100
AcDbLine
 10
48.273647
 20
101.197999
 30
0.0
 11
48.375895
 21
101.4543
 31
0.0
  0
LINE
  5
2C7
100
AcDbEntity
  8
ALPHA
100
AcDbLine
 10
48.375895
 20
101.4543
 30
0.0
 11
48.496667
 21
101.761651
 31
0.0
  0
LWPOLYLINE
  5
2C8
100
AcDbEntity
  8
ALPHA
100
AcDbPolyline
 90
        3
 70
     0
 43
0.0
 10
48.643301
 20
102.030414
 10
48.475171
 20
101.597506
 10
48.401046
 20
101.409875
  0
LINE
  5
2CD
100
AcDbEntity
  8
ALPHA
100
AcDbLine
 10
48.496667
 20
101.761651
 30
0.0
 11
48.634832
 21
102.119769
 31
0.0
  0
LINE
  5
2CE
100
AcDbEntity
  8
ALPHA
100
AcDbLine
 10
48.736756
 20
102.275695
 30
0.0
 11
48.643301
 21
102.030414
 31
0.0
  0
LINE
  5
2CF
100
AcDbEntity
  8
ALPHA
100
AcDbLine
 10
48.634832
 20
102.119769
 30
0.0
 11
48.789009
 21
102.528182
 31
0.0
  0
LINE
  5
2D0
100
AcDbEntity
  8
ALPHA
100
AcDbLine
 10
48.116602
 20
113.35986
 30
0.0
 11
48.140723
 21
113.167002
 31
0.0
  0
LINE
  5
2D1
100
AcDbEntity
  8
ALPHA
100
AcDbLine
 10
48.088036
 20
113.579385
 30
0.0
 11
48.116602
 21
113.35986
 31
0.0
  0
LINE
  5
2D2
100
AcDbEntity
  8
ALPHA
100
AcDbLine
 10
48.064168
 20
113.756147
 30
0.0
 11
48.088036
 21
113.579385
 31
0.0
  0
LINE
  5
2D3
100
AcDbEntity
  8
ALPHA
100
AcDbLine
 10
48.08804
 20
102.958329
 30
0.0
 11
48.064168
 21
102.78154
 31
0.0
  0
LINE
  5
2D4
100
AcDbEntity
  8
ALPHA
100
AcDbLine
 10
48.116609
 20
103.177887
 30
0.0
 11
48.08804
 21
102.958329
 31
0.0
  0
LINE
  5
2D5
100
AcDbEntity
  8
ALPHA
100
AcDbLine
 10
48.140735
 20
103.370776
 30
0.0
 11
48.116609
 21
103.177887
 31
0.0
  0
LINE
  5
2D6
100
AcDbEntity
  8
ALPHA
100
AcDbLine
 10
49.862306
 20
110.268844
 30
0.0
 11
49.862306
 21
106.268844
 31
0.0
  0
LINE
  5
2D7
100
AcDbEntity
  8
ALPHA
100
AcDbLine
 10
48.168104
 20
112.938563
 30
0.0
 11
48.197982
 21
112.675987
 31
0.0
  0
LINE
  5
2D8
100
AcDbEntity
  8
ALPHA
100
AcDbLine
 10
48.140723
 20
113.167002
 30
0.0
 11
48.168104
 21
112.938563
 31
0.0
  0
LINE
  5
2D9
100
AcDbEntity
  8
ALPHA
100
AcDbLine
 10
48.168119
 20
103.599251
 30
0.0
 11
48.140735
 21
103.370776
 31
0.0
  0
LINE
  5
2DA
100
AcDbEntity
  8
ALPHA
100
AcDbLine
 10
48.198
 20
103.861865
 30
0.0
 11
48.168119
 21
103.599251
 31
0.0
  0
LWPOLYLINE
  5
2DB
100
AcDbEntity
  8
ALPHA
100
AcDbPolyline
 90
        4
 70
     0
 43
0.0
 10
48.064168
 20
102.78154
 10
48.063078
 20
102.771869
 10
48.062447
 20
102.761816
 10
48.06233
 20
102.755584
  0
LINE
  5
2E1
100
AcDbEntity
  8
ALPHA
100
AcDbLine
 10
48.229546
 20
104.156997
 30
0.0
 11
48.198
 21
103.861865
 31
0.0
  0
LINE
  5
2E2
100
AcDbEntity
  8
ALPHA
100
AcDbLine
 10
48.261818
 20
104.482423
 30
0.0
 11
48.229546
 21
104.156997
 31
0.0
  0
LINE
  5
2E3
100
AcDbEntity
  8
ALPHA
100
AcDbLine
 10
48.29382
 20
104.835141
 30
0.0
 11
48.261818
 21
104.482423
 31
0.0
  0
LWPOLYLINE
  5
2E4
100
AcDbEntity
  8
ALPHA
100
AcDbPolyline
 90
       17
 70
     0
 43
0.0
 10
48.442337
 20
108.268844
 10
48.441731
 20
108.050957
 10
48.439852
 20
107.826459
 10
48.436666
 20
107.599351
 10
48.432151
 20
107.370757
 10
48.426306
 20
107.14186
 10
48.419161
 20
106.913828
 10
48.410788
 20
106.687788
 10
48.401272
 20
106.46477
 10
48.39069
 20
106.245297
 10
48.37911
 20
106.029713
 10
48.366617
 20
105.818321
 10
48.353306
 20
105.611414
 10
48.339273
 20
105.409308
 10
48.324613
 20
105.21234
 10
48.309425
 20
105.020843
 10
48.29382
 20
104.835141
  0
LINE
  5
2F7
100
AcDbEntity
  8
ALPHA
100
AcDbLine
 10
48.789009
 20
102.528182
 30
0.0
 11
48.789009
 21
114.009506
 31
0.0
  0
LINE
  5
2F8
100
AcDbEntity
  8
ALPHA
100
AcDbLine
 10
48.062306
 20
113.782103
 30
0.0
 11
48.062306
 21
115.858844
 31
0.0
  0
LINE
  5
2F9
100
AcDbEntity
  8
ALPHA
100
AcDbLine
 10
48.062306
 20
100.678844
 30
0.0
 11
48.062306
 21
102.754315
 31
0.0
  0
LINE
  5
2FA
100
AcDbEntity
  8
ALPHA
100
AcDbLine
 10
48.059614
 20
100.571159
 30
0.0
 11
48.059614
 21
99.593844
 31
0.0
  0
LINE
  5
2FB
100
AcDbEntity
  8
ALPHA
100
AcDbLine
 10
48.059614
 20
116.943844
 30
0.0
 11
48.059614
 21
115.966528
 31
0.0
  0
LWPOLYLINE
  5
2FC
100
AcDbEntity
  8
ALPHA
100
AcDbPolyline
 90
       18
 70
     0
 43
0.0
 10
48.261794
 20
112.055516
 10
48.293795
 20
111.702842
 10
48.309399
 20
111.517161
 10
48.324587
 20
111.325684
 10
48.339247
 20
111.128737
 10
48.353281
 20
110.926652
 10
48.366592
 20
110.719764
 10
48.379086
 20
110.508391
 10
48.390667
 20
110.292827
 10
48.401251
 20
110.073377
 10
48.410768
 20
109.850387
 10
48.419144
 20
109.62438
 10
48.42629
 20
109.396375
 10
48.432138
 20
109.167491
 10
48.436656
 20
108.938883
 10
48.439847
 20
108.711723
 10
48.441728
 20
108.487127
 10
48.442337
 20
108.268844
  0
LINE
  5
310
100
AcDbEntity
  8
ALPHA
100
AcDbLine
 10
48.229524
 20
112.380898
 30
0.0
 11
48.261794
 21
112.055516
 31
0.0
  0
LINE
  5
311
100
AcDbEntity
  8
ALPHA
100
AcDbLine
 10
48.197982
 20
112.675987
 30
0.0
 11
48.229524
 21
112.380898
 31
0.0
  0
INSERT
  5
357
100
AcDbEntity
  8
0
100
AcDbBlockReference
  2
SCH_ISO
 10
0.0
 20
0.0
 30
0.0
  0
DIMENSION
  5
366
100
AcDbEntity
  8
COTATION1
100
AcDbDimension
  2
*D6
 10
36.635557
 20
115.643844
 30
0.0
 11
34.135557
 21
127.465272
 31
0.0
  3
SC_STAND
100
AcDbAlignedDimension
 13
63.062306
 23
100.893844
 33
0.0
 14
63.062306
 24
115.643844
 34
0.0
 50
90.0
100
AcDbRotatedDimension
  0
DIMENSION
  5
373
100
AcDbEntity
  8
COTATION1
100
AcDbDimension
  2
*D5
 10
63.062306
 20
78.358194
 30
0.0
 11
55.56096
 21
80.858194
 31
0.0
  3
SC_STAND
100
AcDbAlignedDimension
 13
48.059614
 23
99.593844
 33
0.0
 14
63.062306
 24
99.89747
 34
0.0
100
AcDbRotatedDimension
  0
ENDSEC
  0
SECTION
  2
OBJECTS
  0
DICTIONARY
  5
3A2
100
AcDbDictionary
  3
ACAD_GROUP
350
3A3
  3
ACAD_MLINESTYLE
350
3B0
  3
ACDBVARIABLEDICTIONARY
350
3F0
  0
DICTIONARY
  5
3A3
102
{ACAD_REACTORS
330
3A2
102
}
100
AcDbDictionary
  0
DICTIONARY
  5
3B0
102
{ACAD_REACTORS
330
3A2
102
}
100
AcDbDictionary
  3
STANDARD
350
3B1
  0
DICTIONARY
  5
3F0
102
{ACAD_REACTORS
330
3A2
102
}
100
AcDbDictionary
  3
DIMADEC
350
3F1
  0
MLINESTYLE
  5
3B1
102
{ACAD_REACTORS
330
3B0
102
}
100
AcDbMlineStyle
  2
STANDARD
 70
     0
  3

 62
   256
 51
90.0
 52
90.0
 71
     2
 49
0.5
 62
   256
  6
BYLAYER
 49
-0.5
 62
   256
  6
BYLAYER
  0
DICTIONARYVAR
  5
3F1
102
{ACAD_REACTORS
330
3F0
102
}
100
DictionaryVariables
280
     0
  1
0
  0
ENDSEC
  0
EOF
