  0
SECTION
  2
HEADER
  9
$ACADVER
  1
AC1014
  9
$ACADMAINTVER
 70
     0
  9
$DWGCODEPAGE
  3
ANSI_1252
  9
$INSBASE
 10
0.0
 20
0.0
 30
0.0
  9
$EXTMIN
 10
75.557531
 20
139.5
 30
0.0
  9
$EXTMAX
 10
138.0
 20
185.947586
 30
0.0
  9
$LIMMIN
 10
0.0
 20
0.0
  9
$LIMMAX
 10
210.0
 20
297.0
  9
$ORTHOMODE
 70
     0
  9
$REGENMODE
 70
     1
  9
$FILLMODE
 70
     1
  9
$QTEXTMODE
 70
     0
  9
$MIRRTEXT
 70
     1
  9
$DRAGMODE
 70
     2
  9
$LTSCALE
 40
10.0
  9
$OSMODE
 70
     0
  9
$ATTMODE
 70
     1
  9
$TEXTSIZE
 40
2.9
  9
$TRACEWID
 40
0.05
  9
$TEXTSTYLE
  7
ROMANS
  9
$CLAYER
  8
COTATION1
  9
$CELTYPE
  6
BYLAYER
  9
$CECOLOR
 62
   256
  9
$CELTSCALE
 40
1.0
  9
$DELOBJ
 70
     1
  9
$DISPSILH
 70
     0
  9
$DIMSCALE
 40
1.0
  9
$DIMASZ
 40
3.0
  9
$DIMEXO
 40
0.0625
  9
$DIMDLI
 40
0.38
  9
$DIMRND
 40
0.01
  9
$DIMDLE
 40
0.0
  9
$DIMEXE
 40
0.18
  9
$DIMTP
 40
0.0
  9
$DIMTM
 40
0.0
  9
$DIMTXT
 40
2.5
  9
$DIMCEN
 40
0.09
  9
$DIMTSZ
 40
0.0
  9
$DIMTOL
 70
     0
  9
$DIMLIM
 70
     0
  9
$DIMTIH
 70
     0
  9
$DIMTOH
 70
     0
  9
$DIMSE1
 70
     0
  9
$DIMSE2
 70
     0
  9
$DIMTAD
 70
     1
  9
$DIMZIN
 70
    12
  9
$DIMBLK
  1

  9
$DIMASO
 70
     1
  9
$DIMSHO
 70
     1
  9
$DIMPOST
  1

  9
$DIMAPOST
  1

  9
$DIMALT
 70
     0
  9
$DIMALTD
 70
     2
  9
$DIMALTF
 40
25.4
  9
$DIMLFAC
 40
1.0
  9
$DIMTOFL
 70
     1
  9
$DIMTVP
 40
0.0
  9
$DIMTIX
 70
     0
  9
$DIMSOXD
 70
     0
  9
$DIMSAH
 70
     0
  9
$DIMBLK1
  1

  9
$DIMBLK2
  1

  9
$DIMSTYLE
  2
SC_STAND
  9
$DIMCLRD
 70
     0
  9
$DIMCLRE
 70
     0
  9
$DIMCLRT
 70
     0
  9
$DIMTFAC
 40
1.0
  9
$DIMGAP
 40
1.0
  9
$DIMJUST
 70
     0
  9
$DIMSD1
 70
     0
  9
$DIMSD2
 70
     0
  9
$DIMTOLJ
 70
     1
  9
$DIMTZIN
 70
    12
  9
$DIMALTZ
 70
    12
  9
$DIMALTTZ
 70
    12
  9
$DIMFIT
 70
     5
  9
$DIMUPT
 70
     0
  9
$DIMUNIT
 70
     2
  9
$DIMDEC
 70
     4
  9
$DIMTDEC
 70
     4
  9
$DIMALTU
 70
     2
  9
$DIMALTTD
 70
     2
  9
$DIMTXSTY
  7
ROMANS
  9
$DIMAUNIT
 70
     0
  9
$LUNITS
 70
     2
  9
$LUPREC
 70
     4
  9
$SKETCHINC
 40
0.1
  9
$FILLETRAD
 40
0.0
  9
$AUNITS
 70
     0
  9
$AUPREC
 70
     0
  9
$MENU
  1
.
  9
$ELEVATION
 40
0.0
  9
$PELEVATION
 40
0.0
  9
$THICKNESS
 40
0.0
  9
$LIMCHECK
 70
     0
  9
$BLIPMODE
 70
     1
  9
$CHAMFERA
 40
0.0
  9
$CHAMFERB
 40
0.0
  9
$CHAMFERC
 40
0.0
  9
$CHAMFERD
 40
0.0
  9
$SKPOLY
 70
     0
  9
$TDCREATE
 40
2450989.412037731
  9
$TDUPDATE
 40
2451387.897195949
  9
$TDINDWG
 40
0.0023845023
  9
$TDUSRTIMER
 40
0.0023845023
  9
$USRTIMER
 70
     1
  9
$ANGBASE
 50
0.0
  9
$ANGDIR
 70
     0
  9
$PDMODE
 70
     0
  9
$PDSIZE
 40
0.0
  9
$PLINEWID
 40
0.0
  9
$COORDS
 70
     1
  9
$SPLFRAME
 70
     0
  9
$SPLINETYPE
 70
     6
  9
$SPLINESEGS
 70
     8
  9
$ATTDIA
 70
     1
  9
$ATTREQ
 70
     1
  9
$HANDLING
 70
     1
  9
$HANDSEED
  5
47D
  9
$SURFTAB1
 70
     6
  9
$SURFTAB2
 70
     6
  9
$SURFTYPE
 70
     6
  9
$SURFU
 70
     6
  9
$SURFV
 70
     6
  9
$UCSNAME
  2

  9
$UCSORG
 10
0.0
 20
0.0
 30
0.0
  9
$UCSXDIR
 10
1.0
 20
0.0
 30
0.0
  9
$UCSYDIR
 10
0.0
 20
1.0
 30
0.0
  9
$PUCSNAME
  2

  9
$PUCSORG
 10
0.0
 20
0.0
 30
0.0
  9
$PUCSXDIR
 10
1.0
 20
0.0
 30
0.0
  9
$PUCSYDIR
 10
0.0
 20
1.0
 30
0.0
  9
$USERI1
 70
     0
  9
$USERI2
 70
     0
  9
$USERI3
 70
     0
  9
$USERI4
 70
     0
  9
$USERI5
 70
     0
  9
$USERR1
 40
0.0
  9
$USERR2
 40
0.0
  9
$USERR3
 40
0.0
  9
$USERR4
 40
0.0
  9
$USERR5
 40
0.0
  9
$WORLDVIEW
 70
     1
  9
$SHADEDGE
 70
     3
  9
$SHADEDIF
 70
    70
  9
$TILEMODE
 70
     1
  9
$MAXACTVP
 70
    16
  9
$PINSBASE
 10
0.0
 20
0.0
 30
0.0
  9
$PLIMCHECK
 70
     0
  9
$PEXTMIN
 10
0.0
 20
0.0
 30
0.0
  9
$PEXTMAX
 10
420.0
 20
297.0
 30
0.0
  9
$PLIMMIN
 10
0.0
 20
0.0
  9
$PLIMMAX
 10
420.0
 20
297.0
  9
$UNITMODE
 70
     0
  9
$VISRETAIN
 70
     0
  9
$PLINEGEN
 70
     0
  9
$PSLTSCALE
 70
     1
  9
$TREEDEPTH
 70
  3020
  9
$PICKSTYLE
 70
     1
  9
$CMLSTYLE
  2
STANDARD
  9
$CMLJUST
 70
     0
  9
$CMLSCALE
 40
1.0
  9
$PROXYGRAPHICS
 70
     1
  9
$MEASUREMENT
 70
     0
  0
ENDSEC
  0
SECTION
  2
CLASSES
  0
CLASS
  1
DICTIONARYVAR
  2
AcDbDictionaryVar
  3
"AutoCAD"
 90
        0
280
     0
281
     0
  0
CLASS
  1
LWPOLYLINE
  2
AcDbPolyline
  3
"AutoCAD"
 90
        0
280
     0
281
     1
  0
ENDSEC
  0
SECTION
  2
TABLES
  0
TABLE
  2
VPORT
  5
41F
100
AcDbSymbolTable
 70
     1
  0
VPORT
  5
478
100
AcDbSymbolTableRecord
100
AcDbViewportTableRecord
  2
*ACTIVE
 70
     0
 10
0.0
 20
0.0
 11
1.0
 21
1.0
 12
257.127367
 22
153.871495
 13
0.0
 23
0.0
 14
2.5
 24
2.5
 15
10.0
 25
10.0
 16
0.0
 26
0.0
 36
1.0
 17
0.0
 27
0.0
 37
0.0
 40
307.74299
 41
1.671053
 42
50.0
 43
0.0
 44
0.0
 50
0.0
 51
0.0
 71
     0
 72
   100
 73
     1
 74
     1
 75
     1
 76
     1
 77
     0
 78
     0
  0
ENDTAB
  0
TABLE
  2
LTYPE
  5
41C
100
AcDbSymbolTable
 70
    23
  0
LTYPE
  5
428
100
AcDbSymbolTableRecord
100
AcDbLinetypeTableRecord
  2
BYBLOCK
 70
     0
  3

 72
    65
 73
     0
 40
0.0
  0
LTYPE
  5
429
100
AcDbSymbolTableRecord
100
AcDbLinetypeTableRecord
  2
BYLAYER
 70
     0
  3

 72
    65
 73
     0
 40
0.0
  0
LTYPE
  5
42A
100
AcDbSymbolTableRecord
100
AcDbLinetypeTableRecord
  2
CONTINUOUS
 70
     0
  3
Solid line
 72
    65
 73
     0
 40
0.0
  0
LTYPE
  5
43E
100
AcDbSymbolTableRecord
100
AcDbLinetypeTableRecord
  2
AXES
 70
     0
  3
____ _ ____ _ ____ _ ____ _ ____ _ ____ _ ____ 
 72
    65
 73
     4
 40
2.0
 49
1.25
 74
     0
 49
-0.25
 74
     0
 49
0.25
 74
     0
 49
-0.25
 74
     0
  0
LTYPE
  5
43F
100
AcDbSymbolTableRecord
100
AcDbLinetypeTableRecord
  2
AXES2
 70
     0
  3
___ _ ___ _ ___ _ ___ _ ___ _ ___ _ ___ _ ___ _
 72
    65
 73
     4
 40
1.125
 49
0.75
 74
     0
 49
-0.125
 74
     0
 49
0.125
 74
     0
 49
-0.125
 74
     0
  0
LTYPE
  5
440
100
AcDbSymbolTableRecord
100
AcDbLinetypeTableRecord
  2
AXESX2
 70
     0
  3
________  __  ________  __  ________  __  _____
 72
    65
 73
     4
 40
4.0
 49
2.5
 74
     0
 49
-0.5
 74
     0
 49
0.5
 74
     0
 49
-0.5
 74
     0
  0
LTYPE
  5
441
100
AcDbSymbolTableRecord
100
AcDbLinetypeTableRecord
  2
TIRETPT
 70
     0
  3
__ . __ . __ . __ . __ . __ . __ . __ . __ . __
 72
    65
 73
     4
 40
1.0
 49
0.5
 74
     0
 49
-0.25
 74
     0
 49
0.0
 74
     0
 49
-0.25
 74
     0
  0
LTYPE
  5
442
100
AcDbSymbolTableRecord
100
AcDbLinetypeTableRecord
  2
TIRETPT2
 70
     0
  3
_._._._._._._._._._._._._._._._._._._._._._._._
 72
    65
 73
     4
 40
0.5
 49
0.25
 74
     0
 49
-0.125
 74
     0
 49
0.0
 74
     0
 49
-0.125
 74
     0
  0
LTYPE
  5
443
100
AcDbSymbolTableRecord
100
AcDbLinetypeTableRecord
  2
TIRETPTX2
 70
     0
  3
____  .  ____  .  ____  .  ____  .  ____  .  __
 72
    65
 73
     4
 40
2.0
 49
1.0
 74
     0
 49
-0.5
 74
     0
 49
0.0
 74
     0
 49
-0.5
 74
     0
  0
LTYPE
  5
444
100
AcDbSymbolTableRecord
100
AcDbLinetypeTableRecord
  2
DISCONTINU
 70
     0
  3
__ __ __ __ __ __ __ __ __ __ __ __ __ __ __ __
 72
    65
 73
     2
 40
0.75
 49
0.5
 74
     0
 49
-0.25
 74
     0
  0
LTYPE
  5
445
100
AcDbSymbolTableRecord
100
AcDbLinetypeTableRecord
  2
DISCONTINU2
 70
     0
  3
_ _ _ _ _ _ _ _ _ _ _ _ _ _ _ _ _ _ _ _ _ _ _ _
 72
    65
 73
     2
 40
0.375
 49
0.25
 74
     0
 49
-0.125
 74
     0
  0
LTYPE
  5
446
100
AcDbSymbolTableRecord
100
AcDbLinetypeTableRecord
  2
DISCONTINUX2
 70
     0
  3
____  ____  ____  ____  ____  ____  ____  ____ 
 72
    65
 73
     2
 40
1.5
 49
1.0
 74
     0
 49
-0.5
 74
     0
  0
LTYPE
  5
447
100
AcDbSymbolTableRecord
100
AcDbLinetypeTableRecord
  2
DIVISE
 70
     0
  3
____ . . ____ . . ____ . . ____ . . ____ . . __
 72
    65
 73
     6
 40
1.25
 49
0.5
 74
     0
 49
-0.25
 74
     0
 49
0.0
 74
     0
 49
-0.25
 74
     0
 49
0.0
 74
     0
 49
-0.25
 74
     0
  0
LTYPE
  5
448
100
AcDbSymbolTableRecord
100
AcDbLinetypeTableRecord
  2
DIVISE2
 70
     0
  3
__..__..__..__..__..__..__..__..__..__..__..__.
 72
    65
 73
     6
 40
0.625
 49
0.25
 74
     0
 49
-0.125
 74
     0
 49
0.0
 74
     0
 49
-0.125
 74
     0
 49
0.0
 74
     0
 49
-0.125
 74
     0
  0
LTYPE
  5
449
100
AcDbSymbolTableRecord
100
AcDbLinetypeTableRecord
  2
DIVISEX2
 70
     0
  3
________  .  .  ________  .  .  ________  .  . 
 72
    65
 73
     6
 40
2.5
 49
1.0
 74
     0
 49
-0.5
 74
     0
 49
0.0
 74
     0
 49
-0.5
 74
     0
 49
0.0
 74
     0
 49
-0.5
 74
     0
  0
LTYPE
  5
44A
100
AcDbSymbolTableRecord
100
AcDbLinetypeTableRecord
  2
POINTILLE
 70
     0
  3
. . . . . . . . . . . . . . . . . . . . . . . .
 72
    65
 73
     2
 40
0.25
 49
0.0
 74
     0
 49
-0.25
 74
     0
  0
LTYPE
  5
44B
100
AcDbSymbolTableRecord
100
AcDbLinetypeTableRecord
  2
POINTILLE2
 70
     0
  3
...............................................
 72
    65
 73
     2
 40
0.125
 49
0.0
 74
     0
 49
-0.125
 74
     0
  0
LTYPE
  5
44C
100
AcDbSymbolTableRecord
100
AcDbLinetypeTableRecord
  2
POINTILLEX2
 70
     0
  3
.  .  .  .  .  .  .  .  .  .  .  .  .  .  .  . 
 72
    65
 73
     2
 40
0.5
 49
0.0
 74
     0
 49
-0.5
 74
     0
  0
LTYPE
  5
44D
100
AcDbSymbolTableRecord
100
AcDbLinetypeTableRecord
  2
CACHE
 70
     0
  3
__ __ __ __ __ __ __ __ __ __ __ __ __ __ __ __
 72
    65
 73
     2
 40
0.375
 49
0.25
 74
     0
 49
-0.125
 74
     0
  0
LTYPE
  5
44E
100
AcDbSymbolTableRecord
100
AcDbLinetypeTableRecord
  2
CACHE2
 70
     0
  3
_ _ _ _ _ _ _ _ _ _ _ _ _ _ _ _ _ _ _ _ _ _ _ _
 72
    65
 73
     2
 40
0.1875
 49
0.125
 74
     0
 49
-0.0625
 74
     0
  0
LTYPE
  5
44F
100
AcDbSymbolTableRecord
100
AcDbLinetypeTableRecord
  2
CACHEX2
 70
     0
  3
____ ____ ____ ____ ____ ____ ____ ____ ____ __
 72
    65
 73
     2
 40
0.75
 49
0.5
 74
     0
 49
-0.25
 74
     0
  0
LTYPE
  5
450
100
AcDbSymbolTableRecord
100
AcDbLinetypeTableRecord
  2
FANTOME
 70
     0
  3
______  __  __  ______  __  __  ______  __  __ 
 72
    65
 73
     6
 40
2.5
 49
1.25
 74
     0
 49
-0.25
 74
     0
 49
0.25
 74
     0
 49
-0.25
 74
     0
 49
0.25
 74
     0
 49
-0.25
 74
     0
  0
LTYPE
  5
451
100
AcDbSymbolTableRecord
100
AcDbLinetypeTableRecord
  2
FANTOME2
 70
     0
  3
___ _ _ ___ _ _ ___ _ _ ___ _ _ ___ _ _ ___ _ _
 72
    65
 73
     6
 40
1.25
 49
0.625
 74
     0
 49
-0.125
 74
     0
 49
0.125
 74
     0
 49
-0.125
 74
     0
 49
0.125
 74
     0
 49
-0.125
 74
     0
  0
LTYPE
  5
452
100
AcDbSymbolTableRecord
100
AcDbLinetypeTableRecord
  2
FANTOMEX2
 70
     0
  3
____________    ____    ____    ____________   
 72
    65
 73
     6
 40
5.0
 49
2.5
 74
     0
 49
-0.5
 74
     0
 49
0.5
 74
     0
 49
-0.5
 74
     0
 49
0.5
 74
     0
 49
-0.5
 74
     0
  0
LTYPE
  5
453
100
AcDbSymbolTableRecord
100
AcDbLinetypeTableRecord
  2
0
 70
     0
  3
MEDUSA PEN 0
 72
    65
 73
     0
 40
0.0
  0
ENDTAB
  0
TABLE
  2
LAYER
  5
419
100
AcDbSymbolTable
 70
    21
  0
LAYER
  5
425
100
AcDbSymbolTableRecord
100
AcDbLayerTableRecord
  2
0
 70
     0
 62
   255
  6
CONTINUOUS
  0
LAYER
  5
45B
100
AcDbSymbolTableRecord
100
AcDbLayerTableRecord
  2
COTATION1
 70
     0
 62
     2
  6
CONTINUOUS
  0
LAYER
  5
45C
100
AcDbSymbolTableRecord
100
AcDbLayerTableRecord
  2
ASHADE
 70
     0
 62
     7
  6
CONTINUOUS
  0
LAYER
  5
45D
100
AcDbSymbolTableRecord
100
AcDbLayerTableRecord
  2
ALPHA
 70
     0
 62
   255
  6
CONTINUOUS
  0
LAYER
  5
45E
100
AcDbSymbolTableRecord
100
AcDbLayerTableRecord
  2
DEFPOINTS
 70
     0
 62
     7
  6
CONTINUOUS
  0
LAYER
  5
45F
100
AcDbSymbolTableRecord
100
AcDbLayerTableRecord
  2
AXE
 70
     0
 62
    80
  6
AXES2
  0
LAYER
  5
460
100
AcDbSymbolTableRecord
100
AcDbLayerTableRecord
  2
CONSTRUCTION
 70
     0
 62
     6
  6
CONTINUOUS
  0
LAYER
  5
461
100
AcDbSymbolTableRecord
100
AcDbLayerTableRecord
  2
HACHURES
 70
     0
 62
     9
  6
CONTINUOUS
  0
LAYER
  5
462
100
AcDbSymbolTableRecord
100
AcDbLayerTableRecord
  2
FMULT
 70
     0
 62
     6
  6
CONTINUOUS
  0
LAYER
  5
463
100
AcDbSymbolTableRecord
100
AcDbLayerTableRecord
  2
TEXTE
 70
     0
 62
   131
  6
CONTINUOUS
  0
LAYER
  5
464
100
AcDbSymbolTableRecord
100
AcDbLayerTableRecord
  2
FDP_CARTOUCHE
 70
     0
 62
     4
  6
CONTINUOUS
  0
LAYER
  5
465
100
AcDbSymbolTableRecord
100
AcDbLayerTableRecord
  2
FDP_TEXTES
 70
     0
 62
     5
  6
CONTINUOUS
  0
LAYER
  5
466
100
AcDbSymbolTableRecord
100
AcDbLayerTableRecord
  2
FDP_LOGO_MG
 70
     0
 62
    30
  6
CONTINUOUS
  0
LAYER
  5
467
100
AcDbSymbolTableRecord
100
AcDbLayerTableRecord
  2
FDP_LOGO_SCH
 70
     0
 62
     3
  6
CONTINUOUS
  0
LAYER
  5
468
100
AcDbSymbolTableRecord
100
AcDbLayerTableRecord
  2
FDP_FDP
 70
     0
 62
     5
  6
CONTINUOUS
  0
LAYER
  5
469
100
AcDbSymbolTableRecord
100
AcDbLayerTableRecord
  2
COTATION2
 70
     0
 62
     2
  6
CONTINUOUS
  0
LAYER
  5
46A
100
AcDbSymbolTableRecord
100
AcDbLayerTableRecord
  2
COTATION3
 70
     0
 62
     2
  6
CONTINUOUS
  0
LAYER
  5
46B
100
AcDbSymbolTableRecord
100
AcDbLayerTableRecord
  2
COTATION4
 70
     0
 62
     2
  6
CONTINUOUS
  0
LAYER
  5
46C
100
AcDbSymbolTableRecord
100
AcDbLayerTableRecord
  2
POINTILLE_COURT
 70
     0
 62
    40
  6
CACHE2
  0
LAYER
  5
46D
100
AcDbSymbolTableRecord
100
AcDbLayerTableRecord
  2
POINTILLE_MOYEN
 70
     0
 62
   140
  6
CACHE
  0
LAYER
  5
46E
100
AcDbSymbolTableRecord
100
AcDbLayerTableRecord
  2
POINTILLE_LONG
 70
     0
 62
   240
  6
CACHEX2
  0
ENDTAB
  0
TABLE
  2
STYLE
  5
41A
100
AcDbSymbolTable
 70
     4
  0
STYLE
  5
426
100
AcDbSymbolTableRecord
100
AcDbTextStyleTableRecord
  2
STANDARD
 70
     0
 40
0.0
 41
1.0
 50
0.0
 71
     0
 42
0.2
  3
txt
  4

  0
STYLE
  5
43B
100
AcDbSymbolTableRecord
100
AcDbTextStyleTableRecord
  2
ROMANS
 70
     0
 40
0.0
 41
1.0
 50
0.0
 71
     0
 42
2.9
  3
romans.shx
  4

  0
STYLE
  5
43C
100
AcDbSymbolTableRecord
100
AcDbTextStyleTableRecord
  2
INFOCAR
 70
     0
 40
0.0
 41
1.34
 50
0.0
 71
     0
 42
2.0
  3
ROMANS.SHX
  4

  0
STYLE
  5
43D
100
AcDbSymbolTableRecord
100
AcDbTextStyleTableRecord
  2
CARTOUCHE
 70
     0
 40
0.0
 41
1.0
 50
0.0
 71
     0
 42
0.2
  3
ROMANS.SHX
  4

  0
ENDTAB
  0
TABLE
  2
VIEW
  5
41D
100
AcDbSymbolTable
 70
     0
  0
ENDTAB
  0
TABLE
  2
UCS
  5
41E
100
AcDbSymbolTable
 70
     0
  0
ENDTAB
  0
TABLE
  2
APPID
  5
420
100
AcDbSymbolTable
 70
     3
  0
APPID
  5
427
100
AcDbSymbolTableRecord
100
AcDbRegAppTableRecord
  2
ACAD
 70
     0
  0
APPID
  5
455
100
AcDbSymbolTableRecord
100
AcDbRegAppTableRecord
  2
AVE_RENDER
 70
     0
  0
APPID
  5
456
100
AcDbSymbolTableRecord
100
AcDbRegAppTableRecord
  2
AVE_MATERIAL
 70
     0
  0
ENDTAB
  0
TABLE
  2
DIMSTYLE
  5
421
100
AcDbSymbolTable
 70
     2
  0
DIMSTYLE
105
457
102
{ACAD_REACTORS
330
26D
330
27F
330
28E
330
29B
330
2A8
102
}
100
AcDbSymbolTableRecord
100
AcDbDimStyleTableRecord
  2
SC_STAND
 70
     0
  3

  4

  5

  6

  7

 40
1.0
 41
3.0
 42
0.0625
 43
0.38
 44
0.18
 45
0.01
 46
0.0
 47
0.0
 48
0.0
140
2.5
141
0.09
142
0.0
143
25.4
144
1.0
145
0.0
146
1.0
147
1.0
 71
     0
 72
     0
 73
     0
 74
     0
 75
     0
 76
     0
 77
     1
 78
    12
170
     0
171
     2
172
     1
173
     0
174
     0
175
     0
176
     0
177
     0
178
     0
270
     2
271
     4
272
     4
273
     2
274
     2
340
43B
275
     0
280
     0
281
     0
282
     0
283
     1
284
    12
285
    12
286
    12
287
     5
288
     0
  0
DIMSTYLE
105
458
100
AcDbSymbolTableRecord
100
AcDbDimStyleTableRecord
  2
STANDARD
 70
     0
  3

  4

  5

  6

  7

 40
1.0
 41
0.18
 42
0.0625
 43
0.38
 44
0.18
 45
0.0
 46
0.0
 47
0.0
 48
0.0
140
0.18
141
0.09
142
0.0
143
25.4
144
1.0
145
0.0
146
1.0
147
0.09
 71
     0
 72
     0
 73
     1
 74
     1
 75
     0
 76
     0
 77
     0
 78
     0
170
     0
171
     2
172
     0
173
     0
174
     0
175
     0
176
     0
177
     0
178
     0
270
     2
271
     4
272
     4
273
     2
274
     2
340
43B
275
     0
280
     0
281
     0
282
     0
283
     1
284
    12
285
    12
286
    12
287
     5
288
     0
  0
ENDTAB
  0
TABLE
  2
BLOCK_RECORD
  5
418
100
AcDbSymbolTable
 70
     8
  0
BLOCK_RECORD
  5
42E
100
AcDbSymbolTableRecord
100
AcDbBlockTableRecord
  2
*MODEL_SPACE
  0
BLOCK_RECORD
  5
42B
100
AcDbSymbolTableRecord
100
AcDbBlockTableRecord
  2
*PAPER_SPACE
  0
BLOCK_RECORD
  5
433
100
AcDbSymbolTableRecord
100
AcDbBlockTableRecord
  2
AVE_RENDER
  0
BLOCK_RECORD
  5
434
100
AcDbSymbolTableRecord
100
AcDbBlockTableRecord
  2
AVE_GLOBAL
  0
BLOCK_RECORD
  5
435
100
AcDbSymbolTableRecord
100
AcDbBlockTableRecord
  2
*D2
  0
BLOCK_RECORD
  5
436
100
AcDbSymbolTableRecord
100
AcDbBlockTableRecord
  2
*D3
  0
BLOCK_RECORD
  5
437
100
AcDbSymbolTableRecord
100
AcDbBlockTableRecord
  2
*D4
  0
BLOCK_RECORD
  5
438
100
AcDbSymbolTableRecord
100
AcDbBlockTableRecord
  2
*D5
  0
BLOCK_RECORD
  5
439
100
AcDbSymbolTableRecord
100
AcDbBlockTableRecord
  2
*D6
  0
BLOCK_RECORD
  5
43A
100
AcDbSymbolTableRecord
100
AcDbBlockTableRecord
  2
SCH_ISO
  0
ENDTAB
  0
ENDSEC
  0
SECTION
  2
BLOCKS
  0
BLOCK
  5
471
100
AcDbEntity
  8
0
100
AcDbBlockBegin
  2
*MODEL_SPACE
 70
     0
 10
0.0
 20
0.0
 30
0.0
  3
*MODEL_SPACE
  1

  0
ENDBLK
  5
472
100
AcDbEntity
  8
0
100
AcDbBlockEnd
  0
BLOCK
  5
46F
100
AcDbEntity
 67
     1
  8
0
100
AcDbBlockBegin
  2
*PAPER_SPACE
 70
     0
 10
0.0
 20
0.0
 30
0.0
  3
*PAPER_SPACE
  1

  0
ENDBLK
  5
470
100
AcDbEntity
 67
     1
  8
0
100
AcDbBlockEnd
  0
BLOCK
  5
8
100
AcDbEntity
  8
0
100
AcDbBlockBegin
  2
AVE_RENDER
 70
     0
 10
0.0
 20
0.0
 30
0.0
  3
AVE_RENDER
  1
AVE_RENDER
  0
ENDBLK
  5
A
100
AcDbEntity
  8
0
100
AcDbBlockEnd
  0
BLOCK
  5
16
100
AcDbEntity
  8
0
100
AcDbBlockBegin
  2
AVE_GLOBAL
 70
     0
 10
0.0
 20
0.0
 30
0.0
  3
AVE_GLOBAL
  1
AVE_GLOBAL
  0
ENDBLK
  5
17
100
AcDbEntity
  8
0
100
AcDbBlockEnd
  0
BLOCK
  5
27D
100
AcDbEntity
  8
0
100
AcDbBlockBegin
  2
*D2
 70
     1
 10
0.0
 20
0.0
 30
0.0
  3
*D2
  1
AVE_RENDER
  0
LINE
  5
272
100
AcDbEntity
  8
0
  6
BYBLOCK
 62
     0
100
AcDbLine
 10
81.557531
 20
162.435068
 30
0.0
 11
81.557531
 21
139.82
 31
0.0
  0
LINE
  5
274
100
AcDbEntity
  8
0
  6
BYBLOCK
 62
     0
100
AcDbLine
 10
112.957554
 20
163.043793
 30
0.0
 11
112.957554
 21
139.82
 31
0.0
  0
LINE
  5
275
100
AcDbEntity
  8
0
  6
BYBLOCK
 62
     0
100
AcDbLine
 10
84.557531
 20
140.0
 30
0.0
 11
109.957554
 21
140.0
 31
0.0
  0
SOLID
  5
276
100
AcDbEntity
  8
0
  6
BYBLOCK
 62
     0
100
AcDbTrace
 10
84.557531
 20
140.5
 30
0.0
 11
84.557531
 21
139.5
 31
0.0
 12
81.557531
 22
140.0
 32
0.0
 13
81.557531
 23
140.0
 33
0.0
  0
SOLID
  5
277
100
AcDbEntity
  8
0
  6
BYBLOCK
 62
     0
100
AcDbTrace
 10
109.957554
 20
140.5
 30
0.0
 11
109.957554
 21
139.5
 31
0.0
 12
112.957554
 22
140.0
 32
0.0
 13
112.957554
 23
140.0
 33
0.0
  0
TEXT
  5
278
100
AcDbEntity
  8
0
  6
BYBLOCK
 62
     0
100
AcDbText
 10
93.031352
 20
141.0
 30
0.0
 40
2.5
  1
31.4
  7
ROMANS
100
AcDbText
  0
POINT
  5
279
100
AcDbEntity
  8
DEFPOINTS
  6
BYBLOCK
 62
     0
100
AcDbPoint
 10
81.557531
 20
162.497568
 30
0.0
  0
POINT
  5
27B
100
AcDbEntity
  8
DEFPOINTS
  6
BYBLOCK
 62
     0
100
AcDbPoint
 10
112.957554
 20
163.106293
 30
0.0
  0
POINT
  5
27C
100
AcDbEntity
  8
DEFPOINTS
  6
BYBLOCK
 62
     0
100
AcDbPoint
 10
112.957554
 20
140.0
 30
0.0
  0
ENDBLK
  5
27E
100
AcDbEntity
  8
0
100
AcDbBlockEnd
  0
BLOCK
  5
28C
100
AcDbEntity
  8
0
100
AcDbBlockBegin
  2
*D3
 70
     1
 10
0.0
 20
0.0
 30
0.0
  3
*D3
  1
AVE_RENDER
  0
LINE
  5
281
100
AcDbEntity
  8
0
  6
BYBLOCK
 62
     0
100
AcDbLine
 10
81.557531
 20
162.372568
 30
0.0
 11
81.557531
 21
147.32
 31
0.0
  0
LINE
  5
282
100
AcDbEntity
  8
0
  6
BYBLOCK
 62
     0
100
AcDbLine
 10
94.057554
 20
157.385049
 30
0.0
 11
94.057554
 21
147.32
 31
0.0
  0
LINE
  5
283
100
AcDbEntity
  8
0
  6
BYBLOCK
 62
     0
100
AcDbLine
 10
78.557531
 20
147.5
 30
0.0
 11
75.557531
 21
147.5
 31
0.0
  0
LINE
  5
284
100
AcDbEntity
  8
0
  6
BYBLOCK
 62
     0
100
AcDbLine
 10
97.057554
 20
147.5
 30
0.0
 11
100.057554
 21
147.5
 31
0.0
  0
LINE
  5
285
100
AcDbEntity
  8
0
  6
BYBLOCK
 62
     0
100
AcDbLine
 10
81.557531
 20
147.5
 30
0.0
 11
94.057554
 21
147.5
 31
0.0
  0
SOLID
  5
286
100
AcDbEntity
  8
0
  6
BYBLOCK
 62
     0
100
AcDbTrace
 10
78.557531
 20
148.0
 30
0.0
 11
78.557531
 21
147.0
 31
0.0
 12
81.557531
 22
147.5
 32
0.0
 13
81.557531
 23
147.5
 33
0.0
  0
SOLID
  5
287
100
AcDbEntity
  8
0
  6
BYBLOCK
 62
     0
100
AcDbTrace
 10
97.057554
 20
148.0
 30
0.0
 11
97.057554
 21
147.0
 31
0.0
 12
94.057554
 22
147.5
 32
0.0
 13
94.057554
 23
147.5
 33
0.0
  0
TEXT
  5
288
100
AcDbEntity
  8
0
  6
BYBLOCK
 62
     0
100
AcDbText
 10
83.462304
 20
148.5
 30
0.0
 40
2.5
  1
12.5
  7
ROMANS
100
AcDbText
  0
POINT
  5
289
100
AcDbEntity
  8
DEFPOINTS
  6
BYBLOCK
 62
     0
100
AcDbPoint
 10
81.557531
 20
162.435068
 30
0.0
  0
POINT
  5
28A
100
AcDbEntity
  8
DEFPOINTS
  6
BYBLOCK
 62
     0
100
AcDbPoint
 10
94.057554
 20
157.447549
 30
0.0
  0
POINT
  5
28B
100
AcDbEntity
  8
DEFPOINTS
  6
BYBLOCK
 62
     0
100
AcDbPoint
 10
94.057554
 20
147.5
 30
0.0
  0
ENDBLK
  5
28D
100
AcDbEntity
  8
0
100
AcDbBlockEnd
  0
BLOCK
  5
299
100
AcDbEntity
  8
0
100
AcDbBlockBegin
  2
*D4
 70
     1
 10
0.0
 20
0.0
 30
0.0
  3
*D4
  1
AVE_RENDER
  0
LINE
  5
290
100
AcDbEntity
  8
0
  6
BYBLOCK
 62
     0
100
AcDbLine
 10
94.120054
 20
157.447568
 30
0.0
 11
137.68
 21
157.447568
 31
0.0
  0
LINE
  5
291
100
AcDbEntity
  8
0
  6
BYBLOCK
 62
     0
100
AcDbLine
 10
94.120054
 20
185.947568
 30
0.0
 11
137.68
 21
185.947568
 31
0.0
  0
LINE
  5
292
100
AcDbEntity
  8
0
  6
BYBLOCK
 62
     0
100
AcDbLine
 10
137.5
 20
160.447568
 30
0.0
 11
137.5
 21
182.947568
 31
0.0
  0
SOLID
  5
293
100
AcDbEntity
  8
0
  6
BYBLOCK
 62
     0
100
AcDbTrace
 10
137.0
 20
160.447568
 30
0.0
 11
138.0
 21
160.447568
 31
0.0
 12
137.5
 22
157.447568
 32
0.0
 13
137.5
 23
157.447568
 33
0.0
  0
SOLID
  5
294
100
AcDbEntity
  8
0
  6
BYBLOCK
 62
     0
100
AcDbTrace
 10
137.0
 20
182.947568
 30
0.0
 11
138.0
 21
182.947568
 31
0.0
 12
137.5
 22
185.947568
 32
0.0
 13
137.5
 23
185.947568
 33
0.0
  0
TEXT
  5
295
100
AcDbEntity
  8
0
  6
BYBLOCK
 62
     0
100
AcDbText
 10
136.5
 20
167.530901
 30
0.0
 40
2.5
  1
28.5
 50
90.0
  7
ROMANS
100
AcDbText
  0
POINT
  5
296
100
AcDbEntity
  8
DEFPOINTS
  6
BYBLOCK
 62
     0
100
AcDbPoint
 10
94.057554
 20
157.447568
 30
0.0
  0
POINT
  5
297
100
AcDbEntity
  8
DEFPOINTS
  6
BYBLOCK
 62
     0
100
AcDbPoint
 10
94.057554
 20
185.947568
 30
0.0
  0
POINT
  5
298
100
AcDbEntity
  8
DEFPOINTS
  6
BYBLOCK
 62
     0
100
AcDbPoint
 10
137.5
 20
185.947568
 30
0.0
  0
ENDBLK
  5
29A
100
AcDbEntity
  8
0
100
AcDbBlockEnd
  0
BLOCK
  5
2A6
100
AcDbEntity
  8
0
100
AcDbBlockBegin
  2
*D5
 70
     1
 10
0.0
 20
0.0
 30
0.0
  3
*D5
  1
AVE_RENDER
  0
LINE
  5
29D
100
AcDbEntity
  8
0
  6
BYBLOCK
 62
     0
100
AcDbLine
 10
95.320054
 20
185.197549
 30
0.0
 11
130.18
 21
185.197549
 31
0.0
  0
LINE
  5
29E
100
AcDbEntity
  8
0
  6
BYBLOCK
 62
     0
100
AcDbLine
 10
95.320054
 20
158.197586
 30
0.0
 11
130.18
 21
158.197586
 31
0.0
  0
LINE
  5
29F
100
AcDbEntity
  8
0
  6
BYBLOCK
 62
     0
100
AcDbLine
 10
130.0
 20
182.197549
 30
0.0
 11
130.0
 21
161.197586
 31
0.0
  0
SOLID
  5
2A0
100
AcDbEntity
  8
0
  6
BYBLOCK
 62
     0
100
AcDbTrace
 10
129.5
 20
182.197549
 30
0.0
 11
130.5
 21
182.197549
 31
0.0
 12
130.0
 22
185.197549
 32
0.0
 13
130.0
 23
185.197549
 33
0.0
  0
SOLID
  5
2A1
100
AcDbEntity
  8
0
  6
BYBLOCK
 62
     0
100
AcDbTrace
 10
129.5
 20
161.197586
 30
0.0
 11
130.5
 21
161.197586
 31
0.0
 12
130.0
 22
158.197586
 32
0.0
 13
130.0
 23
158.197586
 33
0.0
  0
TEXT
  5
2A2
100
AcDbEntity
  8
0
  6
BYBLOCK
 62
     0
100
AcDbText
 10
129.0
 20
169.316615
 30
0.0
 40
2.5
  1
27
 50
90.0
  7
ROMANS
100
AcDbText
  0
POINT
  5
2A3
100
AcDbEntity
  8
DEFPOINTS
  6
BYBLOCK
 62
     0
100
AcDbPoint
 10
95.257554
 20
185.197549
 30
0.0
  0
POINT
  5
2A4
100
AcDbEntity
  8
DEFPOINTS
  6
BYBLOCK
 62
     0
100
AcDbPoint
 10
95.257554
 20
158.197586
 30
0.0
  0
POINT
  5
2A5
100
AcDbEntity
  8
DEFPOINTS
  6
BYBLOCK
 62
     0
100
AcDbPoint
 10
130.0
 20
158.197586
 30
0.0
  0
ENDBLK
  5
2A7
100
AcDbEntity
  8
0
100
AcDbBlockEnd
  0
BLOCK
  5
2B3
100
AcDbEntity
  8
0
100
AcDbBlockBegin
  2
*D6
 70
     1
 10
0.0
 20
0.0
 30
0.0
  3
*D6
  1
AVE_RENDER
  0
LINE
  5
2AA
100
AcDbEntity
  8
0
  6
BYBLOCK
 62
     0
100
AcDbLine
 10
98.120054
 20
182.697568
 30
0.0
 11
122.68
 21
182.697568
 31
0.0
  0
LINE
  5
2AB
100
AcDbEntity
  8
0
  6
BYBLOCK
 62
     0
100
AcDbLine
 10
98.120054
 20
160.697568
 30
0.0
 11
122.68
 21
160.697568
 31
0.0
  0
LINE
  5
2AC
100
AcDbEntity
  8
0
  6
BYBLOCK
 62
     0
100
AcDbLine
 10
122.5
 20
179.697568
 30
0.0
 11
122.5
 21
163.697568
 31
0.0
  0
SOLID
  5
2AD
100
AcDbEntity
  8
0
  6
BYBLOCK
 62
     0
100
AcDbTrace
 10
122.0
 20
179.697568
 30
0.0
 11
123.0
 21
179.697568
 31
0.0
 12
122.5
 22
182.697568
 32
0.0
 13
122.5
 23
182.697568
 33
0.0
  0
SOLID
  5
2AE
100
AcDbEntity
  8
0
  6
BYBLOCK
 62
     0
100
AcDbTrace
 10
122.0
 20
163.697568
 30
0.0
 11
123.0
 21
163.697568
 31
0.0
 12
122.5
 22
160.697568
 32
0.0
 13
122.5
 23
160.697568
 33
0.0
  0
TEXT
  5
2AF
100
AcDbEntity
  8
0
  6
BYBLOCK
 62
     0
100
AcDbText
 10
121.5
 20
169.316615
 30
0.0
 40
2.5
  1
22
 50
90.0
  7
ROMANS
100
AcDbText
  0
POINT
  5
2B0
100
AcDbEntity
  8
DEFPOINTS
  6
BYBLOCK
 62
     0
100
AcDbPoint
 10
98.057554
 20
182.697568
 30
0.0
  0
POINT
  5
2B1
100
AcDbEntity
  8
DEFPOINTS
  6
BYBLOCK
 62
     0
100
AcDbPoint
 10
98.057554
 20
160.697568
 30
0.0
  0
POINT
  5
2B2
100
AcDbEntity
  8
DEFPOINTS
  6
BYBLOCK
 62
     0
100
AcDbPoint
 10
122.5
 20
160.697568
 30
0.0
  0
ENDBLK
  5
2B4
100
AcDbEntity
  8
0
100
AcDbBlockEnd
  0
BLOCK
  5
303
100
AcDbEntity
  8
0
100
AcDbBlockBegin
  2
SCH_ISO
 70
     0
 10
0.0
 20
0.0
 30
0.0
  3
SCH_ISO
  1

  0
INSERT
  5
2FA
100
AcDbEntity
  8
ASHADE
 62
     1
100
AcDbBlockReference
  2
AVE_RENDER
 10
0.0
 20
0.0
 30
0.0
1001
AVE_RENDER
1002
{
1070
     6
1000
Pref
1070
    50
1070
    20
1070
     1
1070
     0
1000

1070
    10
1070
     1
1070
    30
1040
25.4
1070
     1
1040
0.3
1040
0.7
1040
0.0
1040
10.0
1010
-1.0
1020
-1.0
1030
-1.0
1040
0.3
1070
    49
1070
     0
1070
     0
1010
1.0
1020
1.0
1030
1.0
1040
45.0
1070
     1
1070
     0
1000
WCS
1040
0.0
1002
}
  0
INSERT
  5
2FB
100
AcDbEntity
  8
ASHADE
 62
     3
100
AcDbBlockReference
  2
AVE_RENDER
 10
0.0
 20
0.0
 30
0.0
1001
AVE_RENDER
1002
{
1070
     0
1000
Full Opt
1070
     0
1070
     1
1070
     1
1070
     1
1070
     0
1070
     0
1070
     0
1070
     1
1070
     1
1040
0.0001
1040
0.0001
1002
}
  0
INSERT
  5
2FC
100
AcDbEntity
  8
ASHADE
 62
     4
100
AcDbBlockReference
  2
AVE_RENDER
 10
0.0
 20
0.0
 30
0.0
1001
AVE_RENDER
1002
{
1070
     0
1000
Quick Opt
1070
     0
1070
     1
1070
     1
1070
     1
1070
     0
1070
     0
1070
     1
1002
}
  0
INSERT
  5
2FD
100
AcDbEntity
  8
ASHADE
 62
     5
100
AcDbBlockReference
  2
AVE_RENDER
 10
0.0
 20
0.0
 30
0.0
1001
AVE_RENDER
1002
{
1070
     1
1000
Scanl Opt
1070
     2
1070
     0
1070
     2
1040
2.0
1040
4.0
1070
     0
1070
     1
1070
     0
1040
0.03
1002
}
  0
INSERT
  5
2FE
100
AcDbEntity
  8
ASHADE
 62
     6
100
AcDbBlockReference
  2
AVE_RENDER
 10
0.0
 20
0.0
 30
0.0
1001
AVE_RENDER
1002
{
1070
     2
1000
Raytr Opt
1070
     2
1070
     0
1070
     2
1040
2.0
1040
4.0
1070
     0
1070
     1
1070
     1
1040
0.03
1070
     3
1040
0.03
1002
}
  0
INSERT
  5
2FF
100
AcDbEntity
  8
ASHADE
 62
     7
100
AcDbBlockReference
  2
AVE_RENDER
 10
0.0
 20
0.0
 30
0.0
1001
AVE_RENDER
1002
{
1070
     0
1000
RFile Opt
1070
     5
1070
   640
1070
   480
1070
 10000
1070
     3
1070
    32
1070
    24
1070
     0
1070
     0
1070
     0
1070
     1
1070
     0
1070
     0
1070
     0
1002
}
  0
INSERT
  5
300
100
AcDbEntity
  8
ASHADE
 62
     8
100
AcDbBlockReference
  2
AVE_RENDER
 10
0.0
 20
0.0
 30
0.0
1001
AVE_RENDER
1002
{
1070
     0
1000
Fog Opt
1070
     0
1070
     0
1040
0.0
1040
1.0
1040
0.0
1040
1.0
1010
0.5
1020
0.5
1030
0.5
1002
}
  0
INSERT
  5
301
100
AcDbEntity
  8
ASHADE
 62
     9
100
AcDbBlockReference
  2
AVE_RENDER
 10
0.0
 20
0.0
 30
0.0
1001
AVE_RENDER
1002
{
1070
     0
1000
BG Opt
1070
     0
1070
     1
1010
0.0
1020
0.0
1030
0.0
1010
1.0
1020
0.0
1030
0.0
1010
0.0
1020
1.0
1030
0.0
1010
0.0
1020
0.0
1030
1.0
1040
0.5
1040
0.33
1040
0.0
1000

1070
     1
1000

1070
     1
1070
     1
1040
1.0
1040
1.0
1040
0.0
1040
0.0
1070
     0
1002
}
  0
INSERT
  5
302
100
AcDbEntity
  8
ASHADE
 62
     1
100
AcDbBlockReference
  2
AVE_GLOBAL
 10
0.0
 20
0.0
 30
0.0
1001
AVE_MATERIAL
1002
{
1000
*GLOBAL*
1000
1
1000
Finition globale.
1002
{
1002
}
1002
{
1070
    63
1002
{
1002
{
1010
-1.0
1020
-1.0
1030
-1.0
1002
}
1040
0.1
1000

1040
0.0
1002
{
1002
}
1040
0.0
1002
{
1002
}
1040
0.0
1002
}
1002
{
1002
{
1010
-1.0
1020
-1.0
1030
-1.0
1002
}
1040
0.7
1000

1040
0.0
1002
{
1002
}
1040
0.0
1002
{
1002
}
1040
0.0
1002
}
1002
{
1002
{
1010
-1.0
1020
-1.0
1030
-1.0
1002
}
1040
0.2
1000

1040
0.0
1002
{
1002
}
1040
0.0
1002
{
1002
}
1040
0.0
1002
}
1002
{
1070
     0
1002
{
1070
     1
1002
{
1040
1.0
1040
1.0
1000

1040
0.0
1002
{
1002
}
1040
0.0
1002
{
1002
}
1040
0.0
1002
}
1002
}
1040
1.0
1040
0.0
1040
0.0
1002
}
1002
{
1040
1.0
1040
1.0
1000

1040
0.0
1002
{
1002
}
1040
0.0
1002
{
1002
}
1040
0.0
1002
}
1002
{
1040
0.5
1040
1.0
1000

1040
0.0
1002
{
1002
}
1040
0.0
1002
{
1002
}
1040
0.0
1002
}
1002
{
1070
     0
1040
0.0
1002
{
1002
}
1040
1.0
1002
{
1002
}
1040
0.0
1002
}
1002
{
1040
0.0
1002
{
1002
{
1010
0.0
1020
0.0
1030
0.0
1002
}
1040
1.0
1000

1040
0.0
1002
{
1002
}
1040
0.0
1002
{
1002
}
1040
0.0
1002
}
1002
}
1002
{
1002
{
1070
     1
1002
{
1040
0.0
1040
1.0
1000

1040
0.0
1002
{
1002
}
1040
0.0
1002
{
1002
}
1040
0.0
1002
}
1002
}
1040
0.0
1002
{
1002
}
1010
1.0
1020
0.0
1030
0.0
1010
0.0
1020
1.0
1030
0.0
1010
0.0
1020
0.0
1030
1.0
1070
     0
1002
}
1002
{
1002
{
1040
1.0
1040
1.0
1002
{
1070
     1
1002
{
1040
1.0
1040
1.0
1000

1040
0.0
1002
{
1002
}
1040
0.0
1002
{
1002
}
1040
0.0
1002
}
1002
}
1002
}
1070
     0
1040
0.0
1002
{
1002
}
1002
}
1002
{
1002
}
1002
}
1002
{
1071
        3
1070
     3
1070
     0
1002
{
1070
     2
1070
     0
1070
     0
1040
0.0
1002
}
1070
     0
1070
     2
1002
{
1002
}
1002
}
1002
{
1040
8030.0
1040
190.300003
1040
0.305
1040
228.0
1040
545.0
1040
14.0
1040
17.4
1040
0.456
1002
}
1002
}
  0
ENDBLK
  5
304
100
AcDbEntity
  8
0
100
AcDbBlockEnd
  0
ENDSEC
  0
SECTION
  2
ENTITIES
  0
INSERT
  5
3
100
AcDbEntity
  8
ALPHA
100
AcDbBlockReference
  2
AVE_RENDER
 10
0.0
 20
0.0
 30
0.0
1001
AVE_RENDER
1002
{
1070
     6
1000
Pref
1070
    50
1070
    20
1070
     1
1070
     0
1000

1070
    10
1070
     1
1070
    30
1040
25.4
1070
     1
1040
0.3
1040
0.7
1040
0.0
1040
10.0
1010
-1.0
1020
-1.0
1030
-1.0
1040
0.3
1070
    49
1070
     0
1070
     0
1010
1.0
1020
1.0
1030
1.0
1040
45.0
1070
     1
1070
     0
1000
WCS
1040
0.0
1002
}
  0
INSERT
  5
D
100
AcDbEntity
  8
ALPHA
100
AcDbBlockReference
  2
AVE_RENDER
 10
0.0
 20
0.0
 30
0.0
1001
AVE_RENDER
1002
{
1070
     0
1000
Full Opt
1070
     0
1070
     1
1070
     1
1070
     1
1070
     0
1070
     0
1070
     0
1070
     1
1070
     1
1040
0.0001
1040
0.0001
1002
}
  0
INSERT
  5
E
100
AcDbEntity
  8
ALPHA
100
AcDbBlockReference
  2
AVE_RENDER
 10
0.0
 20
0.0
 30
0.0
1001
AVE_RENDER
1002
{
1070
     0
1000
Quick Opt
1070
     0
1070
     1
1070
     1
1070
     1
1070
     0
1070
     0
1070
     1
1002
}
  0
INSERT
  5
F
100
AcDbEntity
  8
ALPHA
100
AcDbBlockReference
  2
AVE_RENDER
 10
0.0
 20
0.0
 30
0.0
1001
AVE_RENDER
1002
{
1070
     1
1000
Scanl Opt
1070
     2
1070
     0
1070
     2
1040
2.0
1040
4.0
1070
     0
1070
     1
1070
     0
1040
0.03
1002
}
  0
INSERT
  5
10
100
AcDbEntity
  8
ALPHA
100
AcDbBlockReference
  2
AVE_RENDER
 10
0.0
 20
0.0
 30
0.0
1001
AVE_RENDER
1002
{
1070
     2
1000
Raytr Opt
1070
     2
1070
     0
1070
     2
1040
2.0
1040
4.0
1070
     0
1070
     1
1070
     1
1040
0.03
1070
     3
1040
0.03
1002
}
  0
INSERT
  5
11
100
AcDbEntity
  8
ALPHA
100
AcDbBlockReference
  2
AVE_RENDER
 10
0.0
 20
0.0
 30
0.0
1001
AVE_RENDER
1002
{
1070
     0
1000
RFile Opt
1070
     5
1070
   640
1070
   480
1070
 10000
1070
     3
1070
    32
1070
    24
1070
     0
1070
     0
1070
     0
1070
     1
1070
     0
1070
     0
1070
     0
1002
}
  0
INSERT
  5
12
100
AcDbEntity
  8
ALPHA
100
AcDbBlockReference
  2
AVE_RENDER
 10
0.0
 20
0.0
 30
0.0
1001
AVE_RENDER
1002
{
1070
     0
1000
Fog Opt
1070
     0
1070
     0
1040
0.0
1040
1.0
1040
0.0
1040
1.0
1010
0.5
1020
0.5
1030
0.5
1002
}
  0
INSERT
  5
13
100
AcDbEntity
  8
ALPHA
100
AcDbBlockReference
  2
AVE_RENDER
 10
0.0
 20
0.0
 30
0.0
1001
AVE_RENDER
1002
{
1070
     0
1000
BG Opt
1070
     0
1070
     1
1010
0.0
1020
0.0
1030
0.0
1010
1.0
1020
0.0
1030
0.0
1010
0.0
1020
1.0
1030
0.0
1010
0.0
1020
0.0
1030
1.0
1040
0.5
1040
0.33
1040
0.0
1000

1070
     1
1000

1070
     1
1070
     1
1040
1.0
1040
1.0
1040
0.0
1040
0.0
1070
     0
1002
}
  0
INSERT
  5
14
100
AcDbEntity
  8
ALPHA
100
AcDbBlockReference
  2
AVE_GLOBAL
 10
0.0
 20
0.0
 30
0.0
1001
AVE_MATERIAL
1002
{
1000
*GLOBAL*
1000
1
1000
Finition globale.
1002
{
1002
}
1002
{
1070
    63
1002
{
1002
{
1010
-1.0
1020
-1.0
1030
-1.0
1002
}
1040
0.1
1000

1040
0.0
1002
{
1002
}
1040
0.0
1002
{
1002
}
1040
0.0
1002
}
1002
{
1002
{
1010
-1.0
1020
-1.0
1030
-1.0
1002
}
1040
0.7
1000

1040
0.0
1002
{
1002
}
1040
0.0
1002
{
1002
}
1040
0.0
1002
}
1002
{
1002
{
1010
-1.0
1020
-1.0
1030
-1.0
1002
}
1040
0.2
1000

1040
0.0
1002
{
1002
}
1040
0.0
1002
{
1002
}
1040
0.0
1002
}
1002
{
1070
     0
1002
{
1070
     1
1002
{
1040
1.0
1040
1.0
1000

1040
0.0
1002
{
1002
}
1040
0.0
1002
{
1002
}
1040
0.0
1002
}
1002
}
1040
1.0
1040
0.0
1040
0.0
1002
}
1002
{
1040
1.0
1040
1.0
1000

1040
0.0
1002
{
1002
}
1040
0.0
1002
{
1002
}
1040
0.0
1002
}
1002
{
1040
0.5
1040
1.0
1000

1040
0.0
1002
{
1002
}
1040
0.0
1002
{
1002
}
1040
0.0
1002
}
1002
{
1070
     0
1040
0.0
1002
{
1002
}
1040
1.0
1002
{
1002
}
1040
0.0
1002
}
1002
{
1040
0.0
1002
{
1002
{
1010
0.0
1020
0.0
1030
0.0
1002
}
1040
1.0
1000

1040
0.0
1002
{
1002
}
1040
0.0
1002
{
1002
}
1040
0.0
1002
}
1002
}
1002
{
1002
{
1070
     1
1002
{
1040
0.0
1040
1.0
1000

1040
0.0
1002
{
1002
}
1040
0.0
1002
{
1002
}
1040
0.0
1002
}
1002
}
1040
0.0
1002
{
1002
}
1010
1.0
1020
0.0
1030
0.0
1010
0.0
1020
1.0
1030
0.0
1010
0.0
1020
0.0
1030
1.0
1070
     0
1002
}
1002
{
1002
{
1040
1.0
1040
1.0
1002
{
1070
     1
1002
{
1040
1.0
1040
1.0
1000

1040
0.0
1002
{
1002
}
1040
0.0
1002
{
1002
}
1040
0.0
1002
}
1002
}
1002
}
1070
     0
1040
0.0
1002
{
1002
}
1002
}
1002
{
1002
}
1002
}
1002
{
1071
        3
1070
     3
1070
     0
1002
{
1070
     2
1070
     0
1070
     0
1040
0.0
1002
}
1070
     0
1070
     2
1002
{
1002
}
1002
}
1002
{
1040
8030.0
1040
190.300003
1040
0.305
1040
228.0
1040
545.0
1040
14.0
1040
17.4
1040
0.456
1002
}
1002
}
  0
LWPOLYLINE
  5
19
100
AcDbEntity
  8
ALPHA
100
AcDbPolyline
 90
       12
 70
     0
 43
0.0
 10
87.057554
 20
171.697568
 10
87.057554
 20
173.725554
 10
87.057554
 20
175.712257
 10
87.057554
 20
177.617232
 10
87.057554
 20
179.401699
 10
87.057554
 20
181.029333
 10
87.057554
 20
182.466999
 10
87.057554
 20
183.68543
 10
87.057554
 20
184.659824
 10
87.057554
 20
185.370342
 10
87.057554
 20
185.802523
 10
87.057554
 20
185.947568
  0
LWPOLYLINE
  5
27
100
AcDbEntity
  8
ALPHA
100
AcDbPolyline
 90
        3
 70
     0
 43
0.0
 10
112.841386
 20
165.613735
 10
112.900042
 20
165.716677
 10
112.957554
 20
165.818792
  0
LWPOLYLINE
  5
2C
100
AcDbEntity
  8
ALPHA
100
AcDbPolyline
 90
        3
 70
     0
 43
0.0
 10
112.957554
 20
173.573734
 10
112.866237
 20
173.967762
 10
112.757554
 20
174.3659
  0
LINE
  5
31
100
AcDbEntity
  8
ALPHA
100
AcDbLine
 10
109.557554
 20
169.029235
 30
0.0
 11
107.257554
 21
169.029235
 31
0.0
  0
LWPOLYLINE
  5
32
100
AcDbEntity
  8
ALPHA
100
AcDbPolyline
 90
        4
 70
     0
 43
0.0
 10
112.757554
 20
174.3659
 10
112.757554
 20
175.486551
 10
112.757554
 20
176.541423
 10
112.757554
 20
177.512204
  0
LWPOLYLINE
  5
38
100
AcDbEntity
  8
ALPHA
100
AcDbPolyline
 90
        4
 70
     0
 43
0.0
 10
111.357554
 20
179.523806
 10
111.357554
 20
180.242063
 10
111.357554
 20
180.857922
 10
111.357554
 20
181.364004
  0
LINE
  5
3E
100
AcDbEntity
  8
ALPHA
100
AcDbLine
 10
109.557554
 20
179.523806
 30
0.0
 11
111.357554
 21
179.523806
 31
0.0
  0
LWPOLYLINE
  5
3F
100
AcDbEntity
  8
ALPHA
100
AcDbPolyline
 90
        4
 70
     0
 43
0.0
 10
112.757554
 20
177.512204
 10
112.337666
 20
178.149564
 10
111.871505
 20
178.819447
 10
111.357554
 20
179.523806
  0
LWPOLYLINE
  5
45
100
AcDbEntity
  8
ALPHA
100
AcDbPolyline
 90
        3
 70
     0
 43
0.0
 10
112.457554
 20
164.897568
 10
112.457554
 20
165.196622
 10
112.457554
 20
165.50325
  0
LINE
  5
4A
100
AcDbEntity
  8
ALPHA
100
AcDbLine
 10
106.857554
 20
180.182849
 30
0.0
 11
98.657554
 21
180.182849
 31
0.0
  0
LINE
  5
4B
100
AcDbEntity
  8
ALPHA
100
AcDbLine
 10
106.857554
 20
179.523806
 30
0.0
 11
98.657554
 21
179.523806
 31
0.0
  0
LINE
  5
4C
100
AcDbEntity
  8
ALPHA
100
AcDbLine
 10
103.320897
 20
181.797568
 30
0.0
 11
103.320897
 21
182.194138
 31
0.0
  0
LINE
  5
4D
100
AcDbEntity
  8
ALPHA
100
AcDbLine
 10
109.557554
 20
167.821377
 30
0.0
 11
110.192096
 21
167.821377
 31
0.0
  0
LWPOLYLINE
  5
4E
100
AcDbEntity
  8
ALPHA
100
AcDbPolyline
 90
        4
 70
     0
 43
0.0
 10
99.857554
 20
182.005332
 10
101.001734
 20
182.100023
 10
102.157939
 20
182.163122
 10
103.320897
 20
182.194138
  0
LWPOLYLINE
  5
54
100
AcDbEntity
  8
ALPHA
100
AcDbPolyline
 90
       12
 70
     0
 43
0.0
 10
87.057554
 20
157.447568
 10
87.057554
 20
157.592612
 10
87.057554
 20
158.024793
 10
87.057554
 20
158.735312
 10
87.057554
 20
159.709705
 10
87.057554
 20
160.928136
 10
87.057554
 20
162.365802
 10
87.057554
 20
163.993436
 10
87.057554
 20
165.777904
 10
87.057554
 20
167.682879
 10
87.057554
 20
169.669581
 10
87.057554
 20
171.697568
  0
LWPOLYLINE
  5
62
100
AcDbEntity
  8
ALPHA
100
AcDbPolyline
 90
       10
 70
     0
 43
0.0
 10
112.808999
 20
165.646122
 10
112.759282
 20
165.688463
 10
112.708431
 20
165.718023
 10
112.656707
 20
165.734556
 10
112.603647
 20
165.736067
 10
112.55249
 20
165.718569
 10
112.506287
 20
165.676924
 10
112.477095
 20
165.622472
 10
112.462133
 20
165.564186
 10
112.457554
 20
165.50325
  0
LWPOLYLINE
  5
6E
100
AcDbEntity
  8
ALPHA
100
AcDbPolyline
 90
        5
 70
     0
 43
0.0
 10
107.257554
 20
178.871653
 10
107.257554
 20
178.065287
 10
107.257554
 20
176.954552
 10
107.257554
 20
175.710946
 10
107.257554
 20
174.3659
  0
LINE
  5
75
100
AcDbEntity
  8
ALPHA
100
AcDbLine
 10
107.257554
 20
178.997527
 30
0.0
 11
107.257554
 21
178.871653
 31
0.0
  0
LINE
  5
76
100
AcDbEntity
  8
ALPHA
100
AcDbLine
 10
107.257554
 20
179.015075
 30
0.0
 11
107.257554
 21
178.997527
 31
0.0
  0
LINE
  5
77
100
AcDbEntity
  8
ALPHA
100
AcDbLine
 10
107.257554
 20
179.684275
 30
0.0
 11
107.257554
 21
179.015075
 31
0.0
  0
LWPOLYLINE
  5
78
100
AcDbEntity
  8
ALPHA
100
AcDbPolyline
 90
        5
 70
     0
 43
0.0
 10
107.257554
 20
180.797568
 10
107.257554
 20
180.682565
 10
107.257554
 20
180.340464
 10
107.257554
 20
179.779911
 10
107.257554
 20
179.684275
  0
LWPOLYLINE
  5
7F
100
AcDbEntity
  8
ALPHA
100
AcDbPolyline
 90
        3
 70
     0
 43
0.0
 10
111.607066
 20
181.797568
 10
112.139091
 20
181.257171
 10
112.657554
 20
180.729594
  0
LWPOLYLINE
  5
84
100
AcDbEntity
  8
ALPHA
100
AcDbPolyline
 90
        3
 70
     0
 43
0.0
 10
110.192096
 20
167.821377
 10
111.379423
 20
166.606438
 10
112.457554
 20
165.50325
  0
LWPOLYLINE
  5
89
100
AcDbEntity
  8
ALPHA
100
AcDbPolyline
 90
        6
 70
     0
 43
0.0
 10
110.368873
 20
168.08625
 10
110.373475
 20
168.058422
 10
110.35424
 20
168.011018
 10
110.313697
 20
167.950269
 10
110.257172
 20
167.884158
 10
110.192096
 20
167.821374
  0
LWPOLYLINE
  5
91
100
AcDbEntity
  8
ALPHA
100
AcDbPolyline
 90
        4
 70
     0
 43
0.0
 10
103.486733
 20
182.197568
 10
103.466478
 20
182.197008
 10
103.408772
 20
182.195629
 10
103.320897
 20
182.194138
  0
LWPOLYLINE
  5
97
100
AcDbEntity
  8
ALPHA
100
AcDbPolyline
 90
       13
 70
     0
 43
0.0
 10
109.854
 20
168.497568
 10
109.855574
 20
168.494421
 10
109.860431
 20
168.484705
 10
109.869003
 20
168.467563
 10
109.881967
 20
168.441636
 10
109.900182
 20
168.405206
 10
109.924543
 20
168.356485
 10
109.955756
 20
168.294058
 10
109.993988
 20
168.217594
 10
110.038459
 20
168.128649
 10
110.087723
 20
168.030129
 10
110.139763
 20
167.926026
 10
110.192096
 20
167.821377
  0
LINE
  5
A6
100
AcDbEntity
  8
ALPHA
100
AcDbLine
 10
109.557554
 20
177.512204
 30
0.0
 11
112.757554
 21
177.512204
 31
0.0
  0
LWPOLYLINE
  5
A7
100
AcDbEntity
  8
ALPHA
100
AcDbPolyline
 90
        5
 70
     0
 43
0.0
 10
107.257554
 20
164.523482
 10
107.257554
 20
165.329849
 10
107.257554
 20
166.440583
 10
107.257554
 20
167.684189
 10
107.257554
 20
169.029235
  0
LINE
  5
AE
100
AcDbEntity
  8
ALPHA
100
AcDbLine
 10
107.257554
 20
164.397608
 30
0.0
 11
107.257554
 21
164.523482
 31
0.0
  0
LINE
  5
AF
100
AcDbEntity
  8
ALPHA
100
AcDbLine
 10
107.257554
 20
164.38006
 30
0.0
 11
107.257554
 21
164.397608
 31
0.0
  0
LINE
  5
B0
100
AcDbEntity
  8
ALPHA
100
AcDbLine
 10
107.257554
 20
163.71086
 30
0.0
 11
107.257554
 21
164.38006
 31
0.0
  0
LWPOLYLINE
  5
B1
100
AcDbEntity
  8
ALPHA
100
AcDbPolyline
 90
        5
 70
     0
 43
0.0
 10
107.257554
 20
162.597568
 10
107.257554
 20
162.71257
 10
107.257554
 20
163.054671
 10
107.257554
 20
163.615224
 10
107.257554
 20
163.71086
  0
LINE
  5
B8
100
AcDbEntity
  8
ALPHA
100
AcDbLine
 10
112.757554
 20
174.3659
 30
0.0
 11
107.257554
 21
174.3659
 31
0.0
  0
LINE
  5
B9
100
AcDbEntity
  8
ALPHA
100
AcDbLine
 10
92.657554
 20
170.197568
 30
0.0
 11
92.657554
 21
171.697568
 31
0.0
  0
LINE
  5
BA
100
AcDbEntity
  8
ALPHA
100
AcDbLine
 10
92.657554
 20
171.697568
 30
0.0
 11
92.657554
 21
173.197568
 31
0.0
  0
LINE
  5
BB
100
AcDbEntity
  8
ALPHA
100
AcDbLine
 10
94.057554
 20
170.075083
 30
0.0
 11
92.657554
 21
170.197568
 31
0.0
  0
LINE
  5
BC
100
AcDbEntity
  8
ALPHA
100
AcDbLine
 10
94.057554
 20
173.320052
 30
0.0
 11
92.657554
 21
173.197568
 31
0.0
  0
LINE
  5
BD
100
AcDbEntity
  8
ALPHA
100
AcDbLine
 10
107.257554
 20
169.029235
 30
0.0
 11
107.257554
 21
171.697568
 31
0.0
  0
LINE
  5
BE
100
AcDbEntity
  8
ALPHA
100
AcDbLine
 10
106.857554
 20
181.797568
 30
0.0
 11
98.657554
 21
181.797568
 31
0.0
  0
LINE
  5
BF
100
AcDbEntity
  8
ALPHA
100
AcDbLine
 10
107.257554
 20
174.3659
 30
0.0
 11
107.257554
 21
171.697568
 31
0.0
  0
LINE
  5
C0
100
AcDbEntity
  8
ALPHA
100
AcDbLine
 10
106.857554
 20
161.597568
 30
0.0
 11
99.857554
 21
161.597568
 31
0.0
  0
LINE
  5
C1
100
AcDbEntity
  8
ALPHA
100
AcDbLine
 10
99.857554
 20
181.797568
 30
0.0
 11
99.857554
 21
182.005332
 31
0.0
  0
LINE
  5
C2
100
AcDbEntity
  8
ALPHA
100
AcDbLine
 10
98.657554
 20
179.523806
 30
0.0
 11
98.657554
 21
180.182849
 31
0.0
  0
LINE
  5
C3
100
AcDbEntity
  8
ALPHA
100
AcDbLine
 10
98.657554
 20
180.182849
 30
0.0
 11
98.657554
 21
181.797568
 31
0.0
  0
LINE
  5
C4
100
AcDbEntity
  8
ALPHA
100
AcDbLine
 10
98.657554
 20
164.897568
 30
0.0
 11
106.857554
 21
164.897568
 31
0.0
  0
LINE
  5
C5
100
AcDbEntity
  8
ALPHA
100
AcDbLine
 10
98.657554
 20
168.497568
 30
0.0
 11
106.857554
 21
168.497568
 31
0.0
  0
LINE
  5
C6
100
AcDbEntity
  8
ALPHA
100
AcDbLine
 10
98.657554
 20
168.497568
 30
0.0
 11
98.657554
 21
164.897568
 31
0.0
  0
LWPOLYLINE
  5
C7
100
AcDbEntity
  8
ALPHA
100
AcDbPolyline
 90
        4
 70
     0
 43
0.0
 10
112.957554
 20
179.596935
 10
112.450475
 20
180.164157
 10
111.917191
 20
180.752997
 10
111.357554
 20
181.364004
  0
LINE
  5
CD
100
AcDbEntity
  8
ALPHA
100
AcDbLine
 10
111.357554
 20
181.364004
 30
0.0
 11
110.457554
 21
181.364004
 31
0.0
  0
LINE
  5
CE
100
AcDbEntity
  8
ALPHA
100
AcDbLine
 10
110.457554
 20
181.364004
 30
0.0
 11
110.457554
 21
181.797568
 31
0.0
  0
LINE
  5
CF
100
AcDbEntity
  8
ALPHA
100
AcDbLine
 10
112.657554
 20
180.729594
 30
0.0
 11
112.657554
 21
180.897482
 31
0.0
  0
LINE
  5
D0
100
AcDbEntity
  8
ALPHA
100
AcDbLine
 10
112.657554
 20
179.932517
 30
0.0
 11
112.657554
 21
180.729594
 31
0.0
  0
LINE
  5
D1
100
AcDbEntity
  8
ALPHA
100
AcDbLine
 10
112.957554
 20
163.106293
 30
0.0
 11
111.257554
 21
163.106293
 31
0.0
  0
LINE
  5
D2
100
AcDbEntity
  8
ALPHA
100
AcDbLine
 10
112.841386
 20
165.613735
 30
0.0
 11
112.808998
 21
165.646123
 31
0.0
  0
LINE
  5
D3
100
AcDbEntity
  8
ALPHA
100
AcDbLine
 10
112.957554
 20
173.573734
 30
0.0
 11
112.957554
 21
165.818792
 31
0.0
  0
LINE
  5
D4
100
AcDbEntity
  8
ALPHA
100
AcDbLine
 10
109.557554
 20
181.797568
 30
0.0
 11
110.457554
 21
181.797568
 31
0.0
  0
LINE
  5
D5
100
AcDbEntity
  8
ALPHA
100
AcDbLine
 10
110.457554
 20
181.797568
 30
0.0
 11
111.607066
 21
181.797568
 31
0.0
  0
LINE
  5
D6
100
AcDbEntity
  8
ALPHA
100
AcDbLine
 10
111.607066
 20
181.797568
 30
0.0
 11
111.757554
 21
181.797568
 31
0.0
  0
LINE
  5
D7
100
AcDbEntity
  8
ALPHA
100
AcDbLine
 10
112.957554
 20
164.897568
 30
0.0
 11
112.457554
 21
164.897568
 31
0.0
  0
LINE
  5
D8
100
AcDbEntity
  8
ALPHA
100
AcDbLine
 10
112.457554
 20
164.897568
 30
0.0
 11
109.557554
 21
164.897568
 31
0.0
  0
LWPOLYLINE
  5
D9
100
AcDbEntity
  8
ALPHA
100
AcDbPolyline
 90
       12
 70
     0
 43
0.0
 10
86.58485
 20
171.697568
 10
86.58485
 20
169.897408
 10
86.58485
 20
168.133894
 10
86.58485
 20
166.442926
 10
86.58485
 20
164.858928
 10
86.58485
 20
163.414145
 10
86.58485
 20
162.137988
 10
86.58485
 20
161.056437
 10
86.58485
 20
160.191508
 10
86.58485
 20
159.56081
 10
86.58485
 20
159.177181
 10
86.58485
 20
159.048431
  0
LINE
  5
E7
100
AcDbEntity
  8
ALPHA
100
AcDbLine
 10
109.557554
 20
167.821377
 30
0.0
 11
109.557554
 21
168.497568
 31
0.0
  0
LINE
  5
E8
100
AcDbEntity
  8
ALPHA
100
AcDbLine
 10
109.557554
 20
168.497568
 30
0.0
 11
109.854
 21
168.497568
 31
0.0
  0
LINE
  5
E9
100
AcDbEntity
  8
ALPHA
100
AcDbLine
 10
110.368872
 20
168.086249
 30
0.0
 11
112.808998
 21
165.646123
 31
0.0
  0
LINE
  5
EA
100
AcDbEntity
  8
ALPHA
100
AcDbLine
 10
112.957554
 20
163.106293
 30
0.0
 11
112.957554
 21
164.897568
 31
0.0
  0
LINE
  5
EB
100
AcDbEntity
  8
ALPHA
100
AcDbLine
 10
110.030777
 20
168.424344
 30
0.0
 11
110.368872
 21
168.086249
 31
0.0
  0
ARC
  5
EC
100
AcDbEntity
  8
ALPHA
100
AcDbCircle
 10
109.854
 20
168.247568
 30
0.0
 40
0.25
100
AcDbArc
 50
45.000003
 51
90.000002
  0
LINE
  5
ED
100
AcDbEntity
  8
ALPHA
100
AcDbLine
 10
112.957554
 20
173.573734
 30
0.0
 11
112.957554
 21
179.596935
 31
0.0
  0
LINE
  5
EE
100
AcDbEntity
  8
ALPHA
100
AcDbLine
 10
112.957554
 20
164.897568
 30
0.0
 11
112.957554
 21
165.818792
 31
0.0
  0
LINE
  5
EF
100
AcDbEntity
  8
ALPHA
100
AcDbLine
 10
94.057554
 20
157.447568
 30
0.0
 11
87.057554
 21
157.447568
 31
0.0
  0
LINE
  5
F0
100
AcDbEntity
  8
ALPHA
100
AcDbLine
 10
94.057554
 20
167.128104
 30
0.0
 11
94.057554
 21
170.075083
 31
0.0
  0
LINE
  5
F1
100
AcDbEntity
  8
ALPHA
100
AcDbLine
 10
94.057554
 20
166.746053
 30
0.0
 11
94.057554
 21
167.128104
 31
0.0
  0
LINE
  5
F2
100
AcDbEntity
  8
ALPHA
100
AcDbLine
 10
94.057554
 20
166.598548
 30
0.0
 11
94.057554
 21
166.746053
 31
0.0
  0
LINE
  5
F3
100
AcDbEntity
  8
ALPHA
100
AcDbLine
 10
94.057554
 20
162.197568
 30
0.0
 11
94.057554
 21
166.598548
 31
0.0
  0
LINE
  5
F4
100
AcDbEntity
  8
ALPHA
100
AcDbLine
 10
94.057554
 20
161.896166
 30
0.0
 11
94.057554
 21
162.197568
 31
0.0
  0
LINE
  5
F5
100
AcDbEntity
  8
ALPHA
100
AcDbLine
 10
94.057554
 20
161.633184
 30
0.0
 11
94.057554
 21
161.896166
 31
0.0
  0
LINE
  5
F6
100
AcDbEntity
  8
ALPHA
100
AcDbLine
 10
94.057554
 20
161.597568
 30
0.0
 11
94.057554
 21
161.633184
 31
0.0
  0
LINE
  5
F7
100
AcDbEntity
  8
ALPHA
100
AcDbLine
 10
94.057554
 20
159.797639
 30
0.0
 11
94.057554
 21
161.597568
 31
0.0
  0
LINE
  5
F8
100
AcDbEntity
  8
ALPHA
100
AcDbLine
 10
94.057554
 20
159.647568
 30
0.0
 11
94.057554
 21
159.797639
 31
0.0
  0
LINE
  5
F9
100
AcDbEntity
  8
ALPHA
100
AcDbLine
 10
94.057554
 20
158.295665
 30
0.0
 11
94.057554
 21
159.647568
 31
0.0
  0
LINE
  5
FA
100
AcDbEntity
  8
ALPHA
100
AcDbLine
 10
94.057554
 20
158.197568
 30
0.0
 11
94.057554
 21
158.295665
 31
0.0
  0
LINE
  5
FB
100
AcDbEntity
  8
ALPHA
100
AcDbLine
 10
94.057554
 20
157.447549
 30
0.0
 11
94.057554
 21
158.197568
 31
0.0
  0
LINE
  5
FC
100
AcDbEntity
  8
ALPHA
100
AcDbLine
 10
109.557554
 20
164.897568
 30
0.0
 11
109.557554
 21
167.821377
 31
0.0
  0
LINE
  5
FD
100
AcDbEntity
  8
ALPHA
100
AcDbLine
 10
99.857554
 20
161.197568
 30
0.0
 11
98.057554
 21
161.197568
 31
0.0
  0
LINE
  5
FE
100
AcDbEntity
  8
ALPHA
100
AcDbLine
 10
109.557554
 20
169.029235
 30
0.0
 11
109.557554
 21
168.497568
 31
0.0
  0
LINE
  5
FF
100
AcDbEntity
  8
ALPHA
100
AcDbLine
 10
99.857554
 20
161.197568
 30
0.0
 11
99.857554
 21
161.597568
 31
0.0
  0
LINE
  5
100
100
AcDbEntity
  8
ALPHA
100
AcDbLine
 10
111.257554
 20
162.597568
 30
0.0
 11
107.257554
 21
162.597568
 31
0.0
  0
LINE
  5
101
100
AcDbEntity
  8
ALPHA
100
AcDbLine
 10
111.257554
 20
162.597637
 30
0.0
 11
111.257554
 21
163.106293
 31
0.0
  0
LINE
  5
102
100
AcDbEntity
  8
ALPHA
100
AcDbLine
 10
109.557554
 20
179.523806
 30
0.0
 11
109.557554
 21
177.512204
 31
0.0
  0
LINE
  5
103
100
AcDbEntity
  8
ALPHA
100
AcDbLine
 10
109.557554
 20
179.523806
 30
0.0
 11
109.557554
 21
181.797568
 31
0.0
  0
LINE
  5
104
100
AcDbEntity
  8
ALPHA
100
AcDbLine
 10
94.057554
 20
185.947568
 30
0.0
 11
87.057554
 21
185.947568
 31
0.0
  0
LINE
  5
105
100
AcDbEntity
  8
ALPHA
100
AcDbLine
 10
94.057554
 20
176.796587
 30
0.0
 11
94.057554
 21
173.320052
 31
0.0
  0
LINE
  5
106
100
AcDbEntity
  8
ALPHA
100
AcDbLine
 10
94.057554
 20
180.337157
 30
0.0
 11
94.057554
 21
176.796587
 31
0.0
  0
LINE
  5
107
100
AcDbEntity
  8
ALPHA
100
AcDbLine
 10
94.057554
 20
180.536544
 30
0.0
 11
94.057554
 21
180.337157
 31
0.0
  0
LINE
  5
108
100
AcDbEntity
  8
ALPHA
100
AcDbLine
 10
94.057554
 20
180.545166
 30
0.0
 11
94.057554
 21
180.536544
 31
0.0
  0
LINE
  5
109
100
AcDbEntity
  8
ALPHA
100
AcDbLine
 10
94.057554
 20
181.498969
 30
0.0
 11
94.057554
 21
180.545166
 31
0.0
  0
LINE
  5
10A
100
AcDbEntity
  8
ALPHA
100
AcDbLine
 10
94.057554
 20
181.797568
 30
0.0
 11
94.057554
 21
181.498969
 31
0.0
  0
LINE
  5
10B
100
AcDbEntity
  8
ALPHA
100
AcDbLine
 10
94.057554
 20
182.257555
 30
0.0
 11
94.057554
 21
181.797568
 31
0.0
  0
LINE
  5
10C
100
AcDbEntity
  8
ALPHA
100
AcDbLine
 10
94.057554
 20
182.297568
 30
0.0
 11
94.057554
 21
182.257555
 31
0.0
  0
LINE
  5
10D
100
AcDbEntity
  8
ALPHA
100
AcDbLine
 10
94.057554
 20
183.644995
 30
0.0
 11
94.057554
 21
182.297568
 31
0.0
  0
LINE
  5
10E
100
AcDbEntity
  8
ALPHA
100
AcDbLine
 10
94.057554
 20
183.79751
 30
0.0
 11
94.057554
 21
183.644995
 31
0.0
  0
LINE
  5
10F
100
AcDbEntity
  8
ALPHA
100
AcDbLine
 10
94.057554
 20
184.397568
 30
0.0
 11
94.057554
 21
183.79751
 31
0.0
  0
LINE
  5
110
100
AcDbEntity
  8
ALPHA
100
AcDbLine
 10
94.057554
 20
185.09947
 30
0.0
 11
94.057554
 21
184.397568
 31
0.0
  0
LINE
  5
111
100
AcDbEntity
  8
ALPHA
100
AcDbLine
 10
94.057554
 20
185.197549
 30
0.0
 11
94.057554
 21
185.09947
 31
0.0
  0
LINE
  5
112
100
AcDbEntity
  8
ALPHA
100
AcDbLine
 10
94.057554
 20
185.947586
 30
0.0
 11
94.057554
 21
185.197549
 31
0.0
  0
LINE
  5
113
100
AcDbEntity
  8
ALPHA
100
AcDbLine
 10
103.320897
 20
182.197568
 30
0.0
 11
98.057554
 21
182.197568
 31
0.0
  0
LINE
  5
114
100
AcDbEntity
  8
ALPHA
100
AcDbLine
 10
109.557554
 20
180.797568
 30
0.0
 11
107.257554
 21
180.797568
 31
0.0
  0
LWPOLYLINE
  5
115
100
AcDbEntity
  8
ALPHA
100
AcDbPolyline
 90
       12
 70
     0
 43
0.0
 10
86.58485
 20
184.346704
 10
86.58485
 20
184.217954
 10
86.58485
 20
183.834325
 10
86.58485
 20
183.203627
 10
86.58485
 20
182.338698
 10
86.58485
 20
181.257147
 10
86.58485
 20
179.98099
 10
86.58485
 20
178.536207
 10
86.58485
 20
176.952209
 10
86.58485
 20
175.261241
 10
86.58485
 20
173.497727
 10
86.58485
 20
171.697568
  0
LINE
  5
123
100
AcDbEntity
  8
ALPHA
100
AcDbLine
 10
107.257554
 20
162.597568
 30
0.0
 11
106.857554
 21
162.197568
 31
0.0
  0
LINE
  5
124
100
AcDbEntity
  8
ALPHA
100
AcDbLine
 10
107.257554
 20
180.797568
 30
0.0
 11
106.857554
 21
181.197568
 31
0.0
  0
LINE
  5
125
100
AcDbEntity
  8
ALPHA
100
AcDbLine
 10
106.857554
 20
181.797568
 30
0.0
 11
106.857554
 21
180.182849
 31
0.0
  0
LINE
  5
126
100
AcDbEntity
  8
ALPHA
100
AcDbLine
 10
106.857554
 20
180.182849
 30
0.0
 11
106.857554
 21
179.523786
 31
0.0
  0
LINE
  5
127
100
AcDbEntity
  8
ALPHA
100
AcDbLine
 10
106.857554
 20
179.523786
 30
0.0
 11
106.857554
 21
171.697568
 31
0.0
  0
LINE
  5
128
100
AcDbEntity
  8
ALPHA
100
AcDbLine
 10
106.857554
 20
168.497568
 30
0.0
 11
106.857554
 21
171.697568
 31
0.0
  0
LINE
  5
129
100
AcDbEntity
  8
ALPHA
100
AcDbLine
 10
106.857554
 20
168.497568
 30
0.0
 11
106.857554
 21
164.897568
 31
0.0
  0
LINE
  5
12A
100
AcDbEntity
  8
ALPHA
100
AcDbLine
 10
106.857554
 20
161.597568
 30
0.0
 11
106.857554
 21
164.897568
 31
0.0
  0
LINE
  5
12B
100
AcDbEntity
  8
ALPHA
100
AcDbLine
 10
86.58485
 20
184.346704
 30
0.0
 11
87.057554
 21
185.947568
 31
0.0
  0
LINE
  5
12C
100
AcDbEntity
  8
ALPHA
100
AcDbLine
 10
86.58485
 20
159.048431
 30
0.0
 11
87.057554
 21
157.447568
 31
0.0
  0
LINE
  5
12D
100
AcDbEntity
  8
ALPHA
100
AcDbLine
 10
111.75755
 20
181.797571
 30
0.0
 11
112.657554
 21
180.897568
 31
0.0
  0
LINE
  5
12E
100
AcDbEntity
  8
ALPHA
100
AcDbLine
 10
103.486733
 20
182.197568
 30
0.0
 11
103.486733
 21
181.797568
 31
0.0
  0
LINE
  5
12F
100
AcDbEntity
  8
ALPHA
100
AcDbLine
 10
94.057554
 20
173.320052
 30
0.0
 11
94.057554
 21
170.075083
 31
0.0
  0
LINE
  5
130
100
AcDbEntity
  8
ALPHA
100
AcDbLine
 10
86.58485
 20
159.373253
 30
0.0
 11
83.907554
 21
159.373253
 31
0.0
  0
LWPOLYLINE
  5
131
100
AcDbEntity
  8
ALPHA
100
AcDbPolyline
 90
        4
 70
     0
 43
0.0
 10
81.623876
 20
171.697568
 10
81.624501
 20
172.031286
 10
81.626386
 20
172.364621
 10
81.629575
 20
172.697568
  0
LINE
  5
137
100
AcDbEntity
  8
ALPHA
100
AcDbLine
 10
86.58485
 20
170.901472
 30
0.0
 11
83.907554
 21
170.901472
 31
0.0
  0
LINE
  5
138
100
AcDbEntity
  8
ALPHA
100
AcDbLine
 10
86.58485
 20
159.523981
 30
0.0
 11
83.907554
 21
159.523981
 31
0.0
  0
LINE
  5
139
100
AcDbEntity
  8
ALPHA
100
AcDbLine
 10
83.907554
 20
159.727547
 30
0.0
 11
86.58485
 21
159.727547
 31
0.0
  0
LWPOLYLINE
  5
13A
100
AcDbEntity
  8
ALPHA
100
AcDbPolyline
 90
       15
 70
     0
 43
0.0
 10
81.928298
 20
159.7996
 10
81.928298
 20
159.866619
 10
81.928298
 20
160.06692
 10
81.928298
 20
160.398246
 10
81.928298
 20
160.856866
 10
81.928298
 20
161.437612
 10
81.928298
 20
162.133943
 10
81.928298
 20
162.938013
 10
81.928298
 20
163.840764
 10
81.928298
 20
164.832027
 10
81.928298
 20
165.900634
 10
81.928298
 20
167.034546
 10
81.928298
 20
168.22099
 10
81.928298
 20
169.4466
 10
81.928298
 20
170.697568
  0
LINE
  5
14B
100
AcDbEntity
  8
ALPHA
100
AcDbLine
 10
86.58485
 20
159.808086
 30
0.0
 11
83.907554
 21
159.808086
 31
0.0
  0
LWPOLYLINE
  5
14C
100
AcDbEntity
  8
ALPHA
100
AcDbPolyline
 90
       15
 70
     0
 43
0.0
 10
81.928298
 20
183.595245
 10
81.928298
 20
183.528516
 10
81.928298
 20
183.328216
 10
81.928298
 20
182.996889
 10
81.928298
 20
182.538269
 10
81.928298
 20
181.957523
 10
81.928298
 20
181.261192
 10
81.928298
 20
180.457122
 10
81.928298
 20
179.554371
 10
81.928298
 20
178.563108
 10
81.928298
 20
177.494502
 10
81.928298
 20
176.360589
 10
81.928298
 20
175.174145
 10
81.928298
 20
173.948536
 10
81.928298
 20
172.697568
  0
LINE
  5
15D
100
AcDbEntity
  8
ALPHA
100
AcDbLine
 10
81.928298
 20
183.595535
 30
0.0
 11
81.928298
 21
183.595245
 31
0.0
  0
LINE
  5
15E
100
AcDbEntity
  8
ALPHA
100
AcDbLine
 10
83.907554
 20
160.010908
 30
0.0
 11
86.58485
 21
160.010908
 31
0.0
  0
LINE
  5
15F
100
AcDbEntity
  8
ALPHA
100
AcDbLine
 10
86.58485
 20
160.222455
 30
0.0
 11
83.907554
 21
160.222455
 31
0.0
  0
LWPOLYLINE
  5
160
100
AcDbEntity
  8
ALPHA
100
AcDbPolyline
 90
        4
 70
     0
 43
0.0
 10
81.629575
 20
170.697568
 10
81.626386
 20
171.030521
 10
81.624501
 20
171.363856
 10
81.623876
 20
171.697568
  0
LINE
  5
166
100
AcDbEntity
  8
ALPHA
100
AcDbLine
 10
83.907554
 20
160.42231
 30
0.0
 11
86.58485
 21
160.42231
 31
0.0
  0
LWPOLYLINE
  5
167
100
AcDbEntity
  8
ALPHA
100
AcDbPolyline
 90
       16
 70
     0
 43
0.0
 10
82.057554
 20
159.347568
 10
82.057554
 20
159.363859
 10
82.057554
 20
159.493934
 10
82.057554
 20
159.752713
 10
82.057554
 20
160.137465
 10
82.057554
 20
160.644134
 10
82.057554
 20
161.267376
 10
82.057554
 20
162.000618
 10
82.057554
 20
162.836127
 10
82.057554
 20
163.765091
 10
82.057554
 20
164.777714
 10
82.057554
 20
165.863316
 10
82.057554
 20
167.010448
 10
82.057554
 20
168.207011
 10
82.057554
 20
169.440387
 10
82.057554
 20
170.697568
  0
LINE
  5
179
100
AcDbEntity
  8
ALPHA
100
AcDbLine
 10
86.58485
 20
160.762547
 30
0.0
 11
83.907554
 21
160.762547
 31
0.0
  0
LINE
  5
17A
100
AcDbEntity
  8
ALPHA
100
AcDbLine
 10
86.157554
 20
160.957247
 30
0.0
 11
86.58485
 21
160.957247
 31
0.0
  0
LINE
  5
17B
100
AcDbEntity
  8
ALPHA
100
AcDbLine
 10
83.907554
 20
160.957247
 30
0.0
 11
86.157554
 21
160.957247
 31
0.0
  0
LINE
  5
17C
100
AcDbEntity
  8
ALPHA
100
AcDbLine
 10
86.58485
 20
161.422446
 30
0.0
 11
83.907554
 21
161.422446
 31
0.0
  0
LINE
  5
17D
100
AcDbEntity
  8
ALPHA
100
AcDbLine
 10
86.58485
 20
163.071509
 30
0.0
 11
83.907554
 21
163.071509
 31
0.0
  0
LINE
  5
17E
100
AcDbEntity
  8
ALPHA
100
AcDbLine
 10
83.907554
 20
163.238285
 30
0.0
 11
86.58485
 21
163.238285
 31
0.0
  0
LINE
  5
17F
100
AcDbEntity
  8
ALPHA
100
AcDbLine
 10
86.58485
 20
164.042606
 30
0.0
 11
83.907554
 21
164.042606
 31
0.0
  0
LINE
  5
180
100
AcDbEntity
  8
ALPHA
100
AcDbLine
 10
83.907554
 20
164.196262
 30
0.0
 11
86.58485
 21
164.196262
 31
0.0
  0
LINE
  5
181
100
AcDbEntity
  8
ALPHA
100
AcDbLine
 10
86.58485
 20
165.097572
 30
0.0
 11
83.907554
 21
165.097572
 31
0.0
  0
LINE
  5
182
100
AcDbEntity
  8
ALPHA
100
AcDbLine
 10
83.907554
 20
165.236424
 30
0.0
 11
86.58485
 21
165.236424
 31
0.0
  0
LINE
  5
183
100
AcDbEntity
  8
ALPHA
100
AcDbLine
 10
86.58485
 20
166.224849
 30
0.0
 11
83.907554
 21
166.224849
 31
0.0
  0
LINE
  5
184
100
AcDbEntity
  8
ALPHA
100
AcDbLine
 10
83.907554
 20
166.347377
 30
0.0
 11
86.58485
 21
166.347377
 31
0.0
  0
LINE
  5
185
100
AcDbEntity
  8
ALPHA
100
AcDbLine
 10
86.58485
 20
167.412087
 30
0.0
 11
83.907554
 21
167.412087
 31
0.0
  0
LINE
  5
186
100
AcDbEntity
  8
ALPHA
100
AcDbLine
 10
83.907554
 20
167.516947
 30
0.0
 11
86.58485
 21
167.516947
 31
0.0
  0
LINE
  5
187
100
AcDbEntity
  8
ALPHA
100
AcDbLine
 10
86.58485
 20
168.646277
 30
0.0
 11
83.907554
 21
168.646277
 31
0.0
  0
LINE
  5
188
100
AcDbEntity
  8
ALPHA
100
AcDbLine
 10
83.907554
 20
168.73232
 30
0.0
 11
86.58485
 21
168.73232
 31
0.0
  0
LINE
  5
189
100
AcDbEntity
  8
ALPHA
100
AcDbLine
 10
83.907554
 20
169.614038
 30
0.0
 11
86.58485
 21
169.614038
 31
0.0
  0
LINE
  5
18A
100
AcDbEntity
  8
ALPHA
100
AcDbLine
 10
86.58485
 20
169.913898
 30
0.0
 11
83.907554
 21
169.913898
 31
0.0
  0
LINE
  5
18B
100
AcDbEntity
  8
ALPHA
100
AcDbLine
 10
83.907554
 20
169.980182
 30
0.0
 11
86.58485
 21
169.980182
 31
0.0
  0
LINE
  5
18C
100
AcDbEntity
  8
ALPHA
100
AcDbLine
 10
83.907554
 20
170.87666
 30
0.0
 11
86.58485
 21
170.87666
 31
0.0
  0
LINE
  5
18D
100
AcDbEntity
  8
ALPHA
100
AcDbLine
 10
86.58485
 20
171.201061
 30
0.0
 11
83.907554
 21
171.201061
 31
0.0
  0
LINE
  5
18E
100
AcDbEntity
  8
ALPHA
100
AcDbLine
 10
83.907554
 20
171.24686
 30
0.0
 11
86.58485
 21
171.24686
 31
0.0
  0
LINE
  5
18F
100
AcDbEntity
  8
ALPHA
100
AcDbLine
 10
83.907554
 20
172.148275
 30
0.0
 11
86.58485
 21
172.148275
 31
0.0
  0
LINE
  5
190
100
AcDbEntity
  8
ALPHA
100
AcDbLine
 10
86.58485
 20
172.493663
 30
0.0
 11
83.907554
 21
172.493663
 31
0.0
  0
LINE
  5
191
100
AcDbEntity
  8
ALPHA
100
AcDbLine
 10
83.907554
 20
172.518476
 30
0.0
 11
86.58485
 21
172.518476
 31
0.0
  0
LINE
  5
192
100
AcDbEntity
  8
ALPHA
100
AcDbLine
 10
83.907554
 20
173.414953
 30
0.0
 11
86.58485
 21
173.414953
 31
0.0
  0
LINE
  5
193
100
AcDbEntity
  8
ALPHA
100
AcDbLine
 10
86.58485
 20
173.777544
 30
0.0
 11
83.907554
 21
173.777544
 31
0.0
  0
LINE
  5
194
100
AcDbEntity
  8
ALPHA
100
AcDbLine
 10
83.907554
 20
173.781097
 30
0.0
 11
86.58485
 21
173.781097
 31
0.0
  0
LINE
  5
195
100
AcDbEntity
  8
ALPHA
100
AcDbLine
 10
83.907554
 20
174.662815
 30
0.0
 11
86.58485
 21
174.662815
 31
0.0
  0
LINE
  5
196
100
AcDbEntity
  8
ALPHA
100
AcDbLine
 10
83.907554
 20
175.878189
 30
0.0
 11
86.58485
 21
175.878189
 31
0.0
  0
LINE
  5
197
100
AcDbEntity
  8
ALPHA
100
AcDbLine
 10
83.907554
 20
177.047759
 30
0.0
 11
86.58485
 21
177.047759
 31
0.0
  0
LINE
  5
198
100
AcDbEntity
  8
ALPHA
100
AcDbLine
 10
83.907554
 20
178.158711
 30
0.0
 11
86.58485
 21
178.158711
 31
0.0
  0
LINE
  5
199
100
AcDbEntity
  8
ALPHA
100
AcDbLine
 10
83.907554
 20
179.198873
 30
0.0
 11
86.58485
 21
179.198873
 31
0.0
  0
LINE
  5
19A
100
AcDbEntity
  8
ALPHA
100
AcDbLine
 10
83.907554
 20
161.609857
 30
0.0
 11
86.58485
 21
161.609857
 31
0.0
  0
LINE
  5
19B
100
AcDbEntity
  8
ALPHA
100
AcDbLine
 10
83.907554
 20
180.15685
 30
0.0
 11
86.58485
 21
180.15685
 31
0.0
  0
LINE
  5
19C
100
AcDbEntity
  8
ALPHA
100
AcDbLine
 10
83.907554
 20
181.022145
 30
0.0
 11
86.58485
 21
181.022145
 31
0.0
  0
LINE
  5
19D
100
AcDbEntity
  8
ALPHA
100
AcDbLine
 10
83.907554
 20
181.785278
 30
0.0
 11
86.58485
 21
181.785278
 31
0.0
  0
LINE
  5
19E
100
AcDbEntity
  8
ALPHA
100
AcDbLine
 10
86.157554
 20
182.437888
 30
0.0
 11
86.58485
 21
182.437888
 31
0.0
  0
LINE
  5
19F
100
AcDbEntity
  8
ALPHA
100
AcDbLine
 10
83.907554
 20
182.437888
 30
0.0
 11
86.157554
 21
182.437888
 31
0.0
  0
LINE
  5
1A0
100
AcDbEntity
  8
ALPHA
100
AcDbLine
 10
83.907554
 20
182.972825
 30
0.0
 11
86.58485
 21
182.972825
 31
0.0
  0
LINE
  5
1A1
100
AcDbEntity
  8
ALPHA
100
AcDbLine
 10
83.907554
 20
183.384227
 30
0.0
 11
86.58485
 21
183.384227
 31
0.0
  0
LINE
  5
1A2
100
AcDbEntity
  8
ALPHA
100
AcDbLine
 10
83.907554
 20
183.667589
 30
0.0
 11
86.58485
 21
183.667589
 31
0.0
  0
LWPOLYLINE
  5
1A3
100
AcDbEntity
  8
ALPHA
100
AcDbPolyline
 90
       16
 70
     0
 43
0.0
 10
82.057554
 20
184.047568
 10
82.057554
 20
184.031276
 10
82.057554
 20
183.901201
 10
82.057554
 20
183.642422
 10
82.057554
 20
183.25767
 10
82.057554
 20
182.751001
 10
82.057554
 20
182.127759
 10
82.057554
 20
181.394517
 10
82.057554
 20
180.559008
 10
82.057554
 20
179.630044
 10
82.057554
 20
178.617421
 10
82.057554
 20
177.531819
 10
82.057554
 20
176.384688
 10
82.057554
 20
175.188124
 10
82.057554
 20
173.954748
 10
82.057554
 20
172.697568
  0
LINE
  5
1B5
100
AcDbEntity
  8
ALPHA
100
AcDbLine
 10
86.58485
 20
172.194075
 30
0.0
 11
83.907554
 21
172.194075
 31
0.0
  0
LINE
  5
1B6
100
AcDbEntity
  8
ALPHA
100
AcDbLine
 10
86.58485
 20
173.481237
 30
0.0
 11
83.907554
 21
173.481237
 31
0.0
  0
LINE
  5
1B7
100
AcDbEntity
  8
ALPHA
100
AcDbLine
 10
86.58485
 20
174.748858
 30
0.0
 11
83.907554
 21
174.748858
 31
0.0
  0
LINE
  5
1B8
100
AcDbEntity
  8
ALPHA
100
AcDbLine
 10
86.58485
 20
175.983048
 30
0.0
 11
83.907554
 21
175.983048
 31
0.0
  0
LINE
  5
1B9
100
AcDbEntity
  8
ALPHA
100
AcDbLine
 10
86.58485
 20
177.170286
 30
0.0
 11
83.907554
 21
177.170286
 31
0.0
  0
LINE
  5
1BA
100
AcDbEntity
  8
ALPHA
100
AcDbLine
 10
86.58485
 20
178.297563
 30
0.0
 11
83.907554
 21
178.297563
 31
0.0
  0
LINE
  5
1BB
100
AcDbEntity
  8
ALPHA
100
AcDbLine
 10
86.58485
 20
179.352529
 30
0.0
 11
83.907554
 21
179.352529
 31
0.0
  0
LINE
  5
1BC
100
AcDbEntity
  8
ALPHA
100
AcDbLine
 10
86.58485
 20
180.323626
 30
0.0
 11
83.907554
 21
180.323626
 31
0.0
  0
LINE
  5
1BD
100
AcDbEntity
  8
ALPHA
100
AcDbLine
 10
86.58485
 20
181.200214
 30
0.0
 11
83.907554
 21
181.200214
 31
0.0
  0
LINE
  5
1BE
100
AcDbEntity
  8
ALPHA
100
AcDbLine
 10
86.58485
 20
181.972689
 30
0.0
 11
83.907554
 21
181.972689
 31
0.0
  0
LINE
  5
1BF
100
AcDbEntity
  8
ALPHA
100
AcDbLine
 10
86.58485
 20
182.632588
 30
0.0
 11
83.907554
 21
182.632588
 31
0.0
  0
LINE
  5
1C0
100
AcDbEntity
  8
ALPHA
100
AcDbLine
 10
86.58485
 20
183.17268
 30
0.0
 11
83.907554
 21
183.17268
 31
0.0
  0
LINE
  5
1C1
100
AcDbEntity
  8
ALPHA
100
AcDbLine
 10
86.58485
 20
183.587049
 30
0.0
 11
83.907554
 21
183.587049
 31
0.0
  0
LINE
  5
1C2
100
AcDbEntity
  8
ALPHA
100
AcDbLine
 10
86.58485
 20
183.871154
 30
0.0
 11
83.907554
 21
183.871154
 31
0.0
  0
LINE
  5
1C3
100
AcDbEntity
  8
ALPHA
100
AcDbLine
 10
86.58485
 20
184.021882
 30
0.0
 11
83.907554
 21
184.021882
 31
0.0
  0
LINE
  5
1C4
100
AcDbEntity
  8
ALPHA
100
AcDbLine
 10
86.58485
 20
169.617591
 30
0.0
 11
83.907554
 21
169.617591
 31
0.0
  0
LINE
  5
1C5
100
AcDbEntity
  8
ALPHA
100
AcDbLine
 10
83.907554
 20
159.373253
 30
0.0
 11
83.907554
 21
159.477051
 31
0.0
  0
LINE
  5
1C6
100
AcDbEntity
  8
ALPHA
100
AcDbLine
 10
83.907554
 20
159.523981
 30
0.0
 11
83.907554
 21
159.730441
 31
0.0
  0
LINE
  5
1C7
100
AcDbEntity
  8
ALPHA
100
AcDbLine
 10
83.907554
 20
160.010908
 30
0.0
 11
83.907554
 21
160.114945
 31
0.0
  0
LINE
  5
1C8
100
AcDbEntity
  8
ALPHA
100
AcDbLine
 10
83.907554
 20
159.808086
 30
0.0
 11
83.907554
 21
160.010908
 31
0.0
  0
LINE
  5
1C9
100
AcDbEntity
  8
ALPHA
100
AcDbLine
 10
83.907554
 20
160.42231
 30
0.0
 11
83.907554
 21
160.62635
 31
0.0
  0
LINE
  5
1CA
100
AcDbEntity
  8
ALPHA
100
AcDbLine
 10
83.907554
 20
160.415514
 30
0.0
 11
83.907554
 21
160.42231
 31
0.0
  0
LINE
  5
1CB
100
AcDbEntity
  8
ALPHA
100
AcDbLine
 10
83.907554
 20
160.222455
 30
0.0
 11
83.907554
 21
160.415514
 31
0.0
  0
LINE
  5
1CC
100
AcDbEntity
  8
ALPHA
100
AcDbLine
 10
83.907554
 20
160.957247
 30
0.0
 11
83.907554
 21
161.259054
 31
0.0
  0
LINE
  5
1CD
100
AcDbEntity
  8
ALPHA
100
AcDbLine
 10
83.907554
 20
160.762547
 30
0.0
 11
83.907554
 21
160.957247
 31
0.0
  0
LINE
  5
1CE
100
AcDbEntity
  8
ALPHA
100
AcDbLine
 10
83.907554
 20
161.422446
 30
0.0
 11
83.907554
 21
162.859377
 31
0.0
  0
LINE
  5
1CF
100
AcDbEntity
  8
ALPHA
100
AcDbLine
 10
82.257554
 20
171.697568
 30
0.0
 11
82.257554
 21
172.697568
 31
0.0
  0
LINE
  5
1D0
100
AcDbEntity
  8
ALPHA
100
AcDbLine
 10
82.257554
 20
170.697568
 30
0.0
 11
82.257554
 21
171.697568
 31
0.0
  0
LINE
  5
1D1
100
AcDbEntity
  8
ALPHA
100
AcDbLine
 10
82.257554
 20
172.697568
 30
0.0
 11
82.057554
 21
172.697568
 31
0.0
  0
LINE
  5
1D2
100
AcDbEntity
  8
ALPHA
100
AcDbLine
 10
82.257554
 20
170.697568
 30
0.0
 11
82.057554
 21
170.697568
 31
0.0
  0
LINE
  5
1D3
100
AcDbEntity
  8
ALPHA
100
AcDbLine
 10
83.907554
 20
184.037583
 30
0.0
 11
83.907554
 21
184.047568
 31
0.0
  0
LINE
  5
1D4
100
AcDbEntity
  8
ALPHA
100
AcDbLine
 10
83.907554
 20
183.918084
 30
0.0
 11
83.907554
 21
184.021882
 31
0.0
  0
LINE
  5
1D5
100
AcDbEntity
  8
ALPHA
100
AcDbLine
 10
83.907554
 20
183.664694
 30
0.0
 11
83.907554
 21
183.871154
 31
0.0
  0
LINE
  5
1D6
100
AcDbEntity
  8
ALPHA
100
AcDbLine
 10
83.907554
 20
183.384227
 30
0.0
 11
83.907554
 21
183.587049
 31
0.0
  0
LINE
  5
1D7
100
AcDbEntity
  8
ALPHA
100
AcDbLine
 10
83.907554
 20
183.280191
 30
0.0
 11
83.907554
 21
183.384227
 31
0.0
  0
LINE
  5
1D8
100
AcDbEntity
  8
ALPHA
100
AcDbLine
 10
83.907554
 20
182.980104
 30
0.0
 11
83.907554
 21
183.17268
 31
0.0
  0
LINE
  5
1D9
100
AcDbEntity
  8
ALPHA
100
AcDbLine
 10
83.907554
 20
182.972825
 30
0.0
 11
83.907554
 21
182.980104
 31
0.0
  0
LINE
  5
1DA
100
AcDbEntity
  8
ALPHA
100
AcDbLine
 10
83.907554
 20
182.768785
 30
0.0
 11
83.907554
 21
182.972825
 31
0.0
  0
LINE
  5
1DB
100
AcDbEntity
  8
ALPHA
100
AcDbLine
 10
83.907554
 20
182.437888
 30
0.0
 11
83.907554
 21
182.632588
 31
0.0
  0
LINE
  5
1DC
100
AcDbEntity
  8
ALPHA
100
AcDbLine
 10
83.907554
 20
182.136081
 30
0.0
 11
83.907554
 21
182.437888
 31
0.0
  0
LINE
  5
1DD
100
AcDbEntity
  8
ALPHA
100
AcDbLine
 10
83.907554
 20
181.38901
 30
0.0
 11
83.907554
 21
181.972689
 31
0.0
  0
LINE
  5
1DE
100
AcDbEntity
  8
ALPHA
100
AcDbLine
 10
83.907554
 20
180.535758
 30
0.0
 11
83.907554
 21
181.200214
 31
0.0
  0
LINE
  5
1DF
100
AcDbEntity
  8
ALPHA
100
AcDbLine
 10
83.907554
 20
179.585673
 30
0.0
 11
83.907554
 21
180.323626
 31
0.0
  0
LINE
  5
1E0
100
AcDbEntity
  8
ALPHA
100
AcDbLine
 10
83.907554
 20
178.549164
 30
0.0
 11
83.907554
 21
179.352529
 31
0.0
  0
LINE
  5
1E1
100
AcDbEntity
  8
ALPHA
100
AcDbLine
 10
83.907554
 20
177.437588
 30
0.0
 11
83.907554
 21
178.297563
 31
0.0
  0
LINE
  5
1E2
100
AcDbEntity
  8
ALPHA
100
AcDbLine
 10
83.907554
 20
176.263122
 30
0.0
 11
83.907554
 21
177.170286
 31
0.0
  0
LINE
  5
1E3
100
AcDbEntity
  8
ALPHA
100
AcDbLine
 10
83.907554
 20
175.038636
 30
0.0
 11
83.907554
 21
175.983048
 31
0.0
  0
LINE
  5
1E4
100
AcDbEntity
  8
ALPHA
100
AcDbLine
 10
83.907554
 20
173.777544
 30
0.0
 11
83.907554
 21
174.748858
 31
0.0
  0
LINE
  5
1E5
100
AcDbEntity
  8
ALPHA
100
AcDbLine
 10
83.907554
 20
172.493663
 30
0.0
 11
83.907554
 21
173.481237
 31
0.0
  0
LINE
  5
1E6
100
AcDbEntity
  8
ALPHA
100
AcDbLine
 10
83.907554
 20
171.697568
 30
0.0
 11
83.907554
 21
172.194075
 31
0.0
  0
LINE
  5
1E7
100
AcDbEntity
  8
ALPHA
100
AcDbLine
 10
83.907554
 20
171.201061
 30
0.0
 11
83.907554
 21
171.697568
 31
0.0
  0
LINE
  5
1E8
100
AcDbEntity
  8
ALPHA
100
AcDbLine
 10
83.907554
 20
169.913898
 30
0.0
 11
83.907554
 21
170.901472
 31
0.0
  0
LINE
  5
1E9
100
AcDbEntity
  8
ALPHA
100
AcDbLine
 10
83.907554
 20
168.646277
 30
0.0
 11
83.907554
 21
169.617591
 31
0.0
  0
LINE
  5
1EA
100
AcDbEntity
  8
ALPHA
100
AcDbLine
 10
83.907554
 20
167.412087
 30
0.0
 11
83.907554
 21
168.356499
 31
0.0
  0
LINE
  5
1EB
100
AcDbEntity
  8
ALPHA
100
AcDbLine
 10
83.907554
 20
166.224849
 30
0.0
 11
83.907554
 21
167.132013
 31
0.0
  0
LINE
  5
1EC
100
AcDbEntity
  8
ALPHA
100
AcDbLine
 10
83.907554
 20
165.097572
 30
0.0
 11
83.907554
 21
165.957548
 31
0.0
  0
LINE
  5
1ED
100
AcDbEntity
  8
ALPHA
100
AcDbLine
 10
83.907554
 20
164.042606
 30
0.0
 11
83.907554
 21
164.845971
 31
0.0
  0
LINE
  5
1EE
100
AcDbEntity
  8
ALPHA
100
AcDbLine
 10
83.907554
 20
163.071509
 30
0.0
 11
83.907554
 21
163.809462
 31
0.0
  0
LINE
  5
1EF
100
AcDbEntity
  8
ALPHA
100
AcDbLine
 10
86.58485
 20
175.038636
 30
0.0
 11
83.907554
 21
175.038636
 31
0.0
  0
LINE
  5
1F0
100
AcDbEntity
  8
ALPHA
100
AcDbLine
 10
86.58485
 20
176.263122
 30
0.0
 11
83.907554
 21
176.263122
 31
0.0
  0
LINE
  5
1F1
100
AcDbEntity
  8
ALPHA
100
AcDbLine
 10
86.58485
 20
177.437588
 30
0.0
 11
83.907554
 21
177.437588
 31
0.0
  0
LINE
  5
1F2
100
AcDbEntity
  8
ALPHA
100
AcDbLine
 10
86.58485
 20
178.549164
 30
0.0
 11
83.907554
 21
178.549164
 31
0.0
  0
LINE
  5
1F3
100
AcDbEntity
  8
ALPHA
100
AcDbLine
 10
86.58485
 20
179.585673
 30
0.0
 11
83.907554
 21
179.585673
 31
0.0
  0
LINE
  5
1F4
100
AcDbEntity
  8
ALPHA
100
AcDbLine
 10
86.58485
 20
180.535758
 30
0.0
 11
83.907554
 21
180.535758
 31
0.0
  0
LINE
  5
1F5
100
AcDbEntity
  8
ALPHA
100
AcDbLine
 10
86.58485
 20
181.38901
 30
0.0
 11
83.907554
 21
181.38901
 31
0.0
  0
LINE
  5
1F6
100
AcDbEntity
  8
ALPHA
100
AcDbLine
 10
86.58485
 20
182.136081
 30
0.0
 11
83.907554
 21
182.136081
 31
0.0
  0
LINE
  5
1F7
100
AcDbEntity
  8
ALPHA
100
AcDbLine
 10
86.58485
 20
182.768785
 30
0.0
 11
83.907554
 21
182.768785
 31
0.0
  0
LINE
  5
1F8
100
AcDbEntity
  8
ALPHA
100
AcDbLine
 10
86.58485
 20
183.280191
 30
0.0
 11
83.907554
 21
183.280191
 31
0.0
  0
LINE
  5
1F9
100
AcDbEntity
  8
ALPHA
100
AcDbLine
 10
86.58485
 20
183.664694
 30
0.0
 11
83.907554
 21
183.664694
 31
0.0
  0
LINE
  5
1FA
100
AcDbEntity
  8
ALPHA
100
AcDbLine
 10
86.58485
 20
183.918084
 30
0.0
 11
83.907554
 21
183.918084
 31
0.0
  0
LINE
  5
1FB
100
AcDbEntity
  8
ALPHA
100
AcDbLine
 10
86.58485
 20
184.037583
 30
0.0
 11
83.907554
 21
184.037583
 31
0.0
  0
LINE
  5
1FC
100
AcDbEntity
  8
ALPHA
100
AcDbLine
 10
81.928326
 20
172.697568
 30
0.0
 11
82.057554
 21
172.697568
 31
0.0
  0
LINE
  5
1FD
100
AcDbEntity
  8
ALPHA
100
AcDbLine
 10
81.557531
 20
171.697568
 30
0.0
 11
81.557531
 21
162.497568
 31
0.0
  0
LINE
  5
1FE
100
AcDbEntity
  8
ALPHA
100
AcDbLine
 10
81.629575
 20
172.697568
 30
0.0
 11
81.928326
 21
172.697568
 31
0.0
  0
ARC
  5
1FF
100
AcDbEntity
  8
ALPHA
100
AcDbCircle
 10
91.557531
 20
162.497568
 30
0.0
 40
10.0
100
AcDbArc
 50
180.0
 51
195.652079
  0
LINE
  5
200
100
AcDbEntity
  8
ALPHA
100
AcDbLine
 10
86.58485
 20
162.859377
 30
0.0
 11
83.907554
 21
162.859377
 31
0.0
  0
LINE
  5
201
100
AcDbEntity
  8
ALPHA
100
AcDbLine
 10
86.58485
 20
163.809462
 30
0.0
 11
83.907554
 21
163.809462
 31
0.0
  0
LINE
  5
202
100
AcDbEntity
  8
ALPHA
100
AcDbLine
 10
86.58485
 20
164.845971
 30
0.0
 11
83.907554
 21
164.845971
 31
0.0
  0
LINE
  5
203
100
AcDbEntity
  8
ALPHA
100
AcDbLine
 10
86.58485
 20
165.957548
 30
0.0
 11
83.907554
 21
165.957548
 31
0.0
  0
LINE
  5
204
100
AcDbEntity
  8
ALPHA
100
AcDbLine
 10
86.58485
 20
167.132013
 30
0.0
 11
83.907554
 21
167.132013
 31
0.0
  0
LINE
  5
205
100
AcDbEntity
  8
ALPHA
100
AcDbLine
 10
86.58485
 20
168.356499
 30
0.0
 11
83.907554
 21
168.356499
 31
0.0
  0
LINE
  5
206
100
AcDbEntity
  8
ALPHA
100
AcDbLine
 10
82.057554
 20
159.347568
 30
0.0
 11
81.928298
 21
159.7996
 31
0.0
  0
LINE
  5
207
100
AcDbEntity
  8
ALPHA
100
AcDbLine
 10
83.907554
 20
159.347568
 30
0.0
 11
82.057554
 21
159.347568
 31
0.0
  0
LINE
  5
208
100
AcDbEntity
  8
ALPHA
100
AcDbLine
 10
83.907554
 20
159.347568
 30
0.0
 11
83.907554
 21
159.357552
 31
0.0
  0
LINE
  5
209
100
AcDbEntity
  8
ALPHA
100
AcDbLine
 10
81.557531
 20
180.87612
 30
0.0
 11
81.557531
 21
171.697568
 31
0.0
  0
LINE
  5
20A
100
AcDbEntity
  8
ALPHA
100
AcDbLine
 10
81.557531
 20
180.87612
 30
0.0
 11
81.557531
 21
180.897568
 31
0.0
  0
ARC
  5
20B
100
AcDbEntity
  8
ALPHA
100
AcDbCircle
 10
91.557531
 20
180.897568
 30
0.0
 40
10.0
100
AcDbArc
 50
164.347921
 51
180.0
  0
LINE
  5
20C
100
AcDbEntity
  8
ALPHA
100
AcDbLine
 10
82.057554
 20
184.047568
 30
0.0
 11
81.928298
 21
183.595535
 31
0.0
  0
LINE
  5
20D
100
AcDbEntity
  8
ALPHA
100
AcDbLine
 10
83.907554
 20
184.047568
 30
0.0
 11
82.057554
 21
184.047568
 31
0.0
  0
LINE
  5
20E
100
AcDbEntity
  8
ALPHA
100
AcDbLine
 10
86.58485
 20
159.357552
 30
0.0
 11
83.907554
 21
159.357552
 31
0.0
  0
LINE
  5
20F
100
AcDbEntity
  8
ALPHA
100
AcDbLine
 10
86.58485
 20
159.477051
 30
0.0
 11
83.907554
 21
159.477051
 31
0.0
  0
LINE
  5
210
100
AcDbEntity
  8
ALPHA
100
AcDbLine
 10
86.58485
 20
159.730441
 30
0.0
 11
83.907554
 21
159.730441
 31
0.0
  0
LINE
  5
211
100
AcDbEntity
  8
ALPHA
100
AcDbLine
 10
86.58485
 20
160.114945
 30
0.0
 11
83.907554
 21
160.114945
 31
0.0
  0
LINE
  5
212
100
AcDbEntity
  8
ALPHA
100
AcDbLine
 10
86.58485
 20
160.62635
 30
0.0
 11
83.907554
 21
160.62635
 31
0.0
  0
LINE
  5
213
100
AcDbEntity
  8
ALPHA
100
AcDbLine
 10
86.58485
 20
161.259054
 30
0.0
 11
83.907554
 21
161.259054
 31
0.0
  0
LINE
  5
214
100
AcDbEntity
  8
ALPHA
100
AcDbLine
 10
82.057554
 20
170.697568
 30
0.0
 11
81.928326
 21
170.697568
 31
0.0
  0
LINE
  5
215
100
AcDbEntity
  8
ALPHA
100
AcDbLine
 10
81.928326
 20
170.697568
 30
0.0
 11
81.629575
 21
170.697568
 31
0.0
  0
LINE
  5
216
100
AcDbEntity
  8
ALPHA
100
AcDbLine
 10
95.257554
 20
176.796587
 30
0.0
 11
94.057554
 21
176.796587
 31
0.0
  0
LINE
  5
217
100
AcDbEntity
  8
ALPHA
100
AcDbLine
 10
95.257554
 20
166.598548
 30
0.0
 11
94.057554
 21
166.598548
 31
0.0
  0
LWPOLYLINE
  5
218
100
AcDbEntity
  8
ALPHA
100
AcDbPolyline
 90
        5
 70
     0
 43
0.0
 10
98.057554
 20
167.009077
 10
97.478954
 20
167.148423
 10
96.853168
 20
167.311071
 10
96.179507
 20
167.492396
 10
95.457554
 20
167.692122
  0
LINE
  5
21F
100
AcDbEntity
  8
ALPHA
100
AcDbLine
 10
95.457554
 20
169.354606
 30
0.0
 11
95.257554
 21
169.354606
 31
0.0
  0
LINE
  5
220
100
AcDbEntity
  8
ALPHA
100
AcDbLine
 10
95.457554
 20
161.736168
 30
0.0
 11
95.257554
 21
161.736168
 31
0.0
  0
LWPOLYLINE
  5
221
100
AcDbEntity
  8
ALPHA
100
AcDbPolyline
 90
        6
 70
     0
 43
0.0
 10
97.445411
 20
174.197568
 10
97.260098
 20
173.196052
 10
97.168887
 20
172.196767
 10
97.168887
 20
171.198369
 10
97.260098
 20
170.199083
 10
97.445411
 20
169.197568
  0
LWPOLYLINE
  5
229
100
AcDbEntity
  8
ALPHA
100
AcDbPolyline
 90
        5
 70
     0
 43
0.0
 10
95.457554
 20
164.828013
 10
96.173189
 20
164.99598
 10
96.843761
 20
165.152557
 10
97.470954
 20
165.296864
 10
98.057554
 20
165.424183
  0
LINE
  5
230
100
AcDbEntity
  8
ALPHA
100
AcDbLine
 10
95.457554
 20
182.134508
 30
0.0
 11
95.257554
 21
182.134508
 31
0.0
  0
LWPOLYLINE
  5
231
100
AcDbEntity
  8
ALPHA
100
AcDbPolyline
 90
        3
 70
     0
 43
0.0
 10
98.057554
 20
181.648349
 10
97.478952
 20
181.71282
 10
97.0672
 20
181.76036
  0
LWPOLYLINE
  5
236
100
AcDbEntity
  8
ALPHA
100
AcDbPolyline
 90
        5
 70
     0
 43
0.0
 10
95.457554
 20
180.288797
 10
96.179496
 20
180.421588
 10
96.853153
 20
180.540157
 10
97.478937
 20
180.644866
 10
98.057554
 20
180.73331
  0
LINE
  5
23D
100
AcDbEntity
  8
ALPHA
100
AcDbLine
 10
95.457554
 20
181.991796
 30
0.0
 11
95.457554
 21
182.134508
 31
0.0
  0
LINE
  5
23E
100
AcDbEntity
  8
ALPHA
100
AcDbLine
 10
95.457554
 20
178.076061
 30
0.0
 11
95.457554
 21
180.288761
 31
0.0
  0
LINE
  5
23F
100
AcDbEntity
  8
ALPHA
100
AcDbLine
 10
95.457554
 20
161.736168
 30
0.0
 11
95.457554
 21
164.82797
 31
0.0
  0
LINE
  5
240
100
AcDbEntity
  8
ALPHA
100
AcDbLine
 10
95.457554
 20
167.692162
 30
0.0
 11
95.457554
 21
164.827982
 31
0.0
  0
LINE
  5
241
100
AcDbEntity
  8
ALPHA
100
AcDbLine
 10
95.457554
 20
167.692163
 30
0.0
 11
95.457554
 21
169.354606
 31
0.0
  0
LINE
  5
242
100
AcDbEntity
  8
ALPHA
100
AcDbLine
 10
95.457554
 20
178.076061
 30
0.0
 11
95.257554
 21
178.076061
 31
0.0
  0
LINE
  5
243
100
AcDbEntity
  8
ALPHA
100
AcDbLine
 10
98.057554
 20
165.424183
 30
0.0
 11
98.057554
 21
167.009077
 31
0.0
  0
LINE
  5
244
100
AcDbEntity
  8
ALPHA
100
AcDbLine
 10
98.057554
 20
180.85764
 30
0.0
 11
98.057554
 21
180.73331
 31
0.0
  0
LINE
  5
245
100
AcDbEntity
  8
ALPHA
100
AcDbLine
 10
98.057554
 20
181.648349
 30
0.0
 11
98.057554
 21
180.847567
 31
0.0
  0
LINE
  5
246
100
AcDbEntity
  8
ALPHA
100
AcDbLine
 10
96.557554
 20
182.485408
 30
0.0
 11
96.557554
 21
182.697568
 31
0.0
  0
LINE
  5
247
100
AcDbEntity
  8
ALPHA
100
AcDbLine
 10
96.557554
 20
182.485408
 30
0.0
 11
95.257554
 21
182.485408
 31
0.0
  0
ARC
  5
248
100
AcDbEntity
  8
ALPHA
100
AcDbCircle
 10
100.657554
 20
174.197568
 30
0.0
 40
3.0
100
AcDbArc
 50
150.073565
 51
180.0
  0
LINE
  5
249
100
AcDbEntity
  8
ALPHA
100
AcDbLine
 10
98.057554
 20
180.73331
 30
0.0
 11
98.057554
 21
175.694231
 31
0.0
  0
LINE
  5
24A
100
AcDbEntity
  8
ALPHA
100
AcDbLine
 10
98.057554
 20
167.700905
 30
0.0
 11
98.057554
 21
167.009077
 31
0.0
  0
ARC
  5
24B
100
AcDbEntity
  8
ALPHA
100
AcDbCircle
 10
100.657554
 20
169.197568
 30
0.0
 40
3.0
100
AcDbArc
 50
180.0
 51
209.926435
  0
LINE
  5
24C
100
AcDbEntity
  8
ALPHA
100
AcDbLine
 10
97.657554
 20
169.197568
 30
0.0
 11
97.657554
 21
174.197568
 31
0.0
  0
LINE
  5
24D
100
AcDbEntity
  8
ALPHA
100
AcDbLine
 10
97.445411
 20
174.197568
 30
0.0
 11
97.657554
 21
174.197568
 31
0.0
  0
LINE
  5
24E
100
AcDbEntity
  8
ALPHA
100
AcDbLine
 10
97.445411
 20
169.197568
 30
0.0
 11
97.657554
 21
169.197568
 31
0.0
  0
LINE
  5
24F
100
AcDbEntity
  8
ALPHA
100
AcDbLine
 10
98.057554
 20
165.424183
 30
0.0
 11
98.057554
 21
160.697568
 31
0.0
  0
LINE
  5
250
100
AcDbEntity
  8
ALPHA
100
AcDbLine
 10
95.257554
 20
185.197568
 30
0.0
 11
94.057554
 21
185.197568
 31
0.0
  0
LINE
  5
251
100
AcDbEntity
  8
ALPHA
100
AcDbLine
 10
98.057554
 20
160.697568
 30
0.0
 11
95.257554
 21
160.697568
 31
0.0
  0
LINE
  5
252
100
AcDbEntity
  8
ALPHA
100
AcDbLine
 10
98.057554
 20
182.697568
 30
0.0
 11
96.557554
 21
182.697568
 31
0.0
  0
LINE
  5
253
100
AcDbEntity
  8
ALPHA
100
AcDbLine
 10
98.057554
 20
182.697503
 30
0.0
 11
98.057554
 21
181.648349
 31
0.0
  0
LINE
  5
254
100
AcDbEntity
  8
ALPHA
100
AcDbLine
 10
95.257554
 20
183.797506
 30
0.0
 11
95.257554
 21
185.197549
 31
0.0
  0
LINE
  5
255
100
AcDbEntity
  8
ALPHA
100
AcDbLine
 10
95.257554
 20
183.658477
 30
0.0
 11
95.257554
 21
183.797506
 31
0.0
  0
LINE
  5
256
100
AcDbEntity
  8
ALPHA
100
AcDbLine
 10
95.257554
 20
183.647934
 30
0.0
 11
95.257554
 21
183.658477
 31
0.0
  0
LINE
  5
257
100
AcDbEntity
  8
ALPHA
100
AcDbLine
 10
95.257554
 20
182.485408
 30
0.0
 11
95.257554
 21
183.647934
 31
0.0
  0
LINE
  5
258
100
AcDbEntity
  8
ALPHA
100
AcDbLine
 10
95.257554
 20
182.297568
 30
0.0
 11
95.257554
 21
182.485408
 31
0.0
  0
LINE
  5
259
100
AcDbEntity
  8
ALPHA
100
AcDbLine
 10
95.257554
 20
182.134508
 30
0.0
 11
95.257554
 21
182.297568
 31
0.0
  0
LINE
  5
25A
100
AcDbEntity
  8
ALPHA
100
AcDbLine
 10
95.257554
 20
178.076061
 30
0.0
 11
95.257554
 21
182.134508
 31
0.0
  0
LINE
  5
25B
100
AcDbEntity
  8
ALPHA
100
AcDbLine
 10
95.257554
 20
176.796587
 30
0.0
 11
95.257554
 21
178.076061
 31
0.0
  0
LINE
  5
25C
100
AcDbEntity
  8
ALPHA
100
AcDbLine
 10
95.257554
 20
176.796587
 30
0.0
 11
95.257554
 21
166.598548
 31
0.0
  0
LINE
  5
25D
100
AcDbEntity
  8
ALPHA
100
AcDbLine
 10
95.257554
 20
160.697568
 30
0.0
 11
95.257554
 21
158.197586
 31
0.0
  0
LINE
  5
25E
100
AcDbEntity
  8
ALPHA
100
AcDbLine
 10
95.257554
 20
161.597568
 30
0.0
 11
95.257554
 21
160.697568
 31
0.0
  0
LINE
  5
25F
100
AcDbEntity
  8
ALPHA
100
AcDbLine
 10
95.257554
 20
161.736168
 30
0.0
 11
95.257554
 21
161.597568
 31
0.0
  0
LINE
  5
260
100
AcDbEntity
  8
ALPHA
100
AcDbLine
 10
95.257554
 20
166.598548
 30
0.0
 11
95.257554
 21
161.736168
 31
0.0
  0
LINE
  5
261
100
AcDbEntity
  8
ALPHA
100
AcDbLine
 10
95.257554
 20
158.197568
 30
0.0
 11
94.057554
 21
158.197568
 31
0.0
  0
LWPOLYLINE
  5
262
100
AcDbEntity
  8
ALPHA
100
AcDbPolyline
 90
        5
 70
     0
 43
0.0
 10
97.067229
 20
181.760402
 10
96.828199
 20
181.7898
 10
96.381735
 20
181.851178
 10
95.901717
 20
181.922683
 10
95.457554
 20
181.991796
  0
LINE
  5
269
100
AcDbEntity
  8
ALPHA
100
AcDbLine
 10
95.457554
 20
181.264502
 30
0.0
 11
95.457554
 21
180.288761
 31
0.0
  0
LINE
  5
26A
100
AcDbEntity
  8
ALPHA
100
AcDbLine
 10
95.457554
 20
181.2961
 30
0.0
 11
95.457554
 21
181.267745
 31
0.0
  0
LINE
  5
26B
100
AcDbEntity
  8
ALPHA
100
AcDbLine
 10
95.457554
 20
181.402557
 30
0.0
 11
95.457554
 21
181.2961
 31
0.0
  0
LINE
  5
26C
100
AcDbEntity
  8
ALPHA
100
AcDbLine
 10
95.457554
 20
181.991765
 30
0.0
 11
95.457554
 21
181.391858
 31
0.0
  0
DIMENSION
  5
26D
100
AcDbEntity
  8
COTATION1
100
AcDbDimension
  2
*D2
 10
112.957554
 20
140.0
 30
0.0
 11
97.257543
 21
142.25
 31
0.0
  3
SC_STAND
100
AcDbAlignedDimension
 13
81.557531
 23
162.497568
 33
0.0
 14
112.957554
 24
163.106293
 34
0.0
100
AcDbRotatedDimension
  0
DIMENSION
  5
27F
100
AcDbEntity
  8
COTATION1
100
AcDbDimension
  2
*D3
 10
94.057554
 20
147.5
 30
0.0
 11
87.807543
 21
149.75
 31
0.0
  3
SC_STAND
100
AcDbAlignedDimension
 13
81.557531
 23
162.435068
 33
0.0
 14
94.057554
 24
157.447549
 34
0.0
100
AcDbRotatedDimension
  0
DIMENSION
  5
28E
100
AcDbEntity
  8
COTATION1
100
AcDbDimension
  2
*D4
 10
137.5
 20
185.947568
 30
0.0
 11
135.25
 21
171.697568
 31
0.0
  3
SC_STAND
100
AcDbAlignedDimension
 13
94.057554
 23
157.447568
 33
0.0
 14
94.057554
 24
185.947568
 34
0.0
 50
90.0
100
AcDbRotatedDimension
  0
DIMENSION
  5
29B
100
AcDbEntity
  8
COTATION1
100
AcDbDimension
  2
*D5
 10
130.0
 20
158.197586
 30
0.0
 11
127.75
 21
171.697568
 31
0.0
  3
SC_STAND
100
AcDbAlignedDimension
 13
95.257554
 23
185.197549
 33
0.0
 14
95.257554
 24
158.197586
 34
0.0
 50
90.0
100
AcDbRotatedDimension
  0
DIMENSION
  5
2A8
100
AcDbEntity
  8
COTATION1
100
AcDbDimension
  2
*D6
 10
122.5
 20
160.697568
 30
0.0
 11
120.25
 21
171.697568
 31
0.0
  3
SC_STAND
100
AcDbAlignedDimension
 13
98.057554
 23
182.697568
 33
0.0
 14
98.057554
 24
160.697568
 34
0.0
 50
90.0
100
AcDbRotatedDimension
  0
INSERT
  5
305
100
AcDbEntity
  8
COTATION1
100
AcDbBlockReference
  2
SCH_ISO
 10
0.0
 20
0.0
 30
0.0
  0
VIEWPORT
  5
2B8
100
AcDbEntity
 67
     1
  8
0
100
AcDbViewport
 10
251.108558
 20
148.5
 30
0.0
 40
8035.473851
 41
4752.0
 68
    -1
 69
     1
1001
ACAD
1000
MVIEW
1002
{
1070
    16
1010
0.0
1020
0.0
1030
0.0
1010
0.0
1020
0.0
1030
1.0
1040
0.0
1040
4752.0
1040
251.108558
1040
148.5
1040
50.0
1040
0.0
1040
0.0
1070
     0
1070
   100
1070
     1
1070
     1
1070
     0
1070
     0
1070
     0
1070
     0
1040
0.0
1040
0.0
1040
0.0
1040
1.0
1040
1.0
1040
0.0
1040
0.0
1070
     0
1002
{
1002
}
1002
}
  0
ENDSEC
  0
SECTION
  2
OBJECTS
  0
DICTIONARY
  5
423
100
AcDbDictionary
  3
ACAD_GROUP
350
424
  3
ACAD_MLINESTYLE
350
431
  3
ACDBVARIABLEDICTIONARY
350
473
  0
DICTIONARY
  5
424
102
{ACAD_REACTORS
330
423
102
}
100
AcDbDictionary
  0
DICTIONARY
  5
431
102
{ACAD_REACTORS
330
423
102
}
100
AcDbDictionary
  3
STANDARD
350
432
  0
DICTIONARY
  5
473
102
{ACAD_REACTORS
330
423
102
}
100
AcDbDictionary
  3
DIMADEC
350
474
  0
MLINESTYLE
  5
432
102
{ACAD_REACTORS
330
431
102
}
100
AcDbMlineStyle
  2
STANDARD
 70
     0
  3

 62
   256
 51
90.0
 52
90.0
 71
     2
 49
0.5
 62
   256
  6
BYLAYER
 49
-0.5
 62
   256
  6
BYLAYER
  0
DICTIONARYVAR
  5
474
102
{ACAD_REACTORS
330
473
102
}
100
DictionaryVariables
280
     0
  1
0
  0
ENDSEC
  0
EOF
