  0
SECTION
  2
HEADER
  9
$ACADVER
  1
AC1012
  9
$DWGCODEPAGE
  3
ANSI_1252
  9
$INSBASE
 10
0.0
 20
0.0
 30
0.0
  9
$EXTMIN
 10
24.69404
 20
28.498403
 30
-0.001526
  9
$EXTMAX
 10
124.90676
 20
371.062818
 30
0.0
  9
$LIMMIN
 10
21.500324
 20
168.366123
  9
$LIMMAX
 10
144.764979
 20
237.902791
  9
$ORTHOMODE
 70
     1
  9
$REGENMODE
 70
     1
  9
$FILLMODE
 70
     1
  9
$QTEXTMODE
 70
     0
  9
$MIRRTEXT
 70
     1
  9
$DRAGMODE
 70
     2
  9
$LTSCALE
 40
10.0
  9
$OSMODE
 70
    39
  9
$ATTMODE
 70
     1
  9
$TEXTSIZE
 40
0.2
  9
$TRACEWID
 40
0.05
  9
$TEXTSTYLE
  7
STANDARD
  9
$CLAYER
  8
0
  9
$CELTYPE
  6
CONTINUOUS
  9
$CECOLOR
 62
   256
  9
$CELTSCALE
 40
1.0
  9
$DELOBJ
 70
     1
  9
$DISPSILH
 70
     0
  9
$DIMSCALE
 40
1.0
  9
$DIMASZ
 40
0.18
  9
$DIMEXO
 40
0.0625
  9
$DIMDLI
 40
0.38
  9
$DIMRND
 40
0.0
  9
$DIMDLE
 40
0.0
  9
$DIMEXE
 40
0.18
  9
$DIMTP
 40
0.0
  9
$DIMTM
 40
0.0
  9
$DIMTXT
 40
0.18
  9
$DIMCEN
 40
0.09
  9
$DIMTSZ
 40
0.0
  9
$DIMTOL
 70
     0
  9
$DIMLIM
 70
     0
  9
$DIMTIH
 70
     1
  9
$DIMTOH
 70
     1
  9
$DIMSE1
 70
     0
  9
$DIMSE2
 70
     0
  9
$DIMTAD
 70
     0
  9
$DIMZIN
 70
     0
  9
$DIMBLK
  1

  9
$DIMASO
 70
     1
  9
$DIMSHO
 70
     1
  9
$DIMPOST
  1

  9
$DIMAPOST
  1

  9
$DIMALT
 70
     0
  9
$DIMALTD
 70
     2
  9
$DIMALTF
 40
25.4
  9
$DIMLFAC
 40
1.0
  9
$DIMTOFL
 70
     0
  9
$DIMTVP
 40
0.0
  9
$DIMTIX
 70
     0
  9
$DIMSOXD
 70
     0
  9
$DIMSAH
 70
     0
  9
$DIMBLK1
  1

  9
$DIMBLK2
  1

  9
$DIMSTYLE
  2
STANDARD
  9
$DIMCLRD
 70
     0
  9
$DIMCLRE
 70
     0
  9
$DIMCLRT
 70
     0
  9
$DIMTFAC
 40
1.0
  9
$DIMGAP
 40
0.09
  9
$DIMJUST
 70
     0
  9
$DIMSD1
 70
     0
  9
$DIMSD2
 70
     0
  9
$DIMTOLJ
 70
     1
  9
$DIMTZIN
 70
     0
  9
$DIMALTZ
 70
     0
  9
$DIMALTTZ
 70
     0
  9
$DIMFIT
 70
     3
  9
$DIMUPT
 70
     0
  9
$DIMUNIT
 70
     2
  9
$DIMDEC
 70
     4
  9
$DIMTDEC
 70
     4
  9
$DIMALTU
 70
     2
  9
$DIMALTTD
 70
     2
  9
$DIMTXSTY
  7
STANDARD
  9
$DIMAUNIT
 70
     0
  9
$LUNITS
 70
     2
  9
$LUPREC
 70
     4
  9
$SKETCHINC
 40
0.1
  9
$FILLETRAD
 40
0.0
  9
$AUNITS
 70
     0
  9
$AUPREC
 70
     0
  9
$MENU
  1
acad
  9
$ELEVATION
 40
0.0
  9
$PELEVATION
 40
0.0
  9
$THICKNESS
 40
0.0
  9
$LIMCHECK
 70
     0
  9
$BLIPMODE
 70
     0
  9
$CHAMFERA
 40
0.0
  9
$CHAMFERB
 40
0.0
  9
$CHAMFERC
 40
0.0
  9
$CHAMFERD
 40
0.0
  9
$SKPOLY
 70
     0
  9
$TDCREATE
 40
2453627.679171909
  9
$TDUPDATE
 40
2453689.696598137
  9
$TDINDWG
 40
0.1098823727
  9
$TDUSRTIMER
 40
0.1098818287
  9
$USRTIMER
 70
     1
  9
$ANGBASE
 50
0.0
  9
$ANGDIR
 70
     0
  9
$PDMODE
 70
     0
  9
$PDSIZE
 40
0.0
  9
$PLINEWID
 40
0.0
  9
$COORDS
 70
     0
  9
$SPLFRAME
 70
     0
  9
$SPLINETYPE
 70
     6
  9
$SPLINESEGS
 70
     8
  9
$ATTDIA
 70
     0
  9
$ATTREQ
 70
     1
  9
$HANDLING
 70
     1
  9
$HANDSEED
  5
962
  9
$SURFTAB1
 70
     6
  9
$SURFTAB2
 70
     6
  9
$SURFTYPE
 70
     6
  9
$SURFU
 70
     6
  9
$SURFV
 70
     6
  9
$UCSNAME
  2

  9
$UCSORG
 10
0.0
 20
0.0
 30
0.0
  9
$UCSXDIR
 10
1.0
 20
0.0
 30
0.0
  9
$UCSYDIR
 10
0.0
 20
1.0
 30
0.0
  9
$PUCSNAME
  2

  9
$PUCSORG
 10
0.0
 20
0.0
 30
0.0
  9
$PUCSXDIR
 10
1.0
 20
0.0
 30
0.0
  9
$PUCSYDIR
 10
0.0
 20
1.0
 30
0.0
  9
$USERI1
 70
     0
  9
$USERI2
 70
     0
  9
$USERI3
 70
     0
  9
$USERI4
 70
     0
  9
$USERI5
 70
     0
  9
$USERR1
 40
0.0
  9
$USERR2
 40
0.0
  9
$USERR3
 40
0.0
  9
$USERR4
 40
0.0
  9
$USERR5
 40
0.0
  9
$WORLDVIEW
 70
     1
  9
$SHADEDGE
 70
     3
  9
$SHADEDIF
 70
    70
  9
$TILEMODE
 70
     1
  9
$MAXACTVP
 70
    16
  9
$PINSBASE
 10
0.0
 20
0.0
 30
0.0
  9
$PLIMCHECK
 70
     0
  9
$PEXTMIN
 10
1.000000E+20
 20
1.000000E+20
 30
1.000000E+20
  9
$PEXTMAX
 10
-1.000000E+20
 20
-1.000000E+20
 30
-1.000000E+20
  9
$PLIMMIN
 10
0.0
 20
0.0
  9
$PLIMMAX
 10
12.0
 20
9.0
  9
$UNITMODE
 70
     0
  9
$VISRETAIN
 70
     0
  9
$PLINEGEN
 70
     1
  9
$PSLTSCALE
 70
     0
  9
$TREEDEPTH
 70
  3020
  9
$PICKSTYLE
 70
     1
  9
$CMLSTYLE
  2
STANDARD
  9
$CMLJUST
 70
     0
  9
$CMLSCALE
 40
1.0
  9
$SAVEIMAGES
 70
     0
  0
ENDSEC
  0
SECTION
  2
CLASSES
  0
CLASS
  1
LWPOLYLINE
  2
AcDbPolyline
  3
"AutoCAD"
 90
    32768
280
     0
281
     1
  0
CLASS
  1
IMAGE
  2
AcDbRasterImage
  3
ISM
 90
    32895
280
     0
281
     1
  0
CLASS
  1
OLE2FRAME
  2
AcDbOle2Frame
  3
""
 90
    32768
280
     0
281
     1
  0
CLASS
  1
HATCH
  2
AcDbHatch
  3
"ACAD_SEDONA"
 90
    32768
280
     0
281
     1
  0
CLASS
  1
DICTIONARYVAR
  2
AcDbDictionaryVar
  3
"AutoCAD"
 90
    32768
280
     0
281
     0
  0
CLASS
  1
RASTERVARIABLES
  2
AcDbRasterVariables
  3
ISM
 90
    32768
280
     0
281
     0
  0
CLASS
  1
IMAGEDEF
  2
AcDbRasterImageDef
  3
ISM
 90
    32768
280
     0
281
     0
  0
CLASS
  1
IMAGEDEF_REACTOR
  2
AcDbRasterImageDefReactor
  3
ISM
 90
    32769
280
     0
281
     0
  0
CLASS
  1
SPATIAL_FILTER
  2
AcDbSpatialFilter
  3
"Acad"
 90
    32768
280
     0
281
     0
  0
CLASS
  1
XRECORD
  2
AcDbXrecord
  3
"<Built In>"
 90
    32768
280
     0
281
     0
  0
CLASS
  1
SORTENTSTABLE
  2
AcDbSortentsTable
  3
"AutoCAD"
 90
    32768
280
     0
281
     0
  0
CLASS
  1
LAYER_INDEX
  2
AcDbLayerIndex
  3
"Acad"
 90
    32768
280
     0
281
     0
  0
CLASS
  1
SPATIAL_INDEX
  2
AcDbSpatialIndex
  3
"Acad"
 90
    32768
280
     0
281
     0
  0
CLASS
  1
OBJECT_PTR
  2
CAseDLPNTableRecord
  3
"ASE-LPNTableRecord"
 90
    32769
280
     0
281
     0
  0
CLASS
  1
LAYOUT
  2
AcDbLayout
  3
AutoCAD 2000
 90
    32768
280
     0
281
     0
  0
CLASS
  1
PLOTSETTINGS
  2
AcDbPlotSettings
  3
AutoCAD 2000
 90
    32768
280
     0
281
     0
  0
CLASS
  1
ACDBDICTIONARYWDFLT
  2
AcDbDictionaryWithDefault
  3
AutoCAD 2000
 90
    32768
280
     0
281
     0
  0
CLASS
  1
ACDBPLACEHOLDER
  2
AcDbPlaceHolder
  3
AutoCAD 2000
 90
    32768
280
     0
281
     0
  0
CLASS
  1
VBA_PROJECT
  2
AcDbVbaProject
  3
acad
 90
    32768
280
     0
281
     0
  0
CLASS
  1
WIPEOUT
  2
AcDbWipeout
  3
"WipeOut|Product Desc: Object Enabler for WipeOut entity^I^I^I^I^I^I|Company: Autodesk, Inc.^I^I^I^I^I^I|WEB Address: www.autodesk.com"
 90
    32895
280
     0
281
     1
  0
CLASS
  1
WIPEOUTVARIABLES
  2
AcDbWipeoutVariables
  3
"WipeOut|Product Desc:     WipeOut Dbx Application|Company:          Autodesk, Inc.|WEB Address:      www.autodesk.com"
 90
    32768
280
     0
281
     0
  0
CLASS
  1
RTEXT
  2
RText
  3
RText|AutoCAD Express Tool|expresstools@autodesk.com
 90
    32768
280
     0
281
     1
  0
CLASS
  1
ARCALIGNEDTEXT
  2
AcDbArcAlignedText
  3
ATEXT|AutoCAD Express Tool|expresstools@autodesk.com
 90
    32768
280
     0
281
     1
  0
CLASS
  1
TABLESTYLE
  2
AcDbTableStyle
  3
ObjectDBX Classes
 90
    34815
280
     0
281
     0
  0
CLASS
  1
ACAD_PROXY_OBJECT_WRAPPER
  2
AcDbProxyObjectWrapper
  3
AutoCAD 2000
 90
    32768
280
     0
281
     0
  0
CLASS
  1
LONG_TRANSACTION
  2
AcDbLongTransaction
  3
AutoCAD 2000
 90
    32768
280
     0
281
     0
  0
CLASS
  1
LWPOLYLINE
  2
AcDbPolyline
  3
"AutoCAD"
 90
    32768
280
     0
281
     1
  0
CLASS
  1
HATCH
  2
AcDbHatch
  3
"ACAD_SEDONA"
 90
    32768
280
     0
281
     1
  0
CLASS
  1
XRECORD
  2
AcDbXrecord
  3
"<Built In>"
 90
    32768
280
     0
281
     0
  0
ENDSEC
  0
SECTION
  2
TABLES
  0
TABLE
  2
VPORT
  5
7
100
AcDbSymbolTable
 70
     2
  0
VPORT
  5
961
100
AcDbSymbolTableRecord
100
AcDbViewportTableRecord
  2
*ACTIVE
 70
     0
 10
0.0
 20
0.0
 11
1.0
 21
1.0
 12
74.8004
 22
199.78061
 13
0.0
 23
0.0
 14
1.0
 24
1.0
 15
0.0
 25
0.0
 16
0.0
 26
0.0
 36
1.0
 17
0.0
 27
0.0
 37
0.0
 40
346.12661
 41
1.673611
 42
50.0
 43
0.0
 44
0.0
 50
0.0
 51
0.0
 71
     0
 72
   100
 73
     1
 74
     3
 75
     0
 76
     0
 77
     0
 78
     0
  0
ENDTAB
  0
TABLE
  2
LTYPE
  5
4
100
AcDbSymbolTable
 70
     2
  0
LTYPE
  5
11
102
{ACAD_XDICTIONARY
360
922
102
}
100
AcDbSymbolTableRecord
100
AcDbLinetypeTableRecord
  2
BYBLOCK
 70
     0
  3

 72
    65
 73
     0
 40
0.0
  0
LTYPE
  5
12
102
{ACAD_XDICTIONARY
360
924
102
}
100
AcDbSymbolTableRecord
100
AcDbLinetypeTableRecord
  2
BYLAYER
 70
     0
  3

 72
    65
 73
     0
 40
0.0
  0
LTYPE
  5
13
102
{ACAD_XDICTIONARY
360
926
102
}
100
AcDbSymbolTableRecord
100
AcDbLinetypeTableRecord
  2
CONTINUOUS
 70
     0
  3
Solid line
 72
    65
 73
     0
 40
0.0
  0
LTYPE
  5
FA
100
AcDbSymbolTableRecord
100
AcDbLinetypeTableRecord
  2
AXES2
 70
     0
  3
___ _ ___ _ ___ _ ___ _ ___ _ ___ _ ___ _ ___ _
 72
    65
 73
     4
 40
1.125
 49
0.75
 74
     0
 49
-0.125
 74
     0
 49
0.125
 74
     0
 49
-0.125
 74
     0
  0
ENDTAB
  0
TABLE
  2
LAYER
  5
2
100
AcDbSymbolTable
 70
     5
  0
LAYER
  5
14
100
AcDbSymbolTableRecord
100
AcDbLayerTableRecord
  2
0
 70
     0
 62
     7
  6
CONTINUOUS
  0
LAYER
  5
FC
100
AcDbSymbolTableRecord
100
AcDbLayerTableRecord
  2
COTATION1
 70
     0
 62
     2
  6
CONTINUOUS
  0
LAYER
  5
FD
100
AcDbSymbolTableRecord
100
AcDbLayerTableRecord
  2
AXE
 70
     0
 62
    80
  6
AXES2
  0
LAYER
  5
FE
102
{ACAD_XDICTIONARY
360
958
102
}
100
AcDbSymbolTableRecord
100
AcDbLayerTableRecord
  2
DEFPOINTS
 70
     0
 62
     7
  6
CONTINUOUS
  0
LAYER
  5
FF
100
AcDbSymbolTableRecord
100
AcDbLayerTableRecord
  2
ALPHA
 70
     0
 62
   254
  6
CONTINUOUS
  0
ENDTAB
  0
TABLE
  2
STYLE
  5
3
100
AcDbSymbolTable
 70
     2
  0
STYLE
  5
17
102
{ACAD_XDICTIONARY
360
928
102
}
100
AcDbSymbolTableRecord
100
AcDbTextStyleTableRecord
  2
STANDARD
 70
     0
 40
0.0
 41
1.0
 50
0.0
 71
     0
 42
0.0
  3
txt
  4

  0
STYLE
  5
101
100
AcDbSymbolTableRecord
100
AcDbTextStyleTableRecord
  2
ROMANS
 70
     0
 40
0.0
 41
1.0
 50
0.0
 71
     0
 42
6.0
  3
romans
  4

  0
ENDTAB
  0
TABLE
  2
VIEW
  5
5
100
AcDbSymbolTable
 70
     0
  0
ENDTAB
  0
TABLE
  2
UCS
  5
6
100
AcDbSymbolTable
 70
     0
  0
ENDTAB
  0
TABLE
  2
APPID
  5
8
100
AcDbSymbolTable
 70
     1
  0
APPID
  5
16
100
AcDbSymbolTableRecord
100
AcDbRegAppTableRecord
  2
ACAD
 70
     0
  0
ENDTAB
  0
TABLE
  2
DIMSTYLE
  5
9
100
AcDbSymbolTable
 70
     2
  0
DIMSTYLE
105
18
102
{ACAD_XDICTIONARY
360
920
102
}
100
AcDbSymbolTableRecord
100
AcDbDimStyleTableRecord
  2
STANDARD
 70
     0
  3

  4

  5

  6

  7

 40
1.0
 41
0.18
 42
0.0625
 43
0.38
 44
0.18
 45
0.0
 46
0.0
 47
0.0
 48
0.0
140
0.18
141
0.09
142
0.0
143
25.4
144
1.0
145
0.0
146
1.0
147
0.09
 71
     0
 72
     0
 73
     1
 74
     1
 75
     0
 76
     0
 77
     0
 78
     0
170
     0
171
     2
172
     0
173
     0
174
     0
175
     0
176
     0
177
     0
178
     0
270
     2
271
     4
272
     4
273
     2
274
     2
340
17
275
     0
280
     0
281
     0
282
     0
283
     1
284
     0
285
     0
286
     0
287
     3
288
     0
  0
DIMSTYLE
105
102
102
{ACAD_XDICTIONARY
360
95A
102
}
102
{ACAD_REACTORS
330
3B8
330
3C6
330
202
330
235
102
}
100
AcDbSymbolTableRecord
100
AcDbDimStyleTableRecord
  2
SC_DEFAUT
 70
     0
  3

  4

  5
OPEN30
  6

  7

 40
1.0
 41
5.0
 42
2.0
 43
0.38
 44
2.5
 45
0.0
 46
0.0
 47
0.0
 48
0.0
140
2.5
141
0.0
142
0.0
143
25.4
144
1.0
145
0.0
146
1.0
147
2.0
 71
     0
 72
     0
 73
     1
 74
     1
 75
     0
 76
     0
 77
     1
 78
    12
170
     0
171
     2
172
     0
173
     0
174
     0
175
     0
176
     0
177
     0
178
     0
270
     2
271
     1
272
     1
273
     2
274
     2
340
101
275
     0
280
     0
281
     0
282
     0
283
     1
284
    12
285
    12
286
    12
287
     5
288
     0
  0
ENDTAB
  0
TABLE
  2
BLOCK_RECORD
  5
1
100
AcDbSymbolTable
 70
     5
  0
BLOCK_RECORD
  5
A
102
{ACAD_XDICTIONARY
360
1B0
102
}
100
AcDbSymbolTableRecord
100
AcDbBlockTableRecord
  2
*MODEL_SPACE
  0
BLOCK_RECORD
  5
B
102
{ACAD_XDICTIONARY
360
94E
102
}
100
AcDbSymbolTableRecord
100
AcDbBlockTableRecord
  2
*PAPER_SPACE
  0
BLOCK_RECORD
  5
CF
100
AcDbSymbolTableRecord
100
AcDbBlockTableRecord
  2
_OPEN30
  0
BLOCK_RECORD
  5
203
100
AcDbSymbolTableRecord
100
AcDbBlockTableRecord
  2
*D1
  0
BLOCK_RECORD
  5
236
100
AcDbSymbolTableRecord
100
AcDbBlockTableRecord
  2
*D2
  0
BLOCK_RECORD
  5
3B9
100
AcDbSymbolTableRecord
100
AcDbBlockTableRecord
  2
*D3
  0
BLOCK_RECORD
  5
3C7
100
AcDbSymbolTableRecord
100
AcDbBlockTableRecord
  2
*D4
  0
ENDTAB
  0
ENDSEC
  0
SECTION
  2
BLOCKS
  0
BLOCK
  5
D
100
AcDbEntity
  8
0
100
AcDbBlockBegin
  2
*MODEL_SPACE
 70
     0
 10
0.0
 20
0.0
 30
0.0
  3
*MODEL_SPACE
  1

  0
ENDBLK
  5
E
100
AcDbEntity
  8
0
100
AcDbBlockEnd
  0
BLOCK
  5
F
100
AcDbEntity
 67
     1
  8
0
100
AcDbBlockBegin
  2
*PAPER_SPACE
 70
     0
 10
0.0
 20
0.0
 30
0.0
  3
*PAPER_SPACE
  1

  0
ENDBLK
  5
10
100
AcDbEntity
 67
     1
  8
0
100
AcDbBlockEnd
  0
BLOCK
  5
D0
100
AcDbEntity
  8
0
100
AcDbBlockBegin
  2
_OPEN30
 70
     0
 10
0.0
 20
0.0
 30
0.0
  3
_OPEN30
  1

  0
LINE
  5
D1
100
AcDbEntity
  8
COTATION1
 62
     0
100
AcDbLine
 10
-1.0
 20
0.267949
 30
0.0
 11
0.0
 21
0.0
 31
0.0
1001
ACAD
1000
RTLwPs
1070
   158
  0
LINE
  5
D2
100
AcDbEntity
  8
COTATION1
 62
     0
100
AcDbLine
 10
0.0
 20
0.0
 30
0.0
 11
-1.0
 21
-0.267949
 31
0.0
1001
ACAD
1000
RTLwPs
1070
   158
  0
LINE
  5
D3
100
AcDbEntity
  8
COTATION1
 62
     0
100
AcDbLine
 10
0.0
 20
0.0
 30
0.0
 11
-1.0
 21
0.0
 31
0.0
1001
ACAD
1000
RTLwPs
1070
   158
  0
ENDBLK
  5
D4
100
AcDbEntity
  8
0
100
AcDbBlockEnd
  0
BLOCK
  5
20E
100
AcDbEntity
  8
0
100
AcDbBlockBegin
  2
*D1
 70
     1
 10
0.0
 20
0.0
 30
0.0
  3
*D1
  1

1001
ACAD
1000
RTLwPs
1070
   128
  0
LINE
  5
8C3
100
AcDbEntity
  8
COTATION1
 62
     0
100
AcDbLine
 10
80.602082
 20
66.008856
 30
0.0
 11
124.192116
 21
66.008856
 31
0.0
1001
ACAD
1000
RTLwPs
1070
   158
  0
LINE
  5
8C4
100
AcDbEntity
  8
COTATION1
 62
     0
100
AcDbLine
 10
62.582892
 20
361.052363
 30
0.0
 11
124.192116
 21
361.052363
 31
0.0
1001
ACAD
1000
RTLwPs
1070
   158
  0
LINE
  5
8C5
100
AcDbEntity
  8
COTATION1
 62
     0
100
AcDbLine
 10
121.692116
 20
71.008856
 30
0.0
 11
121.692116
 21
210.280609
 31
0.0
1001
ACAD
1000
RTLwPs
1070
   158
  0
LINE
  5
8C6
100
AcDbEntity
  8
COTATION1
 62
     0
100
AcDbLine
 10
121.692116
 20
356.052363
 30
0.0
 11
121.692116
 21
216.780609
 31
0.0
1001
ACAD
1000
RTLwPs
1070
   158
  0
INSERT
  5
8C7
100
AcDbEntity
  8
COTATION1
 62
     0
100
AcDbBlockReference
  2
_OPEN30
 10
121.692116
 20
66.008856
 30
0.0
 41
5.0
 42
5.0
 43
5.0
 50
270.0
1001
ACAD
1000
RTLwPs
1070
   158
  0
INSERT
  5
8C8
100
AcDbEntity
  8
COTATION1
 62
     0
100
AcDbBlockReference
  2
_OPEN30
 10
121.692116
 20
361.052363
 30
0.0
 41
5.0
 42
5.0
 43
5.0
 50
90.0
1001
ACAD
1000
RTLwPs
1070
   158
  0
MTEXT
  5
8C9
100
AcDbEntity
  8
COTATION1
 62
     0
100
AcDbMText
 10
121.692116
 20
213.530609
 30
0.0
 40
2.5
 41
0.0
 71
     5
 72
     1
  1
\A1;295
  7
ROMANS
1001
ACAD
1000
MTEXTBEGIN
1070
    73
1070
     1
1070
    44
1040
1.0
1070
    74
1070
     0
1000
MTEXTEND
  0
POINT
  5
8CA
100
AcDbEntity
  8
DEFPOINTS
 62
     0
100
AcDbPoint
 10
78.602082
 20
66.008856
 30
0.0
1001
ACAD
1000
RTLwPs
1070
   128
  0
POINT
  5
8CB
100
AcDbEntity
  8
DEFPOINTS
 62
     0
100
AcDbPoint
 10
60.582892
 20
361.052363
 30
0.0
1001
ACAD
1000
RTLwPs
1070
   128
  0
POINT
  5
8CC
100
AcDbEntity
  8
DEFPOINTS
 62
     0
100
AcDbPoint
 10
121.692116
 20
361.052363
 30
0.0
1001
ACAD
1000
RTLwPs
1070
   128
  0
ENDBLK
  5
20F
100
AcDbEntity
  8
0
100
AcDbBlockEnd
1001
ACAD
1000
RTLwPs
1070
   128
  0
BLOCK
  5
241
100
AcDbEntity
  8
0
100
AcDbBlockBegin
  2
*D2
 70
     1
 10
0.0
 20
0.0
 30
0.0
  3
*D2
  1

1001
ACAD
1000
RTLwPs
1070
   128
  0
LINE
  5
8CD
100
AcDbEntity
  8
COTATION1
 62
     0
100
AcDbLine
 10
80.602082
 20
66.008856
 30
0.0
 11
114.192838
 21
66.008856
 31
0.0
1001
ACAD
1000
RTLwPs
1070
   158
  0
LINE
  5
8CE
100
AcDbEntity
  8
COTATION1
 62
     0
100
AcDbLine
 10
80.124292
 20
301.029295
 30
0.0
 11
114.192838
 21
301.029295
 31
0.0
1001
ACAD
1000
RTLwPs
1070
   158
  0
LINE
  5
8CF
100
AcDbEntity
  8
COTATION1
 62
     0
100
AcDbLine
 10
111.692838
 20
71.008856
 30
0.0
 11
111.692838
 21
180.269075
 31
0.0
1001
ACAD
1000
RTLwPs
1070
   158
  0
LINE
  5
8D0
100
AcDbEntity
  8
COTATION1
 62
     0
100
AcDbLine
 10
111.692838
 20
296.029295
 30
0.0
 11
111.692838
 21
186.769075
 31
0.0
1001
ACAD
1000
RTLwPs
1070
   158
  0
INSERT
  5
8D1
100
AcDbEntity
  8
COTATION1
 62
     0
100
AcDbBlockReference
  2
_OPEN30
 10
111.692838
 20
66.008856
 30
0.0
 41
5.0
 42
5.0
 43
5.0
 50
270.0
1001
ACAD
1000
RTLwPs
1070
   158
  0
INSERT
  5
8D2
100
AcDbEntity
  8
COTATION1
 62
     0
100
AcDbBlockReference
  2
_OPEN30
 10
111.692838
 20
301.029295
 30
0.0
 41
5.0
 42
5.0
 43
5.0
 50
90.0
1001
ACAD
1000
RTLwPs
1070
   158
  0
MTEXT
  5
8D3
100
AcDbEntity
  8
COTATION1
 62
     0
100
AcDbMText
 10
111.692838
 20
183.519075
 30
0.0
 40
2.5
 41
0.0
 71
     5
 72
     1
  1
\A1;235
  7
ROMANS
1001
ACAD
1000
MTEXTBEGIN
1070
    73
1070
     1
1070
    44
1040
1.0
1070
    74
1070
     0
1000
MTEXTEND
  0
POINT
  5
8D4
100
AcDbEntity
  8
DEFPOINTS
 62
     0
100
AcDbPoint
 10
78.602082
 20
66.008856
 30
0.0
1001
ACAD
1000
RTLwPs
1070
   128
  0
POINT
  5
8D5
100
AcDbEntity
  8
DEFPOINTS
 62
     0
100
AcDbPoint
 10
78.124292
 20
301.029295
 30
0.0
1001
ACAD
1000
RTLwPs
1070
   128
  0
POINT
  5
8D6
100
AcDbEntity
  8
DEFPOINTS
 62
     0
100
AcDbPoint
 10
111.692838
 20
301.029295
 30
0.0
1001
ACAD
1000
RTLwPs
1070
   128
  0
ENDBLK
  5
242
100
AcDbEntity
  8
0
100
AcDbBlockEnd
1001
ACAD
1000
RTLwPs
1070
   128
  0
BLOCK
  5
3C4
100
AcDbEntity
  8
0
100
AcDbBlockBegin
  2
*D3
 70
     1
 10
0.0
 20
0.0
 30
0.0
  3
*D3
  1

1001
ACAD
1000
RTLwPs
1070
   128
  0
LINE
  5
8D7
100
AcDbEntity
  8
COTATION1
 62
     0
100
AcDbLine
 10
38.785244
 20
68.169315
 30
0.0
 11
38.785244
 21
38.508856
 31
0.0
1001
ACAD
1000
RTLwPs
1070
   158
  0
LINE
  5
8D8
100
AcDbEntity
  8
COTATION1
 62
     0
100
AcDbLine
 10
82.082192
 20
68.260858
 30
0.0
 11
82.082192
 21
38.508856
 31
0.0
1001
ACAD
1000
RTLwPs
1070
   158
  0
LINE
  5
8D9
100
AcDbEntity
  8
COTATION1
 62
     0
100
AcDbLine
 10
43.785244
 20
41.008856
 30
0.0
 11
77.082192
 21
41.008856
 31
0.0
1001
ACAD
1000
RTLwPs
1070
   158
  0
INSERT
  5
8DA
100
AcDbEntity
  8
COTATION1
 62
     0
100
AcDbBlockReference
  2
_OPEN30
 10
38.785244
 20
41.008856
 30
0.0
 41
5.0
 42
5.0
 43
5.0
 50
180.0
1001
ACAD
1000
RTLwPs
1070
   158
  0
INSERT
  5
8DB
100
AcDbEntity
  8
COTATION1
 62
     0
100
AcDbBlockReference
  2
_OPEN30
 10
82.082192
 20
41.008856
 30
0.0
 41
5.0
 42
5.0
 43
5.0
1001
ACAD
1000
RTLwPs
1070
   158
  0
MTEXT
  5
8DC
100
AcDbEntity
  8
COTATION1
 62
     0
100
AcDbMText
 10
60.433718
 20
44.258856
 30
0.0
 40
2.5
 41
0.0
 71
     5
 72
     1
  1
\A1;39
  7
ROMANS
1001
ACAD
1000
MTEXTBEGIN
1070
    73
1070
     1
1070
    44
1040
1.0
1070
    74
1070
     0
1000
MTEXTEND
  0
POINT
  5
8DD
100
AcDbEntity
  8
DEFPOINTS
 62
     0
100
AcDbPoint
 10
38.785244
 20
70.169315
 30
0.0
1001
ACAD
1000
RTLwPs
1070
   128
  0
POINT
  5
8DE
100
AcDbEntity
  8
DEFPOINTS
 62
     0
100
AcDbPoint
 10
82.082192
 20
70.260858
 30
0.0
1001
ACAD
1000
RTLwPs
1070
   128
  0
POINT
  5
8DF
100
AcDbEntity
  8
DEFPOINTS
 62
     0
100
AcDbPoint
 10
82.082192
 20
41.008856
 30
0.0
1001
ACAD
1000
RTLwPs
1070
   128
  0
ENDBLK
  5
3C5
100
AcDbEntity
  8
0
100
AcDbBlockEnd
1001
ACAD
1000
RTLwPs
1070
   128
  0
BLOCK
  5
3D2
100
AcDbEntity
  8
0
100
AcDbBlockBegin
  2
*D4
 70
     1
 10
0.0
 20
0.0
 30
0.0
  3
*D4
  1

1001
ACAD
1000
RTLwPs
1070
   128
  0
LINE
  5
8F2
100
AcDbEntity
  8
COTATION1
 62
     0
100
AcDbLine
 10
34.697287
 20
157.265176
 30
0.0
 11
34.697287
 21
28.508856
 31
0.0
1001
ACAD
1000
RTLwPs
1070
   158
  0
LINE
  5
8F3
100
AcDbEntity
  8
COTATION1
 62
     0
100
AcDbLine
 10
86.704461
 20
157.194138
 30
0.0
 11
86.704461
 21
28.508856
 31
0.0
1001
ACAD
1000
RTLwPs
1070
   158
  0
LINE
  5
8F4
100
AcDbEntity
  8
COTATION1
 62
     0
100
AcDbLine
 10
39.697287
 20
31.008856
 30
0.0
 11
81.704461
 21
31.008856
 31
0.0
1001
ACAD
1000
RTLwPs
1070
   158
  0
INSERT
  5
8F5
100
AcDbEntity
  8
COTATION1
 62
     0
100
AcDbBlockReference
  2
_OPEN30
 10
34.697287
 20
31.008856
 30
0.0
 41
5.0
 42
5.0
 43
5.0
 50
180.0
1001
ACAD
1000
RTLwPs
1070
   158
  0
INSERT
  5
8F6
100
AcDbEntity
  8
COTATION1
 62
     0
100
AcDbBlockReference
  2
_OPEN30
 10
86.704461
 20
31.008856
 30
0.0
 41
5.0
 42
5.0
 43
5.0
1001
ACAD
1000
RTLwPs
1070
   158
  0
MTEXT
  5
8F7
100
AcDbEntity
  8
COTATION1
 62
     0
100
AcDbMText
 10
60.700874
 20
34.258856
 30
0.0
 40
2.5
 41
0.0
 71
     5
 72
     1
  1
\A1;52
  7
ROMANS
1001
ACAD
1000
MTEXTBEGIN
1070
    73
1070
     1
1070
    44
1040
1.0
1070
    74
1070
     0
1000
MTEXTEND
  0
POINT
  5
8F8
100
AcDbEntity
  8
DEFPOINTS
 62
     0
100
AcDbPoint
 10
34.697287
 20
159.265176
 30
0.0
1001
ACAD
1000
RTLwPs
1070
   128
  0
POINT
  5
8F9
100
AcDbEntity
  8
DEFPOINTS
 62
     0
100
AcDbPoint
 10
86.704461
 20
159.194138
 30
0.0
1001
ACAD
1000
RTLwPs
1070
   128
  0
POINT
  5
8FA
100
AcDbEntity
  8
DEFPOINTS
 62
     0
100
AcDbPoint
 10
86.704461
 20
31.008856
 30
0.0
1001
ACAD
1000
RTLwPs
1070
   128
  0
ENDBLK
  5
3D3
100
AcDbEntity
  8
0
100
AcDbBlockEnd
1001
ACAD
1000
RTLwPs
1070
   128
  0
ENDSEC
  0
SECTION
  2
ENTITIES
  0
SPLINE
  5
78
100
AcDbEntity
  8
ALPHA
100
AcDbSpline
210
0.0
220
0.0
230
-1.0
 70
     8
 71
     3
 72
    26
 73
    22
 74
     0
 42
0.0000001
 43
0.0000001
 40
0.0
 40
0.0
 40
0.0
 40
0.0
 40
1.0
 40
1.0
 40
1.0
 40
2.0
 40
2.0
 40
2.0
 40
3.0
 40
3.0
 40
3.0
 40
4.0
 40
4.0
 40
4.0
 40
5.0
 40
5.0
 40
5.0
 40
6.0
 40
6.0
 40
6.0
 40
7.0
 40
7.0
 40
7.0
 40
7.0
 10
56.02484268684111
 20
353.8241050917538
 30
0.0
 10
56.02484268684111
 20
353.8241050917538
 30
0.0
 10
56.78794757374976
 20
358.8897447297068
 30
0.0
 10
56.78794757374976
 20
358.8897447297068
 30
0.0
 10
56.39833932054864
 20
358.8897447297068
 30
0.0
 10
56.08343039408942
 20
359.3196320316412
 30
0.0
 10
56.08343039408942
 20
359.8505831285784
 30
0.0
 10
56.08343039408942
 20
360.3815342255158
 30
0.0
 10
56.39833932054864
 20
361.0523634735082
 30
0.0
 10
56.78794757374976
 20
361.0523634735082
 30
0.0
 10
56.78794757374976
 20
361.0523634735082
 30
0.0
 10
64.37652035508108
 20
361.0523634735082
 30
0.0
 10
64.37652035508108
 20
361.0523634735082
 30
0.0
 10
64.76612860828208
 20
361.0523634735082
 30
0.0
 10
65.08250222742265
 20
360.3815342255158
 30
0.0
 10
65.08250222742265
 20
359.8505831285784
 30
0.0
 10
65.08250222742265
 20
359.3196320316412
 30
0.0
 10
64.76612860828208
 20
358.8897447297068
 30
0.0
 10
64.37652035508108
 20
358.8897447297068
 30
0.0
 10
64.37652035508108
 20
358.8897447297068
 30
0.0
 10
65.13962524198984
 20
353.8241050917538
 30
0.0
 10
65.13962524198984
 20
353.8241050917538
 30
0.0
  0
LINE
  5
77
100
AcDbEntity
  8
ALPHA
100
AcDbLine
 10
64.376521
 20
358.889744
 30
0.0
 11
56.787948
 21
358.889744
 31
0.0
  0
LINE
  5
75
100
AcDbEntity
  8
ALPHA
100
AcDbLine
 10
54.469337
 20
345.627683
 30
0.0
 11
66.870893
 21
345.627683
 31
0.0
  0
LINE
  5
74
100
AcDbEntity
  8
ALPHA
100
AcDbLine
 10
66.870893
 20
343.465066
 30
0.0
 11
54.469337
 21
343.465066
 31
0.0
  0
LINE
  5
73
100
AcDbEntity
  8
ALPHA
100
AcDbLine
 10
53.669616
 20
337.975397
 30
0.0
 11
67.670614
 21
337.975397
 31
0.0
  0
LINE
  5
72
100
AcDbEntity
  8
ALPHA
100
AcDbLine
 10
67.670614
 20
335.824497
 30
0.0
 11
53.485066
 21
335.824497
 31
0.0
  0
LINE
  5
71
100
AcDbEntity
  8
ALPHA
100
AcDbLine
 10
52.068707
 20
327.839724
 30
0.0
 11
69.352082
 21
327.839724
 31
0.0
  0
LINE
  5
70
100
AcDbEntity
  8
ALPHA
100
AcDbLine
 10
65.829494
 20
351.516481
 30
0.0
 11
55.50927
 21
351.516481
 31
0.0
  0
SPLINE
  5
6F
100
AcDbEntity
  8
ALPHA
100
AcDbSpline
210
0.0
220
0.0
230
-1.0
 70
    11
 71
     3
 72
    35
 73
    31
 74
     0
 42
0.0000001
 43
0.0000001
 40
0.0
 40
0.0
 40
0.0
 40
0.0
 40
1.0
 40
1.0
 40
1.0
 40
2.0
 40
2.0
 40
2.0
 40
3.0
 40
3.0
 40
3.0
 40
4.0
 40
4.0
 40
4.0
 40
5.0
 40
5.0
 40
5.0
 40
6.0
 40
6.0
 40
6.0
 40
7.0
 40
7.0
 40
7.0
 40
8.0
 40
8.0
 40
8.0
 40
9.0
 40
9.0
 40
9.0
 40
10.0
 40
10.0
 40
10.0
 40
10.0
 10
46.48366867799779
 20
301.029295253882
 30
0.0
 10
46.48366867799779
 20
301.029295253882
 30
0.0
 10
46.48366867799779
 20
326.3530615093833
 30
0.0
 10
46.48366867799779
 20
326.3530615093833
 30
0.0
 10
46.48366867799779
 20
330.6731725726023
 30
0.0
 10
57.02229840274276
 20
330.5948115141578
 30
0.0
 10
60.38376810611203
 20
330.4344276655656
 30
0.0
 10
63.74523780948107
 20
330.2725791242922
 30
0.0
 10
75.56400893760053
 20
330.9954049624678
 30
0.0
 10
75.56400893760053
 20
326.3530615093833
 30
0.0
 10
75.56400893760053
 20
326.3530615093833
 30
0.0
 10
75.56400893760053
 20
301.0292952538498
 30
0.0
 10
75.56400893760053
 20
301.0292952538498
 30
0.0
 10
75.56400893760053
 20
301.0292952538498
 30
0.0
 10
78.12429174434976
 20
301.0292952538468
 30
0.0
 10
78.12429174434976
 20
301.0292952538468
 30
0.0
 10
78.12429174434976
 20
301.0292952538468
 30
0.0
 10
78.12429174434976
 20
326.3530615093833
 30
0.0
 10
78.12429174434976
 20
326.3530615093833
 30
0.0
 10
78.12429174434976
 20
330.6731725726023
 30
0.0
 10
73.1866468325386
 20
332.7545008725969
 30
0.0
 10
60.38376810611203
 20
332.7545008725969
 30
0.0
 10
47.12373937968516
 20
332.7545008725969
 30
0.0
 10
43.92338587124868
 20
330.3553342607806
 30
0.0
 10
43.92338587124868
 20
326.3530615093833
 30
0.0
 10
43.92338587124868
 20
326.3530615093833
 30
0.0
 10
43.92338587124868
 20
301.0292952538498
 30
0.0
 10
43.92338587124868
 20
301.0292952538498
 30
0.0
 10
43.92338587124868
 20
301.0292952538498
 30
0.0
 10
46.48366867799779
 20
301.029295253882
 30
0.0
 10
46.48366867799779
 20
301.029295253882
 30
0.0
  0
SPLINE
  5
6E
100
AcDbEntity
  8
ALPHA
100
AcDbSpline
210
0.0
220
0.0
230
-1.0
 70
    11
 71
     3
 72
    47
 73
    43
 74
     0
 42
0.0000001
 43
0.0000001
 40
0.0
 40
0.0
 40
0.0
 40
0.0
 40
1.0
 40
1.0
 40
1.0
 40
2.0
 40
2.0
 40
2.0
 40
3.0
 40
3.0
 40
3.0
 40
4.0
 40
4.0
 40
4.0
 40
5.0
 40
5.0
 40
5.0
 40
6.0
 40
6.0
 40
6.0
 40
7.0
 40
7.0
 40
7.0
 40
8.0
 40
8.0
 40
8.0
 40
9.0
 40
9.0
 40
9.0
 40
10.0
 40
10.0
 40
10.0
 40
11.0
 40
11.0
 40
11.0
 40
12.0
 40
12.0
 40
12.0
 40
13.0
 40
13.0
 40
13.0
 40
14.0
 40
14.0
 40
14.0
 40
14.0
 10
76.26706142457965
 20
66.00885550224916
 30
0.0
 10
77.68811377348379
 20
66.31790565798372
 30
0.0
 10
79.19821192780784
 20
68.20150044601553
 30
0.0
 10
79.19821192780784
 20
70.26085835579204
 30
0.0
 10
79.19821192780784
 20
70.26085835579204
 30
0.0
 10
79.18795907903938
 20
147.3220714947893
 30
0.0
 10
79.18795907903938
 20
147.3220714947893
 30
0.0
 10
79.18795907903938
 20
149.1368257268041
 30
0.0
 10
80.50588204399151
 20
150.925947836898
 30
0.0
 10
81.58828993540328
 20
152.2353830938968
 30
0.0
 10
82.79812609008002
 20
153.5792386289039
 30
0.0
 10
83.81755219619959
 20
157.2614760294573
 30
0.0
 10
83.81755219619959
 20
159.1941380223093
 30
0.0
 10
83.81755219619959
 20
159.1941380223093
 30
0.0
 10
83.80729934743134
 20
295.9087296403514
 30
0.0
 10
83.80729934743134
 20
295.9087296403514
 30
0.0
 10
83.80729934743134
 20
298.7363188614208
 30
0.0
 10
81.66445395482595
 20
301.0292952538498
 30
0.0
 10
78.83613238741623
 20
301.0292952538498
 30
0.0
 10
78.83613238741623
 20
301.0292952538498
 30
0.0
 10
42.61980938497458
 20
301.0292952538498
 30
0.0
 10
42.61980938497458
 20
301.0292952538498
 30
0.0
 10
39.79148781756487
 20
301.0292952538498
 30
0.0
 10
37.58859002503004
 20
298.7363188614208
 30
0.0
 10
37.58859002503004
 20
295.9087296403514
 30
0.0
 10
37.58859002503004
 20
295.9087296403514
 30
0.0
 10
37.57687248358047
 20
159.265175617348
 30
0.0
 10
37.57687248358047
 20
159.265175617348
 30
0.0
 10
37.57687248358047
 20
157.330316585474
 30
0.0
 10
38.60948082383117
 20
153.5792386289039
 30
0.0
 10
39.81931697850791
 20
152.2353830938968
 30
0.0
 10
40.89879548455701
 20
150.925947836898
 30
0.0
 10
41.68240606900269
 20
149.2430159461917
 30
0.0
 10
41.68240606900269
 20
147.4282617141768
 30
0.0
 10
41.68240606900269
 20
147.4282617141768
 30
0.0
 10
41.67068852755301
 20
70.16931506321668
 30
0.0
 10
41.67068852755301
 20
70.16931506321668
 30
0.0
 10
41.67068852755301
 20
68.21614737282766
 30
0.0
 10
43.02845864303151
 20
66.43434872613966
 30
0.0
 10
44.8534657238149
 20
66.00885550224916
 30
0.0
 10
44.8534657238149
 20
66.00885550224916
 30
0.0
 10
76.26706142457965
 20
66.00885550224916
 30
0.0
 10
76.26706142457965
 20
66.00885550224916
 30
0.0
  0
LINE
  5
6D
100
AcDbEntity
  8
ALPHA
100
AcDbLine
 10
48.918153
 20
72.383199
 30
0.0
 11
45.008888
 21
68.479062
 31
0.0
  0
LINE
  5
6C
100
AcDbEntity
  8
ALPHA
100
AcDbLine
 10
72.411823
 20
72.383199
 30
0.0
 11
76.321088
 21
68.479062
 31
0.0
  0
LINE
  5
6B
100
AcDbEntity
  8
ALPHA
100
AcDbLine
 10
69.527844
 20
72.383199
 30
0.0
 11
51.632228
 21
72.383199
 31
0.0
  0
SPLINE
  5
6A
100
AcDbEntity
  8
ALPHA
100
AcDbSpline
210
0.0
220
0.0
230
1.0
 70
    11
 71
     3
 72
    23
 73
    19
 74
     0
 42
0.0000001
 43
0.0000001
 40
0.0
 40
0.0
 40
0.0
 40
0.0
 40
1.0
 40
1.0
 40
1.0
 40
2.0
 40
2.0
 40
2.0
 40
3.0
 40
3.0
 40
3.0
 40
4.0
 40
4.0
 40
4.0
 40
5.0
 40
5.0
 40
5.0
 40
6.0
 40
6.0
 40
6.0
 40
6.0
 10
41.68826483972736
 20
187.541800174382
 30
0.0
 10
41.68826483972736
 20
187.541800174382
 30
0.0
 10
41.68826483972736
 20
162.7972820180775
 30
0.0
 10
41.68826483972736
 20
162.7972820180775
 30
0.0
 10
41.68826483972736
 20
161.6584834584395
 30
0.0
 10
42.61248592156881
 20
160.73645941562
 30
0.0
 10
43.7490874421851
 20
160.73645941562
 30
0.0
 10
43.7490874421851
 20
160.73645941562
 30
0.0
 10
77.65705477904487
 20
160.73645941562
 30
0.0
 10
77.65705477904487
 20
160.73645941562
 30
0.0
 10
78.79512099234239
 20
160.73645941562
 30
0.0
 10
79.71787738150249
 20
161.6584834584395
 30
0.0
 10
79.71787738150249
 20
162.7972820180775
 30
0.0
 10
79.71787738150249
 20
162.7972820180775
 30
0.0
 10
79.71787738150249
 20
187.541800174382
 30
0.0
 10
79.71787738150249
 20
187.541800174382
 30
0.0
 10
79.71787738150249
 20
187.541800174382
 30
0.0
 10
41.68826483972736
 20
187.541800174382
 30
0.0
 10
41.68826483972736
 20
187.541800174382
 30
0.0
  0
SPLINE
  5
69
100
AcDbEntity
  8
ALPHA
100
AcDbSpline
210
0.0
220
0.0
230
-1.0
 70
    11
 71
     3
 72
    29
 73
    25
 74
     0
 42
0.0000001
 43
0.0000001
 40
0.0
 40
0.0
 40
0.0
 40
0.0
 40
1.0
 40
1.0
 40
1.0
 40
2.0
 40
2.0
 40
2.0
 40
3.0
 40
3.0
 40
3.0
 40
4.0
 40
4.0
 40
4.0
 40
5.0
 40
5.0
 40
5.0
 40
6.0
 40
6.0
 40
6.0
 40
7.0
 40
7.0
 40
7.0
 40
8.0
 40
8.0
 40
8.0
 40
8.0
 10
66.88993299603168
 20
163.8291580119876
 30
0.0
 10
69.16606542262662
 20
163.8291580119876
 30
0.0
 10
71.01304289362826
 20
165.6754031366486
 30
0.0
 10
71.01304289362826
 20
167.9522679095841
 30
0.0
 10
71.01304289362826
 20
167.9522679095841
 30
0.0
 10
71.01304289362826
 20
180.3259916804176
 30
0.0
 10
71.01304289362826
 20
180.3259916804176
 30
0.0
 10
71.01304289362826
 20
182.6028564533533
 30
0.0
 10
69.16606542262662
 20
184.4491015780142
 30
0.0
 10
66.88993299603168
 20
184.4491015780142
 30
0.0
 10
66.88993299603168
 20
184.4491015780142
 30
0.0
 10
54.5176739178795
 20
184.4491015780142
 30
0.0
 10
54.5176739178795
 20
184.4491015780142
 30
0.0
 10
52.23861210592213
 20
184.4491015780142
 30
0.0
 10
50.39309932760182
 20
182.6028564533533
 30
0.0
 10
50.39309932760182
 20
180.3259916804176
 30
0.0
 10
50.39309932760182
 20
180.3259916804176
 30
0.0
 10
50.39309932760182
 20
167.9522679095841
 30
0.0
 10
50.39309932760182
 20
167.9522679095841
 30
0.0
 10
50.39309932760182
 20
165.6754031366486
 30
0.0
 10
52.23861210592213
 20
163.8291580119876
 30
0.0
 10
54.5176739178795
 20
163.8291580119876
 30
0.0
 10
54.5176739178795
 20
163.8291580119876
 30
0.0
 10
66.88993299603168
 20
163.8291580119876
 30
0.0
 10
66.88993299603168
 20
163.8291580119876
 30
0.0
  0
POLYLINE
  5
64
100
AcDbEntity
  8
ALPHA
100
AcDb2dPolyline
 66
     1
 10
0.0
 20
0.0
 30
0.0
 70
     1
  0
VERTEX
  5
65
100
AcDbEntity
  8
ALPHA
100
AcDbVertex
100
AcDb2dVertex
 10
60.703071
 20
165.64684
 30
0.0
  0
VERTEX
  5
66
100
AcDbEntity
  8
ALPHA
100
AcDbVertex
100
AcDb2dVertex
 10
62.599849
 20
174.240925
 30
0.0
  0
VERTEX
  5
67
100
AcDbEntity
  8
ALPHA
100
AcDbVertex
100
AcDb2dVertex
 10
58.80776
 20
174.240925
 30
0.0
  0
SEQEND
  5
68
100
AcDbEntity
  8
ALPHA
  0
POLYLINE
  5
5F
100
AcDbEntity
  8
ALPHA
100
AcDb2dPolyline
 66
     1
 10
0.0
 20
0.0
 30
0.0
 70
     1
  0
VERTEX
  5
60
100
AcDbEntity
  8
ALPHA
100
AcDbVertex
100
AcDb2dVertex
 10
55.742156
 20
182.378757
 30
0.0
  0
VERTEX
  5
61
100
AcDbEntity
  8
ALPHA
100
AcDbVertex
100
AcDb2dVertex
 10
60.704534
 20
174.377144
 30
0.0
  0
VERTEX
  5
62
100
AcDbEntity
  8
ALPHA
100
AcDbVertex
100
AcDb2dVertex
 10
65.986218
 20
182.378757
 30
0.0
  0
SEQEND
  5
63
100
AcDbEntity
  8
ALPHA
  0
SPLINE
  5
5E
100
AcDbEntity
  8
ALPHA
100
AcDbSpline
210
0.0
220
0.0
230
1.0
 70
     8
 71
     3
 72
    11
 73
     7
 74
     0
 42
0.0000001
 43
0.0000001
 40
0.0
 40
0.0
 40
0.0
 40
0.0
 40
1.0
 40
1.0
 40
1.0
 40
2.0
 40
2.0
 40
2.0
 40
2.0
 10
41.73659969820732
 20
148.0654030305017
 30
0.0
 10
41.73659969820732
 20
145.1543263266035
 30
0.0
 10
44.23097133430201
 20
139.4537424113474
 30
0.0
 10
48.73360251979454
 20
139.4537424113474
 30
0.0
 10
48.73360251979454
 20
139.4537424113474
 30
0.0
 10
48.73360251979454
 20
75.2671779401561
 30
0.0
 10
48.73360251979454
 20
75.2671779401561
 30
0.0
  0
SPLINE
  5
5D
100
AcDbEntity
  8
ALPHA
100
AcDbSpline
210
0.0
220
0.0
230
-1.0
 70
     8
 71
     3
 72
    11
 73
     7
 74
     0
 42
0.0000001
 43
0.0000001
 40
0.0
 40
0.0
 40
0.0
 40
0.0
 40
1.0
 40
1.0
 40
1.0
 40
2.0
 40
2.0
 40
2.0
 40
2.0
 10
79.12058321570384
 20
148.0654030305017
 30
0.0
 10
79.12058321570384
 20
145.1543263266035
 30
0.0
 10
76.441660301777
 20
139.353410962685
 30
0.0
 10
72.48652373092193
 20
139.353410962685
 30
0.0
 10
72.48652373092193
 20
139.353410962685
 30
0.0
 10
72.48652373092193
 20
75.2671779401561
 30
0.0
 10
72.48652373092193
 20
75.2671779401561
 30
0.0
  0
LINE
  5
5C
100
AcDbEntity
  8
ALPHA
100
AcDbLine
 10
80.210013
 20
258.164886
 30
0.0
 11
41.160977
 21
258.164886
 31
0.0
  0
SPLINE
  5
5B
100
AcDbEntity
  8
ALPHA
100
AcDbSpline
210
0.0
220
0.0
230
1.0
 70
     8
 71
     3
 72
    26
 73
    22
 74
     0
 42
0.0000001
 43
0.0000001
 40
0.0
 40
0.0
 40
0.0
 40
0.0
 40
1.0
 40
1.0
 40
1.0
 40
2.0
 40
2.0
 40
2.0
 40
3.0
 40
3.0
 40
3.0
 40
4.0
 40
4.0
 40
4.0
 40
5.0
 40
5.0
 40
5.0
 40
6.0
 40
6.0
 40
6.0
 40
7.0
 40
7.0
 40
7.0
 40
7.0
 10
79.2802347179554
 20
148.2397014595654
 30
0.0
 10
80.17046741999548
 20
150.549521817828
 30
0.0
 10
80.35941277587097
 20
154.3196407792539
 30
0.0
 10
80.35941277587097
 20
157.4760535072542
 30
0.0
 10
80.35941277587097
 20
157.4760535072542
 30
0.0
 10
80.34769523442127
 20
264.2243208062719
 30
0.0
 10
80.34769523442127
 20
264.2243208062719
 30
0.0
 10
80.34769523442127
 20
265.9922048724885
 30
0.0
 10
78.80830322647307
 20
267.4056333098528
 30
0.0
 10
76.50580633161656
 20
267.4246743147083
 30
0.0
 10
76.50580633161656
 20
267.4246743147083
 30
0.0
 10
44.86518326526459
 20
267.4246743147083
 30
0.0
 10
44.86518326526459
 20
267.4246743147083
 30
0.0
 10
42.7428435701961
 20
267.4246743147083
 30
0.0
 10
41.05258821608368
 20
265.9922048724885
 30
0.0
 10
41.05258821608368
 20
264.2243208062719
 30
0.0
 10
41.05258821608368
 20
264.2243208062719
 30
0.0
 10
41.04380005999644
 20
157.2548849123919
 30
0.0
 10
41.04380005999644
 20
157.2548849123919
 30
0.0
 10
41.04380005999644
 20
153.9783673845325
 30
0.0
 10
41.25178642072785
 20
150.3232267985815
 30
0.0
 10
41.61649489834838
 20
147.9709303525638
 30
0.0
  0
SPLINE
  5
5A
100
AcDbEntity
  8
ALPHA
100
AcDbSpline
210
0.0
220
0.0
230
-1.0
 70
    11
 71
     3
 72
    23
 73
    19
 74
     0
 42
0.0000001
 43
0.0000001
 40
0.0
 40
0.0
 40
0.0
 40
0.0
 40
1.0
 40
1.0
 40
1.0
 40
2.0
 40
2.0
 40
2.0
 40
3.0
 40
3.0
 40
3.0
 40
4.0
 40
4.0
 40
4.0
 40
5.0
 40
5.0
 40
5.0
 40
6.0
 40
6.0
 40
6.0
 40
6.0
 10
41.68826483972736
 20
190.0149337665993
 30
0.0
 10
41.68826483972736
 20
190.0149337665993
 30
0.0
 10
41.68826483972736
 20
214.7594519229036
 30
0.0
 10
41.68826483972736
 20
214.7594519229036
 30
0.0
 10
41.68826483972736
 20
215.8989828288822
 30
0.0
 10
42.61248592156881
 20
216.8217392180423
 30
0.0
 10
43.7490874421851
 20
216.8217392180423
 30
0.0
 10
43.7490874421851
 20
216.8217392180423
 30
0.0
 10
77.65705477904487
 20
216.8217392180423
 30
0.0
 10
77.65705477904487
 20
216.8217392180423
 30
0.0
 10
78.79512099234239
 20
216.8217392180423
 30
0.0
 10
79.71787738150249
 20
215.8989828288822
 30
0.0
 10
79.71787738150249
 20
214.7594519229036
 30
0.0
 10
79.71787738150249
 20
214.7594519229036
 30
0.0
 10
79.71787738150249
 20
190.0149337665993
 30
0.0
 10
79.71787738150249
 20
190.0149337665993
 30
0.0
 10
79.71787738150249
 20
190.0149337665993
 30
0.0
 10
41.68826483972736
 20
190.0149337665993
 30
0.0
 10
41.68826483972736
 20
190.0149337665993
 30
0.0
  0
SPLINE
  5
59
100
AcDbEntity
  8
ALPHA
100
AcDbSpline
210
0.0
220
0.0
230
-1.0
 70
    11
 71
     3
 72
    29
 73
    25
 74
     0
 42
0.0000001
 43
0.0000001
 40
0.0
 40
0.0
 40
0.0
 40
0.0
 40
1.0
 40
1.0
 40
1.0
 40
2.0
 40
2.0
 40
2.0
 40
3.0
 40
3.0
 40
3.0
 40
4.0
 40
4.0
 40
4.0
 40
5.0
 40
5.0
 40
5.0
 40
6.0
 40
6.0
 40
6.0
 40
7.0
 40
7.0
 40
7.0
 40
8.0
 40
8.0
 40
8.0
 40
8.0
 10
66.88993299603168
 20
213.7290406216746
 30
0.0
 10
69.16606542262662
 20
213.7290406216746
 30
0.0
 10
71.01304289362826
 20
211.8827954970137
 30
0.0
 10
71.01304289362826
 20
209.6044660313968
 30
0.0
 10
71.01304289362826
 20
209.6044660313968
 30
0.0
 10
71.01304289362826
 20
197.2322069532448
 30
0.0
 10
71.01304289362826
 20
197.2322069532448
 30
0.0
 10
71.01304289362826
 20
194.9538774876278
 30
0.0
 10
69.16606542262662
 20
193.1076323629668
 30
0.0
 10
66.88993299603168
 20
193.1076323629668
 30
0.0
 10
66.88993299603168
 20
193.1076323629668
 30
0.0
 10
54.5176739178795
 20
193.1076323629668
 30
0.0
 10
54.5176739178795
 20
193.1076323629668
 30
0.0
 10
52.23861210592213
 20
193.1076323629668
 30
0.0
 10
50.39309932760182
 20
194.9538774876278
 30
0.0
 10
50.39309932760182
 20
197.2322069532448
 30
0.0
 10
50.39309932760182
 20
197.2322069532448
 30
0.0
 10
50.39309932760182
 20
209.6044660313968
 30
0.0
 10
50.39309932760182
 20
209.6044660313968
 30
0.0
 10
50.39309932760182
 20
211.8827954970137
 30
0.0
 10
52.23861210592213
 20
213.7290406216746
 30
0.0
 10
54.5176739178795
 20
213.7290406216746
 30
0.0
 10
54.5176739178795
 20
213.7290406216746
 30
0.0
 10
66.88993299603168
 20
213.7290406216746
 30
0.0
 10
66.88993299603168
 20
213.7290406216746
 30
0.0
  0
POLYLINE
  5
54
100
AcDbEntity
  8
ALPHA
100
AcDb2dPolyline
 66
     1
 10
0.0
 20
0.0
 30
0.0
 70
     1
  0
VERTEX
  5
55
100
AcDbEntity
  8
ALPHA
100
AcDbVertex
100
AcDb2dVertex
 10
55.58104
 20
195.180174
 30
0.0
  0
VERTEX
  5
56
100
AcDbEntity
  8
ALPHA
100
AcDbVertex
100
AcDb2dVertex
 10
60.543418
 20
203.180324
 30
0.0
  0
VERTEX
  5
57
100
AcDbEntity
  8
ALPHA
100
AcDbVertex
100
AcDb2dVertex
 10
65.825102
 20
195.180174
 30
0.0
  0
SEQEND
  5
58
100
AcDbEntity
  8
ALPHA
  0
POLYLINE
  5
4D
100
AcDbEntity
  8
ALPHA
100
AcDb2dPolyline
 66
     1
 10
0.0
 20
0.0
 30
0.0
 70
     1
  0
VERTEX
  5
4E
100
AcDbEntity
  8
ALPHA
100
AcDbVertex
100
AcDb2dVertex
 10
41.688265
 20
279.318887
 30
0.0
  0
VERTEX
  5
4F
100
AcDbEntity
  8
ALPHA
100
AcDbVertex
100
AcDb2dVertex
 10
79.717877
 20
279.318887
 30
0.0
  0
VERTEX
  5
50
100
AcDbEntity
  8
ALPHA
100
AcDbVertex
100
AcDb2dVertex
 10
79.717877
 20
291.689683
 30
0.0
  0
VERTEX
  5
51
100
AcDbEntity
  8
ALPHA
100
AcDbVertex
100
AcDb2dVertex
 10
41.688265
 20
291.689683
 30
0.0
  0
SEQEND
  5
52
100
AcDbEntity
  8
ALPHA
  0
CIRCLE
  5
4C
100
AcDbEntity
  8
ALPHA
100
AcDbCircle
 10
60.703071
 20
233.768233
 30
0.0
 40
15.464957
  0
SPLINE
  5
4B
100
AcDbEntity
  8
ALPHA
100
AcDbSpline
210
0.0
220
0.0
230
1.0
 70
    11
 71
     3
 72
    32
 73
    28
 74
     0
 42
0.0000001
 43
0.0000001
 40
0.0
 40
0.0
 40
0.0
 40
0.0
 40
1.0
 40
1.0
 40
1.0
 40
2.0
 40
2.0
 40
2.0
 40
3.0
 40
3.0
 40
3.0
 40
4.0
 40
4.0
 40
4.0
 40
5.0
 40
5.0
 40
5.0
 40
6.0
 40
6.0
 40
6.0
 40
7.0
 40
7.0
 40
7.0
 40
8.0
 40
8.0
 40
8.0
 40
9.0
 40
9.0
 40
9.0
 40
9.0
 10
66.60431792319627
 20
226.6080833675242
 30
0.0
 10
65.00194412995643
 20
225.2854658763946
 30
0.0
 10
62.94551560554225
 20
224.4886730578183
 30
0.0
 10
60.70307111061504
 20
224.4886730578183
 30
0.0
 10
58.83412324939536
 20
224.4886730578183
 30
0.0
 10
57.0955330368032
 20
225.0423268913145
 30
0.0
 10
55.63962851168378
 20
225.9914477487364
 30
0.0
 10
55.63962851168378
 20
225.9914477487364
 30
0.0
 10
56.35879261815637
 20
226.8168020745959
 30
0.0
 10
56.35879261815637
 20
226.8168020745959
 30
0.0
 10
56.35879261815637
 20
226.8168020745959
 30
0.0
 10
51.92370317946256
 20
228.079367165796
 30
0.0
 10
51.92370317946256
 20
228.079367165796
 30
0.0
 10
51.92370317946256
 20
228.079367165796
 30
0.0
 10
53.57587652386371
 20
223.7746353757301
 30
0.0
 10
53.57587652386371
 20
223.7746353757301
 30
0.0
 10
53.57587652386371
 20
223.7746353757301
 30
0.0
 10
54.36241649367173
 20
224.3641741799157
 30
0.0
 10
54.36241649367173
 20
224.3641741799157
 30
0.0
 10
56.17131195496177
 20
223.1418881374489
 30
0.0
 10
58.35370404995967
 20
222.4278504553605
 30
0.0
 10
60.70307111061504
 20
222.4278504553605
 30
0.0
 10
63.35416486359895
 20
222.4278504553605
 30
0.0
 10
65.79141348512667
 20
223.3366922640491
 30
0.0
 10
67.72334313163821
 20
224.8607049988448
 30
0.0
 10
67.72334313163821
 20
224.8607049988448
 30
0.0
 10
66.60431792319627
 20
226.6080833675242
 30
0.0
 10
66.60431792319627
 20
226.6080833675242
 30
0.0
  0
SPLINE
  5
4A
100
AcDbEntity
  8
ALPHA
100
AcDbSpline
210
0.0
220
0.0
230
1.0
 70
    11
 71
     3
 72
    26
 73
    22
 74
     0
 42
0.0000001
 43
0.0000001
 40
0.0
 40
0.0
 40
0.0
 40
0.0
 40
1.0
 40
1.0
 40
1.0
 40
2.0
 40
2.0
 40
2.0
 40
3.0
 40
3.0
 40
3.0
 40
4.0
 40
4.0
 40
4.0
 40
5.0
 40
5.0
 40
5.0
 40
6.0
 40
6.0
 40
6.0
 40
7.0
 40
7.0
 40
7.0
 40
7.0
 10
72.87906136948539
 20
235.3266665524066
 30
0.0
 10
72.87906136948539
 20
235.3266665524066
 30
0.0
 10
70.84020915724591
 20
231.1903744206791
 30
0.0
 10
70.84020915724591
 20
231.1903744206791
 30
0.0
 10
70.84020915724591
 20
231.1903744206791
 30
0.0
 10
68.75595147188892
 20
235.3010344304854
 30
0.0
 10
68.75595147188892
 20
235.3010344304854
 30
0.0
 10
68.75595147188892
 20
235.3010344304854
 30
0.0
 10
69.84861221206881
 20
235.3413134792185
 30
0.0
 10
69.84861221206881
 20
235.3413134792185
 30
0.0
 10
69.2363706713246
 20
238.9246841237904
 30
0.0
 10
66.57062999152856
 20
241.8057346277241
 30
0.0
 10
63.10516710779371
 20
242.7328850949277
 30
0.0
 10
63.10516710779371
 20
242.7328850949277
 30
0.0
 10
63.54018083411233
 20
244.7519639559711
 30
0.0
 10
63.54018083411233
 20
244.7519639559711
 30
0.0
 10
67.94744111186287
 20
243.6160947816952
 30
0.0
 10
71.31769897131937
 20
239.8979724104524
 30
0.0
 10
71.94019336083193
 20
235.3083578938913
 30
0.0
 10
71.94019336083193
 20
235.3083578938913
 30
0.0
 10
72.87906136948539
 20
235.3266665524066
 30
0.0
 10
72.87906136948539
 20
235.3266665524066
 30
0.0
  0
SPLINE
  5
49
100
AcDbEntity
  8
ALPHA
100
AcDbSpline
210
0.0
220
0.0
230
-1.0
 70
    11
 71
     3
 72
    32
 73
    28
 74
     0
 42
0.0000001
 43
0.0000001
 40
0.0
 40
0.0
 40
0.0
 40
0.0
 40
1.0
 40
1.0
 40
1.0
 40
2.0
 40
2.0
 40
2.0
 40
3.0
 40
3.0
 40
3.0
 40
4.0
 40
4.0
 40
4.0
 40
5.0
 40
5.0
 40
5.0
 40
6.0
 40
6.0
 40
6.0
 40
7.0
 40
7.0
 40
7.0
 40
8.0
 40
8.0
 40
8.0
 40
9.0
 40
9.0
 40
9.0
 40
9.0
 10
49.78964594294473
 20
230.6755349432348
 30
0.0
 10
49.51135433351533
 20
231.6598084250059
 30
0.0
 10
49.36195568003222
 20
232.6960784969595
 30
0.0
 10
49.36195568003222
 20
233.7682335396029
 30
0.0
 10
49.36195568003222
 20
236.7364332580678
 30
0.0
 10
50.50441597137342
 20
239.4395236012348
 30
0.0
 10
52.36896975454943
 20
241.4607995012997
 30
0.0
 10
52.36896975454943
 20
241.4607995012997
 30
0.0
 10
51.79481022351637
 20
242.2121868467588
 30
0.0
 10
51.79481022351637
 20
242.2121868467588
 30
0.0
 10
51.79481022351637
 20
242.2121868467588
 30
0.0
 10
56.28702267677716
 20
243.2506539577341
 30
0.0
 10
56.28702267677716
 20
243.2506539577341
 30
0.0
 10
56.28702267677716
 20
243.2506539577341
 30
0.0
 10
54.42100420091981
 20
239.0345360748811
 30
0.0
 10
54.42100420091981
 20
239.0345360748811
 30
0.0
 10
54.42100420091981
 20
239.0345360748811
 30
0.0
 10
53.70330478712867
 20
239.8591580544004
 30
0.0
 10
53.70330478712867
 20
239.8591580544004
 30
0.0
 10
52.28401757903952
 20
238.2289551002173
 30
0.0
 10
51.42277828248996
 20
236.0992919417429
 30
0.0
 10
51.42277828248996
 20
233.7682335396029
 30
0.0
 10
51.42277828248996
 20
232.9135853601186
 30
0.0
 10
51.53995369698657
 20
232.0867663415774
 30
0.0
 10
51.7567282138051
 20
231.3024234107916
 30
0.0
 10
51.7567282138051
 20
231.3024234107916
 30
0.0
 10
49.78964594294473
 20
230.6755349432348
 30
0.0
 10
49.78964594294473
 20
230.6755349432348
 30
0.0
  0
POLYLINE
  5
29
100
AcDbEntity
  8
ALPHA
100
AcDb2dPolyline
 66
     1
 10
0.0
 20
0.0
 30
0.0
 70
     1
  0
VERTEX
  5
2A
100
AcDbEntity
  8
ALPHA
100
AcDbVertex
100
AcDb2dVertex
 10
60.541955
 20
211.911356
 30
0.0
  0
VERTEX
  5
2B
100
AcDbEntity
  8
ALPHA
100
AcDbVertex
100
AcDb2dVertex
 10
62.438733
 20
203.317275
 30
0.0
  0
VERTEX
  5
2C
100
AcDbEntity
  8
ALPHA
100
AcDbVertex
100
AcDb2dVertex
 10
58.646644
 20
203.317275
 30
0.0
  0
SEQEND
  5
2D
100
AcDbEntity
  8
ALPHA
  0
DIMENSION
  5
202
100
AcDbEntity
  8
COTATION1
100
AcDbDimension
  2
*D1
 10
121.692116
 20
361.052363
 30
0.0
 11
121.692116
 21
213.530609
 31
0.0
 70
    32
  3
SC_DEFAUT
100
AcDbAlignedDimension
 13
78.602082
 23
66.008856
 33
0.0
 14
60.582892
 24
361.052363
 34
0.0
 50
90.0
100
AcDbRotatedDimension
  0
DIMENSION
  5
235
100
AcDbEntity
  8
COTATION1
100
AcDbDimension
  2
*D2
 10
111.692838
 20
301.029295
 30
0.0
 11
111.692838
 21
183.519075
 31
0.0
 70
    32
  3
SC_DEFAUT
100
AcDbAlignedDimension
 13
78.602082
 23
66.008856
 33
0.0
 14
78.124292
 24
301.029295
 34
0.0
 50
90.0
100
AcDbRotatedDimension
  0
LINE
  5
2A7
100
AcDbEntity
  8
AXE
100
AcDbLine
 10
60.703071
 20
51.008856
 30
0.0
 11
60.703071
 21
371.052363
 31
0.0
  0
TEXT
  5
2A8
100
AcDbEntity
  8
AXE
100
AcDbText
 10
53.226881
 20
51.008856
 30
0.0
 40
8.0
  1
Y
  7
ROMANS
 72
     2
 11
59.703071
 21
51.008856
 31
0.0
100
AcDbText
  0
LINE
  5
2A9
100
AcDbEntity
  8
AXE
100
AcDbLine
 10
24.697287
 20
233.768233
 30
0.0
 11
101.697271
 21
233.768233
 31
0.0
  0
TEXT
  5
2AA
100
AcDbEntity
  8
AXE
100
AcDbText
 10
95.22108
 20
234.768233
 30
0.0
 40
8.0
  1
X
  7
ROMANS
 72
     2
 11
101.697271
 21
234.768233
 31
0.0
100
AcDbText
  0
SPLINE
  5
2AB
100
AcDbEntity
  8
ALPHA
100
AcDbSpline
210
0.0
220
0.0
230
1.0
 70
     8
 71
     3
 72
     8
 73
     4
 74
     0
 42
0.0000001
 43
0.0000001
 40
0.0
 40
0.0
 40
0.0
 40
0.0
 40
1.0
 40
1.0
 40
1.0
 40
1.0
 10
78.1449320065567
 20
66.00885550224916
 30
0.0
 10
80.11640835546087
 20
66.31790565798372
 30
0.0
 10
81.62504181710369
 20
68.20150044601553
 30
0.0
 10
82.08219181710365
 20
70.26085835579204
 30
0.0
  0
SPLINE
  5
2AC
100
AcDbEntity
  8
ALPHA
100
AcDbSpline
210
-0.9999999934972983
220
-0.0001140412364679
230
0.0
 70
    24
 71
     3
 72
     8
 73
     4
 74
     0
 42
0.0000001
 43
0.0000001
 40
1.0
 40
1.0
 40
1.0
 40
1.0
 40
2.0
 40
2.0
 40
2.0
 40
2.0
 10
82.08219181710365
 20
70.26085835579204
 30
0.0
 10
82.08219181710365
 20
70.26085835579204
 30
0.0
 10
82.07340366101641
 20
147.3220714947893
 30
0.0
 10
82.07340366101641
 20
147.3220714947893
 30
0.0
  0
SPLINE
  5
2AD
100
AcDbEntity
  8
ALPHA
100
AcDbSpline
210
0.0
220
0.0
230
-1.0
 70
     8
 71
     3
 72
     8
 73
     4
 74
     0
 42
0.0000001
 43
0.0000001
 40
2.0
 40
2.0
 40
2.0
 40
2.0
 40
3.0
 40
3.0
 40
3.0
 40
3.0
 10
82.07340366101641
 20
147.3220714947893
 30
0.0
 10
82.07340366101641
 20
149.1368257268041
 30
0.0
 10
83.39279131864987
 20
150.925947836898
 30
0.0
 10
84.4737345173803
 20
152.2353830938968
 30
0.0
  0
SPLINE
  5
2AE
100
AcDbEntity
  8
ALPHA
100
AcDbSpline
210
0.0
220
0.0
230
1.0
 70
     8
 71
     3
 72
     8
 73
     4
 74
     0
 42
0.0000001
 43
0.0000001
 40
3.0
 40
3.0
 40
3.0
 40
3.0
 40
4.0
 40
4.0
 40
4.0
 40
4.0
 10
84.4737345173803
 20
152.2353830938968
 30
0.0
 10
85.68210597937582
 20
153.5792386289039
 30
0.0
 10
86.70446147085796
 20
157.2614760294573
 30
0.0
 10
86.70446147085796
 20
159.1941380223093
 30
0.0
  0
SPLINE
  5
2AF
100
AcDbEntity
  8
ALPHA
100
AcDbSpline
210
-0.9999999953514414
220
-0.0000964215590568
230
0.0
 70
    24
 71
     3
 72
     8
 73
     4
 74
     0
 42
0.0000001
 43
0.0000001
 40
4.0
 40
4.0
 40
4.0
 40
4.0
 40
5.0
 40
5.0
 40
5.0
 40
5.0
 10
86.70446147085796
 20
159.1941380223093
 30
0.0
 10
86.70446147085796
 20
159.1941380223093
 30
0.0
 10
86.69127923672704
 20
295.9087296403514
 30
0.0
 10
86.69127923672704
 20
295.9087296403514
 30
0.0
  0
SPLINE
  5
2B0
100
AcDbEntity
  8
ALPHA
100
AcDbSpline
210
0.0
220
0.0
230
-1.0
 70
     8
 71
     3
 72
     8
 73
     4
 74
     0
 42
0.0000001
 43
0.0000001
 40
5.0
 40
5.0
 40
5.0
 40
5.0
 40
6.0
 40
6.0
 40
6.0
 40
6.0
 10
86.69127923672704
 20
295.9087296403514
 30
0.0
 10
86.69127923672704
 20
298.7363188614208
 30
0.0
 10
84.54989853680297
 20
301.0292952538498
 30
0.0
 10
81.72157696939313
 20
301.0292952538498
 30
0.0
  0
SPLINE
  5
2B1
100
AcDbEntity
  8
ALPHA
100
AcDbSpline
210
0.0
220
1.0
230
0.0
 70
    24
 71
     3
 72
     8
 73
     4
 74
     0
 42
0.0000001
 43
0.0000001
 40
6.0
 40
6.0
 40
6.0
 40
6.0
 40
7.0
 40
7.0
 40
7.0
 40
7.0
 10
81.72157696939313
 20
301.0292952538498
 30
0.0
 10
81.72157696939313
 20
301.0292952538498
 30
0.0
 10
39.73436480299779
 20
301.0292952538498
 30
0.0
 10
39.73436480299779
 20
301.0292952538498
 30
0.0
  0
SPLINE
  5
2B2
100
AcDbEntity
  8
ALPHA
100
AcDbSpline
210
0.0
220
0.0
230
-1.0
 70
     8
 71
     3
 72
    14
 73
    10
 74
     0
 42
0.0000001
 43
0.0000001
 40
7.0
 40
7.0
 40
7.0
 40
7.0
 40
8.0
 40
8.0
 40
8.0
 40
9.0
 40
9.0
 40
9.0
 40
10.0
 40
10.0
 40
10.0
 40
10.0
 10
39.73436480299779
 20
301.0292952538498
 30
0.0
 10
36.90457854290673
 20
301.0292952538498
 30
0.0
 10
34.69728667232834
 20
298.7363188614208
 30
0.0
 10
34.69728667232834
 20
295.9087296403514
 30
0.0
 10
34.69728667232834
 20
295.9087296403514
 30
0.0
 10
34.69728667232834
 20
159.265175617348
 30
0.0
 10
34.69728667232834
 20
159.265175617348
 30
0.0
 10
34.69728667232834
 20
157.330316585474
 30
0.0
 10
35.72257154917292
 20
153.5792386289039
 30
0.0
 10
36.93387239653088
 20
152.2353830938968
 30
0.0
  0
SPLINE
  5
2B3
100
AcDbEntity
  8
ALPHA
100
AcDbSpline
210
0.0
220
0.0
230
1.0
 70
     8
 71
     3
 72
     8
 73
     4
 74
     0
 42
0.0000001
 43
0.0000001
 40
10.0
 40
10.0
 40
10.0
 40
10.0
 40
11.0
 40
11.0
 40
11.0
 40
11.0
 10
36.93387239653088
 20
152.2353830938968
 30
0.0
 10
38.01481559526121
 20
150.925947836898
 30
0.0
 10
38.79696148702544
 20
149.2430159461917
 30
0.0
 10
38.79696148702544
 20
147.4282617141768
 30
0.0
  0
SPLINE
  5
2B4
100
AcDbEntity
  8
ALPHA
100
AcDbSpline
210
-0.9999999884987397
220
0.0001516658176512
230
0.0
 70
    24
 71
     3
 72
     8
 73
     4
 74
     0
 42
0.0000001
 43
0.0000001
 40
11.0
 40
11.0
 40
11.0
 40
11.0
 40
12.0
 40
12.0
 40
12.0
 40
12.0
 10
38.79696148702544
 20
147.4282617141768
 30
0.0
 10
38.79696148702544
 20
147.4282617141768
 30
0.0
 10
38.78524394557598
 20
70.16931506321668
 30
0.0
 10
38.78524394557598
 20
70.16931506321668
 30
0.0
  0
SPLINE
  5
2B5
100
AcDbEntity
  8
ALPHA
100
AcDbSpline
210
0.0
220
0.0
230
-1.0
 70
     8
 71
     3
 72
     8
 73
     4
 74
     0
 42
0.0000001
 43
0.0000001
 40
12.0
 40
12.0
 40
12.0
 40
12.0
 40
13.0
 40
13.0
 40
13.0
 40
13.0
 10
38.78524394557598
 20
70.16931506321668
 30
0.0
 10
39.24239394557594
 20
68.21614737282766
 30
0.0
 10
40.60016406105444
 20
66.43434872613966
 30
0.0
 10
42.42370644915661
 20
66.00885550224916
 30
0.0
  0
SPLINE
  5
2B6
100
AcDbEntity
  8
ALPHA
100
AcDbSpline
210
0.0
220
1.0
230
0.0
 70
    24
 71
     3
 72
     8
 73
     4
 74
     0
 42
0.0000001
 43
0.0000001
 40
13.0
 40
13.0
 40
13.0
 40
13.0
 40
14.0
 40
14.0
 40
14.0
 40
14.0
 10
42.42370644915661
 20
66.00885550224916
 30
0.0
 10
42.42370644915661
 20
66.00885550224916
 30
0.0
 10
78.1449320065567
 20
66.00885550224916
 30
0.0
 10
78.1449320065567
 20
66.00885550224916
 30
0.0
  0
SPLINE
  5
2CD
100
AcDbEntity
  8
ALPHA
100
AcDbSpline
210
-1.0
220
0.0
230
0.0
 70
    24
 71
     3
 72
     8
 73
     4
 74
     0
 42
0.0000001
 43
0.0000001
 40
0.0
 40
0.0
 40
0.0
 40
0.0
 40
1.0
 40
1.0
 40
1.0
 40
1.0
 10
51.10493997066817
 20
301.0263658684872
 30
0.0
 10
51.10493997066817
 20
301.0263658684872
 30
0.0
 10
51.10493997066817
 20
326.6416059675812
 30
0.0
 10
51.10493997066817
 20
326.6416059675812
 30
0.0
  0
SPLINE
  5
2CE
100
AcDbEntity
  8
ALPHA
100
AcDbSpline
210
0.0
220
0.0
230
1.0
 70
     8
 71
     3
 72
     8
 73
     4
 74
     0
 42
0.0000001
 43
0.0000001
 40
1.0
 40
1.0
 40
1.0
 40
1.0
 40
2.0
 40
2.0
 40
2.0
 40
2.0
 10
51.10493997066817
 20
326.6416059675812
 30
0.0
 10
51.10493997066817
 20
327.1710923718373
 30
0.0
 10
51.53995369698657
 20
327.8397245808081
 30
0.0
 10
52.06870775490211
 20
327.8397245808081
 30
0.0
  0
SPLINE
  5
2CF
100
AcDbEntity
  8
ALPHA
100
AcDbSpline
210
-0.9846652795810165
220
0.1744542552867048
230
0.0
 70
    24
 71
     3
 72
     8
 73
     4
 74
     0
 42
0.0000001
 43
0.0000001
 40
2.0
 40
2.0
 40
2.0
 40
2.0
 40
2.34933328624709
 40
2.34933328624709
 40
2.34933328624709
 40
2.34933328624709
 10
52.06870775490211
 20
327.8397245808081
 30
0.0
 10
52.06870775490211
 20
327.8397245808081
 30
0.0
 10
52.24155120409978
 20
328.8152980510471
 30
0.0
 10
52.46647816226619
 20
330.0848444188569
 30
0.0
  0
SPLINE
  5
2D0
100
AcDbEntity
  8
ALPHA
100
AcDbSpline
210
0.0
220
0.0
230
-1.0
 70
     8
 71
     3
 72
    11
 73
     7
 74
     0
 42
0.0000001
 43
0.0000001
 40
3.0
 40
3.0
 40
3.0
 40
3.0
 40
4.0
 40
4.0
 40
4.0
 40
5.0
 40
5.0
 40
5.0
 40
5.0
 10
53.48506557762869
 20
335.8340172348338
 30
0.0
 10
53.0427283879045
 20
335.9197017566843
 30
0.0
 10
52.70877845658936
 20
336.3078453172042
 30
0.0
 10
52.70877845658936
 20
336.7772793215308
 30
0.0
 10
52.70877845658936
 20
337.3067657257871
 30
0.0
 10
53.13939810486409
 20
337.9753979347578
 30
0.0
 10
53.66961685546084
 20
337.9753979347578
 30
0.0
  0
SPLINE
  5
2D1
100
AcDbEntity
  8
ALPHA
100
AcDbSpline
210
-0.989554962065859
220
0.1441560857225131
230
0.0
 70
    24
 71
     3
 72
     8
 73
     4
 74
     0
 42
0.0000001
 43
0.0000001
 40
5.0
 40
5.0
 40
5.0
 40
5.0
 40
6.0
 40
6.0
 40
6.0
 40
6.0
 10
53.66961685546084
 20
337.9753979347578
 30
0.0
 10
53.66961685546084
 20
337.9753979347578
 30
0.0
 10
54.46933905939966
 20
343.46506610392
 30
0.0
 10
54.46933905939966
 20
343.46506610392
 30
0.0
  0
SPLINE
  5
2D2
100
AcDbEntity
  8
ALPHA
100
AcDbSpline
210
0.0
220
0.0
230
-1.0
 70
     8
 71
     3
 72
    11
 73
     7
 74
     0
 42
0.0000001
 43
0.0000001
 40
6.0
 40
6.0
 40
6.0
 40
6.0
 40
7.0
 40
7.0
 40
7.0
 40
8.0
 40
8.0
 40
8.0
 40
8.0
 10
54.46933905939966
 20
343.46506610392
 30
0.0
 10
53.94058500148401
 20
343.46506610392
 30
0.0
 10
53.50996535320939
 20
343.8956857521948
 30
0.0
 10
53.50996535320939
 20
344.4266368491322
 30
0.0
 10
53.50996535320939
 20
344.9575879460697
 30
0.0
 10
53.94058500148401
 20
345.6276848477218
 30
0.0
 10
54.46933905939966
 20
345.6276848477218
 30
0.0
  0
SPLINE
  5
2D3
100
AcDbEntity
  8
ALPHA
100
AcDbSpline
210
-0.9847625924225704
220
0.1739041016341435
230
0.0
 70
    24
 71
     3
 72
     8
 73
     4
 74
     0
 42
0.0000001
 43
0.0000001
 40
8.0
 40
8.0
 40
8.0
 40
8.0
 40
9.0
 40
9.0
 40
9.0
 40
9.0
 10
54.46933905939966
 20
345.6276848477218
 30
0.0
 10
54.46933905939966
 20
345.6276848477218
 30
0.0
 10
55.50927086305637
 20
351.5164817725127
 30
0.0
 10
55.50927086305637
 20
351.5164817725127
 30
0.0
  0
SPLINE
  5
2D4
100
AcDbEntity
  8
ALPHA
100
AcDbSpline
210
0.0
220
0.0
230
-1.0
 70
     8
 71
     3
 72
    11
 73
     7
 74
     0
 42
0.0000001
 43
0.0000001
 40
9.0
 40
9.0
 40
9.0
 40
9.0
 40
10.0
 40
10.0
 40
10.0
 40
11.0
 40
11.0
 40
11.0
 40
11.0
 10
55.50927086305637
 20
351.5164817725127
 30
0.0
 10
54.97758741977839
 20
351.5164817725127
 30
0.0
 10
54.54843246418477
 20
351.9463690744469
 30
0.0
 10
54.54843246418477
 20
352.4780525177249
 30
0.0
 10
54.54843246418477
 20
353.0082712683217
 30
0.0
 10
54.97758741977839
 20
353.6791005163144
 30
0.0
 10
55.50927086305637
 20
353.6791005163144
 30
0.0
  0
SPLINE
  5
2D5
100
AcDbEntity
  8
ALPHA
100
AcDbSpline
210
0.0
220
1.0
230
0.0
 70
    24
 71
     3
 72
     8
 73
     4
 74
     0
 42
0.0000001
 43
0.0000001
 40
11.0
 40
11.0
 40
11.0
 40
11.0
 40
12.0
 40
12.0
 40
12.0
 40
12.0
 10
55.50927086305637
 20
353.6791005163144
 30
0.0
 10
55.50927086305637
 20
353.6791005163144
 30
0.0
 10
65.82949549483806
 20
353.6791005163144
 30
0.0
 10
65.82949549483806
 20
353.6791005163144
 30
0.0
  0
SPLINE
  5
2D6
100
AcDbEntity
  8
ALPHA
100
AcDbSpline
210
0.0
220
0.0
230
1.0
 70
     8
 71
     3
 72
    11
 73
     7
 74
     0
 42
0.0000001
 43
0.0000001
 40
12.0
 40
12.0
 40
12.0
 40
12.0
 40
13.0
 40
13.0
 40
13.0
 40
14.0
 40
14.0
 40
14.0
 40
14.0
 10
65.82949549483806
 20
353.6791005163144
 30
0.0
 10
66.35971424543481
 20
353.6791005163144
 30
0.0
 10
66.79033389370966
 20
353.0082712683217
 30
0.0
 10
66.79033389370966
 20
352.4780525177249
 30
0.0
 10
66.79033389370966
 20
351.9463690744469
 30
0.0
 10
66.35971424543481
 20
351.5164817725127
 30
0.0
 10
65.82949549483806
 20
351.5164817725127
 30
0.0
  0
SPLINE
  5
2D7
100
AcDbEntity
  8
ALPHA
100
AcDbSpline
210
-0.98472061934524
220
-0.174141614315266
230
0.0
 70
    24
 71
     3
 72
     8
 73
     4
 74
     0
 42
0.0000001
 43
0.0000001
 40
14.0
 40
14.0
 40
14.0
 40
14.0
 40
15.0
 40
15.0
 40
15.0
 40
15.0
 10
65.82949549483806
 20
351.5164817725127
 30
0.0
 10
65.82949549483806
 20
351.5164817725127
 30
0.0
 10
66.870891991176
 20
345.6276848477218
 30
0.0
 10
66.870891991176
 20
345.6276848477218
 30
0.0
  0
SPLINE
  5
2D8
100
AcDbEntity
  8
ALPHA
100
AcDbSpline
210
0.0
220
0.0
230
1.0
 70
     8
 71
     3
 72
    11
 73
     7
 74
     0
 42
0.0000001
 43
0.0000001
 40
15.0
 40
15.0
 40
15.0
 40
15.0
 40
16.0
 40
16.0
 40
16.0
 40
17.0
 40
17.0
 40
17.0
 40
17.0
 10
66.870891991176
 20
345.6276848477218
 30
0.0
 10
67.40111074177253
 20
345.6276848477218
 30
0.0
 10
67.83173039004748
 20
344.9575879460697
 30
0.0
 10
67.83173039004748
 20
344.4266368491322
 30
0.0
 10
67.83173039004748
 20
343.8956857521948
 30
0.0
 10
67.40111074177253
 20
343.46506610392
 30
0.0
 10
66.870891991176
 20
343.46506610392
 30
0.0
  0
SPLINE
  5
2D9
100
AcDbEntity
  8
ALPHA
100
AcDbSpline
210
-0.9895549620658618
220
-0.144156085722493
230
0.0
 70
    24
 71
     3
 72
     8
 73
     4
 74
     0
 42
0.0000001
 43
0.0000001
 40
17.0
 40
17.0
 40
17.0
 40
17.0
 40
18.0
 40
18.0
 40
18.0
 40
18.0
 10
66.870891991176
 20
343.46506610392
 30
0.0
 10
66.870891991176
 20
343.46506610392
 30
0.0
 10
67.67061419511469
 20
337.9753979347578
 30
0.0
 10
67.67061419511469
 20
337.9753979347578
 30
0.0
  0
SPLINE
  5
2DA
100
AcDbEntity
  8
ALPHA
100
AcDbSpline
210
0.0
220
0.0
230
1.0
 70
     8
 71
     3
 72
    11
 73
     7
 74
     0
 42
0.0000001
 43
0.0000001
 40
18.0
 40
18.0
 40
18.0
 40
18.0
 40
19.0
 40
19.0
 40
19.0
 40
20.0
 40
20.0
 40
20.0
 40
20.0
 10
67.67061419511469
 20
337.9753979347578
 30
0.0
 10
68.20229763839279
 20
337.9753979347578
 30
0.0
 10
68.63291728666752
 20
337.3067657257871
 30
0.0
 10
68.63291728666752
 20
336.7772793215308
 30
0.0
 10
68.63291728666752
 20
336.2463282245933
 30
0.0
 10
68.20229763839279
 20
335.8142438836375
 30
0.0
 10
67.67061419511469
 20
335.8142438836375
 30
0.0
  0
SPLINE
  5
2DB
100
AcDbEntity
  8
ALPHA
100
AcDbSpline
210
-0.9784849038922709
220
-0.2063184258735347
230
0.0
 70
    24
 71
     3
 72
     8
 73
     4
 74
     0
 42
0.0000001
 43
0.0000001
 40
20.0
 40
20.0
 40
20.0
 40
20.0
 40
20.4542900159631
 40
20.4542900159631
 40
20.4542900159631
 40
20.4542900159631
 10
67.67061419511469
 20
335.8142438836375
 30
0.0
 10
67.67061419511469
 20
335.8142438836375
 30
0.0
 10
68.01763441784442
 20
334.1684672262751
 30
0.0
 10
68.39637921825715
 20
332.37223371944
 30
0.0
  0
SPLINE
  5
2DC
100
AcDbEntity
  8
ALPHA
100
AcDbSpline
210
0.0
220
0.0
230
1.0
 70
     8
 71
     3
 72
     8
 73
     4
 74
     0
 42
0.0000001
 43
0.0000001
 40
21.0
 40
21.0
 40
21.0
 40
21.0
 40
22.0
 40
22.0
 40
22.0
 40
22.0
 10
69.35208139313999
 20
327.8397245808081
 30
0.0
 10
69.88230014373676
 20
327.8397245808081
 30
0.0
 10
70.3012022505618
 20
326.7023907138514
 30
0.0
 10
70.3012022505618
 20
326.7023907138514
 30
0.0
  0
SPLINE
  5
2DD
100
AcDbEntity
  8
ALPHA
100
AcDbSpline
210
-1.0
220
0.0
230
0.0
 70
    24
 71
     3
 72
     8
 73
     4
 74
     0
 42
0.0000001
 43
0.0000001
 40
22.0
 40
22.0
 40
22.0
 40
22.0
 40
23.0
 40
23.0
 40
23.0
 40
23.0
 10
70.3012022505618
 20
326.7023907138514
 30
0.0
 10
70.3012022505618
 20
326.7023907138514
 30
0.0
 10
70.3012022505618
 20
301.0263658684872
 30
0.0
 10
70.3012022505618
 20
301.0263658684872
 30
0.0
  0
SPLINE
  5
2DE
100
AcDbEntity
  8
ALPHA
100
AcDbSpline
210
0.0
220
1.0
230
0.0
 70
    24
 71
     3
 72
     8
 73
     4
 74
     0
 42
0.0000001
 43
0.0000001
 40
23.0
 40
23.0
 40
23.0
 40
23.0
 40
24.0
 40
24.0
 40
24.0
 40
24.0
 10
70.3012022505618
 20
301.0263658684872
 30
0.0
 10
70.3012022505618
 20
301.0263658684872
 30
0.0
 10
51.10493997066817
 20
301.0263658684872
 30
0.0
 10
51.10493997066817
 20
301.0263658684872
 30
0.0
  0
SPLINE
  5
2DF
100
AcDbEntity
  8
ALPHA
100
AcDbSpline
210
-0.9784849038922697
220
-0.2063184258735408
230
0.0
 70
    24
 71
     3
 72
     8
 73
     4
 74
     0
 42
0.0000001
 43
0.0000001
 40
20.64967028570976
 40
20.64967028570976
 40
20.64967028570976
 40
20.64967028570976
 40
21.0
 40
21.0
 40
21.0
 40
21.0
 10
68.87757108456401
 20
330.0901351862451
 30
0.0
 10
69.14571339595238
 20
328.8184445814071
 30
0.0
 10
69.35208139313999
 20
327.8397245808081
 30
0.0
 10
69.35208139313999
 20
327.8397245808081
 30
0.0
  0
SPLINE
  5
2E0
100
AcDbEntity
  8
ALPHA
100
AcDbSpline
210
-0.9846652795810221
220
0.1744542552866729
230
0.0
 70
    24
 71
     3
 72
     8
 73
     4
 74
     0
 42
0.0000001
 43
0.0000001
 40
2.54441182875897
 40
2.54441182875897
 40
2.54441182875897
 40
2.54441182875897
 40
3.0
 40
3.0
 40
3.0
 40
3.0
 10
52.87099308665029
 20
332.3680320685869
 30
0.0
 10
53.19108552394232
 20
334.1747172006867
 30
0.0
 10
53.48506557762869
 20
335.8340172348338
 30
0.0
 10
53.48506557762869
 20
335.8340172348338
 30
0.0
  0
DIMENSION
  5
3B8
100
AcDbEntity
  8
COTATION1
100
AcDbDimension
  2
*D3
 10
82.082192
 20
41.008856
 30
0.0
 11
60.433718
 21
44.258856
 31
0.0
 70
    32
  1
39
  3
SC_DEFAUT
100
AcDbAlignedDimension
 13
38.785244
 23
70.169315
 33
0.0
 14
82.082192
 24
70.260858
 34
0.0
100
AcDbRotatedDimension
  0
DIMENSION
  5
3C6
100
AcDbEntity
  8
COTATION1
100
AcDbDimension
  2
*D4
 10
86.704461
 20
31.008856
 30
0.0
 11
60.700874
 21
34.258856
 31
0.0
 70
    32
  3
SC_DEFAUT
100
AcDbAlignedDimension
 13
34.697287
 23
159.265176
 33
0.0
 14
86.704461
 24
159.194138
 34
0.0
100
AcDbRotatedDimension
  0
ENDSEC
  0
SECTION
  2
OBJECTS
  0
DICTIONARY
  5
19
102
{ACAD_XDICTIONARY
360
950
102
}
100
AcDbDictionary
  3
ACAD_COLOR
350
BF
  3
ACAD_GROUP
350
1A
  3
ACAD_LAYOUT
350
1E
  3
ACAD_MATERIAL
350
BE
  3
ACAD_MLINESTYLE
350
1B
  3
ACAD_PLOTSETTINGS
350
22
  3
ACAD_PLOTSTYLENAME
350
1F
  3
ACAD_TABLESTYLE
350
C0
  3
ACAD_WIPEOUT_VARS
350
23
  3
ACDBHEADERROUNDTRIPXREC
350
92C
  3
ACDBVARIABLEDICTIONARY
350
1D2
  0
DICTIONARY
  5
922
100
AcDbDictionary
  3
ACAD_XREC_ROUNDTRIP
360
923
  0
DICTIONARY
  5
924
100
AcDbDictionary
  3
ACAD_XREC_ROUNDTRIP
360
925
  0
DICTIONARY
  5
926
100
AcDbDictionary
  3
ACAD_XREC_ROUNDTRIP
360
927
  0
DICTIONARY
  5
958
100
AcDbDictionary
  3
ACAD_XREC_ROUNDTRIP
360
959
  0
DICTIONARY
  5
928
100
AcDbDictionary
  3
ACAD_XREC_ROUNDTRIP
360
929
  0
DICTIONARY
  5
920
100
AcDbDictionary
  3
ACAD_XREC_ROUNDTRIP
360
921
  0
DICTIONARY
  5
95A
100
AcDbDictionary
  3
ACAD_XREC_ROUNDTRIP
360
95B
  0
DICTIONARY
  5
1B0
100
AcDbDictionary
  3
ACAD_LAYOUTSELFREF
360
94D
  3
ACAD_SORTENTS
360
1B1
  0
DICTIONARY
  5
94E
100
AcDbDictionary
  3
ACAD_LAYOUTSELFREF
360
94F
  0
DICTIONARY
  5
950
100
AcDbDictionary
  3
ACAD_XREC_ROUNDTRIP
360
951
  0
DICTIONARY
  5
BF
102
{ACAD_REACTORS
330
19
102
}
100
AcDbDictionary
  0
DICTIONARY
  5
1A
102
{ACAD_REACTORS
330
19
102
}
100
AcDbDictionary
  0
DICTIONARY
  5
1E
102
{ACAD_XDICTIONARY
360
954
102
}
102
{ACAD_REACTORS
330
19
102
}
100
AcDbDictionary
  3
LAYOUT1
350
21
  3
MODEL
350
20
  0
DICTIONARY
  5
BE
102
{ACAD_REACTORS
330
19
102
}
100
AcDbDictionary
  0
DICTIONARY
  5
1B
102
{ACAD_XDICTIONARY
360
952
102
}
102
{ACAD_REACTORS
330
19
102
}
100
AcDbDictionary
  3
STANDARD
350
1C
  0
DICTIONARY
  5
22
102
{ACAD_REACTORS
330
19
102
}
100
AcDbDictionary
  0
ACAD_ZOMBIE_OBJECT
  5
1F
102
{ACAD_REACTORS
330
19
102
}
100
AcDbZombieObject
 90
      499
 91
      517
 93
       86
310
405010041939BDC9B585B1
350
1D
340
1D
 94
        0
  0
DICTIONARY
  5
C0
102
{ACAD_XDICTIONARY
360
956
102
}
102
{ACAD_REACTORS
330
19
102
}
100
AcDbDictionary
  3
STANDARD
350
C1
  0
ACAD_ZOMBIE_OBJECT
  5
23
102
{ACAD_REACTORS
330
19
102
}
100
AcDbZombieObject
 90
      499
 91
      525
 93
       10
310
4044
 94
        0
1001
ACAD
1000
AcadProxyRoundTripData
1071
      521
1071
   851991
1070
     0
  0
DICTIONARY
  5
92C
102
{ACAD_REACTORS
330
19
102
}
100
AcDbDictionary
  3
CEPSNTYPE
350
936
  3
DIMSTYLEDATA
350
93A
  3
FINGERPRINTGUID
350
937
  3
HYPERLINKBASE
350
92F
  3
INSUNITS
350
935
  3
LAYOUTDICT
350
931
  3
LWETCUNION
350
934
  3
PLOTSETDICT
350
932
  3
PLOTSTYLNAMDICT
350
933
  3
PSVPSCALE
350
939
  3
PUCSBASE
350
93D
  3
PUCSORGBACK
350
943
  3
PUCSORGBOTTOM
350
93F
  3
PUCSORGFRONT
350
942
  3
PUCSORGLEFT
350
940
  3
PUCSORGRIGHT
350
941
  3
PUCSORGTOP
350
93E
  3
PUCSORTHOREF
350
93B
  3
PUCSORTHOVIEW
350
93C
  3
STYLESHEET
350
930
  3
TSTACKALIGN
350
92D
  3
TSTACKSIZE
350
92E
  3
UCSBASE
350
946
  3
UCSORGBACK
350
94C
  3
UCSORGBOTTOM
350
948
  3
UCSORGFRONT
350
94B
  3
UCSORGLEFT
350
949
  3
UCSORGRIGHT
350
94A
  3
UCSORGTOP
350
947
  3
UCSORTHOREF
350
944
  3
UCSORTHOVIEW
350
945
  3
VERSIONGUID
350
938
  0
DICTIONARY
  5
1D2
102
{ACAD_REACTORS
330
19
102
}
100
AcDbDictionary
  3
CTABLESTYLE
350
1D3
  3
DIMASSOC
350
1D4
  3
PROJECTNAME
350
1D5
  0
XRECORD
  5
923
102
{ACAD_REACTORS
330
922
102
}
100
AcDbXrecord
102
EXTNAMES
  1
BYBLOCK
  2
ByBlock
  0
XRECORD
  5
925
102
{ACAD_REACTORS
330
924
102
}
100
AcDbXrecord
102
EXTNAMES
  1
BYLAYER
  2
ByLayer
  0
XRECORD
  5
927
102
{ACAD_REACTORS
330
926
102
}
100
AcDbXrecord
102
EXTNAMES
  1
CONTINUOUS
  2
Continuous
  0
XRECORD
  5
959
102
{ACAD_REACTORS
330
958
102
}
100
AcDbXrecord
102
PLOTBIT
280
     0
  0
XRECORD
  5
929
102
{ACAD_REACTORS
330
928
102
}
100
AcDbXrecord
102
EXTNAMES
  1
STANDARD
  2
Standard
  0
XRECORD
  5
921
102
{ACAD_REACTORS
330
920
102
}
100
AcDbXrecord
102
EXTNAMES
  1
STANDARD
  2
Standard
  0
XRECORD
  5
95B
102
{ACAD_REACTORS
330
95A
102
}
100
AcDbXrecord
102
ACADR14ROUNDTRIP
1000
DSTYLE
1002
{
1070
   279
 70
     2
1070
   341
340
CF
1070
   342
340
CF
1002
}
  0
XRECORD
  5
94D
102
{ACAD_REACTORS
330
1B0
102
}
100
AcDbXrecord
340
A
  0
SORTENTSTABLE
  5
1B1
102
{ACAD_REACTORS
330
1B0
102
}
100
AcDbSortentsTable
330
A
331
2B0
  5
1AB
331
6B
  5
144
331
4D
  5
B7
331
2DF
  5
15F
331
74
  5
14D
331
2D2
  5
155
331
3B8
  5
53A
331
5A
  5
13B
331
78
  5
1A5
331
2AD
  5
1A8
331
2B1
  5
1AC
331
6C
  5
145
331
2E0
  5
152
331
75
  5
14E
331
2D3
  5
156
331
5B
  5
13C
331
2AE
  5
1A9
331
2B2
  5
1AD
331
2D8
  5
15B
331
64
  5
141
331
6D
  5
146
331
2D4
  5
157
331
2AF
  5
1AA
331
5C
  5
13D
331
235
  5
528
331
2B3
  5
1AE
331
2D9
  5
15C
331
6E
  5
147
331
2A7
  5
529
331
2D5
  5
158
331
77
  5
1A4
331
5D
  5
13E
331
2B4
  5
1AF
331
2DA
  5
15D
331
6F
  5
148
331
2CD
  5
14F
331
2D6
  5
159
331
2A8
  5
52A
331
5E
  5
13F
331
49
  5
B3
331
2B5
  5
1B4
331
2DB
  5
15E
331
2CE
  5
150
331
70
  5
149
331
202
  5
527
331
2D7
  5
15A
331
2A9
  5
52B
331
29
  5
29
331
5F
  5
140
331
3C6
  5
53B
331
4A
  5
B4
331
2B6
  5
1B5
331
2DC
  5
160
331
71
  5
14A
331
2CF
  5
151
331
2AA
  5
532
331
4B
  5
B5
331
69
  5
142
331
2DD
  5
161
331
54
  5
138
331
72
  5
14B
331
2D0
  5
153
331
2AB
  5
1A6
331
4C
  5
B6
331
6A
  5
143
331
2DE
  5
162
331
73
  5
14C
331
2D1
  5
154
331
59
  5
13A
331
2AC
  5
1A7
  0
XRECORD
  5
94F
102
{ACAD_REACTORS
330
94E
102
}
100
AcDbXrecord
340
B
  0
XRECORD
  5
951
102
{ACAD_REACTORS
330
950
102
}
100
AcDbXrecord
102
EXTNAMES
  1
ACDBVARIABLEDICTIONARY
  2
AcDbVariableDictionary
  0
DICTIONARY
  5
954
100
AcDbDictionary
  3
ACAD_XREC_ROUNDTRIP
360
955
  0
ACAD_ZOMBIE_OBJECT
  5
21
102
{ACAD_XDICTIONARY
360
919
102
}
102
{ACAD_REACTORS
330
1E
102
}
100
AcDbZombieObject
 90
      499
 91
      515
 93
      812
310
AAAAAAAAAA5A69074C61796F757431406A800000000000000000000000000000000000000000000A1000000000000008902A6A6A10232D5E076BC5510408CB5781DAF154410232D5E076BC5510408CB5781DAF15C410232D5E076BC5710408CB5781DAF15C43
330
B
330
0
340
0
340
0
 94
        0
  0
ACAD_ZOMBIE_OBJECT
  5
20
102
{ACAD_XDICTIONARY
360
917
102
}
102
{ACAD_REACTORS
330
1E
102
}
100
AcDbZombieObject
 90
      499
 91
      515
 93
      420
310
A00012AAAAAAAA5A69054D6F64656CAA80000000000000000000000000000000000000000000000000000000000000002AAAAAAAA0
330
A
330
0
340
0
340
0
 94
        0
  0
DICTIONARY
  5
952
100
AcDbDictionary
  3
ACAD_XREC_ROUNDTRIP
360
953
  0
MLINESTYLE
  5
1C
102
{ACAD_REACTORS
330
1B
102
}
100
AcDbMlineStyle
  2
STANDARD
 70
     0
  3

 62
     0
 51
90.0
 52
90.0
 71
     2
 49
0.5
 62
   256
  6
BYLAYER
 49
-0.5
 62
   256
  6
BYLAYER
  0
ACAD_ZOMBIE_OBJECT
  5
1D
102
{ACAD_REACTORS
330
1F
102
}
100
AcDbZombieObject
 90
      499
 91
      518
 93
        0
 94
        0
  0
DICTIONARY
  5
956
100
AcDbDictionary
  3
ACAD_XREC_ROUNDTRIP
360
957
  0
ACAD_ZOMBIE_OBJECT
  5
C1
102
{ACAD_REACTORS
330
C0
102
}
100
AcDbZombieObject
 90
      499
 91
      525
 93
     1841
310
4214DD185B99185C9928000000000000F83F0000000000003E0FC00000000000004901028000000C1008070000C3001FDFF8000000C1003FBFF000000182007F7FE00000030400FEFFC00000060801FDFF8000000C1003FBFF000000182000000000000000C2020B0000001820100E000186003FBFF000000182007F7FE000
310
00030400FEFFC00000060801FDFF8000000C1003FBFF000000182007F7FE0000003040000000000000012404160000003040201C00030C007F7FE00000030400FEFFC00000060801FDFF8000000C1003FBFF000000182007F7FE00000030400FEFFC000000608012
340
17
340
17
340
17
 94
        0
1001
ACAD
1000
AcadProxyRoundTripData
1071
      524
1071
   851991
1070
     0
  0
XRECORD
  5
936
102
{ACAD_REACTORS
330
92C
102
}
100
AcDbXrecord
 90
        0
  0
XRECORD
  5
93A
102
{ACAD_REACTORS
330
92C
102
}
100
AcDbXrecord
1000
DSTYLE
1002
{
1070
   278
 70
     0
1070
   371
 70
     0
1070
   372
 70
     0
1002
}
  0
XRECORD
  5
937
102
{ACAD_REACTORS
330
92C
102
}
100
AcDbXrecord
  1

  0
XRECORD
  5
92F
102
{ACAD_REACTORS
330
92C
102
}
100
AcDbXrecord
  1

  0
XRECORD
  5
935
102
{ACAD_REACTORS
330
92C
102
}
100
AcDbXrecord
 90
        0
  0
XRECORD
  5
931
102
{ACAD_REACTORS
330
92C
102
}
100
AcDbXrecord
340
1E
  0
XRECORD
  5
934
102
{ACAD_REACTORS
330
92C
102
}
100
AcDbXrecord
 90
    10752
  0
XRECORD
  5
932
102
{ACAD_REACTORS
330
92C
102
}
100
AcDbXrecord
340
22
  0
XRECORD
  5
933
102
{ACAD_REACTORS
330
92C
102
}
100
AcDbXrecord
340
1F
  0
XRECORD
  5
939
102
{ACAD_REACTORS
330
92C
102
}
100
AcDbXrecord
 40
0.0
  0
XRECORD
  5
93D
102
{ACAD_REACTORS
330
92C
102
}
100
AcDbXrecord
340
0
  0
XRECORD
  5
943
102
{ACAD_REACTORS
330
92C
102
}
100
AcDbXrecord
 10
0.0
 20
0.0
 30
0.0
  0
XRECORD
  5
93F
102
{ACAD_REACTORS
330
92C
102
}
100
AcDbXrecord
 10
0.0
 20
0.0
 30
0.0
  0
XRECORD
  5
942
102
{ACAD_REACTORS
330
92C
102
}
100
AcDbXrecord
 10
0.0
 20
0.0
 30
0.0
  0
XRECORD
  5
940
102
{ACAD_REACTORS
330
92C
102
}
100
AcDbXrecord
 10
0.0
 20
0.0
 30
0.0
  0
XRECORD
  5
941
102
{ACAD_REACTORS
330
92C
102
}
100
AcDbXrecord
 10
0.0
 20
0.0
 30
0.0
  0
XRECORD
  5
93E
102
{ACAD_REACTORS
330
92C
102
}
100
AcDbXrecord
 10
0.0
 20
0.0
 30
0.0
  0
XRECORD
  5
93B
102
{ACAD_REACTORS
330
92C
102
}
100
AcDbXrecord
340
0
  0
XRECORD
  5
93C
102
{ACAD_REACTORS
330
92C
102
}
100
AcDbXrecord
 70
     0
  0
XRECORD
  5
930
102
{ACAD_REACTORS
330
92C
102
}
100
AcDbXrecord
  1

  0
XRECORD
  5
92D
102
{ACAD_REACTORS
330
92C
102
}
100
AcDbXrecord
 90
        1
  0
XRECORD
  5
92E
102
{ACAD_REACTORS
330
92C
102
}
100
AcDbXrecord
 90
       70
  0
XRECORD
  5
946
102
{ACAD_REACTORS
330
92C
102
}
100
AcDbXrecord
340
0
  0
XRECORD
  5
94C
102
{ACAD_REACTORS
330
92C
102
}
100
AcDbXrecord
 10
0.0
 20
0.0
 30
0.0
  0
XRECORD
  5
948
102
{ACAD_REACTORS
330
92C
102
}
100
AcDbXrecord
 10
0.0
 20
0.0
 30
0.0
  0
XRECORD
  5
94B
102
{ACAD_REACTORS
330
92C
102
}
100
AcDbXrecord
 10
0.0
 20
0.0
 30
0.0
  0
XRECORD
  5
949
102
{ACAD_REACTORS
330
92C
102
}
100
AcDbXrecord
 10
0.0
 20
0.0
 30
0.0
  0
XRECORD
  5
94A
102
{ACAD_REACTORS
330
92C
102
}
100
AcDbXrecord
 10
0.0
 20
0.0
 30
0.0
  0
XRECORD
  5
947
102
{ACAD_REACTORS
330
92C
102
}
100
AcDbXrecord
 10
0.0
 20
0.0
 30
0.0
  0
XRECORD
  5
944
102
{ACAD_REACTORS
330
92C
102
}
100
AcDbXrecord
340
0
  0
XRECORD
  5
945
102
{ACAD_REACTORS
330
92C
102
}
100
AcDbXrecord
 70
     0
  0
XRECORD
  5
938
102
{ACAD_REACTORS
330
92C
102
}
100
AcDbXrecord
  1
{8ED42FE7-7A05-4309-B2C4-761155789028}
  0
DICTIONARYVAR
  5
1D3
102
{ACAD_REACTORS
330
1D2
102
}
100
DictionaryVariables
280
     0
  1
STANDARD
  0
DICTIONARYVAR
  5
1D4
102
{ACAD_REACTORS
330
1D2
102
}
100
DictionaryVariables
280
     0
  1
1
  0
DICTIONARYVAR
  5
1D5
102
{ACAD_REACTORS
330
1D2
102
}
100
DictionaryVariables
280
     0
  1

  0
XRECORD
  5
955
102
{ACAD_REACTORS
330
954
102
}
100
AcDbXrecord
102
EXTNAMES
  1
LAYOUT1
  2
Layout1
  1
MODEL
  2
Model
  0
DICTIONARY
  5
919
100
AcDbDictionary
  3
ACAD_XREC_ROUNDTRIP
360
91A
  0
DICTIONARY
  5
917
100
AcDbDictionary
  3
ACAD_XREC_ROUNDTRIP
360
918
  0
XRECORD
  5
953
102
{ACAD_REACTORS
330
952
102
}
100
AcDbXrecord
102
EXTNAMES
  1
STANDARD
  2
Standard
  0
XRECORD
  5
957
102
{ACAD_REACTORS
330
956
102
}
100
AcDbXrecord
102
EXTNAMES
  1
STANDARD
  2
Standard
  0
XRECORD
  5
91A
102
{ACAD_REACTORS
330
919
102
}
100
AcDbXrecord
102
SHADEPLOT
 70
     0
102
SHADEPLOTRESLEVEL
 70
     2
102
SHADEPLOTCUSTOMDPI
 70
   300
  0
XRECORD
  5
918
102
{ACAD_REACTORS
330
917
102
}
100
AcDbXrecord
102
SHADEPLOT
 70
     0
102
SHADEPLOTRESLEVEL
 70
     2
102
SHADEPLOTCUSTOMDPI
 70
   300
  0
ENDSEC
  0
EOF
