  0
SECTION
  2
HEADER
  9
$ACADVER
  1
AC1014
  9
$ACADMAINTVER
 70
     0
  9
$DWGCODEPAGE
  3
ANSI_1252
  9
$INSBASE
 10
93.894301
 20
236.06014
 30
0.0
  9
$EXTMIN
 10
9.480486
 20
109.508036
 30
0.0
  9
$EXTMAX
 10
76.231389
 20
140.958021
 30
0.0
  9
$LIMMIN
 10
0.0
 20
0.0
  9
$LIMMAX
 10
210.0
 20
297.0
  9
$ORTHOMODE
 70
     0
  9
$REGENMODE
 70
     1
  9
$FILLMODE
 70
     1
  9
$QTEXTMODE
 70
     0
  9
$MIRRTEXT
 70
     0
  9
$DRAGMODE
 70
     1
  9
$LTSCALE
 40
7.0
  9
$OSMODE
 70
  4095
  9
$ATTMODE
 70
     1
  9
$TEXTSIZE
 40
2.5
  9
$TRACEWID
 40
0.05
  9
$TEXTSTYLE
  7
STANDARD
  9
$CLAYER
  8
COTATION1
  9
$CELTYPE
  6
BYLAYER
  9
$CECOLOR
 62
   256
  9
$CELTSCALE
 40
1.0
  9
$DELOBJ
 70
     1
  9
$DISPSILH
 70
     0
  9
$DIMSCALE
 40
1.0
  9
$DIMASZ
 40
3.0
  9
$DIMEXO
 40
0.0625
  9
$DIMDLI
 40
0.38
  9
$DIMRND
 40
0.01
  9
$DIMDLE
 40
0.0
  9
$DIMEXE
 40
0.18
  9
$DIMTP
 40
0.0
  9
$DIMTM
 40
0.0
  9
$DIMTXT
 40
2.5
  9
$DIMCEN
 40
0.09
  9
$DIMTSZ
 40
0.0
  9
$DIMTOL
 70
     0
  9
$DIMLIM
 70
     0
  9
$DIMTIH
 70
     0
  9
$DIMTOH
 70
     0
  9
$DIMSE1
 70
     0
  9
$DIMSE2
 70
     0
  9
$DIMTAD
 70
     1
  9
$DIMZIN
 70
    12
  9
$DIMBLK
  1

  9
$DIMASO
 70
     1
  9
$DIMSHO
 70
     0
  9
$DIMPOST
  1

  9
$DIMAPOST
  1

  9
$DIMALT
 70
     0
  9
$DIMALTD
 70
     2
  9
$DIMALTF
 40
25.4
  9
$DIMLFAC
 40
1.0
  9
$DIMTOFL
 70
     1
  9
$DIMTVP
 40
0.0
  9
$DIMTIX
 70
     0
  9
$DIMSOXD
 70
     0
  9
$DIMSAH
 70
     0
  9
$DIMBLK1
  1

  9
$DIMBLK2
  1

  9
$DIMSTYLE
  2
SC_STAND
  9
$DIMCLRD
 70
     0
  9
$DIMCLRE
 70
     0
  9
$DIMCLRT
 70
     0
  9
$DIMTFAC
 40
1.0
  9
$DIMGAP
 40
1.0
  9
$DIMJUST
 70
     0
  9
$DIMSD1
 70
     0
  9
$DIMSD2
 70
     0
  9
$DIMTOLJ
 70
     1
  9
$DIMTZIN
 70
    12
  9
$DIMALTZ
 70
    12
  9
$DIMALTTZ
 70
    12
  9
$DIMFIT
 70
     5
  9
$DIMUPT
 70
     0
  9
$DIMUNIT
 70
     2
  9
$DIMDEC
 70
     3
  9
$DIMTDEC
 70
     3
  9
$DIMALTU
 70
     2
  9
$DIMALTTD
 70
     2
  9
$DIMTXSTY
  7
STANDARD
  9
$DIMAUNIT
 70
     0
  9
$LUNITS
 70
     2
  9
$LUPREC
 70
     3
  9
$SKETCHINC
 40
0.1
  9
$FILLETRAD
 40
0.0625
  9
$AUNITS
 70
     0
  9
$AUPREC
 70
     0
  9
$MENU
  1
ACAD
  9
$ELEVATION
 40
0.0
  9
$PELEVATION
 40
0.0
  9
$THICKNESS
 40
0.0
  9
$LIMCHECK
 70
     0
  9
$BLIPMODE
 70
     1
  9
$CHAMFERA
 40
0.0
  9
$CHAMFERB
 40
0.0
  9
$CHAMFERC
 40
0.0
  9
$CHAMFERD
 40
0.0
  9
$SKPOLY
 70
     0
  9
$TDCREATE
 40
2450953.590960648
  9
$TDUPDATE
 40
2453103.699334849
  9
$TDINDWG
 40
0.0055791435
  9
$TDUSRTIMER
 40
0.0055791435
  9
$USRTIMER
 70
     1
  9
$ANGBASE
 50
0.0
  9
$ANGDIR
 70
     0
  9
$PDMODE
 70
     0
  9
$PDSIZE
 40
0.0
  9
$PLINEWID
 40
0.0
  9
$COORDS
 70
     0
  9
$SPLFRAME
 70
     0
  9
$SPLINETYPE
 70
     6
  9
$SPLINESEGS
 70
     8
  9
$ATTDIA
 70
     0
  9
$ATTREQ
 70
     1
  9
$HANDLING
 70
     1
  9
$HANDSEED
  5
C88
  9
$SURFTAB1
 70
     6
  9
$SURFTAB2
 70
     6
  9
$SURFTYPE
 70
     6
  9
$SURFU
 70
     6
  9
$SURFV
 70
     6
  9
$UCSNAME
  2

  9
$UCSORG
 10
0.0
 20
0.0
 30
0.0
  9
$UCSXDIR
 10
1.0
 20
0.0
 30
0.0
  9
$UCSYDIR
 10
0.0
 20
1.0
 30
0.0
  9
$PUCSNAME
  2

  9
$PUCSORG
 10
0.0
 20
0.0
 30
0.0
  9
$PUCSXDIR
 10
1.0
 20
0.0
 30
0.0
  9
$PUCSYDIR
 10
0.0
 20
1.0
 30
0.0
  9
$USERI1
 70
     0
  9
$USERI2
 70
     0
  9
$USERI3
 70
     0
  9
$USERI4
 70
     0
  9
$USERI5
 70
     0
  9
$USERR1
 40
0.0
  9
$USERR2
 40
0.0
  9
$USERR3
 40
0.0
  9
$USERR4
 40
0.0
  9
$USERR5
 40
0.0
  9
$WORLDVIEW
 70
     1
  9
$SHADEDGE
 70
     3
  9
$SHADEDIF
 70
    70
  9
$TILEMODE
 70
     1
  9
$MAXACTVP
 70
    32
  9
$PINSBASE
 10
0.0
 20
0.0
 30
0.0
  9
$PLIMCHECK
 70
     0
  9
$PEXTMIN
 10
-3.174999
 20
-3.175
 30
0.0
  9
$PEXTMAX
 10
203.812116
 20
370.276807
 30
0.0
  9
$PLIMMIN
 10
-3.175
 20
-3.175
  9
$PLIMMAX
 10
203.812115
 20
370.276807
  9
$UNITMODE
 70
     0
  9
$VISRETAIN
 70
     0
  9
$PLINEGEN
 70
     0
  9
$PSLTSCALE
 70
     1
  9
$TREEDEPTH
 70
  3020
  9
$PICKSTYLE
 70
     1
  9
$CMLSTYLE
  2
STANDARD
  9
$CMLJUST
 70
     0
  9
$CMLSCALE
 40
1.0
  9
$PROXYGRAPHICS
 70
     1
  9
$MEASUREMENT
 70
     0
  0
ENDSEC
  0
SECTION
  2
CLASSES
  0
CLASS
  1
DICTIONARYVAR
  2
AcDbDictionaryVar
  3
"AutoCAD"
 90
        0
280
     0
281
     0
  0
CLASS
  1
HATCH
  2
AcDbHatch
  3
"ACAD_SEDONA"
 90
        0
280
     0
281
     1
  0
ENDSEC
  0
SECTION
  2
TABLES
  0
TABLE
  2
VPORT
  5
F4
100
AcDbSymbolTable
 70
     1
  0
VPORT
  5
C84
100
AcDbSymbolTableRecord
100
AcDbViewportTableRecord
  2
*ACTIVE
 70
     0
 10
0.0
 20
0.0
 11
1.0
 21
1.0
 12
42.557789
 22
122.301363
 13
0.0
 23
0.0
 14
1.0
 24
1.0
 15
10.0
 25
10.0
 16
0.0
 26
0.0
 36
1.0
 17
0.0
 27
0.0
 37
0.0
 40
56.907612
 41
1.446134
 42
50.0
 43
0.0
 44
0.0
 50
0.0
 51
0.0
 71
     0
 72
   100
 73
     1
 74
     1
 75
     0
 76
     1
 77
     0
 78
     0
  0
ENDTAB
  0
TABLE
  2
LTYPE
  5
F1
100
AcDbSymbolTable
 70
     8
  0
LTYPE
  5
FD
100
AcDbSymbolTableRecord
100
AcDbLinetypeTableRecord
  2
BYBLOCK
 70
     0
  3

 72
    65
 73
     0
 40
0.0
  0
LTYPE
  5
FE
100
AcDbSymbolTableRecord
100
AcDbLinetypeTableRecord
  2
BYLAYER
 70
     0
  3

 72
    65
 73
     0
 40
0.0
  0
LTYPE
  5
FF
100
AcDbSymbolTableRecord
100
AcDbLinetypeTableRecord
  2
CONTINUOUS
 70
     0
  3
Solid line
 72
    65
 73
     0
 40
0.0
  0
LTYPE
  5
110
100
AcDbSymbolTableRecord
100
AcDbLinetypeTableRecord
  2
CACHE
 70
     0
  3
__ __ __ __ __ __ __ __ __ __ __ __ __ __ __ __
 72
    65
 73
     2
 40
0.375
 49
0.25
 74
     0
 49
-0.125
 74
     0
  0
LTYPE
  5
112
100
AcDbSymbolTableRecord
100
AcDbLinetypeTableRecord
  2
AXES2
 70
     0
  3
___ _ ___ _ ___ _ ___ _ ___ _ ___ _ ___ _ ___ _
 72
    65
 73
     4
 40
1.125
 49
0.75
 74
     0
 49
-0.125
 74
     0
 49
0.125
 74
     0
 49
-0.125
 74
     0
  0
LTYPE
  5
120
100
AcDbSymbolTableRecord
100
AcDbLinetypeTableRecord
  2
CACHE2
 70
     0
  3
_ _ _ _ _ _ _ _ _ _ _ _ _ _ _ _ _ _ _ _ _ _ _ _
 72
    65
 73
     2
 40
0.1875
 49
0.125
 74
     0
 49
-0.0625
 74
     0
  0
LTYPE
  5
121
100
AcDbSymbolTableRecord
100
AcDbLinetypeTableRecord
  2
CACHEX2
 70
     0
  3
____ ____ ____ ____ ____ ____ ____ ____ ____ __
 72
    65
 73
     2
 40
0.75
 49
0.5
 74
     0
 49
-0.25
 74
     0
  0
LTYPE
  5
62B
100
AcDbSymbolTableRecord
100
AcDbLinetypeTableRecord
  2
SOLID
 70
     0
  3
Solid
 72
    65
 73
     0
 40
0.0
  0
LTYPE
  5
62C
100
AcDbSymbolTableRecord
100
AcDbLinetypeTableRecord
  2
CENTERLINE
 70
     0
  3
Centerline
 72
    65
 73
     4
 40
25.4
 49
19.05
 74
     0
 49
-1.5875
 74
     0
 49
3.175
 74
     0
 49
-1.5875
 74
     0
  0
LTYPE
  5
62D
100
AcDbSymbolTableRecord
100
AcDbLinetypeTableRecord
  2
GAP
 70
     0
  3
Gap
 72
    65
 73
     3
 40
2541.524
 49
0.0
 74
     0
 49
-1.524
 74
     0
 49
2540.0
 74
     0
  0
ENDTAB
  0
TABLE
  2
LAYER
  5
EE
100
AcDbSymbolTable
 70
    10
  0
LAYER
  5
FA
100
AcDbSymbolTableRecord
100
AcDbLayerTableRecord
  2
0
 70
     0
 62
     7
  6
CONTINUOUS
  0
LAYER
  5
12C
100
AcDbSymbolTableRecord
100
AcDbLayerTableRecord
  2
ALPHA
 70
     0
 62
   255
  6
CONTINUOUS
  0
LAYER
  5
12D
100
AcDbSymbolTableRecord
100
AcDbLayerTableRecord
  2
AXE
 70
     0
 62
    80
  6
AXES2
  0
LAYER
  5
12F
100
AcDbSymbolTableRecord
100
AcDbLayerTableRecord
  2
COTATION1
 70
     0
 62
     2
  6
CONTINUOUS
  0
LAYER
  5
13B
100
AcDbSymbolTableRecord
100
AcDbLayerTableRecord
  2
ASHADE
 70
     0
 62
     7
  6
CONTINUOUS
  0
LAYER
  5
13E
100
AcDbSymbolTableRecord
100
AcDbLayerTableRecord
  2
DEFPOINTS
 70
     0
 62
     7
  6
CONTINUOUS
  0
LAYER
  5
62E
100
AcDbSymbolTableRecord
100
AcDbLayerTableRecord
  2
LAYER1$C$L1$V_TOP
 70
     0
 62
     4
  6
SOLID
  0
LAYER
  5
62F
100
AcDbSymbolTableRecord
100
AcDbLayerTableRecord
  2
LAYER6$C$L6$V_TOP
 70
     0
 62
    31
  6
SOLID
  0
LAYER
  5
630
100
AcDbSymbolTableRecord
100
AcDbLayerTableRecord
  2
LAYER7$C$L7$V_TOP
 70
     0
 62
     4
  6
SOLID
  0
LAYER
  5
631
100
AcDbSymbolTableRecord
100
AcDbLayerTableRecord
  2
LAYER9$C$L9$V_TOP
 70
     0
 62
   253
  6
SOLID
  0
ENDTAB
  0
TABLE
  2
STYLE
  5
EF
100
AcDbSymbolTable
 70
     2
  0
STYLE
  5
FB
100
AcDbSymbolTableRecord
100
AcDbTextStyleTableRecord
  2
STANDARD
 70
     0
 40
0.0
 41
1.0
 50
0.0
 71
     0
 42
2.5
  3
txt
  4

  0
STYLE
  5
386
100
AcDbSymbolTableRecord
100
AcDbTextStyleTableRecord
  2
STD
 70
     0
 40
0.0
 41
1.0
 50
0.0
 71
     0
 42
0.0
  3
txt
  4

  0
ENDTAB
  0
TABLE
  2
VIEW
  5
F2
100
AcDbSymbolTable
 70
     0
  0
ENDTAB
  0
TABLE
  2
UCS
  5
F3
100
AcDbSymbolTable
 70
     0
  0
ENDTAB
  0
TABLE
  2
APPID
  5
F5
100
AcDbSymbolTable
 70
     3
  0
APPID
  5
FC
100
AcDbSymbolTableRecord
100
AcDbRegAppTableRecord
  2
ACAD
 70
     0
  0
APPID
  5
127
100
AcDbSymbolTableRecord
100
AcDbRegAppTableRecord
  2
AVE_RENDER
 70
     0
  0
APPID
  5
128
100
AcDbSymbolTableRecord
100
AcDbRegAppTableRecord
  2
AVE_MATERIAL
 70
     0
  0
ENDTAB
  0
TABLE
  2
DIMSTYLE
  5
F6
100
AcDbSymbolTable
 70
     2
  0
DIMSTYLE
105
129
100
AcDbSymbolTableRecord
100
AcDbDimStyleTableRecord
  2
STANDARD
 70
     0
  3

  4

  5

  6

  7

 40
1.0
 41
0.18
 42
0.0625
 43
0.38
 44
0.18
 45
0.0
 46
0.0
 47
0.0
 48
0.0
140
0.18
141
0.09
142
0.0
143
25.4
144
1.0
145
0.0
146
1.0
147
0.09
 71
     0
 72
     0
 73
     1
 74
     1
 75
     0
 76
     0
 77
     0
 78
     0
170
     0
171
     2
172
     0
173
     0
174
     0
175
     0
176
     0
177
     0
178
     0
270
     2
271
     3
272
     3
273
     2
274
     2
340
FB
275
     0
280
     0
281
     0
282
     0
283
     1
284
    12
285
    12
286
    12
287
     5
288
     0
  0
DIMSTYLE
105
12A
100
AcDbSymbolTableRecord
100
AcDbDimStyleTableRecord
  2
SC_STAND
 70
     0
  3

  4

  5

  6

  7

 40
1.0
 41
3.0
 42
0.0625
 43
0.38
 44
0.18
 45
0.01
 46
0.0
 47
0.0
 48
0.0
140
2.5
141
0.09
142
0.0
143
25.4
144
1.0
145
0.0
146
1.0
147
1.0
 71
     0
 72
     0
 73
     0
 74
     0
 75
     0
 76
     0
 77
     1
 78
    12
170
     0
171
     2
172
     1
173
     0
174
     0
175
     0
176
     0
177
     0
178
     0
270
     2
271
     3
272
     3
273
     2
274
     2
340
FB
275
     0
280
     0
281
     0
282
     0
283
     1
284
    12
285
    12
286
    12
287
     5
288
     0
  0
ENDTAB
  0
TABLE
  2
BLOCK_RECORD
  5
ED
100
AcDbSymbolTable
 70
    22
  0
BLOCK_RECORD
  5
103
100
AcDbSymbolTableRecord
100
AcDbBlockTableRecord
  2
*MODEL_SPACE
  0
BLOCK_RECORD
  5
100
100
AcDbSymbolTableRecord
100
AcDbBlockTableRecord
  2
*PAPER_SPACE
  0
BLOCK_RECORD
  5
108
100
AcDbSymbolTableRecord
100
AcDbBlockTableRecord
  2
AVE_RENDER
  0
BLOCK_RECORD
  5
109
100
AcDbSymbolTableRecord
100
AcDbBlockTableRecord
  2
AVE_GLOBAL
  0
BLOCK_RECORD
  5
10A
100
AcDbSymbolTableRecord
100
AcDbBlockTableRecord
  2
SCH_IS
  0
BLOCK_RECORD
  5
14D
100
AcDbSymbolTableRecord
100
AcDbBlockTableRecord
  2
AI9-BLK1
  0
BLOCK_RECORD
  5
37A
100
AcDbSymbolTableRecord
100
AcDbBlockTableRecord
  2
AI9-BLK7
  0
BLOCK_RECORD
  5
37E
100
AcDbSymbolTableRecord
100
AcDbBlockTableRecord
  2
AI9-BLK8
  0
BLOCK_RECORD
  5
382
100
AcDbSymbolTableRecord
100
AcDbBlockTableRecord
  2
AI9-BLK9
  0
BLOCK_RECORD
  5
5CA
100
AcDbSymbolTableRecord
100
AcDbBlockTableRecord
  2
_X0
  0
BLOCK_RECORD
  5
B6C
100
AcDbSymbolTableRecord
100
AcDbBlockTableRecord
  2
*D15
  0
BLOCK_RECORD
  5
B78
100
AcDbSymbolTableRecord
100
AcDbBlockTableRecord
  2
*D16
  0
BLOCK_RECORD
  5
B86
100
AcDbSymbolTableRecord
100
AcDbBlockTableRecord
  2
*D17
  0
BLOCK_RECORD
  5
B95
100
AcDbSymbolTableRecord
100
AcDbBlockTableRecord
  2
*D18
  0
BLOCK_RECORD
  5
BA3
100
AcDbSymbolTableRecord
100
AcDbBlockTableRecord
  2
*D19
  0
BLOCK_RECORD
  5
BB1
100
AcDbSymbolTableRecord
100
AcDbBlockTableRecord
  2
*D20
  0
BLOCK_RECORD
  5
BBD
100
AcDbSymbolTableRecord
100
AcDbBlockTableRecord
  2
*D21
  0
ENDTAB
  0
ENDSEC
  0
SECTION
  2
BLOCKS
  0
BLOCK
  5
141
100
AcDbEntity
  8
0
100
AcDbBlockBegin
  2
*MODEL_SPACE
 70
     0
 10
0.0
 20
0.0
 30
0.0
  3
*MODEL_SPACE
  1

  0
ENDBLK
  5
142
100
AcDbEntity
  8
0
100
AcDbBlockEnd
  0
BLOCK
  5
13F
100
AcDbEntity
 67
     1
  8
0
100
AcDbBlockBegin
  2
*PAPER_SPACE
 70
     0
 10
0.0
 20
0.0
 30
0.0
  3
*PAPER_SPACE
  1

  0
ENDBLK
  5
140
100
AcDbEntity
 67
     1
  8
0
100
AcDbBlockEnd
  0
BLOCK
  5
8D
100
AcDbEntity
  8
0
100
AcDbBlockBegin
  2
AVE_RENDER
 70
     0
 10
0.0
 20
0.0
 30
0.0
  3
AVE_RENDER
  1
AVE_RENDER
  0
ENDBLK
  5
8E
100
AcDbEntity
  8
0
100
AcDbBlockEnd
  0
BLOCK
  5
90
100
AcDbEntity
  8
0
100
AcDbBlockBegin
  2
AVE_GLOBAL
 70
     0
 10
0.0
 20
0.0
 30
0.0
  3
AVE_GLOBAL
  1
AVE_GLOBAL
  0
ENDBLK
  5
91
100
AcDbEntity
  8
0
100
AcDbBlockEnd
  0
BLOCK
  5
C9
100
AcDbEntity
  8
0
100
AcDbBlockBegin
  2
SCH_IS
 70
     0
 10
0.0
 20
0.0
 30
0.0
  3
SCH_IS
  1

  0
INSERT
  5
C0
100
AcDbEntity
  8
ASHADE
 62
     1
100
AcDbBlockReference
  2
AVE_RENDER
 10
0.0
 20
0.0
 30
0.0
1001
AVE_RENDER
1002
{
1070
     6
1000
Pref
1070
    50
1070
    20
1070
     1
1070
     0
1000

1070
    10
1070
     1
1070
    30
1040
25.4
1070
     1
1040
0.3
1040
0.7
1040
0.0
1040
10.0
1010
-1.0
1020
-1.0
1030
-1.0
1040
0.3
1070
    49
1070
     0
1070
     0
1010
1.0
1020
1.0
1030
1.0
1040
45.0
1070
     1
1070
     0
1000
WCS
1040
0.0
1002
}
  0
INSERT
  5
C1
100
AcDbEntity
  8
ASHADE
 62
     3
100
AcDbBlockReference
  2
AVE_RENDER
 10
0.0
 20
0.0
 30
0.0
1001
AVE_RENDER
1002
{
1070
     0
1000
Full Opt
1070
     0
1070
     1
1070
     1
1070
     1
1070
     0
1070
     0
1070
     0
1070
     1
1070
     1
1040
0.0001
1040
0.0001
1002
}
  0
INSERT
  5
C2
100
AcDbEntity
  8
ASHADE
 62
     4
100
AcDbBlockReference
  2
AVE_RENDER
 10
0.0
 20
0.0
 30
0.0
1001
AVE_RENDER
1002
{
1070
     0
1000
Quick Opt
1070
     0
1070
     1
1070
     1
1070
     1
1070
     0
1070
     0
1070
     1
1002
}
  0
INSERT
  5
C3
100
AcDbEntity
  8
ASHADE
 62
     5
100
AcDbBlockReference
  2
AVE_RENDER
 10
0.0
 20
0.0
 30
0.0
1001
AVE_RENDER
1002
{
1070
     1
1000
Scanl Opt
1070
     2
1070
     0
1070
     2
1040
2.0
1040
4.0
1070
     0
1070
     1
1070
     0
1040
0.03
1002
}
  0
INSERT
  5
C4
100
AcDbEntity
  8
ASHADE
 62
     6
100
AcDbBlockReference
  2
AVE_RENDER
 10
0.0
 20
0.0
 30
0.0
1001
AVE_RENDER
1002
{
1070
     2
1000
Raytr Opt
1070
     2
1070
     0
1070
     2
1040
2.0
1040
4.0
1070
     0
1070
     1
1070
     1
1040
0.03
1070
     3
1040
0.03
1002
}
  0
INSERT
  5
C5
100
AcDbEntity
  8
ASHADE
 62
     7
100
AcDbBlockReference
  2
AVE_RENDER
 10
0.0
 20
0.0
 30
0.0
1001
AVE_RENDER
1002
{
1070
     0
1000
RFile Opt
1070
     5
1070
   640
1070
   480
1070
 10000
1070
     3
1070
    32
1070
    24
1070
     0
1070
     0
1070
     0
1070
     1
1070
     0
1070
     0
1070
     0
1002
}
  0
INSERT
  5
C6
100
AcDbEntity
  8
ASHADE
 62
     8
100
AcDbBlockReference
  2
AVE_RENDER
 10
0.0
 20
0.0
 30
0.0
1001
AVE_RENDER
1002
{
1070
     0
1000
Fog Opt
1070
     0
1070
     0
1040
0.0
1040
1.0
1040
0.0
1040
1.0
1010
0.5
1020
0.5
1030
0.5
1002
}
  0
INSERT
  5
C7
100
AcDbEntity
  8
ASHADE
 62
     9
100
AcDbBlockReference
  2
AVE_RENDER
 10
0.0
 20
0.0
 30
0.0
1001
AVE_RENDER
1002
{
1070
     0
1000
BG Opt
1070
     0
1070
     1
1010
0.0
1020
0.0
1030
0.0
1010
1.0
1020
0.0
1030
0.0
1010
0.0
1020
1.0
1030
0.0
1010
0.0
1020
0.0
1030
1.0
1040
0.5
1040
0.33
1040
0.0
1000

1070
     1
1000

1070
     1
1070
     1
1040
1.0
1040
1.0
1040
0.0
1040
0.0
1070
     0
1002
}
  0
INSERT
  5
C8
100
AcDbEntity
  8
ASHADE
 62
     1
100
AcDbBlockReference
  2
AVE_GLOBAL
 10
0.0
 20
0.0
 30
0.0
1001
AVE_MATERIAL
1002
{
1000
*GLOBAL*
1000
1
1000
Finition globale.
1002
{
1002
}
1002
{
1070
    63
1002
{
1002
{
1010
-1.0
1020
-1.0
1030
-1.0
1002
}
1040
0.1
1000

1040
0.0
1002
{
1002
}
1040
0.0
1002
{
1002
}
1040
0.0
1002
}
1002
{
1002
{
1010
-1.0
1020
-1.0
1030
-1.0
1002
}
1040
0.7
1000

1040
0.0
1002
{
1002
}
1040
0.0
1002
{
1002
}
1040
0.0
1002
}
1002
{
1002
{
1010
-1.0
1020
-1.0
1030
-1.0
1002
}
1040
0.2
1000

1040
0.0
1002
{
1002
}
1040
0.0
1002
{
1002
}
1040
0.0
1002
}
1002
{
1070
     0
1002
{
1070
     1
1002
{
1040
1.0
1040
1.0
1000

1040
0.0
1002
{
1002
}
1040
0.0
1002
{
1002
}
1040
0.0
1002
}
1002
}
1040
1.0
1040
0.0
1040
0.0
1002
}
1002
{
1040
1.0
1040
1.0
1000

1040
0.0
1002
{
1002
}
1040
0.0
1002
{
1002
}
1040
0.0
1002
}
1002
{
1040
0.5
1040
1.0
1000

1040
0.0
1002
{
1002
}
1040
0.0
1002
{
1002
}
1040
0.0
1002
}
1002
{
1070
     0
1040
0.0
1002
{
1002
}
1040
1.0
1002
{
1002
}
1040
0.0
1002
}
1002
{
1040
0.0
1002
{
1002
{
1010
0.0
1020
0.0
1030
0.0
1002
}
1040
1.0
1000

1040
0.0
1002
{
1002
}
1040
0.0
1002
{
1002
}
1040
0.0
1002
}
1002
}
1002
{
1002
{
1070
     1
1002
{
1040
0.0
1040
1.0
1000

1040
0.0
1002
{
1002
}
1040
0.0
1002
{
1002
}
1040
0.0
1002
}
1002
}
1040
0.0
1002
{
1002
}
1010
1.0
1020
0.0
1030
0.0
1010
0.0
1020
1.0
1030
0.0
1010
0.0
1020
0.0
1030
1.0
1070
     0
1002
}
1002
{
1002
{
1040
1.0
1040
1.0
1002
{
1070
     1
1002
{
1040
1.0
1040
1.0
1000

1040
0.0
1002
{
1002
}
1040
0.0
1002
{
1002
}
1040
0.0
1002
}
1002
}
1002
}
1070
     0
1040
0.0
1002
{
1002
}
1002
}
1002
{
1002
}
1002
}
1002
{
1071
        3
1070
     3
1070
     0
1002
{
1070
     2
1070
     0
1070
     0
1040
0.0
1002
}
1070
     0
1070
     2
1002
{
1002
}
1002
}
1002
{
1040
8030.0
1040
190.300003
1040
0.305
1040
228.0
1040
545.0
1040
14.0
1040
17.4
1040
0.456
1002
}
1002
}
  0
ENDBLK
  5
CA
100
AcDbEntity
  8
0
100
AcDbBlockEnd
  0
BLOCK
  5
232
100
AcDbEntity
  8
ALPHA
 62
     7
100
AcDbBlockBegin
  2
AI9-BLK1
 70
     0
 10
0.0
 20
0.0
 30
0.0
  3
AI9-BLK1
  1

  0
SPLINE
  5
14E
100
AcDbEntity
  8
ALPHA
 62
     7
100
AcDbSpline
210
0.0
220
0.0
230
-1.0
 70
    11
 71
     3
 72
    29
 73
    25
 74
     0
 42
0.0000001
 43
0.0000001
 40
0.0
 40
0.0
 40
0.0
 40
0.0
 40
1.0
 40
1.0
 40
1.0
 40
2.0
 40
2.0
 40
2.0
 40
3.0
 40
3.0
 40
3.0
 40
4.0
 40
4.0
 40
4.0
 40
5.0
 40
5.0
 40
5.0
 40
6.0
 40
6.0
 40
6.0
 40
7.0
 40
7.0
 40
7.0
 40
8.0
 40
8.0
 40
8.0
 40
8.0
 10
146.0000891791449
 20
-98.25020446777344
 30
0.0
 10
146.0000891791449
 20
-99.90660637749565
 30
0.0
 10
144.6571909586588
 20
-101.2501936170789
 30
0.0
 10
143.0001000298393
 20
-101.2501936170789
 30
0.0
 10
143.0001000298393
 20
-101.2501936170789
 30
0.0
 10
-143.0000139024522
 20
-101.2501936170789
 30
0.0
 10
-143.0000139024522
 20
-101.2501936170789
 30
0.0
 10
-144.656760321723
 20
-101.2501936170789
 30
0.0
 10
-146.0000030517577
 20
-99.90660637749565
 30
0.0
 10
-146.0000030517577
 20
-98.25020446777344
 30
0.0
 10
-146.0000030517577
 20
-98.25020446777344
 30
0.0
 10
-146.0000030517577
 20
98.25011834038628
 30
0.0
 10
-146.0000030517577
 20
98.25011834038628
 30
0.0
 10
-146.0000030517577
 20
99.90686475965711
 30
0.0
 10
-144.656760321723
 20
101.2501074896918
 30
0.0
 10
-143.0000139024522
 20
101.2501074896918
 30
0.0
 10
-143.0000139024522
 20
101.2501074896918
 30
0.0
 10
143.0001000298393
 20
101.2501074896918
 30
0.0
 10
143.0001000298393
 20
101.2501074896918
 30
0.0
 10
144.6571909586588
 20
101.2501074896918
 30
0.0
 10
146.0000891791449
 20
99.90686475965711
 30
0.0
 10
146.0000891791449
 20
98.25011834038628
 30
0.0
 10
146.0000891791449
 20
98.25011834038628
 30
0.0
 10
146.0000891791449
 20
-98.25020446777344
 30
0.0
 10
146.0000891791449
 20
-98.25020446777344
 30
0.0
  0
SPLINE
  5
14F
100
AcDbEntity
  8
ALPHA
 62
     7
100
AcDbSpline
210
0.0
220
0.0
230
-1.0
 70
    11
 71
     3
 72
    29
 73
    25
 74
     0
 42
0.0000001
 43
0.0000001
 40
0.0
 40
0.0
 40
0.0
 40
0.0
 40
1.0
 40
1.0
 40
1.0
 40
2.0
 40
2.0
 40
2.0
 40
3.0
 40
3.0
 40
3.0
 40
4.0
 40
4.0
 40
4.0
 40
5.0
 40
5.0
 40
5.0
 40
6.0
 40
6.0
 40
6.0
 40
7.0
 40
7.0
 40
7.0
 40
8.0
 40
8.0
 40
8.0
 40
8.0
 10
76.18936326768663
 20
40.38818935818142
 30
0.0
 10
77.01894226074218
 20
40.38818935818142
 30
0.0
 10
77.69142489963107
 20
41.0606719970703
 30
0.0
 10
77.69142489963107
 20
41.88887295193142
 30
0.0
 10
77.69142489963107
 20
41.88887295193142
 30
0.0
 10
77.87056986490885
 20
67.24339769151474
 30
0.0
 10
77.87056986490885
 20
67.24339769151474
 30
0.0
 10
77.87056986490885
 20
68.0757327609592
 30
0.0
 10
77.19808722601996
 20
68.74683736165363
 30
0.0
 10
76.36437411838106
 20
68.74683736165363
 30
0.0
 10
76.36437411838106
 20
68.74683736165363
 30
0.0
 10
-76.01202697753905
 20
68.92460428873697
 30
0.0
 10
-76.01202697753905
 20
68.92460428873697
 30
0.0
 10
-76.84022793240017
 20
68.92460428873697
 30
0.0
 10
-77.51271057128906
 20
68.25074361165363
 30
0.0
 10
-77.51271057128906
 20
67.42116461859808
 30
0.0
 10
-77.51271057128906
 20
67.42116461859808
 30
0.0
 10
-77.69185553656683
 20
41.88887295193142
 30
0.0
 10
-77.69185553656683
 20
41.88887295193142
 30
0.0
 10
-77.69185553656683
 20
41.0606719970703
 30
0.0
 10
-77.01937289767794
 20
40.38818935818142
 30
0.0
 10
-76.1870378282335
 20
40.38818935818142
 30
0.0
 10
-76.1870378282335
 20
40.38818935818142
 30
0.0
 10
76.18936326768663
 20
40.38818935818142
 30
0.0
 10
76.18936326768663
 20
40.38818935818142
 30
0.0
  0
POLYLINE
  5
150
100
AcDbEntity
  8
ALPHA
 62
     7
100
AcDb2dPolyline
 66
     1
 10
0.0
 20
0.0
 30
0.0
 70
     1
  0
VERTEX
  5
151
100
AcDbEntity
  8
ALPHA
 62
     7
100
AcDbVertex
100
AcDb2dVertex
 10
77.691425
 20
-84.679973
 30
0.0
  0
VERTEX
  5
152
100
AcDbEntity
  8
ALPHA
 62
     7
100
AcDbVertex
100
AcDb2dVertex
 10
77.691425
 20
25.69279
 30
0.0
  0
VERTEX
  5
153
100
AcDbEntity
  8
ALPHA
 62
     7
100
AcDbVertex
100
AcDb2dVertex
 10
-77.691856
 20
25.69279
 30
0.0
  0
VERTEX
  5
154
100
AcDbEntity
  8
ALPHA
 62
     7
100
AcDbVertex
100
AcDb2dVertex
 10
-77.691856
 20
-84.679973
 30
0.0
  0
SEQEND
  5
155
100
AcDbEntity
  8
ALPHA
 62
     7
  0
POLYLINE
  5
156
100
AcDbEntity
  8
ALPHA
 62
     7
100
AcDb2dPolyline
 66
     1
 10
0.0
 20
0.0
 30
0.0
 70
     1
  0
VERTEX
  5
157
100
AcDbEntity
  8
ALPHA
 62
     7
100
AcDbVertex
100
AcDb2dVertex
 10
-36.28198
 20
-29.293862
 30
0.0
  0
VERTEX
  5
158
100
AcDbEntity
  8
ALPHA
 62
     7
100
AcDbVertex
100
AcDb2dVertex
 10
-41.795511
 20
-25.282393
 30
0.0
  0
VERTEX
  5
159
100
AcDbEntity
  8
ALPHA
 62
     7
100
AcDbVertex
100
AcDb2dVertex
 10
-41.795511
 20
-25.282393
 30
0.0
  0
VERTEX
  5
15A
100
AcDbEntity
  8
ALPHA
 62
     7
100
AcDbVertex
100
AcDb2dVertex
 10
-47.307664
 20
-29.293862
 30
0.0
  0
VERTEX
  5
15B
100
AcDbEntity
  8
ALPHA
 62
     7
100
AcDbVertex
100
AcDb2dVertex
 10
-44.558477
 20
-29.297996
 30
0.0
  0
VERTEX
  5
15C
100
AcDbEntity
  8
ALPHA
 62
     7
100
AcDbVertex
100
AcDb2dVertex
 10
-44.558477
 20
-32.304876
 30
0.0
  0
VERTEX
  5
15D
100
AcDbEntity
  8
ALPHA
 62
     7
100
AcDbVertex
100
AcDb2dVertex
 10
-39.046325
 20
-32.304876
 30
0.0
  0
VERTEX
  5
15E
100
AcDbEntity
  8
ALPHA
 62
     7
100
AcDbVertex
100
AcDb2dVertex
 10
-39.046325
 20
-29.297996
 30
0.0
  0
SEQEND
  5
15F
100
AcDbEntity
  8
ALPHA
 62
     7
  0
POLYLINE
  5
160
100
AcDbEntity
  8
ALPHA
 62
     7
100
AcDb2dPolyline
 66
     1
 10
0.0
 20
0.0
 30
0.0
 70
     1
  0
VERTEX
  5
161
100
AcDbEntity
  8
ALPHA
 62
     7
100
AcDbVertex
100
AcDb2dVertex
 10
-23.222312
 20
-53.379214
 30
0.0
  0
VERTEX
  5
162
100
AcDbEntity
  8
ALPHA
 62
     7
100
AcDbVertex
100
AcDb2dVertex
 10
-19.210843
 20
-47.865683
 30
0.0
  0
VERTEX
  5
163
100
AcDbEntity
  8
ALPHA
 62
     7
100
AcDbVertex
100
AcDb2dVertex
 10
-19.210843
 20
-47.865683
 30
0.0
  0
VERTEX
  5
164
100
AcDbEntity
  8
ALPHA
 62
     7
100
AcDbVertex
100
AcDb2dVertex
 10
-23.222312
 20
-42.349396
 30
0.0
  0
VERTEX
  5
165
100
AcDbEntity
  8
ALPHA
 62
     7
100
AcDbVertex
100
AcDb2dVertex
 10
-23.231958
 20
-45.102716
 30
0.0
  0
VERTEX
  5
166
100
AcDbEntity
  8
ALPHA
 62
     7
100
AcDbVertex
100
AcDb2dVertex
 10
-26.238838
 20
-45.102716
 30
0.0
  0
VERTEX
  5
167
100
AcDbEntity
  8
ALPHA
 62
     7
100
AcDbVertex
100
AcDb2dVertex
 10
-26.238838
 20
-50.614869
 30
0.0
  0
VERTEX
  5
168
100
AcDbEntity
  8
ALPHA
 62
     7
100
AcDbVertex
100
AcDb2dVertex
 10
-23.231958
 20
-50.614869
 30
0.0
  0
SEQEND
  5
169
100
AcDbEntity
  8
ALPHA
 62
     7
  0
POLYLINE
  5
16A
100
AcDbEntity
  8
ALPHA
 62
     7
100
AcDb2dPolyline
 66
     1
 10
0.0
 20
0.0
 30
0.0
 70
     1
  0
VERTEX
  5
16B
100
AcDbEntity
  8
ALPHA
 62
     7
100
AcDbVertex
100
AcDb2dVertex
 10
-60.367159
 20
-42.349396
 30
0.0
  0
VERTEX
  5
16C
100
AcDbEntity
  8
ALPHA
 62
     7
100
AcDbVertex
100
AcDb2dVertex
 10
-64.378629
 20
-47.865683
 30
0.0
  0
VERTEX
  5
16D
100
AcDbEntity
  8
ALPHA
 62
     7
100
AcDbVertex
100
AcDb2dVertex
 10
-64.378629
 20
-47.865683
 30
0.0
  0
VERTEX
  5
16E
100
AcDbEntity
  8
ALPHA
 62
     7
100
AcDbVertex
100
AcDb2dVertex
 10
-60.367159
 20
-53.379214
 30
0.0
  0
VERTEX
  5
16F
100
AcDbEntity
  8
ALPHA
 62
     7
100
AcDbVertex
100
AcDb2dVertex
 10
-60.363025
 20
-50.62865
 30
0.0
  0
VERTEX
  5
170
100
AcDbEntity
  8
ALPHA
 62
     7
100
AcDbVertex
100
AcDb2dVertex
 10
-57.356146
 20
-50.62865
 30
0.0
  0
VERTEX
  5
171
100
AcDbEntity
  8
ALPHA
 62
     7
100
AcDbVertex
100
AcDb2dVertex
 10
-57.356146
 20
-45.112363
 30
0.0
  0
VERTEX
  5
172
100
AcDbEntity
  8
ALPHA
 62
     7
100
AcDbVertex
100
AcDb2dVertex
 10
-60.363025
 20
-45.112363
 30
0.0
  0
SEQEND
  5
173
100
AcDbEntity
  8
ALPHA
 62
     7
  0
POLYLINE
  5
174
100
AcDbEntity
  8
ALPHA
 62
     7
100
AcDb2dPolyline
 66
     1
 10
0.0
 20
0.0
 30
0.0
 70
     1
  0
VERTEX
  5
175
100
AcDbEntity
  8
ALPHA
 62
     7
100
AcDbVertex
100
AcDb2dVertex
 10
-47.307664
 20
-66.438882
 30
0.0
  0
VERTEX
  5
176
100
AcDbEntity
  8
ALPHA
 62
     7
100
AcDbVertex
100
AcDb2dVertex
 10
-41.795511
 20
-70.444839
 30
0.0
  0
VERTEX
  5
177
100
AcDbEntity
  8
ALPHA
 62
     7
100
AcDbVertex
100
AcDb2dVertex
 10
-41.795511
 20
-70.444839
 30
0.0
  0
VERTEX
  5
178
100
AcDbEntity
  8
ALPHA
 62
     7
100
AcDbVertex
100
AcDb2dVertex
 10
-36.28198
 20
-66.438882
 30
0.0
  0
VERTEX
  5
179
100
AcDbEntity
  8
ALPHA
 62
     7
100
AcDbVertex
100
AcDb2dVertex
 10
-39.032544
 20
-66.429236
 30
0.0
  0
VERTEX
  5
17A
100
AcDbEntity
  8
ALPHA
 62
     7
100
AcDbVertex
100
AcDb2dVertex
 10
-39.032544
 20
-63.422356
 30
0.0
  0
VERTEX
  5
17B
100
AcDbEntity
  8
ALPHA
 62
     7
100
AcDbVertex
100
AcDb2dVertex
 10
-44.544697
 20
-63.422356
 30
0.0
  0
VERTEX
  5
17C
100
AcDbEntity
  8
ALPHA
 62
     7
100
AcDbVertex
100
AcDb2dVertex
 10
-44.544697
 20
-66.429236
 30
0.0
  0
SEQEND
  5
17D
100
AcDbEntity
  8
ALPHA
 62
     7
  0
SPLINE
  5
17E
100
AcDbEntity
  8
ALPHA
 62
     7
100
AcDbSpline
210
0.0
220
0.0
230
-1.0
 70
     8
 71
     3
 72
    17
 73
    13
 74
     0
 42
0.0000001
 43
0.0000001
 40
0.0
 40
0.0
 40
0.0
 40
0.0
 40
1.0
 40
1.0
 40
1.0
 40
2.0
 40
2.0
 40
2.0
 40
3.0
 40
3.0
 40
3.0
 40
4.0
 40
4.0
 40
4.0
 40
4.0
 10
-48.39906989203559
 20
-38.33792690700954
 30
0.0
 10
-48.39906989203559
 20
-38.33792690700954
 30
0.0
 10
-48.39906989203559
 20
-34.95759921603732
 30
0.0
 10
-48.39906989203559
 20
-34.95759921603732
 30
0.0
 10
-48.39906989203559
 20
-34.95759921603732
 30
0.0
 10
-48.40320400661892
 20
-34.95346510145399
 30
0.0
 10
-48.40320400661892
 20
-34.95346510145399
 30
0.0
 10
-49.89975348578559
 20
-33.34667256673176
 30
0.0
 10
-50.81614888509114
 20
-31.18590867784288
 30
0.0
 10
-50.81614888509114
 20
-28.81017083062065
 30
0.0
 10
-50.81614888509114
 20
-24.42525329589843
 30
0.0
 10
-47.6893802218967
 20
-20.76931796603732
 30
0.0
 10
-43.54010721842447
 20
-19.95903150770399
 30
0.0
  0
SPLINE
  5
17F
100
AcDbEntity
  8
ALPHA
 62
     7
100
AcDbSpline
210
0.0
220
0.0
230
1.0
 70
     8
 71
     3
 72
    17
 73
    13
 74
     0
 42
0.0000001
 43
0.0000001
 40
0.0
 40
0.0
 40
0.0
 40
0.0
 40
1.0
 40
1.0
 40
1.0
 40
2.0
 40
2.0
 40
2.0
 40
3.0
 40
3.0
 40
3.0
 40
4.0
 40
4.0
 40
4.0
 40
4.0
 10
-40.0495364718967
 20
-19.95903150770399
 30
0.0
 10
-35.9043975830078
 20
-20.76931796603732
 30
0.0
 10
-32.77349480523003
 20
-24.42525329589843
 30
0.0
 10
-32.77349480523003
 20
-28.81017083062065
 30
0.0
 10
-32.77349480523003
 20
-31.28237135145399
 30
0.0
 10
-33.76292622884114
 20
-33.51617126464843
 30
0.0
 10
-35.37109680175781
 20
-35.14639044867621
 30
0.0
 10
-35.37109680175781
 20
-35.14639044867621
 30
0.0
 10
-35.36558464898003
 20
-35.15603671603732
 30
0.0
 10
-35.36558464898003
 20
-35.15603671603732
 30
0.0
 10
-35.36558464898003
 20
-35.15603671603732
 30
0.0
 10
-35.36558464898003
 20
-38.33792690700954
 30
0.0
 10
-35.36558464898003
 20
-38.33792690700954
 30
0.0
  0
SPLINE
  5
180
100
AcDbEntity
  8
ALPHA
 62
     7
100
AcDbSpline
210
0.0
220
0.0
230
-1.0
 70
     8
 71
     3
 72
    17
 73
    13
 74
     0
 42
0.0000001
 43
0.0000001
 40
0.0
 40
0.0
 40
0.0
 40
0.0
 40
1.0
 40
1.0
 40
1.0
 40
2.0
 40
2.0
 40
2.0
 40
3.0
 40
3.0
 40
3.0
 40
4.0
 40
4.0
 40
4.0
 40
4.0
 10
-32.35870530870225
 20
-41.3503184000651
 30
0.0
 10
-32.35870530870225
 20
-41.3503184000651
 30
0.0
 10
-28.9742435031467
 20
-41.3503184000651
 30
0.0
 10
-28.9742435031467
 20
-41.3503184000651
 30
0.0
 10
-28.9742435031467
 20
-41.3503184000651
 30
0.0
 10
-28.9742435031467
 20
-41.34480624728732
 30
0.0
 10
-28.9742435031467
 20
-41.34480624728732
 30
0.0
 10
-27.3619388156467
 20
-39.84825676812065
 30
0.0
 10
-25.20255296495225
 20
-38.9318613688151
 30
0.0
 10
-22.83094923231336
 20
-38.9318613688151
 30
0.0
 10
-18.44740973578558
 20
-38.9318613688151
 30
0.0
 10
-14.79009636773003
 20
-42.05863003200954
 30
0.0
 10
-13.9798099093967
 20
-46.20790303548176
 30
0.0
  0
SPLINE
  5
181
100
AcDbEntity
  8
ALPHA
 62
     7
100
AcDbSpline
210
0.0
220
0.0
230
1.0
 70
     8
 71
     3
 72
    17
 73
    13
 74
     0
 42
0.0000001
 43
0.0000001
 40
0.0
 40
0.0
 40
0.0
 40
0.0
 40
1.0
 40
1.0
 40
1.0
 40
2.0
 40
2.0
 40
2.0
 40
3.0
 40
3.0
 40
3.0
 40
4.0
 40
4.0
 40
4.0
 40
4.0
 10
-13.9798099093967
 20
-49.69847378200954
 30
0.0
 10
-14.79009636773003
 20
-53.84361267089843
 30
0.0
 10
-18.44740973578558
 20
-56.97589348687065
 30
0.0
 10
-22.83094923231336
 20
-56.97589348687065
 30
0.0
 10
-25.29901563856336
 20
-56.97589348687065
 30
0.0
 10
-27.53694966634114
 20
-55.9850840250651
 30
0.0
 10
-29.16716885036892
 20
-54.37829149034287
 30
0.0
 10
-29.16716885036892
 20
-54.37829149034287
 30
0.0
 10
-29.17681511773003
 20
-54.38242560492621
 30
0.0
 10
-29.17681511773003
 20
-54.38242560492621
 30
0.0
 10
-29.17681511773003
 20
-54.38242560492621
 30
0.0
 10
-32.35870530870225
 20
-54.38242560492621
 30
0.0
 10
-32.35870530870225
 20
-54.38242560492621
 30
0.0
  0
SPLINE
  5
182
100
AcDbEntity
  8
ALPHA
 62
     7
100
AcDbSpline
210
0.0
220
0.0
230
1.0
 70
     8
 71
     3
 72
    17
 73
    13
 74
     0
 42
0.0000001
 43
0.0000001
 40
0.0
 40
0.0
 40
0.0
 40
0.0
 40
1.0
 40
1.0
 40
1.0
 40
2.0
 40
2.0
 40
2.0
 40
3.0
 40
3.0
 40
3.0
 40
4.0
 40
4.0
 40
4.0
 40
4.0
 10
-35.36558464898003
 20
-57.38930494520399
 30
0.0
 10
-35.36558464898003
 20
-57.38930494520399
 30
0.0
 10
-35.36558464898003
 20
-60.77514478895398
 30
0.0
 10
-35.36558464898003
 20
-60.77514478895398
 30
0.0
 10
-35.36558464898003
 20
-60.77514478895398
 30
0.0
 10
-35.36558464898003
 20
-60.77514478895398
 30
0.0
 10
-35.36558464898003
 20
-60.77514478895398
 30
0.0
 10
-33.86490105523003
 20
-62.38607143825954
 30
0.0
 10
-32.94850565592447
 20
-64.54683532714843
 30
0.0
 10
-32.94850565592447
 20
-66.91843905978732
 30
0.0
 10
-32.94850565592447
 20
-71.30197855631509
 30
0.0
 10
-36.07940843370225
 20
-74.95791388617622
 30
0.0
 10
-40.22868143717447
 20
-75.76957838270399
 30
0.0
  0
SPLINE
  5
183
100
AcDbEntity
  8
ALPHA
 62
     7
100
AcDbSpline
210
0.0
220
0.0
230
-1.0
 70
     8
 71
     3
 72
    17
 73
    13
 74
     0
 42
0.0000001
 43
0.0000001
 40
0.0
 40
0.0
 40
0.0
 40
0.0
 40
1.0
 40
1.0
 40
1.0
 40
2.0
 40
2.0
 40
2.0
 40
3.0
 40
3.0
 40
3.0
 40
4.0
 40
4.0
 40
4.0
 40
4.0
 10
-43.71511806911892
 20
-75.76957838270399
 30
0.0
 10
-47.86439107259114
 20
-74.95791388617622
 30
0.0
 10
-50.99667188856336
 20
-71.30197855631509
 30
0.0
 10
-50.99667188856336
 20
-66.91843905978732
 30
0.0
 10
-50.99667188856336
 20
-64.44899461534287
 30
0.0
 10
-50.00172831217447
 20
-62.2110605875651
 30
0.0
 10
-48.39493577745225
 20
-60.58084140353732
 30
0.0
 10
-48.39493577745225
 20
-60.58084140353732
 30
0.0
 10
-48.39906989203559
 20
-60.57257317437065
 30
0.0
 10
-48.39906989203559
 20
-60.57257317437065
 30
0.0
 10
-48.39906989203559
 20
-60.57257317437065
 30
0.0
 10
-48.39906989203559
 20
-57.38930494520399
 30
0.0
 10
-48.39906989203559
 20
-57.38930494520399
 30
0.0
  0
SPLINE
  5
184
100
AcDbEntity
  8
ALPHA
 62
     7
100
AcDbSpline
210
0.0
220
0.0
230
1.0
 70
     8
 71
     3
 72
    17
 73
    13
 74
     0
 42
0.0000001
 43
0.0000001
 40
0.0
 40
0.0
 40
0.0
 40
0.0
 40
1.0
 40
1.0
 40
1.0
 40
2.0
 40
2.0
 40
2.0
 40
3.0
 40
3.0
 40
3.0
 40
4.0
 40
4.0
 40
4.0
 40
4.0
 10
-51.4100833468967
 20
-54.38242560492621
 30
0.0
 10
-51.4100833468967
 20
-54.38242560492621
 30
0.0
 10
-54.79023878309462
 20
-54.38242560492621
 30
0.0
 10
-54.79023878309462
 20
-54.38242560492621
 30
0.0
 10
-54.79023878309462
 20
-54.38242560492621
 30
0.0
 10
-54.79575093587239
 20
-54.38242560492621
 30
0.0
 10
-54.79575093587239
 20
-54.38242560492621
 30
0.0
 10
-56.40254347059461
 20
-55.88448723687065
 30
0.0
 10
-58.56192932128905
 20
-56.80088263617621
 30
0.0
 10
-60.93904520670572
 20
-56.80088263617621
 30
0.0
 10
-65.3225847032335
 20
-56.80088263617621
 30
0.0
 10
-68.97989807128905
 20
-53.66860182020399
 30
0.0
 10
-69.7901845296224
 20
-49.51932881673176
 30
0.0
  0
SPLINE
  5
185
100
AcDbEntity
  8
ALPHA
 62
     7
100
AcDbSpline
210
0.0
220
0.0
230
-1.0
 70
     8
 71
     3
 72
    17
 73
    13
 74
     0
 42
0.0000001
 43
0.0000001
 40
0.0
 40
0.0
 40
0.0
 40
0.0
 40
1.0
 40
1.0
 40
1.0
 40
2.0
 40
2.0
 40
2.0
 40
3.0
 40
3.0
 40
3.0
 40
4.0
 40
4.0
 40
4.0
 40
4.0
 10
-69.7901845296224
 20
-46.03289218478732
 30
0.0
 10
-68.97989807128905
 20
-41.88361918131509
 30
0.0
 10
-65.3225847032335
 20
-38.75271640353732
 30
0.0
 10
-60.93904520670572
 20
-38.75271640353732
 30
0.0
 10
-58.46546664767794
 20
-38.75271640353732
 30
0.0
 10
-56.2316667344835
 20
-39.74765997992621
 30
0.0
 10
-54.60161980523003
 20
-41.35445251464843
 30
0.0
 10
-54.60161980523003
 20
-41.35445251464843
 30
0.0
 10
-54.59335157606336
 20
-41.3503184000651
 30
0.0
 10
-54.59335157606336
 20
-41.3503184000651
 30
0.0
 10
-54.59335157606336
 20
-41.3503184000651
 30
0.0
 10
-51.4100833468967
 20
-41.3503184000651
 30
0.0
 10
-51.4100833468967
 20
-41.3503184000651
 30
0.0
  0
SPLINE
  5
186
100
AcDbEntity
  8
ALPHA
 62
     7
100
AcDbSpline
210
0.0
220
0.0
230
-1.0
 70
    11
 71
     3
 72
    29
 73
    25
 74
     0
 42
0.0000001
 43
0.0000001
 40
0.0
 40
0.0
 40
0.0
 40
0.0
 40
1.0
 40
1.0
 40
1.0
 40
2.0
 40
2.0
 40
2.0
 40
3.0
 40
3.0
 40
3.0
 40
4.0
 40
4.0
 40
4.0
 40
5.0
 40
5.0
 40
5.0
 40
6.0
 40
6.0
 40
6.0
 40
7.0
 40
7.0
 40
7.0
 40
8.0
 40
8.0
 40
8.0
 40
8.0
 10
-16.60497266981336
 20
-72.66485833062064
 30
0.0
 10
-16.05237935384114
 20
-72.66485833062064
 30
0.0
 10
-15.60589497884114
 20
-72.21837395562065
 30
0.0
 10
-15.60589497884114
 20
-71.66578063964843
 30
0.0
 10
-15.60589497884114
 20
-71.66578063964843
 30
0.0
 10
-15.60589497884114
 20
-64.64743211534288
 30
0.0
 10
-15.60589497884114
 20
-64.64743211534288
 30
0.0
 10
-15.60589497884114
 20
-64.09483879937065
 30
0.0
 10
-16.05237935384114
 20
-63.64422030978732
 30
0.0
 10
-16.60497266981336
 20
-63.64422030978732
 30
0.0
 10
-16.60497266981336
 20
-63.64422030978732
 30
0.0
 10
-28.63386806911892
 20
-63.64422030978732
 30
0.0
 10
-28.63386806911892
 20
-63.64422030978732
 30
0.0
 10
-29.19059549967447
 20
-63.64422030978732
 30
0.0
 10
-29.63707987467447
 20
-64.09483879937065
 30
0.0
 10
-29.63707987467447
 20
-64.64743211534288
 30
0.0
 10
-29.63707987467447
 20
-64.64743211534288
 30
0.0
 10
-29.63707987467447
 20
-71.66578063964843
 30
0.0
 10
-29.63707987467447
 20
-71.66578063964843
 30
0.0
 10
-29.63707987467447
 20
-72.21837395562065
 30
0.0
 10
-29.19059549967447
 20
-72.66485833062064
 30
0.0
 10
-28.63386806911892
 20
-72.66485833062064
 30
0.0
 10
-28.63386806911892
 20
-72.66485833062064
 30
0.0
 10
-16.60497266981336
 20
-72.66485833062064
 30
0.0
 10
-16.60497266981336
 20
-72.66485833062064
 30
0.0
  0
SPLINE
  5
187
100
AcDbEntity
  8
ALPHA
 62
     7
100
AcDbSpline
210
0.0
220
0.0
230
1.0
 70
     8
 71
     3
 72
    32
 73
    28
 74
     0
 42
0.0000001
 43
0.0000001
 40
0.0
 40
0.0
 40
0.0
 40
0.0
 40
1.0
 40
1.0
 40
1.0
 40
2.0
 40
2.0
 40
2.0
 40
3.0
 40
3.0
 40
3.0
 40
4.0
 40
4.0
 40
4.0
 40
5.0
 40
5.0
 40
5.0
 40
6.0
 40
6.0
 40
6.0
 40
7.0
 40
7.0
 40
7.0
 40
8.0
 40
8.0
 40
8.0
 40
9.0
 40
9.0
 40
9.0
 40
9.0
 10
-109.2930274115668
 20
44.47682868109808
 30
0.0
 10
-109.2930274115668
 20
44.47682868109808
 30
0.0
 10
-108.5419965955946
 20
44.47682868109808
 30
0.0
 10
-108.5419965955946
 20
44.47682868109808
 30
0.0
 10
-107.7137956407334
 20
44.47682868109808
 30
0.0
 10
-107.0413130018446
 20
45.14931131998697
 30
0.0
 10
-107.0413130018446
 20
45.98302442762586
 30
0.0
 10
-107.0413130018446
 20
45.98302442762586
 30
0.0
 10
-107.0413130018446
 20
49.49150967068142
 30
0.0
 10
-107.0413130018446
 20
49.49150967068142
 30
0.0
 10
-107.0413130018446
 20
50.32246670193142
 30
0.0
 10
-107.7137956407334
 20
50.99494934082031
 30
0.0
 10
-108.5419965955946
 20
50.99494934082031
 30
0.0
 10
-108.5419965955946
 20
50.99494934082031
 30
0.0
 10
-115.5603451199001
 20
50.99494934082031
 30
0.0
 10
-115.5603451199001
 20
50.99494934082031
 30
0.0
 10
-116.3899241129557
 20
50.99494934082031
 30
0.0
 10
-117.0624067518446
 20
50.32246670193142
 30
0.0
 10
-117.0624067518446
 20
49.49150967068142
 30
0.0
 10
-117.0624067518446
 20
49.49150967068142
 30
0.0
 10
-117.0624067518446
 20
45.98302442762586
 30
0.0
 10
-117.0624067518446
 20
45.98302442762586
 30
0.0
 10
-117.0624067518446
 20
45.14931131998697
 30
0.0
 10
-116.3899241129557
 20
44.47682868109808
 30
0.0
 10
-115.5603451199001
 20
44.47682868109808
 30
0.0
 10
-115.5603451199001
 20
44.47682868109808
 30
0.0
 10
-114.8106923421223
 20
44.47682868109808
 30
0.0
 10
-114.8106923421223
 20
44.47682868109808
 30
0.0
  0
SPLINE
  5
188
100
AcDbEntity
  8
ALPHA
 62
     7
100
AcDbSpline
210
0.0
220
0.0
230
-1.0
 70
     8
 71
     3
 72
    20
 73
    16
 74
     0
 42
0.0000001
 43
0.0000001
 40
0.0
 40
0.0
 40
0.0
 40
0.0
 40
1.0
 40
1.0
 40
1.0
 40
2.0
 40
2.0
 40
2.0
 40
3.0
 40
3.0
 40
3.0
 40
4.0
 40
4.0
 40
4.0
 40
5.0
 40
5.0
 40
5.0
 40
5.0
 10
-109.2930274115668
 20
42.47316114637587
 30
0.0
 10
-109.2930274115668
 20
42.47316114637587
 30
0.0
 10
-109.2930274115668
 20
45.23199361165364
 30
0.0
 10
-109.2930274115668
 20
45.23199361165364
 30
0.0
 10
-109.2930274115668
 20
46.75610385470919
 30
0.0
 10
-110.527749633789
 20
47.99082607693142
 30
0.0
 10
-112.0518598768446
 20
47.99082607693142
 30
0.0
 10
-112.0518598768446
 20
47.99082607693142
 30
0.0
 10
-112.0518598768446
 20
47.99082607693142
 30
0.0
 10
-112.0518598768446
 20
47.99082607693142
 30
0.0
 10
-113.5759701199001
 20
47.99082607693142
 30
0.0
 10
-114.8106923421223
 20
46.75610385470919
 30
0.0
 10
-114.8106923421223
 20
45.23199361165364
 30
0.0
 10
-114.8106923421223
 20
45.23199361165364
 30
0.0
 10
-114.8106923421223
 20
42.47316114637587
 30
0.0
 10
-114.8106923421223
 20
42.47316114637587
 30
0.0
  0
SPLINE
  5
189
100
AcDbEntity
  8
ALPHA
 62
     7
100
AcDbSpline
210
0.0
220
0.0
230
-1.0
 70
    11
 71
     3
 72
    29
 73
    25
 74
     0
 42
0.0000001
 43
0.0000001
 40
0.0
 40
0.0
 40
0.0
 40
0.0
 40
1.0
 40
1.0
 40
1.0
 40
2.0
 40
2.0
 40
2.0
 40
3.0
 40
3.0
 40
3.0
 40
4.0
 40
4.0
 40
4.0
 40
5.0
 40
5.0
 40
5.0
 40
6.0
 40
6.0
 40
6.0
 40
7.0
 40
7.0
 40
7.0
 40
8.0
 40
8.0
 40
8.0
 40
8.0
 10
-112.0518598768446
 20
43.92423536512587
 30
0.0
 10
-111.3600847032335
 20
43.92423536512587
 30
0.0
 10
-110.7992231580946
 20
44.4864749484592
 30
0.0
 10
-110.7992231580946
 20
45.17687208387586
 30
0.0
 10
-110.7992231580946
 20
45.17687208387586
 30
0.0
 10
-110.7992231580946
 20
46.18146192762586
 30
0.0
 10
-110.7992231580946
 20
46.18146192762586
 30
0.0
 10
-110.7992231580946
 20
46.87185906304253
 30
0.0
 10
-111.3600847032335
 20
47.43409864637587
 30
0.0
 10
-112.0518598768446
 20
47.43409864637587
 30
0.0
 10
-112.0518598768446
 20
47.43409864637587
 30
0.0
 10
-112.0518598768446
 20
47.43409864637587
 30
0.0
 10
-112.0518598768446
 20
47.43409864637587
 30
0.0
 10
-112.7422570122612
 20
47.43409864637587
 30
0.0
 10
-113.3044965955946
 20
46.87185906304253
 30
0.0
 10
-113.3044965955946
 20
46.18146192762586
 30
0.0
 10
-113.3044965955946
 20
46.18146192762586
 30
0.0
 10
-113.3044965955946
 20
45.17687208387586
 30
0.0
 10
-113.3044965955946
 20
45.17687208387586
 30
0.0
 10
-113.3044965955946
 20
44.4864749484592
 30
0.0
 10
-112.7422570122612
 20
43.92423536512587
 30
0.0
 10
-112.0518598768446
 20
43.92423536512587
 30
0.0
 10
-112.0518598768446
 20
43.92423536512587
 30
0.0
 10
-112.0518598768446
 20
43.92423536512587
 30
0.0
 10
-112.0518598768446
 20
43.92423536512587
 30
0.0
  0
SPLINE
  5
18A
100
AcDbEntity
  8
ALPHA
 62
     7
100
AcDbSpline
210
0.0
220
0.0
230
-1.0
 70
     8
 71
     3
 72
    32
 73
    28
 74
     0
 42
0.0000001
 43
0.0000001
 40
0.0
 40
0.0
 40
0.0
 40
0.0
 40
1.0
 40
1.0
 40
1.0
 40
2.0
 40
2.0
 40
2.0
 40
3.0
 40
3.0
 40
3.0
 40
4.0
 40
4.0
 40
4.0
 40
5.0
 40
5.0
 40
5.0
 40
6.0
 40
6.0
 40
6.0
 40
7.0
 40
7.0
 40
7.0
 40
8.0
 40
8.0
 40
8.0
 40
9.0
 40
9.0
 40
9.0
 40
9.0
 10
-127.8207509358723
 20
15.07362772623697
 30
0.0
 10
-127.8207509358723
 20
15.07362772623697
 30
0.0
 10
-127.8207509358723
 20
12.06537034776475
 30
0.0
 10
-127.8207509358723
 20
12.06537034776475
 30
0.0
 10
-127.8207509358723
 20
11.5086429172092
 30
0.0
 10
-127.3742665608723
 20
11.0621585422092
 30
0.0
 10
-126.8189171685112
 20
11.0621585422092
 30
0.0
 10
-126.8189171685112
 20
11.0621585422092
 30
0.0
 10
-112.7835981580946
 20
11.0621585422092
 30
0.0
 10
-112.7835981580946
 20
11.0621585422092
 30
0.0
 10
-112.2310048421223
 20
11.0621585422092
 30
0.0
 10
-111.780386352539
 20
11.5086429172092
 30
0.0
 10
-111.780386352539
 20
12.06537034776475
 30
0.0
 10
-111.780386352539
 20
12.06537034776475
 30
0.0
 10
-111.780386352539
 20
24.09426574707031
 30
0.0
 10
-111.780386352539
 20
24.09426574707031
 30
0.0
 10
-111.780386352539
 20
24.64685906304253
 30
0.0
 10
-112.2310048421223
 20
25.09334343804253
 30
0.0
 10
-112.7835981580946
 20
25.09334343804253
 30
0.0
 10
-112.7835981580946
 20
25.09334343804253
 30
0.0
 10
-126.8189171685112
 20
25.09334343804253
 30
0.0
 10
-126.8189171685112
 20
25.09334343804253
 30
0.0
 10
-127.3742665608723
 20
25.09334343804253
 30
0.0
 10
-127.8207509358723
 20
24.64685906304253
 30
0.0
 10
-127.8207509358723
 20
24.09426574707031
 30
0.0
 10
-127.8207509358723
 20
24.09426574707031
 30
0.0
 10
-127.8207509358723
 20
21.08738640679253
 30
0.0
 10
-127.8207509358723
 20
21.08738640679253
 30
0.0
  0
SPLINE
  5
18B
100
AcDbEntity
  8
ALPHA
 62
     7
100
AcDbSpline
210
0.0
220
0.0
230
1.0
 70
    11
 71
     3
 72
    26
 73
    22
 74
     0
 42
0.0000001
 43
0.0000001
 40
0.0
 40
0.0
 40
0.0
 40
0.0
 40
1.0
 40
1.0
 40
1.0
 40
2.0
 40
2.0
 40
2.0
 40
3.0
 40
3.0
 40
3.0
 40
4.0
 40
4.0
 40
4.0
 40
5.0
 40
5.0
 40
5.0
 40
6.0
 40
6.0
 40
6.0
 40
7.0
 40
7.0
 40
7.0
 40
7.0
 10
-124.8083594428168
 20
18.08050706651475
 30
0.0
 10
-124.8083594428168
 20
18.08050706651475
 30
0.0
 10
-127.816616821289
 20
21.08738640679253
 30
0.0
 10
-127.816616821289
 20
21.08738640679253
 30
0.0
 10
-127.816616821289
 20
21.08738640679253
 30
0.0
 10
-132.8285417344835
 20
21.08738640679253
 30
0.0
 10
-132.8285417344835
 20
21.08738640679253
 30
0.0
 10
-134.489077758789
 20
21.08738640679253
 30
0.0
 10
-135.8367991129556
 20
19.73828701443142
 30
0.0
 10
-135.8367991129556
 20
18.08050706651475
 30
0.0
 10
-135.8367991129556
 20
18.08050706651475
 30
0.0
 10
-135.8367991129556
 20
18.08050706651475
 30
0.0
 10
-135.8367991129556
 20
18.08050706651475
 30
0.0
 10
-135.8367991129556
 20
16.41721496582031
 30
0.0
 10
-134.489077758789
 20
15.07362772623697
 30
0.0
 10
-132.8285417344835
 20
15.07362772623697
 30
0.0
 10
-132.8285417344835
 20
15.07362772623697
 30
0.0
 10
-127.816616821289
 20
15.07362772623697
 30
0.0
 10
-127.816616821289
 20
15.07362772623697
 30
0.0
 10
-127.816616821289
 20
15.07362772623697
 30
0.0
 10
-124.8083594428168
 20
18.08050706651475
 30
0.0
 10
-124.8083594428168
 20
18.08050706651475
 30
0.0
  0
SPLINE
  5
18C
100
AcDbEntity
  8
ALPHA
 62
     7
100
AcDbSpline
210
0.0
220
0.0
230
-1.0
 70
     8
 71
     3
 72
    32
 73
    28
 74
     0
 42
0.0000001
 43
0.0000001
 40
0.0
 40
0.0
 40
0.0
 40
0.0
 40
1.0
 40
1.0
 40
1.0
 40
2.0
 40
2.0
 40
2.0
 40
3.0
 40
3.0
 40
3.0
 40
4.0
 40
4.0
 40
4.0
 40
5.0
 40
5.0
 40
5.0
 40
6.0
 40
6.0
 40
6.0
 40
7.0
 40
7.0
 40
7.0
 40
8.0
 40
8.0
 40
8.0
 40
9.0
 40
9.0
 40
9.0
 40
9.0
 10
-127.8207509358723
 20
-4.024775865342881
 30
0.0
 10
-127.8207509358723
 20
-4.024775865342881
 30
0.0
 10
-127.8207509358723
 20
-7.031655205620658
 30
0.0
 10
-127.8207509358723
 20
-7.031655205620658
 30
0.0
 10
-127.8207509358723
 20
-7.589760674370658
 30
0.0
 10
-127.3742665608723
 20
-8.036245049370659
 30
0.0
 10
-126.8189171685112
 20
-8.036245049370659
 30
0.0
 10
-126.8189171685112
 20
-8.036245049370659
 30
0.0
 10
-112.7835981580946
 20
-8.036245049370659
 30
0.0
 10
-112.7835981580946
 20
-8.036245049370659
 30
0.0
 10
-112.2310048421223
 20
-8.036245049370659
 30
0.0
 10
-111.780386352539
 20
-7.589760674370658
 30
0.0
 10
-111.780386352539
 20
-7.031655205620658
 30
0.0
 10
-111.780386352539
 20
-7.031655205620658
 30
0.0
 10
-111.780386352539
 20
4.997240193684895
 30
0.0
 10
-111.780386352539
 20
4.997240193684895
 30
0.0
 10
-111.780386352539
 20
5.549833509657117
 30
0.0
 10
-112.2310048421223
 20
5.996317884657117
 30
0.0
 10
-112.7835981580946
 20
5.996317884657117
 30
0.0
 10
-112.7835981580946
 20
5.996317884657117
 30
0.0
 10
-126.8189171685112
 20
5.996317884657117
 30
0.0
 10
-126.8189171685112
 20
5.996317884657117
 30
0.0
 10
-127.3742665608723
 20
5.996317884657117
 30
0.0
 10
-127.8207509358723
 20
5.549833509657117
 30
0.0
 10
-127.8207509358723
 20
4.997240193684895
 30
0.0
 10
-127.8207509358723
 20
4.997240193684895
 30
0.0
 10
-127.8207509358723
 20
1.988982815212673
 30
0.0
 10
-127.8207509358723
 20
1.988982815212673
 30
0.0
  0
SPLINE
  5
18D
100
AcDbEntity
  8
ALPHA
 62
     7
100
AcDbSpline
210
0.0
220
0.0
230
1.0
 70
    11
 71
     3
 72
    26
 73
    22
 74
     0
 42
0.0000001
 43
0.0000001
 40
0.0
 40
0.0
 40
0.0
 40
0.0
 40
1.0
 40
1.0
 40
1.0
 40
2.0
 40
2.0
 40
2.0
 40
3.0
 40
3.0
 40
3.0
 40
4.0
 40
4.0
 40
4.0
 40
5.0
 40
5.0
 40
5.0
 40
6.0
 40
6.0
 40
6.0
 40
7.0
 40
7.0
 40
7.0
 40
7.0
 10
-124.8083594428168
 20
-1.017896525065103
 30
0.0
 10
-124.8083594428168
 20
-1.017896525065103
 30
0.0
 10
-127.816616821289
 20
1.988982815212673
 30
0.0
 10
-127.816616821289
 20
1.988982815212673
 30
0.0
 10
-127.816616821289
 20
1.988982815212673
 30
0.0
 10
-132.8285417344835
 20
1.988982815212673
 30
0.0
 10
-132.8285417344835
 20
1.988982815212673
 30
0.0
 10
-134.489077758789
 20
1.988982815212673
 30
0.0
 10
-135.8367991129556
 20
0.6398834228515625
 30
0.0
 10
-135.8367991129556
 20
-1.017896525065103
 30
0.0
 10
-135.8367991129556
 20
-1.017896525065103
 30
0.0
 10
-135.8367991129556
 20
-1.017896525065103
 30
0.0
 10
-135.8367991129556
 20
-1.017896525065103
 30
0.0
 10
-135.8367991129556
 20
-2.679810587565103
 30
0.0
 10
-134.489077758789
 20
-4.024775865342881
 30
0.0
 10
-132.8285417344835
 20
-4.024775865342881
 30
0.0
 10
-132.8285417344835
 20
-4.024775865342881
 30
0.0
 10
-127.816616821289
 20
-4.024775865342881
 30
0.0
 10
-127.816616821289
 20
-4.024775865342881
 30
0.0
 10
-127.816616821289
 20
-4.024775865342881
 30
0.0
 10
-124.8083594428168
 20
-1.017896525065103
 30
0.0
 10
-124.8083594428168
 20
-1.017896525065103
 30
0.0
  0
SPLINE
  5
18E
100
AcDbEntity
  8
ALPHA
 62
     7
100
AcDbSpline
210
0.0
220
0.0
230
-1.0
 70
     8
 71
     3
 72
    32
 73
    28
 74
     0
 42
0.0000001
 43
0.0000001
 40
0.0
 40
0.0
 40
0.0
 40
0.0
 40
1.0
 40
1.0
 40
1.0
 40
2.0
 40
2.0
 40
2.0
 40
3.0
 40
3.0
 40
3.0
 40
4.0
 40
4.0
 40
4.0
 40
5.0
 40
5.0
 40
5.0
 40
6.0
 40
6.0
 40
6.0
 40
7.0
 40
7.0
 40
7.0
 40
8.0
 40
8.0
 40
8.0
 40
9.0
 40
9.0
 40
9.0
 40
9.0
 10
-127.8207509358723
 20
-23.12300720214843
 30
0.0
 10
-127.8207509358723
 20
-23.12300720214843
 30
0.0
 10
-127.8207509358723
 20
-26.12988654242621
 30
0.0
 10
-127.8207509358723
 20
-26.12988654242621
 30
0.0
 10
-127.8207509358723
 20
-26.68661397298176
 30
0.0
 10
-127.3742665608723
 20
-27.13309834798177
 30
0.0
 10
-126.8189171685112
 20
-27.13309834798177
 30
0.0
 10
-126.8189171685112
 20
-27.13309834798177
 30
0.0
 10
-112.7835981580946
 20
-27.13309834798177
 30
0.0
 10
-112.7835981580946
 20
-27.13309834798177
 30
0.0
 10
-112.2310048421223
 20
-27.13309834798177
 30
0.0
 10
-111.780386352539
 20
-26.68661397298176
 30
0.0
 10
-111.780386352539
 20
-26.12988654242621
 30
0.0
 10
-111.780386352539
 20
-26.12988654242621
 30
0.0
 10
-111.780386352539
 20
-14.10099114312066
 30
0.0
 10
-111.780386352539
 20
-14.10099114312066
 30
0.0
 10
-111.780386352539
 20
-13.54839782714843
 30
0.0
 10
-112.2310048421223
 20
-13.10191345214843
 30
0.0
 10
-112.7835981580946
 20
-13.10191345214843
 30
0.0
 10
-112.7835981580946
 20
-13.10191345214843
 30
0.0
 10
-126.8189171685112
 20
-13.10191345214843
 30
0.0
 10
-126.8189171685112
 20
-13.10191345214843
 30
0.0
 10
-127.3742665608723
 20
-13.10191345214843
 30
0.0
 10
-127.8207509358723
 20
-13.54839782714843
 30
0.0
 10
-127.8207509358723
 20
-14.10099114312066
 30
0.0
 10
-127.8207509358723
 20
-14.10099114312066
 30
0.0
 10
-127.8207509358723
 20
-17.10787048339843
 30
0.0
 10
-127.8207509358723
 20
-17.10787048339843
 30
0.0
  0
SPLINE
  5
18F
100
AcDbEntity
  8
ALPHA
 62
     7
100
AcDbSpline
210
0.0
220
0.0
230
1.0
 70
    11
 71
     3
 72
    26
 73
    22
 74
     0
 42
0.0000001
 43
0.0000001
 40
0.0
 40
0.0
 40
0.0
 40
0.0
 40
1.0
 40
1.0
 40
1.0
 40
2.0
 40
2.0
 40
2.0
 40
3.0
 40
3.0
 40
3.0
 40
4.0
 40
4.0
 40
4.0
 40
5.0
 40
5.0
 40
5.0
 40
6.0
 40
6.0
 40
6.0
 40
7.0
 40
7.0
 40
7.0
 40
7.0
 10
-124.8083594428168
 20
-20.11474982367621
 30
0.0
 10
-124.8083594428168
 20
-20.11474982367621
 30
0.0
 10
-127.816616821289
 20
-17.10787048339843
 30
0.0
 10
-127.816616821289
 20
-17.10787048339843
 30
0.0
 10
-127.816616821289
 20
-17.10787048339843
 30
0.0
 10
-132.8285417344835
 20
-17.10787048339843
 30
0.0
 10
-132.8285417344835
 20
-17.10787048339843
 30
0.0
 10
-134.489077758789
 20
-17.10787048339843
 30
0.0
 10
-135.8367991129556
 20
-18.45696987575954
 30
0.0
 10
-135.8367991129556
 20
-20.11474982367621
 30
0.0
 10
-135.8367991129556
 20
-20.11474982367621
 30
0.0
 10
-135.8367991129556
 20
-20.11474982367621
 30
0.0
 10
-135.8367991129556
 20
-20.11474982367621
 30
0.0
 10
-135.8367991129556
 20
-21.77804192437065
 30
0.0
 10
-134.489077758789
 20
-23.12300720214843
 30
0.0
 10
-132.8285417344835
 20
-23.12300720214843
 30
0.0
 10
-132.8285417344835
 20
-23.12300720214843
 30
0.0
 10
-127.816616821289
 20
-23.12300720214843
 30
0.0
 10
-127.816616821289
 20
-23.12300720214843
 30
0.0
 10
-127.816616821289
 20
-23.12300720214843
 30
0.0
 10
-124.8083594428168
 20
-20.11474982367621
 30
0.0
 10
-124.8083594428168
 20
-20.11474982367621
 30
0.0
  0
SPLINE
  5
190
100
AcDbEntity
  8
ALPHA
 62
     7
100
AcDbSpline
210
0.0
220
0.0
230
-1.0
 70
     8
 71
     3
 72
    32
 73
    28
 74
     0
 42
0.0000001
 43
0.0000001
 40
0.0
 40
0.0
 40
0.0
 40
0.0
 40
1.0
 40
1.0
 40
1.0
 40
2.0
 40
2.0
 40
2.0
 40
3.0
 40
3.0
 40
3.0
 40
4.0
 40
4.0
 40
4.0
 40
5.0
 40
5.0
 40
5.0
 40
6.0
 40
6.0
 40
6.0
 40
7.0
 40
7.0
 40
7.0
 40
8.0
 40
8.0
 40
8.0
 40
9.0
 40
9.0
 40
9.0
 40
9.0
 10
-127.8207509358723
 20
-42.21986050075954
 30
0.0
 10
-127.8207509358723
 20
-42.21986050075954
 30
0.0
 10
-127.8207509358723
 20
-45.22811787923177
 30
0.0
 10
-127.8207509358723
 20
-45.22811787923177
 30
0.0
 10
-127.8207509358723
 20
-45.78484530978732
 30
0.0
 10
-127.3742665608723
 20
-46.23132968478731
 30
0.0
 10
-126.8189171685112
 20
-46.23132968478731
 30
0.0
 10
-126.8189171685112
 20
-46.23132968478731
 30
0.0
 10
-112.7835981580946
 20
-46.23132968478731
 30
0.0
 10
-112.7835981580946
 20
-46.23132968478731
 30
0.0
 10
-112.2310048421223
 20
-46.23132968478731
 30
0.0
 10
-111.780386352539
 20
-45.78484530978732
 30
0.0
 10
-111.780386352539
 20
-45.22811787923177
 30
0.0
 10
-111.780386352539
 20
-45.22811787923177
 30
0.0
 10
-111.780386352539
 20
-33.19922247992621
 30
0.0
 10
-111.780386352539
 20
-33.19922247992621
 30
0.0
 10
-111.780386352539
 20
-32.64662916395399
 30
0.0
 10
-112.2310048421223
 20
-32.19876675075954
 30
0.0
 10
-112.7835981580946
 20
-32.19876675075954
 30
0.0
 10
-112.7835981580946
 20
-32.19876675075954
 30
0.0
 10
-126.8189171685112
 20
-32.19876675075954
 30
0.0
 10
-126.8189171685112
 20
-32.19876675075954
 30
0.0
 10
-127.3742665608723
 20
-32.19876675075954
 30
0.0
 10
-127.8207509358723
 20
-32.64662916395399
 30
0.0
 10
-127.8207509358723
 20
-33.19922247992621
 30
0.0
 10
-127.8207509358723
 20
-33.19922247992621
 30
0.0
 10
-127.8207509358723
 20
-36.20610182020399
 30
0.0
 10
-127.8207509358723
 20
-36.20610182020399
 30
0.0
  0
SPLINE
  5
191
100
AcDbEntity
  8
ALPHA
 62
     7
100
AcDbSpline
210
0.0
220
0.0
230
1.0
 70
    11
 71
     3
 72
    26
 73
    22
 74
     0
 42
0.0000001
 43
0.0000001
 40
0.0
 40
0.0
 40
0.0
 40
0.0
 40
1.0
 40
1.0
 40
1.0
 40
2.0
 40
2.0
 40
2.0
 40
3.0
 40
3.0
 40
3.0
 40
4.0
 40
4.0
 40
4.0
 40
5.0
 40
5.0
 40
5.0
 40
6.0
 40
6.0
 40
6.0
 40
7.0
 40
7.0
 40
7.0
 40
7.0
 10
-124.8083594428168
 20
-39.21298116048177
 30
0.0
 10
-124.8083594428168
 20
-39.21298116048177
 30
0.0
 10
-127.816616821289
 20
-36.20610182020399
 30
0.0
 10
-127.816616821289
 20
-36.20610182020399
 30
0.0
 10
-127.816616821289
 20
-36.20610182020399
 30
0.0
 10
-132.8285417344835
 20
-36.20610182020399
 30
0.0
 10
-132.8285417344835
 20
-36.20610182020399
 30
0.0
 10
-134.489077758789
 20
-36.20610182020399
 30
0.0
 10
-135.8367991129556
 20
-37.5552012125651
 30
0.0
 10
-135.8367991129556
 20
-39.21298116048177
 30
0.0
 10
-135.8367991129556
 20
-39.21298116048177
 30
0.0
 10
-135.8367991129556
 20
-39.21298116048177
 30
0.0
 10
-135.8367991129556
 20
-39.21298116048177
 30
0.0
 10
-135.8367991129556
 20
-40.87489522298176
 30
0.0
 10
-134.489077758789
 20
-42.21986050075954
 30
0.0
 10
-132.8285417344835
 20
-42.21986050075954
 30
0.0
 10
-132.8285417344835
 20
-42.21986050075954
 30
0.0
 10
-127.816616821289
 20
-42.21986050075954
 30
0.0
 10
-127.816616821289
 20
-42.21986050075954
 30
0.0
 10
-127.816616821289
 20
-42.21986050075954
 30
0.0
 10
-124.8083594428168
 20
-39.21298116048177
 30
0.0
 10
-124.8083594428168
 20
-39.21298116048177
 30
0.0
  0
SPLINE
  5
192
100
AcDbEntity
  8
ALPHA
 62
     7
100
AcDbSpline
210
0.0
220
0.0
230
-1.0
 70
     8
 71
     3
 72
    32
 73
    28
 74
     0
 42
0.0000001
 43
0.0000001
 40
0.0
 40
0.0
 40
0.0
 40
0.0
 40
1.0
 40
1.0
 40
1.0
 40
2.0
 40
2.0
 40
2.0
 40
3.0
 40
3.0
 40
3.0
 40
4.0
 40
4.0
 40
4.0
 40
5.0
 40
5.0
 40
5.0
 40
6.0
 40
6.0
 40
6.0
 40
7.0
 40
7.0
 40
7.0
 40
8.0
 40
8.0
 40
8.0
 40
9.0
 40
9.0
 40
9.0
 40
9.0
 10
-127.8207509358723
 20
-61.3180918375651
 30
0.0
 10
-127.8207509358723
 20
-61.3180918375651
 30
0.0
 10
-127.8207509358723
 20
-64.32497117784286
 30
0.0
 10
-127.8207509358723
 20
-64.32497117784286
 30
0.0
 10
-127.8207509358723
 20
-64.88169860839843
 30
0.0
 10
-127.3742665608723
 20
-65.32956102159288
 30
0.0
 10
-126.8189171685112
 20
-65.32956102159288
 30
0.0
 10
-126.8189171685112
 20
-65.32956102159288
 30
0.0
 10
-112.7835981580946
 20
-65.32956102159288
 30
0.0
 10
-112.7835981580946
 20
-65.32956102159288
 30
0.0
 10
-112.2310048421223
 20
-65.32956102159288
 30
0.0
 10
-111.780386352539
 20
-64.88169860839843
 30
0.0
 10
-111.780386352539
 20
-64.32497117784286
 30
0.0
 10
-111.780386352539
 20
-64.32497117784286
 30
0.0
 10
-111.780386352539
 20
-52.29607577853732
 30
0.0
 10
-111.780386352539
 20
-52.29607577853732
 30
0.0
 10
-111.780386352539
 20
-51.7434824625651
 30
0.0
 10
-112.2310048421223
 20
-51.2969980875651
 30
0.0
 10
-112.7835981580946
 20
-51.2969980875651
 30
0.0
 10
-112.7835981580946
 20
-51.2969980875651
 30
0.0
 10
-126.8189171685112
 20
-51.2969980875651
 30
0.0
 10
-126.8189171685112
 20
-51.2969980875651
 30
0.0
 10
-127.3742665608723
 20
-51.2969980875651
 30
0.0
 10
-127.8207509358723
 20
-51.7434824625651
 30
0.0
 10
-127.8207509358723
 20
-52.29607577853732
 30
0.0
 10
-127.8207509358723
 20
-52.29607577853732
 30
0.0
 10
-127.8207509358723
 20
-55.3029551188151
 30
0.0
 10
-127.8207509358723
 20
-55.3029551188151
 30
0.0
  0
SPLINE
  5
193
100
AcDbEntity
  8
ALPHA
 62
     7
100
AcDbSpline
210
0.0
220
0.0
230
1.0
 70
    11
 71
     3
 72
    26
 73
    22
 74
     0
 42
0.0000001
 43
0.0000001
 40
0.0
 40
0.0
 40
0.0
 40
0.0
 40
1.0
 40
1.0
 40
1.0
 40
2.0
 40
2.0
 40
2.0
 40
3.0
 40
3.0
 40
3.0
 40
4.0
 40
4.0
 40
4.0
 40
5.0
 40
5.0
 40
5.0
 40
6.0
 40
6.0
 40
6.0
 40
7.0
 40
7.0
 40
7.0
 40
7.0
 10
-124.8083594428168
 20
-58.31121249728732
 30
0.0
 10
-124.8083594428168
 20
-58.31121249728732
 30
0.0
 10
-127.816616821289
 20
-55.3029551188151
 30
0.0
 10
-127.816616821289
 20
-55.3029551188151
 30
0.0
 10
-127.816616821289
 20
-55.3029551188151
 30
0.0
 10
-132.8285417344835
 20
-55.3029551188151
 30
0.0
 10
-132.8285417344835
 20
-55.3029551188151
 30
0.0
 10
-134.489077758789
 20
-55.3029551188151
 30
0.0
 10
-135.8367991129556
 20
-56.65343254937066
 30
0.0
 10
-135.8367991129556
 20
-58.31121249728732
 30
0.0
 10
-135.8367991129556
 20
-58.31121249728732
 30
0.0
 10
-135.8367991129556
 20
-58.31121249728732
 30
0.0
 10
-135.8367991129556
 20
-58.31121249728732
 30
0.0
 10
-135.8367991129556
 20
-59.97312655978731
 30
0.0
 10
-134.489077758789
 20
-61.3180918375651
 30
0.0
 10
-132.8285417344835
 20
-61.3180918375651
 30
0.0
 10
-132.8285417344835
 20
-61.3180918375651
 30
0.0
 10
-127.816616821289
 20
-61.3180918375651
 30
0.0
 10
-127.816616821289
 20
-61.3180918375651
 30
0.0
 10
-127.816616821289
 20
-61.3180918375651
 30
0.0
 10
-124.8083594428168
 20
-58.31121249728732
 30
0.0
 10
-124.8083594428168
 20
-58.31121249728732
 30
0.0
  0
SPLINE
  5
194
100
AcDbEntity
  8
ALPHA
 62
     7
100
AcDbSpline
210
0.0
220
0.0
230
-1.0
 70
     8
 71
     3
 72
    32
 73
    28
 74
     0
 42
0.0000001
 43
0.0000001
 40
0.0
 40
0.0
 40
0.0
 40
0.0
 40
1.0
 40
1.0
 40
1.0
 40
2.0
 40
2.0
 40
2.0
 40
3.0
 40
3.0
 40
3.0
 40
4.0
 40
4.0
 40
4.0
 40
5.0
 40
5.0
 40
5.0
 40
6.0
 40
6.0
 40
6.0
 40
7.0
 40
7.0
 40
7.0
 40
8.0
 40
8.0
 40
8.0
 40
9.0
 40
9.0
 40
9.0
 40
9.0
 10
-127.8207509358723
 20
-80.41494513617621
 30
0.0
 10
-127.8207509358723
 20
-80.41494513617621
 30
0.0
 10
-127.8207509358723
 20
-83.42320251464842
 30
0.0
 10
-127.8207509358723
 20
-83.42320251464842
 30
0.0
 10
-127.8207509358723
 20
-83.97992994520398
 30
0.0
 10
-127.3742665608723
 20
-84.42641432020399
 30
0.0
 10
-126.8189171685112
 20
-84.42641432020399
 30
0.0
 10
-126.8189171685112
 20
-84.42641432020399
 30
0.0
 10
-112.7835981580946
 20
-84.42641432020399
 30
0.0
 10
-112.7835981580946
 20
-84.42641432020399
 30
0.0
 10
-112.2310048421223
 20
-84.42641432020399
 30
0.0
 10
-111.780386352539
 20
-83.97992994520398
 30
0.0
 10
-111.780386352539
 20
-83.42320251464842
 30
0.0
 10
-111.780386352539
 20
-83.42320251464842
 30
0.0
 10
-111.780386352539
 20
-71.39430711534287
 30
0.0
 10
-111.780386352539
 20
-71.39430711534287
 30
0.0
 10
-111.780386352539
 20
-70.84171379937065
 30
0.0
 10
-112.2310048421223
 20
-70.39522942437065
 30
0.0
 10
-112.7835981580946
 20
-70.39522942437065
 30
0.0
 10
-112.7835981580946
 20
-70.39522942437065
 30
0.0
 10
-126.8189171685112
 20
-70.39522942437065
 30
0.0
 10
-126.8189171685112
 20
-70.39522942437065
 30
0.0
 10
-127.3742665608723
 20
-70.39522942437065
 30
0.0
 10
-127.8207509358723
 20
-70.84171379937065
 30
0.0
 10
-127.8207509358723
 20
-71.39430711534287
 30
0.0
 10
-127.8207509358723
 20
-71.39430711534287
 30
0.0
 10
-127.8207509358723
 20
-74.40118645562065
 30
0.0
 10
-127.8207509358723
 20
-74.40118645562065
 30
0.0
  0
SPLINE
  5
195
100
AcDbEntity
  8
ALPHA
 62
     7
100
AcDbSpline
210
0.0
220
0.0
230
1.0
 70
    11
 71
     3
 72
    26
 73
    22
 74
     0
 42
0.0000001
 43
0.0000001
 40
0.0
 40
0.0
 40
0.0
 40
0.0
 40
1.0
 40
1.0
 40
1.0
 40
2.0
 40
2.0
 40
2.0
 40
3.0
 40
3.0
 40
3.0
 40
4.0
 40
4.0
 40
4.0
 40
5.0
 40
5.0
 40
5.0
 40
6.0
 40
6.0
 40
6.0
 40
7.0
 40
7.0
 40
7.0
 40
7.0
 10
-124.8083594428168
 20
-77.40806579589843
 30
0.0
 10
-124.8083594428168
 20
-77.40806579589843
 30
0.0
 10
-127.816616821289
 20
-74.40118645562065
 30
0.0
 10
-127.816616821289
 20
-74.40118645562065
 30
0.0
 10
-127.816616821289
 20
-74.40118645562065
 30
0.0
 10
-132.8285417344835
 20
-74.40118645562065
 30
0.0
 10
-132.8285417344835
 20
-74.40118645562065
 30
0.0
 10
-134.489077758789
 20
-74.40118645562065
 30
0.0
 10
-135.8367991129556
 20
-75.75028584798175
 30
0.0
 10
-135.8367991129556
 20
-77.40806579589843
 30
0.0
 10
-135.8367991129556
 20
-77.40806579589843
 30
0.0
 10
-135.8367991129556
 20
-77.40806579589843
 30
0.0
 10
-135.8367991129556
 20
-77.40806579589843
 30
0.0
 10
-135.8367991129556
 20
-79.07135789659287
 30
0.0
 10
-134.489077758789
 20
-80.41494513617621
 30
0.0
 10
-132.8285417344835
 20
-80.41494513617621
 30
0.0
 10
-132.8285417344835
 20
-80.41494513617621
 30
0.0
 10
-127.816616821289
 20
-80.41494513617621
 30
0.0
 10
-127.816616821289
 20
-80.41494513617621
 30
0.0
 10
-127.816616821289
 20
-80.41494513617621
 30
0.0
 10
-124.8083594428168
 20
-77.40806579589843
 30
0.0
 10
-124.8083594428168
 20
-77.40806579589843
 30
0.0
  0
SPLINE
  5
196
100
AcDbEntity
  8
ALPHA
 62
     7
100
AcDbSpline
210
0.0
220
0.0
230
-1.0
 70
     8
 71
     3
 72
    32
 73
    28
 74
     0
 42
0.0000001
 43
0.0000001
 40
0.0
 40
0.0
 40
0.0
 40
0.0
 40
1.0
 40
1.0
 40
1.0
 40
2.0
 40
2.0
 40
2.0
 40
3.0
 40
3.0
 40
3.0
 40
4.0
 40
4.0
 40
4.0
 40
5.0
 40
5.0
 40
5.0
 40
6.0
 40
6.0
 40
6.0
 40
7.0
 40
7.0
 40
7.0
 40
8.0
 40
8.0
 40
8.0
 40
9.0
 40
9.0
 40
9.0
 40
9.0
 10
-89.72075093587239
 20
15.07362772623697
 30
0.0
 10
-89.72075093587239
 20
15.07362772623697
 30
0.0
 10
-89.72075093587239
 20
12.06537034776475
 30
0.0
 10
-89.72075093587239
 20
12.06537034776475
 30
0.0
 10
-89.72075093587239
 20
11.5086429172092
 30
0.0
 10
-90.16723531087238
 20
11.0621585422092
 30
0.0
 10
-90.72534077962238
 20
11.0621585422092
 30
0.0
 10
-90.72534077962238
 20
11.0621585422092
 30
0.0
 10
-104.7565256754557
 20
11.0621585422092
 30
0.0
 10
-104.7565256754557
 20
11.0621585422092
 30
0.0
 10
-105.3091189914279
 20
11.0621585422092
 30
0.0
 10
-105.7611155192057
 20
11.5086429172092
 30
0.0
 10
-105.7611155192057
 20
12.06537034776475
 30
0.0
 10
-105.7611155192057
 20
12.06537034776475
 30
0.0
 10
-105.7611155192057
 20
24.09426574707031
 30
0.0
 10
-105.7611155192057
 20
24.09426574707031
 30
0.0
 10
-105.7611155192057
 20
24.64685906304253
 30
0.0
 10
-105.3091189914279
 20
25.09334343804253
 30
0.0
 10
-104.7565256754557
 20
25.09334343804253
 30
0.0
 10
-104.7565256754557
 20
25.09334343804253
 30
0.0
 10
-90.72534077962238
 20
25.09334343804253
 30
0.0
 10
-90.72534077962238
 20
25.09334343804253
 30
0.0
 10
-90.16723531087238
 20
25.09334343804253
 30
0.0
 10
-89.72075093587239
 20
24.64685906304253
 30
0.0
 10
-89.72075093587239
 20
24.09426574707031
 30
0.0
 10
-89.72075093587239
 20
24.09426574707031
 30
0.0
 10
-89.72075093587239
 20
21.08738640679253
 30
0.0
 10
-89.72075093587239
 20
21.08738640679253
 30
0.0
  0
SPLINE
  5
197
100
AcDbEntity
  8
ALPHA
 62
     7
100
AcDbSpline
210
0.0
220
0.0
230
1.0
 70
    11
 71
     3
 72
    26
 73
    22
 74
     0
 42
0.0000001
 43
0.0000001
 40
0.0
 40
0.0
 40
0.0
 40
0.0
 40
1.0
 40
1.0
 40
1.0
 40
2.0
 40
2.0
 40
2.0
 40
3.0
 40
3.0
 40
3.0
 40
4.0
 40
4.0
 40
4.0
 40
5.0
 40
5.0
 40
5.0
 40
6.0
 40
6.0
 40
6.0
 40
7.0
 40
7.0
 40
7.0
 40
7.0
 10
-92.73314242892794
 20
18.08050706651475
 30
0.0
 10
-92.73314242892794
 20
18.08050706651475
 30
0.0
 10
-89.72626308865017
 20
21.08738640679253
 30
0.0
 10
-89.72626308865017
 20
21.08738640679253
 30
0.0
 10
-89.72626308865017
 20
21.08738640679253
 30
0.0
 10
-84.71571621365017
 20
21.08738640679253
 30
0.0
 10
-84.71571621365017
 20
21.08738640679253
 30
0.0
 10
-83.05242411295571
 20
21.08738640679253
 30
0.0
 10
-81.70745883517794
 20
19.73828701443142
 30
0.0
 10
-81.70745883517794
 20
18.08050706651475
 30
0.0
 10
-81.70745883517794
 20
18.08050706651475
 30
0.0
 10
-81.70745883517794
 20
18.08050706651475
 30
0.0
 10
-81.70745883517794
 20
18.08050706651475
 30
0.0
 10
-81.70745883517794
 20
16.41721496582031
 30
0.0
 10
-83.05242411295571
 20
15.07362772623697
 30
0.0
 10
-84.71571621365017
 20
15.07362772623697
 30
0.0
 10
-84.71571621365017
 20
15.07362772623697
 30
0.0
 10
-89.72626308865017
 20
15.07362772623697
 30
0.0
 10
-89.72626308865017
 20
15.07362772623697
 30
0.0
 10
-89.72626308865017
 20
15.07362772623697
 30
0.0
 10
-92.73314242892794
 20
18.08050706651475
 30
0.0
 10
-92.73314242892794
 20
18.08050706651475
 30
0.0
  0
SPLINE
  5
198
100
AcDbEntity
  8
ALPHA
 62
     7
100
AcDbSpline
210
0.0
220
0.0
230
-1.0
 70
     8
 71
     3
 72
    32
 73
    28
 74
     0
 42
0.0000001
 43
0.0000001
 40
0.0
 40
0.0
 40
0.0
 40
0.0
 40
1.0
 40
1.0
 40
1.0
 40
2.0
 40
2.0
 40
2.0
 40
3.0
 40
3.0
 40
3.0
 40
4.0
 40
4.0
 40
4.0
 40
5.0
 40
5.0
 40
5.0
 40
6.0
 40
6.0
 40
6.0
 40
7.0
 40
7.0
 40
7.0
 40
8.0
 40
8.0
 40
8.0
 40
9.0
 40
9.0
 40
9.0
 40
9.0
 10
-89.72075093587239
 20
-4.024775865342881
 30
0.0
 10
-89.72075093587239
 20
-4.024775865342881
 30
0.0
 10
-89.72075093587239
 20
-7.031655205620658
 30
0.0
 10
-89.72075093587239
 20
-7.031655205620658
 30
0.0
 10
-89.72075093587239
 20
-7.589760674370658
 30
0.0
 10
-90.16723531087238
 20
-8.036245049370659
 30
0.0
 10
-90.72534077962238
 20
-8.036245049370659
 30
0.0
 10
-90.72534077962238
 20
-8.036245049370659
 30
0.0
 10
-104.7565256754557
 20
-8.036245049370659
 30
0.0
 10
-104.7565256754557
 20
-8.036245049370659
 30
0.0
 10
-105.3091189914279
 20
-8.036245049370659
 30
0.0
 10
-105.7611155192057
 20
-7.589760674370658
 30
0.0
 10
-105.7611155192057
 20
-7.031655205620658
 30
0.0
 10
-105.7611155192057
 20
-7.031655205620658
 30
0.0
 10
-105.7611155192057
 20
4.997240193684895
 30
0.0
 10
-105.7611155192057
 20
4.997240193684895
 30
0.0
 10
-105.7611155192057
 20
5.549833509657117
 30
0.0
 10
-105.3091189914279
 20
5.996317884657117
 30
0.0
 10
-104.7565256754557
 20
5.996317884657117
 30
0.0
 10
-104.7565256754557
 20
5.996317884657117
 30
0.0
 10
-90.72534077962238
 20
5.996317884657117
 30
0.0
 10
-90.72534077962238
 20
5.996317884657117
 30
0.0
 10
-90.16723531087238
 20
5.996317884657117
 30
0.0
 10
-89.72075093587239
 20
5.549833509657117
 30
0.0
 10
-89.72075093587239
 20
4.997240193684895
 30
0.0
 10
-89.72075093587239
 20
4.997240193684895
 30
0.0
 10
-89.72075093587239
 20
1.988982815212673
 30
0.0
 10
-89.72075093587239
 20
1.988982815212673
 30
0.0
  0
SPLINE
  5
199
100
AcDbEntity
  8
ALPHA
 62
     7
100
AcDbSpline
210
0.0
220
0.0
230
1.0
 70
    11
 71
     3
 72
    26
 73
    22
 74
     0
 42
0.0000001
 43
0.0000001
 40
0.0
 40
0.0
 40
0.0
 40
0.0
 40
1.0
 40
1.0
 40
1.0
 40
2.0
 40
2.0
 40
2.0
 40
3.0
 40
3.0
 40
3.0
 40
4.0
 40
4.0
 40
4.0
 40
5.0
 40
5.0
 40
5.0
 40
6.0
 40
6.0
 40
6.0
 40
7.0
 40
7.0
 40
7.0
 40
7.0
 10
-92.73314242892794
 20
-1.017896525065103
 30
0.0
 10
-92.73314242892794
 20
-1.017896525065103
 30
0.0
 10
-89.72626308865017
 20
1.988982815212673
 30
0.0
 10
-89.72626308865017
 20
1.988982815212673
 30
0.0
 10
-89.72626308865017
 20
1.988982815212673
 30
0.0
 10
-84.71571621365017
 20
1.988982815212673
 30
0.0
 10
-84.71571621365017
 20
1.988982815212673
 30
0.0
 10
-83.05242411295571
 20
1.988982815212673
 30
0.0
 10
-81.70745883517794
 20
0.6398834228515625
 30
0.0
 10
-81.70745883517794
 20
-1.017896525065103
 30
0.0
 10
-81.70745883517794
 20
-1.017896525065103
 30
0.0
 10
-81.70745883517794
 20
-1.017896525065103
 30
0.0
 10
-81.70745883517794
 20
-1.017896525065103
 30
0.0
 10
-81.70745883517794
 20
-2.679810587565103
 30
0.0
 10
-83.05242411295571
 20
-4.024775865342881
 30
0.0
 10
-84.71571621365017
 20
-4.024775865342881
 30
0.0
 10
-84.71571621365017
 20
-4.024775865342881
 30
0.0
 10
-89.72626308865017
 20
-4.024775865342881
 30
0.0
 10
-89.72626308865017
 20
-4.024775865342881
 30
0.0
 10
-89.72626308865017
 20
-4.024775865342881
 30
0.0
 10
-92.73314242892794
 20
-1.017896525065103
 30
0.0
 10
-92.73314242892794
 20
-1.017896525065103
 30
0.0
  0
SPLINE
  5
19A
100
AcDbEntity
  8
ALPHA
 62
     7
100
AcDbSpline
210
0.0
220
0.0
230
-1.0
 70
     8
 71
     3
 72
    32
 73
    28
 74
     0
 42
0.0000001
 43
0.0000001
 40
0.0
 40
0.0
 40
0.0
 40
0.0
 40
1.0
 40
1.0
 40
1.0
 40
2.0
 40
2.0
 40
2.0
 40
3.0
 40
3.0
 40
3.0
 40
4.0
 40
4.0
 40
4.0
 40
5.0
 40
5.0
 40
5.0
 40
6.0
 40
6.0
 40
6.0
 40
7.0
 40
7.0
 40
7.0
 40
8.0
 40
8.0
 40
8.0
 40
9.0
 40
9.0
 40
9.0
 40
9.0
 10
-89.72075093587239
 20
-23.12300720214843
 30
0.0
 10
-89.72075093587239
 20
-23.12300720214843
 30
0.0
 10
-89.72075093587239
 20
-26.12988654242621
 30
0.0
 10
-89.72075093587239
 20
-26.12988654242621
 30
0.0
 10
-89.72075093587239
 20
-26.68661397298176
 30
0.0
 10
-90.16723531087238
 20
-27.13309834798177
 30
0.0
 10
-90.72534077962238
 20
-27.13309834798177
 30
0.0
 10
-90.72534077962238
 20
-27.13309834798177
 30
0.0
 10
-104.7565256754557
 20
-27.13309834798177
 30
0.0
 10
-104.7565256754557
 20
-27.13309834798177
 30
0.0
 10
-105.3091189914279
 20
-27.13309834798177
 30
0.0
 10
-105.7611155192057
 20
-26.68661397298176
 30
0.0
 10
-105.7611155192057
 20
-26.12988654242621
 30
0.0
 10
-105.7611155192057
 20
-26.12988654242621
 30
0.0
 10
-105.7611155192057
 20
-14.10099114312066
 30
0.0
 10
-105.7611155192057
 20
-14.10099114312066
 30
0.0
 10
-105.7611155192057
 20
-13.54839782714843
 30
0.0
 10
-105.3091189914279
 20
-13.10191345214843
 30
0.0
 10
-104.7565256754557
 20
-13.10191345214843
 30
0.0
 10
-104.7565256754557
 20
-13.10191345214843
 30
0.0
 10
-90.72534077962238
 20
-13.10191345214843
 30
0.0
 10
-90.72534077962238
 20
-13.10191345214843
 30
0.0
 10
-90.16723531087238
 20
-13.10191345214843
 30
0.0
 10
-89.72075093587239
 20
-13.54839782714843
 30
0.0
 10
-89.72075093587239
 20
-14.10099114312066
 30
0.0
 10
-89.72075093587239
 20
-14.10099114312066
 30
0.0
 10
-89.72075093587239
 20
-17.10787048339843
 30
0.0
 10
-89.72075093587239
 20
-17.10787048339843
 30
0.0
  0
SPLINE
  5
19B
100
AcDbEntity
  8
ALPHA
 62
     7
100
AcDbSpline
210
0.0
220
0.0
230
1.0
 70
    11
 71
     3
 72
    26
 73
    22
 74
     0
 42
0.0000001
 43
0.0000001
 40
0.0
 40
0.0
 40
0.0
 40
0.0
 40
1.0
 40
1.0
 40
1.0
 40
2.0
 40
2.0
 40
2.0
 40
3.0
 40
3.0
 40
3.0
 40
4.0
 40
4.0
 40
4.0
 40
5.0
 40
5.0
 40
5.0
 40
6.0
 40
6.0
 40
6.0
 40
7.0
 40
7.0
 40
7.0
 40
7.0
 10
-92.73314242892794
 20
-20.11474982367621
 30
0.0
 10
-92.73314242892794
 20
-20.11474982367621
 30
0.0
 10
-89.72626308865017
 20
-17.10787048339843
 30
0.0
 10
-89.72626308865017
 20
-17.10787048339843
 30
0.0
 10
-89.72626308865017
 20
-17.10787048339843
 30
0.0
 10
-84.71571621365017
 20
-17.10787048339843
 30
0.0
 10
-84.71571621365017
 20
-17.10787048339843
 30
0.0
 10
-83.05242411295571
 20
-17.10787048339843
 30
0.0
 10
-81.70745883517794
 20
-18.45696987575954
 30
0.0
 10
-81.70745883517794
 20
-20.11474982367621
 30
0.0
 10
-81.70745883517794
 20
-20.11474982367621
 30
0.0
 10
-81.70745883517794
 20
-20.11474982367621
 30
0.0
 10
-81.70745883517794
 20
-20.11474982367621
 30
0.0
 10
-81.70745883517794
 20
-21.77804192437065
 30
0.0
 10
-83.05242411295571
 20
-23.12300720214843
 30
0.0
 10
-84.71571621365017
 20
-23.12300720214843
 30
0.0
 10
-84.71571621365017
 20
-23.12300720214843
 30
0.0
 10
-89.72626308865017
 20
-23.12300720214843
 30
0.0
 10
-89.72626308865017
 20
-23.12300720214843
 30
0.0
 10
-89.72626308865017
 20
-23.12300720214843
 30
0.0
 10
-92.73314242892794
 20
-20.11474982367621
 30
0.0
 10
-92.73314242892794
 20
-20.11474982367621
 30
0.0
  0
SPLINE
  5
19C
100
AcDbEntity
  8
ALPHA
 62
     7
100
AcDbSpline
210
0.0
220
0.0
230
-1.0
 70
     8
 71
     3
 72
    32
 73
    28
 74
     0
 42
0.0000001
 43
0.0000001
 40
0.0
 40
0.0
 40
0.0
 40
0.0
 40
1.0
 40
1.0
 40
1.0
 40
2.0
 40
2.0
 40
2.0
 40
3.0
 40
3.0
 40
3.0
 40
4.0
 40
4.0
 40
4.0
 40
5.0
 40
5.0
 40
5.0
 40
6.0
 40
6.0
 40
6.0
 40
7.0
 40
7.0
 40
7.0
 40
8.0
 40
8.0
 40
8.0
 40
9.0
 40
9.0
 40
9.0
 40
9.0
 10
-89.72075093587239
 20
-42.21986050075954
 30
0.0
 10
-89.72075093587239
 20
-42.21986050075954
 30
0.0
 10
-89.72075093587239
 20
-45.22811787923177
 30
0.0
 10
-89.72075093587239
 20
-45.22811787923177
 30
0.0
 10
-89.72075093587239
 20
-45.78484530978732
 30
0.0
 10
-90.16723531087238
 20
-46.23132968478731
 30
0.0
 10
-90.72534077962238
 20
-46.23132968478731
 30
0.0
 10
-90.72534077962238
 20
-46.23132968478731
 30
0.0
 10
-104.7565256754557
 20
-46.23132968478731
 30
0.0
 10
-104.7565256754557
 20
-46.23132968478731
 30
0.0
 10
-105.3091189914279
 20
-46.23132968478731
 30
0.0
 10
-105.7611155192057
 20
-45.78484530978732
 30
0.0
 10
-105.7611155192057
 20
-45.22811787923177
 30
0.0
 10
-105.7611155192057
 20
-45.22811787923177
 30
0.0
 10
-105.7611155192057
 20
-33.19922247992621
 30
0.0
 10
-105.7611155192057
 20
-33.19922247992621
 30
0.0
 10
-105.7611155192057
 20
-32.64662916395399
 30
0.0
 10
-105.3091189914279
 20
-32.19876675075954
 30
0.0
 10
-104.7565256754557
 20
-32.19876675075954
 30
0.0
 10
-104.7565256754557
 20
-32.19876675075954
 30
0.0
 10
-90.72534077962238
 20
-32.19876675075954
 30
0.0
 10
-90.72534077962238
 20
-32.19876675075954
 30
0.0
 10
-90.16723531087238
 20
-32.19876675075954
 30
0.0
 10
-89.72075093587239
 20
-32.64662916395399
 30
0.0
 10
-89.72075093587239
 20
-33.19922247992621
 30
0.0
 10
-89.72075093587239
 20
-33.19922247992621
 30
0.0
 10
-89.72075093587239
 20
-36.20610182020399
 30
0.0
 10
-89.72075093587239
 20
-36.20610182020399
 30
0.0
  0
SPLINE
  5
19D
100
AcDbEntity
  8
ALPHA
 62
     7
100
AcDbSpline
210
0.0
220
0.0
230
1.0
 70
    11
 71
     3
 72
    26
 73
    22
 74
     0
 42
0.0000001
 43
0.0000001
 40
0.0
 40
0.0
 40
0.0
 40
0.0
 40
1.0
 40
1.0
 40
1.0
 40
2.0
 40
2.0
 40
2.0
 40
3.0
 40
3.0
 40
3.0
 40
4.0
 40
4.0
 40
4.0
 40
5.0
 40
5.0
 40
5.0
 40
6.0
 40
6.0
 40
6.0
 40
7.0
 40
7.0
 40
7.0
 40
7.0
 10
-92.73314242892794
 20
-39.21298116048177
 30
0.0
 10
-92.73314242892794
 20
-39.21298116048177
 30
0.0
 10
-89.72626308865017
 20
-36.20610182020399
 30
0.0
 10
-89.72626308865017
 20
-36.20610182020399
 30
0.0
 10
-89.72626308865017
 20
-36.20610182020399
 30
0.0
 10
-84.71571621365017
 20
-36.20610182020399
 30
0.0
 10
-84.71571621365017
 20
-36.20610182020399
 30
0.0
 10
-83.05242411295571
 20
-36.20610182020399
 30
0.0
 10
-81.70745883517794
 20
-37.5552012125651
 30
0.0
 10
-81.70745883517794
 20
-39.21298116048177
 30
0.0
 10
-81.70745883517794
 20
-39.21298116048177
 30
0.0
 10
-81.70745883517794
 20
-39.21298116048177
 30
0.0
 10
-81.70745883517794
 20
-39.21298116048177
 30
0.0
 10
-81.70745883517794
 20
-40.87489522298176
 30
0.0
 10
-83.05242411295571
 20
-42.21986050075954
 30
0.0
 10
-84.71571621365017
 20
-42.21986050075954
 30
0.0
 10
-84.71571621365017
 20
-42.21986050075954
 30
0.0
 10
-89.72626308865017
 20
-42.21986050075954
 30
0.0
 10
-89.72626308865017
 20
-42.21986050075954
 30
0.0
 10
-89.72626308865017
 20
-42.21986050075954
 30
0.0
 10
-92.73314242892794
 20
-39.21298116048177
 30
0.0
 10
-92.73314242892794
 20
-39.21298116048177
 30
0.0
  0
SPLINE
  5
19E
100
AcDbEntity
  8
ALPHA
 62
     7
100
AcDbSpline
210
0.0
220
0.0
230
-1.0
 70
     8
 71
     3
 72
    32
 73
    28
 74
     0
 42
0.0000001
 43
0.0000001
 40
0.0
 40
0.0
 40
0.0
 40
0.0
 40
1.0
 40
1.0
 40
1.0
 40
2.0
 40
2.0
 40
2.0
 40
3.0
 40
3.0
 40
3.0
 40
4.0
 40
4.0
 40
4.0
 40
5.0
 40
5.0
 40
5.0
 40
6.0
 40
6.0
 40
6.0
 40
7.0
 40
7.0
 40
7.0
 40
8.0
 40
8.0
 40
8.0
 40
9.0
 40
9.0
 40
9.0
 40
9.0
 10
-89.72075093587239
 20
-61.3180918375651
 30
0.0
 10
-89.72075093587239
 20
-61.3180918375651
 30
0.0
 10
-89.72075093587239
 20
-64.32497117784286
 30
0.0
 10
-89.72075093587239
 20
-64.32497117784286
 30
0.0
 10
-89.72075093587239
 20
-64.88169860839843
 30
0.0
 10
-90.16723531087238
 20
-65.32956102159288
 30
0.0
 10
-90.72534077962238
 20
-65.32956102159288
 30
0.0
 10
-90.72534077962238
 20
-65.32956102159288
 30
0.0
 10
-104.7565256754557
 20
-65.32956102159288
 30
0.0
 10
-104.7565256754557
 20
-65.32956102159288
 30
0.0
 10
-105.3091189914279
 20
-65.32956102159288
 30
0.0
 10
-105.7611155192057
 20
-64.88169860839843
 30
0.0
 10
-105.7611155192057
 20
-64.32497117784286
 30
0.0
 10
-105.7611155192057
 20
-64.32497117784286
 30
0.0
 10
-105.7611155192057
 20
-52.29607577853732
 30
0.0
 10
-105.7611155192057
 20
-52.29607577853732
 30
0.0
 10
-105.7611155192057
 20
-51.7434824625651
 30
0.0
 10
-105.3091189914279
 20
-51.2969980875651
 30
0.0
 10
-104.7565256754557
 20
-51.2969980875651
 30
0.0
 10
-104.7565256754557
 20
-51.2969980875651
 30
0.0
 10
-90.72534077962238
 20
-51.2969980875651
 30
0.0
 10
-90.72534077962238
 20
-51.2969980875651
 30
0.0
 10
-90.16723531087238
 20
-51.2969980875651
 30
0.0
 10
-89.72075093587239
 20
-51.7434824625651
 30
0.0
 10
-89.72075093587239
 20
-52.29607577853732
 30
0.0
 10
-89.72075093587239
 20
-52.29607577853732
 30
0.0
 10
-89.72075093587239
 20
-55.3029551188151
 30
0.0
 10
-89.72075093587239
 20
-55.3029551188151
 30
0.0
  0
SPLINE
  5
19F
100
AcDbEntity
  8
ALPHA
 62
     7
100
AcDbSpline
210
0.0
220
0.0
230
1.0
 70
    11
 71
     3
 72
    26
 73
    22
 74
     0
 42
0.0000001
 43
0.0000001
 40
0.0
 40
0.0
 40
0.0
 40
0.0
 40
1.0
 40
1.0
 40
1.0
 40
2.0
 40
2.0
 40
2.0
 40
3.0
 40
3.0
 40
3.0
 40
4.0
 40
4.0
 40
4.0
 40
5.0
 40
5.0
 40
5.0
 40
6.0
 40
6.0
 40
6.0
 40
7.0
 40
7.0
 40
7.0
 40
7.0
 10
-92.73314242892794
 20
-58.31121249728732
 30
0.0
 10
-92.73314242892794
 20
-58.31121249728732
 30
0.0
 10
-89.72626308865017
 20
-55.3029551188151
 30
0.0
 10
-89.72626308865017
 20
-55.3029551188151
 30
0.0
 10
-89.72626308865017
 20
-55.3029551188151
 30
0.0
 10
-84.71571621365017
 20
-55.3029551188151
 30
0.0
 10
-84.71571621365017
 20
-55.3029551188151
 30
0.0
 10
-83.05242411295571
 20
-55.3029551188151
 30
0.0
 10
-81.70745883517794
 20
-56.65343254937066
 30
0.0
 10
-81.70745883517794
 20
-58.31121249728732
 30
0.0
 10
-81.70745883517794
 20
-58.31121249728732
 30
0.0
 10
-81.70745883517794
 20
-58.31121249728732
 30
0.0
 10
-81.70745883517794
 20
-58.31121249728732
 30
0.0
 10
-81.70745883517794
 20
-59.97312655978731
 30
0.0
 10
-83.05242411295571
 20
-61.3180918375651
 30
0.0
 10
-84.71571621365017
 20
-61.3180918375651
 30
0.0
 10
-84.71571621365017
 20
-61.3180918375651
 30
0.0
 10
-89.72626308865017
 20
-61.3180918375651
 30
0.0
 10
-89.72626308865017
 20
-61.3180918375651
 30
0.0
 10
-89.72626308865017
 20
-61.3180918375651
 30
0.0
 10
-92.73314242892794
 20
-58.31121249728732
 30
0.0
 10
-92.73314242892794
 20
-58.31121249728732
 30
0.0
  0
SPLINE
  5
1A0
100
AcDbEntity
  8
ALPHA
 62
     7
100
AcDbSpline
210
0.0
220
0.0
230
-1.0
 70
     8
 71
     3
 72
    32
 73
    28
 74
     0
 42
0.0000001
 43
0.0000001
 40
0.0
 40
0.0
 40
0.0
 40
0.0
 40
1.0
 40
1.0
 40
1.0
 40
2.0
 40
2.0
 40
2.0
 40
3.0
 40
3.0
 40
3.0
 40
4.0
 40
4.0
 40
4.0
 40
5.0
 40
5.0
 40
5.0
 40
6.0
 40
6.0
 40
6.0
 40
7.0
 40
7.0
 40
7.0
 40
8.0
 40
8.0
 40
8.0
 40
9.0
 40
9.0
 40
9.0
 40
9.0
 10
-89.72075093587239
 20
-80.41494513617621
 30
0.0
 10
-89.72075093587239
 20
-80.41494513617621
 30
0.0
 10
-89.72075093587239
 20
-83.42320251464842
 30
0.0
 10
-89.72075093587239
 20
-83.42320251464842
 30
0.0
 10
-89.72075093587239
 20
-83.97992994520398
 30
0.0
 10
-90.16723531087238
 20
-84.42641432020399
 30
0.0
 10
-90.72534077962238
 20
-84.42641432020399
 30
0.0
 10
-90.72534077962238
 20
-84.42641432020399
 30
0.0
 10
-104.7565256754557
 20
-84.42641432020399
 30
0.0
 10
-104.7565256754557
 20
-84.42641432020399
 30
0.0
 10
-105.3091189914279
 20
-84.42641432020399
 30
0.0
 10
-105.7611155192057
 20
-83.97992994520398
 30
0.0
 10
-105.7611155192057
 20
-83.42320251464842
 30
0.0
 10
-105.7611155192057
 20
-83.42320251464842
 30
0.0
 10
-105.7611155192057
 20
-71.39430711534287
 30
0.0
 10
-105.7611155192057
 20
-71.39430711534287
 30
0.0
 10
-105.7611155192057
 20
-70.84171379937065
 30
0.0
 10
-105.3091189914279
 20
-70.39522942437065
 30
0.0
 10
-104.7565256754557
 20
-70.39522942437065
 30
0.0
 10
-104.7565256754557
 20
-70.39522942437065
 30
0.0
 10
-90.72534077962238
 20
-70.39522942437065
 30
0.0
 10
-90.72534077962238
 20
-70.39522942437065
 30
0.0
 10
-90.16723531087238
 20
-70.39522942437065
 30
0.0
 10
-89.72075093587239
 20
-70.84171379937065
 30
0.0
 10
-89.72075093587239
 20
-71.39430711534287
 30
0.0
 10
-89.72075093587239
 20
-71.39430711534287
 30
0.0
 10
-89.72075093587239
 20
-74.40118645562065
 30
0.0
 10
-89.72075093587239
 20
-74.40118645562065
 30
0.0
  0
SPLINE
  5
1A1
100
AcDbEntity
  8
ALPHA
 62
     7
100
AcDbSpline
210
0.0
220
0.0
230
1.0
 70
    11
 71
     3
 72
    26
 73
    22
 74
     0
 42
0.0000001
 43
0.0000001
 40
0.0
 40
0.0
 40
0.0
 40
0.0
 40
1.0
 40
1.0
 40
1.0
 40
2.0
 40
2.0
 40
2.0
 40
3.0
 40
3.0
 40
3.0
 40
4.0
 40
4.0
 40
4.0
 40
5.0
 40
5.0
 40
5.0
 40
6.0
 40
6.0
 40
6.0
 40
7.0
 40
7.0
 40
7.0
 40
7.0
 10
-92.73314242892794
 20
-77.40806579589843
 30
0.0
 10
-92.73314242892794
 20
-77.40806579589843
 30
0.0
 10
-89.72626308865017
 20
-74.40118645562065
 30
0.0
 10
-89.72626308865017
 20
-74.40118645562065
 30
0.0
 10
-89.72626308865017
 20
-74.40118645562065
 30
0.0
 10
-84.71571621365017
 20
-74.40118645562065
 30
0.0
 10
-84.71571621365017
 20
-74.40118645562065
 30
0.0
 10
-83.05242411295571
 20
-74.40118645562065
 30
0.0
 10
-81.70745883517794
 20
-75.75028584798175
 30
0.0
 10
-81.70745883517794
 20
-77.40806579589843
 30
0.0
 10
-81.70745883517794
 20
-77.40806579589843
 30
0.0
 10
-81.70745883517794
 20
-77.40806579589843
 30
0.0
 10
-81.70745883517794
 20
-77.40806579589843
 30
0.0
 10
-81.70745883517794
 20
-79.07135789659287
 30
0.0
 10
-83.05242411295571
 20
-80.41494513617621
 30
0.0
 10
-84.71571621365017
 20
-80.41494513617621
 30
0.0
 10
-84.71571621365017
 20
-80.41494513617621
 30
0.0
 10
-89.72626308865017
 20
-80.41494513617621
 30
0.0
 10
-89.72626308865017
 20
-80.41494513617621
 30
0.0
 10
-89.72626308865017
 20
-80.41494513617621
 30
0.0
 10
-92.73314242892794
 20
-77.40806579589843
 30
0.0
 10
-92.73314242892794
 20
-77.40806579589843
 30
0.0
  0
SPLINE
  5
1A2
100
AcDbEntity
  8
ALPHA
 62
     7
100
AcDbSpline
210
0.0
220
0.0
230
-1.0
 70
     8
 71
     3
 72
    32
 73
    28
 74
     0
 42
0.0000001
 43
0.0000001
 40
0.0
 40
0.0
 40
0.0
 40
0.0
 40
1.0
 40
1.0
 40
1.0
 40
2.0
 40
2.0
 40
2.0
 40
3.0
 40
3.0
 40
3.0
 40
4.0
 40
4.0
 40
4.0
 40
5.0
 40
5.0
 40
5.0
 40
6.0
 40
6.0
 40
6.0
 40
7.0
 40
7.0
 40
7.0
 40
8.0
 40
8.0
 40
8.0
 40
9.0
 40
9.0
 40
9.0
 40
9.0
 10
89.68311326768661
 20
15.07362772623697
 30
0.0
 10
89.68311326768661
 20
15.07362772623697
 30
0.0
 10
89.68311326768661
 20
12.06537034776475
 30
0.0
 10
89.68311326768661
 20
12.06537034776475
 30
0.0
 10
89.68311326768661
 20
11.5086429172092
 30
0.0
 10
90.12959764268662
 20
11.0621585422092
 30
0.0
 10
90.68219095865885
 20
11.0621585422092
 30
0.0
 10
90.68219095865885
 20
11.0621585422092
 30
0.0
 10
104.7188880072699
 20
11.0621585422092
 30
0.0
 10
104.7188880072699
 20
11.0621585422092
 30
0.0
 10
105.2714813232421
 20
11.0621585422092
 30
0.0
 10
105.7220998128254
 20
11.5086429172092
 30
0.0
 10
105.7220998128254
 20
12.06537034776475
 30
0.0
 10
105.7220998128254
 20
12.06537034776475
 30
0.0
 10
105.7220998128254
 20
24.09426574707031
 30
0.0
 10
105.7220998128254
 20
24.09426574707031
 30
0.0
 10
105.7220998128254
 20
24.64685906304253
 30
0.0
 10
105.2714813232421
 20
25.09334343804253
 30
0.0
 10
104.7188880072699
 20
25.09334343804253
 30
0.0
 10
104.7188880072699
 20
25.09334343804253
 30
0.0
 10
90.68219095865885
 20
25.09334343804253
 30
0.0
 10
90.68219095865885
 20
25.09334343804253
 30
0.0
 10
90.12959764268662
 20
25.09334343804253
 30
0.0
 10
89.68311326768661
 20
24.64685906304253
 30
0.0
 10
89.68311326768661
 20
24.09426574707031
 30
0.0
 10
89.68311326768661
 20
24.09426574707031
 30
0.0
 10
89.68311326768661
 20
21.08738640679253
 30
0.0
 10
89.68311326768661
 20
21.08738640679253
 30
0.0
  0
SPLINE
  5
1A3
100
AcDbEntity
  8
ALPHA
 62
     7
100
AcDbSpline
210
0.0
220
0.0
230
1.0
 70
    11
 71
     3
 72
    26
 73
    22
 74
     0
 42
0.0000001
 43
0.0000001
 40
0.0
 40
0.0
 40
0.0
 40
0.0
 40
1.0
 40
1.0
 40
1.0
 40
2.0
 40
2.0
 40
2.0
 40
3.0
 40
3.0
 40
3.0
 40
4.0
 40
4.0
 40
4.0
 40
5.0
 40
5.0
 40
5.0
 40
6.0
 40
6.0
 40
6.0
 40
7.0
 40
7.0
 40
7.0
 40
7.0
 10
92.69412672254773
 20
18.08050706651475
 30
0.0
 10
92.69412672254773
 20
18.08050706651475
 30
0.0
 10
89.68724738226995
 20
21.08738640679253
 30
0.0
 10
89.68724738226995
 20
21.08738640679253
 30
0.0
 10
89.68724738226995
 20
21.08738640679253
 30
0.0
 10
84.67256639268661
 20
21.08738640679253
 30
0.0
 10
84.67256639268661
 20
21.08738640679253
 30
0.0
 10
83.01478644476995
 20
21.08738640679253
 30
0.0
 10
81.66568705240884
 20
19.73828701443142
 30
0.0
 10
81.66568705240884
 20
18.08050706651475
 30
0.0
 10
81.66568705240884
 20
18.08050706651475
 30
0.0
 10
81.66568705240884
 20
18.08050706651475
 30
0.0
 10
81.66568705240884
 20
18.08050706651475
 30
0.0
 10
81.66568705240884
 20
16.41721496582031
 30
0.0
 10
83.01478644476995
 20
15.07362772623697
 30
0.0
 10
84.67256639268661
 20
15.07362772623697
 30
0.0
 10
84.67256639268661
 20
15.07362772623697
 30
0.0
 10
89.68724738226995
 20
15.07362772623697
 30
0.0
 10
89.68724738226995
 20
15.07362772623697
 30
0.0
 10
89.68724738226995
 20
15.07362772623697
 30
0.0
 10
92.69412672254773
 20
18.08050706651475
 30
0.0
 10
92.69412672254773
 20
18.08050706651475
 30
0.0
  0
SPLINE
  5
1A4
100
AcDbEntity
  8
ALPHA
 62
     7
100
AcDbSpline
210
0.0
220
0.0
230
-1.0
 70
     8
 71
     3
 72
    32
 73
    28
 74
     0
 42
0.0000001
 43
0.0000001
 40
0.0
 40
0.0
 40
0.0
 40
0.0
 40
1.0
 40
1.0
 40
1.0
 40
2.0
 40
2.0
 40
2.0
 40
3.0
 40
3.0
 40
3.0
 40
4.0
 40
4.0
 40
4.0
 40
5.0
 40
5.0
 40
5.0
 40
6.0
 40
6.0
 40
6.0
 40
7.0
 40
7.0
 40
7.0
 40
8.0
 40
8.0
 40
8.0
 40
9.0
 40
9.0
 40
9.0
 40
9.0
 10
89.68311326768661
 20
-4.024775865342881
 30
0.0
 10
89.68311326768661
 20
-4.024775865342881
 30
0.0
 10
89.68311326768661
 20
-7.031655205620658
 30
0.0
 10
89.68311326768661
 20
-7.031655205620658
 30
0.0
 10
89.68311326768661
 20
-7.589760674370658
 30
0.0
 10
90.12959764268662
 20
-8.036245049370659
 30
0.0
 10
90.68219095865885
 20
-8.036245049370659
 30
0.0
 10
90.68219095865885
 20
-8.036245049370659
 30
0.0
 10
104.7188880072699
 20
-8.036245049370659
 30
0.0
 10
104.7188880072699
 20
-8.036245049370659
 30
0.0
 10
105.2714813232421
 20
-8.036245049370659
 30
0.0
 10
105.7220998128254
 20
-7.589760674370658
 30
0.0
 10
105.7220998128254
 20
-7.031655205620658
 30
0.0
 10
105.7220998128254
 20
-7.031655205620658
 30
0.0
 10
105.7220998128254
 20
4.997240193684895
 30
0.0
 10
105.7220998128254
 20
4.997240193684895
 30
0.0
 10
105.7220998128254
 20
5.549833509657117
 30
0.0
 10
105.2714813232421
 20
5.996317884657117
 30
0.0
 10
104.7188880072699
 20
5.996317884657117
 30
0.0
 10
104.7188880072699
 20
5.996317884657117
 30
0.0
 10
90.68219095865885
 20
5.996317884657117
 30
0.0
 10
90.68219095865885
 20
5.996317884657117
 30
0.0
 10
90.12959764268662
 20
5.996317884657117
 30
0.0
 10
89.68311326768661
 20
5.549833509657117
 30
0.0
 10
89.68311326768661
 20
4.997240193684895
 30
0.0
 10
89.68311326768661
 20
4.997240193684895
 30
0.0
 10
89.68311326768661
 20
1.988982815212673
 30
0.0
 10
89.68311326768661
 20
1.988982815212673
 30
0.0
  0
SPLINE
  5
1A5
100
AcDbEntity
  8
ALPHA
 62
     7
100
AcDbSpline
210
0.0
220
0.0
230
1.0
 70
    11
 71
     3
 72
    26
 73
    22
 74
     0
 42
0.0000001
 43
0.0000001
 40
0.0
 40
0.0
 40
0.0
 40
0.0
 40
1.0
 40
1.0
 40
1.0
 40
2.0
 40
2.0
 40
2.0
 40
3.0
 40
3.0
 40
3.0
 40
4.0
 40
4.0
 40
4.0
 40
5.0
 40
5.0
 40
5.0
 40
6.0
 40
6.0
 40
6.0
 40
7.0
 40
7.0
 40
7.0
 40
7.0
 10
92.69412672254773
 20
-1.017896525065103
 30
0.0
 10
92.69412672254773
 20
-1.017896525065103
 30
0.0
 10
89.68724738226995
 20
1.988982815212673
 30
0.0
 10
89.68724738226995
 20
1.988982815212673
 30
0.0
 10
89.68724738226995
 20
1.988982815212673
 30
0.0
 10
84.67256639268661
 20
1.988982815212673
 30
0.0
 10
84.67256639268661
 20
1.988982815212673
 30
0.0
 10
83.01478644476995
 20
1.988982815212673
 30
0.0
 10
81.66568705240884
 20
0.6398834228515625
 30
0.0
 10
81.66568705240884
 20
-1.017896525065103
 30
0.0
 10
81.66568705240884
 20
-1.017896525065103
 30
0.0
 10
81.66568705240884
 20
-1.017896525065103
 30
0.0
 10
81.66568705240884
 20
-1.017896525065103
 30
0.0
 10
81.66568705240884
 20
-2.679810587565103
 30
0.0
 10
83.01478644476995
 20
-4.024775865342881
 30
0.0
 10
84.67256639268661
 20
-4.024775865342881
 30
0.0
 10
84.67256639268661
 20
-4.024775865342881
 30
0.0
 10
89.68724738226995
 20
-4.024775865342881
 30
0.0
 10
89.68724738226995
 20
-4.024775865342881
 30
0.0
 10
89.68724738226995
 20
-4.024775865342881
 30
0.0
 10
92.69412672254773
 20
-1.017896525065103
 30
0.0
 10
92.69412672254773
 20
-1.017896525065103
 30
0.0
  0
SPLINE
  5
1A6
100
AcDbEntity
  8
ALPHA
 62
     7
100
AcDbSpline
210
0.0
220
0.0
230
-1.0
 70
     8
 71
     3
 72
    32
 73
    28
 74
     0
 42
0.0000001
 43
0.0000001
 40
0.0
 40
0.0
 40
0.0
 40
0.0
 40
1.0
 40
1.0
 40
1.0
 40
2.0
 40
2.0
 40
2.0
 40
3.0
 40
3.0
 40
3.0
 40
4.0
 40
4.0
 40
4.0
 40
5.0
 40
5.0
 40
5.0
 40
6.0
 40
6.0
 40
6.0
 40
7.0
 40
7.0
 40
7.0
 40
8.0
 40
8.0
 40
8.0
 40
9.0
 40
9.0
 40
9.0
 40
9.0
 10
89.68311326768661
 20
-23.12300720214843
 30
0.0
 10
89.68311326768661
 20
-23.12300720214843
 30
0.0
 10
89.68311326768661
 20
-26.12988654242621
 30
0.0
 10
89.68311326768661
 20
-26.12988654242621
 30
0.0
 10
89.68311326768661
 20
-26.68661397298176
 30
0.0
 10
90.12959764268662
 20
-27.13309834798177
 30
0.0
 10
90.68219095865885
 20
-27.13309834798177
 30
0.0
 10
90.68219095865885
 20
-27.13309834798177
 30
0.0
 10
104.7188880072699
 20
-27.13309834798177
 30
0.0
 10
104.7188880072699
 20
-27.13309834798177
 30
0.0
 10
105.2714813232421
 20
-27.13309834798177
 30
0.0
 10
105.7220998128254
 20
-26.68661397298176
 30
0.0
 10
105.7220998128254
 20
-26.12988654242621
 30
0.0
 10
105.7220998128254
 20
-26.12988654242621
 30
0.0
 10
105.7220998128254
 20
-14.10099114312066
 30
0.0
 10
105.7220998128254
 20
-14.10099114312066
 30
0.0
 10
105.7220998128254
 20
-13.54839782714843
 30
0.0
 10
105.2714813232421
 20
-13.10191345214843
 30
0.0
 10
104.7188880072699
 20
-13.10191345214843
 30
0.0
 10
104.7188880072699
 20
-13.10191345214843
 30
0.0
 10
90.68219095865885
 20
-13.10191345214843
 30
0.0
 10
90.68219095865885
 20
-13.10191345214843
 30
0.0
 10
90.12959764268662
 20
-13.10191345214843
 30
0.0
 10
89.68311326768661
 20
-13.54839782714843
 30
0.0
 10
89.68311326768661
 20
-14.10099114312066
 30
0.0
 10
89.68311326768661
 20
-14.10099114312066
 30
0.0
 10
89.68311326768661
 20
-17.10787048339843
 30
0.0
 10
89.68311326768661
 20
-17.10787048339843
 30
0.0
  0
SPLINE
  5
1A7
100
AcDbEntity
  8
ALPHA
 62
     7
100
AcDbSpline
210
0.0
220
0.0
230
1.0
 70
    11
 71
     3
 72
    26
 73
    22
 74
     0
 42
0.0000001
 43
0.0000001
 40
0.0
 40
0.0
 40
0.0
 40
0.0
 40
1.0
 40
1.0
 40
1.0
 40
2.0
 40
2.0
 40
2.0
 40
3.0
 40
3.0
 40
3.0
 40
4.0
 40
4.0
 40
4.0
 40
5.0
 40
5.0
 40
5.0
 40
6.0
 40
6.0
 40
6.0
 40
7.0
 40
7.0
 40
7.0
 40
7.0
 10
92.69412672254773
 20
-20.11474982367621
 30
0.0
 10
92.69412672254773
 20
-20.11474982367621
 30
0.0
 10
89.68724738226995
 20
-17.10787048339843
 30
0.0
 10
89.68724738226995
 20
-17.10787048339843
 30
0.0
 10
89.68724738226995
 20
-17.10787048339843
 30
0.0
 10
84.67256639268661
 20
-17.10787048339843
 30
0.0
 10
84.67256639268661
 20
-17.10787048339843
 30
0.0
 10
83.01478644476995
 20
-17.10787048339843
 30
0.0
 10
81.66568705240884
 20
-18.45696987575954
 30
0.0
 10
81.66568705240884
 20
-20.11474982367621
 30
0.0
 10
81.66568705240884
 20
-20.11474982367621
 30
0.0
 10
81.66568705240884
 20
-20.11474982367621
 30
0.0
 10
81.66568705240884
 20
-20.11474982367621
 30
0.0
 10
81.66568705240884
 20
-21.77804192437065
 30
0.0
 10
83.01478644476995
 20
-23.12300720214843
 30
0.0
 10
84.67256639268661
 20
-23.12300720214843
 30
0.0
 10
84.67256639268661
 20
-23.12300720214843
 30
0.0
 10
89.68724738226995
 20
-23.12300720214843
 30
0.0
 10
89.68724738226995
 20
-23.12300720214843
 30
0.0
 10
89.68724738226995
 20
-23.12300720214843
 30
0.0
 10
92.69412672254773
 20
-20.11474982367621
 30
0.0
 10
92.69412672254773
 20
-20.11474982367621
 30
0.0
  0
SPLINE
  5
1A8
100
AcDbEntity
  8
ALPHA
 62
     7
100
AcDbSpline
210
0.0
220
0.0
230
-1.0
 70
     8
 71
     3
 72
    32
 73
    28
 74
     0
 42
0.0000001
 43
0.0000001
 40
0.0
 40
0.0
 40
0.0
 40
0.0
 40
1.0
 40
1.0
 40
1.0
 40
2.0
 40
2.0
 40
2.0
 40
3.0
 40
3.0
 40
3.0
 40
4.0
 40
4.0
 40
4.0
 40
5.0
 40
5.0
 40
5.0
 40
6.0
 40
6.0
 40
6.0
 40
7.0
 40
7.0
 40
7.0
 40
8.0
 40
8.0
 40
8.0
 40
9.0
 40
9.0
 40
9.0
 40
9.0
 10
89.68311326768661
 20
-42.21986050075954
 30
0.0
 10
89.68311326768661
 20
-42.21986050075954
 30
0.0
 10
89.68311326768661
 20
-45.22811787923177
 30
0.0
 10
89.68311326768661
 20
-45.22811787923177
 30
0.0
 10
89.68311326768661
 20
-45.78484530978732
 30
0.0
 10
90.12959764268662
 20
-46.23132968478731
 30
0.0
 10
90.68219095865885
 20
-46.23132968478731
 30
0.0
 10
90.68219095865885
 20
-46.23132968478731
 30
0.0
 10
104.7188880072699
 20
-46.23132968478731
 30
0.0
 10
104.7188880072699
 20
-46.23132968478731
 30
0.0
 10
105.2714813232421
 20
-46.23132968478731
 30
0.0
 10
105.7220998128254
 20
-45.78484530978732
 30
0.0
 10
105.7220998128254
 20
-45.22811787923177
 30
0.0
 10
105.7220998128254
 20
-45.22811787923177
 30
0.0
 10
105.7220998128254
 20
-33.19922247992621
 30
0.0
 10
105.7220998128254
 20
-33.19922247992621
 30
0.0
 10
105.7220998128254
 20
-32.64662916395399
 30
0.0
 10
105.2714813232421
 20
-32.19876675075954
 30
0.0
 10
104.7188880072699
 20
-32.19876675075954
 30
0.0
 10
104.7188880072699
 20
-32.19876675075954
 30
0.0
 10
90.68219095865885
 20
-32.19876675075954
 30
0.0
 10
90.68219095865885
 20
-32.19876675075954
 30
0.0
 10
90.12959764268662
 20
-32.19876675075954
 30
0.0
 10
89.68311326768661
 20
-32.64662916395399
 30
0.0
 10
89.68311326768661
 20
-33.19922247992621
 30
0.0
 10
89.68311326768661
 20
-33.19922247992621
 30
0.0
 10
89.68311326768661
 20
-36.20610182020399
 30
0.0
 10
89.68311326768661
 20
-36.20610182020399
 30
0.0
  0
SPLINE
  5
1A9
100
AcDbEntity
  8
ALPHA
 62
     7
100
AcDbSpline
210
0.0
220
0.0
230
1.0
 70
    11
 71
     3
 72
    26
 73
    22
 74
     0
 42
0.0000001
 43
0.0000001
 40
0.0
 40
0.0
 40
0.0
 40
0.0
 40
1.0
 40
1.0
 40
1.0
 40
2.0
 40
2.0
 40
2.0
 40
3.0
 40
3.0
 40
3.0
 40
4.0
 40
4.0
 40
4.0
 40
5.0
 40
5.0
 40
5.0
 40
6.0
 40
6.0
 40
6.0
 40
7.0
 40
7.0
 40
7.0
 40
7.0
 10
92.69412672254773
 20
-39.21298116048177
 30
0.0
 10
92.69412672254773
 20
-39.21298116048177
 30
0.0
 10
89.68724738226995
 20
-36.20610182020399
 30
0.0
 10
89.68724738226995
 20
-36.20610182020399
 30
0.0
 10
89.68724738226995
 20
-36.20610182020399
 30
0.0
 10
84.67256639268661
 20
-36.20610182020399
 30
0.0
 10
84.67256639268661
 20
-36.20610182020399
 30
0.0
 10
83.01478644476995
 20
-36.20610182020399
 30
0.0
 10
81.66568705240884
 20
-37.5552012125651
 30
0.0
 10
81.66568705240884
 20
-39.21298116048177
 30
0.0
 10
81.66568705240884
 20
-39.21298116048177
 30
0.0
 10
81.66568705240884
 20
-39.21298116048177
 30
0.0
 10
81.66568705240884
 20
-39.21298116048177
 30
0.0
 10
81.66568705240884
 20
-40.87489522298176
 30
0.0
 10
83.01478644476995
 20
-42.21986050075954
 30
0.0
 10
84.67256639268661
 20
-42.21986050075954
 30
0.0
 10
84.67256639268661
 20
-42.21986050075954
 30
0.0
 10
89.68724738226995
 20
-42.21986050075954
 30
0.0
 10
89.68724738226995
 20
-42.21986050075954
 30
0.0
 10
89.68724738226995
 20
-42.21986050075954
 30
0.0
 10
92.69412672254773
 20
-39.21298116048177
 30
0.0
 10
92.69412672254773
 20
-39.21298116048177
 30
0.0
  0
SPLINE
  5
1AA
100
AcDbEntity
  8
ALPHA
 62
     7
100
AcDbSpline
210
0.0
220
0.0
230
-1.0
 70
     8
 71
     3
 72
    32
 73
    28
 74
     0
 42
0.0000001
 43
0.0000001
 40
0.0
 40
0.0
 40
0.0
 40
0.0
 40
1.0
 40
1.0
 40
1.0
 40
2.0
 40
2.0
 40
2.0
 40
3.0
 40
3.0
 40
3.0
 40
4.0
 40
4.0
 40
4.0
 40
5.0
 40
5.0
 40
5.0
 40
6.0
 40
6.0
 40
6.0
 40
7.0
 40
7.0
 40
7.0
 40
8.0
 40
8.0
 40
8.0
 40
9.0
 40
9.0
 40
9.0
 40
9.0
 10
89.68311326768661
 20
-61.3180918375651
 30
0.0
 10
89.68311326768661
 20
-61.3180918375651
 30
0.0
 10
89.68311326768661
 20
-64.32497117784286
 30
0.0
 10
89.68311326768661
 20
-64.32497117784286
 30
0.0
 10
89.68311326768661
 20
-64.88169860839843
 30
0.0
 10
90.12959764268662
 20
-65.32956102159288
 30
0.0
 10
90.68219095865885
 20
-65.32956102159288
 30
0.0
 10
90.68219095865885
 20
-65.32956102159288
 30
0.0
 10
104.7188880072699
 20
-65.32956102159288
 30
0.0
 10
104.7188880072699
 20
-65.32956102159288
 30
0.0
 10
105.2714813232421
 20
-65.32956102159288
 30
0.0
 10
105.7220998128254
 20
-64.88169860839843
 30
0.0
 10
105.7220998128254
 20
-64.32497117784286
 30
0.0
 10
105.7220998128254
 20
-64.32497117784286
 30
0.0
 10
105.7220998128254
 20
-52.29607577853732
 30
0.0
 10
105.7220998128254
 20
-52.29607577853732
 30
0.0
 10
105.7220998128254
 20
-51.7434824625651
 30
0.0
 10
105.2714813232421
 20
-51.2969980875651
 30
0.0
 10
104.7188880072699
 20
-51.2969980875651
 30
0.0
 10
104.7188880072699
 20
-51.2969980875651
 30
0.0
 10
90.68219095865885
 20
-51.2969980875651
 30
0.0
 10
90.68219095865885
 20
-51.2969980875651
 30
0.0
 10
90.12959764268662
 20
-51.2969980875651
 30
0.0
 10
89.68311326768661
 20
-51.7434824625651
 30
0.0
 10
89.68311326768661
 20
-52.29607577853732
 30
0.0
 10
89.68311326768661
 20
-52.29607577853732
 30
0.0
 10
89.68311326768661
 20
-55.3029551188151
 30
0.0
 10
89.68311326768661
 20
-55.3029551188151
 30
0.0
  0
SPLINE
  5
1AB
100
AcDbEntity
  8
ALPHA
 62
     7
100
AcDbSpline
210
0.0
220
0.0
230
1.0
 70
    11
 71
     3
 72
    26
 73
    22
 74
     0
 42
0.0000001
 43
0.0000001
 40
0.0
 40
0.0
 40
0.0
 40
0.0
 40
1.0
 40
1.0
 40
1.0
 40
2.0
 40
2.0
 40
2.0
 40
3.0
 40
3.0
 40
3.0
 40
4.0
 40
4.0
 40
4.0
 40
5.0
 40
5.0
 40
5.0
 40
6.0
 40
6.0
 40
6.0
 40
7.0
 40
7.0
 40
7.0
 40
7.0
 10
92.69412672254773
 20
-58.31121249728732
 30
0.0
 10
92.69412672254773
 20
-58.31121249728732
 30
0.0
 10
89.68724738226995
 20
-55.3029551188151
 30
0.0
 10
89.68724738226995
 20
-55.3029551188151
 30
0.0
 10
89.68724738226995
 20
-55.3029551188151
 30
0.0
 10
84.67256639268661
 20
-55.3029551188151
 30
0.0
 10
84.67256639268661
 20
-55.3029551188151
 30
0.0
 10
83.01478644476995
 20
-55.3029551188151
 30
0.0
 10
81.66568705240884
 20
-56.65343254937066
 30
0.0
 10
81.66568705240884
 20
-58.31121249728732
 30
0.0
 10
81.66568705240884
 20
-58.31121249728732
 30
0.0
 10
81.66568705240884
 20
-58.31121249728732
 30
0.0
 10
81.66568705240884
 20
-58.31121249728732
 30
0.0
 10
81.66568705240884
 20
-59.97312655978731
 30
0.0
 10
83.01478644476995
 20
-61.3180918375651
 30
0.0
 10
84.67256639268661
 20
-61.3180918375651
 30
0.0
 10
84.67256639268661
 20
-61.3180918375651
 30
0.0
 10
89.68724738226995
 20
-61.3180918375651
 30
0.0
 10
89.68724738226995
 20
-61.3180918375651
 30
0.0
 10
89.68724738226995
 20
-61.3180918375651
 30
0.0
 10
92.69412672254773
 20
-58.31121249728732
 30
0.0
 10
92.69412672254773
 20
-58.31121249728732
 30
0.0
  0
SPLINE
  5
1AC
100
AcDbEntity
  8
ALPHA
 62
     7
100
AcDbSpline
210
0.0
220
0.0
230
-1.0
 70
     8
 71
     3
 72
    32
 73
    28
 74
     0
 42
0.0000001
 43
0.0000001
 40
0.0
 40
0.0
 40
0.0
 40
0.0
 40
1.0
 40
1.0
 40
1.0
 40
2.0
 40
2.0
 40
2.0
 40
3.0
 40
3.0
 40
3.0
 40
4.0
 40
4.0
 40
4.0
 40
5.0
 40
5.0
 40
5.0
 40
6.0
 40
6.0
 40
6.0
 40
7.0
 40
7.0
 40
7.0
 40
8.0
 40
8.0
 40
8.0
 40
9.0
 40
9.0
 40
9.0
 40
9.0
 10
89.68311326768661
 20
-80.41494513617621
 30
0.0
 10
89.68311326768661
 20
-80.41494513617621
 30
0.0
 10
89.68311326768661
 20
-83.42320251464842
 30
0.0
 10
89.68311326768661
 20
-83.42320251464842
 30
0.0
 10
89.68311326768661
 20
-83.97992994520398
 30
0.0
 10
90.12959764268662
 20
-84.42641432020399
 30
0.0
 10
90.68219095865885
 20
-84.42641432020399
 30
0.0
 10
90.68219095865885
 20
-84.42641432020399
 30
0.0
 10
104.7188880072699
 20
-84.42641432020399
 30
0.0
 10
104.7188880072699
 20
-84.42641432020399
 30
0.0
 10
105.2714813232421
 20
-84.42641432020399
 30
0.0
 10
105.7220998128254
 20
-83.97992994520398
 30
0.0
 10
105.7220998128254
 20
-83.42320251464842
 30
0.0
 10
105.7220998128254
 20
-83.42320251464842
 30
0.0
 10
105.7220998128254
 20
-71.39430711534287
 30
0.0
 10
105.7220998128254
 20
-71.39430711534287
 30
0.0
 10
105.7220998128254
 20
-70.84171379937065
 30
0.0
 10
105.2714813232421
 20
-70.39522942437065
 30
0.0
 10
104.7188880072699
 20
-70.39522942437065
 30
0.0
 10
104.7188880072699
 20
-70.39522942437065
 30
0.0
 10
90.68219095865885
 20
-70.39522942437065
 30
0.0
 10
90.68219095865885
 20
-70.39522942437065
 30
0.0
 10
90.12959764268662
 20
-70.39522942437065
 30
0.0
 10
89.68311326768661
 20
-70.84171379937065
 30
0.0
 10
89.68311326768661
 20
-71.39430711534287
 30
0.0
 10
89.68311326768661
 20
-71.39430711534287
 30
0.0
 10
89.68311326768661
 20
-74.40118645562065
 30
0.0
 10
89.68311326768661
 20
-74.40118645562065
 30
0.0
  0
SPLINE
  5
1AD
100
AcDbEntity
  8
ALPHA
 62
     7
100
AcDbSpline
210
0.0
220
0.0
230
1.0
 70
    11
 71
     3
 72
    26
 73
    22
 74
     0
 42
0.0000001
 43
0.0000001
 40
0.0
 40
0.0
 40
0.0
 40
0.0
 40
1.0
 40
1.0
 40
1.0
 40
2.0
 40
2.0
 40
2.0
 40
3.0
 40
3.0
 40
3.0
 40
4.0
 40
4.0
 40
4.0
 40
5.0
 40
5.0
 40
5.0
 40
6.0
 40
6.0
 40
6.0
 40
7.0
 40
7.0
 40
7.0
 40
7.0
 10
92.69412672254773
 20
-77.40806579589843
 30
0.0
 10
92.69412672254773
 20
-77.40806579589843
 30
0.0
 10
89.68724738226995
 20
-74.40118645562065
 30
0.0
 10
89.68724738226995
 20
-74.40118645562065
 30
0.0
 10
89.68724738226995
 20
-74.40118645562065
 30
0.0
 10
84.67256639268661
 20
-74.40118645562065
 30
0.0
 10
84.67256639268661
 20
-74.40118645562065
 30
0.0
 10
83.01478644476995
 20
-74.40118645562065
 30
0.0
 10
81.66568705240884
 20
-75.75028584798175
 30
0.0
 10
81.66568705240884
 20
-77.40806579589843
 30
0.0
 10
81.66568705240884
 20
-77.40806579589843
 30
0.0
 10
81.66568705240884
 20
-77.40806579589843
 30
0.0
 10
81.66568705240884
 20
-77.40806579589843
 30
0.0
 10
81.66568705240884
 20
-79.07135789659287
 30
0.0
 10
83.01478644476995
 20
-80.41494513617621
 30
0.0
 10
84.67256639268661
 20
-80.41494513617621
 30
0.0
 10
84.67256639268661
 20
-80.41494513617621
 30
0.0
 10
89.68724738226995
 20
-80.41494513617621
 30
0.0
 10
89.68724738226995
 20
-80.41494513617621
 30
0.0
 10
89.68724738226995
 20
-80.41494513617621
 30
0.0
 10
92.69412672254773
 20
-77.40806579589843
 30
0.0
 10
92.69412672254773
 20
-77.40806579589843
 30
0.0
  0
SPLINE
  5
1AE
100
AcDbEntity
  8
ALPHA
 62
     7
100
AcDbSpline
210
0.0
220
0.0
230
-1.0
 70
     8
 71
     3
 72
    32
 73
    28
 74
     0
 42
0.0000001
 43
0.0000001
 40
0.0
 40
0.0
 40
0.0
 40
0.0
 40
1.0
 40
1.0
 40
1.0
 40
2.0
 40
2.0
 40
2.0
 40
3.0
 40
3.0
 40
3.0
 40
4.0
 40
4.0
 40
4.0
 40
5.0
 40
5.0
 40
5.0
 40
6.0
 40
6.0
 40
6.0
 40
7.0
 40
7.0
 40
7.0
 40
8.0
 40
8.0
 40
8.0
 40
9.0
 40
9.0
 40
9.0
 40
9.0
 10
127.7817352294921
 20
15.07362772623697
 30
0.0
 10
127.7817352294921
 20
15.07362772623697
 30
0.0
 10
127.7817352294921
 20
12.06537034776475
 30
0.0
 10
127.7817352294921
 20
12.06537034776475
 30
0.0
 10
127.7817352294921
 20
11.5086429172092
 30
0.0
 10
127.3352508544921
 20
11.0621585422092
 30
0.0
 10
126.7771453857421
 20
11.0621585422092
 30
0.0
 10
126.7771453857421
 20
11.0621585422092
 30
0.0
 10
112.7459604899088
 20
11.0621585422092
 30
0.0
 10
112.7459604899088
 20
11.0621585422092
 30
0.0
 10
112.1933671739366
 20
11.0621585422092
 30
0.0
 10
111.7413706461588
 20
11.5086429172092
 30
0.0
 10
111.7413706461588
 20
12.06537034776475
 30
0.0
 10
111.7413706461588
 20
12.06537034776475
 30
0.0
 10
111.7413706461588
 20
24.09426574707031
 30
0.0
 10
111.7413706461588
 20
24.09426574707031
 30
0.0
 10
111.7413706461588
 20
24.64685906304253
 30
0.0
 10
112.1933671739366
 20
25.09334343804253
 30
0.0
 10
112.7459604899088
 20
25.09334343804253
 30
0.0
 10
112.7459604899088
 20
25.09334343804253
 30
0.0
 10
126.7771453857421
 20
25.09334343804253
 30
0.0
 10
126.7771453857421
 20
25.09334343804253
 30
0.0
 10
127.3352508544921
 20
25.09334343804253
 30
0.0
 10
127.7817352294921
 20
24.64685906304253
 30
0.0
 10
127.7817352294921
 20
24.09426574707031
 30
0.0
 10
127.7817352294921
 20
24.09426574707031
 30
0.0
 10
127.7817352294921
 20
21.08738640679253
 30
0.0
 10
127.7817352294921
 20
21.08738640679253
 30
0.0
  0
SPLINE
  5
1AF
100
AcDbEntity
  8
ALPHA
 62
     7
100
AcDbSpline
210
0.0
220
0.0
230
1.0
 70
    11
 71
     3
 72
    26
 73
    22
 74
     0
 42
0.0000001
 43
0.0000001
 40
0.0
 40
0.0
 40
0.0
 40
0.0
 40
1.0
 40
1.0
 40
1.0
 40
2.0
 40
2.0
 40
2.0
 40
3.0
 40
3.0
 40
3.0
 40
4.0
 40
4.0
 40
4.0
 40
5.0
 40
5.0
 40
5.0
 40
6.0
 40
6.0
 40
6.0
 40
7.0
 40
7.0
 40
7.0
 40
7.0
 10
124.7693437364366
 20
18.08050706651475
 30
0.0
 10
124.7693437364366
 20
18.08050706651475
 30
0.0
 10
127.7776011149088
 20
21.08738640679253
 30
0.0
 10
127.7776011149088
 20
21.08738640679253
 30
0.0
 10
127.7776011149088
 20
21.08738640679253
 30
0.0
 10
132.7867699517144
 20
21.08738640679253
 30
0.0
 10
132.7867699517144
 20
21.08738640679253
 30
0.0
 10
134.4500620524088
 20
21.08738640679253
 30
0.0
 10
135.7950273301866
 20
19.73828701443142
 30
0.0
 10
135.7950273301866
 20
18.08050706651475
 30
0.0
 10
135.7950273301866
 20
18.08050706651475
 30
0.0
 10
135.7950273301866
 20
18.08050706651475
 30
0.0
 10
135.7950273301866
 20
18.08050706651475
 30
0.0
 10
135.7950273301866
 20
16.41721496582031
 30
0.0
 10
134.4500620524088
 20
15.07362772623697
 30
0.0
 10
132.7867699517144
 20
15.07362772623697
 30
0.0
 10
132.7867699517144
 20
15.07362772623697
 30
0.0
 10
127.7776011149088
 20
15.07362772623697
 30
0.0
 10
127.7776011149088
 20
15.07362772623697
 30
0.0
 10
127.7776011149088
 20
15.07362772623697
 30
0.0
 10
124.7693437364366
 20
18.08050706651475
 30
0.0
 10
124.7693437364366
 20
18.08050706651475
 30
0.0
  0
SPLINE
  5
1B0
100
AcDbEntity
  8
ALPHA
 62
     7
100
AcDbSpline
210
0.0
220
0.0
230
-1.0
 70
     8
 71
     3
 72
    32
 73
    28
 74
     0
 42
0.0000001
 43
0.0000001
 40
0.0
 40
0.0
 40
0.0
 40
0.0
 40
1.0
 40
1.0
 40
1.0
 40
2.0
 40
2.0
 40
2.0
 40
3.0
 40
3.0
 40
3.0
 40
4.0
 40
4.0
 40
4.0
 40
5.0
 40
5.0
 40
5.0
 40
6.0
 40
6.0
 40
6.0
 40
7.0
 40
7.0
 40
7.0
 40
8.0
 40
8.0
 40
8.0
 40
9.0
 40
9.0
 40
9.0
 40
9.0
 10
127.7817352294921
 20
-4.024775865342881
 30
0.0
 10
127.7817352294921
 20
-4.024775865342881
 30
0.0
 10
127.7817352294921
 20
-7.031655205620658
 30
0.0
 10
127.7817352294921
 20
-7.031655205620658
 30
0.0
 10
127.7817352294921
 20
-7.589760674370658
 30
0.0
 10
127.3352508544921
 20
-8.036245049370659
 30
0.0
 10
126.7771453857421
 20
-8.036245049370659
 30
0.0
 10
126.7771453857421
 20
-8.036245049370659
 30
0.0
 10
112.7459604899088
 20
-8.036245049370659
 30
0.0
 10
112.7459604899088
 20
-8.036245049370659
 30
0.0
 10
112.1933671739366
 20
-8.036245049370659
 30
0.0
 10
111.7413706461588
 20
-7.589760674370658
 30
0.0
 10
111.7413706461588
 20
-7.031655205620658
 30
0.0
 10
111.7413706461588
 20
-7.031655205620658
 30
0.0
 10
111.7413706461588
 20
4.997240193684895
 30
0.0
 10
111.7413706461588
 20
4.997240193684895
 30
0.0
 10
111.7413706461588
 20
5.549833509657117
 30
0.0
 10
112.1933671739366
 20
5.996317884657117
 30
0.0
 10
112.7459604899088
 20
5.996317884657117
 30
0.0
 10
112.7459604899088
 20
5.996317884657117
 30
0.0
 10
126.7771453857421
 20
5.996317884657117
 30
0.0
 10
126.7771453857421
 20
5.996317884657117
 30
0.0
 10
127.3352508544921
 20
5.996317884657117
 30
0.0
 10
127.7817352294921
 20
5.549833509657117
 30
0.0
 10
127.7817352294921
 20
4.997240193684895
 30
0.0
 10
127.7817352294921
 20
4.997240193684895
 30
0.0
 10
127.7817352294921
 20
1.988982815212673
 30
0.0
 10
127.7817352294921
 20
1.988982815212673
 30
0.0
  0
SPLINE
  5
1B1
100
AcDbEntity
  8
ALPHA
 62
     7
100
AcDbSpline
210
0.0
220
0.0
230
1.0
 70
    11
 71
     3
 72
    26
 73
    22
 74
     0
 42
0.0000001
 43
0.0000001
 40
0.0
 40
0.0
 40
0.0
 40
0.0
 40
1.0
 40
1.0
 40
1.0
 40
2.0
 40
2.0
 40
2.0
 40
3.0
 40
3.0
 40
3.0
 40
4.0
 40
4.0
 40
4.0
 40
5.0
 40
5.0
 40
5.0
 40
6.0
 40
6.0
 40
6.0
 40
7.0
 40
7.0
 40
7.0
 40
7.0
 10
124.7693437364366
 20
-1.017896525065103
 30
0.0
 10
124.7693437364366
 20
-1.017896525065103
 30
0.0
 10
127.7776011149088
 20
1.988982815212673
 30
0.0
 10
127.7776011149088
 20
1.988982815212673
 30
0.0
 10
127.7776011149088
 20
1.988982815212673
 30
0.0
 10
132.7867699517144
 20
1.988982815212673
 30
0.0
 10
132.7867699517144
 20
1.988982815212673
 30
0.0
 10
134.4500620524088
 20
1.988982815212673
 30
0.0
 10
135.7950273301866
 20
0.6398834228515625
 30
0.0
 10
135.7950273301866
 20
-1.017896525065103
 30
0.0
 10
135.7950273301866
 20
-1.017896525065103
 30
0.0
 10
135.7950273301866
 20
-1.017896525065103
 30
0.0
 10
135.7950273301866
 20
-1.017896525065103
 30
0.0
 10
135.7950273301866
 20
-2.679810587565103
 30
0.0
 10
134.4500620524088
 20
-4.024775865342881
 30
0.0
 10
132.7867699517144
 20
-4.024775865342881
 30
0.0
 10
132.7867699517144
 20
-4.024775865342881
 30
0.0
 10
127.7776011149088
 20
-4.024775865342881
 30
0.0
 10
127.7776011149088
 20
-4.024775865342881
 30
0.0
 10
127.7776011149088
 20
-4.024775865342881
 30
0.0
 10
124.7693437364366
 20
-1.017896525065103
 30
0.0
 10
124.7693437364366
 20
-1.017896525065103
 30
0.0
  0
SPLINE
  5
1B2
100
AcDbEntity
  8
ALPHA
 62
     7
100
AcDbSpline
210
0.0
220
0.0
230
-1.0
 70
     8
 71
     3
 72
    32
 73
    28
 74
     0
 42
0.0000001
 43
0.0000001
 40
0.0
 40
0.0
 40
0.0
 40
0.0
 40
1.0
 40
1.0
 40
1.0
 40
2.0
 40
2.0
 40
2.0
 40
3.0
 40
3.0
 40
3.0
 40
4.0
 40
4.0
 40
4.0
 40
5.0
 40
5.0
 40
5.0
 40
6.0
 40
6.0
 40
6.0
 40
7.0
 40
7.0
 40
7.0
 40
8.0
 40
8.0
 40
8.0
 40
9.0
 40
9.0
 40
9.0
 40
9.0
 10
127.7817352294921
 20
-23.12300720214843
 30
0.0
 10
127.7817352294921
 20
-23.12300720214843
 30
0.0
 10
127.7817352294921
 20
-26.12988654242621
 30
0.0
 10
127.7817352294921
 20
-26.12988654242621
 30
0.0
 10
127.7817352294921
 20
-26.68661397298176
 30
0.0
 10
127.3352508544921
 20
-27.13309834798177
 30
0.0
 10
126.7771453857421
 20
-27.13309834798177
 30
0.0
 10
126.7771453857421
 20
-27.13309834798177
 30
0.0
 10
112.7459604899088
 20
-27.13309834798177
 30
0.0
 10
112.7459604899088
 20
-27.13309834798177
 30
0.0
 10
112.1933671739366
 20
-27.13309834798177
 30
0.0
 10
111.7413706461588
 20
-26.68661397298176
 30
0.0
 10
111.7413706461588
 20
-26.12988654242621
 30
0.0
 10
111.7413706461588
 20
-26.12988654242621
 30
0.0
 10
111.7413706461588
 20
-14.10099114312066
 30
0.0
 10
111.7413706461588
 20
-14.10099114312066
 30
0.0
 10
111.7413706461588
 20
-13.54839782714843
 30
0.0
 10
112.1933671739366
 20
-13.10191345214843
 30
0.0
 10
112.7459604899088
 20
-13.10191345214843
 30
0.0
 10
112.7459604899088
 20
-13.10191345214843
 30
0.0
 10
126.7771453857421
 20
-13.10191345214843
 30
0.0
 10
126.7771453857421
 20
-13.10191345214843
 30
0.0
 10
127.3352508544921
 20
-13.10191345214843
 30
0.0
 10
127.7817352294921
 20
-13.54839782714843
 30
0.0
 10
127.7817352294921
 20
-14.10099114312066
 30
0.0
 10
127.7817352294921
 20
-14.10099114312066
 30
0.0
 10
127.7817352294921
 20
-17.10787048339843
 30
0.0
 10
127.7817352294921
 20
-17.10787048339843
 30
0.0
  0
SPLINE
  5
1B3
100
AcDbEntity
  8
ALPHA
 62
     7
100
AcDbSpline
210
0.0
220
0.0
230
1.0
 70
    11
 71
     3
 72
    26
 73
    22
 74
     0
 42
0.0000001
 43
0.0000001
 40
0.0
 40
0.0
 40
0.0
 40
0.0
 40
1.0
 40
1.0
 40
1.0
 40
2.0
 40
2.0
 40
2.0
 40
3.0
 40
3.0
 40
3.0
 40
4.0
 40
4.0
 40
4.0
 40
5.0
 40
5.0
 40
5.0
 40
6.0
 40
6.0
 40
6.0
 40
7.0
 40
7.0
 40
7.0
 40
7.0
 10
124.7693437364366
 20
-20.11474982367621
 30
0.0
 10
124.7693437364366
 20
-20.11474982367621
 30
0.0
 10
127.7776011149088
 20
-17.10787048339843
 30
0.0
 10
127.7776011149088
 20
-17.10787048339843
 30
0.0
 10
127.7776011149088
 20
-17.10787048339843
 30
0.0
 10
132.7867699517144
 20
-17.10787048339843
 30
0.0
 10
132.7867699517144
 20
-17.10787048339843
 30
0.0
 10
134.4500620524088
 20
-17.10787048339843
 30
0.0
 10
135.7950273301866
 20
-18.45696987575954
 30
0.0
 10
135.7950273301866
 20
-20.11474982367621
 30
0.0
 10
135.7950273301866
 20
-20.11474982367621
 30
0.0
 10
135.7950273301866
 20
-20.11474982367621
 30
0.0
 10
135.7950273301866
 20
-20.11474982367621
 30
0.0
 10
135.7950273301866
 20
-21.77804192437065
 30
0.0
 10
134.4500620524088
 20
-23.12300720214843
 30
0.0
 10
132.7867699517144
 20
-23.12300720214843
 30
0.0
 10
132.7867699517144
 20
-23.12300720214843
 30
0.0
 10
127.7776011149088
 20
-23.12300720214843
 30
0.0
 10
127.7776011149088
 20
-23.12300720214843
 30
0.0
 10
127.7776011149088
 20
-23.12300720214843
 30
0.0
 10
124.7693437364366
 20
-20.11474982367621
 30
0.0
 10
124.7693437364366
 20
-20.11474982367621
 30
0.0
  0
SPLINE
  5
1B4
100
AcDbEntity
  8
ALPHA
 62
     7
100
AcDbSpline
210
0.0
220
0.0
230
-1.0
 70
     8
 71
     3
 72
    32
 73
    28
 74
     0
 42
0.0000001
 43
0.0000001
 40
0.0
 40
0.0
 40
0.0
 40
0.0
 40
1.0
 40
1.0
 40
1.0
 40
2.0
 40
2.0
 40
2.0
 40
3.0
 40
3.0
 40
3.0
 40
4.0
 40
4.0
 40
4.0
 40
5.0
 40
5.0
 40
5.0
 40
6.0
 40
6.0
 40
6.0
 40
7.0
 40
7.0
 40
7.0
 40
8.0
 40
8.0
 40
8.0
 40
9.0
 40
9.0
 40
9.0
 40
9.0
 10
127.7817352294921
 20
-42.21986050075954
 30
0.0
 10
127.7817352294921
 20
-42.21986050075954
 30
0.0
 10
127.7817352294921
 20
-45.22811787923177
 30
0.0
 10
127.7817352294921
 20
-45.22811787923177
 30
0.0
 10
127.7817352294921
 20
-45.78484530978732
 30
0.0
 10
127.3352508544921
 20
-46.23132968478731
 30
0.0
 10
126.7771453857421
 20
-46.23132968478731
 30
0.0
 10
126.7771453857421
 20
-46.23132968478731
 30
0.0
 10
112.7459604899088
 20
-46.23132968478731
 30
0.0
 10
112.7459604899088
 20
-46.23132968478731
 30
0.0
 10
112.1933671739366
 20
-46.23132968478731
 30
0.0
 10
111.7413706461588
 20
-45.78484530978732
 30
0.0
 10
111.7413706461588
 20
-45.22811787923177
 30
0.0
 10
111.7413706461588
 20
-45.22811787923177
 30
0.0
 10
111.7413706461588
 20
-33.19922247992621
 30
0.0
 10
111.7413706461588
 20
-33.19922247992621
 30
0.0
 10
111.7413706461588
 20
-32.64662916395399
 30
0.0
 10
112.1933671739366
 20
-32.19876675075954
 30
0.0
 10
112.7459604899088
 20
-32.19876675075954
 30
0.0
 10
112.7459604899088
 20
-32.19876675075954
 30
0.0
 10
126.7771453857421
 20
-32.19876675075954
 30
0.0
 10
126.7771453857421
 20
-32.19876675075954
 30
0.0
 10
127.3352508544921
 20
-32.19876675075954
 30
0.0
 10
127.7817352294921
 20
-32.64662916395399
 30
0.0
 10
127.7817352294921
 20
-33.19922247992621
 30
0.0
 10
127.7817352294921
 20
-33.19922247992621
 30
0.0
 10
127.7817352294921
 20
-36.20610182020399
 30
0.0
 10
127.7817352294921
 20
-36.20610182020399
 30
0.0
  0
SPLINE
  5
1B5
100
AcDbEntity
  8
ALPHA
 62
     7
100
AcDbSpline
210
0.0
220
0.0
230
1.0
 70
    11
 71
     3
 72
    26
 73
    22
 74
     0
 42
0.0000001
 43
0.0000001
 40
0.0
 40
0.0
 40
0.0
 40
0.0
 40
1.0
 40
1.0
 40
1.0
 40
2.0
 40
2.0
 40
2.0
 40
3.0
 40
3.0
 40
3.0
 40
4.0
 40
4.0
 40
4.0
 40
5.0
 40
5.0
 40
5.0
 40
6.0
 40
6.0
 40
6.0
 40
7.0
 40
7.0
 40
7.0
 40
7.0
 10
124.7693437364366
 20
-39.21298116048177
 30
0.0
 10
124.7693437364366
 20
-39.21298116048177
 30
0.0
 10
127.7776011149088
 20
-36.20610182020399
 30
0.0
 10
127.7776011149088
 20
-36.20610182020399
 30
0.0
 10
127.7776011149088
 20
-36.20610182020399
 30
0.0
 10
132.7867699517144
 20
-36.20610182020399
 30
0.0
 10
132.7867699517144
 20
-36.20610182020399
 30
0.0
 10
134.4500620524088
 20
-36.20610182020399
 30
0.0
 10
135.7950273301866
 20
-37.5552012125651
 30
0.0
 10
135.7950273301866
 20
-39.21298116048177
 30
0.0
 10
135.7950273301866
 20
-39.21298116048177
 30
0.0
 10
135.7950273301866
 20
-39.21298116048177
 30
0.0
 10
135.7950273301866
 20
-39.21298116048177
 30
0.0
 10
135.7950273301866
 20
-40.87489522298176
 30
0.0
 10
134.4500620524088
 20
-42.21986050075954
 30
0.0
 10
132.7867699517144
 20
-42.21986050075954
 30
0.0
 10
132.7867699517144
 20
-42.21986050075954
 30
0.0
 10
127.7776011149088
 20
-42.21986050075954
 30
0.0
 10
127.7776011149088
 20
-42.21986050075954
 30
0.0
 10
127.7776011149088
 20
-42.21986050075954
 30
0.0
 10
124.7693437364366
 20
-39.21298116048177
 30
0.0
 10
124.7693437364366
 20
-39.21298116048177
 30
0.0
  0
SPLINE
  5
1B6
100
AcDbEntity
  8
ALPHA
 62
     7
100
AcDbSpline
210
0.0
220
0.0
230
-1.0
 70
     8
 71
     3
 72
    32
 73
    28
 74
     0
 42
0.0000001
 43
0.0000001
 40
0.0
 40
0.0
 40
0.0
 40
0.0
 40
1.0
 40
1.0
 40
1.0
 40
2.0
 40
2.0
 40
2.0
 40
3.0
 40
3.0
 40
3.0
 40
4.0
 40
4.0
 40
4.0
 40
5.0
 40
5.0
 40
5.0
 40
6.0
 40
6.0
 40
6.0
 40
7.0
 40
7.0
 40
7.0
 40
8.0
 40
8.0
 40
8.0
 40
9.0
 40
9.0
 40
9.0
 40
9.0
 10
127.7817352294921
 20
-61.3180918375651
 30
0.0
 10
127.7817352294921
 20
-61.3180918375651
 30
0.0
 10
127.7817352294921
 20
-64.32497117784286
 30
0.0
 10
127.7817352294921
 20
-64.32497117784286
 30
0.0
 10
127.7817352294921
 20
-64.88169860839843
 30
0.0
 10
127.3352508544921
 20
-65.32956102159288
 30
0.0
 10
126.7771453857421
 20
-65.32956102159288
 30
0.0
 10
126.7771453857421
 20
-65.32956102159288
 30
0.0
 10
112.7459604899088
 20
-65.32956102159288
 30
0.0
 10
112.7459604899088
 20
-65.32956102159288
 30
0.0
 10
112.1933671739366
 20
-65.32956102159288
 30
0.0
 10
111.7413706461588
 20
-64.88169860839843
 30
0.0
 10
111.7413706461588
 20
-64.32497117784286
 30
0.0
 10
111.7413706461588
 20
-64.32497117784286
 30
0.0
 10
111.7413706461588
 20
-52.29607577853732
 30
0.0
 10
111.7413706461588
 20
-52.29607577853732
 30
0.0
 10
111.7413706461588
 20
-51.7434824625651
 30
0.0
 10
112.1933671739366
 20
-51.2969980875651
 30
0.0
 10
112.7459604899088
 20
-51.2969980875651
 30
0.0
 10
112.7459604899088
 20
-51.2969980875651
 30
0.0
 10
126.7771453857421
 20
-51.2969980875651
 30
0.0
 10
126.7771453857421
 20
-51.2969980875651
 30
0.0
 10
127.3352508544921
 20
-51.2969980875651
 30
0.0
 10
127.7817352294921
 20
-51.7434824625651
 30
0.0
 10
127.7817352294921
 20
-52.29607577853732
 30
0.0
 10
127.7817352294921
 20
-52.29607577853732
 30
0.0
 10
127.7817352294921
 20
-55.3029551188151
 30
0.0
 10
127.7817352294921
 20
-55.3029551188151
 30
0.0
  0
SPLINE
  5
1B7
100
AcDbEntity
  8
ALPHA
 62
     7
100
AcDbSpline
210
0.0
220
0.0
230
1.0
 70
    11
 71
     3
 72
    26
 73
    22
 74
     0
 42
0.0000001
 43
0.0000001
 40
0.0
 40
0.0
 40
0.0
 40
0.0
 40
1.0
 40
1.0
 40
1.0
 40
2.0
 40
2.0
 40
2.0
 40
3.0
 40
3.0
 40
3.0
 40
4.0
 40
4.0
 40
4.0
 40
5.0
 40
5.0
 40
5.0
 40
6.0
 40
6.0
 40
6.0
 40
7.0
 40
7.0
 40
7.0
 40
7.0
 10
124.7693437364366
 20
-58.31121249728732
 30
0.0
 10
124.7693437364366
 20
-58.31121249728732
 30
0.0
 10
127.7776011149088
 20
-55.3029551188151
 30
0.0
 10
127.7776011149088
 20
-55.3029551188151
 30
0.0
 10
127.7776011149088
 20
-55.3029551188151
 30
0.0
 10
132.7867699517144
 20
-55.3029551188151
 30
0.0
 10
132.7867699517144
 20
-55.3029551188151
 30
0.0
 10
134.4500620524088
 20
-55.3029551188151
 30
0.0
 10
135.7950273301866
 20
-56.65343254937066
 30
0.0
 10
135.7950273301866
 20
-58.31121249728732
 30
0.0
 10
135.7950273301866
 20
-58.31121249728732
 30
0.0
 10
135.7950273301866
 20
-58.31121249728732
 30
0.0
 10
135.7950273301866
 20
-58.31121249728732
 30
0.0
 10
135.7950273301866
 20
-59.97312655978731
 30
0.0
 10
134.4500620524088
 20
-61.3180918375651
 30
0.0
 10
132.7867699517144
 20
-61.3180918375651
 30
0.0
 10
132.7867699517144
 20
-61.3180918375651
 30
0.0
 10
127.7776011149088
 20
-61.3180918375651
 30
0.0
 10
127.7776011149088
 20
-61.3180918375651
 30
0.0
 10
127.7776011149088
 20
-61.3180918375651
 30
0.0
 10
124.7693437364366
 20
-58.31121249728732
 30
0.0
 10
124.7693437364366
 20
-58.31121249728732
 30
0.0
  0
SPLINE
  5
1B8
100
AcDbEntity
  8
ALPHA
 62
     7
100
AcDbSpline
210
0.0
220
0.0
230
-1.0
 70
     8
 71
     3
 72
    32
 73
    28
 74
     0
 42
0.0000001
 43
0.0000001
 40
0.0
 40
0.0
 40
0.0
 40
0.0
 40
1.0
 40
1.0
 40
1.0
 40
2.0
 40
2.0
 40
2.0
 40
3.0
 40
3.0
 40
3.0
 40
4.0
 40
4.0
 40
4.0
 40
5.0
 40
5.0
 40
5.0
 40
6.0
 40
6.0
 40
6.0
 40
7.0
 40
7.0
 40
7.0
 40
8.0
 40
8.0
 40
8.0
 40
9.0
 40
9.0
 40
9.0
 40
9.0
 10
127.7817352294921
 20
-80.41494513617621
 30
0.0
 10
127.7817352294921
 20
-80.41494513617621
 30
0.0
 10
127.7817352294921
 20
-83.42320251464842
 30
0.0
 10
127.7817352294921
 20
-83.42320251464842
 30
0.0
 10
127.7817352294921
 20
-83.97992994520398
 30
0.0
 10
127.3352508544921
 20
-84.42641432020399
 30
0.0
 10
126.7771453857421
 20
-84.42641432020399
 30
0.0
 10
126.7771453857421
 20
-84.42641432020399
 30
0.0
 10
112.7459604899088
 20
-84.42641432020399
 30
0.0
 10
112.7459604899088
 20
-84.42641432020399
 30
0.0
 10
112.1933671739366
 20
-84.42641432020399
 30
0.0
 10
111.7413706461588
 20
-83.97992994520398
 30
0.0
 10
111.7413706461588
 20
-83.42320251464842
 30
0.0
 10
111.7413706461588
 20
-83.42320251464842
 30
0.0
 10
111.7413706461588
 20
-71.39430711534287
 30
0.0
 10
111.7413706461588
 20
-71.39430711534287
 30
0.0
 10
111.7413706461588
 20
-70.84171379937065
 30
0.0
 10
112.1933671739366
 20
-70.39522942437065
 30
0.0
 10
112.7459604899088
 20
-70.39522942437065
 30
0.0
 10
112.7459604899088
 20
-70.39522942437065
 30
0.0
 10
126.7771453857421
 20
-70.39522942437065
 30
0.0
 10
126.7771453857421
 20
-70.39522942437065
 30
0.0
 10
127.3352508544921
 20
-70.39522942437065
 30
0.0
 10
127.7817352294921
 20
-70.84171379937065
 30
0.0
 10
127.7817352294921
 20
-71.39430711534287
 30
0.0
 10
127.7817352294921
 20
-71.39430711534287
 30
0.0
 10
127.7817352294921
 20
-74.40118645562065
 30
0.0
 10
127.7817352294921
 20
-74.40118645562065
 30
0.0
  0
SPLINE
  5
1B9
100
AcDbEntity
  8
ALPHA
 62
     7
100
AcDbSpline
210
0.0
220
0.0
230
1.0
 70
    11
 71
     3
 72
    26
 73
    22
 74
     0
 42
0.0000001
 43
0.0000001
 40
0.0
 40
0.0
 40
0.0
 40
0.0
 40
1.0
 40
1.0
 40
1.0
 40
2.0
 40
2.0
 40
2.0
 40
3.0
 40
3.0
 40
3.0
 40
4.0
 40
4.0
 40
4.0
 40
5.0
 40
5.0
 40
5.0
 40
6.0
 40
6.0
 40
6.0
 40
7.0
 40
7.0
 40
7.0
 40
7.0
 10
124.7693437364366
 20
-77.40806579589843
 30
0.0
 10
124.7693437364366
 20
-77.40806579589843
 30
0.0
 10
127.7776011149088
 20
-74.40118645562065
 30
0.0
 10
127.7776011149088
 20
-74.40118645562065
 30
0.0
 10
127.7776011149088
 20
-74.40118645562065
 30
0.0
 10
132.7867699517144
 20
-74.40118645562065
 30
0.0
 10
132.7867699517144
 20
-74.40118645562065
 30
0.0
 10
134.4500620524088
 20
-74.40118645562065
 30
0.0
 10
135.7950273301866
 20
-75.75028584798175
 30
0.0
 10
135.7950273301866
 20
-77.40806579589843
 30
0.0
 10
135.7950273301866
 20
-77.40806579589843
 30
0.0
 10
135.7950273301866
 20
-77.40806579589843
 30
0.0
 10
135.7950273301866
 20
-77.40806579589843
 30
0.0
 10
135.7950273301866
 20
-79.07135789659287
 30
0.0
 10
134.4500620524088
 20
-80.41494513617621
 30
0.0
 10
132.7867699517144
 20
-80.41494513617621
 30
0.0
 10
132.7867699517144
 20
-80.41494513617621
 30
0.0
 10
127.7776011149088
 20
-80.41494513617621
 30
0.0
 10
127.7776011149088
 20
-80.41494513617621
 30
0.0
 10
127.7776011149088
 20
-80.41494513617621
 30
0.0
 10
124.7693437364366
 20
-77.40806579589843
 30
0.0
 10
124.7693437364366
 20
-77.40806579589843
 30
0.0
  0
POLYLINE
  5
1BA
100
AcDbEntity
  8
ALPHA
 62
     7
100
AcDb2dPolyline
 66
     1
 10
0.0
 20
0.0
 30
0.0
 70
     1
  0
VERTEX
  5
1BB
100
AcDbEntity
  8
ALPHA
 62
     7
100
AcDbVertex
100
AcDb2dVertex
 10
-53.427531
 20
-72.416811
 30
0.0
  0
VERTEX
  5
1BC
100
AcDbEntity
  8
ALPHA
 62
     7
100
AcDbVertex
100
AcDb2dVertex
 10
-53.427531
 20
-63.394795
 30
0.0
  0
VERTEX
  5
1BD
100
AcDbEntity
  8
ALPHA
 62
     7
100
AcDbVertex
100
AcDb2dVertex
 10
-68.468646
 20
-63.394795
 30
0.0
  0
VERTEX
  5
1BE
100
AcDbEntity
  8
ALPHA
 62
     7
100
AcDbVertex
100
AcDb2dVertex
 10
-68.468646
 20
-72.416811
 30
0.0
  0
SEQEND
  5
1BF
100
AcDbEntity
  8
ALPHA
 62
     7
  0
POLYLINE
  5
1C0
100
AcDbEntity
  8
ALPHA
 62
     7
100
AcDb2dPolyline
 66
     1
 10
0.0
 20
0.0
 30
0.0
 70
     1
  0
VERTEX
  5
1C1
100
AcDbEntity
  8
ALPHA
 62
     7
100
AcDbVertex
100
AcDb2dVertex
 10
-53.427531
 20
-34.221727
 30
0.0
  0
VERTEX
  5
1C2
100
AcDbEntity
  8
ALPHA
 62
     7
100
AcDbVertex
100
AcDb2dVertex
 10
-53.427531
 20
-25.199711
 30
0.0
  0
VERTEX
  5
1C3
100
AcDbEntity
  8
ALPHA
 62
     7
100
AcDbVertex
100
AcDb2dVertex
 10
-68.468646
 20
-25.199711
 30
0.0
  0
VERTEX
  5
1C4
100
AcDbEntity
  8
ALPHA
 62
     7
100
AcDbVertex
100
AcDb2dVertex
 10
-68.468646
 20
-34.221727
 30
0.0
  0
SEQEND
  5
1C5
100
AcDbEntity
  8
ALPHA
 62
     7
  0
POLYLINE
  5
1C6
100
AcDbEntity
  8
ALPHA
 62
     7
100
AcDb2dPolyline
 66
     1
 10
0.0
 20
0.0
 30
0.0
 70
     1
  0
VERTEX
  5
1C7
100
AcDbEntity
  8
ALPHA
 62
     7
100
AcDbVertex
100
AcDb2dVertex
 10
-34.330678
 20
-52.789413
 30
0.0
  0
VERTEX
  5
1C8
100
AcDbEntity
  8
ALPHA
 62
     7
100
AcDbVertex
100
AcDb2dVertex
 10
-34.330678
 20
-43.767397
 30
0.0
  0
VERTEX
  5
1C9
100
AcDbEntity
  8
ALPHA
 62
     7
100
AcDbVertex
100
AcDb2dVertex
 10
-49.370587
 20
-43.767397
 30
0.0
  0
VERTEX
  5
1CA
100
AcDbEntity
  8
ALPHA
 62
     7
100
AcDbVertex
100
AcDb2dVertex
 10
-49.370587
 20
-52.789413
 30
0.0
  0
SEQEND
  5
1CB
100
AcDbEntity
  8
ALPHA
 62
     7
  0
POLYLINE
  5
1CC
100
AcDbEntity
  8
ALPHA
 62
     7
100
AcDb2dPolyline
 66
     1
 10
0.0
 20
0.0
 30
0.0
 70
     1
  0
VERTEX
  5
1CD
100
AcDbEntity
  8
ALPHA
 62
     7
100
AcDbVertex
100
AcDb2dVertex
 10
-14.528269
 20
-34.221727
 30
0.0
  0
VERTEX
  5
1CE
100
AcDbEntity
  8
ALPHA
 62
     7
100
AcDbVertex
100
AcDb2dVertex
 10
-14.528269
 20
-25.199711
 30
0.0
  0
VERTEX
  5
1CF
100
AcDbEntity
  8
ALPHA
 62
     7
100
AcDbVertex
100
AcDb2dVertex
 10
-29.564044
 20
-25.199711
 30
0.0
  0
VERTEX
  5
1D0
100
AcDbEntity
  8
ALPHA
 62
     7
100
AcDbVertex
100
AcDb2dVertex
 10
-29.564044
 20
-34.221727
 30
0.0
  0
SEQEND
  5
1D1
100
AcDbEntity
  8
ALPHA
 62
     7
  0
POLYLINE
  5
1D2
100
AcDbEntity
  8
ALPHA
 62
     7
100
AcDb2dPolyline
 66
     1
 10
0.0
 20
0.0
 30
0.0
 70
     1
  0
VERTEX
  5
1D3
100
AcDbEntity
  8
ALPHA
 62
     7
100
AcDbVertex
100
AcDb2dVertex
 10
1.03805
 20
3.265046
 30
0.0
  0
VERTEX
  5
1D4
100
AcDbEntity
  8
ALPHA
 62
     7
100
AcDbVertex
100
AcDb2dVertex
 10
1.03805
 20
12.287234
 30
0.0
  0
VERTEX
  5
1D5
100
AcDbEntity
  8
ALPHA
 62
     7
100
AcDbVertex
100
AcDb2dVertex
 10
-14.003237
 20
12.287234
 30
0.0
  0
VERTEX
  5
1D6
100
AcDbEntity
  8
ALPHA
 62
     7
100
AcDbVertex
100
AcDb2dVertex
 10
-14.003237
 20
3.265046
 30
0.0
  0
SEQEND
  5
1D7
100
AcDbEntity
  8
ALPHA
 62
     7
  0
POLYLINE
  5
1D8
100
AcDbEntity
  8
ALPHA
 62
     7
100
AcDb2dPolyline
 66
     1
 10
0.0
 20
0.0
 30
0.0
 70
     1
  0
VERTEX
  5
1D9
100
AcDbEntity
  8
ALPHA
 62
     7
100
AcDbVertex
100
AcDb2dVertex
 10
22.254326
 20
3.265046
 30
0.0
  0
VERTEX
  5
1DA
100
AcDbEntity
  8
ALPHA
 62
     7
100
AcDbVertex
100
AcDb2dVertex
 10
22.254326
 20
12.287234
 30
0.0
  0
VERTEX
  5
1DB
100
AcDbEntity
  8
ALPHA
 62
     7
100
AcDbVertex
100
AcDb2dVertex
 10
7.218552
 20
12.287234
 30
0.0
  0
VERTEX
  5
1DC
100
AcDbEntity
  8
ALPHA
 62
     7
100
AcDbVertex
100
AcDb2dVertex
 10
7.218552
 20
3.265046
 30
0.0
  0
SEQEND
  5
1DD
100
AcDbEntity
  8
ALPHA
 62
     7
  0
POLYLINE
  5
1DE
100
AcDbEntity
  8
ALPHA
 62
     7
100
AcDb2dPolyline
 66
     1
 10
0.0
 20
0.0
 30
0.0
 70
     1
  0
VERTEX
  5
1DF
100
AcDbEntity
  8
ALPHA
 62
     7
100
AcDbVertex
100
AcDb2dVertex
 10
43.474737
 20
3.265046
 30
0.0
  0
VERTEX
  5
1E0
100
AcDbEntity
  8
ALPHA
 62
     7
100
AcDbVertex
100
AcDb2dVertex
 10
43.474737
 20
12.287234
 30
0.0
  0
VERTEX
  5
1E1
100
AcDbEntity
  8
ALPHA
 62
     7
100
AcDbVertex
100
AcDb2dVertex
 10
28.438962
 20
12.287234
 30
0.0
  0
VERTEX
  5
1E2
100
AcDbEntity
  8
ALPHA
 62
     7
100
AcDbVertex
100
AcDb2dVertex
 10
28.438962
 20
3.265046
 30
0.0
  0
SEQEND
  5
1E3
100
AcDbEntity
  8
ALPHA
 62
     7
  0
POLYLINE
  5
1E4
100
AcDbEntity
  8
ALPHA
 62
     7
100
AcDb2dPolyline
 66
     1
 10
0.0
 20
0.0
 30
0.0
 70
     1
  0
VERTEX
  5
1E5
100
AcDbEntity
  8
ALPHA
 62
     7
100
AcDbVertex
100
AcDb2dVertex
 10
64.695147
 20
3.265046
 30
0.0
  0
VERTEX
  5
1E6
100
AcDbEntity
  8
ALPHA
 62
     7
100
AcDbVertex
100
AcDb2dVertex
 10
64.695147
 20
12.287234
 30
0.0
  0
VERTEX
  5
1E7
100
AcDbEntity
  8
ALPHA
 62
     7
100
AcDbVertex
100
AcDb2dVertex
 10
49.659372
 20
12.287234
 30
0.0
  0
VERTEX
  5
1E8
100
AcDbEntity
  8
ALPHA
 62
     7
100
AcDbVertex
100
AcDb2dVertex
 10
49.659372
 20
3.265046
 30
0.0
  0
SEQEND
  5
1E9
100
AcDbEntity
  8
ALPHA
 62
     7
  0
POLYLINE
  5
1EA
100
AcDbEntity
  8
ALPHA
 62
     7
100
AcDb2dPolyline
 66
     1
 10
0.0
 20
0.0
 30
0.0
 70
     1
  0
VERTEX
  5
1EB
100
AcDbEntity
  8
ALPHA
 62
     7
100
AcDbVertex
100
AcDb2dVertex
 10
22.254326
 20
-73.125123
 30
0.0
  0
VERTEX
  5
1EC
100
AcDbEntity
  8
ALPHA
 62
     7
100
AcDbVertex
100
AcDb2dVertex
 10
22.254326
 20
-64.104485
 30
0.0
  0
VERTEX
  5
1ED
100
AcDbEntity
  8
ALPHA
 62
     7
100
AcDbVertex
100
AcDb2dVertex
 10
7.218552
 20
-64.104485
 30
0.0
  0
VERTEX
  5
1EE
100
AcDbEntity
  8
ALPHA
 62
     7
100
AcDbVertex
100
AcDb2dVertex
 10
7.218552
 20
-73.125123
 30
0.0
  0
SEQEND
  5
1EF
100
AcDbEntity
  8
ALPHA
 62
     7
  0
POLYLINE
  5
1F0
100
AcDbEntity
  8
ALPHA
 62
     7
100
AcDb2dPolyline
 66
     1
 10
0.0
 20
0.0
 30
0.0
 70
     1
  0
VERTEX
  5
1F1
100
AcDbEntity
  8
ALPHA
 62
     7
100
AcDbVertex
100
AcDb2dVertex
 10
43.474737
 20
-73.125123
 30
0.0
  0
VERTEX
  5
1F2
100
AcDbEntity
  8
ALPHA
 62
     7
100
AcDbVertex
100
AcDb2dVertex
 10
43.474737
 20
-64.104485
 30
0.0
  0
VERTEX
  5
1F3
100
AcDbEntity
  8
ALPHA
 62
     7
100
AcDbVertex
100
AcDb2dVertex
 10
28.438962
 20
-64.104485
 30
0.0
  0
VERTEX
  5
1F4
100
AcDbEntity
  8
ALPHA
 62
     7
100
AcDbVertex
100
AcDb2dVertex
 10
28.438962
 20
-73.125123
 30
0.0
  0
SEQEND
  5
1F5
100
AcDbEntity
  8
ALPHA
 62
     7
  0
POLYLINE
  5
1F6
100
AcDbEntity
  8
ALPHA
 62
     7
100
AcDb2dPolyline
 66
     1
 10
0.0
 20
0.0
 30
0.0
 70
     1
  0
VERTEX
  5
1F7
100
AcDbEntity
  8
ALPHA
 62
     7
100
AcDbVertex
100
AcDb2dVertex
 10
64.695147
 20
-73.125123
 30
0.0
  0
VERTEX
  5
1F8
100
AcDbEntity
  8
ALPHA
 62
     7
100
AcDbVertex
100
AcDb2dVertex
 10
64.695147
 20
-64.104485
 30
0.0
  0
VERTEX
  5
1F9
100
AcDbEntity
  8
ALPHA
 62
     7
100
AcDbVertex
100
AcDb2dVertex
 10
49.659372
 20
-64.104485
 30
0.0
  0
VERTEX
  5
1FA
100
AcDbEntity
  8
ALPHA
 62
     7
100
AcDbVertex
100
AcDb2dVertex
 10
49.659372
 20
-73.125123
 30
0.0
  0
SEQEND
  5
1FB
100
AcDbEntity
  8
ALPHA
 62
     7
  0
POLYLINE
  5
1FC
100
AcDbEntity
  8
ALPHA
 62
     7
100
AcDb2dPolyline
 66
     1
 10
0.0
 20
0.0
 30
0.0
 70
     1
  0
VERTEX
  5
1FD
100
AcDbEntity
  8
ALPHA
 62
     7
100
AcDbVertex
100
AcDb2dVertex
 10
22.254326
 20
-55.442137
 30
0.0
  0
VERTEX
  5
1FE
100
AcDbEntity
  8
ALPHA
 62
     7
100
AcDbVertex
100
AcDb2dVertex
 10
22.254326
 20
-46.420121
 30
0.0
  0
VERTEX
  5
1FF
100
AcDbEntity
  8
ALPHA
 62
     7
100
AcDbVertex
100
AcDb2dVertex
 10
7.218552
 20
-46.420121
 30
0.0
  0
VERTEX
  5
200
100
AcDbEntity
  8
ALPHA
 62
     7
100
AcDbVertex
100
AcDb2dVertex
 10
7.218552
 20
-55.442137
 30
0.0
  0
SEQEND
  5
201
100
AcDbEntity
  8
ALPHA
 62
     7
  0
POLYLINE
  5
202
100
AcDbEntity
  8
ALPHA
 62
     7
100
AcDb2dPolyline
 66
     1
 10
0.0
 20
0.0
 30
0.0
 70
     1
  0
VERTEX
  5
203
100
AcDbEntity
  8
ALPHA
 62
     7
100
AcDbVertex
100
AcDb2dVertex
 10
43.474737
 20
-55.442137
 30
0.0
  0
VERTEX
  5
204
100
AcDbEntity
  8
ALPHA
 62
     7
100
AcDbVertex
100
AcDb2dVertex
 10
43.474737
 20
-46.420121
 30
0.0
  0
VERTEX
  5
205
100
AcDbEntity
  8
ALPHA
 62
     7
100
AcDbVertex
100
AcDb2dVertex
 10
28.438962
 20
-46.420121
 30
0.0
  0
VERTEX
  5
206
100
AcDbEntity
  8
ALPHA
 62
     7
100
AcDbVertex
100
AcDb2dVertex
 10
28.438962
 20
-55.442137
 30
0.0
  0
SEQEND
  5
207
100
AcDbEntity
  8
ALPHA
 62
     7
  0
POLYLINE
  5
208
100
AcDbEntity
  8
ALPHA
 62
     7
100
AcDb2dPolyline
 66
     1
 10
0.0
 20
0.0
 30
0.0
 70
     1
  0
VERTEX
  5
209
100
AcDbEntity
  8
ALPHA
 62
     7
100
AcDbVertex
100
AcDb2dVertex
 10
64.695147
 20
-55.442137
 30
0.0
  0
VERTEX
  5
20A
100
AcDbEntity
  8
ALPHA
 62
     7
100
AcDbVertex
100
AcDb2dVertex
 10
64.695147
 20
-46.420121
 30
0.0
  0
VERTEX
  5
20B
100
AcDbEntity
  8
ALPHA
 62
     7
100
AcDbVertex
100
AcDb2dVertex
 10
49.659372
 20
-46.420121
 30
0.0
  0
VERTEX
  5
20C
100
AcDbEntity
  8
ALPHA
 62
     7
100
AcDbVertex
100
AcDb2dVertex
 10
49.659372
 20
-55.442137
 30
0.0
  0
SEQEND
  5
20D
100
AcDbEntity
  8
ALPHA
 62
     7
  0
POLYLINE
  5
20E
100
AcDbEntity
  8
ALPHA
 62
     7
100
AcDb2dPolyline
 66
     1
 10
0.0
 20
0.0
 30
0.0
 70
     1
  0
VERTEX
  5
20F
100
AcDbEntity
  8
ALPHA
 62
     7
100
AcDbVertex
100
AcDb2dVertex
 10
22.254326
 20
-35.98975
 30
0.0
  0
VERTEX
  5
210
100
AcDbEntity
  8
ALPHA
 62
     7
100
AcDbVertex
100
AcDb2dVertex
 10
22.254326
 20
-26.967734
 30
0.0
  0
VERTEX
  5
211
100
AcDbEntity
  8
ALPHA
 62
     7
100
AcDbVertex
100
AcDb2dVertex
 10
7.218552
 20
-26.967734
 30
0.0
  0
VERTEX
  5
212
100
AcDbEntity
  8
ALPHA
 62
     7
100
AcDbVertex
100
AcDb2dVertex
 10
7.218552
 20
-35.98975
 30
0.0
  0
SEQEND
  5
213
100
AcDbEntity
  8
ALPHA
 62
     7
  0
POLYLINE
  5
214
100
AcDbEntity
  8
ALPHA
 62
     7
100
AcDb2dPolyline
 66
     1
 10
0.0
 20
0.0
 30
0.0
 70
     1
  0
VERTEX
  5
215
100
AcDbEntity
  8
ALPHA
 62
     7
100
AcDbVertex
100
AcDb2dVertex
 10
43.474737
 20
-35.98975
 30
0.0
  0
VERTEX
  5
216
100
AcDbEntity
  8
ALPHA
 62
     7
100
AcDbVertex
100
AcDb2dVertex
 10
43.474737
 20
-26.967734
 30
0.0
  0
VERTEX
  5
217
100
AcDbEntity
  8
ALPHA
 62
     7
100
AcDbVertex
100
AcDb2dVertex
 10
28.438962
 20
-26.967734
 30
0.0
  0
VERTEX
  5
218
100
AcDbEntity
  8
ALPHA
 62
     7
100
AcDbVertex
100
AcDb2dVertex
 10
28.438962
 20
-35.98975
 30
0.0
  0
SEQEND
  5
219
100
AcDbEntity
  8
ALPHA
 62
     7
  0
POLYLINE
  5
21A
100
AcDbEntity
  8
ALPHA
 62
     7
100
AcDb2dPolyline
 66
     1
 10
0.0
 20
0.0
 30
0.0
 70
     1
  0
VERTEX
  5
21B
100
AcDbEntity
  8
ALPHA
 62
     7
100
AcDbVertex
100
AcDb2dVertex
 10
64.695147
 20
-35.98975
 30
0.0
  0
VERTEX
  5
21C
100
AcDbEntity
  8
ALPHA
 62
     7
100
AcDbVertex
100
AcDb2dVertex
 10
64.695147
 20
-26.967734
 30
0.0
  0
VERTEX
  5
21D
100
AcDbEntity
  8
ALPHA
 62
     7
100
AcDbVertex
100
AcDb2dVertex
 10
49.659372
 20
-26.967734
 30
0.0
  0
VERTEX
  5
21E
100
AcDbEntity
  8
ALPHA
 62
     7
100
AcDbVertex
100
AcDb2dVertex
 10
49.659372
 20
-35.98975
 30
0.0
  0
SEQEND
  5
21F
100
AcDbEntity
  8
ALPHA
 62
     7
  0
POLYLINE
  5
220
100
AcDbEntity
  8
ALPHA
 62
     7
100
AcDb2dPolyline
 66
     1
 10
0.0
 20
0.0
 30
0.0
 70
     1
  0
VERTEX
  5
221
100
AcDbEntity
  8
ALPHA
 62
     7
100
AcDbVertex
100
AcDb2dVertex
 10
22.254326
 20
-16.362352
 30
0.0
  0
VERTEX
  5
222
100
AcDbEntity
  8
ALPHA
 62
     7
100
AcDbVertex
100
AcDb2dVertex
 10
22.254326
 20
-7.340336
 30
0.0
  0
VERTEX
  5
223
100
AcDbEntity
  8
ALPHA
 62
     7
100
AcDbVertex
100
AcDb2dVertex
 10
7.218552
 20
-7.340336
 30
0.0
  0
VERTEX
  5
224
100
AcDbEntity
  8
ALPHA
 62
     7
100
AcDbVertex
100
AcDb2dVertex
 10
7.218552
 20
-16.362352
 30
0.0
  0
SEQEND
  5
225
100
AcDbEntity
  8
ALPHA
 62
     7
  0
POLYLINE
  5
226
100
AcDbEntity
  8
ALPHA
 62
     7
100
AcDb2dPolyline
 66
     1
 10
0.0
 20
0.0
 30
0.0
 70
     1
  0
VERTEX
  5
227
100
AcDbEntity
  8
ALPHA
 62
     7
100
AcDbVertex
100
AcDb2dVertex
 10
43.474737
 20
-16.362352
 30
0.0
  0
VERTEX
  5
228
100
AcDbEntity
  8
ALPHA
 62
     7
100
AcDbVertex
100
AcDb2dVertex
 10
43.474737
 20
-7.340336
 30
0.0
  0
VERTEX
  5
229
100
AcDbEntity
  8
ALPHA
 62
     7
100
AcDbVertex
100
AcDb2dVertex
 10
28.438962
 20
-7.340336
 30
0.0
  0
VERTEX
  5
22A
100
AcDbEntity
  8
ALPHA
 62
     7
100
AcDbVertex
100
AcDb2dVertex
 10
28.438962
 20
-16.362352
 30
0.0
  0
SEQEND
  5
22B
100
AcDbEntity
  8
ALPHA
 62
     7
  0
POLYLINE
  5
22C
100
AcDbEntity
  8
ALPHA
 62
     7
100
AcDb2dPolyline
 66
     1
 10
0.0
 20
0.0
 30
0.0
 70
     1
  0
VERTEX
  5
22D
100
AcDbEntity
  8
ALPHA
 62
     7
100
AcDbVertex
100
AcDb2dVertex
 10
64.695147
 20
-16.362352
 30
0.0
  0
VERTEX
  5
22E
100
AcDbEntity
  8
ALPHA
 62
     7
100
AcDbVertex
100
AcDb2dVertex
 10
64.695147
 20
-7.340336
 30
0.0
  0
VERTEX
  5
22F
100
AcDbEntity
  8
ALPHA
 62
     7
100
AcDbVertex
100
AcDb2dVertex
 10
49.659372
 20
-7.340336
 30
0.0
  0
VERTEX
  5
230
100
AcDbEntity
  8
ALPHA
 62
     7
100
AcDbVertex
100
AcDb2dVertex
 10
49.659372
 20
-16.362352
 30
0.0
  0
SEQEND
  5
231
100
AcDbEntity
  8
ALPHA
 62
     7
  0
ENDBLK
  5
233
100
AcDbEntity
  8
ALPHA
100
AcDbBlockEnd
  0
BLOCK
  5
37C
100
AcDbEntity
  8
ALPHA
 62
     7
100
AcDbBlockBegin
  2
AI9-BLK7
 70
     0
 10
0.0
 20
0.0
 30
0.0
  3
AI9-BLK7
  1

  0
HATCH
  5
37B
100
AcDbEntity
  8
ALPHA
 62
     7
100
AcDbHatch
 10
0.0
 20
0.0
 30
0.0
210
0.0
220
0.0
230
1.0
  2
SOLID
 70
     1
 71
     0
 91
        1
 92
        1
 93
        1
 72
     4
 94
        3
 73
     0
 74
     0
 95
       59
 96
       55
 40
0.0
 40
0.0
 40
0.0
 40
0.0
 40
1.0
 40
1.0
 40
1.0
 40
2.0
 40
2.0
 40
2.0
 40
3.0
 40
3.0
 40
3.0
 40
4.0
 40
4.0
 40
4.0
 40
5.0
 40
5.0
 40
5.0
 40
6.0
 40
6.0
 40
6.0
 40
7.0
 40
7.0
 40
7.0
 40
8.0
 40
8.0
 40
8.0
 40
9.0
 40
9.0
 40
9.0
 40
10.0
 40
10.0
 40
10.0
 40
11.0
 40
11.0
 40
11.0
 40
12.0
 40
12.0
 40
12.0
 40
13.0
 40
13.0
 40
13.0
 40
14.0
 40
14.0
 40
14.0
 40
15.0
 40
15.0
 40
15.0
 40
16.0
 40
16.0
 40
16.0
 40
17.0
 40
17.0
 40
17.0
 40
18.0
 40
18.0
 40
18.0
 40
18.0
 10
-0.073381
 20
0.079754
 10
-0.054949
 20
0.078376
 10
-0.038068
 20
0.078376
 10
-0.021015
 20
0.078376
 10
0.080443
 20
0.078376
 10
0.169326
 20
0.133325
 10
0.169326
 20
0.242018
 10
0.169326
 20
0.346404
 10
0.09319
 20
0.402904
 10
-0.00844
 20
0.402904
 10
-0.139699
 20
0.402904
 10
-0.196026
 20
0.302652
 10
-0.197404
 20
0.185518
 10
-0.197404
 20
0.185518
 10
-0.317466
 20
0.185518
 10
-0.317466
 20
0.185518
 10
-0.310403
 20
0.376032
 10
-0.208773
 20
0.508668
 10
-0.00844
 20
0.508668
 10
0.165192
 20
0.508668
 10
0.29645
 20
0.425469
 10
0.29645
 20
0.24064
 10
0.29645
 20
0.153134
 10
0.234266
 20
0.076826
 10
0.15813
 20
0.041686
 10
0.15813
 20
0.041686
 10
0.15813
 20
0.038757
 10
0.15813
 20
0.038757
 10
0.279397
 20
0.012058
 10
0.338653
 20
-0.08406
 10
0.338653
 20
-0.20395
 10
0.338653
 20
-0.404282
 10
0.182073
 20
-0.508668
 10
-0.005512
 20
-0.508668
 10
-0.208773
 20
-0.508668
 10
-0.342787
 20
-0.388779
 10
-0.338653
 20
-0.182762
 10
-0.338653
 20
-0.182762
 10
-0.218591
 20
-0.182762
 10
-0.218591
 20
-0.182762
 10
-0.214457
 20
-0.312642
 10
-0.142455
 20
-0.402904
 10
-0.005512
 20
-0.402904
 10
0.111621
 20
-0.402904
 10
0.211701
 20
-0.330901
 10
0.211701
 20
-0.209634
 10
0.211701
 20
-0.08406
 10
0.117133
 20
-0.017742
 10
-0.001378
 20
-0.017742
 10
-0.025321
 20
-0.017742
 10
-0.050815
 20
-0.01912
 10
-0.073381
 20
-0.021876
 10
-0.073381
 20
-0.021876
 10
-0.073381
 20
0.079754
 10
-0.073381
 20
0.079754
 97
        0
 75
     0
 76
     1
 98
        1
 10
0.0
 20
0.0
  0
ENDBLK
  5
37D
100
AcDbEntity
  8
ALPHA
100
AcDbBlockEnd
  0
BLOCK
  5
380
100
AcDbEntity
  8
ALPHA
 62
     7
100
AcDbBlockBegin
  2
AI9-BLK8
 70
     0
 10
0.0
 20
0.0
 30
0.0
  3
AI9-BLK8
  1

  0
HATCH
  5
37F
100
AcDbEntity
  8
ALPHA
 62
     7
100
AcDbHatch
 10
0.0
 20
0.0
 30
0.0
210
0.0
220
0.0
230
1.0
  2
SOLID
 70
     1
 71
     0
 91
        2
 92
       16
 93
        1
 72
     4
 94
        3
 73
     0
 74
     0
 95
       17
 96
       13
 40
0.0
 40
0.0
 40
0.0
 40
0.0
 40
1.0
 40
1.0
 40
1.0
 40
2.0
 40
2.0
 40
2.0
 40
3.0
 40
3.0
 40
3.0
 40
4.0
 40
4.0
 40
4.0
 40
4.0
 10
0.095343
 20
-0.160197
 10
0.095343
 20
-0.160197
 10
0.095343
 20
0.329523
 10
0.095343
 20
0.329523
 10
0.095343
 20
0.329523
 10
0.092415
 20
0.329523
 10
0.092415
 20
0.329523
 10
0.092415
 20
0.329523
 10
-0.240554
 20
-0.160197
 10
-0.240554
 20
-0.160197
 10
-0.240554
 20
-0.160197
 10
0.095343
 20
-0.160197
 10
0.095343
 20
-0.160197
 97
        0
 92
        1
 93
        1
 72
     4
 94
        3
 73
     0
 74
     0
 95
       38
 96
       34
 40
0.0
 40
0.0
 40
0.0
 40
0.0
 40
1.0
 40
1.0
 40
1.0
 40
2.0
 40
2.0
 40
2.0
 40
3.0
 40
3.0
 40
3.0
 40
4.0
 40
4.0
 40
4.0
 40
5.0
 40
5.0
 40
5.0
 40
6.0
 40
6.0
 40
6.0
 40
7.0
 40
7.0
 40
7.0
 40
8.0
 40
8.0
 40
8.0
 40
9.0
 40
9.0
 40
9.0
 40
10.0
 40
10.0
 40
10.0
 40
11.0
 40
11.0
 40
11.0
 40
11.0
 10
0.20817
 20
-0.160197
 10
0.20817
 20
-0.160197
 10
0.343562
 20
-0.160197
 10
0.343562
 20
-0.160197
 10
0.343562
 20
-0.160197
 10
0.343562
 20
-0.265961
 10
0.343562
 20
-0.265961
 10
0.343562
 20
-0.265961
 10
0.20817
 20
-0.265961
 10
0.20817
 20
-0.265961
 10
0.20817
 20
-0.265961
 10
0.20817
 20
-0.500228
 10
0.20817
 20
-0.500228
 10
0.20817
 20
-0.500228
 10
0.095343
 20
-0.500228
 10
0.095343
 20
-0.500228
 10
0.095343
 20
-0.500228
 10
0.095343
 20
-0.265961
 10
0.095343
 20
-0.265961
 10
0.095343
 20
-0.265961
 10
-0.343562
 20
-0.265961
 10
-0.343562
 20
-0.265961
 10
-0.343562
 20
-0.265961
 10
-0.343562
 20
-0.150206
 10
-0.343562
 20
-0.150206
 10
-0.343562
 20
-0.150206
 10
0.112224
 20
0.500228
 10
0.112224
 20
0.500228
 10
0.112224
 20
0.500228
 10
0.20817
 20
0.500228
 10
0.20817
 20
0.500228
 10
0.20817
 20
0.500228
 10
0.20817
 20
-0.160197
 10
0.20817
 20
-0.160197
 97
        0
 75
     0
 76
     1
 98
        1
 10
0.0
 20
0.0
  0
ENDBLK
  5
381
100
AcDbEntity
  8
ALPHA
100
AcDbBlockEnd
  0
BLOCK
  5
384
100
AcDbEntity
  8
ALPHA
 62
     7
100
AcDbBlockBegin
  2
AI9-BLK9
 70
     0
 10
0.0
 20
0.0
 30
0.0
  3
AI9-BLK9
  1

  0
HATCH
  5
383
100
AcDbEntity
  8
ALPHA
 62
     7
100
AcDbHatch
 10
0.0
 20
0.0
 30
0.0
210
0.0
220
0.0
230
1.0
  2
SOLID
 70
     1
 71
     0
 91
        1
 92
        1
 93
        1
 72
     4
 94
        3
 73
     0
 74
     0
 95
       26
 96
       22
 40
0.0
 40
0.0
 40
0.0
 40
0.0
 40
1.0
 40
1.0
 40
1.0
 40
2.0
 40
2.0
 40
2.0
 40
3.0
 40
3.0
 40
3.0
 40
4.0
 40
4.0
 40
4.0
 40
5.0
 40
5.0
 40
5.0
 40
6.0
 40
6.0
 40
6.0
 40
7.0
 40
7.0
 40
7.0
 40
7.0
 10
0.189825
 20
-0.500228
 10
0.189825
 20
-0.500228
 10
0.069935
 20
-0.500228
 10
0.069935
 20
-0.500228
 10
0.069935
 20
-0.500228
 10
0.069935
 20
0.216697
 10
0.069935
 20
0.216697
 10
0.069935
 20
0.216697
 10
-0.189825
 20
0.216697
 10
-0.189825
 20
0.216697
 10
-0.189825
 20
0.216697
 10
-0.189825
 20
0.312642
 10
-0.189825
 20
0.312642
 10
-0.052882
 20
0.312642
 10
0.071313
 20
0.349333
 10
0.098013
 20
0.500228
 10
0.098013
 20
0.500228
 10
0.189825
 20
0.500228
 10
0.189825
 20
0.500228
 10
0.189825
 20
0.500228
 10
0.189825
 20
-0.500228
 10
0.189825
 20
-0.500228
 97
        0
 75
     0
 76
     1
 98
        1
 10
0.0
 20
0.0
  0
ENDBLK
  5
385
100
AcDbEntity
  8
ALPHA
100
AcDbBlockEnd
  0
BLOCK
  5
629
100
AcDbEntity
  8
LAYER6$C$L6$V_TOP
100
AcDbBlockBegin
  2
_X0
 70
     0
 10
0.0
 20
0.0
 30
0.0
  3
_X0
  1

  0
LINE
  5
5CB
100
AcDbEntity
  8
LAYER7$C$L7$V_TOP
100
AcDbLine
 10
-60.024979
 20
84.646382
 30
0.0
 11
-60.024979
 21
85.468348
 31
0.0
  0
LINE
  5
5CC
100
AcDbEntity
  8
LAYER7$C$L7$V_TOP
100
AcDbLine
 10
-60.262866
 20
83.685499
 30
0.0
 11
-60.262866
 21
86.429231
 31
0.0
  0
LINE
  5
5CD
100
AcDbEntity
  8
LAYER7$C$L7$V_TOP
100
AcDbLine
 10
-60.500753
 20
83.188866
 30
0.0
 11
-60.500753
 21
84.118824
 31
0.0
  0
LINE
  5
5CE
100
AcDbEntity
  8
LAYER7$C$L7$V_TOP
100
AcDbLine
 10
-60.500753
 20
85.977606
 30
0.0
 11
-60.500753
 21
86.925864
 31
0.0
  0
LINE
  5
5CF
100
AcDbEntity
  8
LAYER7$C$L7$V_TOP
100
AcDbLine
 10
-60.73864
 20
82.828682
 30
0.0
 11
-60.73864
 21
83.51236
 31
0.0
  0
LINE
  5
5D0
100
AcDbEntity
  8
LAYER7$C$L7$V_TOP
100
AcDbLine
 10
-60.73864
 20
86.58407
 30
0.0
 11
-60.73864
 21
87.286048
 31
0.0
  0
LINE
  5
5D1
100
AcDbEntity
  8
LAYER7$C$L7$V_TOP
100
AcDbLine
 10
-60.976527
 20
82.536287
 30
0.0
 11
-60.976527
 21
83.112512
 31
0.0
  0
LINE
  5
5D2
100
AcDbEntity
  8
LAYER7$C$L7$V_TOP
100
AcDbLine
 10
-60.976527
 20
86.983918
 30
0.0
 11
-60.976527
 21
87.578443
 31
0.0
  0
LINE
  5
5D3
100
AcDbEntity
  8
LAYER7$C$L7$V_TOP
100
AcDbLine
 10
-61.214414
 20
82.299099
 30
0.0
 11
-61.214414
 21
82.810489
 31
0.0
  0
LINE
  5
5D4
100
AcDbEntity
  8
LAYER7$C$L7$V_TOP
100
AcDbLine
 10
-61.214414
 20
83.642429
 30
0.0
 11
-61.214414
 21
86.355778
 31
0.0
  0
LINE
  5
5D5
100
AcDbEntity
  8
LAYER7$C$L7$V_TOP
100
AcDbLine
 10
-61.214414
 20
87.285941
 30
0.0
 11
-61.214414
 21
87.815631
 31
0.0
  0
LINE
  5
5D6
100
AcDbEntity
  8
LAYER7$C$L7$V_TOP
100
AcDbLine
 10
-61.452301
 20
82.098139
 30
0.0
 11
-61.452301
 21
82.562836
 31
0.0
  0
LINE
  5
5D7
100
AcDbEntity
  8
LAYER7$C$L7$V_TOP
100
AcDbLine
 10
-61.452301
 20
83.242705
 30
0.0
 11
-61.452301
 21
86.701523
 31
0.0
  0
LINE
  5
5D8
100
AcDbEntity
  8
LAYER7$C$L7$V_TOP
100
AcDbLine
 10
-61.452301
 20
87.533594
 30
0.0
 11
-61.452301
 21
88.016591
 31
0.0
  0
LINE
  5
5D9
100
AcDbEntity
  8
LAYER7$C$L7$V_TOP
100
AcDbLine
 10
-61.690189
 20
81.927524
 30
0.0
 11
-61.690189
 21
82.36323
 31
0.0
  0
LINE
  5
5DA
100
AcDbEntity
  8
LAYER7$C$L7$V_TOP
100
AcDbLine
 10
-61.690189
 20
82.958591
 30
0.0
 11
-61.690189
 21
83.696246
 31
0.0
  0
LINE
  5
5DB
100
AcDbEntity
  8
LAYER7$C$L7$V_TOP
100
AcDbLine
 10
-61.690189
 20
84.729212
 30
0.0
 11
-61.690189
 21
85.251042
 31
0.0
  0
LINE
  5
5DC
100
AcDbEntity
  8
LAYER7$C$L7$V_TOP
100
AcDbLine
 10
-61.690189
 20
86.343261
 30
0.0
 11
-61.690189
 21
87.00171
 31
0.0
  0
LINE
  5
5DD
100
AcDbEntity
  8
LAYER7$C$L7$V_TOP
100
AcDbLine
 10
-61.690189
 20
87.7332
 30
0.0
 11
-61.690189
 21
88.187206
 31
0.0
  0
LINE
  5
5DE
100
AcDbEntity
  8
LAYER7$C$L7$V_TOP
100
AcDbLine
 10
-61.928076
 20
81.782969
 30
0.0
 11
-61.928076
 21
82.196163
 31
0.0
  0
LINE
  5
5DF
100
AcDbEntity
  8
LAYER7$C$L7$V_TOP
100
AcDbLine
 10
-61.928076
 20
84.729212
 30
0.0
 11
-61.928076
 21
85.251042
 31
0.0
  0
LINE
  5
5E0
100
AcDbEntity
  8
LAYER7$C$L7$V_TOP
100
AcDbLine
 10
-61.928076
 20
87.900267
 30
0.0
 11
-61.928076
 21
88.331761
 31
0.0
  0
LINE
  5
5E1
100
AcDbEntity
  8
LAYER7$C$L7$V_TOP
100
AcDbLine
 10
-62.165963
 20
81.661298
 30
0.0
 11
-62.165963
 21
82.056727
 31
0.0
  0
LINE
  5
5E2
100
AcDbEntity
  8
LAYER7$C$L7$V_TOP
100
AcDbLine
 10
-62.165963
 20
84.729212
 30
0.0
 11
-62.165963
 21
85.251042
 31
0.0
  0
LINE
  5
5E3
100
AcDbEntity
  8
LAYER7$C$L7$V_TOP
100
AcDbLine
 10
-62.165963
 20
88.039704
 30
0.0
 11
-62.165963
 21
88.453432
 31
0.0
  0
LINE
  5
5E4
100
AcDbEntity
  8
LAYER7$C$L7$V_TOP
100
AcDbLine
 10
-62.40385
 20
81.560134
 30
0.0
 11
-62.40385
 21
81.941523
 31
0.0
  0
LINE
  5
5E5
100
AcDbEntity
  8
LAYER7$C$L7$V_TOP
100
AcDbLine
 10
-62.40385
 20
84.729212
 30
0.0
 11
-62.40385
 21
85.251042
 31
0.0
  0
LINE
  5
5E6
100
AcDbEntity
  8
LAYER7$C$L7$V_TOP
100
AcDbLine
 10
-62.40385
 20
88.154907
 30
0.0
 11
-62.40385
 21
88.554596
 31
0.0
  0
LINE
  5
5E7
100
AcDbEntity
  8
LAYER7$C$L7$V_TOP
100
AcDbLine
 10
-62.641737
 20
81.477688
 30
0.0
 11
-62.641737
 21
81.848051
 31
0.0
  0
LINE
  5
5E8
100
AcDbEntity
  8
LAYER7$C$L7$V_TOP
100
AcDbLine
 10
-62.641737
 20
82.31312
 30
0.0
 11
-62.641737
 21
87.649234
 31
0.0
  0
LINE
  5
5E9
100
AcDbEntity
  8
LAYER7$C$L7$V_TOP
100
AcDbLine
 10
-62.641737
 20
88.248379
 30
0.0
 11
-62.641737
 21
88.637042
 31
0.0
  0
LINE
  5
5EA
100
AcDbEntity
  8
LAYER7$C$L7$V_TOP
100
AcDbLine
 10
-62.879624
 20
81.41262
 30
0.0
 11
-62.879624
 21
81.77447
 31
0.0
  0
LINE
  5
5EB
100
AcDbEntity
  8
LAYER7$C$L7$V_TOP
100
AcDbLine
 10
-62.879624
 20
82.225371
 30
0.0
 11
-62.879624
 21
87.742884
 31
0.0
  0
LINE
  5
5EC
100
AcDbEntity
  8
LAYER7$C$L7$V_TOP
100
AcDbLine
 10
-62.879624
 20
88.32196
 30
0.0
 11
-62.879624
 21
88.70211
 31
0.0
  0
LINE
  5
5ED
100
AcDbEntity
  8
LAYER7$C$L7$V_TOP
100
AcDbLine
 10
-63.117511
 20
81.363942
 30
0.0
 11
-63.117511
 21
81.71944
 31
0.0
  0
LINE
  5
5EE
100
AcDbEntity
  8
LAYER7$C$L7$V_TOP
100
AcDbLine
 10
-63.117511
 20
82.156789
 30
0.0
 11
-63.117511
 21
87.817386
 31
0.0
  0
LINE
  5
5EF
100
AcDbEntity
  8
LAYER7$C$L7$V_TOP
100
AcDbLine
 10
-63.117511
 20
88.37699
 30
0.0
 11
-63.117511
 21
88.750788
 31
0.0
  0
LINE
  5
5F0
100
AcDbEntity
  8
LAYER7$C$L7$V_TOP
100
AcDbLine
 10
-63.355398
 20
81.330957
 30
0.0
 11
-63.355398
 21
81.682023
 31
0.0
  0
LINE
  5
5F1
100
AcDbEntity
  8
LAYER7$C$L7$V_TOP
100
AcDbLine
 10
-63.355398
 20
84.729212
 30
0.0
 11
-63.355398
 21
85.251042
 31
0.0
  0
LINE
  5
5F2
100
AcDbEntity
  8
LAYER7$C$L7$V_TOP
100
AcDbLine
 10
-63.355398
 20
86.758712
 30
0.0
 11
-63.355398
 21
87.396543
 31
0.0
  0
LINE
  5
5F3
100
AcDbEntity
  8
LAYER7$C$L7$V_TOP
100
AcDbLine
 10
-63.355398
 20
88.414407
 30
0.0
 11
-63.355398
 21
88.783773
 31
0.0
  0
LINE
  5
5F4
100
AcDbEntity
  8
LAYER7$C$L7$V_TOP
100
AcDbLine
 10
-63.593285
 20
81.313212
 30
0.0
 11
-63.593285
 21
81.661614
 31
0.0
  0
LINE
  5
5F5
100
AcDbEntity
  8
LAYER7$C$L7$V_TOP
100
AcDbLine
 10
-63.593285
 20
83.260306
 30
0.0
 11
-63.593285
 21
83.78222
 31
0.0
  0
LINE
  5
5F6
100
AcDbEntity
  8
LAYER7$C$L7$V_TOP
100
AcDbLine
 10
-63.593285
 20
84.729212
 30
0.0
 11
-63.593285
 21
85.251042
 31
0.0
  0
LINE
  5
5F7
100
AcDbEntity
  8
LAYER7$C$L7$V_TOP
100
AcDbLine
 10
-63.593285
 20
86.758712
 30
0.0
 11
-63.593285
 21
87.396543
 31
0.0
  0
LINE
  5
5F8
100
AcDbEntity
  8
LAYER7$C$L7$V_TOP
100
AcDbLine
 10
-63.593285
 20
88.434816
 30
0.0
 11
-63.593285
 21
88.801518
 31
0.0
  0
LINE
  5
5F9
100
AcDbEntity
  8
LAYER7$C$L7$V_TOP
100
AcDbLine
 10
-63.831173
 20
81.310473
 30
0.0
 11
-63.831173
 21
81.6579
 31
0.0
  0
LINE
  5
5FA
100
AcDbEntity
  8
LAYER7$C$L7$V_TOP
100
AcDbLine
 10
-63.831173
 20
83.260306
 30
0.0
 11
-63.831173
 21
87.396543
 31
0.0
  0
LINE
  5
5FB
100
AcDbEntity
  8
LAYER7$C$L7$V_TOP
100
AcDbLine
 10
-63.831173
 20
88.43853
 30
0.0
 11
-63.831173
 21
88.804257
 31
0.0
  0
LINE
  5
5FC
100
AcDbEntity
  8
LAYER7$C$L7$V_TOP
100
AcDbLine
 10
-64.06906
 20
81.322715
 30
0.0
 11
-64.06906
 21
81.670838
 31
0.0
  0
LINE
  5
5FD
100
AcDbEntity
  8
LAYER7$C$L7$V_TOP
100
AcDbLine
 10
-64.06906
 20
83.260306
 30
0.0
 11
-64.06906
 21
87.396543
 31
0.0
  0
LINE
  5
5FE
100
AcDbEntity
  8
LAYER7$C$L7$V_TOP
100
AcDbLine
 10
-64.06906
 20
88.425592
 30
0.0
 11
-64.06906
 21
88.792015
 31
0.0
  0
LINE
  5
5FF
100
AcDbEntity
  8
LAYER7$C$L7$V_TOP
100
AcDbLine
 10
-64.306947
 20
81.350115
 30
0.0
 11
-64.306947
 21
81.700657
 31
0.0
  0
LINE
  5
600
100
AcDbEntity
  8
LAYER7$C$L7$V_TOP
100
AcDbLine
 10
-64.306947
 20
83.260306
 30
0.0
 11
-64.306947
 21
83.78222
 31
0.0
  0
LINE
  5
601
100
AcDbEntity
  8
LAYER7$C$L7$V_TOP
100
AcDbLine
 10
-64.306947
 20
84.729212
 30
0.0
 11
-64.306947
 21
85.251042
 31
0.0
  0
LINE
  5
602
100
AcDbEntity
  8
LAYER7$C$L7$V_TOP
100
AcDbLine
 10
-64.306947
 20
86.758712
 30
0.0
 11
-64.306947
 21
87.396543
 31
0.0
  0
LINE
  5
603
100
AcDbEntity
  8
LAYER7$C$L7$V_TOP
100
AcDbLine
 10
-64.306947
 20
88.395774
 30
0.0
 11
-64.306947
 21
88.764615
 31
0.0
  0
LINE
  5
604
100
AcDbEntity
  8
LAYER7$C$L7$V_TOP
100
AcDbLine
 10
-64.544834
 20
81.393068
 30
0.0
 11
-64.544834
 21
81.74787
 31
0.0
  0
LINE
  5
605
100
AcDbEntity
  8
LAYER7$C$L7$V_TOP
100
AcDbLine
 10
-64.544834
 20
84.729212
 30
0.0
 11
-64.544834
 21
85.251042
 31
0.0
  0
LINE
  5
606
100
AcDbEntity
  8
LAYER7$C$L7$V_TOP
100
AcDbLine
 10
-64.544834
 20
86.758712
 30
0.0
 11
-64.544834
 21
87.396543
 31
0.0
  0
LINE
  5
607
100
AcDbEntity
  8
LAYER7$C$L7$V_TOP
100
AcDbLine
 10
-64.544834
 20
88.34856
 30
0.0
 11
-64.544834
 21
88.721662
 31
0.0
  0
LINE
  5
608
100
AcDbEntity
  8
LAYER7$C$L7$V_TOP
100
AcDbLine
 10
-64.782721
 20
81.452379
 30
0.0
 11
-64.782721
 21
81.813315
 31
0.0
  0
LINE
  5
609
100
AcDbEntity
  8
LAYER7$C$L7$V_TOP
100
AcDbLine
 10
-64.782721
 20
82.267627
 30
0.0
 11
-64.782721
 21
83.027668
 31
0.0
  0
LINE
  5
60A
100
AcDbEntity
  8
LAYER7$C$L7$V_TOP
100
AcDbLine
 10
-64.782721
 20
84.729212
 30
0.0
 11
-64.782721
 21
85.251042
 31
0.0
  0
LINE
  5
60B
100
AcDbEntity
  8
LAYER7$C$L7$V_TOP
100
AcDbLine
 10
-64.782721
 20
86.758712
 30
0.0
 11
-64.782721
 21
87.396543
 31
0.0
  0
LINE
  5
60C
100
AcDbEntity
  8
LAYER7$C$L7$V_TOP
100
AcDbLine
 10
-64.782721
 20
88.283115
 30
0.0
 11
-64.782721
 21
88.66235
 31
0.0
  0
LINE
  5
60D
100
AcDbEntity
  8
LAYER7$C$L7$V_TOP
100
AcDbLine
 10
-65.020608
 20
81.529502
 30
0.0
 11
-65.020608
 21
81.898212
 31
0.0
  0
LINE
  5
60E
100
AcDbEntity
  8
LAYER7$C$L7$V_TOP
100
AcDbLine
 10
-65.020608
 20
82.365028
 30
0.0
 11
-65.020608
 21
87.603239
 31
0.0
  0
LINE
  5
60F
100
AcDbEntity
  8
LAYER7$C$L7$V_TOP
100
AcDbLine
 10
-65.020608
 20
88.198219
 30
0.0
 11
-65.020608
 21
88.585228
 31
0.0
  0
LINE
  5
610
100
AcDbEntity
  8
LAYER7$C$L7$V_TOP
100
AcDbLine
 10
-65.258495
 20
81.624563
 30
0.0
 11
-65.258495
 21
82.00426
 31
0.0
  0
LINE
  5
611
100
AcDbEntity
  8
LAYER7$C$L7$V_TOP
100
AcDbLine
 10
-65.258495
 20
82.496654
 30
0.0
 11
-65.258495
 21
87.467079
 31
0.0
  0
LINE
  5
612
100
AcDbEntity
  8
LAYER7$C$L7$V_TOP
100
AcDbLine
 10
-65.258495
 20
88.09217
 30
0.0
 11
-65.258495
 21
88.490167
 31
0.0
  0
LINE
  5
613
100
AcDbEntity
  8
LAYER7$C$L7$V_TOP
100
AcDbLine
 10
-65.496382
 20
81.739076
 30
0.0
 11
-65.496382
 21
82.133787
 31
0.0
  0
LINE
  5
614
100
AcDbEntity
  8
LAYER7$C$L7$V_TOP
100
AcDbLine
 10
-65.496382
 20
84.729212
 30
0.0
 11
-65.496382
 21
85.251042
 31
0.0
  0
LINE
  5
615
100
AcDbEntity
  8
LAYER7$C$L7$V_TOP
100
AcDbLine
 10
-65.496382
 20
87.962643
 30
0.0
 11
-65.496382
 21
88.375654
 31
0.0
  0
LINE
  5
616
100
AcDbEntity
  8
LAYER7$C$L7$V_TOP
100
AcDbLine
 10
-65.73427
 20
81.875038
 30
0.0
 11
-65.73427
 21
82.289965
 31
0.0
  0
LINE
  5
617
100
AcDbEntity
  8
LAYER7$C$L7$V_TOP
100
AcDbLine
 10
-65.73427
 20
84.729212
 30
0.0
 11
-65.73427
 21
85.251042
 31
0.0
  0
LINE
  5
618
100
AcDbEntity
  8
LAYER7$C$L7$V_TOP
100
AcDbLine
 10
-65.73427
 20
87.806465
 30
0.0
 11
-65.73427
 21
88.239692
 31
0.0
  0
LINE
  5
619
100
AcDbEntity
  8
LAYER7$C$L7$V_TOP
100
AcDbLine
 10
-65.972157
 20
82.036872
 30
0.0
 11
-65.972157
 21
82.477156
 31
0.0
  0
LINE
  5
61A
100
AcDbEntity
  8
LAYER7$C$L7$V_TOP
100
AcDbLine
 10
-65.972157
 20
84.729212
 30
0.0
 11
-65.972157
 21
85.251042
 31
0.0
  0
LINE
  5
61B
100
AcDbEntity
  8
LAYER7$C$L7$V_TOP
100
AcDbLine
 10
-65.972157
 20
87.619274
 30
0.0
 11
-65.972157
 21
88.077858
 31
0.0
  0
LINE
  5
61C
100
AcDbEntity
  8
LAYER7$C$L7$V_TOP
100
AcDbLine
 10
-66.210044
 20
82.22849
 30
0.0
 11
-66.210044
 21
82.701453
 31
0.0
  0
LINE
  5
61D
100
AcDbEntity
  8
LAYER7$C$L7$V_TOP
100
AcDbLine
 10
-66.210044
 20
84.61325
 30
0.0
 11
-66.210044
 21
85.347845
 31
0.0
  0
LINE
  5
61E
100
AcDbEntity
  8
LAYER7$C$L7$V_TOP
100
AcDbLine
 10
-66.210044
 20
87.394978
 30
0.0
 11
-66.210044
 21
87.88624
 31
0.0
  0
LINE
  5
61F
100
AcDbEntity
  8
LAYER7$C$L7$V_TOP
100
AcDbLine
 10
-66.447931
 20
82.455082
 30
0.0
 11
-66.447931
 21
82.978005
 31
0.0
  0
LINE
  5
620
100
AcDbEntity
  8
LAYER7$C$L7$V_TOP
100
AcDbLine
 10
-66.447931
 20
84.61325
 30
0.0
 11
-66.447931
 21
85.347845
 31
0.0
  0
LINE
  5
621
100
AcDbEntity
  8
LAYER7$C$L7$V_TOP
100
AcDbLine
 10
-66.447931
 20
87.118426
 30
0.0
 11
-66.447931
 21
87.659648
 31
0.0
  0
LINE
  5
622
100
AcDbEntity
  8
LAYER7$C$L7$V_TOP
100
AcDbLine
 10
-66.685818
 20
82.724515
 30
0.0
 11
-66.685818
 21
83.328857
 31
0.0
  0
LINE
  5
623
100
AcDbEntity
  8
LAYER7$C$L7$V_TOP
100
AcDbLine
 10
-66.685818
 20
84.61325
 30
0.0
 11
-66.685818
 21
85.347845
 31
0.0
  0
LINE
  5
624
100
AcDbEntity
  8
LAYER7$C$L7$V_TOP
100
AcDbLine
 10
-66.685818
 20
86.767573
 30
0.0
 11
-66.685818
 21
87.390215
 31
0.0
  0
LINE
  5
625
100
AcDbEntity
  8
LAYER7$C$L7$V_TOP
100
AcDbLine
 10
-66.923705
 20
83.062425
 30
0.0
 11
-66.923705
 21
83.818566
 31
0.0
  0
LINE
  5
626
100
AcDbEntity
  8
LAYER7$C$L7$V_TOP
100
AcDbLine
 10
-66.923705
 20
87.052305
 30
0.0
 11
-66.923705
 21
86.277864
 31
0.0
  0
LINE
  5
627
100
AcDbEntity
  8
LAYER7$C$L7$V_TOP
100
AcDbLine
 10
-67.161592
 20
83.503383
 30
0.0
 11
-67.161592
 21
86.611347
 31
0.0
  0
LINE
  5
628
100
AcDbEntity
  8
LAYER7$C$L7$V_TOP
100
AcDbLine
 10
-67.399479
 20
85.918642
 30
0.0
 11
-67.399479
 21
84.196088
 31
0.0
  0
ENDBLK
  5
62A
100
AcDbEntity
  8
LAYER7$C$L7$V_TOP
100
AcDbBlockEnd
  0
BLOCK
  5
C62
100
AcDbEntity
  8
0
100
AcDbBlockBegin
  2
*D15
 70
     1
 10
0.0
 20
0.0
 30
0.0
  3
*D15
  1

  0
LINE
  5
C63
100
AcDbEntity
  8
0
  6
BYBLOCK
 62
     0
100
AcDbLine
 10
48.980486
 20
121.495536
 30
0.0
 11
48.980486
 21
109.828036
 31
0.0
  0
LINE
  5
C64
100
AcDbEntity
  8
0
  6
BYBLOCK
 62
     0
100
AcDbLine
 10
26.980486
 20
122.495536
 30
0.0
 11
26.980486
 21
109.828036
 31
0.0
  0
LINE
  5
C65
100
AcDbEntity
  8
0
  6
BYBLOCK
 62
     0
100
AcDbLine
 10
45.980486
 20
110.008036
 30
0.0
 11
29.980486
 21
110.008036
 31
0.0
  0
SOLID
  5
C66
100
AcDbEntity
  8
0
  6
BYBLOCK
 62
     0
100
AcDbTrace
 10
45.980486
 20
110.508036
 30
0.0
 11
45.980486
 21
109.508036
 31
0.0
 12
48.980486
 22
110.008036
 32
0.0
 13
48.980486
 23
110.008036
 33
0.0
  0
SOLID
  5
C67
100
AcDbEntity
  8
0
  6
BYBLOCK
 62
     0
100
AcDbTrace
 10
29.980486
 20
110.508036
 30
0.0
 11
29.980486
 21
109.508036
 31
0.0
 12
26.980486
 22
110.008036
 32
0.0
 13
26.980486
 23
110.008036
 33
0.0
  0
MTEXT
  5
C68
100
AcDbEntity
  8
0
  6
BYBLOCK
 62
     0
100
AcDbMText
 10
37.980486
 20
112.258036
 30
0.0
 40
2.5
 41
0.0
 71
     5
 72
     1
  1
\A1;22
  0
POINT
  5
C69
100
AcDbEntity
  8
DEFPOINTS
  6
BYBLOCK
 62
     0
100
AcDbPoint
 10
48.980486
 20
121.558036
 30
0.0
  0
POINT
  5
C6A
100
AcDbEntity
  8
DEFPOINTS
  6
BYBLOCK
 62
     0
100
AcDbPoint
 10
26.980486
 20
122.558036
 30
0.0
  0
POINT
  5
C6B
100
AcDbEntity
  8
DEFPOINTS
  6
BYBLOCK
 62
     0
100
AcDbPoint
 10
26.980486
 20
110.008036
 30
0.0
  0
ENDBLK
  5
C6C
100
AcDbEntity
  8
0
100
AcDbBlockEnd
  0
BLOCK
  5
C55
100
AcDbEntity
  8
0
100
AcDbBlockBegin
  2
*D16
 70
     1
 10
0.0
 20
0.0
 30
0.0
  3
*D16
  1

  0
LINE
  5
C56
100
AcDbEntity
  8
0
  6
BYBLOCK
 62
     0
100
AcDbLine
 10
18.980486
 20
124.895536
 30
0.0
 11
18.980486
 21
109.828036
 31
0.0
  0
LINE
  5
C57
100
AcDbEntity
  8
0
  6
BYBLOCK
 62
     0
100
AcDbLine
 10
26.980486
 20
122.495536
 30
0.0
 11
26.980486
 21
109.828036
 31
0.0
  0
LINE
  5
C58
100
AcDbEntity
  8
0
  6
BYBLOCK
 62
     0
100
AcDbLine
 10
15.980486
 20
110.008036
 30
0.0
 11
12.980486
 21
110.008036
 31
0.0
  0
LINE
  5
C59
100
AcDbEntity
  8
0
  6
BYBLOCK
 62
     0
100
AcDbLine
 10
29.980486
 20
110.008036
 30
0.0
 11
32.980486
 21
110.008036
 31
0.0
  0
LINE
  5
C5A
100
AcDbEntity
  8
0
  6
BYBLOCK
 62
     0
100
AcDbLine
 10
18.980486
 20
110.008036
 30
0.0
 11
26.980486
 21
110.008036
 31
0.0
  0
SOLID
  5
C5B
100
AcDbEntity
  8
0
  6
BYBLOCK
 62
     0
100
AcDbTrace
 10
15.980486
 20
110.508036
 30
0.0
 11
15.980486
 21
109.508036
 31
0.0
 12
18.980486
 22
110.008036
 32
0.0
 13
18.980486
 23
110.008036
 33
0.0
  0
SOLID
  5
C5C
100
AcDbEntity
  8
0
  6
BYBLOCK
 62
     0
100
AcDbTrace
 10
29.980486
 20
110.508036
 30
0.0
 11
29.980486
 21
109.508036
 31
0.0
 12
26.980486
 22
110.008036
 32
0.0
 13
26.980486
 23
110.008036
 33
0.0
  0
MTEXT
  5
C5D
100
AcDbEntity
  8
0
  6
BYBLOCK
 62
     0
100
AcDbMText
 10
22.980486
 20
112.258036
 30
0.0
 40
2.5
 41
0.0
 71
     5
 72
     1
  1
\A1;8
  0
POINT
  5
C5E
100
AcDbEntity
  8
DEFPOINTS
  6
BYBLOCK
 62
     0
100
AcDbPoint
 10
18.980486
 20
124.958036
 30
0.0
  0
POINT
  5
C5F
100
AcDbEntity
  8
DEFPOINTS
  6
BYBLOCK
 62
     0
100
AcDbPoint
 10
26.980486
 20
122.558036
 30
0.0
  0
POINT
  5
C60
100
AcDbEntity
  8
DEFPOINTS
  6
BYBLOCK
 62
     0
100
AcDbPoint
 10
26.980486
 20
110.008036
 30
0.0
  0
ENDBLK
  5
C61
100
AcDbEntity
  8
0
100
AcDbBlockEnd
  0
BLOCK
  5
C2D
100
AcDbEntity
  8
0
100
AcDbBlockBegin
  2
*D17
 70
     1
 10
0.0
 20
0.0
 30
0.0
  3
*D17
  1

  0
LINE
  5
C2E
100
AcDbEntity
  8
0
  6
BYBLOCK
 62
     0
100
AcDbLine
 10
25.980486
 20
124.395536
 30
0.0
 11
25.980486
 21
114.828036
 31
0.0
  0
LINE
  5
C2F
100
AcDbEntity
  8
0
  6
BYBLOCK
 62
     0
100
AcDbLine
 10
26.980486
 20
122.495536
 30
0.0
 11
26.980486
 21
114.828036
 31
0.0
  0
LINE
  5
C30
100
AcDbEntity
  8
0
  6
BYBLOCK
 62
     0
100
AcDbLine
 10
22.980486
 20
115.008036
 30
0.0
 11
19.980486
 21
115.008036
 31
0.0
  0
LINE
  5
C31
100
AcDbEntity
  8
0
  6
BYBLOCK
 62
     0
100
AcDbLine
 10
29.980486
 20
115.008036
 30
0.0
 11
32.980486
 21
115.008036
 31
0.0
  0
MTEXT
  5
C32
100
AcDbEntity
  8
0
  6
BYBLOCK
 62
     0
100
AcDbMText
 10
21.263145
 20
116.934759
 30
0.0
 40
2.5
 41
0.0
 71
     5
 72
     1
  1
\A1;1
  0
LINE
  5
C33
100
AcDbEntity
  8
0
  6
BYBLOCK
 62
     0
100
AcDbLine
 10
25.980486
 20
115.008036
 30
0.0
 11
26.980486
 21
115.008036
 31
0.0
  0
LINE
  5
C34
100
AcDbEntity
  8
0
  6
BYBLOCK
 62
     0
100
AcDbLine
 10
25.980486
 20
115.008036
 30
0.0
 11
26.980486
 21
115.008036
 31
0.0
  0
SOLID
  5
C35
100
AcDbEntity
  8
0
  6
BYBLOCK
 62
     0
100
AcDbTrace
 10
22.980486
 20
115.508036
 30
0.0
 11
22.980486
 21
114.508036
 31
0.0
 12
25.980486
 22
115.008036
 32
0.0
 13
25.980486
 23
115.008036
 33
0.0
  0
SOLID
  5
C36
100
AcDbEntity
  8
0
  6
BYBLOCK
 62
     0
100
AcDbTrace
 10
29.980486
 20
115.508036
 30
0.0
 11
29.980486
 21
114.508036
 31
0.0
 12
26.980486
 22
115.008036
 32
0.0
 13
26.980486
 23
115.008036
 33
0.0
  0
POINT
  5
C37
100
AcDbEntity
  8
DEFPOINTS
  6
BYBLOCK
 62
     0
100
AcDbPoint
 10
25.980486
 20
124.458036
 30
0.0
  0
POINT
  5
C38
100
AcDbEntity
  8
DEFPOINTS
  6
BYBLOCK
 62
     0
100
AcDbPoint
 10
26.980486
 20
122.558036
 30
0.0
  0
POINT
  5
C39
100
AcDbEntity
  8
DEFPOINTS
  6
BYBLOCK
 62
     0
100
AcDbPoint
 10
26.980486
 20
115.008036
 30
0.0
  0
ENDBLK
  5
C3A
100
AcDbEntity
  8
0
100
AcDbBlockEnd
  0
BLOCK
  5
C3B
100
AcDbEntity
  8
0
100
AcDbBlockBegin
  2
*D18
 70
     1
 10
0.0
 20
0.0
 30
0.0
  3
*D18
  1

  0
LINE
  5
C3C
100
AcDbEntity
  8
0
  6
BYBLOCK
 62
     0
100
AcDbLine
 10
17.833006
 20
134.958021
 30
0.0
 11
12.800486
 21
134.958021
 31
0.0
  0
LINE
  5
C3D
100
AcDbEntity
  8
0
  6
BYBLOCK
 62
     0
100
AcDbLine
 10
15.917986
 20
129.958036
 30
0.0
 11
12.800486
 21
129.958036
 31
0.0
  0
LINE
  5
C3E
100
AcDbEntity
  8
0
  6
BYBLOCK
 62
     0
100
AcDbLine
 10
12.980486
 20
137.958021
 30
0.0
 11
12.980486
 21
140.958021
 31
0.0
  0
LINE
  5
C3F
100
AcDbEntity
  8
0
  6
BYBLOCK
 62
     0
100
AcDbLine
 10
12.980486
 20
126.958036
 30
0.0
 11
12.980486
 21
123.958036
 31
0.0
  0
LINE
  5
C40
100
AcDbEntity
  8
0
  6
BYBLOCK
 62
     0
100
AcDbLine
 10
12.980486
 20
134.958021
 30
0.0
 11
12.980486
 21
129.958036
 31
0.0
  0
SOLID
  5
C41
100
AcDbEntity
  8
0
  6
BYBLOCK
 62
     0
100
AcDbTrace
 10
12.480486
 20
137.958021
 30
0.0
 11
13.480486
 21
137.958021
 31
0.0
 12
12.980486
 22
134.958021
 32
0.0
 13
12.980486
 23
134.958021
 33
0.0
  0
SOLID
  5
C42
100
AcDbEntity
  8
0
  6
BYBLOCK
 62
     0
100
AcDbTrace
 10
12.480486
 20
126.958036
 30
0.0
 11
13.480486
 21
126.958036
 31
0.0
 12
12.980486
 22
129.958036
 32
0.0
 13
12.980486
 23
129.958036
 33
0.0
  0
MTEXT
  5
C43
100
AcDbEntity
  8
0
  6
BYBLOCK
 62
     0
100
AcDbMText
 10
10.730486
 20
132.458028
 30
0.0
 40
2.5
 41
0.0
 71
     5
 72
     1
  1
\A1;5
 11
0.0
 21
1.0
 31
0.0
  0
POINT
  5
C44
100
AcDbEntity
  8
DEFPOINTS
  6
BYBLOCK
 62
     0
100
AcDbPoint
 10
17.895506
 20
134.958021
 30
0.0
  0
POINT
  5
C45
100
AcDbEntity
  8
DEFPOINTS
  6
BYBLOCK
 62
     0
100
AcDbPoint
 10
15.980486
 20
129.958036
 30
0.0
  0
POINT
  5
C46
100
AcDbEntity
  8
DEFPOINTS
  6
BYBLOCK
 62
     0
100
AcDbPoint
 10
12.980486
 20
129.958036
 30
0.0
  0
ENDBLK
  5
C47
100
AcDbEntity
  8
0
100
AcDbBlockEnd
  0
BLOCK
  5
C48
100
AcDbEntity
  8
0
100
AcDbBlockBegin
  2
*D19
 70
     1
 10
0.0
 20
0.0
 30
0.0
  3
*D19
  1

  0
LINE
  5
C49
100
AcDbEntity
  8
0
  6
BYBLOCK
 62
     0
100
AcDbLine
 10
15.917986
 20
129.958036
 30
0.0
 11
12.800486
 21
129.958036
 31
0.0
  0
LINE
  5
C4A
100
AcDbEntity
  8
0
  6
BYBLOCK
 62
     0
100
AcDbLine
 10
17.917986
 20
124.958036
 30
0.0
 11
12.800486
 21
124.958036
 31
0.0
  0
LINE
  5
C4B
100
AcDbEntity
  8
0
  6
BYBLOCK
 62
     0
100
AcDbLine
 10
12.980486
 20
132.958036
 30
0.0
 11
12.980486
 21
135.958036
 31
0.0
  0
LINE
  5
C4C
100
AcDbEntity
  8
0
  6
BYBLOCK
 62
     0
100
AcDbLine
 10
12.980486
 20
121.958036
 30
0.0
 11
12.980486
 21
118.958036
 31
0.0
  0
LINE
  5
C4D
100
AcDbEntity
  8
0
  6
BYBLOCK
 62
     0
100
AcDbLine
 10
12.980486
 20
129.958036
 30
0.0
 11
12.980486
 21
124.958036
 31
0.0
  0
SOLID
  5
C4E
100
AcDbEntity
  8
0
  6
BYBLOCK
 62
     0
100
AcDbTrace
 10
12.480486
 20
132.958036
 30
0.0
 11
13.480486
 21
132.958036
 31
0.0
 12
12.980486
 22
129.958036
 32
0.0
 13
12.980486
 23
129.958036
 33
0.0
  0
SOLID
  5
C4F
100
AcDbEntity
  8
0
  6
BYBLOCK
 62
     0
100
AcDbTrace
 10
12.480486
 20
121.958036
 30
0.0
 11
13.480486
 21
121.958036
 31
0.0
 12
12.980486
 22
124.958036
 32
0.0
 13
12.980486
 23
124.958036
 33
0.0
  0
MTEXT
  5
C50
100
AcDbEntity
  8
0
  6
BYBLOCK
 62
     0
100
AcDbMText
 10
10.730486
 20
127.458036
 30
0.0
 40
2.5
 41
0.0
 71
     5
 72
     1
  1
\A1;5
 11
0.0
 21
1.0
 31
0.0
  0
POINT
  5
C51
100
AcDbEntity
  8
DEFPOINTS
  6
BYBLOCK
 62
     0
100
AcDbPoint
 10
15.980486
 20
129.958036
 30
0.0
  0
POINT
  5
C52
100
AcDbEntity
  8
DEFPOINTS
  6
BYBLOCK
 62
     0
100
AcDbPoint
 10
17.980486
 20
124.958036
 30
0.0
  0
POINT
  5
C53
100
AcDbEntity
  8
DEFPOINTS
  6
BYBLOCK
 62
     0
100
AcDbPoint
 10
12.980486
 20
124.958036
 30
0.0
  0
ENDBLK
  5
C54
100
AcDbEntity
  8
0
100
AcDbBlockEnd
  0
BLOCK
  5
C78
100
AcDbEntity
  8
0
100
AcDbBlockBegin
  2
*D20
 70
     1
 10
0.0
 20
0.0
 30
0.0
  3
*D20
  1

  0
LINE
  5
C79
100
AcDbEntity
  8
0
  6
BYBLOCK
 62
     0
100
AcDbLine
 10
74.980486
 20
129.895536
 30
0.0
 11
74.980486
 21
109.828036
 31
0.0
  0
LINE
  5
C7A
100
AcDbEntity
  8
0
  6
BYBLOCK
 62
     0
100
AcDbLine
 10
48.980486
 20
121.195539
 30
0.0
 11
48.980486
 21
109.828036
 31
0.0
  0
LINE
  5
C7B
100
AcDbEntity
  8
0
  6
BYBLOCK
 62
     0
100
AcDbLine
 10
71.980486
 20
110.008036
 30
0.0
 11
51.980486
 21
110.008036
 31
0.0
  0
SOLID
  5
C7C
100
AcDbEntity
  8
0
  6
BYBLOCK
 62
     0
100
AcDbTrace
 10
71.980486
 20
110.508036
 30
0.0
 11
71.980486
 21
109.508036
 31
0.0
 12
74.980486
 22
110.008036
 32
0.0
 13
74.980486
 23
110.008036
 33
0.0
  0
SOLID
  5
C7D
100
AcDbEntity
  8
0
  6
BYBLOCK
 62
     0
100
AcDbTrace
 10
51.980486
 20
110.508036
 30
0.0
 11
51.980486
 21
109.508036
 31
0.0
 12
48.980486
 22
110.008036
 32
0.0
 13
48.980486
 23
110.008036
 33
0.0
  0
MTEXT
  5
C7E
100
AcDbEntity
  8
0
  6
BYBLOCK
 62
     0
100
AcDbMText
 10
61.980486
 20
112.258036
 30
0.0
 40
2.5
 41
0.0
 71
     5
 72
     1
  1
\A1;26
  0
POINT
  5
C7F
100
AcDbEntity
  8
DEFPOINTS
  6
BYBLOCK
 62
     0
100
AcDbPoint
 10
74.980486
 20
129.958036
 30
0.0
  0
POINT
  5
C80
100
AcDbEntity
  8
DEFPOINTS
  6
BYBLOCK
 62
     0
100
AcDbPoint
 10
48.980486
 20
121.258039
 30
0.0
  0
POINT
  5
C81
100
AcDbEntity
  8
DEFPOINTS
  6
BYBLOCK
 62
     0
100
AcDbPoint
 10
48.980486
 20
110.008036
 30
0.0
  0
ENDBLK
  5
C82
100
AcDbEntity
  8
0
100
AcDbBlockEnd
  0
BLOCK
  5
C6D
100
AcDbEntity
  8
0
100
AcDbBlockBegin
  2
*D21
 70
     1
 10
0.0
 20
0.0
 30
0.0
  3
*D21
  1

  0
LINE
  5
C6E
100
AcDbEntity
  8
0
  6
BYBLOCK
 62
     0
100
AcDbLine
 10
48.980486
 20
121.195539
 30
0.0
 11
48.980486
 21
114.828036
 31
0.0
  0
LINE
  5
C6F
100
AcDbEntity
  8
0
  6
BYBLOCK
 62
     0
100
AcDbLine
 10
58.580486
 20
121.34137
 30
0.0
 11
58.580486
 21
114.828036
 31
0.0
  0
LINE
  5
C70
100
AcDbEntity
  8
0
  6
BYBLOCK
 62
     0
100
AcDbLine
 10
51.980486
 20
115.008036
 30
0.0
 11
55.580486
 21
115.008036
 31
0.0
  0
SOLID
  5
C71
100
AcDbEntity
  8
0
  6
BYBLOCK
 62
     0
100
AcDbTrace
 10
51.980486
 20
115.508036
 30
0.0
 11
51.980486
 21
114.508036
 31
0.0
 12
48.980486
 22
115.008036
 32
0.0
 13
48.980486
 23
115.008036
 33
0.0
  0
SOLID
  5
C72
100
AcDbEntity
  8
0
  6
BYBLOCK
 62
     0
100
AcDbTrace
 10
55.580486
 20
115.508036
 30
0.0
 11
55.580486
 21
114.508036
 31
0.0
 12
58.580486
 22
115.008036
 32
0.0
 13
58.580486
 23
115.008036
 33
0.0
  0
MTEXT
  5
C73
100
AcDbEntity
  8
0
  6
BYBLOCK
 62
     0
100
AcDbMText
 10
53.780486
 20
117.258036
 30
0.0
 40
2.5
 41
0.0
 71
     5
 72
     1
  1
\A1;9.6
  0
POINT
  5
C74
100
AcDbEntity
  8
DEFPOINTS
  6
BYBLOCK
 62
     0
100
AcDbPoint
 10
48.980486
 20
121.258039
 30
0.0
  0
POINT
  5
C75
100
AcDbEntity
  8
DEFPOINTS
  6
BYBLOCK
 62
     0
100
AcDbPoint
 10
58.580486
 20
121.40387
 30
0.0
  0
POINT
  5
C76
100
AcDbEntity
  8
DEFPOINTS
  6
BYBLOCK
 62
     0
100
AcDbPoint
 10
58.580486
 20
115.008036
 30
0.0
  0
ENDBLK
  5
C77
100
AcDbEntity
  8
0
100
AcDbBlockEnd
  0
ENDSEC
  0
SECTION
  2
ENTITIES
  0
INSERT
  5
CC
100
AcDbEntity
  8
0
100
AcDbBlockReference
  2
SCH_IS
 10
-68.718396
 20
-140.042541
 30
0.0
  0
INSERT
  5
EC
100
AcDbEntity
  8
COTATION1
100
AcDbBlockReference
  2
SCH_IS
 10
0.0
 20
0.0
 30
0.0
  0
LINE
  5
8D1
100
AcDbEntity
  8
ALPHA
 62
   211
100
AcDbLine
 10
41.380358
 20
138.858045
 30
0.0
 11
45.18033
 21
138.858045
 31
0.0
  0
LINE
  5
8D2
100
AcDbEntity
  8
ALPHA
 62
   211
100
AcDbLine
 10
45.180315
 20
121.058057
 30
0.0
 11
41.380343
 21
121.058057
 31
0.0
  0
LINE
  5
8D3
100
AcDbEntity
  8
ALPHA
 62
   211
100
AcDbLine
 10
45.18033
 20
121.544843
 30
0.0
 11
42.180346
 21
121.544843
 31
0.0
  0
LINE
  5
8D4
100
AcDbEntity
  8
ALPHA
 62
   211
100
AcDbLine
 10
45.18033
 20
121.96797
 30
0.0
 11
42.180346
 21
121.96797
 31
0.0
  0
LINE
  5
8D5
100
AcDbEntity
  8
ALPHA
 62
   211
100
AcDbLine
 10
45.18033
 20
122.56796
 30
0.0
 11
42.180346
 21
122.56796
 31
0.0
  0
LINE
  5
8D6
100
AcDbEntity
  8
ALPHA
 62
   211
100
AcDbLine
 10
45.18033
 20
123.25485
 30
0.0
 11
42.180346
 21
123.25485
 31
0.0
  0
LINE
  5
8D7
100
AcDbEntity
  8
ALPHA
 62
   211
100
AcDbLine
 10
45.18033
 20
124.123548
 30
0.0
 11
42.180346
 21
124.123548
 31
0.0
  0
LINE
  5
8D8
100
AcDbEntity
  8
ALPHA
 62
   211
100
AcDbLine
 10
45.18033
 20
124.998563
 30
0.0
 11
42.180346
 21
124.998563
 31
0.0
  0
LINE
  5
8D9
100
AcDbEntity
  8
ALPHA
 62
   211
100
AcDbLine
 10
45.18033
 20
126.037779
 30
0.0
 11
42.180346
 21
126.037779
 31
0.0
  0
LINE
  5
8DA
100
AcDbEntity
  8
ALPHA
 62
   211
100
AcDbLine
 10
45.18033
 20
127.080228
 30
0.0
 11
42.180346
 21
127.080228
 31
0.0
  0
LINE
  5
8DB
100
AcDbEntity
  8
ALPHA
 62
   211
100
AcDbLine
 10
45.18033
 20
128.265592
 30
0.0
 11
42.180346
 21
128.265592
 31
0.0
  0
LINE
  5
8DC
100
AcDbEntity
  8
ALPHA
 62
   211
100
AcDbLine
 10
45.18033
 20
129.358045
 30
0.0
 11
42.180346
 21
129.358045
 31
0.0
  0
LINE
  5
8DD
100
AcDbEntity
  8
ALPHA
 62
   211
100
AcDbLine
 10
42.180346
 20
138.371259
 30
0.0
 11
45.18033
 21
138.371259
 31
0.0
  0
LINE
  5
8DE
100
AcDbEntity
  8
ALPHA
 62
   211
100
AcDbLine
 10
42.180346
 20
137.948133
 30
0.0
 11
45.18033
 21
137.948133
 31
0.0
  0
LINE
  5
8DF
100
AcDbEntity
  8
ALPHA
 62
   211
100
AcDbLine
 10
42.180346
 20
137.348142
 30
0.0
 11
45.18033
 21
137.348142
 31
0.0
  0
LINE
  5
8E0
100
AcDbEntity
  8
ALPHA
 62
   211
100
AcDbLine
 10
42.180346
 20
136.661253
 30
0.0
 11
45.18033
 21
136.661253
 31
0.0
  0
LINE
  5
8E1
100
AcDbEntity
  8
ALPHA
 62
   211
100
AcDbLine
 10
42.180346
 20
135.792555
 30
0.0
 11
45.18033
 21
135.792555
 31
0.0
  0
LINE
  5
8E2
100
AcDbEntity
  8
ALPHA
 62
   211
100
AcDbLine
 10
42.180346
 20
134.917539
 30
0.0
 11
45.18033
 21
134.917539
 31
0.0
  0
LINE
  5
8E3
100
AcDbEntity
  8
ALPHA
 62
   211
100
AcDbLine
 10
42.180346
 20
133.878324
 30
0.0
 11
45.18033
 21
133.878324
 31
0.0
  0
LINE
  5
8E4
100
AcDbEntity
  8
ALPHA
 62
   211
100
AcDbLine
 10
42.180346
 20
132.835874
 30
0.0
 11
45.18033
 21
132.835874
 31
0.0
  0
LINE
  5
8E5
100
AcDbEntity
  8
ALPHA
 62
   211
100
AcDbLine
 10
42.180346
 20
131.65051
 30
0.0
 11
45.18033
 21
131.65051
 31
0.0
  0
LINE
  5
8E6
100
AcDbEntity
  8
ALPHA
 62
   211
100
AcDbLine
 10
42.180346
 20
130.558057
 30
0.0
 11
45.18033
 21
130.558057
 31
0.0
  0
DIMENSION
  5
8E7
100
AcDbEntity
  8
COTATION1
100
AcDbDimension
  2
*D15
 10
26.980486
 20
110.008036
 30
0.0
 11
37.980486
 21
112.258036
 31
0.0
 70
    32
  3
SC_STAND
100
AcDbAlignedDimension
 13
48.980486
 23
121.558036
 33
0.0
 14
26.980486
 24
122.558036
 34
0.0
 50
180.0
100
AcDbRotatedDimension
  0
LINE
  5
8E8
100
AcDbEntity
  8
AXE
  6
CENTERLINE
100
AcDbLine
 10
15.980486
 20
129.958036
 30
0.0
 11
76.231389
 21
129.958036
 31
0.0
  0
LINE
  5
8E9
100
AcDbEntity
  8
ALPHA
 62
   211
100
AcDbLine
 10
40.180361
 20
126.958067
 30
0.0
 11
40.180361
 21
121.578947
 31
0.0
  0
LINE
  5
8EA
100
AcDbEntity
  8
ALPHA
 62
   211
100
AcDbLine
 10
42.180269
 20
121.967878
 30
0.0
 11
42.180269
 21
121.544767
 31
0.0
  0
DIMENSION
  5
8EB
100
AcDbEntity
  8
COTATION1
100
AcDbDimension
  2
*D16
 10
26.980486
 20
110.008036
 30
0.0
 11
22.980486
 21
112.258036
 31
0.0
 70
    32
  3
SC_STAND
100
AcDbAlignedDimension
 13
18.980486
 23
124.958036
 33
0.0
 14
26.980486
 24
122.558036
 34
0.0
100
AcDbRotatedDimension
  0
DIMENSION
  5
8EC
100
AcDbEntity
  8
COTATION1
100
AcDbDimension
  2
*D17
 10
26.980486
 20
115.008036
 30
0.0
 11
21.263145
 21
116.934759
 31
0.0
 70
   160
  3
SC_STAND
100
AcDbAlignedDimension
 13
25.980486
 23
124.458036
 33
0.0
 14
26.980486
 24
122.558036
 34
0.0
100
AcDbRotatedDimension
  0
LINE
  5
8ED
100
AcDbEntity
  8
ALPHA
 62
   211
100
AcDbLine
 10
40.180361
 20
121.578947
 30
0.0
 11
41.380358
 21
121.578947
 31
0.0
  0
LINE
  5
8EE
100
AcDbEntity
  8
ALPHA
 62
   211
100
AcDbLine
 10
41.380324
 20
121.058062
 30
0.0
 11
41.380339
 21
121.578951
 31
0.0
  0
LINE
  5
8EF
100
AcDbEntity
  8
AXE
  6
CENTERLINE
100
AcDbLine
 10
18.081835
 20
124.95799
 30
0.0
 11
23.431978
 21
124.95799
 31
0.0
  0
LINE
  5
8F0
100
AcDbEntity
  8
AXE
  6
CENTERLINE
100
AcDbLine
 10
17.963823
 20
134.957975
 30
0.0
 11
23.431978
 21
134.957975
 31
0.0
  0
DIMENSION
  5
8F1
100
AcDbEntity
  8
COTATION1
100
AcDbDimension
  2
*D18
 10
12.980486
 20
129.958036
 30
0.0
 11
10.730486
 21
132.458028
 31
0.0
 70
    32
  3
SC_STAND
100
AcDbAlignedDimension
 13
17.895506
 23
134.958021
 33
0.0
 14
15.980486
 24
129.958036
 34
0.0
 50
270.0
100
AcDbRotatedDimension
  0
DIMENSION
  5
8F2
100
AcDbEntity
  8
COTATION1
100
AcDbDimension
  2
*D19
 10
12.980486
 20
124.958036
 30
0.0
 11
10.730486
 21
127.458036
 31
0.0
 70
    32
  3
SC_STAND
100
AcDbAlignedDimension
 13
15.980486
 23
129.958036
 33
0.0
 14
17.980486
 24
124.958036
 34
0.0
 50
270.0
100
AcDbRotatedDimension
  0
LINE
  5
8F3
100
AcDbEntity
  8
ALPHA
100
AcDbLine
 10
26.980516
 20
122.558515
 30
0.0
 11
26.980516
 21
137.357816
 31
0.0
  0
LINE
  5
8F4
100
AcDbEntity
  8
ALPHA
100
AcDbLine
 10
36.980501
 20
122.55853
 30
0.0
 11
36.980501
 21
137.357832
 31
0.0
  0
LINE
  5
8F5
100
AcDbEntity
  8
ALPHA
100
AcDbLine
 10
37.380404
 20
133.957914
 30
0.0
 11
37.380404
 21
137.957929
 31
0.0
  0
LINE
  5
8F6
100
AcDbEntity
  8
ALPHA
 62
   211
100
AcDbLine
 10
40.180361
 20
138.337217
 30
0.0
 11
40.180361
 21
132.958051
 31
0.0
  0
LINE
  5
8F7
100
AcDbEntity
  8
ALPHA
100
AcDbLine
 10
25.980562
 20
124.757993
 30
0.0
 11
25.980562
 21
135.357984
 31
0.0
  0
LINE
  5
8F8
100
AcDbEntity
  8
ALPHA
100
AcDbLine
 10
19.483446
 20
136.357984
 30
0.0
 11
19.483446
 21
133.557981
 31
0.0
  0
ARC
  5
8F9
100
AcDbEntity
  8
ALPHA
100
AcDbCircle
 10
21.180513
 20
134.958036
 30
0.0
 40
2.199998
100
AcDbArc
 50
140.478741
 51
219.521132
  0
ARC
  5
8FA
100
AcDbEntity
  8
ALPHA
100
AcDbCircle
 10
21.983446
 20
134.958036
 30
0.0
 40
0.599999
100
AcDbArc
 50
270.000073
 51
89.999982
  0
ARC
  5
8FB
100
AcDbEntity
  8
ALPHA
100
AcDbCircle
 10
20.583452
 20
134.958036
 30
0.0
 40
0.599999
100
AcDbArc
 50
89.999982
 51
269.999891
  0
LINE
  5
8FC
100
AcDbEntity
  8
ALPHA
100
AcDbLine
 10
26.980501
 20
122.558515
 30
0.0
 11
36.980516
 21
122.558515
 31
0.0
  0
LINE
  5
8FD
100
AcDbEntity
  8
ALPHA
100
AcDbLine
 10
31.980269
 20
127.508204
 30
0.0
 11
26.980266
 21
127.458034
 31
0.0
  0
LINE
  5
8FE
100
AcDbEntity
  8
ALPHA
100
AcDbLine
 10
26.980112
 20
132.457511
 30
0.0
 11
31.980108
 21
132.407706
 31
0.0
  0
LINE
  5
8FF
100
AcDbEntity
  8
ALPHA
100
AcDbLine
 10
25.980562
 20
126.357999
 30
0.0
 11
19.483446
 21
126.357999
 31
0.0
  0
LINE
  5
900
100
AcDbEntity
  8
ALPHA
100
AcDbLine
 10
26.680513
 20
123.557996
 30
0.0
 11
19.483446
 21
123.557996
 31
0.0
  0
LINE
  5
901
100
AcDbEntity
  8
ALPHA
100
AcDbLine
 10
19.483446
 20
126.357999
 30
0.0
 11
19.483446
 21
123.557996
 31
0.0
  0
ARC
  5
902
100
AcDbEntity
  8
ALPHA
100
AcDbCircle
 10
21.180513
 20
124.958051
 30
0.0
 40
2.199998
100
AcDbArc
 50
140.478796
 51
219.521187
  0
ARC
  5
903
100
AcDbEntity
  8
ALPHA
100
AcDbCircle
 10
21.983446
 20
124.958051
 30
0.0
 40
0.599999
100
AcDbArc
 50
270.000073
 51
89.999982
  0
ARC
  5
904
100
AcDbEntity
  8
ALPHA
100
AcDbCircle
 10
20.583498
 20
124.958051
 30
0.0
 40
0.599999
100
AcDbArc
 50
89.999982
 51
269.999891
  0
LINE
  5
905
100
AcDbEntity
  8
ALPHA
100
AcDbLine
 10
20.583483
 20
124.357999
 30
0.0
 11
21.983446
 21
124.357999
 31
0.0
  0
LINE
  5
906
100
AcDbEntity
  8
ALPHA
100
AcDbLine
 10
20.583483
 20
125.557996
 30
0.0
 11
21.983446
 21
125.557996
 31
0.0
  0
ARC
  5
907
100
AcDbEntity
  8
ALPHA
100
AcDbCircle
 10
26.280565
 20
125.358045
 30
0.0
 40
0.3
100
AcDbArc
 50
179.999964
 51
269.999946
  0
LINE
  5
908
100
AcDbEntity
  8
ALPHA
100
AcDbLine
 10
26.280565
 20
124.458006
 30
0.0
 11
26.980516
 21
124.458006
 31
0.0
  0
ARC
  5
909
100
AcDbEntity
  8
ALPHA
100
AcDbCircle
 10
26.280565
 20
124.758054
 30
0.0
 40
0.3
100
AcDbArc
 50
179.999964
 51
269.999946
  0
LINE
  5
90A
100
AcDbEntity
  8
ALPHA
100
AcDbLine
 10
26.680513
 20
124.45799
 30
0.0
 11
26.680513
 21
123.557996
 31
0.0
  0
LINE
  5
90B
100
AcDbEntity
  8
ALPHA
100
AcDbLine
 10
26.280565
 20
125.057996
 30
0.0
 11
26.980516
 21
125.057996
 31
0.0
  0
LINE
  5
90C
100
AcDbEntity
  8
ALPHA
100
AcDbLine
 10
25.980562
 20
131.358076
 30
0.0
 11
19.483446
 21
131.358076
 31
0.0
  0
LINE
  5
90D
100
AcDbEntity
  8
ALPHA
100
AcDbLine
 10
25.980532
 20
128.558073
 30
0.0
 11
19.483446
 21
128.558073
 31
0.0
  0
LINE
  5
90E
100
AcDbEntity
  8
ALPHA
100
AcDbLine
 10
25.980547
 20
133.557981
 30
0.0
 11
19.483446
 21
133.557981
 31
0.0
  0
LINE
  5
90F
100
AcDbEntity
  8
ALPHA
100
AcDbLine
 10
20.583422
 20
129.358076
 30
0.0
 11
21.983431
 21
129.358076
 31
0.0
  0
LINE
  5
910
100
AcDbEntity
  8
ALPHA
100
AcDbLine
 10
20.583422
 20
130.558073
 30
0.0
 11
21.983431
 21
130.558073
 31
0.0
  0
LINE
  5
911
100
AcDbEntity
  8
ALPHA
100
AcDbLine
 10
19.483446
 20
131.358076
 30
0.0
 11
19.483446
 21
128.558073
 31
0.0
  0
ARC
  5
912
100
AcDbEntity
  8
ALPHA
100
AcDbCircle
 10
21.180498
 20
129.958128
 30
0.0
 40
2.199998
100
AcDbArc
 50
140.478741
 51
219.521132
  0
ARC
  5
913
100
AcDbEntity
  8
ALPHA
100
AcDbCircle
 10
20.583437
 20
129.958128
 30
0.0
 40
0.599999
100
AcDbArc
 50
89.999982
 51
269.999891
  0
ARC
  5
914
100
AcDbEntity
  8
ALPHA
100
AcDbCircle
 10
21.983431
 20
129.958128
 30
0.0
 40
0.599999
100
AcDbArc
 50
270.000073
 51
89.999982
  0
LINE
  5
915
100
AcDbEntity
  8
ALPHA
100
AcDbLine
 10
20.583437
 20
134.357984
 30
0.0
 11
21.983446
 21
134.357984
 31
0.0
  0
LINE
  5
916
100
AcDbEntity
  8
ALPHA
100
AcDbLine
 10
26.280565
 20
134.707975
 30
0.0
 11
26.980516
 21
134.707975
 31
0.0
  0
ARC
  5
917
100
AcDbEntity
  8
ALPHA
100
AcDbCircle
 10
26.280565
 20
134.408033
 30
0.0
 40
0.3
100
AcDbArc
 50
89.999982
 51
179.999964
  0
LINE
  5
918
100
AcDbEntity
  8
ALPHA
100
AcDbLine
 10
31.980318
 20
132.407835
 30
0.0
 11
31.980318
 21
127.508131
 31
0.0
  0
LINE
  5
919
100
AcDbEntity
  8
ALPHA
 62
   211
100
AcDbLine
 10
41.380358
 20
132.958051
 30
0.0
 11
41.380358
 21
126.958067
 31
0.0
  0
ARC
  5
91A
100
AcDbEntity
  8
ALPHA
100
AcDbCircle
 10
57.180437
 20
129.957807
 30
0.0
 40
20.200012
100
AcDbArc
 50
168.578795
 51
191.421133
  0
LINE
  5
91B
100
AcDbEntity
  8
ALPHA
100
AcDbLine
 10
37.378646
 20
121.957349
 30
0.0
 11
36.978669
 21
122.557315
 31
0.0
  0
LINE
  5
91C
100
AcDbEntity
  8
ALPHA
100
AcDbLine
 10
40.180346
 20
122.55853
 30
0.0
 11
36.980501
 21
122.55853
 31
0.0
  0
LINE
  5
91D
100
AcDbEntity
  8
ALPHA
100
AcDbLine
 10
37.380404
 20
121.95854
 30
0.0
 11
37.380404
 21
125.958463
 31
0.0
  0
LINE
  5
91E
100
AcDbEntity
  8
ALPHA
100
AcDbLine
 10
40.180346
 20
121.958555
 30
0.0
 11
37.380404
 21
121.958555
 31
0.0
  0
LINE
  5
91F
100
AcDbEntity
  8
ALPHA
 62
   211
100
AcDbLine
 10
42.180346
 20
122.56796
 30
0.0
 11
42.180346
 21
123.25485
 31
0.0
  0
LINE
  5
920
100
AcDbEntity
  8
ALPHA
 62
   211
100
AcDbLine
 10
42.180346
 20
124.123548
 30
0.0
 11
42.180346
 21
124.998563
 31
0.0
  0
LINE
  5
921
100
AcDbEntity
  8
ALPHA
100
AcDbLine
 10
40.180346
 20
125.958463
 30
0.0
 11
37.380404
 21
125.958463
 31
0.0
  0
LINE
  5
922
100
AcDbEntity
  8
ALPHA
 62
   211
100
AcDbLine
 10
42.180346
 20
127.080228
 30
0.0
 11
42.180346
 21
126.037779
 31
0.0
  0
LINE
  5
923
100
AcDbEntity
  8
ALPHA
 62
   211
100
AcDbLine
 10
41.380358
 20
126.958067
 30
0.0
 11
40.180361
 21
126.958067
 31
0.0
  0
LINE
  5
924
100
AcDbEntity
  8
ALPHA
100
AcDbLine
 10
31.980074
 20
129.557981
 30
0.0
 11
31.980074
 21
129.157957
 31
0.0
  0
LINE
  5
925
100
AcDbEntity
  8
ALPHA
100
AcDbLine
 10
31.980074
 20
130.75781
 30
0.0
 11
31.980074
 21
130.357786
 31
0.0
  0
LINE
  5
926
100
AcDbEntity
  8
ALPHA
 62
   211
100
AcDbLine
 10
42.180346
 20
131.65051
 30
0.0
 11
42.180346
 21
130.558057
 31
0.0
  0
LINE
  5
927
100
AcDbEntity
  8
ALPHA
 62
   211
100
AcDbLine
 10
42.180346
 20
129.358045
 30
0.0
 11
42.180346
 21
128.265592
 31
0.0
  0
LINE
  5
928
100
AcDbEntity
  8
ALPHA
100
AcDbLine
 10
37.380404
 20
133.957929
 30
0.0
 11
40.180346
 21
133.957929
 31
0.0
  0
LINE
  5
929
100
AcDbEntity
  8
ALPHA
 62
   211
100
AcDbLine
 10
42.180346
 20
133.878324
 30
0.0
 11
42.180346
 21
132.835874
 31
0.0
  0
LINE
  5
92A
100
AcDbEntity
  8
ALPHA
 62
   211
100
AcDbLine
 10
40.180361
 20
132.958051
 30
0.0
 11
41.380358
 21
132.958051
 31
0.0
  0
LINE
  5
92B
100
AcDbEntity
  8
ALPHA
100
AcDbLine
 10
36.980516
 20
137.357816
 30
0.0
 11
26.980501
 21
137.357816
 31
0.0
  0
LINE
  5
92C
100
AcDbEntity
  8
ALPHA
100
AcDbLine
 10
26.680513
 20
136.357984
 30
0.0
 11
19.483446
 21
136.357984
 31
0.0
  0
LINE
  5
92D
100
AcDbEntity
  8
ALPHA
100
AcDbLine
 10
20.583437
 20
135.557981
 30
0.0
 11
21.983446
 21
135.557981
 31
0.0
  0
LINE
  5
92E
100
AcDbEntity
  8
ALPHA
100
AcDbLine
 10
26.980501
 20
135.657987
 30
0.0
 11
26.28055
 21
135.657987
 31
0.0
  0
ARC
  5
92F
100
AcDbEntity
  8
ALPHA
100
AcDbCircle
 10
26.280565
 20
135.35803
 30
0.0
 40
0.3
100
AcDbArc
 50
89.999982
 51
180.000019
  0
LINE
  5
930
100
AcDbEntity
  8
ALPHA
100
AcDbLine
 10
26.680513
 20
136.357984
 30
0.0
 11
26.680513
 21
135.657972
 31
0.0
  0
LINE
  5
931
100
AcDbEntity
  8
ALPHA
100
AcDbLine
 10
36.979348
 20
137.357308
 30
0.0
 11
37.379393
 21
137.957376
 31
0.0
  0
LINE
  5
932
100
AcDbEntity
  8
ALPHA
100
AcDbLine
 10
36.980501
 20
137.357832
 30
0.0
 11
40.180346
 21
137.357832
 31
0.0
  0
LINE
  5
933
100
AcDbEntity
  8
ALPHA
 62
   211
100
AcDbLine
 10
42.180407
 20
138.371305
 30
0.0
 11
42.180407
 21
137.948194
 31
0.0
  0
LINE
  5
934
100
AcDbEntity
  8
ALPHA
100
AcDbLine
 10
37.380404
 20
137.957929
 30
0.0
 11
40.180346
 21
137.957929
 31
0.0
  0
LINE
  5
935
100
AcDbEntity
  8
ALPHA
 62
   211
100
AcDbLine
 10
42.180346
 20
134.917539
 30
0.0
 11
42.180346
 21
135.792555
 31
0.0
  0
LINE
  5
936
100
AcDbEntity
  8
ALPHA
 62
   211
100
AcDbLine
 10
42.180346
 20
136.661253
 30
0.0
 11
42.180346
 21
137.348142
 31
0.0
  0
LINE
  5
937
100
AcDbEntity
  8
ALPHA
 62
   211
100
AcDbLine
 10
41.380358
 20
138.337217
 30
0.0
 11
40.180361
 21
138.337217
 31
0.0
  0
LINE
  5
938
100
AcDbEntity
  8
ALPHA
 62
   211
100
AcDbLine
 10
41.380358
 20
138.858045
 30
0.0
 11
41.380358
 21
138.337217
 31
0.0
  0
ARC
  5
939
100
AcDbEntity
  8
ALPHA
100
AcDbCircle
 10
63.353624
 20
122.080717
 30
0.0
 40
0.5
100
AcDbArc
 50
206.751902
 51
254.669094
  0
ARC
  5
93A
100
AcDbEntity
  8
ALPHA
100
AcDbCircle
 10
72.607332
 20
122.080717
 30
0.0
 40
0.5
100
AcDbArc
 50
285.330797
 51
333.248043
  0
DIMENSION
  5
93B
100
AcDbEntity
  8
COTATION1
100
AcDbDimension
  2
*D20
 10
48.980486
 20
110.008036
 30
0.0
 11
61.980486
 21
112.258036
 31
0.0
 70
    32
  3
SC_STAND
100
AcDbAlignedDimension
 13
74.980486
 23
129.958036
 33
0.0
 14
48.980486
 24
121.258039
 34
0.0
 50
180.0
100
AcDbRotatedDimension
  0
LINE
  5
93C
100
AcDbEntity
  8
ALPHA
100
AcDbLine
 10
48.38048
 20
138.658048
 30
0.0
 11
48.38048
 21
121.258024
 31
0.0
  0
LINE
  5
93D
100
AcDbEntity
  8
ALPHA
100
AcDbLine
 10
45.180315
 20
121.057981
 30
0.0
 11
45.180315
 21
138.857954
 31
0.0
  0
LINE
  5
93E
100
AcDbEntity
  8
ALPHA
100
AcDbLine
 10
46.180325
 20
123.95801
 30
0.0
 11
47.071487
 21
121.329035
 31
0.0
  0
LINE
  5
93F
100
AcDbEntity
  8
ALPHA
100
AcDbLine
 10
45.180333
 20
123.793105
 30
0.0
 11
46.124419
 21
121.008002
 31
0.0
  0
LINE
  5
940
100
AcDbEntity
  8
ALPHA
 62
   211
100
AcDbLine
 10
45.180254
 20
138.857954
 30
0.0
 11
45.180254
 21
121.057981
 31
0.0
  0
LINE
  5
941
100
AcDbEntity
  8
ALPHA
 62
   132
100
AcDbLine
 10
49.080486
 20
138.908036
 30
0.0
 11
49.080486
 21
121.008036
 31
0.0
  0
LINE
  5
942
100
AcDbEntity
  8
ALPHA
 62
   132
100
AcDbLine
 10
58.580486
 20
138.512202
 30
0.0
 11
58.580486
 21
121.40387
 31
0.0
  0
LINE
  5
943
100
AcDbEntity
  8
ALPHA
 62
   254
100
AcDbLine
 10
48.980486
 20
138.658048
 30
0.0
 11
48.980486
 21
121.258039
 31
0.0
  0
ARC
  5
944
100
AcDbEntity
  8
ALPHA
100
AcDbCircle
 10
67.980486
 20
138.958036
 30
0.0
 40
18.0
100
AcDbArc
 50
254.669183
 51
285.330814
  0
DIMENSION
  5
945
100
AcDbEntity
  8
COTATION1
100
AcDbDimension
  2
*D21
 10
58.580486
 20
115.008036
 30
0.0
 11
53.780486
 21
117.258036
 31
0.0
 70
    32
  3
SC_STAND
100
AcDbAlignedDimension
 13
48.980486
 23
121.258039
 33
0.0
 14
58.580486
 24
121.40387
 34
0.0
100
AcDbRotatedDimension
  0
LINE
  5
946
100
AcDbEntity
  8
ALPHA
 62
   132
100
AcDbLine
 10
58.384696
 20
121.203914
 30
0.0
 11
49.080486
 21
121.008036
 31
0.0
  0
LINE
  5
947
100
AcDbEntity
  8
ALPHA
100
AcDbLine
 10
46.12441
 20
121.00801
 30
0.0
 11
47.071464
 21
121.329036
 31
0.0
  0
LINE
  5
948
100
AcDbEntity
  8
ALPHA
100
AcDbLine
 10
45.180315
 20
121.008039
 30
0.0
 11
46.124407
 21
121.008039
 31
0.0
  0
LINE
  5
949
100
AcDbEntity
  8
ALPHA
100
AcDbLine
 10
48.38048
 20
121.258039
 30
0.0
 11
48.980486
 21
121.258039
 31
0.0
  0
LINE
  5
94A
100
AcDbEntity
  8
ALPHA
100
AcDbLine
 10
48.980486
 20
121.558036
 30
0.0
 11
49.080486
 21
121.558036
 31
0.0
  0
ARC
  5
94B
100
AcDbEntity
  8
ALPHA
 62
   132
100
AcDbCircle
 10
58.380486
 20
121.40387
 30
0.0
 40
0.2
100
AcDbArc
 50
271.206049
 51
0.0
  0
CIRCLE
  5
94C
100
AcDbEntity
  8
ALPHA
100
AcDbCircle
 10
67.97006
 20
129.948886
 30
0.0
 40
3.392908
  0
CIRCLE
  5
94D
100
AcDbEntity
  8
ALPHA
100
AcDbCircle
 10
67.980486
 20
129.958036
 30
0.0
 40
3.749676
  0
POLYLINE
  5
94E
100
AcDbEntity
  8
ALPHA
 62
   192
100
AcDb2dPolyline
 66
     1
 10
0.0
 20
0.0
 30
0.0
 70
     1
  0
VERTEX
  5
94F
100
AcDbEntity
  8
ALPHA
 62
   192
100
AcDbVertex
100
AcDb2dVertex
 10
69.217023
 20
127.27183
 30
0.0
  0
VERTEX
  5
950
100
AcDbEntity
  8
ALPHA
 62
   192
100
AcDbVertex
100
AcDb2dVertex
 10
69.217023
 20
129.629883
 30
0.0
  0
VERTEX
  5
951
100
AcDbEntity
  8
ALPHA
 62
   192
100
AcDbVertex
100
AcDb2dVertex
 10
70.067439
 20
129.629883
 30
0.0
  0
VERTEX
  5
952
100
AcDbEntity
  8
ALPHA
 62
   192
100
AcDbVertex
100
AcDb2dVertex
 10
70.067439
 20
128.605492
 30
0.0
  0
VERTEX
  5
953
100
AcDbEntity
  8
ALPHA
 62
   192
100
AcDbVertex
100
AcDb2dVertex
 10
69.893663
 20
128.547518
 30
0.0
  0
VERTEX
  5
954
100
AcDbEntity
  8
ALPHA
 62
   192
100
AcDbVertex
100
AcDb2dVertex
 10
69.893663
 20
127.716371
 30
0.0
  0
VERTEX
  5
955
100
AcDbEntity
  8
ALPHA
 62
   192
100
AcDbVertex
100
AcDb2dVertex
 10
69.939403
 20
127.758497
 30
0.0
  0
VERTEX
  5
956
100
AcDbEntity
  8
ALPHA
 62
   192
100
AcDbVertex
100
AcDb2dVertex
 10
69.983026
 20
127.80021
 30
0.0
  0
VERTEX
  5
957
100
AcDbEntity
  8
ALPHA
 62
   192
100
AcDbVertex
100
AcDb2dVertex
 10
70.024648
 20
127.841574
 30
0.0
  0
VERTEX
  5
958
100
AcDbEntity
  8
ALPHA
 62
   192
100
AcDbVertex
100
AcDb2dVertex
 10
70.06436
 20
127.88268
 30
0.0
  0
VERTEX
  5
959
100
AcDbEntity
  8
ALPHA
 62
   192
100
AcDbVertex
100
AcDb2dVertex
 10
70.102305
 20
127.923606
 30
0.0
  0
VERTEX
  5
95A
100
AcDbEntity
  8
ALPHA
 62
   192
100
AcDbVertex
100
AcDb2dVertex
 10
70.138571
 20
127.964454
 30
0.0
  0
VERTEX
  5
95B
100
AcDbEntity
  8
ALPHA
 62
   192
100
AcDbVertex
100
AcDb2dVertex
 10
70.173289
 20
128.005302
 30
0.0
  0
VERTEX
  5
95C
100
AcDbEntity
  8
ALPHA
 62
   192
100
AcDbVertex
100
AcDb2dVertex
 10
70.206548
 20
128.046228
 30
0.0
  0
VERTEX
  5
95D
100
AcDbEntity
  8
ALPHA
 62
   192
100
AcDbVertex
100
AcDb2dVertex
 10
70.238478
 20
128.087321
 30
0.0
  0
VERTEX
  5
95E
100
AcDbEntity
  8
ALPHA
 62
   192
100
AcDbVertex
100
AcDb2dVertex
 10
70.269195
 20
128.128685
 30
0.0
  0
VERTEX
  5
95F
100
AcDbEntity
  8
ALPHA
 62
   192
100
AcDbVertex
100
AcDb2dVertex
 10
70.298795
 20
128.170385
 30
0.0
  0
VERTEX
  5
960
100
AcDbEntity
  8
ALPHA
 62
   192
100
AcDbVertex
100
AcDb2dVertex
 10
70.327402
 20
128.212511
 30
0.0
  0
VERTEX
  5
961
100
AcDbEntity
  8
ALPHA
 62
   192
100
AcDbVertex
100
AcDb2dVertex
 10
70.355118
 20
128.255153
 30
0.0
  0
VERTEX
  5
962
100
AcDbEntity
  8
ALPHA
 62
   192
100
AcDbVertex
100
AcDb2dVertex
 10
70.382066
 20
128.298402
 30
0.0
  0
VERTEX
  5
963
100
AcDbEntity
  8
ALPHA
 62
   192
100
AcDbVertex
100
AcDb2dVertex
 10
70.408362
 20
128.342322
 30
0.0
  0
VERTEX
  5
964
100
AcDbEntity
  8
ALPHA
 62
   192
100
AcDbVertex
100
AcDb2dVertex
 10
70.434097
 20
128.387029
 30
0.0
  0
VERTEX
  5
965
100
AcDbEntity
  8
ALPHA
 62
   192
100
AcDbVertex
100
AcDb2dVertex
 10
70.459406
 20
128.432588
 30
0.0
  0
VERTEX
  5
966
100
AcDbEntity
  8
ALPHA
 62
   192
100
AcDbVertex
100
AcDb2dVertex
 10
70.484386
 20
128.479102
 30
0.0
  0
VERTEX
  5
967
100
AcDbEntity
  8
ALPHA
 62
   192
100
AcDbVertex
100
AcDb2dVertex
 10
70.50916
 20
128.526635
 30
0.0
  0
VERTEX
  5
968
100
AcDbEntity
  8
ALPHA
 62
   192
100
AcDbVertex
100
AcDb2dVertex
 10
70.53383
 20
128.575279
 30
0.0
  0
VERTEX
  5
969
100
AcDbEntity
  8
ALPHA
 62
   192
100
AcDbVertex
100
AcDb2dVertex
 10
70.558513
 20
128.625148
 30
0.0
  0
VERTEX
  5
96A
100
AcDbEntity
  8
ALPHA
 62
   192
100
AcDbVertex
100
AcDb2dVertex
 10
70.583325
 20
128.676283
 30
0.0
  0
VERTEX
  5
96B
100
AcDbEntity
  8
ALPHA
 62
   192
100
AcDbVertex
100
AcDb2dVertex
 10
70.608376
 20
128.728798
 30
0.0
  0
VERTEX
  5
96C
100
AcDbEntity
  8
ALPHA
 62
   192
100
AcDbVertex
100
AcDb2dVertex
 10
70.633776
 20
128.782785
 30
0.0
  0
VERTEX
  5
96D
100
AcDbEntity
  8
ALPHA
 62
   192
100
AcDbVertex
100
AcDb2dVertex
 10
70.659633
 20
128.838307
 30
0.0
  0
VERTEX
  5
96E
100
AcDbEntity
  8
ALPHA
 62
   192
100
AcDbVertex
100
AcDb2dVertex
 10
70.686072
 20
128.895456
 30
0.0
  0
VERTEX
  5
96F
100
AcDbEntity
  8
ALPHA
 62
   192
100
AcDbVertex
100
AcDb2dVertex
 10
70.686072
 20
130.866975
 30
0.0
  0
VERTEX
  5
970
100
AcDbEntity
  8
ALPHA
 62
   192
100
AcDbVertex
100
AcDb2dVertex
 10
70.683471
 20
130.898124
 30
0.0
  0
VERTEX
  5
971
100
AcDbEntity
  8
ALPHA
 62
   192
100
AcDbVertex
100
AcDb2dVertex
 10
70.675901
 20
130.933364
 30
0.0
  0
VERTEX
  5
972
100
AcDbEntity
  8
ALPHA
 62
   192
100
AcDbVertex
100
AcDb2dVertex
 10
70.663712
 20
130.972328
 30
0.0
  0
VERTEX
  5
973
100
AcDbEntity
  8
ALPHA
 62
   192
100
AcDbVertex
100
AcDb2dVertex
 10
70.647256
 20
131.014648
 30
0.0
  0
VERTEX
  5
974
100
AcDbEntity
  8
ALPHA
 62
   192
100
AcDbVertex
100
AcDb2dVertex
 10
70.626877
 20
131.059948
 30
0.0
  0
VERTEX
  5
975
100
AcDbEntity
  8
ALPHA
 62
   192
100
AcDbVertex
100
AcDb2dVertex
 10
70.60293
 20
131.107869
 30
0.0
  0
VERTEX
  5
976
100
AcDbEntity
  8
ALPHA
 62
   192
100
AcDbVertex
100
AcDb2dVertex
 10
70.575762
 20
131.158029
 30
0.0
  0
VERTEX
  5
977
100
AcDbEntity
  8
ALPHA
 62
   192
100
AcDbVertex
100
AcDb2dVertex
 10
70.545717
 20
131.21006
 30
0.0
  0
VERTEX
  5
978
100
AcDbEntity
  8
ALPHA
 62
   192
100
AcDbVertex
100
AcDb2dVertex
 10
70.513161
 20
131.263602
 30
0.0
  0
VERTEX
  5
979
100
AcDbEntity
  8
ALPHA
 62
   192
100
AcDbVertex
100
AcDb2dVertex
 10
70.47843
 20
131.318279
 30
0.0
  0
VERTEX
  5
97A
100
AcDbEntity
  8
ALPHA
 62
   192
100
AcDbVertex
100
AcDb2dVertex
 10
70.441886
 20
131.373724
 30
0.0
  0
VERTEX
  5
97B
100
AcDbEntity
  8
ALPHA
 62
   192
100
AcDbVertex
100
AcDb2dVertex
 10
70.403858
 20
131.429569
 30
0.0
  0
VERTEX
  5
97C
100
AcDbEntity
  8
ALPHA
 62
   192
100
AcDbVertex
100
AcDb2dVertex
 10
70.364714
 20
131.485434
 30
0.0
  0
VERTEX
  5
97D
100
AcDbEntity
  8
ALPHA
 62
   192
100
AcDbVertex
100
AcDb2dVertex
 10
70.324795
 20
131.540956
 30
0.0
  0
VERTEX
  5
97E
100
AcDbEntity
  8
ALPHA
 62
   192
100
AcDbVertex
100
AcDb2dVertex
 10
70.284456
 20
131.595769
 30
0.0
  0
VERTEX
  5
97F
100
AcDbEntity
  8
ALPHA
 62
   192
100
AcDbVertex
100
AcDb2dVertex
 10
70.244041
 20
131.649497
 30
0.0
  0
VERTEX
  5
980
100
AcDbEntity
  8
ALPHA
 62
   192
100
AcDbVertex
100
AcDb2dVertex
 10
70.203915
 20
131.701767
 30
0.0
  0
VERTEX
  5
981
100
AcDbEntity
  8
ALPHA
 62
   192
100
AcDbVertex
100
AcDb2dVertex
 10
70.164403
 20
131.752224
 30
0.0
  0
VERTEX
  5
982
100
AcDbEntity
  8
ALPHA
 62
   192
100
AcDbVertex
100
AcDb2dVertex
 10
70.125871
 20
131.800487
 30
0.0
  0
VERTEX
  5
983
100
AcDbEntity
  8
ALPHA
 62
   192
100
AcDbVertex
100
AcDb2dVertex
 10
70.088663
 20
131.846181
 30
0.0
  0
VERTEX
  5
984
100
AcDbEntity
  8
ALPHA
 62
   192
100
AcDbVertex
100
AcDb2dVertex
 10
70.053132
 20
131.888953
 30
0.0
  0
VERTEX
  5
985
100
AcDbEntity
  8
ALPHA
 62
   192
100
AcDbVertex
100
AcDb2dVertex
 10
70.019634
 20
131.928426
 30
0.0
  0
VERTEX
  5
986
100
AcDbEntity
  8
ALPHA
 62
   192
100
AcDbVertex
100
AcDb2dVertex
 10
69.988504
 20
131.964221
 30
0.0
  0
VERTEX
  5
987
100
AcDbEntity
  8
ALPHA
 62
   192
100
AcDbVertex
100
AcDb2dVertex
 10
69.960104
 20
131.995984
 30
0.0
  0
VERTEX
  5
988
100
AcDbEntity
  8
ALPHA
 62
   192
100
AcDbVertex
100
AcDb2dVertex
 10
69.934782
 20
132.023325
 30
0.0
  0
VERTEX
  5
989
100
AcDbEntity
  8
ALPHA
 62
   192
100
AcDbVertex
100
AcDb2dVertex
 10
69.912874
 20
132.045898
 30
0.0
  0
VERTEX
  5
98A
100
AcDbEntity
  8
ALPHA
 62
   192
100
AcDbVertex
100
AcDb2dVertex
 10
69.912874
 20
131.292267
 30
0.0
  0
VERTEX
  5
98B
100
AcDbEntity
  8
ALPHA
 62
   192
100
AcDbVertex
100
AcDb2dVertex
 10
70.067439
 20
131.234292
 30
0.0
  0
VERTEX
  5
98C
100
AcDbEntity
  8
ALPHA
 62
   192
100
AcDbVertex
100
AcDb2dVertex
 10
70.067439
 20
130.151713
 30
0.0
  0
VERTEX
  5
98D
100
AcDbEntity
  8
ALPHA
 62
   192
100
AcDbVertex
100
AcDb2dVertex
 10
69.217023
 20
130.151713
 30
0.0
  0
VERTEX
  5
98E
100
AcDbEntity
  8
ALPHA
 62
   192
100
AcDbVertex
100
AcDb2dVertex
 10
69.217023
 20
132.490562
 30
0.0
  0
VERTEX
  5
98F
100
AcDbEntity
  8
ALPHA
 62
   192
100
AcDbVertex
100
AcDb2dVertex
 10
69.16383
 20
132.516433
 30
0.0
  0
VERTEX
  5
990
100
AcDbEntity
  8
ALPHA
 62
   192
100
AcDbVertex
100
AcDb2dVertex
 10
69.109773
 20
132.541348
 30
0.0
  0
VERTEX
  5
991
100
AcDbEntity
  8
ALPHA
 62
   192
100
AcDbVertex
100
AcDb2dVertex
 10
69.054934
 20
132.565308
 30
0.0
  0
VERTEX
  5
992
100
AcDbEntity
  8
ALPHA
 62
   192
100
AcDbVertex
100
AcDb2dVertex
 10
68.999405
 20
132.58832
 30
0.0
  0
VERTEX
  5
993
100
AcDbEntity
  8
ALPHA
 62
   192
100
AcDbVertex
100
AcDb2dVertex
 10
68.94327
 20
132.610364
 30
0.0
  0
VERTEX
  5
994
100
AcDbEntity
  8
ALPHA
 62
   192
100
AcDbVertex
100
AcDb2dVertex
 10
68.886611
 20
132.631459
 30
0.0
  0
VERTEX
  5
995
100
AcDbEntity
  8
ALPHA
 62
   192
100
AcDbVertex
100
AcDb2dVertex
 10
68.829521
 20
132.651586
 30
0.0
  0
VERTEX
  5
996
100
AcDbEntity
  8
ALPHA
 62
   192
100
AcDbVertex
100
AcDb2dVertex
 10
68.772088
 20
132.670765
 30
0.0
  0
VERTEX
  5
997
100
AcDbEntity
  8
ALPHA
 62
   192
100
AcDbVertex
100
AcDb2dVertex
 10
68.714391
 20
132.688969
 30
0.0
  0
VERTEX
  5
998
100
AcDbEntity
  8
ALPHA
 62
   192
100
AcDbVertex
100
AcDb2dVertex
 10
68.65652
 20
132.706225
 30
0.0
  0
VERTEX
  5
999
100
AcDbEntity
  8
ALPHA
 62
   192
100
AcDbVertex
100
AcDb2dVertex
 10
68.598558
 20
132.722512
 30
0.0
  0
VERTEX
  5
99A
100
AcDbEntity
  8
ALPHA
 62
   192
100
AcDbVertex
100
AcDb2dVertex
 10
68.598558
 20
132.297214
 30
0.0
  0
VERTEX
  5
99B
100
AcDbEntity
  8
ALPHA
 62
   192
100
AcDbVertex
100
AcDb2dVertex
 10
66.917002
 20
132.297214
 30
0.0
  0
VERTEX
  5
99C
100
AcDbEntity
  8
ALPHA
 62
   192
100
AcDbVertex
100
AcDb2dVertex
 10
66.917002
 20
132.587165
 30
0.0
  0
VERTEX
  5
99D
100
AcDbEntity
  8
ALPHA
 62
   192
100
AcDbVertex
100
AcDb2dVertex
 10
66.859802
 20
132.567019
 30
0.0
  0
VERTEX
  5
99E
100
AcDbEntity
  8
ALPHA
 62
   192
100
AcDbVertex
100
AcDb2dVertex
 10
66.804073
 20
132.545272
 30
0.0
  0
VERTEX
  5
99F
100
AcDbEntity
  8
ALPHA
 62
   192
100
AcDbVertex
100
AcDb2dVertex
 10
66.749686
 20
132.521918
 30
0.0
  0
VERTEX
  5
9A0
100
AcDbEntity
  8
ALPHA
 62
   192
100
AcDbVertex
100
AcDb2dVertex
 10
66.6965
 20
132.496957
 30
0.0
  0
VERTEX
  5
9A1
100
AcDbEntity
  8
ALPHA
 62
   192
100
AcDbVertex
100
AcDb2dVertex
 10
66.644385
 20
132.470377
 30
0.0
  0
VERTEX
  5
9A2
100
AcDbEntity
  8
ALPHA
 62
   192
100
AcDbVertex
100
AcDb2dVertex
 10
66.593225
 20
132.442203
 30
0.0
  0
VERTEX
  5
9A3
100
AcDbEntity
  8
ALPHA
 62
   192
100
AcDbVertex
100
AcDb2dVertex
 10
66.542852
 20
132.412409
 30
0.0
  0
VERTEX
  5
9A4
100
AcDbEntity
  8
ALPHA
 62
   192
100
AcDbVertex
100
AcDb2dVertex
 10
66.49315
 20
132.381001
 30
0.0
  0
VERTEX
  5
9A5
100
AcDbEntity
  8
ALPHA
 62
   192
100
AcDbVertex
100
AcDb2dVertex
 10
66.44399
 20
132.347968
 30
0.0
  0
VERTEX
  5
9A6
100
AcDbEntity
  8
ALPHA
 62
   192
100
AcDbVertex
100
AcDb2dVertex
 10
66.395243
 20
132.313334
 30
0.0
  0
VERTEX
  5
9A7
100
AcDbEntity
  8
ALPHA
 62
   192
100
AcDbVertex
100
AcDb2dVertex
 10
66.346755
 20
132.277061
 30
0.0
  0
VERTEX
  5
9A8
100
AcDbEntity
  8
ALPHA
 62
   192
100
AcDbVertex
100
AcDb2dVertex
 10
66.298408
 20
132.239175
 30
0.0
  0
VERTEX
  5
9A9
100
AcDbEntity
  8
ALPHA
 62
   192
100
AcDbVertex
100
AcDb2dVertex
 10
66.298408
 20
130.151713
 30
0.0
  0
VERTEX
  5
9AA
100
AcDbEntity
  8
ALPHA
 62
   192
100
AcDbVertex
100
AcDb2dVertex
 10
65.699302
 20
130.151713
 30
0.0
  0
VERTEX
  5
9AB
100
AcDbEntity
  8
ALPHA
 62
   192
100
AcDbVertex
100
AcDb2dVertex
 10
65.699302
 20
130.248516
 30
0.0
  0
VERTEX
  5
9AC
100
AcDbEntity
  8
ALPHA
 62
   192
100
AcDbVertex
100
AcDb2dVertex
 10
64.964875
 20
130.248516
 30
0.0
  0
VERTEX
  5
9AD
100
AcDbEntity
  8
ALPHA
 62
   192
100
AcDbVertex
100
AcDb2dVertex
 10
64.964875
 20
129.513921
 30
0.0
  0
VERTEX
  5
9AE
100
AcDbEntity
  8
ALPHA
 62
   192
100
AcDbVertex
100
AcDb2dVertex
 10
65.699302
 20
129.513921
 30
0.0
  0
VERTEX
  5
9AF
100
AcDbEntity
  8
ALPHA
 62
   192
100
AcDbVertex
100
AcDb2dVertex
 10
65.699302
 20
129.629883
 30
0.0
  0
VERTEX
  5
9B0
100
AcDbEntity
  8
ALPHA
 62
   192
100
AcDbVertex
100
AcDb2dVertex
 10
66.298408
 20
129.629883
 30
0.0
  0
VERTEX
  5
9B1
100
AcDbEntity
  8
ALPHA
 62
   192
100
AcDbVertex
100
AcDb2dVertex
 10
66.298408
 20
127.523178
 30
0.0
  0
VERTEX
  5
9B2
100
AcDbEntity
  8
ALPHA
 62
   192
100
AcDbVertex
100
AcDb2dVertex
 10
66.348304
 20
127.484847
 30
0.0
  0
VERTEX
  5
9B3
100
AcDbEntity
  8
ALPHA
 62
   192
100
AcDbVertex
100
AcDb2dVertex
 10
66.396702
 20
127.449419
 30
0.0
  0
VERTEX
  5
9B4
100
AcDbEntity
  8
ALPHA
 62
   192
100
AcDbVertex
100
AcDb2dVertex
 10
66.443913
 20
127.416663
 30
0.0
  0
VERTEX
  5
9B5
100
AcDbEntity
  8
ALPHA
 62
   192
100
AcDbVertex
100
AcDb2dVertex
 10
66.490246
 20
127.386308
 30
0.0
  0
VERTEX
  5
9B6
100
AcDbEntity
  8
ALPHA
 62
   192
100
AcDbVertex
100
AcDb2dVertex
 10
66.536011
 20
127.358121
 30
0.0
  0
VERTEX
  5
9B7
100
AcDbEntity
  8
ALPHA
 62
   192
100
AcDbVertex
100
AcDb2dVertex
 10
66.581519
 20
127.331818
 30
0.0
  0
VERTEX
  5
9B8
100
AcDbEntity
  8
ALPHA
 62
   192
100
AcDbVertex
100
AcDb2dVertex
 10
66.627078
 20
127.307167
 30
0.0
  0
VERTEX
  5
9B9
100
AcDbEntity
  8
ALPHA
 62
   192
100
AcDbVertex
100
AcDb2dVertex
 10
66.673011
 20
127.283897
 30
0.0
  0
VERTEX
  5
9BA
100
AcDbEntity
  8
ALPHA
 62
   192
100
AcDbVertex
100
AcDb2dVertex
 10
66.719602
 20
127.261763
 30
0.0
  0
VERTEX
  5
9BB
100
AcDbEntity
  8
ALPHA
 62
   192
100
AcDbVertex
100
AcDb2dVertex
 10
66.7672
 20
127.240506
 30
0.0
  0
VERTEX
  5
9BC
100
AcDbEntity
  8
ALPHA
 62
   192
100
AcDbVertex
100
AcDb2dVertex
 10
66.816089
 20
127.219882
 30
0.0
  0
VERTEX
  5
9BD
100
AcDbEntity
  8
ALPHA
 62
   192
100
AcDbVertex
100
AcDb2dVertex
 10
66.866604
 20
127.199632
 30
0.0
  0
VERTEX
  5
9BE
100
AcDbEntity
  8
ALPHA
 62
   192
100
AcDbVertex
100
AcDb2dVertex
 10
66.919029
 20
127.179499
 30
0.0
  0
VERTEX
  5
9BF
100
AcDbEntity
  8
ALPHA
 62
   192
100
AcDbVertex
100
AcDb2dVertex
 10
66.973686
 20
127.15921
 30
0.0
  0
VERTEX
  5
9C0
100
AcDbEntity
  8
ALPHA
 62
   192
100
AcDbVertex
100
AcDb2dVertex
 10
67.030887
 20
127.138547
 30
0.0
  0
VERTEX
  5
9C1
100
AcDbEntity
  8
ALPHA
 62
   192
100
AcDbVertex
100
AcDb2dVertex
 10
67.090952
 20
127.117226
 30
0.0
  0
VERTEX
  5
9C2
100
AcDbEntity
  8
ALPHA
 62
   192
100
AcDbVertex
100
AcDb2dVertex
 10
67.090952
 20
127.755103
 30
0.0
  0
VERTEX
  5
9C3
100
AcDbEntity
  8
ALPHA
 62
   192
100
AcDbVertex
100
AcDb2dVertex
 10
66.917002
 20
127.967693
 30
0.0
  0
VERTEX
  5
9C4
100
AcDbEntity
  8
ALPHA
 62
   192
100
AcDbVertex
100
AcDb2dVertex
 10
66.917002
 20
129.629883
 30
0.0
  0
VERTEX
  5
9C5
100
AcDbEntity
  8
ALPHA
 62
   192
100
AcDbVertex
100
AcDb2dVertex
 10
67.438903
 20
129.629883
 30
0.0
  0
VERTEX
  5
9C6
100
AcDbEntity
  8
ALPHA
 62
   192
100
AcDbVertex
100
AcDb2dVertex
 10
67.438903
 20
128.682891
 30
0.0
  0
VERTEX
  5
9C7
100
AcDbEntity
  8
ALPHA
 62
   192
100
AcDbVertex
100
AcDb2dVertex
 10
67.342146
 20
128.682891
 30
0.0
  0
VERTEX
  5
9C8
100
AcDbEntity
  8
ALPHA
 62
   192
100
AcDbVertex
100
AcDb2dVertex
 10
67.342146
 20
128.160977
 30
0.0
  0
VERTEX
  5
9C9
100
AcDbEntity
  8
ALPHA
 62
   192
100
AcDbVertex
100
AcDb2dVertex
 10
68.173266
 20
128.160977
 30
0.0
  0
VERTEX
  5
9CA
100
AcDbEntity
  8
ALPHA
 62
   192
100
AcDbVertex
100
AcDb2dVertex
 10
68.173266
 20
128.682891
 30
0.0
  0
VERTEX
  5
9CB
100
AcDbEntity
  8
ALPHA
 62
   192
100
AcDbVertex
100
AcDb2dVertex
 10
68.076754
 20
128.682891
 30
0.0
  0
VERTEX
  5
9CC
100
AcDbEntity
  8
ALPHA
 62
   192
100
AcDbVertex
100
AcDb2dVertex
 10
68.076754
 20
129.629883
 30
0.0
  0
VERTEX
  5
9CD
100
AcDbEntity
  8
ALPHA
 62
   192
100
AcDbVertex
100
AcDb2dVertex
 10
68.598558
 20
129.629883
 30
0.0
  0
VERTEX
  5
9CE
100
AcDbEntity
  8
ALPHA
 62
   192
100
AcDbVertex
100
AcDb2dVertex
 10
68.598558
 20
127.639127
 30
0.0
  0
VERTEX
  5
9CF
100
AcDbEntity
  8
ALPHA
 62
   192
100
AcDbVertex
100
AcDb2dVertex
 10
68.463217
 20
127.60037
 30
0.0
  0
VERTEX
  5
9D0
100
AcDbEntity
  8
ALPHA
 62
   192
100
AcDbVertex
100
AcDb2dVertex
 10
68.463217
 20
127.02052
 30
0.0
  0
VERTEX
  5
9D1
100
AcDbEntity
  8
ALPHA
 62
   192
100
AcDbVertex
100
AcDb2dVertex
 10
68.517352
 20
127.033246
 30
0.0
  0
VERTEX
  5
9D2
100
AcDbEntity
  8
ALPHA
 62
   192
100
AcDbVertex
100
AcDb2dVertex
 10
68.571945
 20
127.046604
 30
0.0
  0
VERTEX
  5
9D3
100
AcDbEntity
  8
ALPHA
 62
   192
100
AcDbVertex
100
AcDb2dVertex
 10
68.626874
 20
127.060646
 30
0.0
  0
VERTEX
  5
9D4
100
AcDbEntity
  8
ALPHA
 62
   192
100
AcDbVertex
100
AcDb2dVertex
 10
68.682009
 20
127.07541
 30
0.0
  0
VERTEX
  5
9D5
100
AcDbEntity
  8
ALPHA
 62
   192
100
AcDbVertex
100
AcDb2dVertex
 10
68.737229
 20
127.090924
 30
0.0
  0
VERTEX
  5
9D6
100
AcDbEntity
  8
ALPHA
 62
   192
100
AcDbVertex
100
AcDb2dVertex
 10
68.792403
 20
127.10725
 30
0.0
  0
VERTEX
  5
9D7
100
AcDbEntity
  8
ALPHA
 62
   192
100
AcDbVertex
100
AcDb2dVertex
 10
68.847409
 20
127.124428
 30
0.0
  0
VERTEX
  5
9D8
100
AcDbEntity
  8
ALPHA
 62
   192
100
AcDbVertex
100
AcDb2dVertex
 10
68.902118
 20
127.142484
 30
0.0
  0
VERTEX
  5
9D9
100
AcDbEntity
  8
ALPHA
 62
   192
100
AcDbVertex
100
AcDb2dVertex
 10
68.956395
 20
127.161469
 30
0.0
  0
VERTEX
  5
9DA
100
AcDbEntity
  8
ALPHA
 62
   192
100
AcDbVertex
100
AcDb2dVertex
 10
69.01013
 20
127.181435
 30
0.0
  0
VERTEX
  5
9DB
100
AcDbEntity
  8
ALPHA
 62
   192
100
AcDbVertex
100
AcDb2dVertex
 10
69.063188
 20
127.202407
 30
0.0
  0
VERTEX
  5
9DC
100
AcDbEntity
  8
ALPHA
 62
   192
100
AcDbVertex
100
AcDb2dVertex
 10
69.115438
 20
127.224438
 30
0.0
  0
VERTEX
  5
9DD
100
AcDbEntity
  8
ALPHA
 62
   192
100
AcDbVertex
100
AcDb2dVertex
 10
69.16676
 20
127.247566
 30
0.0
  0
SEQEND
  5
9DE
100
AcDbEntity
  8
ALPHA
 62
   192
  0
POLYLINE
  5
9DF
100
AcDbEntity
  8
ALPHA
100
AcDb2dPolyline
 66
     1
 10
0.0
 20
0.0
 30
0.0
 70
     1
  0
VERTEX
  5
9E0
100
AcDbEntity
  8
ALPHA
100
AcDbVertex
100
AcDb2dVertex
 10
69.16676
 20
127.247566
 30
0.0
  0
VERTEX
  5
9E1
100
AcDbEntity
  8
ALPHA
100
AcDbVertex
100
AcDb2dVertex
 10
69.217023
 20
127.27183
 30
0.0
  0
VERTEX
  5
9E2
100
AcDbEntity
  8
ALPHA
100
AcDbVertex
100
AcDb2dVertex
 10
69.217023
 20
129.629883
 30
0.0
  0
VERTEX
  5
9E3
100
AcDbEntity
  8
ALPHA
100
AcDbVertex
100
AcDb2dVertex
 10
70.067439
 20
129.629883
 30
0.0
  0
VERTEX
  5
9E4
100
AcDbEntity
  8
ALPHA
100
AcDbVertex
100
AcDb2dVertex
 10
70.067439
 20
128.605492
 30
0.0
  0
VERTEX
  5
9E5
100
AcDbEntity
  8
ALPHA
100
AcDbVertex
100
AcDb2dVertex
 10
69.893663
 20
128.547518
 30
0.0
  0
VERTEX
  5
9E6
100
AcDbEntity
  8
ALPHA
100
AcDbVertex
100
AcDb2dVertex
 10
69.893663
 20
127.716371
 30
0.0
  0
VERTEX
  5
9E7
100
AcDbEntity
  8
ALPHA
100
AcDbVertex
100
AcDb2dVertex
 10
69.939403
 20
127.758497
 30
0.0
  0
VERTEX
  5
9E8
100
AcDbEntity
  8
ALPHA
100
AcDbVertex
100
AcDb2dVertex
 10
69.983026
 20
127.80021
 30
0.0
  0
VERTEX
  5
9E9
100
AcDbEntity
  8
ALPHA
100
AcDbVertex
100
AcDb2dVertex
 10
70.024648
 20
127.841574
 30
0.0
  0
VERTEX
  5
9EA
100
AcDbEntity
  8
ALPHA
100
AcDbVertex
100
AcDb2dVertex
 10
70.06436
 20
127.88268
 30
0.0
  0
VERTEX
  5
9EB
100
AcDbEntity
  8
ALPHA
100
AcDbVertex
100
AcDb2dVertex
 10
70.102305
 20
127.923606
 30
0.0
  0
VERTEX
  5
9EC
100
AcDbEntity
  8
ALPHA
100
AcDbVertex
100
AcDb2dVertex
 10
70.138571
 20
127.964454
 30
0.0
  0
VERTEX
  5
9ED
100
AcDbEntity
  8
ALPHA
100
AcDbVertex
100
AcDb2dVertex
 10
70.173289
 20
128.005302
 30
0.0
  0
VERTEX
  5
9EE
100
AcDbEntity
  8
ALPHA
100
AcDbVertex
100
AcDb2dVertex
 10
70.206548
 20
128.046228
 30
0.0
  0
VERTEX
  5
9EF
100
AcDbEntity
  8
ALPHA
100
AcDbVertex
100
AcDb2dVertex
 10
70.238478
 20
128.087321
 30
0.0
  0
VERTEX
  5
9F0
100
AcDbEntity
  8
ALPHA
100
AcDbVertex
100
AcDb2dVertex
 10
70.269195
 20
128.128685
 30
0.0
  0
VERTEX
  5
9F1
100
AcDbEntity
  8
ALPHA
100
AcDbVertex
100
AcDb2dVertex
 10
70.298795
 20
128.170385
 30
0.0
  0
VERTEX
  5
9F2
100
AcDbEntity
  8
ALPHA
100
AcDbVertex
100
AcDb2dVertex
 10
70.327402
 20
128.212511
 30
0.0
  0
VERTEX
  5
9F3
100
AcDbEntity
  8
ALPHA
100
AcDbVertex
100
AcDb2dVertex
 10
70.355118
 20
128.255153
 30
0.0
  0
VERTEX
  5
9F4
100
AcDbEntity
  8
ALPHA
100
AcDbVertex
100
AcDb2dVertex
 10
70.382066
 20
128.298402
 30
0.0
  0
VERTEX
  5
9F5
100
AcDbEntity
  8
ALPHA
100
AcDbVertex
100
AcDb2dVertex
 10
70.408362
 20
128.342322
 30
0.0
  0
VERTEX
  5
9F6
100
AcDbEntity
  8
ALPHA
100
AcDbVertex
100
AcDb2dVertex
 10
70.434097
 20
128.387029
 30
0.0
  0
VERTEX
  5
9F7
100
AcDbEntity
  8
ALPHA
100
AcDbVertex
100
AcDb2dVertex
 10
70.459406
 20
128.432588
 30
0.0
  0
VERTEX
  5
9F8
100
AcDbEntity
  8
ALPHA
100
AcDbVertex
100
AcDb2dVertex
 10
70.484386
 20
128.479102
 30
0.0
  0
VERTEX
  5
9F9
100
AcDbEntity
  8
ALPHA
100
AcDbVertex
100
AcDb2dVertex
 10
70.50916
 20
128.526635
 30
0.0
  0
VERTEX
  5
9FA
100
AcDbEntity
  8
ALPHA
100
AcDbVertex
100
AcDb2dVertex
 10
70.53383
 20
128.575279
 30
0.0
  0
VERTEX
  5
9FB
100
AcDbEntity
  8
ALPHA
100
AcDbVertex
100
AcDb2dVertex
 10
70.558513
 20
128.625148
 30
0.0
  0
VERTEX
  5
9FC
100
AcDbEntity
  8
ALPHA
100
AcDbVertex
100
AcDb2dVertex
 10
70.583325
 20
128.676283
 30
0.0
  0
VERTEX
  5
9FD
100
AcDbEntity
  8
ALPHA
100
AcDbVertex
100
AcDb2dVertex
 10
70.608376
 20
128.728798
 30
0.0
  0
VERTEX
  5
9FE
100
AcDbEntity
  8
ALPHA
100
AcDbVertex
100
AcDb2dVertex
 10
70.633776
 20
128.782785
 30
0.0
  0
VERTEX
  5
9FF
100
AcDbEntity
  8
ALPHA
100
AcDbVertex
100
AcDb2dVertex
 10
70.659633
 20
128.838307
 30
0.0
  0
VERTEX
  5
A00
100
AcDbEntity
  8
ALPHA
100
AcDbVertex
100
AcDb2dVertex
 10
70.686072
 20
128.895456
 30
0.0
  0
VERTEX
  5
A01
100
AcDbEntity
  8
ALPHA
100
AcDbVertex
100
AcDb2dVertex
 10
70.686072
 20
130.866975
 30
0.0
  0
VERTEX
  5
A02
100
AcDbEntity
  8
ALPHA
100
AcDbVertex
100
AcDb2dVertex
 10
70.683471
 20
130.898124
 30
0.0
  0
VERTEX
  5
A03
100
AcDbEntity
  8
ALPHA
100
AcDbVertex
100
AcDb2dVertex
 10
70.675901
 20
130.933364
 30
0.0
  0
VERTEX
  5
A04
100
AcDbEntity
  8
ALPHA
100
AcDbVertex
100
AcDb2dVertex
 10
70.663712
 20
130.972328
 30
0.0
  0
VERTEX
  5
A05
100
AcDbEntity
  8
ALPHA
100
AcDbVertex
100
AcDb2dVertex
 10
70.647256
 20
131.014648
 30
0.0
  0
VERTEX
  5
A06
100
AcDbEntity
  8
ALPHA
100
AcDbVertex
100
AcDb2dVertex
 10
70.626877
 20
131.059948
 30
0.0
  0
VERTEX
  5
A07
100
AcDbEntity
  8
ALPHA
100
AcDbVertex
100
AcDb2dVertex
 10
70.60293
 20
131.107869
 30
0.0
  0
VERTEX
  5
A08
100
AcDbEntity
  8
ALPHA
100
AcDbVertex
100
AcDb2dVertex
 10
70.575762
 20
131.158029
 30
0.0
  0
VERTEX
  5
A09
100
AcDbEntity
  8
ALPHA
100
AcDbVertex
100
AcDb2dVertex
 10
70.545717
 20
131.21006
 30
0.0
  0
VERTEX
  5
A0A
100
AcDbEntity
  8
ALPHA
100
AcDbVertex
100
AcDb2dVertex
 10
70.513161
 20
131.263602
 30
0.0
  0
VERTEX
  5
A0B
100
AcDbEntity
  8
ALPHA
100
AcDbVertex
100
AcDb2dVertex
 10
70.47843
 20
131.318279
 30
0.0
  0
VERTEX
  5
A0C
100
AcDbEntity
  8
ALPHA
100
AcDbVertex
100
AcDb2dVertex
 10
70.441886
 20
131.373724
 30
0.0
  0
VERTEX
  5
A0D
100
AcDbEntity
  8
ALPHA
100
AcDbVertex
100
AcDb2dVertex
 10
70.403858
 20
131.429569
 30
0.0
  0
VERTEX
  5
A0E
100
AcDbEntity
  8
ALPHA
100
AcDbVertex
100
AcDb2dVertex
 10
70.364714
 20
131.485434
 30
0.0
  0
VERTEX
  5
A0F
100
AcDbEntity
  8
ALPHA
100
AcDbVertex
100
AcDb2dVertex
 10
70.324795
 20
131.540956
 30
0.0
  0
VERTEX
  5
A10
100
AcDbEntity
  8
ALPHA
100
AcDbVertex
100
AcDb2dVertex
 10
70.284456
 20
131.595769
 30
0.0
  0
VERTEX
  5
A11
100
AcDbEntity
  8
ALPHA
100
AcDbVertex
100
AcDb2dVertex
 10
70.244041
 20
131.649497
 30
0.0
  0
VERTEX
  5
A12
100
AcDbEntity
  8
ALPHA
100
AcDbVertex
100
AcDb2dVertex
 10
70.203915
 20
131.701767
 30
0.0
  0
VERTEX
  5
A13
100
AcDbEntity
  8
ALPHA
100
AcDbVertex
100
AcDb2dVertex
 10
70.164403
 20
131.752224
 30
0.0
  0
VERTEX
  5
A14
100
AcDbEntity
  8
ALPHA
100
AcDbVertex
100
AcDb2dVertex
 10
70.125871
 20
131.800487
 30
0.0
  0
VERTEX
  5
A15
100
AcDbEntity
  8
ALPHA
100
AcDbVertex
100
AcDb2dVertex
 10
70.088663
 20
131.846181
 30
0.0
  0
VERTEX
  5
A16
100
AcDbEntity
  8
ALPHA
100
AcDbVertex
100
AcDb2dVertex
 10
70.053132
 20
131.888953
 30
0.0
  0
VERTEX
  5
A17
100
AcDbEntity
  8
ALPHA
100
AcDbVertex
100
AcDb2dVertex
 10
70.019634
 20
131.928426
 30
0.0
  0
VERTEX
  5
A18
100
AcDbEntity
  8
ALPHA
100
AcDbVertex
100
AcDb2dVertex
 10
69.988504
 20
131.964221
 30
0.0
  0
VERTEX
  5
A19
100
AcDbEntity
  8
ALPHA
100
AcDbVertex
100
AcDb2dVertex
 10
69.960104
 20
131.995984
 30
0.0
  0
VERTEX
  5
A1A
100
AcDbEntity
  8
ALPHA
100
AcDbVertex
100
AcDb2dVertex
 10
69.934782
 20
132.023325
 30
0.0
  0
VERTEX
  5
A1B
100
AcDbEntity
  8
ALPHA
100
AcDbVertex
100
AcDb2dVertex
 10
69.912874
 20
132.045898
 30
0.0
  0
VERTEX
  5
A1C
100
AcDbEntity
  8
ALPHA
100
AcDbVertex
100
AcDb2dVertex
 10
69.912874
 20
131.292267
 30
0.0
  0
VERTEX
  5
A1D
100
AcDbEntity
  8
ALPHA
100
AcDbVertex
100
AcDb2dVertex
 10
70.067439
 20
131.234292
 30
0.0
  0
VERTEX
  5
A1E
100
AcDbEntity
  8
ALPHA
100
AcDbVertex
100
AcDb2dVertex
 10
70.067439
 20
130.151713
 30
0.0
  0
VERTEX
  5
A1F
100
AcDbEntity
  8
ALPHA
100
AcDbVertex
100
AcDb2dVertex
 10
69.217023
 20
130.151713
 30
0.0
  0
VERTEX
  5
A20
100
AcDbEntity
  8
ALPHA
100
AcDbVertex
100
AcDb2dVertex
 10
69.217023
 20
132.490562
 30
0.0
  0
VERTEX
  5
A21
100
AcDbEntity
  8
ALPHA
100
AcDbVertex
100
AcDb2dVertex
 10
69.16383
 20
132.516433
 30
0.0
  0
VERTEX
  5
A22
100
AcDbEntity
  8
ALPHA
100
AcDbVertex
100
AcDb2dVertex
 10
69.109773
 20
132.541348
 30
0.0
  0
VERTEX
  5
A23
100
AcDbEntity
  8
ALPHA
100
AcDbVertex
100
AcDb2dVertex
 10
69.054934
 20
132.565308
 30
0.0
  0
VERTEX
  5
A24
100
AcDbEntity
  8
ALPHA
100
AcDbVertex
100
AcDb2dVertex
 10
68.999405
 20
132.58832
 30
0.0
  0
VERTEX
  5
A25
100
AcDbEntity
  8
ALPHA
100
AcDbVertex
100
AcDb2dVertex
 10
68.94327
 20
132.610364
 30
0.0
  0
VERTEX
  5
A26
100
AcDbEntity
  8
ALPHA
100
AcDbVertex
100
AcDb2dVertex
 10
68.886611
 20
132.631459
 30
0.0
  0
VERTEX
  5
A27
100
AcDbEntity
  8
ALPHA
100
AcDbVertex
100
AcDb2dVertex
 10
68.829521
 20
132.651586
 30
0.0
  0
VERTEX
  5
A28
100
AcDbEntity
  8
ALPHA
100
AcDbVertex
100
AcDb2dVertex
 10
68.772088
 20
132.670765
 30
0.0
  0
VERTEX
  5
A29
100
AcDbEntity
  8
ALPHA
100
AcDbVertex
100
AcDb2dVertex
 10
68.714391
 20
132.688969
 30
0.0
  0
VERTEX
  5
A2A
100
AcDbEntity
  8
ALPHA
100
AcDbVertex
100
AcDb2dVertex
 10
68.65652
 20
132.706225
 30
0.0
  0
VERTEX
  5
A2B
100
AcDbEntity
  8
ALPHA
100
AcDbVertex
100
AcDb2dVertex
 10
68.598558
 20
132.722512
 30
0.0
  0
VERTEX
  5
A2C
100
AcDbEntity
  8
ALPHA
100
AcDbVertex
100
AcDb2dVertex
 10
68.598558
 20
132.297214
 30
0.0
  0
VERTEX
  5
A2D
100
AcDbEntity
  8
ALPHA
100
AcDbVertex
100
AcDb2dVertex
 10
66.917002
 20
132.297214
 30
0.0
  0
VERTEX
  5
A2E
100
AcDbEntity
  8
ALPHA
100
AcDbVertex
100
AcDb2dVertex
 10
66.917002
 20
132.587165
 30
0.0
  0
VERTEX
  5
A2F
100
AcDbEntity
  8
ALPHA
100
AcDbVertex
100
AcDb2dVertex
 10
66.859802
 20
132.567019
 30
0.0
  0
VERTEX
  5
A30
100
AcDbEntity
  8
ALPHA
100
AcDbVertex
100
AcDb2dVertex
 10
66.804073
 20
132.545272
 30
0.0
  0
VERTEX
  5
A31
100
AcDbEntity
  8
ALPHA
100
AcDbVertex
100
AcDb2dVertex
 10
66.749686
 20
132.521918
 30
0.0
  0
VERTEX
  5
A32
100
AcDbEntity
  8
ALPHA
100
AcDbVertex
100
AcDb2dVertex
 10
66.6965
 20
132.496957
 30
0.0
  0
VERTEX
  5
A33
100
AcDbEntity
  8
ALPHA
100
AcDbVertex
100
AcDb2dVertex
 10
66.644385
 20
132.470377
 30
0.0
  0
VERTEX
  5
A34
100
AcDbEntity
  8
ALPHA
100
AcDbVertex
100
AcDb2dVertex
 10
66.593225
 20
132.442203
 30
0.0
  0
VERTEX
  5
A35
100
AcDbEntity
  8
ALPHA
100
AcDbVertex
100
AcDb2dVertex
 10
66.542852
 20
132.412409
 30
0.0
  0
VERTEX
  5
A36
100
AcDbEntity
  8
ALPHA
100
AcDbVertex
100
AcDb2dVertex
 10
66.49315
 20
132.381001
 30
0.0
  0
VERTEX
  5
A37
100
AcDbEntity
  8
ALPHA
100
AcDbVertex
100
AcDb2dVertex
 10
66.44399
 20
132.347968
 30
0.0
  0
VERTEX
  5
A38
100
AcDbEntity
  8
ALPHA
100
AcDbVertex
100
AcDb2dVertex
 10
66.395243
 20
132.313334
 30
0.0
  0
VERTEX
  5
A39
100
AcDbEntity
  8
ALPHA
100
AcDbVertex
100
AcDb2dVertex
 10
66.346755
 20
132.277061
 30
0.0
  0
VERTEX
  5
A3A
100
AcDbEntity
  8
ALPHA
100
AcDbVertex
100
AcDb2dVertex
 10
66.298408
 20
132.239175
 30
0.0
  0
VERTEX
  5
A3B
100
AcDbEntity
  8
ALPHA
100
AcDbVertex
100
AcDb2dVertex
 10
66.298408
 20
130.151713
 30
0.0
  0
VERTEX
  5
A3C
100
AcDbEntity
  8
ALPHA
100
AcDbVertex
100
AcDb2dVertex
 10
65.699302
 20
130.151713
 30
0.0
  0
VERTEX
  5
A3D
100
AcDbEntity
  8
ALPHA
100
AcDbVertex
100
AcDb2dVertex
 10
65.699302
 20
130.248516
 30
0.0
  0
VERTEX
  5
A3E
100
AcDbEntity
  8
ALPHA
100
AcDbVertex
100
AcDb2dVertex
 10
64.964875
 20
130.248516
 30
0.0
  0
VERTEX
  5
A3F
100
AcDbEntity
  8
ALPHA
100
AcDbVertex
100
AcDb2dVertex
 10
64.964875
 20
129.513921
 30
0.0
  0
VERTEX
  5
A40
100
AcDbEntity
  8
ALPHA
100
AcDbVertex
100
AcDb2dVertex
 10
65.699302
 20
129.513921
 30
0.0
  0
VERTEX
  5
A41
100
AcDbEntity
  8
ALPHA
100
AcDbVertex
100
AcDb2dVertex
 10
65.699302
 20
129.629883
 30
0.0
  0
VERTEX
  5
A42
100
AcDbEntity
  8
ALPHA
100
AcDbVertex
100
AcDb2dVertex
 10
66.298408
 20
129.629883
 30
0.0
  0
VERTEX
  5
A43
100
AcDbEntity
  8
ALPHA
100
AcDbVertex
100
AcDb2dVertex
 10
66.298408
 20
127.523178
 30
0.0
  0
VERTEX
  5
A44
100
AcDbEntity
  8
ALPHA
100
AcDbVertex
100
AcDb2dVertex
 10
66.348304
 20
127.484847
 30
0.0
  0
VERTEX
  5
A45
100
AcDbEntity
  8
ALPHA
100
AcDbVertex
100
AcDb2dVertex
 10
66.396702
 20
127.449419
 30
0.0
  0
VERTEX
  5
A46
100
AcDbEntity
  8
ALPHA
100
AcDbVertex
100
AcDb2dVertex
 10
66.443913
 20
127.416663
 30
0.0
  0
VERTEX
  5
A47
100
AcDbEntity
  8
ALPHA
100
AcDbVertex
100
AcDb2dVertex
 10
66.490246
 20
127.386308
 30
0.0
  0
VERTEX
  5
A48
100
AcDbEntity
  8
ALPHA
100
AcDbVertex
100
AcDb2dVertex
 10
66.536011
 20
127.358121
 30
0.0
  0
VERTEX
  5
A49
100
AcDbEntity
  8
ALPHA
100
AcDbVertex
100
AcDb2dVertex
 10
66.581519
 20
127.331818
 30
0.0
  0
VERTEX
  5
A4A
100
AcDbEntity
  8
ALPHA
100
AcDbVertex
100
AcDb2dVertex
 10
66.627078
 20
127.307167
 30
0.0
  0
VERTEX
  5
A4B
100
AcDbEntity
  8
ALPHA
100
AcDbVertex
100
AcDb2dVertex
 10
66.673011
 20
127.283897
 30
0.0
  0
VERTEX
  5
A4C
100
AcDbEntity
  8
ALPHA
100
AcDbVertex
100
AcDb2dVertex
 10
66.719602
 20
127.261763
 30
0.0
  0
VERTEX
  5
A4D
100
AcDbEntity
  8
ALPHA
100
AcDbVertex
100
AcDb2dVertex
 10
66.7672
 20
127.240506
 30
0.0
  0
VERTEX
  5
A4E
100
AcDbEntity
  8
ALPHA
100
AcDbVertex
100
AcDb2dVertex
 10
66.816089
 20
127.219882
 30
0.0
  0
VERTEX
  5
A4F
100
AcDbEntity
  8
ALPHA
100
AcDbVertex
100
AcDb2dVertex
 10
66.866604
 20
127.199632
 30
0.0
  0
VERTEX
  5
A50
100
AcDbEntity
  8
ALPHA
100
AcDbVertex
100
AcDb2dVertex
 10
66.919029
 20
127.179499
 30
0.0
  0
VERTEX
  5
A51
100
AcDbEntity
  8
ALPHA
100
AcDbVertex
100
AcDb2dVertex
 10
66.973686
 20
127.15921
 30
0.0
  0
VERTEX
  5
A52
100
AcDbEntity
  8
ALPHA
100
AcDbVertex
100
AcDb2dVertex
 10
67.030887
 20
127.138547
 30
0.0
  0
VERTEX
  5
A53
100
AcDbEntity
  8
ALPHA
100
AcDbVertex
100
AcDb2dVertex
 10
67.090952
 20
127.117226
 30
0.0
  0
VERTEX
  5
A54
100
AcDbEntity
  8
ALPHA
100
AcDbVertex
100
AcDb2dVertex
 10
67.090952
 20
127.755103
 30
0.0
  0
VERTEX
  5
A55
100
AcDbEntity
  8
ALPHA
100
AcDbVertex
100
AcDb2dVertex
 10
66.917002
 20
127.967693
 30
0.0
  0
VERTEX
  5
A56
100
AcDbEntity
  8
ALPHA
100
AcDbVertex
100
AcDb2dVertex
 10
66.917002
 20
129.629883
 30
0.0
  0
VERTEX
  5
A57
100
AcDbEntity
  8
ALPHA
100
AcDbVertex
100
AcDb2dVertex
 10
67.438903
 20
129.629883
 30
0.0
  0
VERTEX
  5
A58
100
AcDbEntity
  8
ALPHA
100
AcDbVertex
100
AcDb2dVertex
 10
67.438903
 20
128.682891
 30
0.0
  0
VERTEX
  5
A59
100
AcDbEntity
  8
ALPHA
100
AcDbVertex
100
AcDb2dVertex
 10
67.342146
 20
128.682891
 30
0.0
  0
VERTEX
  5
A5A
100
AcDbEntity
  8
ALPHA
100
AcDbVertex
100
AcDb2dVertex
 10
67.342146
 20
128.160977
 30
0.0
  0
VERTEX
  5
A5B
100
AcDbEntity
  8
ALPHA
100
AcDbVertex
100
AcDb2dVertex
 10
68.173266
 20
128.160977
 30
0.0
  0
VERTEX
  5
A5C
100
AcDbEntity
  8
ALPHA
100
AcDbVertex
100
AcDb2dVertex
 10
68.173266
 20
128.682891
 30
0.0
  0
VERTEX
  5
A5D
100
AcDbEntity
  8
ALPHA
100
AcDbVertex
100
AcDb2dVertex
 10
68.076754
 20
128.682891
 30
0.0
  0
VERTEX
  5
A5E
100
AcDbEntity
  8
ALPHA
100
AcDbVertex
100
AcDb2dVertex
 10
68.076754
 20
129.629883
 30
0.0
  0
VERTEX
  5
A5F
100
AcDbEntity
  8
ALPHA
100
AcDbVertex
100
AcDb2dVertex
 10
68.598558
 20
129.629883
 30
0.0
  0
VERTEX
  5
A60
100
AcDbEntity
  8
ALPHA
100
AcDbVertex
100
AcDb2dVertex
 10
68.598558
 20
127.639127
 30
0.0
  0
VERTEX
  5
A61
100
AcDbEntity
  8
ALPHA
100
AcDbVertex
100
AcDb2dVertex
 10
68.463217
 20
127.60037
 30
0.0
  0
VERTEX
  5
A62
100
AcDbEntity
  8
ALPHA
100
AcDbVertex
100
AcDb2dVertex
 10
68.463217
 20
127.02052
 30
0.0
  0
VERTEX
  5
A63
100
AcDbEntity
  8
ALPHA
100
AcDbVertex
100
AcDb2dVertex
 10
68.517352
 20
127.033246
 30
0.0
  0
VERTEX
  5
A64
100
AcDbEntity
  8
ALPHA
100
AcDbVertex
100
AcDb2dVertex
 10
68.571945
 20
127.046604
 30
0.0
  0
VERTEX
  5
A65
100
AcDbEntity
  8
ALPHA
100
AcDbVertex
100
AcDb2dVertex
 10
68.626874
 20
127.060646
 30
0.0
  0
VERTEX
  5
A66
100
AcDbEntity
  8
ALPHA
100
AcDbVertex
100
AcDb2dVertex
 10
68.682009
 20
127.07541
 30
0.0
  0
VERTEX
  5
A67
100
AcDbEntity
  8
ALPHA
100
AcDbVertex
100
AcDb2dVertex
 10
68.737229
 20
127.090924
 30
0.0
  0
VERTEX
  5
A68
100
AcDbEntity
  8
ALPHA
100
AcDbVertex
100
AcDb2dVertex
 10
68.792403
 20
127.10725
 30
0.0
  0
VERTEX
  5
A69
100
AcDbEntity
  8
ALPHA
100
AcDbVertex
100
AcDb2dVertex
 10
68.847409
 20
127.124428
 30
0.0
  0
VERTEX
  5
A6A
100
AcDbEntity
  8
ALPHA
100
AcDbVertex
100
AcDb2dVertex
 10
68.902118
 20
127.142484
 30
0.0
  0
VERTEX
  5
A6B
100
AcDbEntity
  8
ALPHA
100
AcDbVertex
100
AcDb2dVertex
 10
68.956395
 20
127.161469
 30
0.0
  0
VERTEX
  5
A6C
100
AcDbEntity
  8
ALPHA
100
AcDbVertex
100
AcDb2dVertex
 10
69.01013
 20
127.181435
 30
0.0
  0
VERTEX
  5
A6D
100
AcDbEntity
  8
ALPHA
100
AcDbVertex
100
AcDb2dVertex
 10
69.063188
 20
127.202407
 30
0.0
  0
VERTEX
  5
A6E
100
AcDbEntity
  8
ALPHA
100
AcDbVertex
100
AcDb2dVertex
 10
69.115438
 20
127.224438
 30
0.0
  0
SEQEND
  5
A6F
100
AcDbEntity
  8
ALPHA
  0
POLYLINE
  5
A70
100
AcDbEntity
  8
ALPHA
100
AcDb2dPolyline
 66
     1
 10
0.0
 20
0.0
 30
0.0
 70
     1
  0
VERTEX
  5
A71
100
AcDbEntity
  8
ALPHA
100
AcDbVertex
100
AcDb2dVertex
 10
67.980486
 20
126.20836
 30
0.0
  0
VERTEX
  5
A72
100
AcDbEntity
  8
ALPHA
100
AcDbVertex
100
AcDb2dVertex
 10
68.24205
 20
126.217494
 30
0.0
  0
VERTEX
  5
A73
100
AcDbEntity
  8
ALPHA
100
AcDbVertex
100
AcDb2dVertex
 10
68.50234
 20
126.244852
 30
0.0
  0
VERTEX
  5
A74
100
AcDbEntity
  8
ALPHA
100
AcDbVertex
100
AcDb2dVertex
 10
68.760087
 20
126.290299
 30
0.0
  0
VERTEX
  5
A75
100
AcDbEntity
  8
ALPHA
100
AcDbVertex
100
AcDb2dVertex
 10
69.014037
 20
126.353616
 30
0.0
  0
VERTEX
  5
A76
100
AcDbEntity
  8
ALPHA
100
AcDbVertex
100
AcDb2dVertex
 10
69.262951
 20
126.434493
 30
0.0
  0
VERTEX
  5
A77
100
AcDbEntity
  8
ALPHA
100
AcDbVertex
100
AcDb2dVertex
 10
69.505617
 20
126.532537
 30
0.0
  0
VERTEX
  5
A78
100
AcDbEntity
  8
ALPHA
100
AcDbVertex
100
AcDb2dVertex
 10
69.740852
 20
126.647269
 30
0.0
  0
VERTEX
  5
A79
100
AcDbEntity
  8
ALPHA
100
AcDbVertex
100
AcDb2dVertex
 10
69.967512
 20
126.77813
 30
0.0
  0
VERTEX
  5
A7A
100
AcDbEntity
  8
ALPHA
100
AcDbVertex
100
AcDb2dVertex
 10
70.18449
 20
126.924484
 30
0.0
  0
VERTEX
  5
A7B
100
AcDbEntity
  8
ALPHA
100
AcDbVertex
100
AcDb2dVertex
 10
70.390731
 20
127.085618
 30
0.0
  0
VERTEX
  5
A7C
100
AcDbEntity
  8
ALPHA
100
AcDbVertex
100
AcDb2dVertex
 10
70.58523
 20
127.260745
 30
0.0
  0
VERTEX
  5
A7D
100
AcDbEntity
  8
ALPHA
100
AcDbVertex
100
AcDb2dVertex
 10
70.767038
 20
127.449013
 30
0.0
  0
VERTEX
  5
A7E
100
AcDbEntity
  8
ALPHA
100
AcDbVertex
100
AcDb2dVertex
 10
70.935271
 20
127.649505
 30
0.0
  0
VERTEX
  5
A7F
100
AcDbEntity
  8
ALPHA
100
AcDbVertex
100
AcDb2dVertex
 10
71.089108
 20
127.861244
 30
0.0
  0
VERTEX
  5
A80
100
AcDbEntity
  8
ALPHA
100
AcDbVertex
100
AcDb2dVertex
 10
71.227801
 20
128.083198
 30
0.0
  0
VERTEX
  5
A81
100
AcDbEntity
  8
ALPHA
100
AcDbVertex
100
AcDb2dVertex
 10
71.350672
 20
128.314286
 30
0.0
  0
VERTEX
  5
A82
100
AcDbEntity
  8
ALPHA
100
AcDbVertex
100
AcDb2dVertex
 10
71.457125
 20
128.553383
 30
0.0
  0
VERTEX
  5
A83
100
AcDbEntity
  8
ALPHA
100
AcDbVertex
100
AcDb2dVertex
 10
71.54664
 20
128.799322
 30
0.0
  0
VERTEX
  5
A84
100
AcDbEntity
  8
ALPHA
100
AcDbVertex
100
AcDb2dVertex
 10
71.618781
 20
129.050907
 30
0.0
  0
VERTEX
  5
A85
100
AcDbEntity
  8
ALPHA
100
AcDbVertex
100
AcDb2dVertex
 10
71.673196
 20
129.306912
 30
0.0
  0
VERTEX
  5
A86
100
AcDbEntity
  8
ALPHA
100
AcDbVertex
100
AcDb2dVertex
 10
71.709621
 20
129.566088
 30
0.0
  0
VERTEX
  5
A87
100
AcDbEntity
  8
ALPHA
100
AcDbVertex
100
AcDb2dVertex
 10
71.727878
 20
129.827174
 30
0.0
  0
VERTEX
  5
A88
100
AcDbEntity
  8
ALPHA
100
AcDbVertex
100
AcDb2dVertex
 10
71.727878
 20
130.088898
 30
0.0
  0
VERTEX
  5
A89
100
AcDbEntity
  8
ALPHA
100
AcDbVertex
100
AcDb2dVertex
 10
71.709621
 20
130.349984
 30
0.0
  0
VERTEX
  5
A8A
100
AcDbEntity
  8
ALPHA
100
AcDbVertex
100
AcDb2dVertex
 10
71.673196
 20
130.60916
 30
0.0
  0
VERTEX
  5
A8B
100
AcDbEntity
  8
ALPHA
100
AcDbVertex
100
AcDb2dVertex
 10
71.618781
 20
130.865165
 30
0.0
  0
VERTEX
  5
A8C
100
AcDbEntity
  8
ALPHA
100
AcDbVertex
100
AcDb2dVertex
 10
71.54664
 20
131.11675
 30
0.0
  0
VERTEX
  5
A8D
100
AcDbEntity
  8
ALPHA
100
AcDbVertex
100
AcDb2dVertex
 10
71.457125
 20
131.362689
 30
0.0
  0
VERTEX
  5
A8E
100
AcDbEntity
  8
ALPHA
100
AcDbVertex
100
AcDb2dVertex
 10
71.350672
 20
131.601786
 30
0.0
  0
VERTEX
  5
A8F
100
AcDbEntity
  8
ALPHA
100
AcDbVertex
100
AcDb2dVertex
 10
71.227801
 20
131.832874
 30
0.0
  0
VERTEX
  5
A90
100
AcDbEntity
  8
ALPHA
100
AcDbVertex
100
AcDb2dVertex
 10
71.089108
 20
132.054828
 30
0.0
  0
VERTEX
  5
A91
100
AcDbEntity
  8
ALPHA
100
AcDbVertex
100
AcDb2dVertex
 10
70.935271
 20
132.266567
 30
0.0
  0
VERTEX
  5
A92
100
AcDbEntity
  8
ALPHA
100
AcDbVertex
100
AcDb2dVertex
 10
70.767038
 20
132.467059
 30
0.0
  0
VERTEX
  5
A93
100
AcDbEntity
  8
ALPHA
100
AcDbVertex
100
AcDb2dVertex
 10
70.58523
 20
132.655327
 30
0.0
  0
VERTEX
  5
A94
100
AcDbEntity
  8
ALPHA
100
AcDbVertex
100
AcDb2dVertex
 10
70.390731
 20
132.830455
 30
0.0
  0
VERTEX
  5
A95
100
AcDbEntity
  8
ALPHA
100
AcDbVertex
100
AcDb2dVertex
 10
70.18449
 20
132.991588
 30
0.0
  0
VERTEX
  5
A96
100
AcDbEntity
  8
ALPHA
100
AcDbVertex
100
AcDb2dVertex
 10
69.967512
 20
133.137942
 30
0.0
  0
VERTEX
  5
A97
100
AcDbEntity
  8
ALPHA
100
AcDbVertex
100
AcDb2dVertex
 10
69.740852
 20
133.268804
 30
0.0
  0
VERTEX
  5
A98
100
AcDbEntity
  8
ALPHA
100
AcDbVertex
100
AcDb2dVertex
 10
69.505617
 20
133.383536
 30
0.0
  0
VERTEX
  5
A99
100
AcDbEntity
  8
ALPHA
100
AcDbVertex
100
AcDb2dVertex
 10
69.262951
 20
133.481579
 30
0.0
  0
VERTEX
  5
A9A
100
AcDbEntity
  8
ALPHA
100
AcDbVertex
100
AcDb2dVertex
 10
69.014037
 20
133.562456
 30
0.0
  0
VERTEX
  5
A9B
100
AcDbEntity
  8
ALPHA
100
AcDbVertex
100
AcDb2dVertex
 10
68.760087
 20
133.625773
 30
0.0
  0
VERTEX
  5
A9C
100
AcDbEntity
  8
ALPHA
100
AcDbVertex
100
AcDb2dVertex
 10
68.50234
 20
133.671221
 30
0.0
  0
VERTEX
  5
A9D
100
AcDbEntity
  8
ALPHA
100
AcDbVertex
100
AcDb2dVertex
 10
68.24205
 20
133.698578
 30
0.0
  0
VERTEX
  5
A9E
100
AcDbEntity
  8
ALPHA
100
AcDbVertex
100
AcDb2dVertex
 10
67.980486
 20
133.707712
 30
0.0
  0
VERTEX
  5
A9F
100
AcDbEntity
  8
ALPHA
100
AcDbVertex
100
AcDb2dVertex
 10
67.718922
 20
133.698578
 30
0.0
  0
VERTEX
  5
AA0
100
AcDbEntity
  8
ALPHA
100
AcDbVertex
100
AcDb2dVertex
 10
67.458632
 20
133.671221
 30
0.0
  0
VERTEX
  5
AA1
100
AcDbEntity
  8
ALPHA
100
AcDbVertex
100
AcDb2dVertex
 10
67.200884
 20
133.625773
 30
0.0
  0
VERTEX
  5
AA2
100
AcDbEntity
  8
ALPHA
100
AcDbVertex
100
AcDb2dVertex
 10
66.946935
 20
133.562456
 30
0.0
  0
VERTEX
  5
AA3
100
AcDbEntity
  8
ALPHA
100
AcDbVertex
100
AcDb2dVertex
 10
66.698021
 20
133.481579
 30
0.0
  0
VERTEX
  5
AA4
100
AcDbEntity
  8
ALPHA
100
AcDbVertex
100
AcDb2dVertex
 10
66.455355
 20
133.383536
 30
0.0
  0
VERTEX
  5
AA5
100
AcDbEntity
  8
ALPHA
100
AcDbVertex
100
AcDb2dVertex
 10
66.22012
 20
133.268804
 30
0.0
  0
VERTEX
  5
AA6
100
AcDbEntity
  8
ALPHA
100
AcDbVertex
100
AcDb2dVertex
 10
65.99346
 20
133.137942
 30
0.0
  0
VERTEX
  5
AA7
100
AcDbEntity
  8
ALPHA
100
AcDbVertex
100
AcDb2dVertex
 10
65.776482
 20
132.991588
 30
0.0
  0
VERTEX
  5
AA8
100
AcDbEntity
  8
ALPHA
100
AcDbVertex
100
AcDb2dVertex
 10
65.570241
 20
132.830455
 30
0.0
  0
VERTEX
  5
AA9
100
AcDbEntity
  8
ALPHA
100
AcDbVertex
100
AcDb2dVertex
 10
65.375742
 20
132.655327
 30
0.0
  0
VERTEX
  5
AAA
100
AcDbEntity
  8
ALPHA
100
AcDbVertex
100
AcDb2dVertex
 10
65.193934
 20
132.467059
 30
0.0
  0
VERTEX
  5
AAB
100
AcDbEntity
  8
ALPHA
100
AcDbVertex
100
AcDb2dVertex
 10
65.025701
 20
132.266567
 30
0.0
  0
VERTEX
  5
AAC
100
AcDbEntity
  8
ALPHA
100
AcDbVertex
100
AcDb2dVertex
 10
64.871864
 20
132.054828
 30
0.0
  0
VERTEX
  5
AAD
100
AcDbEntity
  8
ALPHA
100
AcDbVertex
100
AcDb2dVertex
 10
64.733171
 20
131.832874
 30
0.0
  0
VERTEX
  5
AAE
100
AcDbEntity
  8
ALPHA
100
AcDbVertex
100
AcDb2dVertex
 10
64.610299
 20
131.601786
 30
0.0
  0
VERTEX
  5
AAF
100
AcDbEntity
  8
ALPHA
100
AcDbVertex
100
AcDb2dVertex
 10
64.503847
 20
131.362689
 30
0.0
  0
VERTEX
  5
AB0
100
AcDbEntity
  8
ALPHA
100
AcDbVertex
100
AcDb2dVertex
 10
64.414332
 20
131.11675
 30
0.0
  0
VERTEX
  5
AB1
100
AcDbEntity
  8
ALPHA
100
AcDbVertex
100
AcDb2dVertex
 10
64.342191
 20
130.865165
 30
0.0
  0
VERTEX
  5
AB2
100
AcDbEntity
  8
ALPHA
100
AcDbVertex
100
AcDb2dVertex
 10
64.287776
 20
130.60916
 30
0.0
  0
VERTEX
  5
AB3
100
AcDbEntity
  8
ALPHA
100
AcDbVertex
100
AcDb2dVertex
 10
64.251351
 20
130.349984
 30
0.0
  0
VERTEX
  5
AB4
100
AcDbEntity
  8
ALPHA
100
AcDbVertex
100
AcDb2dVertex
 10
64.233094
 20
130.088898
 30
0.0
  0
VERTEX
  5
AB5
100
AcDbEntity
  8
ALPHA
100
AcDbVertex
100
AcDb2dVertex
 10
64.233094
 20
129.827174
 30
0.0
  0
VERTEX
  5
AB6
100
AcDbEntity
  8
ALPHA
100
AcDbVertex
100
AcDb2dVertex
 10
64.251351
 20
129.566088
 30
0.0
  0
VERTEX
  5
AB7
100
AcDbEntity
  8
ALPHA
100
AcDbVertex
100
AcDb2dVertex
 10
64.287776
 20
129.306912
 30
0.0
  0
VERTEX
  5
AB8
100
AcDbEntity
  8
ALPHA
100
AcDbVertex
100
AcDb2dVertex
 10
64.342191
 20
129.050907
 30
0.0
  0
VERTEX
  5
AB9
100
AcDbEntity
  8
ALPHA
100
AcDbVertex
100
AcDb2dVertex
 10
64.414332
 20
128.799322
 30
0.0
  0
VERTEX
  5
ABA
100
AcDbEntity
  8
ALPHA
100
AcDbVertex
100
AcDb2dVertex
 10
64.503847
 20
128.553383
 30
0.0
  0
VERTEX
  5
ABB
100
AcDbEntity
  8
ALPHA
100
AcDbVertex
100
AcDb2dVertex
 10
64.610299
 20
128.314286
 30
0.0
  0
VERTEX
  5
ABC
100
AcDbEntity
  8
ALPHA
100
AcDbVertex
100
AcDb2dVertex
 10
64.733171
 20
128.083198
 30
0.0
  0
VERTEX
  5
ABD
100
AcDbEntity
  8
ALPHA
100
AcDbVertex
100
AcDb2dVertex
 10
64.871864
 20
127.861244
 30
0.0
  0
VERTEX
  5
ABE
100
AcDbEntity
  8
ALPHA
100
AcDbVertex
100
AcDb2dVertex
 10
65.025701
 20
127.649505
 30
0.0
  0
VERTEX
  5
ABF
100
AcDbEntity
  8
ALPHA
100
AcDbVertex
100
AcDb2dVertex
 10
65.193934
 20
127.449013
 30
0.0
  0
VERTEX
  5
AC0
100
AcDbEntity
  8
ALPHA
100
AcDbVertex
100
AcDb2dVertex
 10
65.375742
 20
127.260745
 30
0.0
  0
VERTEX
  5
AC1
100
AcDbEntity
  8
ALPHA
100
AcDbVertex
100
AcDb2dVertex
 10
65.570241
 20
127.085618
 30
0.0
  0
VERTEX
  5
AC2
100
AcDbEntity
  8
ALPHA
100
AcDbVertex
100
AcDb2dVertex
 10
65.776482
 20
126.924484
 30
0.0
  0
VERTEX
  5
AC3
100
AcDbEntity
  8
ALPHA
100
AcDbVertex
100
AcDb2dVertex
 10
65.99346
 20
126.77813
 30
0.0
  0
VERTEX
  5
AC4
100
AcDbEntity
  8
ALPHA
100
AcDbVertex
100
AcDb2dVertex
 10
66.22012
 20
126.647269
 30
0.0
  0
VERTEX
  5
AC5
100
AcDbEntity
  8
ALPHA
100
AcDbVertex
100
AcDb2dVertex
 10
66.455355
 20
126.532537
 30
0.0
  0
VERTEX
  5
AC6
100
AcDbEntity
  8
ALPHA
100
AcDbVertex
100
AcDb2dVertex
 10
66.698021
 20
126.434493
 30
0.0
  0
VERTEX
  5
AC7
100
AcDbEntity
  8
ALPHA
100
AcDbVertex
100
AcDb2dVertex
 10
66.946935
 20
126.353616
 30
0.0
  0
VERTEX
  5
AC8
100
AcDbEntity
  8
ALPHA
100
AcDbVertex
100
AcDb2dVertex
 10
67.200884
 20
126.290299
 30
0.0
  0
VERTEX
  5
AC9
100
AcDbEntity
  8
ALPHA
100
AcDbVertex
100
AcDb2dVertex
 10
67.458632
 20
126.244852
 30
0.0
  0
VERTEX
  5
ACA
100
AcDbEntity
  8
ALPHA
100
AcDbVertex
100
AcDb2dVertex
 10
67.718922
 20
126.217494
 30
0.0
  0
SEQEND
  5
ACB
100
AcDbEntity
  8
ALPHA
  0
POLYLINE
  5
ACC
100
AcDbEntity
  8
ALPHA
100
AcDb2dPolyline
 66
     1
 10
0.0
 20
0.0
 30
0.0
 70
     1
  0
VERTEX
  5
ACD
100
AcDbEntity
  8
ALPHA
100
AcDbVertex
100
AcDb2dVertex
 10
67.97006
 20
126.555978
 30
0.0
  0
VERTEX
  5
ACE
100
AcDbEntity
  8
ALPHA
100
AcDbVertex
100
AcDb2dVertex
 10
68.223612
 20
126.565465
 30
0.0
  0
VERTEX
  5
ACF
100
AcDbEntity
  8
ALPHA
100
AcDbVertex
100
AcDb2dVertex
 10
68.475747
 20
126.593874
 30
0.0
  0
VERTEX
  5
AD0
100
AcDbEntity
  8
ALPHA
100
AcDbVertex
100
AcDb2dVertex
 10
68.725053
 20
126.641045
 30
0.0
  0
VERTEX
  5
AD1
100
AcDbEntity
  8
ALPHA
100
AcDbVertex
100
AcDb2dVertex
 10
68.970137
 20
126.706715
 30
0.0
  0
VERTEX
  5
AD2
100
AcDbEntity
  8
ALPHA
100
AcDbVertex
100
AcDb2dVertex
 10
69.209629
 20
126.790517
 30
0.0
  0
VERTEX
  5
AD3
100
AcDbEntity
  8
ALPHA
100
AcDbVertex
100
AcDb2dVertex
 10
69.442188
 20
126.891981
 30
0.0
  0
VERTEX
  5
AD4
100
AcDbEntity
  8
ALPHA
100
AcDbVertex
100
AcDb2dVertex
 10
69.666514
 20
127.010541
 30
0.0
  0
VERTEX
  5
AD5
100
AcDbEntity
  8
ALPHA
100
AcDbVertex
100
AcDb2dVertex
 10
69.881353
 20
127.145534
 30
0.0
  0
VERTEX
  5
AD6
100
AcDbEntity
  8
ALPHA
100
AcDbVertex
100
AcDb2dVertex
 10
70.085504
 20
127.296204
 30
0.0
  0
VERTEX
  5
AD7
100
AcDbEntity
  8
ALPHA
100
AcDbVertex
100
AcDb2dVertex
 10
70.277824
 20
127.461708
 30
0.0
  0
VERTEX
  5
AD8
100
AcDbEntity
  8
ALPHA
100
AcDbVertex
100
AcDb2dVertex
 10
70.457238
 20
127.641122
 30
0.0
  0
VERTEX
  5
AD9
100
AcDbEntity
  8
ALPHA
100
AcDbVertex
100
AcDb2dVertex
 10
70.622743
 20
127.833442
 30
0.0
  0
VERTEX
  5
ADA
100
AcDbEntity
  8
ALPHA
100
AcDbVertex
100
AcDb2dVertex
 10
70.773413
 20
128.037593
 30
0.0
  0
VERTEX
  5
ADB
100
AcDbEntity
  8
ALPHA
100
AcDbVertex
100
AcDb2dVertex
 10
70.908405
 20
128.252432
 30
0.0
  0
VERTEX
  5
ADC
100
AcDbEntity
  8
ALPHA
100
AcDbVertex
100
AcDb2dVertex
 10
71.026965
 20
128.476758
 30
0.0
  0
VERTEX
  5
ADD
100
AcDbEntity
  8
ALPHA
100
AcDbVertex
100
AcDb2dVertex
 10
71.128429
 20
128.709318
 30
0.0
  0
VERTEX
  5
ADE
100
AcDbEntity
  8
ALPHA
100
AcDbVertex
100
AcDb2dVertex
 10
71.212231
 20
128.948809
 30
0.0
  0
VERTEX
  5
ADF
100
AcDbEntity
  8
ALPHA
100
AcDbVertex
100
AcDb2dVertex
 10
71.277901
 20
129.193893
 30
0.0
  0
VERTEX
  5
AE0
100
AcDbEntity
  8
ALPHA
100
AcDbVertex
100
AcDb2dVertex
 10
71.325073
 20
129.443199
 30
0.0
  0
VERTEX
  5
AE1
100
AcDbEntity
  8
ALPHA
100
AcDbVertex
100
AcDb2dVertex
 10
71.353481
 20
129.695334
 30
0.0
  0
VERTEX
  5
AE2
100
AcDbEntity
  8
ALPHA
100
AcDbVertex
100
AcDb2dVertex
 10
71.362968
 20
129.948886
 30
0.0
  0
VERTEX
  5
AE3
100
AcDbEntity
  8
ALPHA
100
AcDbVertex
100
AcDb2dVertex
 10
71.353481
 20
130.202439
 30
0.0
  0
VERTEX
  5
AE4
100
AcDbEntity
  8
ALPHA
100
AcDbVertex
100
AcDb2dVertex
 10
71.325073
 20
130.454573
 30
0.0
  0
VERTEX
  5
AE5
100
AcDbEntity
  8
ALPHA
100
AcDbVertex
100
AcDb2dVertex
 10
71.277901
 20
130.703879
 30
0.0
  0
VERTEX
  5
AE6
100
AcDbEntity
  8
ALPHA
100
AcDbVertex
100
AcDb2dVertex
 10
71.212231
 20
130.948964
 30
0.0
  0
VERTEX
  5
AE7
100
AcDbEntity
  8
ALPHA
100
AcDbVertex
100
AcDb2dVertex
 10
71.128429
 20
131.188455
 30
0.0
  0
VERTEX
  5
AE8
100
AcDbEntity
  8
ALPHA
100
AcDbVertex
100
AcDb2dVertex
 10
71.026965
 20
131.421014
 30
0.0
  0
VERTEX
  5
AE9
100
AcDbEntity
  8
ALPHA
100
AcDbVertex
100
AcDb2dVertex
 10
70.908405
 20
131.64534
 30
0.0
  0
VERTEX
  5
AEA
100
AcDbEntity
  8
ALPHA
100
AcDbVertex
100
AcDb2dVertex
 10
70.773413
 20
131.86018
 30
0.0
  0
VERTEX
  5
AEB
100
AcDbEntity
  8
ALPHA
100
AcDbVertex
100
AcDb2dVertex
 10
70.622743
 20
132.06433
 30
0.0
  0
VERTEX
  5
AEC
100
AcDbEntity
  8
ALPHA
100
AcDbVertex
100
AcDb2dVertex
 10
70.457238
 20
132.25665
 30
0.0
  0
VERTEX
  5
AED
100
AcDbEntity
  8
ALPHA
100
AcDbVertex
100
AcDb2dVertex
 10
70.277824
 20
132.436064
 30
0.0
  0
VERTEX
  5
AEE
100
AcDbEntity
  8
ALPHA
100
AcDbVertex
100
AcDb2dVertex
 10
70.085504
 20
132.601569
 30
0.0
  0
VERTEX
  5
AEF
100
AcDbEntity
  8
ALPHA
100
AcDbVertex
100
AcDb2dVertex
 10
69.881353
 20
132.752239
 30
0.0
  0
VERTEX
  5
AF0
100
AcDbEntity
  8
ALPHA
100
AcDbVertex
100
AcDb2dVertex
 10
69.666514
 20
132.887231
 30
0.0
  0
VERTEX
  5
AF1
100
AcDbEntity
  8
ALPHA
100
AcDbVertex
100
AcDb2dVertex
 10
69.442188
 20
133.005791
 30
0.0
  0
VERTEX
  5
AF2
100
AcDbEntity
  8
ALPHA
100
AcDbVertex
100
AcDb2dVertex
 10
69.209629
 20
133.107256
 30
0.0
  0
VERTEX
  5
AF3
100
AcDbEntity
  8
ALPHA
100
AcDbVertex
100
AcDb2dVertex
 10
68.970137
 20
133.191057
 30
0.0
  0
VERTEX
  5
AF4
100
AcDbEntity
  8
ALPHA
100
AcDbVertex
100
AcDb2dVertex
 10
68.725053
 20
133.256727
 30
0.0
  0
VERTEX
  5
AF5
100
AcDbEntity
  8
ALPHA
100
AcDbVertex
100
AcDb2dVertex
 10
68.475747
 20
133.303899
 30
0.0
  0
VERTEX
  5
AF6
100
AcDbEntity
  8
ALPHA
100
AcDbVertex
100
AcDb2dVertex
 10
68.223612
 20
133.332307
 30
0.0
  0
VERTEX
  5
AF7
100
AcDbEntity
  8
ALPHA
100
AcDbVertex
100
AcDb2dVertex
 10
67.97006
 20
133.341795
 30
0.0
  0
VERTEX
  5
AF8
100
AcDbEntity
  8
ALPHA
100
AcDbVertex
100
AcDb2dVertex
 10
67.716508
 20
133.332307
 30
0.0
  0
VERTEX
  5
AF9
100
AcDbEntity
  8
ALPHA
100
AcDbVertex
100
AcDb2dVertex
 10
67.464373
 20
133.303899
 30
0.0
  0
VERTEX
  5
AFA
100
AcDbEntity
  8
ALPHA
100
AcDbVertex
100
AcDb2dVertex
 10
67.215067
 20
133.256727
 30
0.0
  0
VERTEX
  5
AFB
100
AcDbEntity
  8
ALPHA
100
AcDbVertex
100
AcDb2dVertex
 10
66.969983
 20
133.191057
 30
0.0
  0
VERTEX
  5
AFC
100
AcDbEntity
  8
ALPHA
100
AcDbVertex
100
AcDb2dVertex
 10
66.730491
 20
133.107256
 30
0.0
  0
VERTEX
  5
AFD
100
AcDbEntity
  8
ALPHA
100
AcDbVertex
100
AcDb2dVertex
 10
66.497932
 20
133.005791
 30
0.0
  0
VERTEX
  5
AFE
100
AcDbEntity
  8
ALPHA
100
AcDbVertex
100
AcDb2dVertex
 10
66.273606
 20
132.887231
 30
0.0
  0
VERTEX
  5
AFF
100
AcDbEntity
  8
ALPHA
100
AcDbVertex
100
AcDb2dVertex
 10
66.058767
 20
132.752239
 30
0.0
  0
VERTEX
  5
B00
100
AcDbEntity
  8
ALPHA
100
AcDbVertex
100
AcDb2dVertex
 10
65.854616
 20
132.601569
 30
0.0
  0
VERTEX
  5
B01
100
AcDbEntity
  8
ALPHA
100
AcDbVertex
100
AcDb2dVertex
 10
65.662296
 20
132.436064
 30
0.0
  0
VERTEX
  5
B02
100
AcDbEntity
  8
ALPHA
100
AcDbVertex
100
AcDb2dVertex
 10
65.482882
 20
132.25665
 30
0.0
  0
VERTEX
  5
B03
100
AcDbEntity
  8
ALPHA
100
AcDbVertex
100
AcDb2dVertex
 10
65.317377
 20
132.06433
 30
0.0
  0
VERTEX
  5
B04
100
AcDbEntity
  8
ALPHA
100
AcDbVertex
100
AcDb2dVertex
 10
65.166707
 20
131.86018
 30
0.0
  0
VERTEX
  5
B05
100
AcDbEntity
  8
ALPHA
100
AcDbVertex
100
AcDb2dVertex
 10
65.031715
 20
131.64534
 30
0.0
  0
VERTEX
  5
B06
100
AcDbEntity
  8
ALPHA
100
AcDbVertex
100
AcDb2dVertex
 10
64.913155
 20
131.421014
 30
0.0
  0
VERTEX
  5
B07
100
AcDbEntity
  8
ALPHA
100
AcDbVertex
100
AcDb2dVertex
 10
64.811691
 20
131.188455
 30
0.0
  0
VERTEX
  5
B08
100
AcDbEntity
  8
ALPHA
100
AcDbVertex
100
AcDb2dVertex
 10
64.727889
 20
130.948964
 30
0.0
  0
VERTEX
  5
B09
100
AcDbEntity
  8
ALPHA
100
AcDbVertex
100
AcDb2dVertex
 10
64.662219
 20
130.703879
 30
0.0
  0
VERTEX
  5
B0A
100
AcDbEntity
  8
ALPHA
100
AcDbVertex
100
AcDb2dVertex
 10
64.615048
 20
130.454573
 30
0.0
  0
VERTEX
  5
B0B
100
AcDbEntity
  8
ALPHA
100
AcDbVertex
100
AcDb2dVertex
 10
64.586639
 20
130.202439
 30
0.0
  0
VERTEX
  5
B0C
100
AcDbEntity
  8
ALPHA
100
AcDbVertex
100
AcDb2dVertex
 10
64.577152
 20
129.948886
 30
0.0
  0
VERTEX
  5
B0D
100
AcDbEntity
  8
ALPHA
100
AcDbVertex
100
AcDb2dVertex
 10
64.586639
 20
129.695334
 30
0.0
  0
VERTEX
  5
B0E
100
AcDbEntity
  8
ALPHA
100
AcDbVertex
100
AcDb2dVertex
 10
64.615048
 20
129.443199
 30
0.0
  0
VERTEX
  5
B0F
100
AcDbEntity
  8
ALPHA
100
AcDbVertex
100
AcDb2dVertex
 10
64.662219
 20
129.193893
 30
0.0
  0
VERTEX
  5
B10
100
AcDbEntity
  8
ALPHA
100
AcDbVertex
100
AcDb2dVertex
 10
64.727889
 20
128.948809
 30
0.0
  0
VERTEX
  5
B11
100
AcDbEntity
  8
ALPHA
100
AcDbVertex
100
AcDb2dVertex
 10
64.811691
 20
128.709318
 30
0.0
  0
VERTEX
  5
B12
100
AcDbEntity
  8
ALPHA
100
AcDbVertex
100
AcDb2dVertex
 10
64.913155
 20
128.476758
 30
0.0
  0
VERTEX
  5
B13
100
AcDbEntity
  8
ALPHA
100
AcDbVertex
100
AcDb2dVertex
 10
65.031715
 20
128.252432
 30
0.0
  0
VERTEX
  5
B14
100
AcDbEntity
  8
ALPHA
100
AcDbVertex
100
AcDb2dVertex
 10
65.166707
 20
128.037593
 30
0.0
  0
VERTEX
  5
B15
100
AcDbEntity
  8
ALPHA
100
AcDbVertex
100
AcDb2dVertex
 10
65.317377
 20
127.833442
 30
0.0
  0
VERTEX
  5
B16
100
AcDbEntity
  8
ALPHA
100
AcDbVertex
100
AcDb2dVertex
 10
65.482882
 20
127.641122
 30
0.0
  0
VERTEX
  5
B17
100
AcDbEntity
  8
ALPHA
100
AcDbVertex
100
AcDb2dVertex
 10
65.662296
 20
127.461708
 30
0.0
  0
VERTEX
  5
B18
100
AcDbEntity
  8
ALPHA
100
AcDbVertex
100
AcDb2dVertex
 10
65.854616
 20
127.296204
 30
0.0
  0
VERTEX
  5
B19
100
AcDbEntity
  8
ALPHA
100
AcDbVertex
100
AcDb2dVertex
 10
66.058767
 20
127.145534
 30
0.0
  0
VERTEX
  5
B1A
100
AcDbEntity
  8
ALPHA
100
AcDbVertex
100
AcDb2dVertex
 10
66.273606
 20
127.010541
 30
0.0
  0
VERTEX
  5
B1B
100
AcDbEntity
  8
ALPHA
100
AcDbVertex
100
AcDb2dVertex
 10
66.497932
 20
126.891981
 30
0.0
  0
VERTEX
  5
B1C
100
AcDbEntity
  8
ALPHA
100
AcDbVertex
100
AcDb2dVertex
 10
66.730491
 20
126.790517
 30
0.0
  0
VERTEX
  5
B1D
100
AcDbEntity
  8
ALPHA
100
AcDbVertex
100
AcDb2dVertex
 10
66.969983
 20
126.706715
 30
0.0
  0
VERTEX
  5
B1E
100
AcDbEntity
  8
ALPHA
100
AcDbVertex
100
AcDb2dVertex
 10
67.215067
 20
126.641045
 30
0.0
  0
VERTEX
  5
B1F
100
AcDbEntity
  8
ALPHA
100
AcDbVertex
100
AcDb2dVertex
 10
67.464373
 20
126.593874
 30
0.0
  0
VERTEX
  5
B20
100
AcDbEntity
  8
ALPHA
100
AcDbVertex
100
AcDb2dVertex
 10
67.716508
 20
126.565465
 30
0.0
  0
SEQEND
  5
B21
100
AcDbEntity
  8
ALPHA
  0
INSERT
  5
B22
100
AcDbEntity
  8
ALPHA
100
AcDbBlockReference
  2
_X0
 10
131.731925
 20
44.900671
 30
0.0
  0
ARC
  5
B23
100
AcDbEntity
  8
ALPHA
100
AcDbCircle
 10
67.980486
 20
138.958036
 30
0.0
 40
17.0
100
AcDbArc
 50
255.42022
 51
284.57978
  0
ARC
  5
B24
100
AcDbEntity
  8
ALPHA
100
AcDbCircle
 10
67.980486
 20
120.958036
 30
0.0
 40
17.0
100
AcDbArc
 50
75.420188
 51
104.57974
  0
ARC
  5
B25
100
AcDbEntity
  8
ALPHA
100
AcDbCircle
 10
67.980486
 20
120.958036
 30
0.0
 40
18.0
100
AcDbArc
 50
74.66914
 51
105.330788
  0
ARC
  5
B26
100
AcDbEntity
  8
ALPHA
100
AcDbCircle
 10
78.980486
 20
129.958036
 30
0.0
 40
17.0
100
AcDbArc
 50
153.999072
 51
206.001018
  0
ARC
  5
B27
100
AcDbEntity
  8
ALPHA
100
AcDbCircle
 10
78.980486
 20
129.958036
 30
0.0
 40
18.0
100
AcDbArc
 50
153.248025
 51
166.299806
  0
LINE
  5
B28
100
AcDbEntity
  8
ALPHA
100
AcDbLine
 10
46.180315
 20
123.958006
 30
0.0
 11
46.180315
 21
135.958006
 31
0.0
  0
LINE
  5
B29
100
AcDbEntity
  8
ALPHA
100
AcDbLine
 10
48.38048
 20
122.55853
 30
0.0
 11
46.654711
 21
122.55853
 31
0.0
  0
LINE
  5
B2A
100
AcDbEntity
  8
ALPHA
100
AcDbLine
 10
48.082521
 20
121.958555
 30
0.0
 11
46.85808
 21
121.958555
 31
0.0
  0
LINE
  5
B2B
100
AcDbEntity
  8
ALPHA
100
AcDbLine
 10
48.382221
 20
122.55788
 30
0.0
 11
48.082235
 21
121.957922
 31
0.0
  0
LINE
  5
B2C
100
AcDbEntity
  8
ALPHA
100
AcDbLine
 10
48.38048
 20
125.958463
 30
0.0
 11
46.180315
 21
125.958463
 31
0.0
  0
POINT
  5
B2D
100
AcDbEntity
  8
ALPHA
100
AcDbPoint
 10
48.38048
 20
129.958036
 30
0.0
  0
LINE
  5
B2E
100
AcDbEntity
  8
ALPHA
100
AcDbLine
 10
46.180315
 20
133.957929
 30
0.0
 11
48.38048
 21
133.957929
 31
0.0
  0
ARC
  5
B2F
100
AcDbEntity
  8
ALPHA
100
AcDbCircle
 10
78.980486
 20
129.958036
 30
0.0
 40
18.0
100
AcDbArc
 50
169.734353
 51
190.038757
  0
ARC
  5
B30
100
AcDbEntity
  8
ALPHA
100
AcDbCircle
 10
78.980486
 20
129.958036
 30
0.0
 40
18.0
100
AcDbArc
 50
193.700285
 51
206.752011
  0
LINE
  5
B31
100
AcDbEntity
  8
ALPHA
100
AcDbLine
 10
60.521059
 20
126.458036
 30
0.0
 11
58.580486
 21
126.458036
 31
0.0
  0
ARC
  5
B32
100
AcDbEntity
  8
ALPHA
100
AcDbCircle
 10
60.521059
 20
125.458036
 30
0.0
 40
1.0
100
AcDbArc
 50
13.700194
 51
90.000019
  0
LINE
  5
B33
100
AcDbEntity
  8
ALPHA
100
AcDbLine
 10
59.980486
 20
133.207914
 30
0.0
 11
59.980486
 21
130.907987
 31
0.0
  0
LINE
  5
B34
100
AcDbEntity
  8
ALPHA
100
AcDbLine
 10
59.980486
 20
130.907987
 30
0.0
 11
58.580486
 21
130.907987
 31
0.0
  0
LINE
  5
B35
100
AcDbEntity
  8
ALPHA
100
AcDbLine
 10
58.580486
 20
133.207914
 30
0.0
 11
59.980486
 21
133.207914
 31
0.0
  0
LINE
  5
B36
100
AcDbEntity
  8
ALPHA
100
AcDbLine
 10
60.521059
 20
133.458036
 30
0.0
 11
58.580486
 21
133.458036
 31
0.0
  0
ARC
  5
B37
100
AcDbEntity
  8
ALPHA
100
AcDbCircle
 10
60.521059
 20
134.458036
 30
0.0
 40
1.0
100
AcDbArc
 50
270.0
 51
346.299715
  0
POLYLINE
  5
B38
100
AcDbEntity
  8
ALPHA
 62
   192
100
AcDb2dPolyline
 66
     1
 10
0.0
 20
0.0
 30
0.0
 70
     1
  0
VERTEX
  5
B39
100
AcDbEntity
  8
ALPHA
 62
   192
100
AcDbVertex
100
AcDb2dVertex
 10
66.917002
 20
131.659383
 30
0.0
  0
VERTEX
  5
B3A
100
AcDbEntity
  8
ALPHA
 62
   192
100
AcDbVertex
100
AcDb2dVertex
 10
67.438903
 20
131.659383
 30
0.0
  0
VERTEX
  5
B3B
100
AcDbEntity
  8
ALPHA
 62
   192
100
AcDbVertex
100
AcDb2dVertex
 10
67.438903
 20
130.151713
 30
0.0
  0
VERTEX
  5
B3C
100
AcDbEntity
  8
ALPHA
 62
   192
100
AcDbVertex
100
AcDb2dVertex
 10
66.917002
 20
130.151713
 30
0.0
  0
SEQEND
  5
B3D
100
AcDbEntity
  8
ALPHA
 62
   192
  0
POLYLINE
  5
B3E
100
AcDbEntity
  8
ALPHA
100
AcDb2dPolyline
 66
     1
 10
0.0
 20
0.0
 30
0.0
 70
     1
  0
VERTEX
  5
B3F
100
AcDbEntity
  8
ALPHA
100
AcDbVertex
100
AcDb2dVertex
 10
66.917002
 20
130.151713
 30
0.0
  0
VERTEX
  5
B40
100
AcDbEntity
  8
ALPHA
100
AcDbVertex
100
AcDb2dVertex
 10
66.917002
 20
131.659383
 30
0.0
  0
VERTEX
  5
B41
100
AcDbEntity
  8
ALPHA
100
AcDbVertex
100
AcDb2dVertex
 10
67.438903
 20
131.659383
 30
0.0
  0
VERTEX
  5
B42
100
AcDbEntity
  8
ALPHA
100
AcDbVertex
100
AcDb2dVertex
 10
67.438903
 20
130.151713
 30
0.0
  0
SEQEND
  5
B43
100
AcDbEntity
  8
ALPHA
  0
POLYLINE
  5
B44
100
AcDbEntity
  8
ALPHA
 62
   192
100
AcDb2dPolyline
 66
     1
 10
0.0
 20
0.0
 30
0.0
 70
     1
  0
VERTEX
  5
B45
100
AcDbEntity
  8
ALPHA
 62
   192
100
AcDbVertex
100
AcDb2dVertex
 10
66.917002
 20
131.659383
 30
0.0
  0
VERTEX
  5
B46
100
AcDbEntity
  8
ALPHA
 62
   192
100
AcDbVertex
100
AcDb2dVertex
 10
67.438903
 20
131.659383
 30
0.0
  0
VERTEX
  5
B47
100
AcDbEntity
  8
ALPHA
 62
   192
100
AcDbVertex
100
AcDb2dVertex
 10
67.438903
 20
130.151713
 30
0.0
  0
VERTEX
  5
B48
100
AcDbEntity
  8
ALPHA
 62
   192
100
AcDbVertex
100
AcDb2dVertex
 10
66.917002
 20
130.151713
 30
0.0
  0
SEQEND
  5
B49
100
AcDbEntity
  8
ALPHA
 62
   192
  0
LINE
  5
B4A
100
AcDbEntity
  8
ALPHA
 62
   132
100
AcDbLine
 10
49.080486
 20
138.908036
 30
0.0
 11
58.384696
 21
138.712158
 31
0.0
  0
LINE
  5
B4B
100
AcDbEntity
  8
ALPHA
100
AcDbLine
 10
46.180319
 20
135.958033
 30
0.0
 11
47.071475
 21
138.586977
 31
0.0
  0
LINE
  5
B4C
100
AcDbEntity
  8
ALPHA
100
AcDbLine
 10
45.180322
 20
136.122876
 30
0.0
 11
46.124427
 21
138.908022
 31
0.0
  0
LINE
  5
B4D
100
AcDbEntity
  8
ALPHA
100
AcDbLine
 10
46.858248
 20
137.957929
 30
0.0
 11
48.081209
 21
137.957929
 31
0.0
  0
LINE
  5
B4E
100
AcDbEntity
  8
ALPHA
100
AcDbLine
 10
46.654818
 20
137.357832
 30
0.0
 11
48.38048
 21
137.357832
 31
0.0
  0
LINE
  5
B4F
100
AcDbEntity
  8
ALPHA
100
AcDbLine
 10
48.381476
 20
137.357223
 30
0.0
 11
48.081484
 21
137.957314
 31
0.0
  0
LINE
  5
B50
100
AcDbEntity
  8
ALPHA
100
AcDbLine
 10
46.124446
 20
138.908014
 30
0.0
 11
47.071496
 21
138.586975
 31
0.0
  0
LINE
  5
B51
100
AcDbEntity
  8
ALPHA
100
AcDbLine
 10
45.180315
 20
138.908048
 30
0.0
 11
46.124422
 21
138.908048
 31
0.0
  0
LINE
  5
B52
100
AcDbEntity
  8
ALPHA
100
AcDbLine
 10
48.38048
 20
138.658048
 30
0.0
 11
48.980486
 21
138.658048
 31
0.0
  0
LINE
  5
B53
100
AcDbEntity
  8
ALPHA
100
AcDbLine
 10
48.980486
 20
138.358036
 30
0.0
 11
49.080486
 21
138.358036
 31
0.0
  0
ARC
  5
B54
100
AcDbEntity
  8
ALPHA
 62
   132
100
AcDbCircle
 10
58.380486
 20
138.512202
 30
0.0
 40
0.2
100
AcDbArc
 50
0.0
 51
88.793951
  0
ARC
  5
B55
100
AcDbEntity
  8
ALPHA
100
AcDbCircle
 10
63.353624
 20
137.835233
 30
0.0
 40
0.5
100
AcDbArc
 50
105.330915
 51
153.248134
  0
ARC
  5
B56
100
AcDbEntity
  8
ALPHA
100
AcDbCircle
 10
56.980486
 20
129.958036
 30
0.0
 40
17.0
100
AcDbArc
 50
333.998982
 51
26.000928
  0
ARC
  5
B57
100
AcDbEntity
  8
ALPHA
100
AcDbCircle
 10
56.980486
 20
129.958036
 30
0.0
 40
18.0
100
AcDbArc
 50
333.247989
 51
26.751975
  0
CIRCLE
  5
B58
100
AcDbEntity
  8
ALPHA
100
AcDbCircle
 10
70.980486
 20
124.458036
 30
0.0
 40
1.5
  0
POLYLINE
  5
B59
100
AcDbEntity
  8
ALPHA
 62
   192
100
AcDb2dPolyline
 66
     1
 10
0.0
 20
0.0
 30
0.0
 70
     1
  0
VERTEX
  5
B5A
100
AcDbEntity
  8
ALPHA
 62
   192
100
AcDbVertex
100
AcDb2dVertex
 10
68.076754
 20
131.659383
 30
0.0
  0
VERTEX
  5
B5B
100
AcDbEntity
  8
ALPHA
 62
   192
100
AcDbVertex
100
AcDb2dVertex
 10
68.598558
 20
131.659383
 30
0.0
  0
VERTEX
  5
B5C
100
AcDbEntity
  8
ALPHA
 62
   192
100
AcDbVertex
100
AcDb2dVertex
 10
68.598558
 20
130.151713
 30
0.0
  0
VERTEX
  5
B5D
100
AcDbEntity
  8
ALPHA
 62
   192
100
AcDbVertex
100
AcDb2dVertex
 10
68.076754
 20
130.151713
 30
0.0
  0
SEQEND
  5
B5E
100
AcDbEntity
  8
ALPHA
 62
   192
  0
POLYLINE
  5
B5F
100
AcDbEntity
  8
ALPHA
100
AcDb2dPolyline
 66
     1
 10
0.0
 20
0.0
 30
0.0
 70
     1
  0
VERTEX
  5
B60
100
AcDbEntity
  8
ALPHA
100
AcDbVertex
100
AcDb2dVertex
 10
68.076754
 20
130.151713
 30
0.0
  0
VERTEX
  5
B61
100
AcDbEntity
  8
ALPHA
100
AcDbVertex
100
AcDb2dVertex
 10
68.076754
 20
131.659383
 30
0.0
  0
VERTEX
  5
B62
100
AcDbEntity
  8
ALPHA
100
AcDbVertex
100
AcDb2dVertex
 10
68.598558
 20
131.659383
 30
0.0
  0
VERTEX
  5
B63
100
AcDbEntity
  8
ALPHA
100
AcDbVertex
100
AcDb2dVertex
 10
68.598558
 20
130.151713
 30
0.0
  0
SEQEND
  5
B64
100
AcDbEntity
  8
ALPHA
  0
POLYLINE
  5
B65
100
AcDbEntity
  8
ALPHA
 62
   192
100
AcDb2dPolyline
 66
     1
 10
0.0
 20
0.0
 30
0.0
 70
     1
  0
VERTEX
  5
B66
100
AcDbEntity
  8
ALPHA
 62
   192
100
AcDbVertex
100
AcDb2dVertex
 10
68.076754
 20
131.659383
 30
0.0
  0
VERTEX
  5
B67
100
AcDbEntity
  8
ALPHA
 62
   192
100
AcDbVertex
100
AcDb2dVertex
 10
68.598558
 20
131.659383
 30
0.0
  0
VERTEX
  5
B68
100
AcDbEntity
  8
ALPHA
 62
   192
100
AcDbVertex
100
AcDb2dVertex
 10
68.598558
 20
130.151713
 30
0.0
  0
VERTEX
  5
B69
100
AcDbEntity
  8
ALPHA
 62
   192
100
AcDbVertex
100
AcDb2dVertex
 10
68.076754
 20
130.151713
 30
0.0
  0
SEQEND
  5
B6A
100
AcDbEntity
  8
ALPHA
 62
   192
  0
ARC
  5
B6B
100
AcDbEntity
  8
ALPHA
100
AcDbCircle
 10
72.607332
 20
137.835233
 30
0.0
 40
0.5
100
AcDbArc
 50
26.751921
 51
74.669195
  0
ENDSEC
  0
SECTION
  2
OBJECTS
  0
DICTIONARY
  5
F8
100
AcDbDictionary
  3
ACAD_GROUP
350
F9
  3
ACAD_MLINESTYLE
350
106
  3
ACDBVARIABLEDICTIONARY
350
143
  0
DICTIONARY
  5
F9
102
{ACAD_REACTORS
330
F8
102
}
100
AcDbDictionary
  0
DICTIONARY
  5
106
102
{ACAD_REACTORS
330
F8
102
}
100
AcDbDictionary
  3
STANDARD
350
107
  0
DICTIONARY
  5
143
102
{ACAD_REACTORS
330
F8
102
}
100
AcDbDictionary
  3
DIMADEC
350
144
  0
MLINESTYLE
  5
107
102
{ACAD_REACTORS
330
106
102
}
100
AcDbMlineStyle
  2
STANDARD
 70
     0
  3

 62
   256
 51
90.0
 52
90.0
 71
     2
 49
0.5
 62
   256
  6
BYLAYER
 49
-0.5
 62
   256
  6
BYLAYER
  0
DICTIONARYVAR
  5
144
102
{ACAD_REACTORS
330
143
102
}
100
DictionaryVariables
280
     0
  1
0
  0
ENDSEC
  0
EOF
