  0
SECTION
  2
HEADER
  9
$ACADVER
  1
AC1014
  9
$ACADMAINTVER
 70
     0
  9
$DWGCODEPAGE
  3
ANSI_1252
  9
$INSBASE
 10
93.17264
 20
106.404321
 30
0.0
  9
$EXTMIN
 10
76.680628
 20
77.097736
 30
0.0
  9
$EXTMAX
 10
116.967602
 20
129.854057
 30
0.0
  9
$LIMMIN
 10
0.0
 20
0.0
  9
$LIMMAX
 10
210.0
 20
297.0
  9
$ORTHOMODE
 70
     1
  9
$REGENMODE
 70
     1
  9
$FILLMODE
 70
     1
  9
$QTEXTMODE
 70
     0
  9
$MIRRTEXT
 70
     1
  9
$DRAGMODE
 70
     2
  9
$LTSCALE
 40
7.0
  9
$OSMODE
 70
     0
  9
$ATTMODE
 70
     1
  9
$TEXTSIZE
 40
0.2
  9
$TRACEWID
 40
0.05
  9
$TEXTSTYLE
  7
STANDARD
  9
$CLAYER
  8
COTATION1
  9
$CELTYPE
  6
BYLAYER
  9
$CECOLOR
 62
   256
  9
$CELTSCALE
 40
1.0
  9
$DELOBJ
 70
     1
  9
$DISPSILH
 70
     0
  9
$DIMSCALE
 40
1.0
  9
$DIMASZ
 40
3.0
  9
$DIMEXO
 40
0.0625
  9
$DIMDLI
 40
0.38
  9
$DIMRND
 40
0.01
  9
$DIMDLE
 40
0.0
  9
$DIMEXE
 40
0.18
  9
$DIMTP
 40
0.0
  9
$DIMTM
 40
0.0
  9
$DIMTXT
 40
2.5
  9
$DIMCEN
 40
0.09
  9
$DIMTSZ
 40
0.0
  9
$DIMTOL
 70
     0
  9
$DIMLIM
 70
     0
  9
$DIMTIH
 70
     0
  9
$DIMTOH
 70
     0
  9
$DIMSE1
 70
     0
  9
$DIMSE2
 70
     0
  9
$DIMTAD
 70
     1
  9
$DIMZIN
 70
    12
  9
$DIMBLK
  1

  9
$DIMASO
 70
     1
  9
$DIMSHO
 70
     1
  9
$DIMPOST
  1

  9
$DIMAPOST
  1

  9
$DIMALT
 70
     0
  9
$DIMALTD
 70
     2
  9
$DIMALTF
 40
25.4
  9
$DIMLFAC
 40
1.0
  9
$DIMTOFL
 70
     1
  9
$DIMTVP
 40
0.0
  9
$DIMTIX
 70
     0
  9
$DIMSOXD
 70
     0
  9
$DIMSAH
 70
     0
  9
$DIMBLK1
  1

  9
$DIMBLK2
  1

  9
$DIMSTYLE
  2
SC_STAND
  9
$DIMCLRD
 70
     0
  9
$DIMCLRE
 70
     0
  9
$DIMCLRT
 70
     0
  9
$DIMTFAC
 40
1.0
  9
$DIMGAP
 40
1.0
  9
$DIMJUST
 70
     0
  9
$DIMSD1
 70
     0
  9
$DIMSD2
 70
     0
  9
$DIMTOLJ
 70
     1
  9
$DIMTZIN
 70
    12
  9
$DIMALTZ
 70
    12
  9
$DIMALTTZ
 70
    12
  9
$DIMFIT
 70
     5
  9
$DIMUPT
 70
     0
  9
$DIMUNIT
 70
     2
  9
$DIMDEC
 70
     4
  9
$DIMTDEC
 70
     4
  9
$DIMALTU
 70
     2
  9
$DIMALTTD
 70
     2
  9
$DIMTXSTY
  7
STANDARD
  9
$DIMAUNIT
 70
     0
  9
$LUNITS
 70
     2
  9
$LUPREC
 70
     4
  9
$SKETCHINC
 40
0.1
  9
$FILLETRAD
 40
0.0
  9
$AUNITS
 70
     0
  9
$AUPREC
 70
     0
  9
$MENU
  1
acad
  9
$ELEVATION
 40
0.0
  9
$PELEVATION
 40
0.0
  9
$THICKNESS
 40
0.0
  9
$LIMCHECK
 70
     0
  9
$BLIPMODE
 70
     1
  9
$CHAMFERA
 40
0.0
  9
$CHAMFERB
 40
0.0
  9
$CHAMFERC
 40
0.0
  9
$CHAMFERD
 40
0.0
  9
$SKPOLY
 70
     0
  9
$TDCREATE
 40
2451086.459729514
  9
$TDUPDATE
 40
2451387.898100370
  9
$TDINDWG
 40
0.0000223380
  9
$TDUSRTIMER
 40
0.0000223380
  9
$USRTIMER
 70
     1
  9
$ANGBASE
 50
0.0
  9
$ANGDIR
 70
     0
  9
$PDMODE
 70
     0
  9
$PDSIZE
 40
0.0
  9
$PLINEWID
 40
0.0
  9
$COORDS
 70
     1
  9
$SPLFRAME
 70
     0
  9
$SPLINETYPE
 70
     6
  9
$SPLINESEGS
 70
     8
  9
$ATTDIA
 70
     0
  9
$ATTREQ
 70
     1
  9
$HANDLING
 70
     1
  9
$HANDSEED
  5
62F
  9
$SURFTAB1
 70
     6
  9
$SURFTAB2
 70
     6
  9
$SURFTYPE
 70
     6
  9
$SURFU
 70
     6
  9
$SURFV
 70
     6
  9
$UCSNAME
  2

  9
$UCSORG
 10
0.0
 20
0.0
 30
0.0
  9
$UCSXDIR
 10
1.0
 20
0.0
 30
0.0
  9
$UCSYDIR
 10
0.0
 20
1.0
 30
0.0
  9
$PUCSNAME
  2

  9
$PUCSORG
 10
0.0
 20
0.0
 30
0.0
  9
$PUCSXDIR
 10
1.0
 20
0.0
 30
0.0
  9
$PUCSYDIR
 10
0.0
 20
1.0
 30
0.0
  9
$USERI1
 70
     0
  9
$USERI2
 70
     0
  9
$USERI3
 70
     0
  9
$USERI4
 70
     0
  9
$USERI5
 70
     0
  9
$USERR1
 40
0.0
  9
$USERR2
 40
0.0
  9
$USERR3
 40
0.0
  9
$USERR4
 40
0.0
  9
$USERR5
 40
0.0
  9
$WORLDVIEW
 70
     1
  9
$SHADEDGE
 70
     3
  9
$SHADEDIF
 70
    70
  9
$TILEMODE
 70
     1
  9
$MAXACTVP
 70
    16
  9
$PINSBASE
 10
0.0
 20
0.0
 30
0.0
  9
$PLIMCHECK
 70
     0
  9
$PEXTMIN
 10
1.000000E+20
 20
1.000000E+20
 30
1.000000E+20
  9
$PEXTMAX
 10
-1.000000E+20
 20
-1.000000E+20
 30
-1.000000E+20
  9
$PLIMMIN
 10
0.0
 20
0.0
  9
$PLIMMAX
 10
12.0
 20
9.0
  9
$UNITMODE
 70
     0
  9
$VISRETAIN
 70
     0
  9
$PLINEGEN
 70
     0
  9
$PSLTSCALE
 70
     1
  9
$TREEDEPTH
 70
  3020
  9
$PICKSTYLE
 70
     1
  9
$CMLSTYLE
  2
STANDARD
  9
$CMLJUST
 70
     0
  9
$CMLSCALE
 40
1.0
  9
$PROXYGRAPHICS
 70
     1
  9
$MEASUREMENT
 70
     0
  0
ENDSEC
  0
SECTION
  2
CLASSES
  0
CLASS
  1
DICTIONARYVAR
  2
AcDbDictionaryVar
  3
"AutoCAD"
 90
        0
280
     0
281
     0
  0
CLASS
  1
LWPOLYLINE
  2
AcDbPolyline
  3
"AutoCAD"
 90
        0
280
     0
281
     1
  0
ENDSEC
  0
SECTION
  2
TABLES
  0
TABLE
  2
VPORT
  5
603
100
AcDbSymbolTable
 70
     1
  0
VPORT
  5
62A
100
AcDbSymbolTableRecord
100
AcDbViewportTableRecord
  2
*ACTIVE
 70
     0
 10
0.0
 20
0.0
 11
1.0
 21
1.0
 12
225.654671
 22
135.037441
 13
0.0
 23
0.0
 14
1.0
 24
1.0
 15
0.0
 25
0.0
 16
0.0
 26
0.0
 36
1.0
 17
0.0
 27
0.0
 37
0.0
 40
270.074882
 41
1.671053
 42
50.0
 43
0.0
 44
0.0
 50
0.0
 51
0.0
 71
     0
 72
   100
 73
     1
 74
     1
 75
     0
 76
     0
 77
     0
 78
     0
  0
ENDTAB
  0
TABLE
  2
LTYPE
  5
600
100
AcDbSymbolTable
 70
     2
  0
LTYPE
  5
60C
100
AcDbSymbolTableRecord
100
AcDbLinetypeTableRecord
  2
BYBLOCK
 70
     0
  3

 72
    65
 73
     0
 40
0.0
  0
LTYPE
  5
60D
100
AcDbSymbolTableRecord
100
AcDbLinetypeTableRecord
  2
BYLAYER
 70
     0
  3

 72
    65
 73
     0
 40
0.0
  0
LTYPE
  5
60E
100
AcDbSymbolTableRecord
100
AcDbLinetypeTableRecord
  2
CONTINUOUS
 70
     0
  3
Solid line
 72
    65
 73
     0
 40
0.0
  0
LTYPE
  5
61A
100
AcDbSymbolTableRecord
100
AcDbLinetypeTableRecord
  2
AXES2
 70
     0
  3
___ _ ___ _ ___ _ ___ _ ___ _ ___ _ ___ _ ___ _
 72
    65
 73
     4
 40
1.125
 49
0.75
 74
     0
 49
-0.125
 74
     0
 49
0.125
 74
     0
 49
-0.125
 74
     0
  0
ENDTAB
  0
TABLE
  2
LAYER
  5
5FD
100
AcDbSymbolTable
 70
     5
  0
LAYER
  5
609
100
AcDbSymbolTableRecord
100
AcDbLayerTableRecord
  2
0
 70
     0
 62
     7
  6
CONTINUOUS
  0
LAYER
  5
61D
100
AcDbSymbolTableRecord
100
AcDbLayerTableRecord
  2
AXE
 70
     0
 62
    80
  6
AXES2
  0
LAYER
  5
61E
100
AcDbSymbolTableRecord
100
AcDbLayerTableRecord
  2
COTATION1
 70
     0
 62
     2
  6
CONTINUOUS
  0
LAYER
  5
61F
100
AcDbSymbolTableRecord
100
AcDbLayerTableRecord
  2
ALPHA
 70
     0
 62
   255
  6
CONTINUOUS
  0
LAYER
  5
620
100
AcDbSymbolTableRecord
100
AcDbLayerTableRecord
  2
DEFPOINTS
 70
     0
 62
     7
  6
CONTINUOUS
  0
ENDTAB
  0
TABLE
  2
STYLE
  5
5FE
100
AcDbSymbolTable
 70
     2
  0
STYLE
  5
60A
100
AcDbSymbolTableRecord
100
AcDbTextStyleTableRecord
  2
STANDARD
 70
     0
 40
0.0
 41
1.0
 50
0.0
 71
     0
 42
0.2
  3
txt
  4

  0
STYLE
  5
619
100
AcDbSymbolTableRecord
100
AcDbTextStyleTableRecord
  2
ROMANS
 70
     0
 40
0.0
 41
1.0
 50
0.0
 71
     0
 42
2.9
  3
romans.shx
  4

  0
ENDTAB
  0
TABLE
  2
VIEW
  5
601
100
AcDbSymbolTable
 70
     0
  0
ENDTAB
  0
TABLE
  2
UCS
  5
602
100
AcDbSymbolTable
 70
     0
  0
ENDTAB
  0
TABLE
  2
APPID
  5
604
100
AcDbSymbolTable
 70
     1
  0
APPID
  5
60B
100
AcDbSymbolTableRecord
100
AcDbRegAppTableRecord
  2
ACAD
 70
     0
  0
ENDTAB
  0
TABLE
  2
DIMSTYLE
  5
605
100
AcDbSymbolTable
 70
     1
  0
DIMSTYLE
105
61C
102
{ACAD_REACTORS
330
1F
330
2D
102
}
100
AcDbSymbolTableRecord
100
AcDbDimStyleTableRecord
  2
SC_STAND
 70
     0
  3

  4

  5

  6

  7

 40
1.0
 41
3.0
 42
0.0625
 43
0.38
 44
0.18
 45
0.01
 46
0.0
 47
0.0
 48
0.0
140
2.5
141
0.09
142
0.0
143
25.4
144
1.0
145
0.0
146
1.0
147
1.0
 71
     0
 72
     0
 73
     0
 74
     0
 75
     0
 76
     0
 77
     1
 78
    12
170
     0
171
     2
172
     1
173
     0
174
     0
175
     0
176
     0
177
     0
178
     0
270
     2
271
     4
272
     4
273
     2
274
     2
340
60A
275
     0
280
     0
281
     0
282
     0
283
     1
284
    12
285
    12
286
    12
287
     5
288
     0
  0
ENDTAB
  0
TABLE
  2
BLOCK_RECORD
  5
5FC
100
AcDbSymbolTable
 70
     2
  0
BLOCK_RECORD
  5
612
100
AcDbSymbolTableRecord
100
AcDbBlockTableRecord
  2
*MODEL_SPACE
  0
BLOCK_RECORD
  5
60F
100
AcDbSymbolTableRecord
100
AcDbBlockTableRecord
  2
*PAPER_SPACE
  0
BLOCK_RECORD
  5
617
100
AcDbSymbolTableRecord
100
AcDbBlockTableRecord
  2
*D0
  0
BLOCK_RECORD
  5
618
100
AcDbSymbolTableRecord
100
AcDbBlockTableRecord
  2
*D1
  0
ENDTAB
  0
ENDSEC
  0
SECTION
  2
BLOCKS
  0
BLOCK
  5
623
100
AcDbEntity
  8
0
100
AcDbBlockBegin
  2
*MODEL_SPACE
 70
     0
 10
0.0
 20
0.0
 30
0.0
  3
*MODEL_SPACE
  1

  0
ENDBLK
  5
624
100
AcDbEntity
  8
0
100
AcDbBlockEnd
  0
BLOCK
  5
621
100
AcDbEntity
 67
     1
  8
0
100
AcDbBlockBegin
  2
*PAPER_SPACE
 70
     0
 10
0.0
 20
0.0
 30
0.0
  3
*PAPER_SPACE
  1

  0
ENDBLK
  5
622
100
AcDbEntity
 67
     1
  8
0
100
AcDbBlockEnd
  0
BLOCK
  5
38
100
AcDbEntity
  8
0
100
AcDbBlockBegin
  2
*D0
 70
     1
 10
0.0
 20
0.0
 30
0.0
  3
*D0
  1
AVE_GLOBAL
  0
LINE
  5
2F
100
AcDbEntity
  8
0
  6
BYBLOCK
 62
     0
100
AcDbLine
 10
105.750234
 20
88.604057
 30
0.0
 11
116.647602
 21
88.604057
 31
0.0
  0
LINE
  5
30
100
AcDbEntity
  8
0
  6
BYBLOCK
 62
     0
100
AcDbLine
 10
102.264594
 20
128.404057
 30
0.0
 11
116.647602
 21
128.404057
 31
0.0
  0
LINE
  5
31
100
AcDbEntity
  8
0
  6
BYBLOCK
 62
     0
100
AcDbLine
 10
116.467602
 20
91.604057
 30
0.0
 11
116.467602
 21
125.404057
 31
0.0
  0
SOLID
  5
32
100
AcDbEntity
  8
0
  6
BYBLOCK
 62
     0
100
AcDbTrace
 10
115.967602
 20
91.604057
 30
0.0
 11
116.967602
 21
91.604057
 31
0.0
 12
116.467602
 22
88.604057
 32
0.0
 13
116.467602
 23
88.604057
 33
0.0
  0
SOLID
  5
33
100
AcDbEntity
  8
0
  6
BYBLOCK
 62
     0
100
AcDbTrace
 10
115.967602
 20
125.404057
 30
0.0
 11
116.967602
 21
125.404057
 31
0.0
 12
116.467602
 22
128.404057
 32
0.0
 13
116.467602
 23
128.404057
 33
0.0
  0
TEXT
  5
34
100
AcDbEntity
  8
0
  6
BYBLOCK
 62
     0
100
AcDbText
 10
115.467602
 20
104.337391
 30
0.0
 40
2.5
  1
39.8
 50
90.0
  7
ROMANS
100
AcDbText
  0
POINT
  5
35
100
AcDbEntity
  8
DEFPOINTS
  6
BYBLOCK
 62
     0
100
AcDbPoint
 10
105.687734
 20
88.604057
 30
0.0
  0
POINT
  5
36
100
AcDbEntity
  8
DEFPOINTS
  6
BYBLOCK
 62
     0
100
AcDbPoint
 10
102.202094
 20
128.404057
 30
0.0
  0
POINT
  5
37
100
AcDbEntity
  8
DEFPOINTS
  6
BYBLOCK
 62
     0
100
AcDbPoint
 10
116.467602
 20
128.404057
 30
0.0
  0
ENDBLK
  5
39
100
AcDbEntity
  8
0
100
AcDbBlockEnd
  0
BLOCK
  5
2B
100
AcDbEntity
  8
0
100
AcDbBlockBegin
  2
*D1
 70
     1
 10
0.0
 20
0.0
 30
0.0
  3
*D1
  1
AVE_GLOBAL
  0
LINE
  5
21
100
AcDbEntity
  8
0
  6
BYBLOCK
 62
     0
100
AcDbLine
 10
106.687734
 20
90.703109
 30
0.0
 11
106.687734
 21
77.417736
 31
0.0
  0
LINE
  5
22
100
AcDbEntity
  8
0
  6
BYBLOCK
 62
     0
100
AcDbLine
 10
76.887734
 20
89.541557
 30
0.0
 11
76.887734
 21
77.417736
 31
0.0
  0
LINE
  5
23
100
AcDbEntity
  8
0
  6
BYBLOCK
 62
     0
100
AcDbLine
 10
103.687734
 20
77.597736
 30
0.0
 11
79.887734
 21
77.597736
 31
0.0
  0
SOLID
  5
24
100
AcDbEntity
  8
0
  6
BYBLOCK
 62
     0
100
AcDbTrace
 10
103.687734
 20
78.097736
 30
0.0
 11
103.687734
 21
77.097736
 31
0.0
 12
106.687734
 22
77.597736
 32
0.0
 13
106.687734
 23
77.597736
 33
0.0
  0
SOLID
  5
25
100
AcDbEntity
  8
0
  6
BYBLOCK
 62
     0
100
AcDbTrace
 10
79.887734
 20
78.097736
 30
0.0
 11
79.887734
 21
77.097736
 31
0.0
 12
76.887734
 22
77.597736
 32
0.0
 13
76.887734
 23
77.597736
 33
0.0
  0
TEXT
  5
26
100
AcDbEntity
  8
0
  6
BYBLOCK
 62
     0
100
AcDbText
 10
87.621068
 20
78.597736
 30
0.0
 40
2.5
  1
29.8
  7
ROMANS
100
AcDbText
  0
POINT
  5
27
100
AcDbEntity
  8
DEFPOINTS
  6
BYBLOCK
 62
     0
100
AcDbPoint
 10
106.687734
 20
90.765609
 30
0.0
  0
POINT
  5
29
100
AcDbEntity
  8
DEFPOINTS
  6
BYBLOCK
 62
     0
100
AcDbPoint
 10
76.887734
 20
89.604057
 30
0.0
  0
POINT
  5
2A
100
AcDbEntity
  8
DEFPOINTS
  6
BYBLOCK
 62
     0
100
AcDbPoint
 10
76.887734
 20
77.597736
 30
0.0
  0
ENDBLK
  5
2C
100
AcDbEntity
  8
0
100
AcDbBlockEnd
  0
ENDSEC
  0
SECTION
  2
ENTITIES
  0
DIMENSION
  5
1F
100
AcDbEntity
  8
COTATION1
100
AcDbDimension
  2
*D1
 10
76.887734
 20
77.597736
 30
0.0
 11
91.787734
 21
79.847736
 31
0.0
  3
SC_STAND
100
AcDbAlignedDimension
 13
106.687734
 23
90.765609
 33
0.0
 14
76.887734
 24
89.604057
 34
0.0
100
AcDbRotatedDimension
  0
DIMENSION
  5
2D
100
AcDbEntity
  8
COTATION1
100
AcDbDimension
  2
*D0
 10
116.467602
 20
128.404057
 30
0.0
 11
114.217602
 21
108.504057
 31
0.0
  3
SC_STAND
100
AcDbAlignedDimension
 13
105.687734
 23
88.604057
 33
0.0
 14
102.202094
 24
128.404057
 34
0.0
 50
90.0
100
AcDbRotatedDimension
  0
LINE
  5
3A
100
AcDbEntity
  8
AXE
100
AcDbLine
 10
100.286784
 20
93.088032
 30
0.0
 11
94.772715
 21
89.904706
 31
0.0
  0
ARC
  5
3D
100
AcDbEntity
  8
AXE
100
AcDbCircle
 10
99.536824
 20
94.387093
 30
0.0
 40
1.5
100
AcDbArc
 50
299.998256
 51
359.998256
  0
LINE
  5
3E
100
AcDbEntity
  8
AXE
100
AcDbLine
 10
101.037696
 20
123.053996
 30
0.0
 11
101.036824
 21
94.387047
 31
0.0
  0
ARC
  5
3F
100
AcDbEntity
  8
AXE
100
AcDbCircle
 10
99.037696
 20
123.054057
 30
0.0
 40
2.0
100
AcDbArc
 50
359.998256
 51
90.0
  0
LINE
  5
40
100
AcDbEntity
  8
AXE
100
AcDbLine
 10
95.5261
 20
125.054057
 30
0.0
 11
99.037696
 21
125.054057
 31
0.0
  0
ARC
  5
41
100
AcDbEntity
  8
ALPHA
100
AcDbCircle
 10
95.5261
 20
126.554057
 30
0.0
 40
1.5
100
AcDbArc
 50
257.905243
 51
270.0
  0
LINE
  5
43
100
AcDbEntity
  8
ALPHA
100
AcDbLine
 10
92.102028
 20
125.753735
 30
0.0
 11
95.211806
 21
125.087354
 31
0.0
  0
ARC
  5
44
100
AcDbEntity
  8
ALPHA
100
AcDbCircle
 10
91.787734
 20
124.287031
 30
0.0
 40
1.5
100
AcDbArc
 50
77.905243
 51
102.094757
  0
LINE
  5
45
100
AcDbEntity
  8
ALPHA
100
AcDbLine
 10
88.363662
 20
125.087354
 30
0.0
 11
91.473441
 21
125.753735
 31
0.0
  0
ARC
  5
46
100
AcDbEntity
  8
ALPHA
100
AcDbCircle
 10
88.049369
 20
126.554057
 30
0.0
 40
1.5
100
AcDbArc
 50
270.0
 51
282.094757
  0
LINE
  5
47
100
AcDbEntity
  8
AXE
100
AcDbLine
 10
84.537772
 20
125.054057
 30
0.0
 11
88.049369
 21
125.054057
 31
0.0
  0
ARC
  5
48
100
AcDbEntity
  8
AXE
100
AcDbCircle
 10
84.537772
 20
123.054057
 30
0.0
 40
2.0
100
AcDbArc
 50
90.0
 51
180.001744
  0
LINE
  5
49
100
AcDbEntity
  8
AXE
100
AcDbLine
 10
82.538645
 20
94.387047
 30
0.0
 11
82.537772
 21
123.053996
 31
0.0
  0
ARC
  5
4A
100
AcDbEntity
  8
AXE
100
AcDbCircle
 10
84.038645
 20
94.387093
 30
0.0
 40
1.5
100
AcDbArc
 50
180.001744
 51
240.001744
  0
LINE
  5
4B
100
AcDbEntity
  8
AXE
100
AcDbLine
 10
88.802754
 20
89.904706
 30
0.0
 11
83.288684
 21
93.088032
 31
0.0
  0
LINE
  5
4C
100
AcDbEntity
  8
ALPHA
100
AcDbLine
 10
95.837734
 20
98.44662
 30
0.0
 11
97.737734
 21
98.44662
 31
0.0
  0
LINE
  5
4D
100
AcDbEntity
  8
ALPHA
100
AcDbLine
 10
87.737734
 20
93.711173
 30
0.0
 11
95.837734
 21
93.711173
 31
0.0
  0
LINE
  5
4E
100
AcDbEntity
  8
ALPHA
100
AcDbLine
 10
86.687734
 20
98.44662
 30
0.0
 11
87.737734
 21
98.44662
 31
0.0
  0
LINE
  5
4F
100
AcDbEntity
  8
ALPHA
100
AcDbLine
 10
102.487734
 20
118.776665
 30
0.0
 11
102.487734
 21
117.477262
 31
0.0
  0
LINE
  5
50
100
AcDbEntity
  8
ALPHA
100
AcDbLine
 10
88.661572
 20
89.750183
 30
0.0
 11
77.887734
 21
89.750183
 31
0.0
  0
LINE
  5
51
100
AcDbEntity
  8
ALPHA
100
AcDbLine
 10
105.687734
 20
89.750183
 30
0.0
 11
94.913897
 21
89.750183
 31
0.0
  0
LINE
  5
52
100
AcDbEntity
  8
ALPHA
100
AcDbLine
 10
97.737734
 20
93.711173
 30
0.0
 11
105.837734
 21
93.711173
 31
0.0
  0
LINE
  5
53
100
AcDbEntity
  8
ALPHA
100
AcDbLine
 10
94.687734
 20
95.004057
 30
0.0
 11
95.837734
 21
95.004057
 31
0.0
  0
LINE
  5
54
100
AcDbEntity
  8
ALPHA
100
AcDbLine
 10
87.737734
 20
95.004057
 30
0.0
 11
88.887734
 21
95.004057
 31
0.0
  0
LINE
  5
55
100
AcDbEntity
  8
ALPHA
100
AcDbLine
 10
79.787734
 20
123.908518
 30
0.0
 11
79.787734
 21
123.628016
 31
0.0
  0
LINE
  5
56
100
AcDbEntity
  8
ALPHA
100
AcDbLine
 10
104.687734
 20
95.004057
 30
0.0
 11
105.837734
 21
95.004057
 31
0.0
  0
LINE
  5
57
100
AcDbEntity
  8
ALPHA
100
AcDbLine
 10
97.737734
 20
95.004057
 30
0.0
 11
98.887734
 21
95.004057
 31
0.0
  0
LWPOLYLINE
  5
58
100
AcDbEntity
  8
ALPHA
100
AcDbPolyline
 90
        5
 70
     0
 43
0.0
 10
83.687734
 20
123.908518
 10
83.802389
 20
123.885657
 10
83.899753
 20
123.820428
 10
83.964836
 20
123.722766
 10
83.987734
 20
123.607372
  0
LINE
  5
5F
100
AcDbEntity
  8
ALPHA
100
AcDbLine
 10
87.737734
 20
99.304057
 30
0.0
 11
86.687734
 21
99.304057
 31
0.0
  0
LINE
  5
60
100
AcDbEntity
  8
ALPHA
100
AcDbLine
 10
97.737734
 20
99.304057
 30
0.0
 11
95.837734
 21
99.304057
 31
0.0
  0
LINE
  5
61
100
AcDbEntity
  8
ALPHA
100
AcDbLine
 10
83.687734
 20
123.628016
 30
0.0
 11
83.687734
 21
123.908518
 31
0.0
  0
LINE
  5
62
100
AcDbEntity
  8
ALPHA
100
AcDbLine
 10
103.837734
 20
116.07681
 30
0.0
 11
106.037734
 21
116.07681
 31
0.0
  0
LINE
  5
63
100
AcDbEntity
  8
ALPHA
100
AcDbLine
 10
103.837734
 20
116.87681
 30
0.0
 11
106.037734
 21
116.87681
 31
0.0
  0
LINE
  5
64
100
AcDbEntity
  8
ALPHA
100
AcDbLine
 10
105.837734
 20
99.748611
 30
0.0
 11
106.687734
 21
99.748611
 31
0.0
  0
LINE
  5
65
100
AcDbEntity
  8
ALPHA
100
AcDbLine
 10
102.487734
 20
118.776665
 30
0.0
 11
102.787734
 21
118.776665
 31
0.0
  0
LWPOLYLINE
  5
66
100
AcDbEntity
  8
ALPHA
100
AcDbPolyline
 90
        6
 70
     0
 43
0.0
 10
83.987734
 20
123.329158
 10
83.972909
 20
123.329198
 10
83.929974
 20
123.329103
 10
83.862863
 20
123.329228
 10
83.779113
 20
123.3291
 10
83.687734
 20
123.329158
  0
LINE
  5
6E
100
AcDbEntity
  8
ALPHA
100
AcDbLine
 10
94.687734
 20
119.204057
 30
0.0
 11
94.687734
 21
122.504057
 31
0.0
  0
LWPOLYLINE
  5
6F
100
AcDbEntity
  8
ALPHA
100
AcDbPolyline
 90
        6
 70
     0
 43
0.0
 10
103.087734
 20
119.378957
 10
102.901004
 20
119.349046
 10
102.73495
 20
119.263846
 10
102.603283
 20
119.132004
 10
102.517859
 20
118.965112
 10
102.487734
 20
118.776665
  0
LINE
  5
77
100
AcDbEntity
  8
ALPHA
100
AcDbLine
 10
88.887734
 20
119.204057
 30
0.0
 11
94.687734
 21
119.204057
 31
0.0
  0
LINE
  5
78
100
AcDbEntity
  8
ALPHA
100
AcDbLine
 10
97.587734
 20
116.07681
 30
0.0
 11
99.787734
 21
116.07681
 31
0.0
  0
LINE
  5
79
100
AcDbEntity
  8
ALPHA
100
AcDbLine
 10
97.587734
 20
116.87681
 30
0.0
 11
99.787734
 21
116.87681
 31
0.0
  0
LINE
  5
7A
100
AcDbEntity
  8
ALPHA
100
AcDbLine
 10
94.687734
 20
119.204057
 30
0.0
 11
94.287734
 21
119.604057
 31
0.0
  0
LINE
  5
7B
100
AcDbEntity
  8
ALPHA
100
AcDbLine
 10
88.887734
 20
122.504057
 30
0.0
 11
88.887734
 21
119.204057
 31
0.0
  0
LINE
  5
7C
100
AcDbEntity
  8
ALPHA
100
AcDbLine
 10
88.887734
 20
119.204057
 30
0.0
 11
89.287734
 21
119.604057
 31
0.0
  0
LINE
  5
7D
100
AcDbEntity
  8
ALPHA
100
AcDbLine
 10
103.087734
 20
119.378957
 30
0.0
 11
103.087734
 21
119.080098
 31
0.0
  0
LWPOLYLINE
  5
7E
100
AcDbEntity
  8
ALPHA
100
AcDbPolyline
 90
        6
 70
     0
 43
0.0
 10
103.087734
 20
119.080098
 10
102.994357
 20
119.065025
 10
102.911338
 20
119.022103
 10
102.845511
 20
118.955687
 10
102.8028
 20
118.871615
 10
102.787734
 20
118.776665
  0
LINE
  5
86
100
AcDbEntity
  8
ALPHA
100
AcDbLine
 10
97.587734
 20
115.03758
 30
0.0
 11
99.787734
 21
115.03758
 31
0.0
  0
LINE
  5
87
100
AcDbEntity
  8
ALPHA
100
AcDbLine
 10
105.687734
 20
89.750183
 30
0.0
 11
105.687734
 21
88.604057
 31
0.0
  0
LINE
  5
88
100
AcDbEntity
  8
ALPHA
100
AcDbLine
 10
86.737734
 20
122.604057
 30
0.0
 11
87.987734
 21
122.604057
 31
0.0
  0
LINE
  5
89
100
AcDbEntity
  8
ALPHA
100
AcDbLine
 10
83.687734
 20
123.104057
 30
0.0
 11
83.687734
 21
123.329158
 31
0.0
  0
LWPOLYLINE
  5
8A
100
AcDbEntity
  8
ALPHA
100
AcDbPolyline
 90
        5
 70
     0
 43
0.0
 10
83.687734
 20
123.329158
 10
83.687734
 20
123.437889
 10
83.687734
 20
123.531835
 10
83.687734
 20
123.59822
 10
83.687734
 20
123.628016
  0
LINE
  5
91
100
AcDbEntity
  8
ALPHA
100
AcDbLine
 10
79.787734
 20
123.329158
 30
0.0
 11
83.687734
 21
123.329158
 31
0.0
  0
LWPOLYLINE
  5
92
100
AcDbEntity
  8
ALPHA
100
AcDbPolyline
 90
        5
 70
     0
 43
0.0
 10
79.787734
 20
123.329158
 10
79.787738
 20
123.436433
 10
79.787732
 20
123.531078
 10
79.787735
 20
123.598014
 10
79.787734
 20
123.628016
  0
LINE
  5
99
100
AcDbEntity
  8
ALPHA
100
AcDbLine
 10
95.587734
 20
122.604057
 30
0.0
 11
97.987734
 21
122.604057
 31
0.0
  0
LINE
  5
9A
100
AcDbEntity
  8
ALPHA
100
AcDbLine
 10
79.787734
 20
123.628016
 30
0.0
 11
83.687734
 21
123.628016
 31
0.0
  0
LWPOLYLINE
  5
9B
100
AcDbEntity
  8
ALPHA
100
AcDbPolyline
 90
        7
 70
     0
 43
0.0
 10
105.687734
 20
89.750183
 10
105.944403
 20
89.7842
 10
106.185009
 20
89.884632
 10
106.392287
 20
90.04501
 10
106.552192
 20
90.255149
 10
106.653081
 20
90.500612
 10
106.687734
 20
90.765609
  0
LWPOLYLINE
  5
A4
100
AcDbEntity
  8
ALPHA
100
AcDbPolyline
 90
        3
 70
     0
 43
0.0
 10
100.699753
 20
118.711507
 10
100.602389
 20
118.776736
 10
100.487734
 20
118.799597
  0
LWPOLYLINE
  5
A9
100
AcDbEntity
  8
ALPHA
100
AcDbPolyline
 90
        3
 70
     0
 43
0.0
 10
100.787734
 20
118.498451
 10
100.764836
 20
118.613844
 10
100.699753
 20
118.711507
  0
LWPOLYLINE
  5
AE
100
AcDbEntity
  8
ALPHA
100
AcDbPolyline
 90
       10
 70
     0
 43
0.0
 10
90.08131
 20
128.004057
 10
90.424683
 20
128.306821
 10
90.796526
 20
128.532359
 10
91.186517
 20
128.681556
 10
91.586377
 20
128.755672
 10
91.989354
 20
128.755648
 10
92.389204
 20
128.681485
 10
92.779169
 20
128.532248
 10
93.151032
 20
128.30664
 10
93.494385
 20
128.004057
  0
LINE
  5
BA
100
AcDbEntity
  8
ALPHA
100
AcDbLine
 10
100.487734
 20
118.799597
 30
0.0
 11
100.487734
 21
119.080098
 31
0.0
  0
LINE
  5
BB
100
AcDbEntity
  8
ALPHA
100
AcDbLine
 10
103.087734
 20
119.080098
 30
0.0
 11
103.087734
 21
118.799597
 31
0.0
  0
LINE
  5
BC
100
AcDbEntity
  8
ALPHA
100
AcDbLine
 10
94.687734
 20
97.137774
 30
0.0
 11
93.987734
 21
97.837774
 31
0.0
  0
LINE
  5
BD
100
AcDbEntity
  8
ALPHA
100
AcDbLine
 10
93.437734
 20
97.837774
 30
0.0
 11
93.987734
 21
97.837774
 31
0.0
  0
LWPOLYLINE
  5
BE
100
AcDbEntity
  8
ALPHA
100
AcDbPolyline
 90
        7
 70
     0
 43
0.0
 10
76.887734
 20
90.765609
 10
76.922388
 20
90.500612
 10
77.023277
 20
90.255149
 10
77.183182
 20
90.04501
 10
77.39046
 20
89.884632
 10
77.631066
 20
89.7842
 10
77.887734
 20
89.750183
  0
LWPOLYLINE
  5
C7
100
AcDbEntity
  8
ALPHA
100
AcDbPolyline
 90
        5
 70
     0
 43
0.0
 10
103.087734
 20
118.799597
 10
102.973079
 20
118.776736
 10
102.875715
 20
118.711507
 10
102.810632
 20
118.613844
 10
102.787734
 20
118.498451
  0
LINE
  5
CE
100
AcDbEntity
  8
ALPHA
100
AcDbLine
 10
77.887734
 20
88.604057
 30
0.0
 11
77.887734
 21
89.750183
 31
0.0
  0
LINE
  5
CF
100
AcDbEntity
  8
ALPHA
100
AcDbLine
 10
90.08131
 20
128.004057
 30
0.0
 11
89.187734
 21
128.004057
 31
0.0
  0
LINE
  5
D0
100
AcDbEntity
  8
ALPHA
100
AcDbLine
 10
89.587734
 20
97.837774
 30
0.0
 11
90.137734
 21
97.837774
 31
0.0
  0
LINE
  5
D1
100
AcDbEntity
  8
ALPHA
100
AcDbLine
 10
88.887734
 20
97.137774
 30
0.0
 11
89.587734
 21
97.837774
 31
0.0
  0
LWPOLYLINE
  5
D2
100
AcDbEntity
  8
ALPHA
100
AcDbPolyline
 90
        6
 70
     0
 43
0.0
 10
100.787734
 20
118.776665
 10
100.772668
 20
118.871615
 10
100.729957
 20
118.955687
 10
100.66413
 20
119.022103
 10
100.581111
 20
119.065025
 10
100.487734
 20
119.080098
  0
LWPOLYLINE
  5
DA
100
AcDbEntity
  8
ALPHA
100
AcDbPolyline
 90
        4
 70
     0
 43
0.0
 10
90.08131
 20
128.004057
 10
89.971104
 20
127.714854
 10
89.869891
 20
127.414718
 10
89.77677
 20
127.104057
  0
LINE
  5
E0
100
AcDbEntity
  8
ALPHA
100
AcDbLine
 10
90.137734
 20
98.754057
 30
0.0
 11
88.887734
 21
98.754057
 31
0.0
  0
LINE
  5
E1
100
AcDbEntity
  8
ALPHA
100
AcDbLine
 10
95.187734
 20
125.004057
 30
0.0
 11
95.587734
 21
125.201508
 31
0.0
  0
LINE
  5
E2
100
AcDbEntity
  8
ALPHA
100
AcDbLine
 10
95.187734
 20
125.004057
 30
0.0
 11
95.187734
 21
123.204057
 31
0.0
  0
LWPOLYLINE
  5
E3
100
AcDbEntity
  8
ALPHA
100
AcDbPolyline
 90
        4
 70
     0
 43
0.0
 10
93.494385
 20
128.004057
 10
93.604375
 20
127.714827
 10
93.705582
 20
127.414704
 10
93.7987
 20
127.104057
  0
LINE
  5
E9
100
AcDbEntity
  8
ALPHA
100
AcDbLine
 10
94.387734
 20
128.004057
 30
0.0
 11
93.494385
 21
128.004057
 31
0.0
  0
LINE
  5
EA
100
AcDbEntity
  8
ALPHA
100
AcDbLine
 10
97.987734
 20
119.604057
 30
0.0
 11
98.387734
 21
119.204057
 31
0.0
  0
LINE
  5
EB
100
AcDbEntity
  8
ALPHA
100
AcDbLine
 10
98.387734
 20
124.856759
 30
0.0
 11
98.387734
 21
119.204057
 31
0.0
  0
LINE
  5
EC
100
AcDbEntity
  8
ALPHA
100
AcDbLine
 10
97.987734
 20
125.131982
 30
0.0
 11
98.387734
 21
124.856759
 31
0.0
  0
LINE
  5
ED
100
AcDbEntity
  8
ALPHA
100
AcDbLine
 10
95.187734
 20
119.204057
 30
0.0
 11
95.587734
 21
119.604057
 31
0.0
  0
LINE
  5
EE
100
AcDbEntity
  8
ALPHA
100
AcDbLine
 10
98.387734
 20
119.204057
 30
0.0
 11
95.187734
 21
119.204057
 31
0.0
  0
LINE
  5
EF
100
AcDbEntity
  8
ALPHA
100
AcDbLine
 10
95.187734
 20
119.204057
 30
0.0
 11
95.187734
 21
122.504057
 31
0.0
  0
LINE
  5
F0
100
AcDbEntity
  8
ALPHA
100
AcDbLine
 10
103.087734
 20
118.799597
 30
0.0
 11
103.787734
 21
118.799597
 31
0.0
  0
LINE
  5
F1
100
AcDbEntity
  8
ALPHA
100
AcDbLine
 10
105.187734
 20
119.204057
 30
0.0
 11
105.587734
 21
119.604057
 31
0.0
  0
LINE
  5
F2
100
AcDbEntity
  8
ALPHA
100
AcDbLine
 10
106.687734
 20
119.204057
 30
0.0
 11
105.187734
 21
119.204057
 31
0.0
  0
LINE
  5
F3
100
AcDbEntity
  8
ALPHA
100
AcDbLine
 10
105.587734
 20
125.131982
 30
0.0
 11
105.187734
 21
124.856759
 31
0.0
  0
LINE
  5
F4
100
AcDbEntity
  8
ALPHA
100
AcDbLine
 10
105.187734
 20
124.856759
 30
0.0
 11
105.187734
 21
119.204057
 31
0.0
  0
LINE
  5
F5
100
AcDbEntity
  8
ALPHA
100
AcDbLine
 10
105.187734
 20
124.856759
 30
0.0
 11
98.387734
 21
124.856759
 31
0.0
  0
LINE
  5
F6
100
AcDbEntity
  8
ALPHA
100
AcDbLine
 10
101.087734
 20
115.294878
 30
0.0
 11
102.487734
 21
115.294878
 31
0.0
  0
LINE
  5
F7
100
AcDbEntity
  8
ALPHA
100
AcDbLine
 10
94.387734
 20
128.004057
 30
0.0
 11
94.387734
 21
127.104057
 31
0.0
  0
LWPOLYLINE
  5
F8
100
AcDbEntity
  8
ALPHA
100
AcDbPolyline
 90
        6
 70
     0
 43
0.0
 10
94.387734
 20
128.004057
 10
94.474982
 20
127.985719
 10
94.558709
 20
127.928412
 10
94.625568
 20
127.838386
 10
94.670754
 20
127.720503
 10
94.687734
 20
127.579793
  0
LINE
  5
100
100
AcDbEntity
  8
ALPHA
100
AcDbLine
 10
88.387734
 20
125.004057
 30
0.0
 11
87.987734
 21
125.201508
 31
0.0
  0
LINE
  5
101
100
AcDbEntity
  8
ALPHA
100
AcDbLine
 10
103.837734
 20
117.604057
 30
0.0
 11
106.037734
 21
117.604057
 31
0.0
  0
LINE
  5
102
100
AcDbEntity
  8
ALPHA
100
AcDbLine
 10
88.387734
 20
123.204057
 30
0.0
 11
88.387734
 21
125.004057
 31
0.0
  0
LINE
  5
103
100
AcDbEntity
  8
ALPHA
100
AcDbLine
 10
87.787734
 20
117.604057
 30
0.0
 11
95.787734
 21
117.604057
 31
0.0
  0
LINE
  5
104
100
AcDbEntity
  8
ALPHA
100
AcDbLine
 10
89.187734
 20
127.104057
 30
0.0
 11
89.187734
 21
128.004057
 31
0.0
  0
LINE
  5
105
100
AcDbEntity
  8
ALPHA
100
AcDbLine
 10
87.987734
 20
119.604057
 30
0.0
 11
88.387734
 21
119.204057
 31
0.0
  0
LINE
  5
106
100
AcDbEntity
  8
ALPHA
100
AcDbLine
 10
88.387734
 20
119.204057
 30
0.0
 11
88.387734
 21
122.504057
 31
0.0
  0
LINE
  5
107
100
AcDbEntity
  8
ALPHA
100
AcDbLine
 10
83.687734
 20
123.908518
 30
0.0
 11
79.787734
 21
123.908518
 31
0.0
  0
LINE
  5
108
100
AcDbEntity
  8
ALPHA
100
AcDbLine
 10
97.587734
 20
117.604057
 30
0.0
 11
99.787734
 21
117.604057
 31
0.0
  0
LINE
  5
109
100
AcDbEntity
  8
ALPHA
100
AcDbLine
 10
88.387734
 20
119.204057
 30
0.0
 11
86.687734
 21
119.204057
 31
0.0
  0
LINE
  5
10A
100
AcDbEntity
  8
ALPHA
100
AcDbLine
 10
85.587734
 20
125.131982
 30
0.0
 11
85.187734
 21
124.856759
 31
0.0
  0
LINE
  5
10B
100
AcDbEntity
  8
ALPHA
100
AcDbLine
 10
85.187734
 20
123.104057
 30
0.0
 11
85.187734
 21
124.856759
 31
0.0
  0
LINE
  5
10C
100
AcDbEntity
  8
ALPHA
100
AcDbLine
 10
94.687734
 20
98.754057
 30
0.0
 11
93.437734
 21
98.754057
 31
0.0
  0
LINE
  5
10D
100
AcDbEntity
  8
ALPHA
100
AcDbLine
 10
103.837734
 20
115.03758
 30
0.0
 11
106.037734
 21
115.03758
 31
0.0
  0
LINE
  5
10E
100
AcDbEntity
  8
ALPHA
100
AcDbLine
 10
78.387734
 20
123.104057
 30
0.0
 11
78.387734
 21
124.856759
 31
0.0
  0
LINE
  5
10F
100
AcDbEntity
  8
ALPHA
100
AcDbLine
 10
77.987734
 20
125.131982
 30
0.0
 11
78.387734
 21
124.856759
 31
0.0
  0
LWPOLYLINE
  5
110
100
AcDbEntity
  8
ALPHA
100
AcDbPolyline
 90
        6
 70
     0
 43
0.0
 10
88.887734
 20
127.579793
 10
88.904714
 20
127.720503
 10
88.949901
 20
127.838386
 10
89.01676
 20
127.928412
 10
89.100486
 20
127.985719
 10
89.187734
 20
128.004057
  0
LINE
  5
118
100
AcDbEntity
  8
ALPHA
100
AcDbLine
 10
106.687734
 20
102.204057
 30
0.0
 11
105.837734
 21
102.204057
 31
0.0
  0
LINE
  5
119
100
AcDbEntity
  8
ALPHA
100
AcDbLine
 10
85.587734
 20
126.577262
 30
0.0
 11
78.152936
 21
126.577262
 31
0.0
  0
LINE
  5
11A
100
AcDbEntity
  8
ALPHA
100
AcDbLine
 10
85.587734
 20
126.317455
 30
0.0
 11
78.030935
 21
126.317455
 31
0.0
  0
LINE
  5
11B
100
AcDbEntity
  8
ALPHA
100
AcDbLine
 10
85.187734
 20
124.856759
 30
0.0
 11
78.387734
 21
124.856759
 31
0.0
  0
LINE
  5
11C
100
AcDbEntity
  8
ALPHA
100
AcDbLine
 10
99.887734
 20
118.799597
 30
0.0
 11
100.487734
 21
118.799597
 31
0.0
  0
LINE
  5
11D
100
AcDbEntity
  8
ALPHA
100
AcDbLine
 10
105.544534
 20
126.317455
 30
0.0
 11
97.987734
 21
126.317455
 31
0.0
  0
LINE
  5
11E
100
AcDbEntity
  8
ALPHA
100
AcDbLine
 10
105.422533
 20
126.577262
 30
0.0
 11
97.987734
 21
126.577262
 31
0.0
  0
LINE
  5
11F
100
AcDbEntity
  8
ALPHA
100
AcDbLine
 10
88.887734
 20
126.604513
 30
0.0
 11
87.987734
 21
126.604513
 31
0.0
  0
LINE
  5
120
100
AcDbEntity
  8
ALPHA
100
AcDbLine
 10
88.887734
 20
126.327348
 30
0.0
 11
87.987734
 21
126.327348
 31
0.0
  0
LINE
  5
121
100
AcDbEntity
  8
ALPHA
100
AcDbLine
 10
88.387734
 20
125.004057
 30
0.0
 11
88.887734
 21
125.004057
 31
0.0
  0
LINE
  5
122
100
AcDbEntity
  8
ALPHA
100
AcDbLine
 10
95.187734
 20
125.004057
 30
0.0
 11
94.687734
 21
125.004057
 31
0.0
  0
LINE
  5
123
100
AcDbEntity
  8
ALPHA
100
AcDbLine
 10
95.587734
 20
126.604513
 30
0.0
 11
94.687734
 21
126.604513
 31
0.0
  0
LINE
  5
124
100
AcDbEntity
  8
ALPHA
100
AcDbLine
 10
95.587734
 20
126.327348
 30
0.0
 11
94.687734
 21
126.327348
 31
0.0
  0
LINE
  5
125
100
AcDbEntity
  8
ALPHA
100
AcDbLine
 10
93.987734
 20
97.837774
 30
0.0
 11
94.687734
 21
98.093992
 31
0.0
  0
LINE
  5
126
100
AcDbEntity
  8
ALPHA
100
AcDbLine
 10
89.587734
 20
97.837774
 30
0.0
 11
88.887734
 21
98.093992
 31
0.0
  0
LINE
  5
127
100
AcDbEntity
  8
ALPHA
100
AcDbLine
 10
99.887734
 20
123.908518
 30
0.0
 11
103.787734
 21
123.908518
 31
0.0
  0
LWPOLYLINE
  5
128
100
AcDbEntity
  8
ALPHA
100
AcDbPolyline
 90
        5
 70
     0
 43
0.0
 10
99.587734
 20
123.607372
 10
99.610632
 20
123.722766
 10
99.675715
 20
123.820428
 10
99.773079
 20
123.885657
 10
99.887734
 20
123.908518
  0
LWPOLYLINE
  5
12F
100
AcDbEntity
  8
ALPHA
100
AcDbPolyline
 90
        4
 70
     0
 43
0.0
 10
99.645029
 20
123.504822
 10
99.711399
 20
123.57094
 10
99.795029
 20
123.613389
 10
99.887734
 20
123.628016
  0
LWPOLYLINE
  5
135
100
AcDbEntity
  8
ALPHA
100
AcDbPolyline
 90
        3
 70
     0
 43
0.0
 10
99.587734
 20
123.329158
 10
99.602417
 20
123.421511
 10
99.645029
 20
123.504822
  0
LINE
  5
13A
100
AcDbEntity
  8
ALPHA
100
AcDbLine
 10
95.187734
 20
123.204057
 30
0.0
 11
88.387734
 21
123.204057
 31
0.0
  0
LINE
  5
13B
100
AcDbEntity
  8
ALPHA
100
AcDbLine
 10
95.187734
 20
123.204057
 30
0.0
 11
95.481419
 21
122.854057
 31
0.0
  0
LINE
  5
13C
100
AcDbEntity
  8
ALPHA
100
AcDbLine
 10
95.187734
 20
122.504057
 30
0.0
 11
94.687734
 21
122.504057
 31
0.0
  0
LINE
  5
13D
100
AcDbEntity
  8
ALPHA
100
AcDbLine
 10
88.887734
 20
122.504057
 30
0.0
 11
88.387734
 21
122.504057
 31
0.0
  0
LINE
  5
13E
100
AcDbEntity
  8
ALPHA
100
AcDbLine
 10
88.387734
 20
123.204057
 30
0.0
 11
88.094049
 21
122.854057
 31
0.0
  0
LINE
  5
13F
100
AcDbEntity
  8
ALPHA
100
AcDbLine
 10
103.787734
 20
119.378957
 30
0.0
 11
103.087734
 21
119.378957
 31
0.0
  0
LINE
  5
140
100
AcDbEntity
  8
ALPHA
100
AcDbLine
 10
103.787734
 20
119.378957
 30
0.0
 11
103.787734
 21
119.080098
 31
0.0
  0
LINE
  5
141
100
AcDbEntity
  8
ALPHA
100
AcDbLine
 10
103.787734
 20
119.080098
 30
0.0
 11
103.087734
 21
119.080098
 31
0.0
  0
LWPOLYLINE
  5
142
100
AcDbEntity
  8
ALPHA
100
AcDbPolyline
 90
        4
 70
     0
 43
0.0
 10
104.030439
 20
119.203292
 10
103.96407
 20
119.137175
 10
103.880439
 20
119.094726
 10
103.787734
 20
119.080098
  0
LWPOLYLINE
  5
148
100
AcDbEntity
  8
ALPHA
100
AcDbPolyline
 90
        3
 70
     0
 43
0.0
 10
104.087734
 20
119.378957
 10
104.073051
 20
119.286604
 10
104.030439
 20
119.203292
  0
LWPOLYLINE
  5
14D
100
AcDbEntity
  8
ALPHA
100
AcDbPolyline
 90
        5
 70
     0
 43
0.0
 10
103.787734
 20
119.378957
 10
103.902539
 20
119.379079
 10
103.999866
 20
119.379122
 10
104.064898
 20
119.379079
 10
104.087734
 20
119.378957
  0
LINE
  5
154
100
AcDbEntity
  8
ALPHA
100
AcDbLine
 10
103.787734
 20
123.329158
 30
0.0
 11
103.787734
 21
119.378957
 31
0.0
  0
LINE
  5
155
100
AcDbEntity
  8
ALPHA
100
AcDbLine
 10
103.787734
 20
123.329158
 30
0.0
 11
104.087734
 21
123.329158
 31
0.0
  0
LWPOLYLINE
  5
156
100
AcDbEntity
  8
ALPHA
100
AcDbPolyline
 90
        3
 70
     0
 43
0.0
 10
104.030439
 20
123.504822
 10
104.073051
 20
123.421511
 10
104.087734
 20
123.329158
  0
LWPOLYLINE
  5
15B
100
AcDbEntity
  8
ALPHA
100
AcDbPolyline
 90
        4
 70
     0
 43
0.0
 10
103.787734
 20
123.628016
 10
103.880439
 20
123.613389
 10
103.96407
 20
123.57094
 10
104.030439
 20
123.504822
  0
LINE
  5
161
100
AcDbEntity
  8
ALPHA
100
AcDbLine
 10
103.787734
 20
123.329158
 30
0.0
 11
103.787734
 21
123.628016
 31
0.0
  0
LINE
  5
162
100
AcDbEntity
  8
ALPHA
100
AcDbLine
 10
99.887734
 20
123.329158
 30
0.0
 11
103.787734
 21
123.329158
 31
0.0
  0
LINE
  5
163
100
AcDbEntity
  8
ALPHA
100
AcDbLine
 10
99.887734
 20
123.329158
 30
0.0
 11
99.887734
 21
123.628016
 31
0.0
  0
LINE
  5
164
100
AcDbEntity
  8
ALPHA
100
AcDbLine
 10
99.887734
 20
123.628016
 30
0.0
 11
103.787734
 21
123.628016
 31
0.0
  0
LWPOLYLINE
  5
165
100
AcDbEntity
  8
ALPHA
100
AcDbPolyline
 90
        5
 70
     0
 43
0.0
 10
99.887734
 20
123.329158
 10
99.772929
 20
123.329035
 10
99.675602
 20
123.328992
 10
99.61057
 20
123.329035
 10
99.587734
 20
123.329158
  0
LINE
  5
16C
100
AcDbEntity
  8
ALPHA
100
AcDbLine
 10
99.887734
 20
119.378957
 30
0.0
 11
99.887734
 21
123.329158
 31
0.0
  0
LINE
  5
16D
100
AcDbEntity
  8
ALPHA
100
AcDbLine
 10
99.887734
 20
119.378957
 30
0.0
 11
99.587734
 21
119.378957
 31
0.0
  0
LINE
  5
16E
100
AcDbEntity
  8
ALPHA
100
AcDbLine
 10
99.887734
 20
123.908518
 30
0.0
 11
99.887734
 21
123.628016
 31
0.0
  0
LINE
  5
16F
100
AcDbEntity
  8
ALPHA
100
AcDbLine
 10
103.787734
 20
123.628016
 30
0.0
 11
103.787734
 21
123.908518
 31
0.0
  0
LWPOLYLINE
  5
170
100
AcDbEntity
  8
ALPHA
100
AcDbPolyline
 90
        5
 70
     0
 43
0.0
 10
103.787734
 20
123.908518
 10
103.902389
 20
123.885657
 10
103.999753
 20
123.820428
 10
104.064836
 20
123.722766
 10
104.087734
 20
123.607372
  0
LWPOLYLINE
  5
177
100
AcDbEntity
  8
ALPHA
100
AcDbPolyline
 90
        5
 70
     0
 43
0.0
 10
79.487734
 20
123.607372
 10
79.510632
 20
123.722766
 10
79.575715
 20
123.820428
 10
79.673079
 20
123.885657
 10
79.787734
 20
123.908518
  0
LINE
  5
17E
100
AcDbEntity
  8
ALPHA
100
AcDbLine
 10
87.987734
 20
124.904057
 30
0.0
 11
85.587734
 21
124.904057
 31
0.0
  0
LWPOLYLINE
  5
17F
100
AcDbEntity
  8
ALPHA
100
AcDbPolyline
 90
        3
 70
     0
 43
0.0
 10
99.645029
 20
119.203292
 10
99.602417
 20
119.286604
 10
99.587734
 20
119.378957
  0
LWPOLYLINE
  5
184
100
AcDbEntity
  8
ALPHA
100
AcDbPolyline
 90
        4
 70
     0
 43
0.0
 10
99.887734
 20
119.080098
 10
99.795029
 20
119.094726
 10
99.711399
 20
119.137175
 10
99.645029
 20
119.203292
  0
LWPOLYLINE
  5
18A
100
AcDbEntity
  8
ALPHA
100
AcDbPolyline
 90
        4
 70
     0
 43
0.0
 10
79.544167
 20
123.50363
 10
79.6108
 20
123.570509
 10
79.694642
 20
123.61326
 10
79.787734
 20
123.628016
  0
LWPOLYLINE
  5
190
100
AcDbEntity
  8
ALPHA
100
AcDbPolyline
 90
        3
 70
     0
 43
0.0
 10
79.487734
 20
123.329158
 10
79.501987
 20
123.420184
 10
79.544167
 20
123.50363
  0
LINE
  5
195
100
AcDbEntity
  8
ALPHA
100
AcDbLine
 10
97.987734
 20
124.904057
 30
0.0
 11
95.587734
 21
124.904057
 31
0.0
  0
LWPOLYLINE
  5
196
100
AcDbEntity
  8
ALPHA
100
AcDbPolyline
 90
        4
 70
     0
 43
0.0
 10
83.929974
 20
123.505464
 10
83.862863
 20
123.571802
 10
83.779113
 20
123.61382
 10
83.687734
 20
123.628016
  0
LWPOLYLINE
  5
19C
100
AcDbEntity
  8
ALPHA
100
AcDbPolyline
 90
        3
 70
     0
 43
0.0
 10
83.987734
 20
123.329158
 10
83.972909
 20
123.421941
 10
83.929974
 20
123.505464
  0
LINE
  5
1A1
100
AcDbEntity
  8
ALPHA
100
AcDbLine
 10
99.887734
 20
119.378957
 30
0.0
 11
99.887734
 21
119.080098
 31
0.0
  0
LINE
  5
1A2
100
AcDbEntity
  8
ALPHA
100
AcDbLine
 10
94.529231
 20
116.87681
 30
0.0
 11
95.787734
 21
116.87681
 31
0.0
  0
LINE
  5
1A3
100
AcDbEntity
  8
ALPHA
100
AcDbLine
 10
100.487734
 20
119.378957
 30
0.0
 11
99.887734
 21
119.378957
 31
0.0
  0
LINE
  5
1A4
100
AcDbEntity
  8
ALPHA
100
AcDbLine
 10
100.487734
 20
119.378957
 30
0.0
 11
100.487734
 21
119.080098
 31
0.0
  0
LINE
  5
1A5
100
AcDbEntity
  8
ALPHA
100
AcDbLine
 10
87.787734
 20
116.87681
 30
0.0
 11
89.046238
 21
116.87681
 31
0.0
  0
LINE
  5
1A6
100
AcDbEntity
  8
ALPHA
100
AcDbLine
 10
100.487734
 20
119.080098
 30
0.0
 11
99.887734
 21
119.080098
 31
0.0
  0
LWPOLYLINE
  5
1A7
100
AcDbEntity
  8
ALPHA
100
AcDbPolyline
 90
        5
 70
     0
 43
0.0
 10
104.087734
 20
119.100743
 10
104.064836
 20
118.985349
 10
103.999753
 20
118.887687
 10
103.902389
 20
118.822458
 10
103.787734
 20
118.799597
  0
LINE
  5
1AE
100
AcDbEntity
  8
ALPHA
100
AcDbLine
 10
103.787734
 20
118.799597
 30
0.0
 11
103.787734
 21
119.080098
 31
0.0
  0
LINE
  5
1AF
100
AcDbEntity
  8
ALPHA
100
AcDbLine
 10
99.887734
 20
119.080098
 30
0.0
 11
99.887734
 21
118.799597
 31
0.0
  0
LWPOLYLINE
  5
1B0
100
AcDbEntity
  8
ALPHA
100
AcDbPolyline
 90
        6
 70
     0
 43
0.0
 10
101.087734
 20
118.776665
 10
101.057609
 20
118.965112
 10
100.972186
 20
119.132004
 10
100.840519
 20
119.263846
 10
100.674465
 20
119.349046
 10
100.487734
 20
119.378957
  0
LWPOLYLINE
  5
1B8
100
AcDbEntity
  8
ALPHA
100
AcDbPolyline
 90
        5
 70
     0
 43
0.0
 10
99.887734
 20
118.799597
 10
99.773079
 20
118.822458
 10
99.675715
 20
118.887687
 10
99.610632
 20
118.985349
 10
99.587734
 20
119.100743
  0
LINE
  5
1BF
100
AcDbEntity
  8
ALPHA
100
AcDbLine
 10
101.087734
 20
118.776665
 30
0.0
 11
100.787734
 21
118.776665
 31
0.0
  0
LINE
  5
1C0
100
AcDbEntity
  8
ALPHA
100
AcDbLine
 10
101.087734
 20
117.477262
 30
0.0
 11
101.087734
 21
118.776665
 31
0.0
  0
LINE
  5
1C1
100
AcDbEntity
  8
ALPHA
100
AcDbLine
 10
101.087734
 20
117.217455
 30
0.0
 11
101.087734
 21
115.294878
 31
0.0
  0
LWPOLYLINE
  5
1C2
100
AcDbEntity
  8
ALPHA
100
AcDbPolyline
 90
        6
 70
     0
 43
0.0
 10
101.087734
 20
115.294878
 10
101.001285
 20
115.309573
 10
100.916768
 20
115.356635
 10
100.849284
 20
115.431077
 10
100.804025
 20
115.528688
 10
100.787734
 20
115.641289
  0
LINE
  5
1CA
100
AcDbEntity
  8
ALPHA
100
AcDbLine
 10
101.087734
 20
117.477262
 30
0.0
 11
100.787734
 21
117.477262
 31
0.0
  0
LWPOLYLINE
  5
1CB
100
AcDbEntity
  8
ALPHA
100
AcDbPolyline
 90
        6
 70
     0
 43
0.0
 10
102.787734
 20
115.641289
 10
102.771443
 20
115.528688
 10
102.726184
 20
115.431077
 10
102.6587
 20
115.356635
 10
102.574184
 20
115.309573
 10
102.487734
 20
115.294878
  0
LINE
  5
1D3
100
AcDbEntity
  8
ALPHA
100
AcDbLine
 10
102.487734
 20
115.294878
 30
0.0
 11
102.487734
 21
117.217455
 31
0.0
  0
LWPOLYLINE
  5
1D4
100
AcDbEntity
  8
ALPHA
100
AcDbPolyline
 90
        6
 70
     0
 43
0.0
 10
101.087734
 20
117.217455
 10
100.995029
 20
117.230179
 10
100.911399
 20
117.267064
 10
100.845029
 20
117.324564
 10
100.802417
 20
117.396953
 10
100.787734
 20
117.477262
  0
LWPOLYLINE
  5
1DC
100
AcDbEntity
  8
ALPHA
100
AcDbPolyline
 90
        6
 70
     0
 43
0.0
 10
79.487734
 20
123.329158
 10
79.502417
 20
123.329158
 10
79.545029
 20
123.329158
 10
79.611399
 20
123.329158
 10
79.695029
 20
123.329158
 10
79.787734
 20
123.329158
  0
LINE
  5
1E4
100
AcDbEntity
  8
ALPHA
100
AcDbLine
 10
79.787734
 20
123.329158
 30
0.0
 11
79.787734
 21
123.104057
 31
0.0
  0
LINE
  5
1E5
100
AcDbEntity
  8
ALPHA
100
AcDbLine
 10
101.087734
 20
117.477262
 30
0.0
 11
101.087734
 21
117.217455
 31
0.0
  0
LINE
  5
1E6
100
AcDbEntity
  8
ALPHA
100
AcDbLine
 10
102.487734
 20
117.477262
 30
0.0
 11
101.087734
 21
117.477262
 31
0.0
  0
LINE
  5
1E7
100
AcDbEntity
  8
ALPHA
100
AcDbLine
 10
102.487734
 20
117.477262
 30
0.0
 11
102.487734
 21
117.217455
 31
0.0
  0
LINE
  5
1E8
100
AcDbEntity
  8
ALPHA
100
AcDbLine
 10
102.487734
 20
117.217455
 30
0.0
 11
101.087734
 21
117.217455
 31
0.0
  0
LWPOLYLINE
  5
1E9
100
AcDbEntity
  8
ALPHA
100
AcDbPolyline
 90
        6
 70
     0
 43
0.0
 10
102.787734
 20
117.477262
 10
102.773051
 20
117.396953
 10
102.730439
 20
117.324564
 10
102.66407
 20
117.267064
 10
102.580439
 20
117.230179
 10
102.487734
 20
117.217455
  0
LWPOLYLINE
  5
1F1
100
AcDbEntity
  8
ALPHA
100
AcDbPolyline
 90
        5
 70
     0
 43
0.0
 10
102.487734
 20
117.477262
 10
102.602539
 20
117.477368
 10
102.699866
 20
117.477405
 10
102.764898
 20
117.477368
 10
102.787734
 20
117.477262
  0
LINE
  5
1F8
100
AcDbEntity
  8
ALPHA
100
AcDbLine
 10
95.837734
 20
93.711173
 30
0.0
 11
95.837734
 21
98.44662
 31
0.0
  0
LINE
  5
1F9
100
AcDbEntity
  8
ALPHA
100
AcDbLine
 10
87.737734
 20
93.711173
 30
0.0
 11
87.737734
 21
98.44662
 31
0.0
  0
ARC
  5
1FA
100
AcDbEntity
  8
ALPHA
100
AcDbCircle
 10
91.787734
 20
82.604057
 30
0.0
 40
7.8
100
AcDbArc
 50
66.372421
 51
113.627579
  0
LINE
  5
1FB
100
AcDbEntity
  8
ALPHA
100
AcDbLine
 10
88.887734
 20
95.004057
 30
0.0
 11
94.687734
 21
95.004057
 31
0.0
  0
LINE
  5
1FC
100
AcDbEntity
  8
ALPHA
100
AcDbLine
 10
97.737734
 20
93.711173
 30
0.0
 11
97.737734
 21
98.44662
 31
0.0
  0
LINE
  5
1FD
100
AcDbEntity
  8
ALPHA
100
AcDbLine
 10
105.837734
 20
93.711173
 30
0.0
 11
105.837734
 21
99.748611
 31
0.0
  0
LINE
  5
1FE
100
AcDbEntity
  8
ALPHA
100
AcDbLine
 10
87.737734
 20
98.44662
 30
0.0
 11
87.737734
 21
99.304057
 31
0.0
  0
LINE
  5
1FF
100
AcDbEntity
  8
ALPHA
100
AcDbLine
 10
95.837734
 20
98.44662
 30
0.0
 11
95.837734
 21
99.304057
 31
0.0
  0
LINE
  5
200
100
AcDbEntity
  8
ALPHA
100
AcDbLine
 10
97.737734
 20
98.44662
 30
0.0
 11
97.737734
 21
99.304057
 31
0.0
  0
LINE
  5
201
100
AcDbEntity
  8
ALPHA
100
AcDbLine
 10
98.887734
 20
95.004057
 30
0.0
 11
104.687734
 21
95.004057
 31
0.0
  0
LINE
  5
202
100
AcDbEntity
  8
ALPHA
100
AcDbLine
 10
105.837734
 20
99.748611
 30
0.0
 11
105.837734
 21
102.204057
 31
0.0
  0
LINE
  5
203
100
AcDbEntity
  8
ALPHA
100
AcDbLine
 10
105.887734
 20
108.904057
 30
0.0
 11
103.787734
 21
108.904057
 31
0.0
  0
LINE
  5
204
100
AcDbEntity
  8
ALPHA
100
AcDbLine
 10
94.287734
 20
119.604057
 30
0.0
 11
94.287734
 21
122.504057
 31
0.0
  0
LINE
  5
205
100
AcDbEntity
  8
ALPHA
100
AcDbLine
 10
89.287734
 20
119.604057
 30
0.0
 11
94.287734
 21
119.604057
 31
0.0
  0
LINE
  5
206
100
AcDbEntity
  8
ALPHA
100
AcDbLine
 10
89.287734
 20
122.504057
 30
0.0
 11
89.287734
 21
119.604057
 31
0.0
  0
ARC
  5
207
100
AcDbEntity
  8
ALPHA
100
AcDbCircle
 10
91.787734
 20
107.104057
 30
0.0
 40
15.25
100
AcDbArc
 50
104.429014
 51
109.346161
  0
ARC
  5
208
100
AcDbEntity
  8
ALPHA
100
AcDbCircle
 10
91.787734
 20
107.104057
 30
0.0
 40
15.25
100
AcDbArc
 50
66.011243
 51
75.570986
  0
LINE
  5
209
100
AcDbEntity
  8
ALPHA
100
AcDbLine
 10
90.612319
 20
127.104057
 30
0.0
 11
89.77677
 21
127.104057
 31
0.0
  0
LINE
  5
20A
100
AcDbEntity
  8
ALPHA
100
AcDbLine
 10
93.7987
 20
127.104057
 30
0.0
 11
92.963149
 21
127.104057
 31
0.0
  0
LINE
  5
20B
100
AcDbEntity
  8
ALPHA
100
AcDbLine
 10
94.287734
 20
121.104057
 30
0.0
 11
89.287734
 21
121.104057
 31
0.0
  0
ARC
  5
20C
100
AcDbEntity
  8
ALPHA
100
AcDbCircle
 10
91.787734
 20
82.604057
 30
0.0
 40
7.8
100
AcDbArc
 50
118.087839
 51
129.715137
  0
ARC
  5
20D
100
AcDbEntity
  8
ALPHA
100
AcDbCircle
 10
91.787734
 20
82.604057
 30
0.0
 40
7.8
100
AcDbArc
 50
50.284863
 51
61.912017
  0
LWPOLYLINE
  5
20E
100
AcDbEntity
  8
ALPHA
100
AcDbPolyline
 90
        6
 70
     0
 43
0.0
 10
92.963149
 20
127.104057
 10
92.504456
 20
127.317812
 10
92.028422
 20
127.423799
 10
91.547046
 20
127.423799
 10
91.071013
 20
127.317812
 10
90.612319
 20
127.104057
  0
LWPOLYLINE
  5
216
100
AcDbEntity
  8
ALPHA
100
AcDbPolyline
 90
        5
 70
     0
 43
0.0
 10
92.598914
 20
125.004057
 10
92.196655
 20
124.888726
 10
91.787734
 20
124.850467
 10
91.378814
 20
124.888726
 10
90.976555
 20
125.004057
  0
LINE
  5
21D
100
AcDbEntity
  8
ALPHA
100
AcDbLine
 10
89.77677
 20
127.104057
 30
0.0
 11
89.187734
 21
127.104057
 31
0.0
  0
ARC
  5
21E
100
AcDbEntity
  8
ALPHA
100
AcDbCircle
 10
91.787734
 20
99.604057
 30
0.0
 40
1.85
100
AcDbArc
 50
325.290486
 51
332.753513
  0
ARC
  5
21F
100
AcDbEntity
  8
ALPHA
100
AcDbCircle
 10
91.787734
 20
99.604057
 30
0.0
 40
1.85
100
AcDbArc
 50
309.775375
 51
325.290486
  0
ARC
  5
220
100
AcDbEntity
  8
ALPHA
100
AcDbCircle
 10
91.787734
 20
107.104057
 30
0.0
 40
9.0
100
AcDbArc
 50
262.443129
 51
277.556871
  0
ARC
  5
221
100
AcDbEntity
  8
ALPHA
100
AcDbCircle
 10
91.787734
 20
99.604057
 30
0.0
 40
1.85
100
AcDbArc
 50
214.709514
 51
230.224625
  0
ARC
  5
222
100
AcDbEntity
  8
ALPHA
100
AcDbCircle
 10
91.787734
 20
99.604057
 30
0.0
 40
1.85
100
AcDbArc
 50
207.246487
 51
214.709514
  0
LINE
  5
223
100
AcDbEntity
  8
ALPHA
100
AcDbLine
 10
105.187734
 20
88.604057
 30
0.0
 11
98.287734
 21
88.604057
 31
0.0
  0
LINE
  5
224
100
AcDbEntity
  8
ALPHA
100
AcDbLine
 10
94.387734
 20
127.104057
 30
0.0
 11
93.7987
 21
127.104057
 31
0.0
  0
LINE
  5
225
100
AcDbEntity
  8
ALPHA
100
AcDbLine
 10
85.287734
 20
88.604057
 30
0.0
 11
78.387734
 21
88.604057
 31
0.0
  0
LINE
  5
226
100
AcDbEntity
  8
ALPHA
100
AcDbLine
 10
95.481419
 20
122.854057
 30
0.0
 11
95.587734
 21
122.980759
 31
0.0
  0
LINE
  5
227
100
AcDbEntity
  8
ALPHA
100
AcDbLine
 10
95.587734
 20
125.201508
 30
0.0
 11
95.587734
 21
122.980759
 31
0.0
  0
LINE
  5
228
100
AcDbEntity
  8
ALPHA
100
AcDbLine
 10
97.987734
 20
125.131982
 30
0.0
 11
97.987734
 21
119.604057
 31
0.0
  0
LINE
  5
229
100
AcDbEntity
  8
ALPHA
100
AcDbLine
 10
97.987734
 20
119.604057
 30
0.0
 11
95.587734
 21
119.604057
 31
0.0
  0
LINE
  5
22A
100
AcDbEntity
  8
ALPHA
100
AcDbLine
 10
95.587734
 20
119.604057
 30
0.0
 11
95.587734
 21
122.980759
 31
0.0
  0
LINE
  5
22B
100
AcDbEntity
  8
ALPHA
100
AcDbLine
 10
106.687734
 20
119.204057
 30
0.0
 11
106.687734
 21
119.604057
 31
0.0
  0
LINE
  5
22C
100
AcDbEntity
  8
ALPHA
100
AcDbLine
 10
106.687734
 20
119.604057
 30
0.0
 11
105.587734
 21
119.604057
 31
0.0
  0
LINE
  5
22D
100
AcDbEntity
  8
ALPHA
100
AcDbLine
 10
105.587734
 20
125.131982
 30
0.0
 11
105.587734
 21
119.604057
 31
0.0
  0
LINE
  5
22E
100
AcDbEntity
  8
ALPHA
100
AcDbLine
 10
105.587734
 20
126.026707
 30
0.0
 11
105.587734
 21
125.131982
 31
0.0
  0
LINE
  5
22F
100
AcDbEntity
  8
ALPHA
100
AcDbLine
 10
97.987734
 20
126.317455
 30
0.0
 11
97.987734
 21
125.131982
 31
0.0
  0
ARC
  5
230
100
AcDbEntity
  8
ALPHA
100
AcDbCircle
 10
94.387734
 20
126.804057
 30
0.0
 40
0.3
100
AcDbArc
 50
0.0
 51
90.0
  0
LINE
  5
231
100
AcDbEntity
  8
ALPHA
100
AcDbLine
 10
87.987734
 20
122.980759
 30
0.0
 11
87.987734
 21
125.201508
 31
0.0
  0
LINE
  5
232
100
AcDbEntity
  8
ALPHA
100
AcDbLine
 10
88.094049
 20
122.854057
 30
0.0
 11
87.987734
 21
122.980759
 31
0.0
  0
ARC
  5
233
100
AcDbEntity
  8
ALPHA
100
AcDbCircle
 10
89.187734
 20
126.804057
 30
0.0
 40
0.3
100
AcDbArc
 50
90.0
 51
180.0
  0
LINE
  5
234
100
AcDbEntity
  8
ALPHA
100
AcDbLine
 10
87.987734
 20
119.604057
 30
0.0
 11
87.987734
 21
122.980759
 31
0.0
  0
LINE
  5
235
100
AcDbEntity
  8
ALPHA
100
AcDbLine
 10
87.987734
 20
119.604057
 30
0.0
 11
86.687734
 21
119.604057
 31
0.0
  0
LINE
  5
236
100
AcDbEntity
  8
ALPHA
100
AcDbLine
 10
85.587734
 20
123.104057
 30
0.0
 11
85.587734
 21
125.131982
 31
0.0
  0
LINE
  5
237
100
AcDbEntity
  8
ALPHA
100
AcDbLine
 10
77.987734
 20
123.104057
 30
0.0
 11
77.987734
 21
125.131982
 31
0.0
  0
LINE
  5
238
100
AcDbEntity
  8
ALPHA
100
AcDbLine
 10
94.687734
 20
125.004057
 30
0.0
 11
92.598914
 21
125.004057
 31
0.0
  0
LINE
  5
239
100
AcDbEntity
  8
ALPHA
100
AcDbLine
 10
90.976555
 20
125.004057
 30
0.0
 11
88.887734
 21
125.004057
 31
0.0
  0
LINE
  5
23A
100
AcDbEntity
  8
ALPHA
100
AcDbLine
 10
85.587734
 20
126.577262
 30
0.0
 11
85.587734
 21
126.317455
 31
0.0
  0
LINE
  5
23B
100
AcDbEntity
  8
ALPHA
100
AcDbLine
 10
77.987734
 20
125.131982
 30
0.0
 11
77.987734
 21
126.026707
 31
0.0
  0
LINE
  5
23C
100
AcDbEntity
  8
ALPHA
100
AcDbLine
 10
97.987734
 20
126.317455
 30
0.0
 11
97.987734
 21
126.577262
 31
0.0
  0
LINE
  5
23D
100
AcDbEntity
  8
ALPHA
100
AcDbLine
 10
85.587734
 20
125.131982
 30
0.0
 11
85.587734
 21
126.317455
 31
0.0
  0
LINE
  5
23E
100
AcDbEntity
  8
ALPHA
100
AcDbLine
 10
88.887734
 20
126.604513
 30
0.0
 11
88.887734
 21
126.327348
 31
0.0
  0
LINE
  5
23F
100
AcDbEntity
  8
ALPHA
100
AcDbLine
 10
87.987734
 20
126.327348
 30
0.0
 11
87.987734
 21
126.604513
 31
0.0
  0
LINE
  5
240
100
AcDbEntity
  8
ALPHA
100
AcDbLine
 10
95.587734
 20
126.604513
 30
0.0
 11
95.587734
 21
126.327348
 31
0.0
  0
LINE
  5
241
100
AcDbEntity
  8
ALPHA
100
AcDbLine
 10
94.687734
 20
126.327348
 30
0.0
 11
94.687734
 21
126.604513
 31
0.0
  0
LINE
  5
242
100
AcDbEntity
  8
ALPHA
100
AcDbLine
 10
87.987734
 20
126.327348
 30
0.0
 11
87.987734
 21
125.201508
 31
0.0
  0
LINE
  5
243
100
AcDbEntity
  8
ALPHA
100
AcDbLine
 10
95.587734
 20
125.201508
 30
0.0
 11
95.587734
 21
126.327348
 31
0.0
  0
LINE
  5
244
100
AcDbEntity
  8
ALPHA
100
AcDbLine
 10
88.887734
 20
126.604513
 30
0.0
 11
88.887734
 21
127.579793
 31
0.0
  0
LINE
  5
245
100
AcDbEntity
  8
ALPHA
100
AcDbLine
 10
94.687734
 20
126.604513
 30
0.0
 11
94.687734
 21
127.579793
 31
0.0
  0
LINE
  5
246
100
AcDbEntity
  8
ALPHA
100
AcDbLine
 10
105.087734
 20
126.892732
 30
0.0
 11
102.702094
 21
128.270083
 31
0.0
  0
LINE
  5
247
100
AcDbEntity
  8
ALPHA
100
AcDbLine
 10
80.873375
 20
128.270083
 30
0.0
 11
78.487734
 21
126.892732
 31
0.0
  0
ARC
  5
248
100
AcDbEntity
  8
ALPHA
100
AcDbCircle
 10
91.787734
 20
107.104057
 30
0.0
 40
10.15
100
AcDbArc
 50
66.790851
 51
74.329891
  0
ARC
  5
249
100
AcDbEntity
  8
ALPHA
100
AcDbCircle
 10
91.787734
 20
107.104057
 30
0.0
 40
10.15
100
AcDbArc
 50
105.670109
 51
113.209149
  0
LINE
  5
24A
100
AcDbEntity
  8
ALPHA
100
AcDbLine
 10
95.787734
 20
117.604057
 30
0.0
 11
95.787734
 21
114.319492
 31
0.0
  0
LINE
  5
24B
100
AcDbEntity
  8
ALPHA
100
AcDbLine
 10
87.787734
 20
114.319492
 30
0.0
 11
87.787734
 21
117.604057
 31
0.0
  0
ARC
  5
24C
100
AcDbEntity
  8
ALPHA
100
AcDbCircle
 10
91.787734
 20
107.104057
 30
0.0
 40
10.15
100
AcDbArc
 50
345.741007
 51
20.171271
  0
LINE
  5
24D
100
AcDbEntity
  8
ALPHA
100
AcDbLine
 10
88.887734
 20
126.327348
 30
0.0
 11
88.887734
 21
125.004057
 31
0.0
  0
LINE
  5
24E
100
AcDbEntity
  8
ALPHA
100
AcDbLine
 10
94.687734
 20
125.004057
 30
0.0
 11
94.687734
 21
126.327348
 31
0.0
  0
LINE
  5
24F
100
AcDbEntity
  8
ALPHA
100
AcDbLine
 10
100.787734
 20
118.498451
 30
0.0
 11
100.787734
 21
118.776665
 31
0.0
  0
LINE
  5
250
100
AcDbEntity
  8
ALPHA
100
AcDbLine
 10
102.787734
 20
118.776665
 30
0.0
 11
102.787734
 21
118.498451
 31
0.0
  0
LINE
  5
251
100
AcDbEntity
  8
ALPHA
100
AcDbLine
 10
105.187734
 20
88.604057
 30
0.0
 11
105.187734
 21
89.485692
 31
0.0
  0
LINE
  5
252
100
AcDbEntity
  8
ALPHA
100
AcDbLine
 10
98.287734
 20
89.485692
 30
0.0
 11
105.187734
 21
89.485692
 31
0.0
  0
LINE
  5
253
100
AcDbEntity
  8
ALPHA
100
AcDbLine
 10
98.287734
 20
88.604057
 30
0.0
 11
98.287734
 21
89.485692
 31
0.0
  0
LINE
  5
254
100
AcDbEntity
  8
ALPHA
100
AcDbLine
 10
96.787734
 20
88.604057
 30
0.0
 11
96.787734
 21
89.485692
 31
0.0
  0
LINE
  5
255
100
AcDbEntity
  8
ALPHA
100
AcDbLine
 10
95.459669
 20
89.485692
 30
0.0
 11
96.787734
 21
89.485692
 31
0.0
  0
ARC
  5
256
100
AcDbEntity
  8
ALPHA
100
AcDbCircle
 10
91.787734
 20
82.604057
 30
0.0
 40
7.8
100
AcDbArc
 50
61.916307
 51
66.372421
  0
ARC
  5
257
100
AcDbEntity
  8
ALPHA
100
AcDbCircle
 10
91.787734
 20
82.604057
 30
0.0
 40
7.8
100
AcDbArc
 50
113.627579
 51
118.083693
  0
LINE
  5
258
100
AcDbEntity
  8
ALPHA
100
AcDbLine
 10
86.787734
 20
89.485692
 30
0.0
 11
88.1158
 21
89.485692
 31
0.0
  0
LINE
  5
259
100
AcDbEntity
  8
ALPHA
100
AcDbLine
 10
86.787734
 20
88.604057
 30
0.0
 11
86.787734
 21
89.485692
 31
0.0
  0
LINE
  5
25A
100
AcDbEntity
  8
ALPHA
100
AcDbLine
 10
85.287734
 20
88.604057
 30
0.0
 11
85.287734
 21
89.485692
 31
0.0
  0
LINE
  5
25B
100
AcDbEntity
  8
ALPHA
100
AcDbLine
 10
78.387734
 20
89.485692
 30
0.0
 11
85.287734
 21
89.485692
 31
0.0
  0
LINE
  5
25C
100
AcDbEntity
  8
ALPHA
100
AcDbLine
 10
78.387734
 20
88.604057
 30
0.0
 11
78.387734
 21
89.485692
 31
0.0
  0
LINE
  5
25D
100
AcDbEntity
  8
ALPHA
100
AcDbLine
 10
95.481419
 20
122.854057
 30
0.0
 11
95.187734
 21
122.504057
 31
0.0
  0
LINE
  5
25E
100
AcDbEntity
  8
ALPHA
100
AcDbLine
 10
94.687734
 20
122.504057
 30
0.0
 11
88.887734
 21
122.504057
 31
0.0
  0
LINE
  5
25F
100
AcDbEntity
  8
ALPHA
100
AcDbLine
 10
88.094049
 20
122.854057
 30
0.0
 11
88.387734
 21
122.504057
 31
0.0
  0
ARC
  5
260
100
AcDbEntity
  8
ALPHA
100
AcDbCircle
 10
96.301325
 20
130.404057
 30
0.0
 40
2.0
100
AcDbArc
 50
234.518642
 51
270.0
  0
ARC
  5
261
100
AcDbEntity
  8
ALPHA
100
AcDbCircle
 10
87.274144
 20
130.404057
 30
0.0
 40
2.0
100
AcDbArc
 50
270.0
 51
305.481358
  0
ARC
  5
262
100
AcDbEntity
  8
ALPHA
100
AcDbCircle
 10
91.787734
 20
124.104057
 30
0.0
 40
5.75
100
AcDbArc
 50
54.332551
 51
125.667449
  0
ARC
  5
263
100
AcDbEntity
  8
ALPHA
100
AcDbCircle
 10
91.787734
 20
107.104057
 30
0.0
 40
8.25
100
AcDbArc
 50
119.002546
 51
128.231827
  0
ARC
  5
264
100
AcDbEntity
  8
ALPHA
100
AcDbCircle
 10
91.787734
 20
107.104057
 30
0.0
 40
8.25
100
AcDbArc
 50
49.785829
 51
60.997454
  0
LINE
  5
265
100
AcDbEntity
  8
ALPHA
100
AcDbLine
 10
106.687734
 20
90.765609
 30
0.0
 11
106.687734
 21
89.604057
 31
0.0
  0
LINE
  5
266
100
AcDbEntity
  8
ALPHA
100
AcDbLine
 10
76.887734
 20
89.604057
 30
0.0
 11
76.887734
 21
90.765609
 31
0.0
  0
LINE
  5
267
100
AcDbEntity
  8
ALPHA
100
AcDbLine
 10
101.315195
 20
110.604057
 30
0.0
 11
105.887734
 21
110.604057
 31
0.0
  0
ARC
  5
268
100
AcDbEntity
  8
ALPHA
100
AcDbCircle
 10
77.887734
 20
89.604057
 30
0.0
 40
1.0
100
AcDbArc
 50
180.0
 51
270.0
  0
LINE
  5
269
100
AcDbEntity
  8
ALPHA
100
AcDbLine
 10
103.787734
 20
104.604057
 30
0.0
 11
103.787734
 21
110.604057
 31
0.0
  0
LINE
  5
26A
100
AcDbEntity
  8
ALPHA
100
AcDbLine
 10
90.137734
 20
98.454057
 30
0.0
 11
90.137734
 21
97.837774
 31
0.0
  0
LINE
  5
26B
100
AcDbEntity
  8
ALPHA
100
AcDbLine
 10
105.887734
 20
104.604057
 30
0.0
 11
99.649827
 21
104.604057
 31
0.0
  0
LINE
  5
26C
100
AcDbEntity
  8
ALPHA
100
AcDbLine
 10
90.137734
 20
98.754057
 30
0.0
 11
90.137734
 21
98.454057
 31
0.0
  0
ARC
  5
26D
100
AcDbEntity
  8
ALPHA
100
AcDbCircle
 10
91.787734
 20
107.104057
 30
0.0
 40
10.15
100
AcDbArc
 50
74.329891
 51
105.670109
  0
LINE
  5
26E
100
AcDbEntity
  8
ALPHA
100
AcDbLine
 10
93.437734
 20
98.754057
 30
0.0
 11
93.437734
 21
98.454057
 31
0.0
  0
LINE
  5
26F
100
AcDbEntity
  8
ALPHA
100
AcDbLine
 10
93.437734
 20
98.454057
 30
0.0
 11
93.437734
 21
97.837774
 31
0.0
  0
LINE
  5
270
100
AcDbEntity
  8
ALPHA
100
AcDbLine
 10
88.887734
 20
98.454057
 30
0.0
 11
90.137734
 21
98.454057
 31
0.0
  0
LINE
  5
271
100
AcDbEntity
  8
ALPHA
100
AcDbLine
 10
93.437734
 20
98.454057
 30
0.0
 11
94.687734
 21
98.454057
 31
0.0
  0
LINE
  5
272
100
AcDbEntity
  8
ALPHA
100
AcDbLine
 10
106.687734
 20
99.748611
 30
0.0
 11
106.687734
 21
102.204057
 31
0.0
  0
LINE
  5
273
100
AcDbEntity
  8
ALPHA
100
AcDbLine
 10
106.687734
 20
90.765609
 30
0.0
 11
106.687734
 21
99.748611
 31
0.0
  0
LINE
  5
274
100
AcDbEntity
  8
ALPHA
100
AcDbLine
 10
81.373375
 20
128.404057
 30
0.0
 11
87.274144
 21
128.404057
 31
0.0
  0
LINE
  5
275
100
AcDbEntity
  8
ALPHA
100
AcDbLine
 10
96.301325
 20
128.404057
 30
0.0
 11
102.202094
 21
128.404057
 31
0.0
  0
LINE
  5
276
100
AcDbEntity
  8
ALPHA
100
AcDbLine
 10
76.887734
 20
90.765609
 30
0.0
 11
76.887734
 21
91.104057
 31
0.0
  0
LINE
  5
277
100
AcDbEntity
  8
ALPHA
100
AcDbLine
 10
88.887734
 20
95.004057
 30
0.0
 11
88.887734
 21
98.754057
 31
0.0
  0
LINE
  5
278
100
AcDbEntity
  8
ALPHA
100
AcDbLine
 10
94.687734
 20
98.754057
 30
0.0
 11
94.687734
 21
95.004057
 31
0.0
  0
LINE
  5
279
100
AcDbEntity
  8
ALPHA
100
AcDbLine
 10
86.80376
 20
88.604057
 30
0.0
 11
86.787734
 21
88.604057
 31
0.0
  0
LINE
  5
27A
100
AcDbEntity
  8
ALPHA
100
AcDbLine
 10
86.787734
 20
88.604057
 30
0.0
 11
85.287734
 21
88.604057
 31
0.0
  0
LINE
  5
27B
100
AcDbEntity
  8
ALPHA
100
AcDbLine
 10
78.387734
 20
88.604057
 30
0.0
 11
77.887734
 21
88.604057
 31
0.0
  0
LINE
  5
27C
100
AcDbEntity
  8
ALPHA
100
AcDbLine
 10
105.687734
 20
88.604057
 30
0.0
 11
105.187734
 21
88.604057
 31
0.0
  0
LINE
  5
27D
100
AcDbEntity
  8
ALPHA
100
AcDbLine
 10
98.287734
 20
88.604057
 30
0.0
 11
96.787734
 21
88.604057
 31
0.0
  0
LINE
  5
27E
100
AcDbEntity
  8
ALPHA
100
AcDbLine
 10
96.787734
 20
88.604057
 30
0.0
 11
96.771709
 21
88.604057
 31
0.0
  0
ARC
  5
27F
100
AcDbEntity
  8
ALPHA
100
AcDbCircle
 10
78.987734
 20
126.026707
 30
0.0
 40
1.0
100
AcDbArc
 50
120.0
 51
146.594879
  0
ARC
  5
280
100
AcDbEntity
  8
ALPHA
100
AcDbCircle
 10
78.987734
 20
126.026707
 30
0.0
 40
1.0
100
AcDbArc
 50
146.594879
 51
163.097273
  0
ARC
  5
281
100
AcDbEntity
  8
ALPHA
100
AcDbCircle
 10
78.987734
 20
126.026707
 30
0.0
 40
1.0
100
AcDbArc
 50
163.097273
 51
180.0
  0
ARC
  5
282
100
AcDbEntity
  8
ALPHA
100
AcDbCircle
 10
104.587734
 20
126.026707
 30
0.0
 40
1.0
100
AcDbArc
 50
0.0
 51
16.902727
  0
ARC
  5
283
100
AcDbEntity
  8
ALPHA
100
AcDbCircle
 10
104.587734
 20
126.026707
 30
0.0
 40
1.0
100
AcDbArc
 50
16.902727
 51
33.405121
  0
ARC
  5
284
100
AcDbEntity
  8
ALPHA
100
AcDbCircle
 10
104.587734
 20
126.026707
 30
0.0
 40
1.0
100
AcDbArc
 50
33.405121
 51
60.0
  0
ARC
  5
285
100
AcDbEntity
  8
ALPHA
100
AcDbCircle
 10
102.202094
 20
127.404057
 30
0.0
 40
1.0
100
AcDbArc
 50
60.0
 51
90.0
  0
ARC
  5
286
100
AcDbEntity
  8
ALPHA
100
AcDbCircle
 10
81.373375
 20
127.404057
 30
0.0
 40
1.0
100
AcDbArc
 50
90.0
 51
120.0
  0
LINE
  5
287
100
AcDbEntity
  8
ALPHA
100
AcDbLine
 10
100.787734
 20
118.498451
 30
0.0
 11
100.787734
 21
118.776665
 31
0.0
  0
LINE
  5
288
100
AcDbEntity
  8
ALPHA
100
AcDbLine
 10
106.687734
 20
90.765609
 30
0.0
 11
106.687734
 21
89.604057
 31
0.0
  0
ARC
  5
289
100
AcDbEntity
  8
ALPHA
100
AcDbCircle
 10
105.687734
 20
89.604057
 30
0.0
 40
1.0
100
AcDbArc
 50
270.0
 51
0.0
  0
LINE
  5
28A
100
AcDbEntity
  8
ALPHA
100
AcDbLine
 10
105.887734
 20
105.304057
 30
0.0
 11
103.787734
 21
105.304057
 31
0.0
  0
LINE
  5
28B
100
AcDbEntity
  8
ALPHA
100
AcDbLine
 10
98.887734
 20
98.704057
 30
0.0
 11
98.887734
 21
95.004057
 31
0.0
  0
LINE
  5
28C
100
AcDbEntity
  8
ALPHA
100
AcDbLine
 10
98.887734
 20
98.704057
 30
0.0
 11
104.687734
 21
98.704057
 31
0.0
  0
LINE
  5
28D
100
AcDbEntity
  8
ALPHA
100
AcDbLine
 10
104.687734
 20
98.704057
 30
0.0
 11
104.687734
 21
95.004057
 31
0.0
  0
LINE
  5
28E
100
AcDbEntity
  8
ALPHA
100
AcDbLine
 10
106.687734
 20
119.204057
 30
0.0
 11
106.687734
 21
102.204057
 31
0.0
  0
LINE
  5
28F
100
AcDbEntity
  8
ALPHA
100
AcDbLine
 10
90.137734
 20
98.767397
 30
0.0
 11
90.137734
 21
98.754057
 31
0.0
  0
ARC
  5
290
100
AcDbEntity
  8
ALPHA
100
AcDbCircle
 10
91.787734
 20
99.604057
 30
0.0
 40
1.85
100
AcDbArc
 50
197.599433
 51
206.888048
  0
ARC
  5
291
100
AcDbEntity
  8
ALPHA
100
AcDbCircle
 10
91.787734
 20
107.104057
 30
0.0
 40
8.25
100
AcDbArc
 50
231.942377
 51
257.658057
  0
ARC
  5
292
100
AcDbEntity
  8
ALPHA
100
AcDbCircle
 10
91.787734
 20
107.104057
 30
0.0
 40
8.25
100
AcDbArc
 50
231.808761
 51
231.942377
  0
LINE
  5
293
100
AcDbEntity
  8
ALPHA
100
AcDbLine
 10
99.745906
 20
113.404057
 30
0.0
 11
97.114319
 21
113.404057
 31
0.0
  0
ARC
  5
294
100
AcDbEntity
  8
ALPHA
100
AcDbCircle
 10
91.787734
 20
107.104057
 30
0.0
 40
10.15
100
AcDbArc
 50
20.171271
 51
38.366514
  0
LINE
  5
295
100
AcDbEntity
  8
ALPHA
100
AcDbLine
 10
105.887734
 20
110.604057
 30
0.0
 11
105.887734
 21
104.604057
 31
0.0
  0
ARC
  5
296
100
AcDbEntity
  8
ALPHA
100
AcDbCircle
 10
91.787734
 20
107.104057
 30
0.0
 40
8.25
100
AcDbArc
 50
282.341943
 51
342.360299
  0
ARC
  5
297
100
AcDbEntity
  8
ALPHA
100
AcDbCircle
 10
91.787734
 20
99.604057
 30
0.0
 40
1.85
100
AcDbArc
 50
333.111952
 51
342.400567
  0
LINE
  5
298
100
AcDbEntity
  8
ALPHA
100
AcDbLine
 10
93.437734
 20
98.754057
 30
0.0
 11
93.437734
 21
98.767397
 31
0.0
  0
LINE
  5
299
100
AcDbEntity
  8
ALPHA
100
AcDbLine
 10
99.587734
 20
123.607372
 30
0.0
 11
99.587734
 21
119.100743
 31
0.0
  0
LINE
  5
29A
100
AcDbEntity
  8
ALPHA
100
AcDbLine
 10
104.087734
 20
123.607372
 30
0.0
 11
104.087734
 21
119.100743
 31
0.0
  0
LINE
  5
29B
100
AcDbEntity
  8
ALPHA
100
AcDbLine
 10
102.787734
 20
118.498451
 30
0.0
 11
102.787734
 21
115.641289
 31
0.0
  0
LINE
  5
29C
100
AcDbEntity
  8
ALPHA
100
AcDbLine
 10
100.787734
 20
118.498451
 30
0.0
 11
100.787734
 21
115.641289
 31
0.0
  0
LINE
  5
29D
100
AcDbEntity
  8
ALPHA
100
AcDbLine
 10
79.487734
 20
123.607372
 30
0.0
 11
79.487734
 21
123.104057
 31
0.0
  0
LINE
  5
29E
100
AcDbEntity
  8
ALPHA
100
AcDbLine
 10
83.987734
 20
123.607372
 30
0.0
 11
83.987734
 21
123.104057
 31
0.0
  0
LINE
  5
29F
100
AcDbEntity
  8
ALPHA
100
AcDbLine
 10
106.037734
 20
117.604057
 30
0.0
 11
106.037734
 21
115.03758
 31
0.0
  0
LINE
  5
2A0
100
AcDbEntity
  8
ALPHA
100
AcDbLine
 10
103.837734
 20
117.604057
 30
0.0
 11
103.837734
 21
115.03758
 31
0.0
  0
LINE
  5
2A1
100
AcDbEntity
  8
ALPHA
100
AcDbLine
 10
97.587734
 20
117.604057
 30
0.0
 11
97.587734
 21
115.03758
 31
0.0
  0
LINE
  5
2A2
100
AcDbEntity
  8
ALPHA
100
AcDbLine
 10
99.787734
 20
117.604057
 30
0.0
 11
99.787734
 21
115.03758
 31
0.0
  0
LINE
  5
2A3
100
AcDbEntity
  8
ALPHA
100
AcDbLine
 10
86.687734
 20
93.804057
 30
0.0
 11
84.087734
 21
93.804057
 31
0.0
  0
ARC
  5
2A4
100
AcDbEntity
  8
ALPHA
100
AcDbCircle
 10
84.087734
 20
97.304057
 30
0.0
 40
3.5
100
AcDbArc
 50
228.918916
 51
270.0
  0
LINE
  5
2A5
100
AcDbEntity
  8
ALPHA
100
AcDbLine
 10
84.087734
 20
93.804057
 30
0.0
 11
84.087734
 21
94.304057
 31
0.0
  0
ARC
  5
2A6
100
AcDbEntity
  8
ALPHA
100
AcDbCircle
 10
79.487734
 20
97.304057
 30
0.0
 40
3.5
100
AcDbArc
 50
270.0
 51
311.091503
  0
LINE
  5
2A7
100
AcDbEntity
  8
ALPHA
100
AcDbLine
 10
77.887734
 20
104.304057
 30
0.0
 11
82.187734
 21
104.304057
 31
0.0
  0
LWPOLYLINE
  5
2A8
100
AcDbEntity
  8
ALPHA
100
AcDbPolyline
 90
        4
 70
     0
 43
0.0
 10
81.788157
 20
94.666244
 10
81.787734
 20
94.802385
 10
81.787734
 20
94.947925
 10
81.787734
 20
95.104057
  0
LINE
  5
2AE
100
AcDbEntity
  8
ALPHA
100
AcDbLine
 10
79.487734
 20
93.804057
 30
0.0
 11
76.887734
 21
93.804057
 31
0.0
  0
LINE
  5
2AF
100
AcDbEntity
  8
ALPHA
100
AcDbLine
 10
86.687734
 20
100.704057
 30
0.0
 11
77.887734
 21
100.704057
 31
0.0
  0
LINE
  5
2B0
100
AcDbEntity
  8
ALPHA
100
AcDbLine
 10
79.487734
 20
93.804057
 30
0.0
 11
79.487734
 21
94.304057
 31
0.0
  0
LINE
  5
2B1
100
AcDbEntity
  8
ALPHA
100
AcDbLine
 10
86.687734
 20
121.604057
 30
0.0
 11
77.887734
 21
121.604057
 31
0.0
  0
LINE
  5
2B2
100
AcDbEntity
  8
ALPHA
100
AcDbLine
 10
86.687734
 20
92.604057
 30
0.0
 11
76.887734
 21
92.604057
 31
0.0
  0
LINE
  5
2B3
100
AcDbEntity
  8
ALPHA
100
AcDbLine
 10
77.887734
 20
100.954057
 30
0.0
 11
82.187734
 21
100.954057
 31
0.0
  0
LINE
  5
2B4
100
AcDbEntity
  8
ALPHA
100
AcDbLine
 10
85.687734
 20
96.654057
 30
0.0
 11
78.287734
 21
96.654057
 31
0.0
  0
LINE
  5
2B5
100
AcDbEntity
  8
ALPHA
100
AcDbLine
 10
78.687734
 20
97.804057
 30
0.0
 11
78.287734
 21
97.804057
 31
0.0
  0
LINE
  5
2B6
100
AcDbEntity
  8
ALPHA
100
AcDbLine
 10
83.717734
 20
97.804057
 30
0.0
 11
79.827734
 21
97.804057
 31
0.0
  0
LINE
  5
2B7
100
AcDbEntity
  8
ALPHA
100
AcDbLine
 10
85.687734
 20
97.804057
 30
0.0
 11
84.857734
 21
97.804057
 31
0.0
  0
LINE
  5
2B8
100
AcDbEntity
  8
ALPHA
100
AcDbLine
 10
79.487734
 20
94.304057
 30
0.0
 11
76.887734
 21
94.304057
 31
0.0
  0
LINE
  5
2B9
100
AcDbEntity
  8
ALPHA
100
AcDbLine
 10
77.887734
 20
101.954057
 30
0.0
 11
82.187734
 21
101.954057
 31
0.0
  0
LINE
  5
2BA
100
AcDbEntity
  8
ALPHA
100
AcDbLine
 10
77.887734
 20
103.904057
 30
0.0
 11
82.187734
 21
103.904057
 31
0.0
  0
LINE
  5
2BB
100
AcDbEntity
  8
ALPHA
100
AcDbLine
 10
86.687734
 20
100.704057
 30
0.0
 11
86.687734
 21
100.304057
 31
0.0
  0
LINE
  5
2BC
100
AcDbEntity
  8
ALPHA
100
AcDbLine
 10
86.687734
 20
100.304057
 30
0.0
 11
77.887734
 21
100.304057
 31
0.0
  0
LINE
  5
2BD
100
AcDbEntity
  8
ALPHA
100
AcDbLine
 10
77.887734
 20
100.704057
 30
0.0
 11
77.887734
 21
100.304057
 31
0.0
  0
LINE
  5
2BE
100
AcDbEntity
  8
ALPHA
100
AcDbLine
 10
86.687734
 20
94.304057
 30
0.0
 11
84.087734
 21
94.304057
 31
0.0
  0
LINE
  5
2BF
100
AcDbEntity
  8
ALPHA
100
AcDbLine
 10
86.687734
 20
93.804057
 30
0.0
 11
86.687734
 21
94.304057
 31
0.0
  0
LINE
  5
2C0
100
AcDbEntity
  8
ALPHA
100
AcDbLine
 10
81.787734
 20
95.104057
 30
0.0
 11
82.048127
 21
95.104057
 31
0.0
  0
ARC
  5
2C1
100
AcDbEntity
  8
ALPHA
100
AcDbCircle
 10
84.087734
 20
97.304057
 30
0.0
 40
3.0
100
AcDbArc
 50
227.166572
 51
270.0
  0
ARC
  5
2C2
100
AcDbEntity
  8
ALPHA
100
AcDbCircle
 10
79.487734
 20
97.304057
 30
0.0
 40
3.0
100
AcDbArc
 50
270.0
 51
312.833428
  0
LINE
  5
2C3
100
AcDbEntity
  8
ALPHA
100
AcDbLine
 10
81.787734
 20
95.104057
 30
0.0
 11
81.527342
 21
95.104057
 31
0.0
  0
LINE
  5
2C4
100
AcDbEntity
  8
ALPHA
100
AcDbLine
 10
85.687734
 20
96.654057
 30
0.0
 11
85.687734
 21
97.804057
 31
0.0
  0
LINE
  5
2C5
100
AcDbEntity
  8
ALPHA
100
AcDbLine
 10
77.887734
 20
104.304057
 30
0.0
 11
77.887734
 21
104.604057
 31
0.0
  0
LINE
  5
2C6
100
AcDbEntity
  8
ALPHA
100
AcDbLine
 10
77.887734
 20
100.704057
 30
0.0
 11
77.887734
 21
100.954057
 31
0.0
  0
LINE
  5
2C7
100
AcDbEntity
  8
ALPHA
100
AcDbLine
 10
77.887734
 20
98.204057
 30
0.0
 11
77.887734
 21
100.304057
 31
0.0
  0
LINE
  5
2C8
100
AcDbEntity
  8
ALPHA
100
AcDbLine
 10
77.887734
 20
94.304057
 30
0.0
 11
77.887734
 21
96.254057
 31
0.0
  0
LINE
  5
2C9
100
AcDbEntity
  8
ALPHA
100
AcDbLine
 10
77.887734
 20
121.604057
 30
0.0
 11
77.887734
 21
123.104057
 31
0.0
  0
LINE
  5
2CA
100
AcDbEntity
  8
ALPHA
100
AcDbLine
 10
77.887734
 20
109.604057
 30
0.0
 11
77.887734
 21
121.604057
 31
0.0
  0
LINE
  5
2CB
100
AcDbEntity
  8
ALPHA
100
AcDbLine
 10
80.187734
 20
97.804057
 30
0.0
 11
80.187734
 21
96.654057
 31
0.0
  0
LINE
  5
2CC
100
AcDbEntity
  8
ALPHA
100
AcDbLine
 10
76.887734
 20
93.804057
 30
0.0
 11
76.887734
 21
94.304057
 31
0.0
  0
LINE
  5
2CD
100
AcDbEntity
  8
ALPHA
100
AcDbLine
 10
76.887734
 20
92.604057
 30
0.0
 11
76.887734
 21
93.804057
 31
0.0
  0
LINE
  5
2CE
100
AcDbEntity
  8
ALPHA
100
AcDbLine
 10
76.887734
 20
91.104057
 30
0.0
 11
76.887734
 21
92.604057
 31
0.0
  0
LINE
  5
2CF
100
AcDbEntity
  8
ALPHA
100
AcDbLine
 10
77.887734
 20
96.254057
 30
0.0
 11
78.287734
 21
96.654057
 31
0.0
  0
LINE
  5
2D0
100
AcDbEntity
  8
ALPHA
100
AcDbLine
 10
86.687734
 20
123.104057
 30
0.0
 11
77.887734
 21
123.104057
 31
0.0
  0
LINE
  5
2D1
100
AcDbEntity
  8
ALPHA
100
AcDbLine
 10
82.187734
 20
100.954057
 30
0.0
 11
82.187734
 21
104.304057
 31
0.0
  0
LINE
  5
2D2
100
AcDbEntity
  8
ALPHA
100
AcDbLine
 10
77.931036
 20
109.579057
 30
0.0
 11
77.887734
 21
109.604057
 31
0.0
  0
LINE
  5
2D3
100
AcDbEntity
  8
ALPHA
100
AcDbLine
 10
79.431036
 20
108.713032
 30
0.0
 11
77.931036
 21
109.579057
 31
0.0
  0
LINE
  5
2D4
100
AcDbEntity
  8
ALPHA
100
AcDbLine
 10
79.587734
 20
108.622562
 30
0.0
 11
79.431036
 21
108.713032
 31
0.0
  0
LINE
  5
2D5
100
AcDbEntity
  8
ALPHA
100
AcDbLine
 10
79.587734
 20
105.585553
 30
0.0
 11
79.587734
 21
108.622562
 31
0.0
  0
LINE
  5
2D6
100
AcDbEntity
  8
ALPHA
100
AcDbLine
 10
79.431036
 20
105.495083
 30
0.0
 11
79.587734
 21
105.585553
 31
0.0
  0
LINE
  5
2D7
100
AcDbEntity
  8
ALPHA
100
AcDbLine
 10
77.931036
 20
104.629057
 30
0.0
 11
79.431036
 21
105.495083
 31
0.0
  0
LINE
  5
2D8
100
AcDbEntity
  8
ALPHA
100
AcDbLine
 10
77.887734
 20
104.604057
 30
0.0
 11
77.931036
 21
104.629057
 31
0.0
  0
LINE
  5
2D9
100
AcDbEntity
  8
ALPHA
100
AcDbLine
 10
86.687734
 20
91.104057
 30
0.0
 11
76.887734
 21
91.104057
 31
0.0
  0
LINE
  5
2DA
100
AcDbEntity
  8
ALPHA
100
AcDbLine
 10
77.887734
 20
98.204057
 30
0.0
 11
78.287734
 21
97.804057
 31
0.0
  0
LINE
  5
2DB
100
AcDbEntity
  8
ALPHA
100
AcDbLine
 10
86.687734
 20
92.604057
 30
0.0
 11
86.687734
 21
93.804057
 31
0.0
  0
LINE
  5
2DC
100
AcDbEntity
  8
ALPHA
100
AcDbLine
 10
86.687734
 20
91.104057
 30
0.0
 11
86.687734
 21
92.604057
 31
0.0
  0
LINE
  5
2DD
100
AcDbEntity
  8
ALPHA
100
AcDbLine
 10
86.687734
 20
121.604057
 30
0.0
 11
86.687734
 21
123.104057
 31
0.0
  0
LINE
  5
2DE
100
AcDbEntity
  8
ALPHA
100
AcDbLine
 10
86.687734
 20
100.704057
 30
0.0
 11
86.687734
 21
121.604057
 31
0.0
  0
LINE
  5
2DF
100
AcDbEntity
  8
ALPHA
100
AcDbLine
 10
86.687734
 20
94.304057
 30
0.0
 11
86.687734
 21
100.304057
 31
0.0
  0
LWPOLYLINE
  5
2E0
100
AcDbEntity
  8
ALPHA
100
AcDbPolyline
 90
       11
 70
     0
 43
0.0
 10
91.316294
 20
126.487087
 10
91.323985
 20
126.451194
 10
91.346306
 20
126.347029
 10
91.381072
 20
126.184788
 10
91.42488
 20
125.980353
 10
91.473441
 20
125.753735
 10
91.522002
 20
125.527117
 10
91.565809
 20
125.322681
 10
91.600575
 20
125.160441
 10
91.622896
 20
125.056276
 10
91.630588
 20
125.020383
  0
LWPOLYLINE
  5
2ED
100
AcDbEntity
  8
ALPHA
100
AcDbPolyline
 90
       11
 70
     0
 43
0.0
 10
92.259175
 20
126.487087
 10
92.251483
 20
126.451194
 10
92.229162
 20
126.347029
 10
92.194397
 20
126.184788
 10
92.150589
 20
125.980353
 10
92.102028
 20
125.753735
 10
92.053467
 20
125.527117
 10
92.009659
 20
125.322681
 10
91.974894
 20
125.160441
 10
91.952572
 20
125.056276
 10
91.944881
 20
125.020383
  0
LINE
  5
2FA
100
AcDbEntity
  8
ALPHA
100
AcDbLine
 10
88.722304
 20
89.765353
 30
0.0
 11
88.727079
 21
89.773624
 31
0.0
  0
LINE
  5
2FB
100
AcDbEntity
  8
ALPHA
100
AcDbLine
 10
88.700554
 20
89.727678
 30
0.0
 11
88.722304
 21
89.765353
 31
0.0
  0
LINE
  5
2FC
100
AcDbEntity
  8
ALPHA
100
AcDbLine
 10
88.686879
 20
89.70399
 30
0.0
 11
88.700554
 21
89.727678
 31
0.0
  0
LINE
  5
2FD
100
AcDbEntity
  8
ALPHA
100
AcDbLine
 10
88.427774
 20
89.255176
 30
0.0
 11
88.686879
 21
89.70399
 31
0.0
  0
LINE
  5
2FE
100
AcDbEntity
  8
ALPHA
100
AcDbLine
 10
88.427774
 20
89.255176
 30
0.0
 11
88.093972
 21
89.447883
 31
0.0
  0
LINE
  5
2FF
100
AcDbEntity
  8
ALPHA
100
AcDbLine
 10
88.887734
 20
125.966681
 30
0.0
 11
91.316294
 21
126.487087
 31
0.0
  0
LINE
  5
300
100
AcDbEntity
  8
ALPHA
100
AcDbLine
 10
88.427774
 20
89.255176
 30
0.0
 11
88.093972
 21
89.447883
 31
0.0
  0
LINE
  5
301
100
AcDbEntity
  8
ALPHA
100
AcDbLine
 10
91.223711
 20
124.933195
 30
0.0
 11
91.630588
 21
125.020383
 31
0.0
  0
LINE
  5
302
100
AcDbEntity
  8
ALPHA
100
AcDbLine
 10
88.887734
 20
125.966681
 30
0.0
 11
91.316294
 21
126.487087
 31
0.0
  0
LINE
  5
303
100
AcDbEntity
  8
ALPHA
100
AcDbLine
 10
91.223711
 20
124.933195
 30
0.0
 11
91.630588
 21
125.020383
 31
0.0
  0
ARC
  5
304
100
AcDbEntity
  8
ALPHA
100
AcDbCircle
 10
91.787734
 20
124.287031
 30
0.0
 40
2.25
100
AcDbArc
 50
77.905243
 51
102.094757
  0
ARC
  5
305
100
AcDbEntity
  8
ALPHA
100
AcDbCircle
 10
91.787734
 20
124.287031
 30
0.0
 40
0.75
100
AcDbArc
 50
77.905243
 51
102.094757
  0
ARC
  5
306
100
AcDbEntity
  8
ALPHA
100
AcDbCircle
 10
91.787734
 20
124.287031
 30
0.0
 40
2.25
100
AcDbArc
 50
77.905243
 51
102.094757
  0
ARC
  5
307
100
AcDbEntity
  8
ALPHA
100
AcDbCircle
 10
91.787734
 20
124.287031
 30
0.0
 40
0.75
100
AcDbArc
 50
77.905243
 51
102.094757
  0
LINE
  5
308
100
AcDbEntity
  8
ALPHA
100
AcDbLine
 10
92.259175
 20
126.487087
 30
0.0
 11
94.687734
 21
125.966681
 31
0.0
  0
LINE
  5
309
100
AcDbEntity
  8
ALPHA
100
AcDbLine
 10
91.944881
 20
125.020383
 30
0.0
 11
92.351758
 21
124.933195
 31
0.0
  0
LINE
  5
30A
100
AcDbEntity
  8
ALPHA
100
AcDbLine
 10
92.259175
 20
126.487087
 30
0.0
 11
94.687734
 21
125.966681
 31
0.0
  0
LINE
  5
30B
100
AcDbEntity
  8
ALPHA
100
AcDbLine
 10
91.944881
 20
125.020383
 30
0.0
 11
92.351758
 21
124.933195
 31
0.0
  0
LINE
  5
30C
100
AcDbEntity
  8
ALPHA
100
AcDbLine
 10
101.787261
 20
108.738057
 30
0.0
 11
101.787161
 21
105.452274
 31
0.0
  0
LINE
  5
30D
100
AcDbEntity
  8
ALPHA
100
AcDbLine
 10
100.287379
 20
112.640197
 30
0.0
 11
100.287135
 21
104.604057
 31
0.0
  0
LINE
  5
30E
100
AcDbEntity
  8
ALPHA
100
AcDbLine
 10
101.787261
 20
108.738057
 30
0.0
 11
101.787161
 21
105.452274
 31
0.0
  0
LINE
  5
30F
100
AcDbEntity
  8
ALPHA
100
AcDbLine
 10
100.287379
 20
112.640197
 30
0.0
 11
100.287135
 21
104.604057
 31
0.0
  0
LINE
  5
310
100
AcDbEntity
  8
ALPHA
100
AcDbLine
 10
95.481496
 20
89.447883
 30
0.0
 11
95.147695
 21
89.255176
 31
0.0
  0
LINE
  5
311
100
AcDbEntity
  8
ALPHA
100
AcDbLine
 10
95.481496
 20
89.447883
 30
0.0
 11
95.147695
 21
89.255176
 31
0.0
  0
LINE
  5
312
100
AcDbEntity
  8
ALPHA
100
AcDbLine
 10
94.853094
 20
89.765475
 30
0.0
 11
94.84839
 21
89.773624
 31
0.0
  0
LINE
  5
313
100
AcDbEntity
  8
ALPHA
100
AcDbLine
 10
94.874915
 20
89.727678
 30
0.0
 11
94.853094
 21
89.765475
 31
0.0
  0
LINE
  5
314
100
AcDbEntity
  8
ALPHA
100
AcDbLine
 10
94.88859
 20
89.70399
 30
0.0
 11
94.874915
 21
89.727678
 31
0.0
  0
LINE
  5
315
100
AcDbEntity
  8
ALPHA
100
AcDbLine
 10
95.147695
 20
89.255176
 30
0.0
 11
94.88859
 21
89.70399
 31
0.0
  0
LINE
  5
316
100
AcDbEntity
  8
ALPHA
100
AcDbLine
 10
77.887734
 20
100.704057
 30
0.0
 11
76.887734
 21
100.704057
 31
0.0
  0
LINE
  5
317
100
AcDbEntity
  8
ALPHA
100
AcDbLine
 10
77.887734
 20
121.600897
 30
0.0
 11
76.887734
 21
121.600897
 31
0.0
  0
LINE
  5
318
100
AcDbEntity
  8
ALPHA
100
AcDbLine
 10
77.887734
 20
100.704057
 30
0.0
 11
77.887734
 21
100.304057
 31
0.0
  0
LINE
  5
319
100
AcDbEntity
  8
ALPHA
100
AcDbLine
 10
77.887734
 20
100.304057
 30
0.0
 11
76.887734
 21
100.304057
 31
0.0
  0
LINE
  5
31A
100
AcDbEntity
  8
ALPHA
100
AcDbLine
 10
76.887734
 20
100.704057
 30
0.0
 11
76.887734
 21
100.304057
 31
0.0
  0
LINE
  5
31B
100
AcDbEntity
  8
ALPHA
100
AcDbLine
 10
77.887734
 20
123.100897
 30
0.0
 11
76.887734
 21
123.100897
 31
0.0
  0
LINE
  5
31C
100
AcDbEntity
  8
ALPHA
100
AcDbLine
 10
79.387734
 20
105.570083
 30
0.0
 11
77.887734
 21
104.704057
 31
0.0
  0
LINE
  5
31D
100
AcDbEntity
  8
ALPHA
100
AcDbLine
 10
79.387734
 20
108.638032
 30
0.0
 11
79.387734
 21
105.570083
 31
0.0
  0
LINE
  5
31E
100
AcDbEntity
  8
ALPHA
100
AcDbLine
 10
77.887734
 20
109.504057
 30
0.0
 11
79.387734
 21
108.638032
 31
0.0
  0
LINE
  5
31F
100
AcDbEntity
  8
ALPHA
100
AcDbLine
 10
77.887734
 20
91.100897
 30
0.0
 11
76.887734
 21
91.100897
 31
0.0
  0
LINE
  5
320
100
AcDbEntity
  8
ALPHA
100
AcDbLine
 10
76.887734
 20
100.704057
 30
0.0
 11
76.887734
 21
121.600897
 31
0.0
  0
LINE
  5
321
100
AcDbEntity
  8
ALPHA
100
AcDbLine
 10
76.887734
 20
123.100897
 30
0.0
 11
76.887734
 21
121.600897
 31
0.0
  0
LINE
  5
322
100
AcDbEntity
  8
ALPHA
100
AcDbLine
 10
76.887734
 20
100.304057
 30
0.0
 11
76.887734
 21
94.304057
 31
0.0
  0
LINE
  5
323
100
AcDbEntity
  8
ALPHA
100
AcDbLine
 10
77.887734
 20
123.100897
 30
0.0
 11
77.887734
 21
121.600897
 31
0.0
  0
LINE
  5
324
100
AcDbEntity
  8
ALPHA
100
AcDbLine
 10
77.887734
 20
109.604057
 30
0.0
 11
77.887734
 21
121.600897
 31
0.0
  0
LINE
  5
325
100
AcDbEntity
  8
ALPHA
100
AcDbLine
 10
77.887734
 20
109.504057
 30
0.0
 11
77.887734
 21
109.604057
 31
0.0
  0
LINE
  5
326
100
AcDbEntity
  8
ALPHA
100
AcDbLine
 10
77.887734
 20
104.604057
 30
0.0
 11
77.887734
 21
104.704057
 31
0.0
  0
LINE
  5
327
100
AcDbEntity
  8
ALPHA
100
AcDbLine
 10
77.887734
 20
104.304057
 30
0.0
 11
77.887734
 21
104.604057
 31
0.0
  0
LINE
  5
328
100
AcDbEntity
  8
ALPHA
100
AcDbLine
 10
77.887734
 20
103.904057
 30
0.0
 11
77.887734
 21
104.304057
 31
0.0
  0
LINE
  5
329
100
AcDbEntity
  8
ALPHA
100
AcDbLine
 10
77.887734
 20
101.954057
 30
0.0
 11
77.887734
 21
103.904057
 31
0.0
  0
LINE
  5
32A
100
AcDbEntity
  8
ALPHA
100
AcDbLine
 10
77.887734
 20
100.954057
 30
0.0
 11
77.887734
 21
101.954057
 31
0.0
  0
LINE
  5
32B
100
AcDbEntity
  8
ALPHA
100
AcDbLine
 10
77.887734
 20
100.704057
 30
0.0
 11
77.887734
 21
100.954057
 31
0.0
  0
LINE
  5
32C
100
AcDbEntity
  8
ALPHA
100
AcDbLine
 10
77.887734
 20
96.254057
 30
0.0
 11
77.887734
 21
94.304057
 31
0.0
  0
LINE
  5
32D
100
AcDbEntity
  8
ALPHA
100
AcDbLine
 10
77.887734
 20
98.204057
 30
0.0
 11
77.887734
 21
96.254057
 31
0.0
  0
LINE
  5
32E
100
AcDbEntity
  8
ALPHA
100
AcDbLine
 10
77.887734
 20
100.304057
 30
0.0
 11
77.887734
 21
98.204057
 31
0.0
  0
LINE
  5
32F
100
AcDbEntity
  8
ALPHA
100
AcDbLine
 10
79.527734
 20
97.104057
 30
0.0
 11
79.527734
 21
97.504057
 31
0.0
  0
LINE
  5
330
100
AcDbEntity
  8
ALPHA
100
AcDbLine
 10
79.527734
 20
97.104057
 30
0.0
 11
78.987734
 21
97.104057
 31
0.0
  0
LINE
  5
331
100
AcDbEntity
  8
ALPHA
100
AcDbLine
 10
79.527734
 20
97.104057
 30
0.0
 11
79.827734
 21
96.804057
 31
0.0
  0
LINE
  5
332
100
AcDbEntity
  8
ALPHA
100
AcDbLine
 10
78.987734
 20
97.104057
 30
0.0
 11
78.987734
 21
97.504057
 31
0.0
  0
LINE
  5
333
100
AcDbEntity
  8
ALPHA
100
AcDbLine
 10
78.687734
 20
96.804057
 30
0.0
 11
78.987734
 21
97.104057
 31
0.0
  0
LINE
  5
334
100
AcDbEntity
  8
ALPHA
100
AcDbLine
 10
79.827734
 20
97.804057
 30
0.0
 11
79.527734
 21
97.504057
 31
0.0
  0
LINE
  5
335
100
AcDbEntity
  8
ALPHA
100
AcDbLine
 10
79.527734
 20
97.504057
 30
0.0
 11
78.987734
 21
97.504057
 31
0.0
  0
LINE
  5
336
100
AcDbEntity
  8
ALPHA
100
AcDbLine
 10
78.687734
 20
97.804057
 30
0.0
 11
78.987734
 21
97.504057
 31
0.0
  0
LINE
  5
337
100
AcDbEntity
  8
ALPHA
100
AcDbLine
 10
79.827734
 20
96.804057
 30
0.0
 11
79.827734
 21
97.804057
 31
0.0
  0
LINE
  5
338
100
AcDbEntity
  8
ALPHA
100
AcDbLine
 10
79.827734
 20
96.804057
 30
0.0
 11
78.687734
 21
96.804057
 31
0.0
  0
LINE
  5
339
100
AcDbEntity
  8
ALPHA
100
AcDbLine
 10
78.687734
 20
96.804057
 30
0.0
 11
78.687734
 21
97.804057
 31
0.0
  0
LINE
  5
33A
100
AcDbEntity
  8
ALPHA
100
AcDbLine
 10
80.187734
 20
96.804057
 30
0.0
 11
79.827734
 21
96.804057
 31
0.0
  0
LINE
  5
33B
100
AcDbEntity
  8
ALPHA
100
AcDbLine
 10
79.827734
 20
97.804057
 30
0.0
 11
78.687734
 21
97.804057
 31
0.0
  0
LINE
  5
33C
100
AcDbEntity
  8
ALPHA
100
AcDbLine
 10
86.737734
 20
119.904057
 30
0.0
 11
86.737734
 21
119.604057
 31
0.0
  0
LINE
  5
33D
100
AcDbEntity
  8
ALPHA
100
AcDbLine
 10
86.737734
 20
119.904057
 30
0.0
 11
86.737734
 21
122.704057
 31
0.0
  0
LINE
  5
33E
100
AcDbEntity
  8
ALPHA
100
AcDbLine
 10
86.737734
 20
122.704057
 30
0.0
 11
86.737734
 21
119.904057
 31
0.0
  0
LINE
  5
33F
100
AcDbEntity
  8
ALPHA
100
AcDbLine
 10
86.737734
 20
122.704057
 30
0.0
 11
86.687734
 21
122.704057
 31
0.0
  0
LINE
  5
340
100
AcDbEntity
  8
ALPHA
100
AcDbLine
 10
86.737734
 20
119.904057
 30
0.0
 11
86.687734
 21
119.904057
 31
0.0
  0
LINE
  5
341
100
AcDbEntity
  8
ALPHA
100
AcDbLine
 10
84.017734
 20
97.104057
 30
0.0
 11
84.017734
 21
97.504057
 31
0.0
  0
LINE
  5
342
100
AcDbEntity
  8
ALPHA
100
AcDbLine
 10
84.557734
 20
97.104057
 30
0.0
 11
84.017734
 21
97.104057
 31
0.0
  0
LINE
  5
343
100
AcDbEntity
  8
ALPHA
100
AcDbLine
 10
84.557734
 20
97.104057
 30
0.0
 11
84.857734
 21
96.804057
 31
0.0
  0
LINE
  5
344
100
AcDbEntity
  8
ALPHA
100
AcDbLine
 10
84.557734
 20
97.504057
 30
0.0
 11
84.017734
 21
97.504057
 31
0.0
  0
LINE
  5
345
100
AcDbEntity
  8
ALPHA
100
AcDbLine
 10
83.717734
 20
97.804057
 30
0.0
 11
84.017734
 21
97.504057
 31
0.0
  0
LINE
  5
346
100
AcDbEntity
  8
ALPHA
100
AcDbLine
 10
84.017734
 20
97.104057
 30
0.0
 11
83.717734
 21
96.804057
 31
0.0
  0
LINE
  5
347
100
AcDbEntity
  8
ALPHA
100
AcDbLine
 10
84.557734
 20
97.104057
 30
0.0
 11
84.557734
 21
97.504057
 31
0.0
  0
LINE
  5
348
100
AcDbEntity
  8
ALPHA
100
AcDbLine
 10
84.557734
 20
97.504057
 30
0.0
 11
84.857734
 21
97.804057
 31
0.0
  0
LINE
  5
349
100
AcDbEntity
  8
ALPHA
100
AcDbLine
 10
83.717734
 20
96.804057
 30
0.0
 11
83.717734
 21
97.804057
 31
0.0
  0
LINE
  5
34A
100
AcDbEntity
  8
ALPHA
100
AcDbLine
 10
84.857734
 20
97.804057
 30
0.0
 11
83.717734
 21
97.804057
 31
0.0
  0
LINE
  5
34B
100
AcDbEntity
  8
ALPHA
100
AcDbLine
 10
84.857734
 20
96.804057
 30
0.0
 11
84.857734
 21
97.804057
 31
0.0
  0
LINE
  5
34C
100
AcDbEntity
  8
ALPHA
100
AcDbLine
 10
85.687734
 20
96.804057
 30
0.0
 11
84.857734
 21
96.804057
 31
0.0
  0
LINE
  5
34D
100
AcDbEntity
  8
ALPHA
100
AcDbLine
 10
84.857734
 20
96.804057
 30
0.0
 11
83.717734
 21
96.804057
 31
0.0
  0
LINE
  5
34E
100
AcDbEntity
  8
ALPHA
100
AcDbLine
 10
82.505859
 20
91.104057
 30
0.0
 11
82.412734
 21
90.945547
 31
0.0
  0
LINE
  5
34F
100
AcDbEntity
  8
ALPHA
100
AcDbLine
 10
82.412734
 20
90.945547
 30
0.0
 11
82.412734
 21
90.839164
 31
0.0
  0
LINE
  5
350
100
AcDbEntity
  8
ALPHA
100
AcDbLine
 10
82.412734
 20
90.839164
 30
0.0
 11
82.537734
 21
90.679589
 31
0.0
  0
LINE
  5
351
100
AcDbEntity
  8
ALPHA
100
AcDbLine
 10
82.537734
 20
90.679589
 30
0.0
 11
82.725234
 21
90.573206
 31
0.0
  0
LINE
  5
352
100
AcDbEntity
  8
ALPHA
100
AcDbLine
 10
82.725234
 20
90.573206
 30
0.0
 11
83.037734
 21
90.520015
 31
0.0
  0
LINE
  5
353
100
AcDbEntity
  8
ALPHA
100
AcDbLine
 10
83.037734
 20
90.520015
 30
0.0
 11
83.287734
 21
90.520015
 31
0.0
  0
LINE
  5
354
100
AcDbEntity
  8
ALPHA
100
AcDbLine
 10
83.287734
 20
90.520015
 30
0.0
 11
83.600234
 21
90.573206
 31
0.0
  0
LINE
  5
355
100
AcDbEntity
  8
ALPHA
100
AcDbLine
 10
83.600234
 20
90.573206
 30
0.0
 11
83.787734
 21
90.679589
 31
0.0
  0
LINE
  5
356
100
AcDbEntity
  8
ALPHA
100
AcDbLine
 10
83.787734
 20
90.679589
 30
0.0
 11
83.912734
 21
90.839164
 31
0.0
  0
LINE
  5
357
100
AcDbEntity
  8
ALPHA
100
AcDbLine
 10
83.912734
 20
90.839164
 30
0.0
 11
84.225234
 21
90.839164
 31
0.0
  0
LINE
  5
358
100
AcDbEntity
  8
ALPHA
100
AcDbLine
 10
84.225234
 20
90.839164
 30
0.0
 11
84.162734
 21
90.626398
 31
0.0
  0
LINE
  5
359
100
AcDbEntity
  8
ALPHA
100
AcDbLine
 10
84.162734
 20
90.626398
 30
0.0
 11
83.912734
 21
90.413632
 31
0.0
  0
LINE
  5
35A
100
AcDbEntity
  8
ALPHA
100
AcDbLine
 10
83.912734
 20
90.413632
 30
0.0
 11
83.662734
 21
90.307249
 31
0.0
  0
LINE
  5
35B
100
AcDbEntity
  8
ALPHA
100
AcDbLine
 10
83.662734
 20
90.307249
 30
0.0
 11
83.225234
 21
90.254057
 31
0.0
  0
LINE
  5
35C
100
AcDbEntity
  8
ALPHA
100
AcDbLine
 10
83.225234
 20
90.254057
 30
0.0
 11
82.975234
 21
90.254057
 31
0.0
  0
LINE
  5
35D
100
AcDbEntity
  8
ALPHA
100
AcDbLine
 10
82.975234
 20
90.254057
 30
0.0
 11
82.600234
 21
90.307249
 31
0.0
  0
LINE
  5
35E
100
AcDbEntity
  8
ALPHA
100
AcDbLine
 10
82.600234
 20
90.307249
 30
0.0
 11
82.350234
 21
90.413632
 31
0.0
  0
LINE
  5
35F
100
AcDbEntity
  8
ALPHA
100
AcDbLine
 10
82.350234
 20
90.413632
 30
0.0
 11
82.100234
 21
90.626398
 31
0.0
  0
LINE
  5
360
100
AcDbEntity
  8
ALPHA
100
AcDbLine
 10
82.100234
 20
90.626398
 30
0.0
 11
82.037734
 21
90.839164
 31
0.0
  0
LINE
  5
361
100
AcDbEntity
  8
ALPHA
100
AcDbLine
 10
82.037734
 20
90.839164
 30
0.0
 11
82.037734
 21
90.945547
 31
0.0
  0
LINE
  5
362
100
AcDbEntity
  8
ALPHA
100
AcDbLine
 10
82.037734
 20
90.945547
 30
0.0
 11
82.084297
 21
91.104057
 31
0.0
  0
LINE
  5
363
100
AcDbEntity
  8
ALPHA
100
AcDbLine
 10
87.887734
 20
92.2381
 30
0.0
 11
87.947735
 21
92.161504
 31
0.0
  0
LINE
  5
364
100
AcDbEntity
  8
ALPHA
100
AcDbLine
 10
87.947735
 20
92.161504
 30
0.0
 11
88.037734
 21
92.084908
 31
0.0
  0
LINE
  5
365
100
AcDbEntity
  8
ALPHA
100
AcDbLine
 10
88.037734
 20
92.084908
 30
0.0
 11
88.127734
 21
92.046611
 31
0.0
  0
LINE
  5
366
100
AcDbEntity
  8
ALPHA
100
AcDbLine
 10
88.127734
 20
92.046611
 30
0.0
 11
88.337734
 21
92.046611
 31
0.0
  0
LINE
  5
367
100
AcDbEntity
  8
ALPHA
100
AcDbLine
 10
88.337734
 20
92.046611
 30
0.0
 11
88.427734
 21
92.084908
 31
0.0
  0
LINE
  5
368
100
AcDbEntity
  8
ALPHA
100
AcDbLine
 10
88.427734
 20
92.084908
 30
0.0
 11
88.517734
 21
92.161504
 31
0.0
  0
LINE
  5
369
100
AcDbEntity
  8
ALPHA
100
AcDbLine
 10
88.517734
 20
92.161504
 30
0.0
 11
88.577734
 21
92.2381
 31
0.0
  0
LINE
  5
36A
100
AcDbEntity
  8
ALPHA
100
AcDbLine
 10
88.577734
 20
92.2381
 30
0.0
 11
88.607735
 21
92.352993
 31
0.0
  0
LINE
  5
36B
100
AcDbEntity
  8
ALPHA
100
AcDbLine
 10
88.607735
 20
92.352993
 30
0.0
 11
88.607735
 21
92.467887
 31
0.0
  0
LINE
  5
36C
100
AcDbEntity
  8
ALPHA
100
AcDbLine
 10
88.607735
 20
92.467887
 30
0.0
 11
88.577734
 21
92.582781
 31
0.0
  0
LINE
  5
36D
100
AcDbEntity
  8
ALPHA
100
AcDbLine
 10
88.577734
 20
92.582781
 30
0.0
 11
88.517734
 21
92.697674
 31
0.0
  0
LINE
  5
36E
100
AcDbEntity
  8
ALPHA
100
AcDbLine
 10
88.517734
 20
92.697674
 30
0.0
 11
88.427734
 21
92.77427
 31
0.0
  0
LINE
  5
36F
100
AcDbEntity
  8
ALPHA
100
AcDbLine
 10
88.427734
 20
92.77427
 30
0.0
 11
88.337734
 21
92.812568
 31
0.0
  0
LINE
  5
370
100
AcDbEntity
  8
ALPHA
100
AcDbLine
 10
88.337734
 20
92.812568
 30
0.0
 11
88.127734
 21
92.812568
 31
0.0
  0
LINE
  5
371
100
AcDbEntity
  8
ALPHA
100
AcDbLine
 10
88.127734
 20
92.812568
 30
0.0
 11
88.037734
 21
92.77427
 31
0.0
  0
LINE
  5
372
100
AcDbEntity
  8
ALPHA
100
AcDbLine
 10
88.037734
 20
92.77427
 30
0.0
 11
87.947735
 21
92.697674
 31
0.0
  0
LINE
  5
373
100
AcDbEntity
  8
ALPHA
100
AcDbLine
 10
87.947735
 20
92.697674
 30
0.0
 11
87.887734
 21
92.582781
 31
0.0
  0
LINE
  5
374
100
AcDbEntity
  8
ALPHA
100
AcDbLine
 10
87.887734
 20
92.582781
 30
0.0
 11
87.857735
 21
92.467887
 31
0.0
  0
LINE
  5
375
100
AcDbEntity
  8
ALPHA
100
AcDbLine
 10
87.857735
 20
92.467887
 30
0.0
 11
87.857735
 21
92.352993
 31
0.0
  0
LINE
  5
376
100
AcDbEntity
  8
ALPHA
100
AcDbLine
 10
87.857735
 20
92.352993
 30
0.0
 11
87.887734
 21
92.2381
 31
0.0
  0
LINE
  5
377
100
AcDbEntity
  8
ALPHA
100
AcDbLine
 10
87.707734
 20
92.314696
 30
0.0
 11
87.767734
 21
92.123206
 31
0.0
  0
LINE
  5
378
100
AcDbEntity
  8
ALPHA
100
AcDbLine
 10
87.707734
 20
92.506185
 30
0.0
 11
87.707734
 21
92.314696
 31
0.0
  0
LINE
  5
379
100
AcDbEntity
  8
ALPHA
100
AcDbLine
 10
87.767734
 20
92.697674
 30
0.0
 11
87.707734
 21
92.506185
 31
0.0
  0
LINE
  5
37A
100
AcDbEntity
  8
ALPHA
100
AcDbLine
 10
87.857735
 20
92.850866
 30
0.0
 11
87.767734
 21
92.697674
 31
0.0
  0
LINE
  5
37B
100
AcDbEntity
  8
ALPHA
100
AcDbLine
 10
88.007734
 20
92.965759
 30
0.0
 11
87.857735
 21
92.850866
 31
0.0
  0
LINE
  5
37C
100
AcDbEntity
  8
ALPHA
100
AcDbLine
 10
88.157735
 20
93.004057
 30
0.0
 11
88.007734
 21
92.965759
 31
0.0
  0
LINE
  5
37D
100
AcDbEntity
  8
ALPHA
100
AcDbLine
 10
88.307734
 20
93.004057
 30
0.0
 11
88.157735
 21
93.004057
 31
0.0
  0
LINE
  5
37E
100
AcDbEntity
  8
ALPHA
100
AcDbLine
 10
88.457734
 20
92.965759
 30
0.0
 11
88.307734
 21
93.004057
 31
0.0
  0
LINE
  5
37F
100
AcDbEntity
  8
ALPHA
100
AcDbLine
 10
88.607735
 20
92.850866
 30
0.0
 11
88.457734
 21
92.965759
 31
0.0
  0
LINE
  5
380
100
AcDbEntity
  8
ALPHA
100
AcDbLine
 10
88.697735
 20
92.697674
 30
0.0
 11
88.607735
 21
92.850866
 31
0.0
  0
LINE
  5
381
100
AcDbEntity
  8
ALPHA
100
AcDbLine
 10
88.757734
 20
92.506185
 30
0.0
 11
88.697735
 21
92.697674
 31
0.0
  0
LINE
  5
382
100
AcDbEntity
  8
ALPHA
100
AcDbLine
 10
88.787734
 20
92.2381
 30
0.0
 11
88.757734
 21
92.506185
 31
0.0
  0
LINE
  5
383
100
AcDbEntity
  8
ALPHA
100
AcDbLine
 10
88.787734
 20
91.970015
 30
0.0
 11
88.787734
 21
92.2381
 31
0.0
  0
LINE
  5
384
100
AcDbEntity
  8
ALPHA
100
AcDbLine
 10
88.757734
 20
91.70193
 30
0.0
 11
88.787734
 21
91.970015
 31
0.0
  0
LINE
  5
385
100
AcDbEntity
  8
ALPHA
100
AcDbLine
 10
88.697735
 20
91.51044
 30
0.0
 11
88.757734
 21
91.70193
 31
0.0
  0
LINE
  5
386
100
AcDbEntity
  8
ALPHA
100
AcDbLine
 10
88.607735
 20
91.357249
 30
0.0
 11
88.697735
 21
91.51044
 31
0.0
  0
LINE
  5
387
100
AcDbEntity
  8
ALPHA
100
AcDbLine
 10
88.457734
 20
91.242355
 30
0.0
 11
88.607735
 21
91.357249
 31
0.0
  0
LINE
  5
388
100
AcDbEntity
  8
ALPHA
100
AcDbLine
 10
88.307734
 20
91.204057
 30
0.0
 11
88.457734
 21
91.242355
 31
0.0
  0
LINE
  5
389
100
AcDbEntity
  8
ALPHA
100
AcDbLine
 10
88.187735
 20
91.204057
 30
0.0
 11
88.307734
 21
91.204057
 31
0.0
  0
LINE
  5
38A
100
AcDbEntity
  8
ALPHA
100
AcDbLine
 10
88.037734
 20
91.242355
 30
0.0
 11
88.187735
 21
91.204057
 31
0.0
  0
LINE
  5
38B
100
AcDbEntity
  8
ALPHA
100
AcDbLine
 10
87.887734
 20
91.357249
 30
0.0
 11
88.037734
 21
91.242355
 31
0.0
  0
LINE
  5
38C
100
AcDbEntity
  8
ALPHA
100
AcDbLine
 10
87.797734
 20
91.51044
 30
0.0
 11
87.887734
 21
91.357249
 31
0.0
  0
LINE
  5
38D
100
AcDbEntity
  8
ALPHA
100
AcDbLine
 10
87.767734
 20
91.625334
 30
0.0
 11
87.797734
 21
91.51044
 31
0.0
  0
LINE
  5
38E
100
AcDbEntity
  8
ALPHA
100
AcDbLine
 10
87.917734
 20
91.625334
 30
0.0
 11
87.767734
 21
91.625334
 31
0.0
  0
LINE
  5
38F
100
AcDbEntity
  8
ALPHA
100
AcDbLine
 10
87.977734
 20
91.51044
 30
0.0
 11
87.917734
 21
91.625334
 31
0.0
  0
LINE
  5
390
100
AcDbEntity
  8
ALPHA
100
AcDbLine
 10
88.067735
 20
91.433845
 30
0.0
 11
87.977734
 21
91.51044
 31
0.0
  0
LINE
  5
391
100
AcDbEntity
  8
ALPHA
100
AcDbLine
 10
88.157735
 20
91.395547
 30
0.0
 11
88.067735
 21
91.433845
 31
0.0
  0
LINE
  5
392
100
AcDbEntity
  8
ALPHA
100
AcDbLine
 10
88.337734
 20
91.395547
 30
0.0
 11
88.157735
 21
91.395547
 31
0.0
  0
LINE
  5
393
100
AcDbEntity
  8
ALPHA
100
AcDbLine
 10
88.427734
 20
91.433845
 30
0.0
 11
88.337734
 21
91.395547
 31
0.0
  0
LINE
  5
394
100
AcDbEntity
  8
ALPHA
100
AcDbLine
 10
88.517734
 20
91.51044
 30
0.0
 11
88.427734
 21
91.433845
 31
0.0
  0
LINE
  5
395
100
AcDbEntity
  8
ALPHA
100
AcDbLine
 10
88.577734
 20
91.625334
 30
0.0
 11
88.517734
 21
91.51044
 31
0.0
  0
LINE
  5
396
100
AcDbEntity
  8
ALPHA
100
AcDbLine
 10
88.607735
 20
91.740227
 30
0.0
 11
88.577734
 21
91.625334
 31
0.0
  0
LINE
  5
397
100
AcDbEntity
  8
ALPHA
100
AcDbLine
 10
88.637734
 20
91.970015
 30
0.0
 11
88.607735
 21
91.740227
 31
0.0
  0
LINE
  5
398
100
AcDbEntity
  8
ALPHA
100
AcDbLine
 10
88.637734
 20
92.046611
 30
0.0
 11
88.637734
 21
91.970015
 31
0.0
  0
LINE
  5
399
100
AcDbEntity
  8
ALPHA
100
AcDbLine
 10
88.457734
 20
91.893419
 30
0.0
 11
88.637734
 21
92.046611
 31
0.0
  0
LINE
  5
39A
100
AcDbEntity
  8
ALPHA
100
AcDbLine
 10
88.307734
 20
91.855121
 30
0.0
 11
88.457734
 21
91.893419
 31
0.0
  0
LINE
  5
39B
100
AcDbEntity
  8
ALPHA
100
AcDbLine
 10
88.157735
 20
91.855121
 30
0.0
 11
88.307734
 21
91.855121
 31
0.0
  0
LINE
  5
39C
100
AcDbEntity
  8
ALPHA
100
AcDbLine
 10
88.007734
 20
91.893419
 30
0.0
 11
88.157735
 21
91.855121
 31
0.0
  0
LINE
  5
39D
100
AcDbEntity
  8
ALPHA
100
AcDbLine
 10
87.857735
 20
92.008313
 30
0.0
 11
88.007734
 21
91.893419
 31
0.0
  0
LINE
  5
39E
100
AcDbEntity
  8
ALPHA
100
AcDbLine
 10
87.767734
 20
92.123206
 30
0.0
 11
87.857735
 21
92.008313
 31
0.0
  0
LINE
  5
39F
100
AcDbEntity
  8
ALPHA
100
AcDbLine
 10
94.00961
 20
92.5881
 30
0.0
 11
94.243985
 21
92.694483
 31
0.0
  0
LINE
  5
3A0
100
AcDbEntity
  8
ALPHA
100
AcDbLine
 10
94.243985
 20
92.694483
 30
0.0
 11
94.556485
 21
92.800866
 31
0.0
  0
LINE
  5
3A1
100
AcDbEntity
  8
ALPHA
100
AcDbLine
 10
94.556485
 20
92.800866
 30
0.0
 11
94.868985
 21
92.854057
 31
0.0
  0
LINE
  5
3A2
100
AcDbEntity
  8
ALPHA
100
AcDbLine
 10
94.868985
 20
92.854057
 30
0.0
 11
95.493985
 21
92.854057
 31
0.0
  0
LINE
  5
3A3
100
AcDbEntity
  8
ALPHA
100
AcDbLine
 10
95.493985
 20
92.854057
 30
0.0
 11
95.806485
 21
92.800866
 31
0.0
  0
LINE
  5
3A4
100
AcDbEntity
  8
ALPHA
100
AcDbLine
 10
95.806485
 20
92.800866
 30
0.0
 11
96.118985
 21
92.694483
 31
0.0
  0
LINE
  5
3A5
100
AcDbEntity
  8
ALPHA
100
AcDbLine
 10
96.118985
 20
92.694483
 30
0.0
 11
96.35336
 21
92.5881
 31
0.0
  0
LINE
  5
3A6
100
AcDbEntity
  8
ALPHA
100
AcDbLine
 10
96.35336
 20
92.5881
 30
0.0
 11
96.50961
 21
92.428525
 31
0.0
  0
LINE
  5
3A7
100
AcDbEntity
  8
ALPHA
100
AcDbLine
 10
96.50961
 20
92.428525
 30
0.0
 11
96.587735
 21
92.268951
 31
0.0
  0
LINE
  5
3A8
100
AcDbEntity
  8
ALPHA
100
AcDbLine
 10
96.587735
 20
92.268951
 30
0.0
 11
96.19711
 21
92.268951
 31
0.0
  0
LINE
  5
3A9
100
AcDbEntity
  8
ALPHA
100
AcDbLine
 10
96.19711
 20
92.268951
 30
0.0
 11
96.118985
 21
92.375334
 31
0.0
  0
LINE
  5
3AA
100
AcDbEntity
  8
ALPHA
100
AcDbLine
 10
96.118985
 20
92.375334
 30
0.0
 11
95.962735
 21
92.481717
 31
0.0
  0
LINE
  5
3AB
100
AcDbEntity
  8
ALPHA
100
AcDbLine
 10
95.962735
 20
92.481717
 30
0.0
 11
95.806485
 21
92.534908
 31
0.0
  0
LINE
  5
3AC
100
AcDbEntity
  8
ALPHA
100
AcDbLine
 10
95.806485
 20
92.534908
 30
0.0
 11
95.41586
 21
92.5881
 31
0.0
  0
LINE
  5
3AD
100
AcDbEntity
  8
ALPHA
100
AcDbLine
 10
95.41586
 20
92.5881
 30
0.0
 11
94.94711
 21
92.5881
 31
0.0
  0
LINE
  5
3AE
100
AcDbEntity
  8
ALPHA
100
AcDbLine
 10
94.94711
 20
92.5881
 30
0.0
 11
94.556485
 21
92.534908
 31
0.0
  0
LINE
  5
3AF
100
AcDbEntity
  8
ALPHA
100
AcDbLine
 10
94.556485
 20
92.534908
 30
0.0
 11
94.400235
 21
92.481717
 31
0.0
  0
LINE
  5
3B0
100
AcDbEntity
  8
ALPHA
100
AcDbLine
 10
94.400235
 20
92.481717
 30
0.0
 11
94.243985
 21
92.375334
 31
0.0
  0
LINE
  5
3B1
100
AcDbEntity
  8
ALPHA
100
AcDbLine
 10
94.243985
 20
92.375334
 30
0.0
 11
94.16586
 21
92.268951
 31
0.0
  0
LINE
  5
3B2
100
AcDbEntity
  8
ALPHA
100
AcDbLine
 10
94.16586
 20
92.268951
 30
0.0
 11
94.16586
 21
92.056185
 31
0.0
  0
LINE
  5
3B3
100
AcDbEntity
  8
ALPHA
100
AcDbLine
 10
94.16586
 20
92.056185
 30
0.0
 11
94.32211
 21
91.843419
 31
0.0
  0
LINE
  5
3B4
100
AcDbEntity
  8
ALPHA
100
AcDbLine
 10
94.32211
 20
91.843419
 30
0.0
 11
94.556485
 21
91.737036
 31
0.0
  0
LINE
  5
3B5
100
AcDbEntity
  8
ALPHA
100
AcDbLine
 10
94.556485
 20
91.737036
 30
0.0
 11
95.025235
 21
91.683845
 31
0.0
  0
LINE
  5
3B6
100
AcDbEntity
  8
ALPHA
100
AcDbLine
 10
95.025235
 20
91.683845
 30
0.0
 11
95.337735
 21
91.683845
 31
0.0
  0
LINE
  5
3B7
100
AcDbEntity
  8
ALPHA
100
AcDbLine
 10
95.337735
 20
91.683845
 30
0.0
 11
95.337735
 21
91.471079
 31
0.0
  0
LINE
  5
3B8
100
AcDbEntity
  8
ALPHA
100
AcDbLine
 10
95.337735
 20
91.471079
 30
0.0
 11
95.025235
 21
91.471079
 31
0.0
  0
LINE
  5
3B9
100
AcDbEntity
  8
ALPHA
100
AcDbLine
 10
95.025235
 20
91.471079
 30
0.0
 11
94.556485
 21
91.364696
 31
0.0
  0
LINE
  5
3BA
100
AcDbEntity
  8
ALPHA
100
AcDbLine
 10
94.556485
 20
91.364696
 30
0.0
 11
94.400235
 21
91.258313
 31
0.0
  0
LINE
  5
3BB
100
AcDbEntity
  8
ALPHA
100
AcDbLine
 10
94.400235
 20
91.258313
 30
0.0
 11
94.243985
 21
91.045547
 31
0.0
  0
LINE
  5
3BC
100
AcDbEntity
  8
ALPHA
100
AcDbLine
 10
94.243985
 20
91.045547
 30
0.0
 11
94.243985
 21
90.939164
 31
0.0
  0
LINE
  5
3BD
100
AcDbEntity
  8
ALPHA
100
AcDbLine
 10
94.243985
 20
90.939164
 30
0.0
 11
94.400235
 21
90.779589
 31
0.0
  0
LINE
  5
3BE
100
AcDbEntity
  8
ALPHA
100
AcDbLine
 10
94.400235
 20
90.779589
 30
0.0
 11
94.63461
 21
90.673206
 31
0.0
  0
LINE
  5
3BF
100
AcDbEntity
  8
ALPHA
100
AcDbLine
 10
94.63461
 20
90.673206
 30
0.0
 11
95.025235
 21
90.620015
 31
0.0
  0
LINE
  5
3C0
100
AcDbEntity
  8
ALPHA
100
AcDbLine
 10
95.025235
 20
90.620015
 30
0.0
 11
95.337735
 21
90.620015
 31
0.0
  0
LINE
  5
3C1
100
AcDbEntity
  8
ALPHA
100
AcDbLine
 10
95.337735
 20
90.620015
 30
0.0
 11
95.72836
 21
90.673206
 31
0.0
  0
LINE
  5
3C2
100
AcDbEntity
  8
ALPHA
100
AcDbLine
 10
95.72836
 20
90.673206
 30
0.0
 11
95.962735
 21
90.779589
 31
0.0
  0
LINE
  5
3C3
100
AcDbEntity
  8
ALPHA
100
AcDbLine
 10
95.962735
 20
90.779589
 30
0.0
 11
96.118985
 21
90.939164
 31
0.0
  0
LINE
  5
3C4
100
AcDbEntity
  8
ALPHA
100
AcDbLine
 10
96.118985
 20
90.939164
 30
0.0
 11
96.50961
 21
90.939164
 31
0.0
  0
LINE
  5
3C5
100
AcDbEntity
  8
ALPHA
100
AcDbLine
 10
96.50961
 20
90.939164
 30
0.0
 11
96.431485
 21
90.726398
 31
0.0
  0
LINE
  5
3C6
100
AcDbEntity
  8
ALPHA
100
AcDbLine
 10
96.431485
 20
90.726398
 30
0.0
 11
96.118985
 21
90.513632
 31
0.0
  0
LINE
  5
3C7
100
AcDbEntity
  8
ALPHA
100
AcDbLine
 10
96.118985
 20
90.513632
 30
0.0
 11
95.806485
 21
90.407249
 31
0.0
  0
LINE
  5
3C8
100
AcDbEntity
  8
ALPHA
100
AcDbLine
 10
95.806485
 20
90.407249
 30
0.0
 11
95.25961
 21
90.354057
 31
0.0
  0
LINE
  5
3C9
100
AcDbEntity
  8
ALPHA
100
AcDbLine
 10
95.25961
 20
90.354057
 30
0.0
 11
95.10336
 21
90.354057
 31
0.0
  0
LINE
  5
3CA
100
AcDbEntity
  8
ALPHA
100
AcDbLine
 10
95.10336
 20
90.354057
 30
0.0
 11
94.556485
 21
90.407249
 31
0.0
  0
LINE
  5
3CB
100
AcDbEntity
  8
ALPHA
100
AcDbLine
 10
94.556485
 20
90.407249
 30
0.0
 11
94.243985
 21
90.513632
 31
0.0
  0
LINE
  5
3CC
100
AcDbEntity
  8
ALPHA
100
AcDbLine
 10
94.243985
 20
90.513632
 30
0.0
 11
93.931485
 21
90.726398
 31
0.0
  0
LINE
  5
3CD
100
AcDbEntity
  8
ALPHA
100
AcDbLine
 10
93.931485
 20
90.726398
 30
0.0
 11
93.85336
 21
90.939164
 31
0.0
  0
LINE
  5
3CE
100
AcDbEntity
  8
ALPHA
100
AcDbLine
 10
93.85336
 20
90.939164
 30
0.0
 11
93.85336
 21
91.045547
 31
0.0
  0
LINE
  5
3CF
100
AcDbEntity
  8
ALPHA
100
AcDbLine
 10
93.85336
 20
91.045547
 30
0.0
 11
93.931485
 21
91.258313
 31
0.0
  0
LINE
  5
3D0
100
AcDbEntity
  8
ALPHA
100
AcDbLine
 10
93.931485
 20
91.258313
 30
0.0
 11
94.087735
 21
91.417887
 31
0.0
  0
LINE
  5
3D1
100
AcDbEntity
  8
ALPHA
100
AcDbLine
 10
94.087735
 20
91.417887
 30
0.0
 11
94.400235
 21
91.577461
 31
0.0
  0
LINE
  5
3D2
100
AcDbEntity
  8
ALPHA
100
AcDbLine
 10
94.400235
 20
91.577461
 30
0.0
 11
94.00961
 21
91.683845
 31
0.0
  0
LINE
  5
3D3
100
AcDbEntity
  8
ALPHA
100
AcDbLine
 10
94.00961
 20
91.683845
 30
0.0
 11
93.85336
 21
91.843419
 31
0.0
  0
LINE
  5
3D4
100
AcDbEntity
  8
ALPHA
100
AcDbLine
 10
93.85336
 20
91.843419
 30
0.0
 11
93.775235
 21
92.056185
 31
0.0
  0
LINE
  5
3D5
100
AcDbEntity
  8
ALPHA
100
AcDbLine
 10
93.775235
 20
92.056185
 30
0.0
 11
93.775235
 21
92.268951
 31
0.0
  0
LINE
  5
3D6
100
AcDbEntity
  8
ALPHA
100
AcDbLine
 10
93.775235
 20
92.268951
 30
0.0
 11
93.85336
 21
92.428525
 31
0.0
  0
LINE
  5
3D7
100
AcDbEntity
  8
ALPHA
100
AcDbLine
 10
93.85336
 20
92.428525
 30
0.0
 11
94.00961
 21
92.5881
 31
0.0
  0
LINE
  5
3D8
100
AcDbEntity
  8
ALPHA
100
AcDbLine
 10
100.067735
 20
92.2381
 30
0.0
 11
100.577735
 21
92.2381
 31
0.0
  0
LINE
  5
3D9
100
AcDbEntity
  8
ALPHA
100
AcDbLine
 10
100.067735
 20
91.51044
 30
0.0
 11
100.067735
 21
92.2381
 31
0.0
  0
LINE
  5
3DA
100
AcDbEntity
  8
ALPHA
100
AcDbLine
 10
100.577735
 20
92.2381
 30
0.0
 11
100.067735
 21
91.51044
 31
0.0
  0
LINE
  5
3DB
100
AcDbEntity
  8
ALPHA
100
AcDbLine
 10
100.067735
 20
91.204057
 30
0.0
 11
99.887734
 21
91.204057
 31
0.0
  0
LINE
  5
3DC
100
AcDbEntity
  8
ALPHA
100
AcDbLine
 10
99.887734
 20
91.204057
 30
0.0
 11
99.887734
 21
92.2381
 31
0.0
  0
LINE
  5
3DD
100
AcDbEntity
  8
ALPHA
100
AcDbLine
 10
99.887734
 20
92.2381
 30
0.0
 11
99.587735
 21
92.2381
 31
0.0
  0
LINE
  5
3DE
100
AcDbEntity
  8
ALPHA
100
AcDbLine
 10
99.587735
 20
92.2381
 30
0.0
 11
99.587735
 21
92.467887
 31
0.0
  0
LINE
  5
3DF
100
AcDbEntity
  8
ALPHA
100
AcDbLine
 10
99.587735
 20
92.467887
 30
0.0
 11
99.887734
 21
92.467887
 31
0.0
  0
LINE
  5
3E0
100
AcDbEntity
  8
ALPHA
100
AcDbLine
 10
99.887734
 20
92.467887
 30
0.0
 11
99.887734
 21
93.004057
 31
0.0
  0
LINE
  5
3E1
100
AcDbEntity
  8
ALPHA
100
AcDbLine
 10
99.887734
 20
93.004057
 30
0.0
 11
100.067735
 21
93.004057
 31
0.0
  0
LINE
  5
3E2
100
AcDbEntity
  8
ALPHA
100
AcDbLine
 10
100.067735
 20
93.004057
 30
0.0
 11
100.067735
 21
92.467887
 31
0.0
  0
LINE
  5
3E3
100
AcDbEntity
  8
ALPHA
100
AcDbLine
 10
100.067735
 20
92.467887
 30
0.0
 11
100.787734
 21
92.467887
 31
0.0
  0
LINE
  5
3E4
100
AcDbEntity
  8
ALPHA
100
AcDbLine
 10
100.787734
 20
92.467887
 30
0.0
 11
100.787734
 21
92.2381
 31
0.0
  0
LINE
  5
3E5
100
AcDbEntity
  8
ALPHA
100
AcDbLine
 10
100.787734
 20
92.2381
 30
0.0
 11
100.067735
 21
91.204057
 31
0.0
  0
LINE
  5
3E6
100
AcDbEntity
  8
ALPHA
100
AcDbLine
 10
103.300235
 20
92.754057
 30
0.0
 11
103.743985
 21
92.754057
 31
0.0
  0
LINE
  5
3E7
100
AcDbEntity
  8
ALPHA
100
AcDbLine
 10
103.743985
 20
92.754057
 30
0.0
 11
103.743985
 21
90.679589
 31
0.0
  0
LINE
  5
3E8
100
AcDbEntity
  8
ALPHA
100
AcDbLine
 10
103.743985
 20
90.679589
 30
0.0
 11
104.187734
 21
91.05193
 31
0.0
  0
LINE
  5
3E9
100
AcDbEntity
  8
ALPHA
100
AcDbLine
 10
104.187734
 20
91.05193
 30
0.0
 11
104.187734
 21
90.626398
 31
0.0
  0
LINE
  5
3EA
100
AcDbEntity
  8
ALPHA
100
AcDbLine
 10
104.187734
 20
90.626398
 30
0.0
 11
103.743985
 21
90.254057
 31
0.0
  0
LINE
  5
3EB
100
AcDbEntity
  8
ALPHA
100
AcDbLine
 10
103.743985
 20
90.254057
 30
0.0
 11
103.300235
 21
90.254057
 31
0.0
  0
LINE
  5
3EC
100
AcDbEntity
  8
ALPHA
100
AcDbLine
 10
103.300235
 20
90.254057
 30
0.0
 11
103.300235
 21
92.754057
 31
0.0
  0
LINE
  5
3ED
100
AcDbEntity
  8
ALPHA
100
AcDbLine
 10
79.037734
 20
108.840104
 30
0.0
 11
79.037734
 21
108.940104
 31
0.0
  0
LINE
  5
3EE
100
AcDbEntity
  8
ALPHA
100
AcDbLine
 10
79.037734
 20
105.26801
 30
0.0
 11
79.037734
 21
105.36801
 31
0.0
  0
LINE
  5
3EF
100
AcDbEntity
  8
ALPHA
100
AcDbLine
 10
78.147542
 20
104.754057
 30
0.0
 11
78.037734
 21
104.754057
 31
0.0
  0
LINE
  5
3F0
100
AcDbEntity
  8
ALPHA
100
AcDbLine
 10
78.147542
 20
109.454057
 30
0.0
 11
78.037734
 21
109.454057
 31
0.0
  0
LINE
  5
3F1
100
AcDbEntity
  8
ALPHA
100
AcDbLine
 10
78.037734
 20
109.417455
 30
0.0
 11
78.037734
 21
109.454057
 31
0.0
  0
LINE
  5
3F2
100
AcDbEntity
  8
ALPHA
100
AcDbLine
 10
78.037734
 20
104.754057
 30
0.0
 11
78.037734
 21
104.79066
 31
0.0
  0
LINE
  5
3F3
100
AcDbEntity
  8
ALPHA
100
AcDbLine
 10
79.552962
 20
107.308517
 30
0.0
 11
79.54056
 21
107.124038
 31
0.0
  0
LWPOLYLINE
  5
3F4
100
AcDbEntity
  8
ALPHA
100
AcDbPolyline
 90
        3
 70
     0
 43
0.0
 10
79.560935
 20
107.426097
 10
79.560836
 20
107.425656
 10
79.552962
 20
107.308517
  0
LWPOLYLINE
  5
3F9
100
AcDbEntity
  8
ALPHA
100
AcDbPolyline
 90
        5
 70
     0
 43
0.0
 10
79.587734
 20
107.556686
 10
79.57208
 20
107.495691
 10
79.538299
 20
107.154475
 10
79.556758
 20
106.812092
 10
79.587734
 20
106.664148
  0
LINE
  5
400
100
AcDbEntity
  8
ALPHA
100
AcDbLine
 10
79.58277
 20
106.687228
 30
0.0
 11
79.587734
 21
106.661354
 31
0.0
  0
LWPOLYLINE
  5
401
100
AcDbEntity
  8
ALPHA
100
AcDbPolyline
 90
        5
 70
     0
 43
0.0
 10
79.587734
 20
107.557698
 10
79.572242
 20
107.496606
 10
79.538706
 20
107.170168
 10
79.553009
 20
106.842324
 10
79.58277
 20
106.687228
  0
LINE
  5
408
100
AcDbEntity
  8
ALPHA
100
AcDbLine
 10
79.582799
 20
106.687071
 30
0.0
 11
79.587734
 21
106.661369
 31
0.0
  0
LINE
  5
409
100
AcDbEntity
  8
ALPHA
100
AcDbLine
 10
79.556085
 20
107.339347
 30
0.0
 11
79.539344
 21
107.176159
 31
0.0
  0
LWPOLYLINE
  5
40A
100
AcDbEntity
  8
ALPHA
100
AcDbPolyline
 90
        3
 70
     0
 43
0.0
 10
79.573745
 20
107.50244
 10
79.572186
 20
107.49629
 10
79.556085
 20
107.339347
  0
LINE
  5
40F
100
AcDbEntity
  8
ALPHA
100
AcDbLine
 10
79.581665
 20
106.693158
 30
0.0
 11
79.587734
 21
106.660565
 31
0.0
  0
LWPOLYLINE
  5
410
100
AcDbEntity
  8
ALPHA
100
AcDbPolyline
 90
        5
 70
     0
 43
0.0
 10
79.587734
 20
107.560039
 10
79.574428
 20
107.508746
 10
79.539102
 20
107.182498
 10
79.551608
 20
106.854581
 10
79.581665
 20
106.693158
  0
LINE
  5
417
100
AcDbEntity
  8
ALPHA
100
AcDbLine
 10
79.581665
 20
106.693158
 30
0.0
 11
79.587734
 21
106.660591
 31
0.0
  0
LWPOLYLINE
  5
418
100
AcDbEntity
  8
ALPHA
100
AcDbPolyline
 90
        5
 70
     0
 43
0.0
 10
79.587734
 20
107.559976
 10
79.57437
 20
107.508431
 10
79.539091
 20
107.182177
 10
79.551643
 20
106.854262
 10
79.581665
 20
106.693158
  0
LINE
  5
41F
100
AcDbEntity
  8
ALPHA
100
AcDbLine
 10
79.551247
 20
107.287644
 30
0.0
 11
79.537848
 21
107.12422
 31
0.0
  0
LINE
  5
420
100
AcDbEntity
  8
ALPHA
100
AcDbLine
 10
79.539696
 20
107.147008
 30
0.0
 11
79.539096
 21
107.139699
 31
0.0
  0
LINE
  5
421
100
AcDbEntity
  8
ALPHA
100
AcDbLine
 10
79.540202
 20
107.153162
 30
0.0
 11
79.539696
 21
107.147008
 31
0.0
  0
LINE
  5
422
100
AcDbEntity
  8
ALPHA
100
AcDbLine
 10
79.551247
 20
107.287644
 30
0.0
 11
79.540202
 21
107.153162
 31
0.0
  0
LINE
  5
423
100
AcDbEntity
  8
ALPHA
100
AcDbLine
 10
79.553119
 20
107.310431
 30
0.0
 11
79.551247
 21
107.287644
 31
0.0
  0
LINE
  5
424
100
AcDbEntity
  8
ALPHA
100
AcDbLine
 10
79.554747
 20
107.33026
 30
0.0
 11
79.553119
 21
107.310431
 31
0.0
  0
LINE
  5
425
100
AcDbEntity
  8
ALPHA
100
AcDbLine
 10
79.550739
 20
107.281461
 30
0.0
 11
79.538709
 21
107.124154
 31
0.0
  0
LWPOLYLINE
  5
426
100
AcDbEntity
  8
ALPHA
100
AcDbPolyline
 90
        3
 70
     0
 43
0.0
 10
79.564168
 20
107.444956
 10
79.56277
 20
107.43877
 10
79.550739
 20
107.281461
  0
LINE
  5
42B
100
AcDbEntity
  8
ALPHA
100
AcDbLine
 10
79.550752
 20
107.281619
 30
0.0
 11
79.538688
 21
107.124156
 31
0.0
  0
LINE
  5
42C
100
AcDbEntity
  8
ALPHA
100
AcDbLine
 10
79.549801
 20
107.269196
 30
0.0
 11
79.540691
 21
107.140829
 31
0.0
  0
LINE
  5
42D
100
AcDbEntity
  8
ALPHA
100
AcDbLine
 10
79.550236
 20
107.27533
 30
0.0
 11
79.549801
 21
107.269196
 31
0.0
  0
LINE
  5
42E
100
AcDbEntity
  8
ALPHA
100
AcDbLine
 10
79.552294
 20
107.30433
 30
0.0
 11
79.550236
 21
107.27533
 31
0.0
  0
LWPOLYLINE
  5
42F
100
AcDbEntity
  8
ALPHA
100
AcDbPolyline
 90
        3
 70
     0
 43
0.0
 10
79.562333
 20
107.432762
 10
79.560968
 20
107.426568
 10
79.552294
 20
107.30433
  0
LINE
  5
434
100
AcDbEntity
  8
ALPHA
100
AcDbLine
 10
79.58277
 20
106.687228
 30
0.0
 11
79.587734
 21
106.661354
 31
0.0
  0
LWPOLYLINE
  5
435
100
AcDbEntity
  8
ALPHA
100
AcDbPolyline
 90
        5
 70
     0
 43
0.0
 10
79.587734
 20
107.557698
 10
79.572242
 20
107.496606
 10
79.538706
 20
107.170168
 10
79.553009
 20
106.842324
 10
79.58277
 20
106.687228
  0
LINE
  5
43C
100
AcDbEntity
  8
ALPHA
100
AcDbLine
 10
79.550249
 20
107.275491
 30
0.0
 11
79.539484
 21
107.124104
 31
0.0
  0
LWPOLYLINE
  5
43D
100
AcDbEntity
  8
ALPHA
100
AcDbPolyline
 90
        3
 70
     0
 43
0.0
 10
79.587734
 20
107.548101
 10
79.561014
 20
107.426885
 10
79.550249
 20
107.275491
  0
LINE
  5
442
100
AcDbEntity
  8
ALPHA
100
AcDbLine
 10
79.582799
 20
106.687071
 30
0.0
 11
79.587734
 21
106.661369
 31
0.0
  0
LINE
  5
443
100
AcDbEntity
  8
ALPHA
100
AcDbLine
 10
79.556085
 20
107.339347
 30
0.0
 11
79.539344
 21
107.176159
 31
0.0
  0
LWPOLYLINE
  5
444
100
AcDbEntity
  8
ALPHA
100
AcDbPolyline
 90
        3
 70
     0
 43
0.0
 10
79.573745
 20
107.50244
 10
79.572186
 20
107.49629
 10
79.556085
 20
107.339347
  0
LINE
  5
449
100
AcDbEntity
  8
ALPHA
100
AcDbLine
 10
79.551247
 20
107.287644
 30
0.0
 11
79.537848
 21
107.12422
 31
0.0
  0
LINE
  5
44A
100
AcDbEntity
  8
ALPHA
100
AcDbLine
 10
79.539696
 20
107.147008
 30
0.0
 11
79.539096
 21
107.139699
 31
0.0
  0
LINE
  5
44B
100
AcDbEntity
  8
ALPHA
100
AcDbLine
 10
79.540202
 20
107.153162
 30
0.0
 11
79.539696
 21
107.147008
 31
0.0
  0
LINE
  5
44C
100
AcDbEntity
  8
ALPHA
100
AcDbLine
 10
79.551247
 20
107.287644
 30
0.0
 11
79.540202
 21
107.153162
 31
0.0
  0
LINE
  5
44D
100
AcDbEntity
  8
ALPHA
100
AcDbLine
 10
79.553119
 20
107.310431
 30
0.0
 11
79.551247
 21
107.287644
 31
0.0
  0
LINE
  5
44E
100
AcDbEntity
  8
ALPHA
100
AcDbLine
 10
79.554747
 20
107.33026
 30
0.0
 11
79.553119
 21
107.310431
 31
0.0
  0
LINE
  5
44F
100
AcDbEntity
  8
ALPHA
100
AcDbLine
 10
79.550739
 20
107.281461
 30
0.0
 11
79.538709
 21
107.124154
 31
0.0
  0
LWPOLYLINE
  5
450
100
AcDbEntity
  8
ALPHA
100
AcDbPolyline
 90
        3
 70
     0
 43
0.0
 10
79.564168
 20
107.444956
 10
79.56277
 20
107.43877
 10
79.550739
 20
107.281461
  0
LINE
  5
455
100
AcDbEntity
  8
ALPHA
100
AcDbLine
 10
79.550752
 20
107.281619
 30
0.0
 11
79.538688
 21
107.124156
 31
0.0
  0
LINE
  5
456
100
AcDbEntity
  8
ALPHA
100
AcDbLine
 10
79.581665
 20
106.693158
 30
0.0
 11
79.587734
 21
106.660565
 31
0.0
  0
LWPOLYLINE
  5
457
100
AcDbEntity
  8
ALPHA
100
AcDbPolyline
 90
        5
 70
     0
 43
0.0
 10
79.587734
 20
107.560039
 10
79.574428
 20
107.508746
 10
79.539102
 20
107.182498
 10
79.551608
 20
106.854581
 10
79.581665
 20
106.693158
  0
LINE
  5
45E
100
AcDbEntity
  8
ALPHA
100
AcDbLine
 10
79.549801
 20
107.269196
 30
0.0
 11
79.540691
 21
107.140829
 31
0.0
  0
LINE
  5
45F
100
AcDbEntity
  8
ALPHA
100
AcDbLine
 10
79.550236
 20
107.27533
 30
0.0
 11
79.549801
 21
107.269196
 31
0.0
  0
LINE
  5
460
100
AcDbEntity
  8
ALPHA
100
AcDbLine
 10
79.552294
 20
107.30433
 30
0.0
 11
79.550236
 21
107.27533
 31
0.0
  0
LWPOLYLINE
  5
461
100
AcDbEntity
  8
ALPHA
100
AcDbPolyline
 90
        3
 70
     0
 43
0.0
 10
79.562333
 20
107.432762
 10
79.560968
 20
107.426568
 10
79.552294
 20
107.30433
  0
LINE
  5
466
100
AcDbEntity
  8
ALPHA
100
AcDbLine
 10
79.581665
 20
106.693158
 30
0.0
 11
79.587734
 21
106.660591
 31
0.0
  0
LWPOLYLINE
  5
467
100
AcDbEntity
  8
ALPHA
100
AcDbPolyline
 90
        5
 70
     0
 43
0.0
 10
79.587734
 20
107.559976
 10
79.57437
 20
107.508431
 10
79.539091
 20
107.182177
 10
79.551643
 20
106.854262
 10
79.581665
 20
106.693158
  0
LINE
  5
46E
100
AcDbEntity
  8
ALPHA
100
AcDbLine
 10
79.550249
 20
107.275491
 30
0.0
 11
79.539484
 21
107.124104
 31
0.0
  0
LWPOLYLINE
  5
46F
100
AcDbEntity
  8
ALPHA
100
AcDbPolyline
 90
        3
 70
     0
 43
0.0
 10
79.587734
 20
107.548101
 10
79.561014
 20
107.426885
 10
79.550249
 20
107.275491
  0
LWPOLYLINE
  5
474
100
AcDbEntity
  8
ALPHA
100
AcDbPolyline
 90
        5
 70
     0
 43
0.0
 10
79.587734
 20
107.547167
 10
79.562316
 20
107.435742
 10
79.537759
 20
107.093503
 10
79.565525
 20
106.751516
 10
79.587734
 20
106.658199
  0
ENDSEC
  0
SECTION
  2
OBJECTS
  0
DICTIONARY
  5
607
100
AcDbDictionary
  3
ACAD_GROUP
350
608
  3
ACAD_MLINESTYLE
350
615
  3
ACDBVARIABLEDICTIONARY
350
625
  0
DICTIONARY
  5
608
102
{ACAD_REACTORS
330
607
102
}
100
AcDbDictionary
  0
DICTIONARY
  5
615
102
{ACAD_REACTORS
330
607
102
}
100
AcDbDictionary
  3
STANDARD
350
616
  0
DICTIONARY
  5
625
102
{ACAD_REACTORS
330
607
102
}
100
AcDbDictionary
  3
DIMADEC
350
626
  0
MLINESTYLE
  5
616
102
{ACAD_REACTORS
330
615
102
}
100
AcDbMlineStyle
  2
STANDARD
 70
     0
  3

 62
   256
 51
90.0
 52
90.0
 71
     2
 49
0.5
 62
   256
  6
BYLAYER
 49
-0.5
 62
   256
  6
BYLAYER
  0
DICTIONARYVAR
  5
626
102
{ACAD_REACTORS
330
625
102
}
100
DictionaryVariables
280
     0
  1
0
  0
ENDSEC
  0
EOF
