  0
SECTION
  2
HEADER
  9
$ACADVER
  1
AC1014
  9
$ACADMAINTVER
 70
     9
  9
$DWGCODEPAGE
  3
ANSI_1252
  9
$INSBASE
 10
0.0
 20
0.0
 30
0.0
  9
$EXTMIN
 10
0.0
 20
0.0
 30
0.0
  9
$EXTMAX
 10
164.00001
 20
102.4999999999999
 30
0.0
  9
$LIMMIN
 10
0.0
 20
0.0
  9
$LIMMAX
 10
16.40000099999999
 20
10.25
  9
$ORTHOMODE
 70
     1
  9
$REGENMODE
 70
     1
  9
$FILLMODE
 70
     1
  9
$QTEXTMODE
 70
     0
  9
$MIRRTEXT
 70
     1
  9
$DRAGMODE
 70
     2
  9
$LTSCALE
 40
1.0
  9
$OSMODE
 70
   129
  9
$ATTMODE
 70
     1
  9
$TEXTSIZE
 40
0.2
  9
$TRACEWID
 40
0.05
  9
$TEXTSTYLE
  7
ROMANS
  9
$CLAYER
  8
0
  9
$CELTYPE
  6
BYLAYER
  9
$CECOLOR
 62
   256
  9
$CELTSCALE
 40
1.0
  9
$DELOBJ
 70
     1
  9
$DISPSILH
 70
     0
  9
$DIMSCALE
 40
0.0
  9
$DIMASZ
 40
0.07
  9
$DIMEXO
 40
0.0625
  9
$DIMDLI
 40
0.38
  9
$DIMRND
 40
0.001
  9
$DIMDLE
 40
0.0
  9
$DIMEXE
 40
0.0625
  9
$DIMTP
 40
0.0
  9
$DIMTM
 40
0.0
  9
$DIMTXT
 40
0.1
  9
$DIMCEN
 40
0.09
  9
$DIMTSZ
 40
0.0
  9
$DIMTOL
 70
     0
  9
$DIMLIM
 70
     0
  9
$DIMTIH
 70
     1
  9
$DIMTOH
 70
     1
  9
$DIMSE1
 70
     0
  9
$DIMSE2
 70
     0
  9
$DIMTAD
 70
     0
  9
$DIMZIN
 70
     4
  9
$DIMBLK
  1
SEARROW
  9
$DIMASO
 70
     1
  9
$DIMSHO
 70
     1
  9
$DIMPOST
  1

  9
$DIMAPOST
  1

  9
$DIMALT
 70
     0
  9
$DIMALTD
 70
     1
  9
$DIMALTF
 40
25.4
  9
$DIMLFAC
 40
1.0
  9
$DIMTOFL
 70
     0
  9
$DIMTVP
 40
0.0
  9
$DIMTIX
 70
     0
  9
$DIMSOXD
 70
     0
  9
$DIMSAH
 70
     0
  9
$DIMBLK1
  1

  9
$DIMBLK2
  1

  9
$DIMSTYLE
  2
SCHNEIDERELECTRIC
  9
$DIMCLRD
 70
   256
  9
$DIMCLRE
 70
   256
  9
$DIMCLRT
 70
   256
  9
$DIMTFAC
 40
1.0
  9
$DIMGAP
 40
0.04
  9
$DIMJUST
 70
     0
  9
$DIMSD1
 70
     0
  9
$DIMSD2
 70
     0
  9
$DIMTOLJ
 70
     1
  9
$DIMTZIN
 70
     0
  9
$DIMALTZ
 70
     0
  9
$DIMALTTZ
 70
     0
  9
$DIMFIT
 70
     3
  9
$DIMUPT
 70
     0
  9
$DIMUNIT
 70
     2
  9
$DIMDEC
 70
     2
  9
$DIMTDEC
 70
     2
  9
$DIMALTU
 70
     2
  9
$DIMALTTD
 70
     1
  9
$DIMTXSTY
  7
ROMANS
  9
$DIMAUNIT
 70
     0
  9
$LUNITS
 70
     2
  9
$LUPREC
 70
     4
  9
$SKETCHINC
 40
0.1
  9
$FILLETRAD
 40
0.5
  9
$AUNITS
 70
     0
  9
$AUPREC
 70
     0
  9
$MENU
  1
.
  9
$ELEVATION
 40
0.0
  9
$PELEVATION
 40
0.0
  9
$THICKNESS
 40
0.0
  9
$LIMCHECK
 70
     0
  9
$BLIPMODE
 70
     0
  9
$CHAMFERA
 40
0.5
  9
$CHAMFERB
 40
0.5
  9
$CHAMFERC
 40
1.0
  9
$CHAMFERD
 40
0.0
  9
$SKPOLY
 70
     0
  9
$TDCREATE
 40
2451764.618375243
  9
$TDUPDATE
 40
2452424.315922419
  9
$TDINDWG
 40
0.2637304051
  9
$TDUSRTIMER
 40
0.2637301736
  9
$USRTIMER
 70
     1
  9
$ANGBASE
 50
0.0
  9
$ANGDIR
 70
     0
  9
$PDMODE
 70
     0
  9
$PDSIZE
 40
0.0
  9
$PLINEWID
 40
0.0
  9
$COORDS
 70
     1
  9
$SPLFRAME
 70
     0
  9
$SPLINETYPE
 70
     6
  9
$SPLINESEGS
 70
     8
  9
$ATTDIA
 70
     0
  9
$ATTREQ
 70
     1
  9
$HANDLING
 70
 22529
  9
$HANDSEED
  5
4416
  9
$SURFTAB1
 70
     6
  9
$SURFTAB2
 70
     6
  9
$SURFTYPE
 70
     6
  9
$SURFU
 70
     6
  9
$SURFV
 70
     6
  9
$UCSNAME
  2

  9
$UCSORG
 10
0.0
 20
0.0
 30
0.0
  9
$UCSXDIR
 10
1.0
 20
0.0
 30
0.0
  9
$UCSYDIR
 10
0.0
 20
1.0
 30
0.0
  9
$PUCSNAME
  2

  9
$PUCSORG
 10
0.0
 20
0.0
 30
0.0
  9
$PUCSXDIR
 10
1.0
 20
0.0
 30
0.0
  9
$PUCSYDIR
 10
0.0
 20
1.0
 30
0.0
  9
$USERI1
 70
     0
  9
$USERI2
 70
     0
  9
$USERI3
 70
     0
  9
$USERI4
 70
     0
  9
$USERI5
 70
     0
  9
$USERR1
 40
0.0
  9
$USERR2
 40
0.0
  9
$USERR3
 40
0.0
  9
$USERR4
 40
0.0
  9
$USERR5
 40
0.0
  9
$WORLDVIEW
 70
     1
  9
$SHADEDGE
 70
     3
  9
$SHADEDIF
 70
    70
  9
$TILEMODE
 70
     0
  9
$MAXACTVP
 70
    48
  9
$PINSBASE
 10
0.0
 20
0.0
 30
0.0
  9
$PLIMCHECK
 70
     0
  9
$PEXTMIN
 10
0.0
 20
-0.1507193079929352
 30
0.0
  9
$PEXTMAX
 10
16.40000099999999
 20
10.25
 30
0.0
  9
$PLIMMIN
 10
-0.4411603132874747
 20
-1.608798104159364
  9
$PLIMMAX
 10
16.77765135948888
 20
11.69664719386183
  9
$UNITMODE
 70
     0
  9
$VISRETAIN
 70
     1
  9
$PLINEGEN
 70
     0
  9
$PSLTSCALE
 70
     1
  9
$TREEDEPTH
 70
  3020
  9
$PICKSTYLE
 70
     1
  9
$CMLSTYLE
  2
STANDARD
  9
$CMLJUST
 70
     0
  9
$CMLSCALE
 40
1.0
  9
$PROXYGRAPHICS
 70
     1
  9
$MEASUREMENT
 70
     0
  0
ENDSEC
  0
SECTION
  2
CLASSES
  0
CLASS
  1
ACDBDICTIONARYWDFLT
  2
AcDbDictionaryWithDefault
  3
AutoCAD 2000
 90
        0
280
     0
281
     0
  0
CLASS
  1
ACDBPLACEHOLDER
  2
AcDbPlaceHolder
  3
AutoCAD 2000
 90
        0
280
     0
281
     0
  0
CLASS
  1
LAYOUT
  2
AcDbLayout
  3
AutoCAD 2000
 90
        0
280
     0
281
     0
  0
CLASS
  1
LONG_TRANSACTION
  2
AcDbLongTransaction
  3
AutoCAD 2000
 90
        0
280
     0
281
     0
  0
CLASS
  1
LWPOLYLINE
  2
AcDbPolyline
  3
AutoCAD 2000
 90
        0
280
     0
281
     1
  0
CLASS
  1
HATCH
  2
AcDbHatch
  3
AutoCAD 2000
 90
        0
280
     0
281
     1
  0
CLASS
  1
XRECORD
  2
AcDbXrecord
  3
AutoCAD 2000
 90
        0
280
     0
281
     0
  0
CLASS
  1
LONG_TRANSACTION
  2
AcDbLongTransaction
  3
AutoCAD 2000
 90
        0
280
     0
281
     0
  0
CLASS
  1
LWPOLYLINE
  2
AcDbPolyline
  3
AutoCAD 2000
 90
        0
280
     0
281
     1
  0
CLASS
  1
HATCH
  2
AcDbHatch
  3
AutoCAD 2000
 90
        0
280
     0
281
     1
  0
CLASS
  1
XRECORD
  2
AcDbXrecord
  3
AutoCAD 2000
 90
        0
280
     0
281
     0
  0
CLASS
  1
LONG_TRANSACTION
  2
AcDbLongTransaction
  3
AutoCAD 2000
 90
        0
280
     0
281
     0
  0
CLASS
  1
LWPOLYLINE
  2
AcDbPolyline
  3
AutoCAD 2000
 90
        0
280
     0
281
     1
  0
CLASS
  1
HATCH
  2
AcDbHatch
  3
AutoCAD 2000
 90
        0
280
     0
281
     1
  0
CLASS
  1
XRECORD
  2
AcDbXrecord
  3
AutoCAD 2000
 90
        0
280
     0
281
     0
  0
CLASS
  1
PLOTSETTINGS
  2
AcDbPlotSettings
  3
AutoCAD 2000
 90
        0
280
     0
281
     0
  0
CLASS
  1
ACME_DOCUMENT
  2
AcMeDbDoc
  3
AcMeServices
 90
        0
280
     0
281
     0
  0
CLASS
  1
AMGSETTINGSOBJ
  2
AmgSettingsObj
  3
"AcadM|Product Description: AutoCAD Mechanical 2000|Company: Autodesk"
 90
        0
280
     0
281
     0
  0
CLASS
  1
ACMESCOPE
  2
AcMeScope
  3
AcMeServices
 90
        0
280
     0
281
     0
  0
CLASS
  1
ACMECOMMANDHISTORY
  2
AcMeCommandHistory
  3
AcMeServices
 90
        0
280
     0
281
     0
  0
CLASS
  1
DICTIONARYVAR
  2
AcDbDictionaryVar
  3
AutoCAD 2000
 90
        0
280
     0
281
     0
  0
CLASS
  1
ACIMSYSVARMAN
  2
AcImSysVarManager
  3
AcMeServices
 90
        0
280
     0
281
     0
  0
CLASS
  1
ACIMREALSYSVAR
  2
AcImRealSysVar
  3
AcMeServices
 90
        0
280
     0
281
     0
  0
CLASS
  1
ACIMINTSYSVAR
  2
AcImIntSysVar
  3
AcMeServices
 90
        0
280
     0
281
     0
  0
CLASS
  1
ACMEDRAWINGMAN
  2
AcMeDrawingMan
  3
AcMeServices
 90
        0
280
     0
281
     0
  0
CLASS
  1
ACMEVIEW
  2
AcMeView
  3
AcMeServices
 90
        0
280
     0
281
     0
  0
CLASS
  1
ACDBENTITYCACHE
  2
AcMeEntityCache
  3
AcMeServices
 90
        0
280
     0
281
     0
  0
CLASS
  1
GSMANAGER
  2
AcMeGSManager
  3
AcMeServices
 90
        0
280
     0
281
     0
  0
CLASS
  1
AmdtInternalReactor
  2
AmdtInternalReactor
  3
AcMeServices
 90
        0
280
     0
281
     0
  0
CLASS
  1
ACMESTATEMGR
  2
AcMeStateMgr
  3
AcMeServices
 90
        0
280
     0
281
     0
  0
CLASS
  1
ACME_DATABASE
  2
AcMeDbDatabase
  3
AcMeServices
 90
        0
280
     0
281
     0
  0
CLASS
  1
ACRFINSADJUSTERMGR
  2
AcRfInsAdjusterMgr
  3
AcMeServices
 90
        0
280
     0
281
     0
  0
CLASS
  1
ACMDATADICTIONARY
  2
AcmDataDictionary
  3
"AcmSymBB|Product Description: AutoCAD Mechanical 2000|Company: Autodesk"
 90
        0
280
     0
281
     0
  0
CLASS
  1
ACMDATAENTRYBLOCK
  2
AcmDataEntryBlock
  3
"AcmSymBB|Product Description: AutoCAD Mechanical 2000|Company: Autodesk"
 90
        0
280
     0
281
     0
  0
CLASS
  1
AMGOBJPROPCFG
  2
AmgObjPropCfg
  3
"AmgLay|Product Description: AutoCAD Mechanical 2000|Company: Autodesk"
 90
        1
280
     0
281
     0
  0
CLASS
  1
ACAMGFILTERDAT
  2
AcAmgFilterDat
  3
"AcadM|Product Description: AutoCAD Mechanical 2000|Company: Autodesk"
 90
        0
280
     0
281
     0
  0
CLASS
  1
LAYER_INDEX
  2
AcDbLayerIndex
  3
AutoCAD 2000
 90
        0
280
     0
281
     0
  0
CLASS
  1
IDBUFFER
  2
AcDbIdBuffer
  3
AutoCAD 2000
 90
        0
280
     0
281
     0
  0
CLASS
  1
LONG_TRANSACTION
  2
AcDbLongTransaction
  3
AutoCAD 2000
 90
        0
280
     0
281
     0
  0
CLASS
  1
LWPOLYLINE
  2
AcDbPolyline
  3
AutoCAD 2000
 90
        0
280
     0
281
     1
  0
CLASS
  1
HATCH
  2
AcDbHatch
  3
AutoCAD 2000
 90
        0
280
     0
281
     1
  0
CLASS
  1
XRECORD
  2
AcDbXrecord
  3
AutoCAD 2000
 90
        0
280
     0
281
     0
  0
CLASS
  1
LONG_TRANSACTION
  2
AcDbLongTransaction
  3
AutoCAD 2000
 90
        0
280
     0
281
     0
  0
CLASS
  1
LWPOLYLINE
  2
AcDbPolyline
  3
AutoCAD 2000
 90
        0
280
     0
281
     1
  0
CLASS
  1
HATCH
  2
AcDbHatch
  3
AutoCAD 2000
 90
        0
280
     0
281
     1
  0
CLASS
  1
XRECORD
  2
AcDbXrecord
  3
AutoCAD 2000
 90
        0
280
     0
281
     0
  0
CLASS
  1
LONG_TRANSACTION
  2
AcDbLongTransaction
  3
AutoCAD 2000
 90
        0
280
     0
281
     0
  0
CLASS
  1
LWPOLYLINE
  2
AcDbPolyline
  3
AutoCAD 2000
 90
        0
280
     0
281
     1
  0
CLASS
  1
HATCH
  2
AcDbHatch
  3
AutoCAD 2000
 90
        0
280
     0
281
     1
  0
CLASS
  1
XRECORD
  2
AcDbXrecord
  3
AutoCAD 2000
 90
        0
280
     0
281
     0
  0
CLASS
  1
LONG_TRANSACTION
  2
AcDbLongTransaction
  3
AutoCAD 2000
 90
        0
280
     0
281
     0
  0
CLASS
  1
LWPOLYLINE
  2
AcDbPolyline
  3
AutoCAD 2000
 90
        0
280
     0
281
     1
  0
CLASS
  1
HATCH
  2
AcDbHatch
  3
AutoCAD 2000
 90
        0
280
     0
281
     1
  0
CLASS
  1
XRECORD
  2
AcDbXrecord
  3
AutoCAD 2000
 90
        0
280
     0
281
     0
  0
CLASS
  1
LONG_TRANSACTION
  2
AcDbLongTransaction
  3
AutoCAD 2000
 90
        0
280
     0
281
     0
  0
CLASS
  1
LWPOLYLINE
  2
AcDbPolyline
  3
AutoCAD 2000
 90
        0
280
     0
281
     1
  0
CLASS
  1
HATCH
  2
AcDbHatch
  3
AutoCAD 2000
 90
        0
280
     0
281
     1
  0
CLASS
  1
XRECORD
  2
AcDbXrecord
  3
AutoCAD 2000
 90
        0
280
     0
281
     0
  0
CLASS
  1
LONG_TRANSACTION
  2
AcDbLongTransaction
  3
AutoCAD 2000
 90
        0
280
     0
281
     0
  0
CLASS
  1
LWPOLYLINE
  2
AcDbPolyline
  3
AutoCAD 2000
 90
        0
280
     0
281
     1
  0
CLASS
  1
HATCH
  2
AcDbHatch
  3
AutoCAD 2000
 90
        0
280
     0
281
     1
  0
CLASS
  1
XRECORD
  2
AcDbXrecord
  3
AutoCAD 2000
 90
        0
280
     0
281
     0
  0
CLASS
  1
LONG_TRANSACTION
  2
AcDbLongTransaction
  3
AutoCAD 2000
 90
        0
280
     0
281
     0
  0
CLASS
  1
LWPOLYLINE
  2
AcDbPolyline
  3
AutoCAD 2000
 90
        0
280
     0
281
     1
  0
CLASS
  1
HATCH
  2
AcDbHatch
  3
AutoCAD 2000
 90
        0
280
     0
281
     1
  0
CLASS
  1
XRECORD
  2
AcDbXrecord
  3
AutoCAD 2000
 90
        0
280
     0
281
     0
  0
CLASS
  1
LONG_TRANSACTION
  2
AcDbLongTransaction
  3
AutoCAD 2000
 90
        0
280
     0
281
     0
  0
CLASS
  1
LWPOLYLINE
  2
AcDbPolyline
  3
AutoCAD 2000
 90
        0
280
     0
281
     1
  0
CLASS
  1
HATCH
  2
AcDbHatch
  3
AutoCAD 2000
 90
        0
280
     0
281
     1
  0
CLASS
  1
XRECORD
  2
AcDbXrecord
  3
AutoCAD 2000
 90
        0
280
     0
281
     0
  0
CLASS
  1
LONG_TRANSACTION
  2
AcDbLongTransaction
  3
AutoCAD 2000
 90
        0
280
     0
281
     0
  0
CLASS
  1
LWPOLYLINE
  2
AcDbPolyline
  3
AutoCAD 2000
 90
        0
280
     0
281
     1
  0
CLASS
  1
HATCH
  2
AcDbHatch
  3
AutoCAD 2000
 90
        0
280
     0
281
     1
  0
CLASS
  1
XRECORD
  2
AcDbXrecord
  3
AutoCAD 2000
 90
        0
280
     0
281
     0
  0
CLASS
  1
LONG_TRANSACTION
  2
AcDbLongTransaction
  3
AutoCAD 2000
 90
        0
280
     0
281
     0
  0
CLASS
  1
LWPOLYLINE
  2
AcDbPolyline
  3
AutoCAD 2000
 90
        0
280
     0
281
     1
  0
CLASS
  1
HATCH
  2
AcDbHatch
  3
AutoCAD 2000
 90
        0
280
     0
281
     1
  0
CLASS
  1
XRECORD
  2
AcDbXrecord
  3
AutoCAD 2000
 90
        0
280
     0
281
     0
  0
CLASS
  1
LONG_TRANSACTION
  2
AcDbLongTransaction
  3
AutoCAD 2000
 90
        0
280
     0
281
     0
  0
CLASS
  1
LWPOLYLINE
  2
AcDbPolyline
  3
AutoCAD 2000
 90
        0
280
     0
281
     1
  0
CLASS
  1
HATCH
  2
AcDbHatch
  3
AutoCAD 2000
 90
        0
280
     0
281
     1
  0
CLASS
  1
XRECORD
  2
AcDbXrecord
  3
AutoCAD 2000
 90
        0
280
     0
281
     0
  0
CLASS
  1
LONG_TRANSACTION
  2
AcDbLongTransaction
  3
AutoCAD 2000
 90
        0
280
     0
281
     0
  0
CLASS
  1
LWPOLYLINE
  2
AcDbPolyline
  3
AutoCAD 2000
 90
        0
280
     0
281
     1
  0
CLASS
  1
HATCH
  2
AcDbHatch
  3
AutoCAD 2000
 90
        0
280
     0
281
     1
  0
CLASS
  1
XRECORD
  2
AcDbXrecord
  3
AutoCAD 2000
 90
        0
280
     0
281
     0
  0
CLASS
  1
LONG_TRANSACTION
  2
AcDbLongTransaction
  3
AutoCAD 2000
 90
        0
280
     0
281
     0
  0
CLASS
  1
LWPOLYLINE
  2
AcDbPolyline
  3
AutoCAD 2000
 90
        0
280
     0
281
     1
  0
CLASS
  1
HATCH
  2
AcDbHatch
  3
AutoCAD 2000
 90
        0
280
     0
281
     1
  0
CLASS
  1
XRECORD
  2
AcDbXrecord
  3
AutoCAD 2000
 90
        0
280
     0
281
     0
  0
CLASS
  1
LONG_TRANSACTION
  2
AcDbLongTransaction
  3
AutoCAD 2000
 90
        0
280
     0
281
     0
  0
CLASS
  1
LWPOLYLINE
  2
AcDbPolyline
  3
AutoCAD 2000
 90
        0
280
     0
281
     1
  0
CLASS
  1
HATCH
  2
AcDbHatch
  3
AutoCAD 2000
 90
        0
280
     0
281
     1
  0
CLASS
  1
XRECORD
  2
AcDbXrecord
  3
AutoCAD 2000
 90
        0
280
     0
281
     0
  0
CLASS
  1
LONG_TRANSACTION
  2
AcDbLongTransaction
  3
AutoCAD 2000
 90
        0
280
     0
281
     0
  0
CLASS
  1
LWPOLYLINE
  2
AcDbPolyline
  3
AutoCAD 2000
 90
        0
280
     0
281
     1
  0
CLASS
  1
HATCH
  2
AcDbHatch
  3
AutoCAD 2000
 90
        0
280
     0
281
     1
  0
CLASS
  1
XRECORD
  2
AcDbXrecord
  3
AutoCAD 2000
 90
        0
280
     0
281
     0
  0
CLASS
  1
LONG_TRANSACTION
  2
AcDbLongTransaction
  3
AutoCAD 2000
 90
        0
280
     0
281
     0
  0
CLASS
  1
LWPOLYLINE
  2
AcDbPolyline
  3
AutoCAD 2000
 90
        0
280
     0
281
     1
  0
CLASS
  1
HATCH
  2
AcDbHatch
  3
AutoCAD 2000
 90
        0
280
     0
281
     1
  0
CLASS
  1
XRECORD
  2
AcDbXrecord
  3
AutoCAD 2000
 90
        0
280
     0
281
     0
  0
CLASS
  1
LONG_TRANSACTION
  2
AcDbLongTransaction
  3
AutoCAD 2000
 90
        0
280
     0
281
     0
  0
CLASS
  1
LWPOLYLINE
  2
AcDbPolyline
  3
AutoCAD 2000
 90
        0
280
     0
281
     1
  0
CLASS
  1
HATCH
  2
AcDbHatch
  3
AutoCAD 2000
 90
        0
280
     0
281
     1
  0
CLASS
  1
XRECORD
  2
AcDbXrecord
  3
AutoCAD 2000
 90
        0
280
     0
281
     0
  0
CLASS
  1
LONG_TRANSACTION
  2
AcDbLongTransaction
  3
AutoCAD 2000
 90
        0
280
     0
281
     0
  0
CLASS
  1
LWPOLYLINE
  2
AcDbPolyline
  3
AutoCAD 2000
 90
        0
280
     0
281
     1
  0
CLASS
  1
HATCH
  2
AcDbHatch
  3
AutoCAD 2000
 90
        0
280
     0
281
     1
  0
CLASS
  1
XRECORD
  2
AcDbXrecord
  3
AutoCAD 2000
 90
        0
280
     0
281
     0
  0
CLASS
  1
LONG_TRANSACTION
  2
AcDbLongTransaction
  3
AutoCAD 2000
 90
        0
280
     0
281
     0
  0
CLASS
  1
LWPOLYLINE
  2
AcDbPolyline
  3
AutoCAD 2000
 90
        0
280
     0
281
     1
  0
CLASS
  1
HATCH
  2
AcDbHatch
  3
AutoCAD 2000
 90
        0
280
     0
281
     1
  0
CLASS
  1
XRECORD
  2
AcDbXrecord
  3
AutoCAD 2000
 90
        0
280
     0
281
     0
  0
CLASS
  1
LONG_TRANSACTION
  2
AcDbLongTransaction
  3
AutoCAD 2000
 90
        0
280
     0
281
     0
  0
CLASS
  1
LWPOLYLINE
  2
AcDbPolyline
  3
AutoCAD 2000
 90
        0
280
     0
281
     1
  0
CLASS
  1
HATCH
  2
AcDbHatch
  3
AutoCAD 2000
 90
        0
280
     0
281
     1
  0
CLASS
  1
XRECORD
  2
AcDbXrecord
  3
AutoCAD 2000
 90
        0
280
     0
281
     0
  0
ENDSEC
  0
SECTION
  2
TABLES
  0
TABLE
  2
VPORT
  5
8
330
0
100
AcDbSymbolTable
 70
     1
  0
VPORT
  5
4042
330
8
100
AcDbSymbolTableRecord
100
AcDbViewportTableRecord
  2
*ACTIVE
 70
     0
 10
0.0
 20
0.0
 11
1.0
 21
1.0
 12
82.00250839616741
 22
51.25156462250925
 13
0.0
 23
0.0
 14
0.5
 24
0.5
 15
0.5
 25
0.5
 16
0.0
 26
0.0
 36
1.0
 17
0.0
 27
0.0
 37
0.0
 40
105.8728797273558
 41
1.556803995006242
 42
50.0
 43
0.0
 44
0.0
 50
0.0
 51
0.0
 71
     0
 72
   100
 73
     1
 74
     2
 75
     0
 76
     0
 77
     0
 78
     0
  0
ENDTAB
  0
TABLE
  2
LTYPE
  5
5
330
0
100
AcDbSymbolTable
 70
     4
  0
LTYPE
  5
14
330
5
100
AcDbSymbolTableRecord
100
AcDbLinetypeTableRecord
  2
BYBLOCK
 70
     0
  3

 72
    65
 73
     0
 40
0.0
  0
LTYPE
  5
15
330
5
100
AcDbSymbolTableRecord
100
AcDbLinetypeTableRecord
  2
BYLAYER
 70
     0
  3

 72
    65
 73
     0
 40
0.0
  0
LTYPE
  5
16
330
5
100
AcDbSymbolTableRecord
100
AcDbLinetypeTableRecord
  2
CONTINUOUS
 70
     0
  3
Solid line
 72
    65
 73
     0
 40
0.0
  0
LTYPE
  5
3D
330
5
100
AcDbSymbolTableRecord
100
AcDbLinetypeTableRecord
  2
CENTER2
 70
     0
  3
Center (.5x) ___ _ ___ _ ___ _ ___ _ ___ _ ___
 72
    65
 73
     4
 40
1.125
 49
0.75
 74
     0
 49
-0.125
 74
     0
 49
0.125
 74
     0
 49
-0.125
 74
     0
  0
LTYPE
  5
40
330
5
100
AcDbSymbolTableRecord
100
AcDbLinetypeTableRecord
  2
HIDDEN2
 70
     0
  3
Hidden (.5x) _ _ _ _ _ _ _ _ _ _ _ _ _ _ _ _ _
 72
    65
 73
     2
 40
0.1875
 49
0.125
 74
     0
 49
-0.0625
 74
     0
  0
LTYPE
  5
41
330
5
100
AcDbSymbolTableRecord
100
AcDbLinetypeTableRecord
  2
PHANTOM2
 70
     0
  3
Phantom (.5x) ___ _ _ ___ _ _ ___ _ _ ___ _ _
 72
    65
 73
     6
 40
1.25
 49
0.625
 74
     0
 49
-0.125
 74
     0
 49
0.125
 74
     0
 49
-0.125
 74
     0
 49
0.125
 74
     0
 49
-0.125
 74
     0
  0
ENDTAB
  0
TABLE
  2
LAYER
  5
2
330
0
100
AcDbSymbolTable
 70
    13
  0
LAYER
  5
10
330
2
100
AcDbSymbolTableRecord
100
AcDbLayerTableRecord
  2
0
 70
     0
 62
     7
  6
CONTINUOUS
  0
LAYER
  5
43
330
2
100
AcDbSymbolTableRecord
100
AcDbLayerTableRecord
  2
CENTER1
 70
     0
 62
     2
  6
CENTER2
  0
LAYER
  5
47
330
2
100
AcDbSymbolTableRecord
100
AcDbLayerTableRecord
  2
CONTINUOUS1
 70
     0
 62
     7
  6
CONTINUOUS
  0
LAYER
  5
48
330
2
100
AcDbSymbolTableRecord
100
AcDbLayerTableRecord
  2
CONTINUOUS2
 70
     0
 62
   254
  6
CONTINUOUS
  0
LAYER
  5
49
330
2
100
AcDbSymbolTableRecord
100
AcDbLayerTableRecord
  2
CONTINUOUS3
 70
     0
 62
   253
  6
CONTINUOUS
  0
LAYER
  5
4D
330
2
100
AcDbSymbolTableRecord
100
AcDbLayerTableRecord
  2
DIM
 70
     0
 62
     2
  6
CONTINUOUS
  0
LAYER
  5
4E
330
2
100
AcDbSymbolTableRecord
100
AcDbLayerTableRecord
  2
HIDDEN1
 70
     0
 62
     5
  6
HIDDEN2
  0
LAYER
  5
52
330
2
100
AcDbSymbolTableRecord
100
AcDbLayerTableRecord
  2
PHANTOM1
 70
     0
 62
     6
  6
PHANTOM2
  0
LAYER
  5
55
330
2
100
AcDbSymbolTableRecord
100
AcDbLayerTableRecord
  2
TEXT1
 70
     0
 62
     3
  6
CONTINUOUS
  0
LAYER
  5
58
330
2
100
AcDbSymbolTableRecord
100
AcDbLayerTableRecord
  2
TITLEBLOCK
 70
     0
 62
     9
  6
CONTINUOUS
  0
LAYER
  5
59
330
2
100
AcDbSymbolTableRecord
100
AcDbLayerTableRecord
  2
VIEWPORT
 70
     0
 62
     9
  6
CONTINUOUS
  0
LAYER
  5
E3D
330
2
100
AcDbSymbolTableRecord
100
AcDbLayerTableRecord
  2
DEFPOINTS
 70
     0
 62
     7
  6
CONTINUOUS
  0
LAYER
  5
1DDE
330
2
100
AcDbSymbolTableRecord
100
AcDbLayerTableRecord
  2
MFG_NOTES
 70
     1
 62
     7
  6
CONTINUOUS
  0
ENDTAB
  0
TABLE
  2
STYLE
  5
3
330
0
100
AcDbSymbolTable
 70
     3
  0
STYLE
  5
11
330
3
100
AcDbSymbolTableRecord
100
AcDbTextStyleTableRecord
  2
STANDARD
 70
     0
 40
0.0
 41
1.0
 50
0.0
 71
     0
 42
0.2
  3
txt
  4

  0
STYLE
  5
36
330
3
100
AcDbSymbolTableRecord
100
AcDbTextStyleTableRecord
  2
ROMANS
 70
     0
 40
0.0
 41
1.0
 50
0.0
 71
     0
 42
0.2
  3
romans.shx
  4

  0
STYLE
  5
6CC
330
3
100
AcDbSymbolTableRecord
100
AcDbTextStyleTableRecord
  2
M_STANDARD
 70
     0
 40
0.0
 41
0.8
 50
0.0
 71
     0
 42
0.0
  3
MEDUSA.SHX
  4

  0
ENDTAB
  0
TABLE
  2
VIEW
  5
6
330
0
100
AcDbSymbolTable
 70
     0
  0
ENDTAB
  0
TABLE
  2
UCS
  5
7
330
0
100
AcDbSymbolTable
 70
     0
  0
ENDTAB
  0
TABLE
  2
APPID
  5
9
330
0
100
AcDbSymbolTable
 70
    12
  0
APPID
  5
12
330
9
100
AcDbSymbolTableRecord
100
AcDbRegAppTableRecord
  2
ACAD
 70
     0
  0
APPID
  5
6B
330
9
100
AcDbSymbolTableRecord
100
AcDbRegAppTableRecord
  2
DCO15
 70
     0
  0
APPID
  5
370
330
9
100
AcDbSymbolTableRecord
100
AcDbRegAppTableRecord
  2
MCAD_NO_VIS
 70
     0
  0
APPID
  5
371
330
9
100
AcDbSymbolTableRecord
100
AcDbRegAppTableRecord
  2
ACAD_TEMP_GRAPHIC
 70
     0
  0
APPID
  5
387
330
9
100
AcDbSymbolTableRecord
100
AcDbRegAppTableRecord
  2
GENIUS_GENSCREG_15
 70
     0
  0
APPID
  5
389
330
9
100
AcDbSymbolTableRecord
100
AcDbRegAppTableRecord
  2
GENIUS_GENODEF_13
 70
     0
  0
APPID
  5
38A
330
9
100
AcDbSymbolTableRecord
100
AcDbRegAppTableRecord
  2
GENIUS_GENOBJ-N-SDF_13
 70
     0
  0
APPID
  5
38B
330
9
100
AcDbSymbolTableRecord
100
AcDbRegAppTableRecord
  2
GENIUS_GENOENT_13
 70
     0
  0
APPID
  5
38C
330
9
100
AcDbSymbolTableRecord
100
AcDbRegAppTableRecord
  2
GENIUS_GENOREF_13
 70
     0
  0
APPID
  5
38D
330
9
100
AcDbSymbolTableRecord
100
AcDbRegAppTableRecord
  2
GENIUS_GENOLIS_13
 70
     0
  0
APPID
  5
6CE
330
9
100
AcDbSymbolTableRecord
100
AcDbRegAppTableRecord
  2
MED_PRIMTYPE
 70
     0
  0
APPID
  5
2FFC
330
9
100
AcDbSymbolTableRecord
100
AcDbRegAppTableRecord
  2
_APP0
 70
     0
  0
ENDTAB
  0
TABLE
  2
DIMSTYLE
  5
A
330
0
100
AcDbSymbolTable
 70
     1
  0
DIMSTYLE
105
E13
102
{ACAD_REACTORS
330
3A28
330
3A29
330
3A2A
330
3A2B
330
3A2C
330
3A2D
330
3A2E
330
3A2F
330
3A30
330
3A31
330
3A32
330
3C3F
330
3C4D
330
3C5B
330
3C69
330
3C77
102
}
330
A
100
AcDbSymbolTableRecord
100
AcDbDimStyleTableRecord
  2
SCHNEIDERELECTRIC
 70
     0
  3

  4

  5
SEARROW
  6

  7

 40
0.0
 41
0.07
 42
0.0625
 43
0.38
 44
0.0625
 45
0.001
 46
0.0
 47
0.0
 48
0.0
140
0.1
141
0.09
142
0.0
143
25.4
144
1.0
145
0.0
146
1.0
147
0.04
 71
     0
 72
     0
 73
     1
 74
     1
 75
     0
 76
     0
 77
     0
 78
     4
170
     0
171
     1
172
     0
173
     0
174
     0
175
     0
176
   256
177
   256
178
   256
270
     2
271
     2
272
     2
273
     2
274
     1
340
36
275
     0
280
     0
281
     0
282
     0
283
     1
284
     0
285
     0
286
     0
287
     3
288
     0
  0
ENDTAB
  0
TABLE
  2
BLOCK_RECORD
  5
1
330
0
100
AcDbSymbolTable
 70
    26
  0
BLOCK_RECORD
  5
1F
102
{ACAD_XDICTIONARY
360
73
102
}
330
1
100
AcDbSymbolTableRecord
100
AcDbBlockTableRecord
  2
*MODEL_SPACE
  0
BLOCK_RECORD
  5
1B
102
{ACAD_XDICTIONARY
360
75
102
}
330
1
100
AcDbSymbolTableRecord
100
AcDbBlockTableRecord
  2
*PAPER_SPACE
  0
BLOCK_RECORD
  5
841
330
1
100
AcDbSymbolTableRecord
100
AcDbBlockTableRecord
  2
LOGO-PAD
1001
ACAD
1000
DesignCenter Data
1002
{
1070
     1
1070
     1
1002
}
  0
BLOCK_RECORD
  5
AE5
330
1
100
AcDbSymbolTableRecord
100
AcDbBlockTableRecord
  2
TITLE-PAD
1001
ACAD
1000
DesignCenter Data
1002
{
1070
     1
1070
     1
1002
}
  0
BLOCK_RECORD
  5
E0D
330
1
100
AcDbSymbolTableRecord
100
AcDbBlockTableRecord
  2
SEARROW
1001
ACAD
1000
DesignCenter Data
1002
{
1070
     1
1070
     1
1002
}
  0
BLOCK_RECORD
  5
E42
330
1
100
AcDbSymbolTableRecord
100
AcDbBlockTableRecord
  2
SETUP
  0
BLOCK_RECORD
  5
F54
330
1
100
AcDbSymbolTableRecord
100
AcDbBlockTableRecord
  2
MEDCLUMP_DIM_1475_
  0
BLOCK_RECORD
  5
F57
330
1
100
AcDbSymbolTableRecord
100
AcDbBlockTableRecord
  2
MEDCLUMP_DMS_1474_
  0
BLOCK_RECORD
  5
F5B
330
1
100
AcDbSymbolTableRecord
100
AcDbBlockTableRecord
  2
MEDCLUMP_DIM_1451_
  0
BLOCK_RECORD
  5
F5E
330
1
100
AcDbSymbolTableRecord
100
AcDbBlockTableRecord
  2
MEDCLUMP_DMS_1450_
  0
BLOCK_RECORD
  5
F62
330
1
100
AcDbSymbolTableRecord
100
AcDbBlockTableRecord
  2
MEDCLUMP_DIM_1143_
  0
BLOCK_RECORD
  5
F65
330
1
100
AcDbSymbolTableRecord
100
AcDbBlockTableRecord
  2
MEDCLUMP_DMS_1142_
  0
BLOCK_RECORD
  5
3A9F
330
1
100
AcDbSymbolTableRecord
100
AcDbBlockTableRecord
  2
*D10
  0
BLOCK_RECORD
  5
3AAC
330
1
100
AcDbSymbolTableRecord
100
AcDbBlockTableRecord
  2
*D11
  0
BLOCK_RECORD
  5
3AB9
330
1
100
AcDbSymbolTableRecord
100
AcDbBlockTableRecord
  2
*D12
  0
BLOCK_RECORD
  5
3AC6
330
1
100
AcDbSymbolTableRecord
100
AcDbBlockTableRecord
  2
*D13
  0
BLOCK_RECORD
  5
3AD3
330
1
100
AcDbSymbolTableRecord
100
AcDbBlockTableRecord
  2
*D14
  0
BLOCK_RECORD
  5
3AE0
330
1
100
AcDbSymbolTableRecord
100
AcDbBlockTableRecord
  2
*D15
  0
BLOCK_RECORD
  5
3AED
330
1
100
AcDbSymbolTableRecord
100
AcDbBlockTableRecord
  2
*D16
  0
BLOCK_RECORD
  5
3AFA
330
1
100
AcDbSymbolTableRecord
100
AcDbBlockTableRecord
  2
*D17
  0
BLOCK_RECORD
  5
3B07
330
1
100
AcDbSymbolTableRecord
100
AcDbBlockTableRecord
  2
*D18
  0
BLOCK_RECORD
  5
3B14
330
1
100
AcDbSymbolTableRecord
100
AcDbBlockTableRecord
  2
*D19
  0
BLOCK_RECORD
  5
3B22
330
1
100
AcDbSymbolTableRecord
100
AcDbBlockTableRecord
  2
*D20
  0
BLOCK_RECORD
  5
3C40
330
1
100
AcDbSymbolTableRecord
100
AcDbBlockTableRecord
  2
*D21
  0
BLOCK_RECORD
  5
3C4E
330
1
100
AcDbSymbolTableRecord
100
AcDbBlockTableRecord
  2
*D22
  0
BLOCK_RECORD
  5
3C5C
330
1
100
AcDbSymbolTableRecord
100
AcDbBlockTableRecord
  2
*D23
  0
BLOCK_RECORD
  5
3C6A
330
1
100
AcDbSymbolTableRecord
100
AcDbBlockTableRecord
  2
*D24
  0
BLOCK_RECORD
  5
3C78
330
1
100
AcDbSymbolTableRecord
100
AcDbBlockTableRecord
  2
*D25
  0
ENDTAB
  0
ENDSEC
  0
SECTION
  2
BLOCKS
  0
BLOCK
  5
20
330
1F
100
AcDbEntity
  8
0
100
AcDbBlockBegin
  2
*MODEL_SPACE
 70
     0
 10
0.0
 20
0.0
 30
0.0
  3
*MODEL_SPACE
  1

  0
ENDBLK
  5
21
330
1F
100
AcDbEntity
  8
0
100
AcDbBlockEnd
  0
BLOCK
  5
1C
330
1B
100
AcDbEntity
 67
     1
  8
0
100
AcDbBlockBegin
  2
*PAPER_SPACE
 70
     0
 10
0.0
 20
0.0
 30
0.0
  3
*PAPER_SPACE
  1

  0
ENDBLK
  5
1D
330
1B
100
AcDbEntity
 67
     1
  8
0
100
AcDbBlockEnd
  0
BLOCK
  5
852
330
841
100
AcDbEntity
  8
0
100
AcDbBlockBegin
  2
LOGO-PAD
 70
     0
 10
0.0
 20
0.0
 30
0.0
  3
LOGO-PAD
  1

  0
HATCH
  5
842
330
841
100
AcDbEntity
  8
TITLEBLOCK
 62
     0
100
AcDbHatch
 10
0.0
 20
0.0
 30
0.0
210
0.0
220
0.0
230
1.0
  2
SOLID
 70
     1
 71
     0
 91
        2
 92
        1
 93
       11
 72
     2
 10
1.203771209334867
 20
0.3650136751459491
 40
0.021562648149145
 50
90.00000747299615
 51
179.9997683268519
 73
     1
 72
     1
 10
1.182208561185898
 20
0.3650137623336376
 11
1.182208392435807
 21
0.2795138227272444
 72
     2
 10
1.203771079023129
 20
0.2795136821032751
 40
0.0215626865877801
 50
179.9996263378447
 51
269.9998903896797
 73
     1
 72
     1
 10
1.203771037772394
 20
0.2579509955155343
 11
1.330521045577125
 21
0.2579511736405264
 72
     2
 10
1.330521265257171
 20
0.2795136382789064
 40
0.021562464639499
 50
269.9994162661957
 51
311.7040125634689
 73
     1
 72
     1
 10
1.344866398698837
 20
0.2634152834601535
 11
1.352083334663557
 21
0.2579511736405264
 72
     1
 10
1.352083334663557
 20
0.2579511736405264
 11
1.365099386916806
 21
0.2751416404960081
 72
     1
 10
1.365099386916806
 20
0.2751416404960081
 11
1.352083522163621
 21
0.284997066934386
 72
     1
 10
1.352083522163621
 20
0.284997066934386
 11
1.352083690913712
 21
0.3650136723335662
 72
     2
 10
1.330521042764654
 20
0.3650136751460369
 40
0.0215626481490576
 50
359.9999925267666
 51
449.9999925267678
 73
     1
 72
     1
 10
1.330521045577125
 20
0.3865763232950938
 11
1.203771206522485
 21
0.3865763232950938
 97
        0
 92
       16
 93
       10
 72
     2
 10
1.21455271481628
 20
0.3542325202904111
 40
0.0107811520434708
 50
90.00043844291294
 51
179.9999701074038
 73
     1
 72
     1
 10
1.203771562772811
 20
0.3542325259151993
 11
1.203771562772811
 21
0.2902950591455122
 72
     2
 10
1.214552849813946
 20
0.2902948416431456
 40
0.0107812870433294
 50
179.9988441113203
 51
269.9988441346395
 73
     1
 72
     1
 10
1.214552632315967
 20
0.2795135546020104
 11
1.323606134809704
 21
0.2795135546020104
 72
     1
 10
1.323606134809704
 20
0.2795135546020104
 11
1.280867956889135
 21
0.311873265117333
 72
     1
 10
1.280867956889135
 20
0.311873265117333
 11
1.293884009142384
 21
0.3290635557226322
 72
     1
 10
1.293884009142384
 20
0.3290635557226322
 11
1.330521045577125
 21
0.3013240413506308
 72
     1
 10
1.330521045577125
 20
0.3013240413506308
 11
1.330521045577125
 21
0.3542324377902786
 72
     2
 10
1.319739809158772
 20
0.3542324359152127
 40
0.0107812364183532
 50
0.0000099648460607
 51
90.00000996484372
 73
     1
 72
     1
 10
1.319739807283706
 20
0.3650136723335662
 11
1.214552632315967
 21
0.3650136723335662
 97
        0
 75
     0
 76
     1
 98
        1
 10
-7.279586802153931
 20
-0.4081141432880261
  0
HATCH
  5
843
330
841
100
AcDbEntity
  8
TITLEBLOCK
 62
     0
100
AcDbHatch
 10
0.0
 20
0.0
 30
0.0
210
0.0
220
0.0
230
1.0
  2
SOLID
 70
     1
 71
     0
 91
        1
 92
        1
 93
        4
 72
     1
 10
3.703333445713536
 20
0.1990762889281312
 11
1.018147379006204
 21
0.1990762889281312
 72
     1
 10
1.018147379006204
 20
0.1990762889281312
 11
1.018147379006204
 21
0.220706173683743
 72
     1
 10
1.018147379006204
 20
0.220706173683743
 11
3.703333445713536
 21
0.220706173683743
 72
     1
 10
3.703333445713536
 20
0.220706173683743
 11
3.703333445713536
 21
0.1990762889281312
 97
        0
 75
     0
 76
     1
 98
        1
 10
-7.279586802153931
 20
-0.4081141432880261
  0
HATCH
  5
844
330
841
100
AcDbEntity
  8
TITLEBLOCK
 62
     0
100
AcDbHatch
 10
0.0
 20
0.0
 30
0.0
210
0.0
220
0.0
230
1.0
  2
SOLID
 70
     1
 71
     0
 91
        4
 92
        1
 93
        4
 72
     1
 10
0.8306472632318495
 20
0.4814782717956759
 11
0.4556470182475714
 21
0.4814782717956759
 72
     1
 10
0.4556470182475714
 20
0.4814782717956759
 11
0.4556470182475714
 21
0.1064783844396073
 72
     1
 10
0.4556470182475714
 20
0.1064783844396073
 11
0.8306472632318495
 21
0.1064783844396073
 72
     1
 10
0.8306472632318495
 20
0.1064783844396073
 11
0.8306472632318495
 21
0.4814782717956759
 97
        0
 92
        0
 93
       10
 72
     1
 10
0.7368972019857374
 20
0.4177282462416896
 11
0.5193971779121789
 21
0.4177282462416896
 72
     1
 10
0.5193971779121789
 20
0.4177282462416896
 11
0.5193971779121789
 21
0.37460312508514
 72
     1
 10
0.5193971779121789
 20
0.37460312508514
 11
0.5531473465883146
 21
0.37460312508514
 72
     1
 10
0.5531473465883146
 20
0.37460312508514
 11
0.5531473465883146
 21
0.2133535311501431
 72
     1
 10
0.5531473465883146
 20
0.2133535311501431
 11
0.5193971779121789
 21
0.2133535311501431
 72
     1
 10
0.5193971779121789
 20
0.2133535311501431
 11
0.5193971779121789
 21
0.1702282758831428
 72
     1
 10
0.5193971779121789
 20
0.1702282758831428
 11
0.7368972019857374
 21
0.1702282758831428
 72
     1
 10
0.7368972019857374
 20
0.1702282758831428
 11
0.7668970141602749
 21
0.2002283115750982
 72
     1
 10
0.7668970141602749
 20
0.2002283115750982
 11
0.7668970141602749
 21
0.3877281658462506
 72
     1
 10
0.7668970141602749
 20
0.3877281658462506
 11
0.7368972019857374
 21
0.4177282462416896
 97
        0
 92
       16
 93
        4
 72
     1
 10
0.7987720492890098
 20
0.4496031025563197
 11
0.4875220533764768
 21
0.4496031025563197
 72
     1
 10
0.4875220533764768
 20
0.4496031025563197
 11
0.4875220533764768
 21
0.1383533301613751
 72
     1
 10
0.4875220533764768
 20
0.1383533301613751
 11
0.7987720492890098
 21
0.1383533301613751
 72
     1
 10
0.7987720492890098
 20
0.1383533301613751
 11
0.7987720492890098
 21
0.4496031025563197
 97
        0
 92
        0
 93
        4
 72
     1
 10
0.5962724677448641
 20
0.37460312508514
 11
0.5962724677448641
 21
0.2133535311501431
 72
     1
 10
0.5962724677448641
 20
0.2133535311501431
 11
0.7237719824106926
 21
0.2133535311501431
 72
     1
 10
0.7237719824106926
 20
0.2133535311501431
 11
0.7237719824106926
 21
0.37460312508514
 72
     1
 10
0.7237719824106926
 20
0.37460312508514
 11
0.5962724677448641
 21
0.37460312508514
 97
        0
 75
     0
 76
     1
 98
        1
 10
-7.279586802153931
 20
-0.313212194787444
  0
HATCH
  5
845
330
841
100
AcDbEntity
  8
TITLEBLOCK
 62
     0
100
AcDbHatch
 10
0.0
 20
0.0
 30
0.0
210
0.0
220
0.0
230
1.0
  2
SOLID
 70
     1
 71
     0
 91
        1
 92
        1
 93
       26
 72
     1
 10
1.050490193885575
 20
0.3650136723335662
 11
1.138990457951802
 21
0.3650136723335662
 72
     2
 10
1.138990281703138
 20
0.3542326140418093
 40
0.0107810582931976
 50
270.0009366709926
 51
360.0009366862294
 73
     0
 72
     1
 10
1.149771339994895
 20
0.3542324377902786
 11
1.171333797831589
 21
0.3542324377902786
 72
     1
 10
1.171333797831589
 20
0.3542324377902786
 11
1.171333797831589
 21
0.3650136723335662
 72
     2
 10
1.149771243432702
 20
0.365013768896207
 40
0.0215625543991033
 50
359.9997434148255
 51
449.9997434160159
 73
     1
 72
     1
 10
1.149771339994895
 20
0.3865763232950938
 11
1.039708786842066
 21
0.3865763232950938
 72
     2
 10
1.039709408398413
 20
0.3650142939052909
 40
0.0215620293987615
 50
90.00165163282177
 51
180.0014125206716
 73
     1
 72
     1
 10
1.018147379006204
 20
0.3650137623336376
 11
1.018147379006204
 21
0.3334199129435318
 72
     2
 10
1.039709363397143
 20
0.3334193363730153
 40
0.0215619843986475
 50
179.9984679027414
 51
269.9984679437668
 73
     1
 72
     1
 10
1.039708786842066
 20
0.3118573519820755
 11
1.138990457951802
 21
0.311857620107139
 72
     2
 10
1.138990280765661
 20
0.3010765608779043
 40
0.0107810592306907
 50
270.0009416531222
 51
360.0009416684906
 73
     0
 72
     1
 10
1.149771339994895
 20
0.3010763836888712
 11
1.149771508744986
 21
0.2902949691454408
 72
     2
 10
1.138990231076649
 20
0.2902948322713164
 40
0.0107812776692067
 50
359.9992725992319
 51
449.9997907459082
 73
     0
 72
     1
 10
1.138990270451738
 20
0.279513554602181
 11
1.050490193885575
 21
0.2795135546020104
 72
     2
 10
1.05049014888543
 20
0.2902951041454384
 40
0.0107815495435218
 50
89.99976085826782
 51
179.9997608594354
 73
     0
 72
     1
 10
1.039708599342002
 20
0.2902950591455122
 11
1.018147379006204
 21
0.2902950591455122
 72
     1
 10
1.018147379006204
 20
0.2902950591455122
 11
1.018147379006204
 21
0.2795138227272444
 72
     2
 10
1.039709273392517
 20
0.2795130680345569
 40
0.0215618943995203
 50
179.9979945776083
 51
269.9987071039827
 73
     1
 72
     1
 10
1.039708786842066
 20
0.2579511736405264
 11
1.149771339994895
 21
0.2579511736405264
 72
     2
 10
1.149771378432784
 20
0.2795135930396681
 40
0.0215624193991759
 50
269.9998978626289
 51
359.9996636967671
 73
     1
 72
     1
 10
1.171333797831589
 20
0.2795134664769192
 11
1.171333797831589
 21
0.3114825579869829
 72
     2
 10
1.149771333432362
 20
0.3114825645494808
 40
0.0215624643992288
 50
359.9999825621309
 51
449.9999825620359
 73
     1
 72
     1
 10
1.149771339994895
 20
0.3330450289487088
 11
1.050490193885575
 21
0.3330447608234748
 72
     2
 10
1.050490103885701
 20
0.3438262653667981
 40
0.0107815045436989
 50
89.99952171675776
 51
179.9999900368059
 73
     0
 72
     1
 10
1.039708599342002
 20
0.3438262634919964
 11
1.039708786842066
 21
0.3542325259151993
 72
     2
 10
1.050490107634269
 20
0.3542323515402983
 40
0.0107813207936133
 50
180.0009266903443
 51
270.0004583701697
 73
     0
 97
        0
 75
     0
 76
     1
 98
        1
 10
-7.279586802153931
 20
-0.4081141432880261
  0
HATCH
  5
846
330
841
100
AcDbEntity
  8
TITLEBLOCK
 62
     0
100
AcDbHatch
 10
0.0
 20
0.0
 30
0.0
210
0.0
220
0.0
230
1.0
  2
SOLID
 70
     1
 71
     0
 91
        1
 92
        1
 93
       18
 72
     2
 10
2.471082802883087
 20
0.3650137595211706
 40
0.021562563774099
 50
180.0000074732525
 51
269.9997683261728
 73
     0
 72
     1
 10
2.471082715695484
 20
0.3865763232950938
 11
2.586957622645552
 21
0.3865763232950938
 72
     2
 10
2.586957713583391
 20
0.3650135813961111
 40
0.0215627418991744
 50
269.9997583630888
 51
359.999758364108
 73
     0
 72
     1
 10
2.608520455482373
 20
0.3650136723335662
 11
2.608520455482373
 21
0.3542324377902786
 72
     1
 10
2.608520455482373
 20
0.3542324377902786
 11
2.586957622645552
 21
0.3542324377902786
 72
     2
 10
2.576176208103625
 20
0.3542322577916381
 40
0.0107814145434302
 50
0.0009565685814303
 51
90.00095658455173
 73
     1
 72
     1
 10
2.576176028101979
 20
0.3650136723335662
 11
2.481864141488966
 21
0.3650136723335662
 72
     2
 10
2.481864045863444
 20
0.3542323421656055
 40
0.0107813301683848
 50
89.99949181235312
 51
179.9994918168631
 73
     1
 72
     1
 10
2.471082715695484
 20
0.3542324377902786
 11
2.471082715695484
 21
0.2902950591455122
 72
     2
 10
2.481864090863785
 20
0.2902951097704553
 40
0.0107813751684203
 50
180.0002690376259
 51
270.0002690388874
 73
     1
 72
     1
 10
2.481864141488966
 20
0.2795137346021532
 11
2.576176028101979
 21
0.2795135546020104
 72
     2
 10
2.576176073102679
 20
0.2902951041456356
 40
0.010781549543719
 50
269.9997608553225
 51
359.9992825760937
 73
     1
 72
     1
 10
2.586957622645552
 20
0.2902949691454408
 11
2.608520455482373
 21
0.2902950591455122
 72
     1
 10
2.608520455482373
 20
0.2902950591455122
 11
2.608520099232048
 21
0.2795134664769192
 72
     2
 10
2.586957670458414
 20
0.2795136024145366
 40
0.0215624287740632
 50
0.0003612140281018
 51
90.00012704854281
 73
     0
 72
     1
 10
2.586957622645552
 20
0.2579511736405264
 11
2.471082715695484
 21
0.2579511736405264
 72
     2
 10
2.471082667882924
 20
0.2795136024144634
 40
0.02156242877399
 50
89.99987295225965
 51
179.9998729525419
 73
     0
 72
     1
 10
2.449520239108988
 20
0.2795135546020104
 11
2.449520239108988
 21
0.3650137623336376
 97
        0
 75
     0
 76
     1
 98
        1
 10
-7.279586802153931
 20
-0.4081141432880261
  0
HATCH
  5
847
330
841
100
AcDbEntity
  8
TITLEBLOCK
 62
     0
100
AcDbHatch
 10
0.0
 20
0.0
 30
0.0
210
0.0
220
0.0
230
1.0
  2
SOLID
 70
     1
 71
     0
 91
        1
 92
        1
 93
       12
 72
     1
 10
2.026708344139745
 20
0.3865765014202565
 11
1.890208311215626
 21
0.3865765014202565
 72
     1
 10
1.890208311215626
 20
0.3865765014202565
 11
1.890208311215626
 21
0.2579511736405264
 72
     1
 10
1.890208311215626
 20
0.2579511736405264
 11
2.026708344139745
 21
0.2579511736405264
 72
     1
 10
2.026708344139745
 20
0.2579511736405264
 11
2.026708344139745
 21
0.2795135546020104
 72
     1
 10
2.026708344139745
 20
0.2795135546020104
 11
1.911770600302059
 21
0.2795135546020104
 72
     1
 10
1.911770600302059
 20
0.2795135546020104
 11
1.911770600302059
 21
0.3114825579869829
 72
     1
 10
1.911770600302059
 20
0.3114825579869829
 11
2.026708344139745
 21
0.3114825579869829
 72
     1
 10
2.026708344139745
 20
0.3114825579869829
 11
2.026708344139745
 21
0.333044848948566
 72
     1
 10
2.026708344139745
 20
0.333044848948566
 11
1.911770600302059
 21
0.333044848948566
 72
     1
 10
1.911770600302059
 20
0.333044848948566
 11
1.911770600302059
 21
0.3650136723335662
 72
     1
 10
1.911770600302059
 20
0.3650136723335662
 11
2.026708344139745
 21
0.3650136723335662
 72
     1
 10
2.026708344139745
 20
0.3650136723335662
 11
2.026708344139745
 21
0.3865765014202565
 97
        0
 75
     0
 76
     1
 98
        1
 10
-7.279586802153931
 20
-0.4081141432880261
  0
HATCH
  5
848
330
841
100
AcDbEntity
  8
TITLEBLOCK
 62
     0
100
AcDbHatch
 10
0.0
 20
0.0
 30
0.0
210
0.0
220
0.0
230
1.0
  2
SOLID
 70
     1
 71
     0
 91
        2
 92
        1
 93
        8
 72
     1
 10
1.614830743814064
 20
0.3865765014202565
 11
1.531145595393223
 21
0.2579509955155343
 72
     1
 10
1.531145595393223
 20
0.2579509955155343
 11
1.556870855949323
 21
0.2579511736405264
 72
     1
 10
1.556870855949323
 20
0.2579511736405264
 11
1.570898996363819
 21
0.2795135546020104
 72
     1
 10
1.570898996363819
 20
0.2795135546020104
 11
1.673830432358027
 21
0.2795135546020104
 72
     1
 10
1.673830432358027
 20
0.2795135546020104
 11
1.687858760272586
 21
0.2579514417655899
 72
     1
 10
1.687858760272586
 20
0.2579514417655899
 11
1.713583120827973
 21
0.2579514417655899
 72
     1
 10
1.713583120827973
 20
0.2579514417655899
 11
1.629898141157394
 21
0.3865765014202565
 72
     1
 10
1.629898141157394
 20
0.3865765014202565
 11
1.614830743814064
 21
0.3865765014202565
 97
        0
 92
       16
 93
        3
 72
     1
 10
1.622364536235675
 20
0.3586169575295115
 11
1.659801223192726
 21
0.3010763836888712
 72
     1
 10
1.659801223192726
 20
0.3010763836888712
 11
1.584928205528949
 21
0.3010762055637086
 72
     1
 10
1.584928205528949
 20
0.3010762055637086
 11
1.622364348735612
 21
0.3586165994043766
 97
        0
 75
     0
 76
     1
 98
        1
 10
-7.279586802153931
 20
-0.4081141432880261
  0
HATCH
  5
849
330
841
100
AcDbEntity
  8
TITLEBLOCK
 62
     0
100
AcDbHatch
 10
0.0
 20
0.0
 30
0.0
210
0.0
220
0.0
230
1.0
  2
SOLID
 70
     1
 71
     0
 91
        1
 92
        1
 93
       12
 72
     1
 10
1.392021104504447
 20
0.3865765014202565
 11
1.370458815418015
 21
0.3865765014202565
 72
     1
 10
1.370458815418015
 20
0.3865765014202565
 11
1.370458627917951
 21
0.2795138227272444
 72
     2
 10
1.39202114575308
 20
0.2795135133528436
 40
0.0215625178373483
 50
179.999177932392
 51
269.9998903944058
 73
     1
 72
     1
 10
1.392021104504447
 20
0.2579509955155343
 11
1.509583287556818
 21
0.2579511736405264
 72
     2
 10
1.509583335369764
 20
0.2795136024146219
 40
0.0215624287741484
 50
269.9998729512306
 51
359.9996387857453
 73
     1
 72
     1
 10
1.531145764143484
 20
0.2795134664769192
 11
1.531146120393639
 21
0.3865765014202565
 72
     1
 10
1.531146120393639
 20
0.3865765014202565
 11
1.509583287556818
 21
0.3865765014202565
 72
     1
 10
1.509583287556818
 20
0.3865765014202565
 11
1.509583287556818
 21
0.2902950591455122
 72
     2
 10
1.498801916139266
 20
0.290294926019563
 40
0.0107813714183743
 50
359.9992925246018
 51
449.9992925333428
 73
     0
 72
     1
 10
1.49880204926357
 20
0.2795135546020104
 11
1.402802342797695
 21
0.2795135546020104
 72
     2
 10
1.402802382172719
 20
0.2902950197703451
 40
0.0107814651684066
 50
90.00020925010334
 51
180.0002092508632
 73
     0
 72
     1
 10
1.392020917004384
 20
0.2902950591455122
 11
1.392021104504447
 21
0.3865765014202565
 97
        0
 75
     0
 76
     1
 98
        1
 10
-7.279586802153931
 20
-0.4081141432880261
  0
HATCH
  5
84A
330
841
100
AcDbEntity
  8
TITLEBLOCK
 62
     0
100
AcDbHatch
 10
0.0
 20
0.0
 30
0.0
210
0.0
220
0.0
230
1.0
  2
SOLID
 70
     1
 71
     0
 91
        2
 92
        1
 93
       13
 72
     2
 10
1.851958289039648
 20
0.2899198104641797
 40
0.0215625675244637
 50
0.0002565813902296
 51
90.00070498518821
 73
     1
 72
     2
 10
1.851958289040149
 20
0.3330449455099156
 40
0.0215625675245372
 50
269.9992950134807
 51
359.9995092535441
 73
     1
 72
     1
 10
1.873520856563896
 20
0.3330447608234748
 11
1.873520856563896
 21
0.3650136657708798
 72
     2
 10
1.851957894958188
 20
0.3650135398162329
 40
0.0215629616060761
 50
0.0003346789653151
 51
89.99920945081219
 73
     1
 72
     1
 10
1.851958192477166
 20
0.3865765014202565
 11
1.720333350237904
 21
0.3865765014202565
 72
     1
 10
1.720333350237904
 20
0.3865765014202565
 11
1.720333350237904
 21
0.2579511736405264
 72
     1
 10
1.720333350237904
 20
0.2579511736405264
 11
1.741896183074725
 21
0.2579511736405264
 72
     1
 10
1.741896183074725
 20
0.2579511736405264
 11
1.741896183074725
 21
0.3007013215688856
 72
     1
 10
1.741896183074725
 20
0.3007013215688856
 11
1.841176785433827
 21
0.3007013215688856
 72
     2
 10
1.841176693559081
 20
0.2899201789011263
 40
0.0107811426681508
 50
270.0004882631974
 51
360.0004882673548
 73
     0
 72
     1
 10
1.851957836226841
 20
0.289920087025598
 11
1.851958192477166
 21
0.2579511736405264
 72
     1
 10
1.851958192477166
 20
0.2579511736405264
 11
1.873520856563896
 21
0.2579511736405264
 72
     1
 10
1.873520856563896
 20
0.2579511736405264
 11
1.873520856563896
 21
0.2899199070254552
 97
        0
 92
       16
 93
        6
 72
     2
 10
1.841176693559081
 20
0.3542325296658069
 40
0.0107811426681508
 50
270.0004882631974
 51
360.0004882673548
 73
     0
 72
     1
 10
1.851957836226841
 20
0.3542324377902786
 11
1.851958192477166
 21
0.333044848948566
 72
     2
 10
1.841176871684197
 20
0.333044935198247
 40
0.0107813207933138
 50
0.0004583615308307
 51
90.00045836519477
 73
     0
 72
     1
 10
1.841176785433827
 20
0.3222636144052784
 11
1.741896183074725
 21
0.3222638825303419
 72
     1
 10
1.741896183074725
 20
0.3222638825303419
 11
1.741896183074725
 21
0.3650136723335662
 72
     1
 10
1.741896183074725
 20
0.3650136723335662
 11
1.841176785433827
 21
0.3650136723335662
 97
        0
 75
     0
 76
     1
 98
        1
 10
-7.279586802153931
 20
-0.4081141432880261
  0
HATCH
  5
84B
330
841
100
AcDbEntity
  8
TITLEBLOCK
 62
     0
100
AcDbHatch
 10
0.0
 20
0.0
 30
0.0
210
0.0
220
0.0
230
1.0
  2
SOLID
 70
     1
 71
     0
 91
        2
 92
        1
 93
       10
 72
     1
 10
2.168832611988261
 20
0.3650136723335662
 11
2.168832611988261
 21
0.2795135546021492
 72
     1
 10
2.168832611988261
 20
0.2795135546021492
 11
2.148020079641632
 21
0.2795135546021492
 72
     1
 10
2.148020079641632
 20
0.2795135546021492
 11
2.148020079641632
 21
0.2579511736406499
 72
     1
 10
2.148020079641632
 20
0.2579511736406499
 11
2.314895263659607
 21
0.2579511736406499
 72
     2
 10
2.314895311472477
 20
0.2795136024147182
 40
0.0215624287741214
 50
269.9998729514336
 51
359.9996387859474
 73
     1
 72
     1
 10
2.336457740246171
 20
0.2795134664770916
 11
2.336457740246171
 21
0.3650136723335662
 72
     2
 10
2.314895087410214
 20
0.3650138485844006
 40
0.0215626528366775
 50
359.9995316703829
 51
449.999531674211
 73
     1
 72
     1
 10
2.314895263659607
 20
0.386576501420358
 11
2.148020079641632
 21
0.386576501420358
 72
     1
 10
2.148020079641632
 20
0.386576501420358
 11
2.148020079641632
 21
0.3650136723335662
 72
     1
 10
2.148020079641632
 20
0.3650136723335662
 11
2.168832611988261
 21
0.3650136723335662
 97
        0
 92
       16
 93
        6
 72
     1
 10
2.190395257324933
 20
0.3650136723335662
 11
2.304113856616218
 21
0.3650136723335662
 72
     2
 10
2.304113942866619
 20
0.3542323515405775
 40
0.0107813207933337
 50
269.9995416346447
 51
359.9995416383139
 73
     0
 72
     1
 10
2.314895263659607
 20
0.3542324377902877
 11
2.314895263659607
 21
0.2902949691455452
 72
     2
 10
2.304113807866077
 20
0.2902950103956483
 40
0.0107814557936096
 50
0.0002192149982456
 51
89.99974092762393
 73
     0
 72
     1
 10
2.304113856616218
 20
0.2795135546021492
 11
2.190395257324933
 21
0.2795135546021492
 72
     1
 10
2.190395257324933
 20
0.2795135546021492
 11
2.190395257324933
 21
0.3650136723335662
 97
        0
 75
     0
 76
     1
 98
        1
 10
-7.279586802153931
 20
-0.4081141432880261
  0
HATCH
  5
84C
330
841
100
AcDbEntity
  8
TITLEBLOCK
 62
     0
100
AcDbHatch
 10
0.0
 20
0.0
 30
0.0
210
0.0
220
0.0
230
1.0
  2
SOLID
 70
     1
 71
     0
 91
        2
 92
        1
 93
        8
 72
     1
 10
3.241392303571654
 20
0.3865765014202565
 11
3.157707226761072
 21
0.2579509955155343
 72
     1
 10
3.157707226761072
 20
0.2579509955155343
 11
3.183432299816939
 21
0.2579511736405264
 72
     1
 10
3.183432299816939
 20
0.2579511736405264
 11
3.197460983981823
 21
0.2795133764768478
 72
     1
 10
3.197460983981823
 20
0.2795133764768478
 11
3.30039082622498
 21
0.2795135546020104
 72
     1
 10
3.30039082622498
 20
0.2795135546020104
 11
3.314419679139785
 21
0.2579514417655899
 72
     1
 10
3.314419679139785
 20
0.2579514417655899
 11
3.340144583445731
 21
0.2579511736405264
 72
     1
 10
3.340144583445731
 20
0.2579511736405264
 11
3.256459603774981
 21
0.3865765014202565
 72
     1
 10
3.256459603774981
 20
0.3865765014202565
 11
3.241392303571654
 21
0.3865765014202565
 97
        0
 92
       16
 93
        3
 72
     1
 10
3.248925740352245
 20
0.358616778466603
 11
3.211489480646473
 21
0.3010762055637086
 72
     1
 10
3.211489480646473
 20
0.3010762055637086
 11
3.28636178580994
 21
0.3010763836888712
 72
     1
 10
3.28636178580994
 20
0.3010763836888712
 11
3.248925740352245
 21
0.358616778466603
 97
        0
 75
     0
 76
     1
 98
        1
 10
-7.279586802153931
 20
-0.4081141432880261
  0
HATCH
  5
84D
330
841
100
AcDbEntity
  8
TITLEBLOCK
 62
     0
100
AcDbHatch
 10
0.0
 20
0.0
 30
0.0
210
0.0
220
0.0
230
1.0
  2
SOLID
 70
     1
 71
     0
 91
        1
 92
        1
 93
       13
 72
     1
 10
2.838488736968525
 20
0.3865765014202565
 11
2.806145209588674
 21
0.3865765014202565
 72
     1
 10
2.806145209588674
 20
0.3865765014202565
 11
2.806145209588674
 21
0.2579511736405264
 72
     1
 10
2.806145209588674
 20
0.2579511736405264
 11
2.827707667425368
 21
0.2579511736405264
 72
     1
 10
2.827707667425368
 20
0.2579511736405264
 11
2.827707667425368
 21
0.3640633654626753
 72
     1
 10
2.827707667425368
 20
0.3640633654626753
 11
2.899718420719221
 21
0.2579514417655899
 72
     1
 10
2.899718420719221
 20
0.2579514417655899
 11
2.922570860648686
 21
0.2579511736405264
 72
     1
 10
2.922570860648686
 20
0.2579511736405264
 11
2.994582138942956
 21
0.3640642598382782
 72
     1
 10
2.994582138942956
 20
0.3640642598382782
 11
2.994582138942956
 21
0.2579511736405264
 72
     1
 10
2.994582138942956
 20
0.2579511736405264
 11
3.016144596779479
 21
0.2579511736405264
 72
     1
 10
3.016144596779479
 20
0.2579511736405264
 11
3.016144596779479
 21
0.3865765014202565
 72
     1
 10
3.016144596779479
 20
0.3865765014202565
 11
2.983801425649954
 21
0.3865765014202565
 72
     1
 10
2.983801425649954
 20
0.3865765014202565
 11
2.911144640683954
 21
0.2795135546020104
 72
     1
 10
2.911144640683954
 20
0.2795135546020104
 11
2.838488380718199
 21
0.3865765014202565
 97
        0
 75
     0
 76
     1
 98
        1
 10
-7.279586802153931
 20
-0.4081141432880261
  0
HATCH
  5
84E
330
841
100
AcDbEntity
  8
TITLEBLOCK
 62
     0
100
AcDbHatch
 10
0.0
 20
0.0
 30
0.0
210
0.0
220
0.0
230
1.0
  2
SOLID
 70
     1
 71
     0
 91
        2
 92
        1
 93
        8
 72
     1
 10
2.79358243888161
 20
0.2795134664769192
 11
2.793582795131936
 21
0.3650136723335662
 72
     2
 10
2.772020240733041
 20
0.3650137688961994
 40
0.0215625543991104
 50
359.9997434148459
 51
449.999743415997
 73
     1
 72
     1
 10
2.772020337295241
 20
0.3865763232950938
 11
2.640957676673206
 21
0.3865763232950938
 72
     2
 10
2.640957763860811
 20
0.3650137595211699
 40
0.0215625637741002
 50
90.00023167383188
 51
179.9999925267453
 73
     1
 72
     1
 10
2.61939520008671
 20
0.3650137623336376
 11
2.61939520008671
 21
0.2795135546020104
 72
     2
 10
2.640957628860649
 20
0.2795136024144641
 40
0.0215624287739915
 50
180.0001270474597
 51
270.0001270477355
 73
     1
 72
     1
 10
2.640957676673206
 20
0.2579511736405264
 11
2.772020337295241
 21
0.2579511736405264
 72
     2
 10
2.772020197607671
 20
0.2795134149140743
 40
0.0215622412740004
 50
270.000371181646
 51
360.000137014207
 73
     1
 97
        0
 92
       16
 93
        8
 72
     2
 10
2.651738913091431
 20
0.3542324359149649
 40
0.0107812364186015
 50
89.9999900344766
 51
179.999521702949
 73
     1
 72
     1
 10
2.640957676673206
 20
0.3542325259151993
 11
2.640957676673206
 21
0.2902950591455122
 72
     2
 10
2.651738958091508
 20
0.2902950160204556
 40
0.010781281418388
 50
179.9997708172488
 51
269.9997708181704
 73
     1
 72
     1
 10
2.651738914966625
 20
0.2795137346021532
 11
2.761238742751839
 21
0.2795135546020104
 72
     2
 10
2.761238956501978
 20
0.2902951041442614
 40
0.0107815495443698
 50
269.9988640797126
 51
359.9992825833961
 73
     1
 72
     1
 10
2.772020506045503
 20
0.2902949691454408
 11
2.772020337295241
 21
0.3542324377902786
 72
     2
 10
2.761239007127366
 20
0.3542323421656908
 40
0.0107813301682991
 50
0.0005081826837109
 51
90.00050818719378
 73
     1
 72
     1
 10
2.76123891150193
 20
0.3650136723335662
 11
2.651738914966625
 21
0.3650136723335662
 97
        0
 75
     0
 76
     1
 98
        1
 10
-7.279586802153931
 20
-0.4081141432880261
  0
HATCH
  5
84F
330
841
100
AcDbEntity
  8
TITLEBLOCK
 62
     0
100
AcDbHatch
 10
0.0
 20
0.0
 30
0.0
210
0.0
220
0.0
230
1.0
  2
SOLID
 70
     1
 71
     0
 91
        2
 92
        1
 93
        8
 72
     2
 10
3.162769048174736
 20
0.3650134554401196
 40
0.0215630459811904
 50
270.0005663490367
 51
359.9994236862867
 73
     0
 72
     1
 10
3.184332094154836
 20
0.3650136723335662
 11
3.184332094154836
 21
0.3222638825303419
 72
     2
 10
3.162769397256125
 20
0.3222640184675962
 40
0.0215626968991391
 50
0.0003612085718475
 51
90.00036121084693
 73
     0
 72
     1
 10
3.162769261318015
 20
0.3007013215688856
 11
3.052707420665665
 21
0.3007013215688856
 72
     1
 10
3.052707420665665
 20
0.3007013215688856
 11
3.052707420665665
 21
0.2579511736405264
 72
     1
 10
3.052707420665665
 20
0.2579511736405264
 11
3.031144250328662
 21
0.2579511736405264
 72
     1
 10
3.031144250328662
 20
0.2579511736405264
 11
3.031144250328662
 21
0.3865765014202565
 72
     1
 10
3.031144250328662
 20
0.3865765014202565
 11
3.162769261318015
 21
0.3865765014202565
 97
        0
 92
       16
 93
        6
 72
     2
 10
3.151988118650169
 20
0.3542325296657216
 40
0.0107811426682361
 50
270.0004882627443
 51
360.0004882669015
 73
     0
 72
     1
 10
3.162769261318015
 20
0.3542324377902786
 11
3.162769261318015
 21
0.333044848948566
 72
     2
 10
3.151988118650169
 20
0.333044757073123
 40
0.0107811426682367
 50
359.9995117330984
 51
449.9995117372556
 73
     0
 72
     1
 10
3.15198821052483
 20
0.3222636144052784
 11
3.052707420665665
 21
0.3222638825303419
 72
     1
 10
3.052707420665665
 20
0.3222638825303419
 11
3.052707420665665
 21
0.3650136723335662
 72
     1
 10
3.052707420665665
 20
0.3650136723335662
 11
3.15198821052483
 21
0.3650136723335662
 97
        0
 75
     0
 76
     1
 98
        1
 10
-7.279586802153931
 20
-0.4081141432880261
  0
HATCH
  5
850
330
841
100
AcDbEntity
  8
TITLEBLOCK
 62
     0
100
AcDbHatch
 10
0.0
 20
0.0
 30
0.0
210
0.0
220
0.0
230
1.0
  2
SOLID
 70
     1
 71
     0
 91
        1
 92
        1
 93
        9
 72
     1
 10
3.556847887515953
 20
0.3865763232950938
 11
3.525206566844968
 21
0.3865765014202565
 72
     1
 10
3.525206566844968
 20
0.3865765014202565
 11
3.60348814923547
 21
0.3136817019238036
 72
     1
 10
3.60348814923547
 20
0.3136817019238036
 11
3.603486349234383
 21
0.2579511736405264
 72
     1
 10
3.603486349234383
 20
0.2579511736405264
 11
3.625050607072164
 21
0.2579511736405264
 72
     1
 10
3.625050607072164
 20
0.2579511736405264
 11
3.625050607072164
 21
0.3136813437984982
 72
     1
 10
3.625050607072164
 20
0.3136813437984982
 11
3.703331833212512
 21
0.3865766795454191
 72
     1
 10
3.703331833212512
 20
0.3865766795454191
 11
3.671691225042007
 21
0.3865765014202565
 72
     1
 10
3.671691225042007
 20
0.3865765014202565
 11
3.61426955627898
 21
0.3331056458632473
 72
     1
 10
3.61426955627898
 20
0.3331056458632473
 11
3.556847887515953
 21
0.3865763232950938
 97
        0
 75
     0
 76
     1
 98
        1
 10
-7.279586802153931
 20
-0.4081141432880261
  0
HATCH
  5
851
330
841
100
AcDbEntity
  8
TITLEBLOCK
 62
     0
100
AcDbHatch
 10
0.0
 20
0.0
 30
0.0
210
0.0
220
0.0
230
1.0
  2
SOLID
 70
     1
 71
     0
 91
        1
 92
        1
 93
       10
 72
     1
 10
3.376247484495632
 20
0.3865765014202565
 11
3.345207161752892
 21
0.3865765014202565
 72
     1
 10
3.345207161752892
 20
0.3865765014202565
 11
3.345207161752892
 21
0.2579511736405264
 72
     1
 10
3.345207161752892
 20
0.2579511736405264
 11
3.366769638339558
 21
0.2579511736405264
 72
     1
 10
3.366769638339558
 20
0.2579511736405264
 11
3.366769638339558
 21
0.3659393041881229
 72
     1
 10
3.366769638339558
 20
0.3659393041881229
 11
3.48273627034943
 21
0.2579509955155343
 72
     1
 10
3.48273627034943
 20
0.2579509955155343
 11
3.515082122730785
 21
0.2579511736405264
 72
     1
 10
3.515082122730785
 20
0.2579511736405264
 11
3.515082122730785
 21
0.3865765014202565
 72
     1
 10
3.515082122730785
 20
0.3865765014202565
 11
3.49351767739277
 21
0.3865765014202565
 72
     1
 10
3.49351767739277
 20
0.3865765014202565
 11
3.49351767739277
 21
0.277374671329744
 72
     1
 10
3.49351767739277
 20
0.277374671329744
 11
3.376247484495632
 21
0.3865765014202565
 97
        0
 75
     0
 76
     1
 98
        1
 10
-7.279586802153931
 20
-0.4081141432880261
  0
ENDBLK
  5
853
330
841
100
AcDbEntity
  8
0
100
AcDbBlockEnd
  0
BLOCK
  5
AF5
330
AE5
100
AcDbEntity
  8
0
100
AcDbBlockBegin
  2
TITLE-PAD
 70
     2
 10
0.0
 20
0.0
 30
0.0
  3
TITLE-PAD
  1

  0
LWPOLYLINE
  5
B1D
330
AE5
100
AcDbEntity
  8
CONTINUOUS2
 62
     0
100
AcDbPolyline
 90
        7
 70
     1
 43
0.0
 10
16.40000099999999
 20
0.0
 10
16.40000099999999
 20
0.0
 10
16.40000099999999
 20
0.0
 10
8.002461
 20
0.0
 10
8.002461
 20
0.9120019999999993
 10
16.40000099999999
 20
0.9120019999999993
 10
16.40000099999999
 20
0.0
  0
INSERT
  5
B1E
330
AE5
100
AcDbEntity
  8
TITLEBLOCK
 62
     0
100
AcDbBlockReference
  2
LOGO-PAD
 10
12.245701
 20
0.3040000000000003
 30
0.0
  0
LINE
  5
B1F
330
AE5
100
AcDbEntity
  8
CONTINUOUS2
 62
     0
100
AcDbLine
 10
16.40000099999999
 20
0.3040000000000003
 30
0.0
 11
12.245701
 21
0.3040000000000003
 31
0.0
  0
LINE
  5
B20
330
AE5
100
AcDbEntity
  8
CONTINUOUS2
 62
     0
100
AcDbLine
 10
12.245701
 20
0.9120019999999993
 30
0.0
 11
12.245701
 21
0.0
 31
0.0
  0
TEXT
  5
B21
330
AE5
100
AcDbEntity
  8
TEXT1
  6
CONTINUOUS
 62
     0
100
AcDbText
 10
12.36897712113656
 20
0.0611566731182909
 30
0.0
 40
0.0699999951940822
  1
NO.
  7
ROMANS
 11
12.36897712113656
 21
0.096156670715332
 31
0.0
100
AcDbText
 73
     2
  0
TEXT
  5
B22
330
AE5
100
AcDbEntity
  8
TEXT1
  6
CONTINUOUS
 62
     0
100
AcDbText
 10
12.36897712113656
 20
0.1661566731182908
 30
0.0
 40
0.0699999951940822
  1
DWG#
  7
ROMANS
 11
12.36897712113656
 21
0.2011566707153319
 31
0.0
100
AcDbText
 73
     2
  0
ATTDEF
  5
B23
330
AE5
100
AcDbEntity
  8
TEXT1
 62
     0
100
AcDbText
 10
10.10183834893798
 20
0.7474460884590166
 30
0.0
 40
0.1
  1

  7
ROMANS
 72
     4
 11
10.10183834893798
 21
0.7474460884590166
 31
0.0
100
AcDbAttributeDefinition
  3
DESCRIPTION 1
  2
DESCRIPTION 1
 70
     0
  0
ATTDEF
  5
B24
330
AE5
100
AcDbEntity
  8
TEXT1
 62
     0
100
AcDbText
 10
10.10183834893798
 20
0.6017231711406717
 30
0.0
 40
0.1
  1

  7
ROMANS
 72
     4
 11
10.10183834893798
 21
0.6017231711406717
 31
0.0
100
AcDbAttributeDefinition
  3
DESCRIPTION 2
  2
DESCRIPTION 2
 70
     0
  0
ATTDEF
  5
B25
330
AE5
100
AcDbEntity
  8
TEXT1
 62
     0
100
AcDbText
 10
10.10183834893798
 20
0.4560002538223267
 30
0.0
 40
0.08
  1

  7
ROMANS
 72
     4
 11
10.10183834893798
 21
0.4560002538223267
 31
0.0
100
AcDbAttributeDefinition
  3
DESCRIPTION 3
  2
DESCRIPTION 3
 70
     0
  0
ATTDEF
  5
B26
330
AE5
100
AcDbEntity
  8
TEXT1
 62
     0
100
AcDbText
 10
10.10183834893798
 20
0.3202773365039833
 30
0.0
 40
0.08
  1

  7
ROMANS
 72
     4
 11
10.10183834893798
 21
0.3202773365039833
 31
0.0
100
AcDbAttributeDefinition
  3
DESCRIPTION 4
  2
DESCRIPTION 4
 70
     0
  0
ATTDEF
  5
B27
330
AE5
100
AcDbEntity
  8
TEXT1
 62
     0
100
AcDbText
 10
10.10183834893798
 20
0.1845544191856399
 30
0.0
 40
0.08
  1

  7
ROMANS
 72
     4
 11
10.10183834893798
 21
0.1845544191856399
 31
0.0
100
AcDbAttributeDefinition
  3
DESCRIPTION 5
  2
DESCRIPTION 5
 70
     0
  0
ATTDEF
  5
B28
330
AE5
100
AcDbEntity
  8
TEXT1
 62
     0
100
AcDbText
 10
12.74772367103195
 20
0.096540546036505
 30
0.0
 40
0.12
  1

 41
0.9512024731840066
  7
M_STANDARD
 11
12.74772367103195
 21
0.156540546036505
 31
0.0
100
AcDbAttributeDefinition
  3
DRAWING NUMBER
  2
DWGNO
 70
     0
 74
     2
  0
ATTDEF
  5
B29
330
AE5
100
AcDbEntity
  8
TEXT1
 62
     0
100
AcDbText
 10
16.35506454949325
 20
-0.1507193079929352
 30
0.0
 40
0.08
  1

  7
ROMANS
 72
     2
 11
16.35506454949325
 21
-0.1107193079929352
 31
0.0
100
AcDbAttributeDefinition
  3
REF DWG #
  2
REF
 70
     0
 74
     2
  0
ATTDEF
  5
B2A
330
AE5
100
AcDbEntity
  8
TEXT1
 62
     0
100
AcDbText
 10
0.0266402374038712
 20
-0.1507193079929352
 30
0.0
 40
0.08
  1

  7
ROMANS
 11
0.0266402374038712
 21
-0.1107193079929352
 31
0.0
100
AcDbAttributeDefinition
  3
DATE MODIFIED
  2
DATE
 70
     0
 74
     2
  0
LWPOLYLINE
  5
B2B
330
AE5
100
AcDbEntity
  8
CONTINUOUS3
 62
     0
100
AcDbPolyline
 90
        4
 70
   129
 43
0.0
 10
0.0
 20
0.0
 10
16.40000099999999
 20
0.0
 10
16.40000099999999
 20
10.25
 10
0.0
 20
10.25
  0
ENDBLK
  5
AF6
330
AE5
100
AcDbEntity
  8
0
100
AcDbBlockEnd
  0
BLOCK
  5
E0F
330
E0D
100
AcDbEntity
  8
0
100
AcDbBlockBegin
  2
SEARROW
 70
     0
 10
0.0
 20
0.0
 30
0.0
  3
SEARROW
  1

  0
LWPOLYLINE
  5
E0E
330
E0D
100
AcDbEntity
  8
0
  6
BYBLOCK
100
AcDbPolyline
 90
        2
 70
     0
 10
0.0
 20
0.0
 40
0.0
 41
0.5000000001500001
 10
-1.000000000300019
 20
0.0
 40
0.5000000001500001
 41
0.5000000001500001
  0
ENDBLK
  5
E10
330
E0D
100
AcDbEntity
  8
0
100
AcDbBlockEnd
  0
BLOCK
  5
E43
330
E42
100
AcDbEntity
  8
0
100
AcDbBlockBegin
  2
SETUP
 70
     0
 10
0.0
 20
0.0
 30
0.0
  3
SETUP
  1

  0
ENDBLK
  5
E44
330
E42
100
AcDbEntity
  8
0
100
AcDbBlockEnd
  0
BLOCK
  5
F55
330
F54
100
AcDbEntity
  8
0
100
AcDbBlockBegin
  2
MEDCLUMP_DIM_1475_
 70
     0
 10
0.0
 20
0.0
 30
0.0
  3
MEDCLUMP_DIM_1475_
  1

  0
ENDBLK
  5
F56
330
F54
100
AcDbEntity
  8
0
100
AcDbBlockEnd
  0
BLOCK
  5
F59
330
F57
100
AcDbEntity
  8
0
100
AcDbBlockBegin
  2
MEDCLUMP_DMS_1474_
 70
     0
 10
0.0
 20
0.0
 30
0.0
  3
MEDCLUMP_DMS_1474_
  1

  0
INSERT
  5
F58
330
F57
100
AcDbEntity
  8
0
100
AcDbBlockReference
  2
MEDCLUMP_DIM_1475_
 10
0.0
 20
0.0
 30
0.0
  0
ENDBLK
  5
F5A
330
F57
100
AcDbEntity
  8
0
100
AcDbBlockEnd
  0
BLOCK
  5
F5C
330
F5B
100
AcDbEntity
  8
0
100
AcDbBlockBegin
  2
MEDCLUMP_DIM_1451_
 70
     0
 10
0.0
 20
0.0
 30
0.0
  3
MEDCLUMP_DIM_1451_
  1

  0
ENDBLK
  5
F5D
330
F5B
100
AcDbEntity
  8
0
100
AcDbBlockEnd
  0
BLOCK
  5
F60
330
F5E
100
AcDbEntity
  8
0
100
AcDbBlockBegin
  2
MEDCLUMP_DMS_1450_
 70
     0
 10
0.0
 20
0.0
 30
0.0
  3
MEDCLUMP_DMS_1450_
  1

  0
INSERT
  5
F5F
330
F5E
100
AcDbEntity
  8
0
100
AcDbBlockReference
  2
MEDCLUMP_DIM_1451_
 10
0.0
 20
0.0
 30
0.0
  0
ENDBLK
  5
F61
330
F5E
100
AcDbEntity
  8
0
100
AcDbBlockEnd
  0
BLOCK
  5
F63
330
F62
100
AcDbEntity
  8
0
100
AcDbBlockBegin
  2
MEDCLUMP_DIM_1143_
 70
     0
 10
0.0
 20
0.0
 30
0.0
  3
MEDCLUMP_DIM_1143_
  1

  0
ENDBLK
  5
F64
330
F62
100
AcDbEntity
  8
0
100
AcDbBlockEnd
  0
BLOCK
  5
F67
330
F65
100
AcDbEntity
  8
0
100
AcDbBlockBegin
  2
MEDCLUMP_DMS_1142_
 70
     0
 10
0.0
 20
0.0
 30
0.0
  3
MEDCLUMP_DMS_1142_
  1

  0
INSERT
  5
F66
330
F65
100
AcDbEntity
  8
0
100
AcDbBlockReference
  2
MEDCLUMP_DIM_1143_
 10
0.0
 20
0.0
 30
0.0
  0
ENDBLK
  5
F68
330
F65
100
AcDbEntity
  8
0
100
AcDbBlockEnd
  0
BLOCK
  5
3AAA
330
3A9F
100
AcDbEntity
  8
0
100
AcDbBlockBegin
  2
*D10
 70
     1
 10
0.0
 20
0.0
 30
0.0
  3
*D10
  1

  0
LINE
  5
42DB
330
3A9F
100
AcDbEntity
  8
DIM
100
AcDbLine
 10
35.65139999999996
 20
56.9377
 30
0.0
 11
35.65139999999996
 21
65.53429476301014
 31
0.0
  0
LINE
  5
42DC
330
3A9F
100
AcDbEntity
  8
DIM
100
AcDbLine
 10
10.50139999999998
 20
56.9377
 30
0.0
 11
10.50139999999998
 21
65.53429476301014
 31
0.0
  0
LINE
  5
42DD
330
3A9F
100
AcDbEntity
  8
DIM
100
AcDbLine
 10
34.95139999999996
 20
64.90929476301014
 30
0.0
 11
25.47639999999997
 21
64.90929476301014
 31
0.0
  0
LINE
  5
42DE
330
3A9F
100
AcDbEntity
  8
DIM
100
AcDbLine
 10
11.20139999999999
 20
64.90929476301014
 30
0.0
 11
20.67639999999998
 21
64.90929476301014
 31
0.0
  0
INSERT
  5
42DF
330
3A9F
100
AcDbEntity
  8
DIM
100
AcDbBlockReference
  2
SEARROW
 10
35.65139999999996
 20
64.90929476301014
 30
0.0
 41
0.7000000000000001
 42
0.7000000000000001
 43
0.7000000000000001
  0
INSERT
  5
42E0
330
3A9F
100
AcDbEntity
  8
DIM
100
AcDbBlockReference
  2
SEARROW
 10
10.50139999999998
 20
64.90929476301014
 30
0.0
 41
0.7000000000000001
 42
0.7000000000000001
 43
0.7000000000000001
 50
180.0
  0
MTEXT
  5
42E1
330
3A9F
100
AcDbEntity
  8
DIM
100
AcDbMText
 10
23.07639999999997
 20
64.90929476301014
 30
0.0
 40
1.0
 41
0.0
 71
     5
 72
     1
  1
\A1;25.15
  7
ROMANS
1001
ACAD
1000
MTEXTBEGIN
1070
    73
1070
     1
1070
    44
1040
1.0
1070
    74
1070
     0
1000
MTEXTEND
  0
POINT
  5
42E2
330
3A9F
100
AcDbEntity
  8
DEFPOINTS
 62
     0
100
AcDbPoint
 10
35.65139999999996
 20
56.3127
 30
0.0
  0
POINT
  5
42E3
330
3A9F
100
AcDbEntity
  8
DEFPOINTS
 62
     0
100
AcDbPoint
 10
10.50139999999998
 20
56.3127
 30
0.0
  0
POINT
  5
42E4
330
3A9F
100
AcDbEntity
  8
DEFPOINTS
 62
     0
100
AcDbPoint
 10
10.50139999999998
 20
64.90929476301014
 30
0.0
  0
ENDBLK
  5
3AAB
330
3A9F
100
AcDbEntity
  8
0
100
AcDbBlockEnd
  0
BLOCK
  5
3AB7
330
3AAC
100
AcDbEntity
  8
0
100
AcDbBlockBegin
  2
*D11
 70
     1
 10
0.0
 20
0.0
 30
0.0
  3
*D11
  1

  0
LINE
  5
42E5
330
3AAC
100
AcDbEntity
  8
DIM
100
AcDbLine
 10
12.70139999999997
 20
54.23770000000001
 30
0.0
 11
12.70139999999997
 21
62.43072155680224
 31
0.0
  0
LINE
  5
42E6
330
3AAC
100
AcDbEntity
  8
DIM
100
AcDbLine
 10
33.45139999999998
 20
54.23770000000001
 30
0.0
 11
33.45139999999998
 21
62.43072155680224
 31
0.0
  0
LINE
  5
42E7
330
3AAC
100
AcDbEntity
  8
DIM
100
AcDbLine
 10
13.40139999999997
 20
61.80572155680224
 30
0.0
 11
20.67639999999998
 21
61.80572155680224
 31
0.0
  0
LINE
  5
42E8
330
3AAC
100
AcDbEntity
  8
DIM
100
AcDbLine
 10
32.75139999999997
 20
61.80572155680224
 30
0.0
 11
25.47639999999997
 21
61.80572155680224
 31
0.0
  0
INSERT
  5
42E9
330
3AAC
100
AcDbEntity
  8
DIM
100
AcDbBlockReference
  2
SEARROW
 10
12.70139999999997
 20
61.80572155680224
 30
0.0
 41
0.7000000000000001
 42
0.7000000000000001
 43
0.7000000000000001
 50
180.0
  0
INSERT
  5
42EA
330
3AAC
100
AcDbEntity
  8
DIM
100
AcDbBlockReference
  2
SEARROW
 10
33.45139999999998
 20
61.80572155680224
 30
0.0
 41
0.7000000000000001
 42
0.7000000000000001
 43
0.7000000000000001
  0
MTEXT
  5
42EB
330
3AAC
100
AcDbEntity
  8
DIM
100
AcDbMText
 10
23.07639999999997
 20
61.80572155680224
 30
0.0
 40
1.0
 41
0.0
 71
     5
 72
     1
  1
\A1;20.75
  7
ROMANS
1001
ACAD
1000
MTEXTBEGIN
1070
    73
1070
     1
1070
    44
1040
1.0
1070
    74
1070
     0
1000
MTEXTEND
  0
POINT
  5
42EC
330
3AAC
100
AcDbEntity
  8
DEFPOINTS
 62
     0
100
AcDbPoint
 10
12.70139999999997
 20
53.61270000000001
 30
0.0
  0
POINT
  5
42ED
330
3AAC
100
AcDbEntity
  8
DEFPOINTS
 62
     0
100
AcDbPoint
 10
33.45139999999998
 20
53.61270000000001
 30
0.0
  0
POINT
  5
42EE
330
3AAC
100
AcDbEntity
  8
DEFPOINTS
 62
     0
100
AcDbPoint
 10
33.45139999999998
 20
61.80572155680224
 30
0.0
  0
ENDBLK
  5
3AB8
330
3AAC
100
AcDbEntity
  8
0
100
AcDbBlockEnd
  0
BLOCK
  5
3AC4
330
3AB9
100
AcDbEntity
  8
0
100
AcDbBlockBegin
  2
*D12
 70
     1
 10
0.0
 20
0.0
 30
0.0
  3
*D12
  1

  0
LINE
  5
42EF
330
3AB9
100
AcDbEntity
  8
DIM
100
AcDbLine
 10
13.87639999999999
 20
55.1874
 30
0.0
 11
13.87639999999999
 21
59.65929619352161
 31
0.0
  0
LINE
  5
42F0
330
3AB9
100
AcDbEntity
  8
DIM
100
AcDbLine
 10
32.27639999999996
 20
55.1874
 30
0.0
 11
32.27639999999996
 21
59.65929619352161
 31
0.0
  0
LINE
  5
42F1
330
3AB9
100
AcDbEntity
  8
DIM
100
AcDbLine
 10
14.57639999999998
 20
59.03429619352161
 30
0.0
 11
20.74782857142854
 21
59.03429619352161
 31
0.0
  0
LINE
  5
42F2
330
3AB9
100
AcDbEntity
  8
DIM
100
AcDbLine
 10
31.57639999999997
 20
59.03429619352161
 30
0.0
 11
25.40497142857141
 21
59.03429619352161
 31
0.0
  0
INSERT
  5
42F3
330
3AB9
100
AcDbEntity
  8
DIM
100
AcDbBlockReference
  2
SEARROW
 10
13.87639999999999
 20
59.03429619352161
 30
0.0
 41
0.7000000000000001
 42
0.7000000000000001
 43
0.7000000000000001
 50
180.0
  0
INSERT
  5
42F4
330
3AB9
100
AcDbEntity
  8
DIM
100
AcDbBlockReference
  2
SEARROW
 10
32.27639999999996
 20
59.03429619352161
 30
0.0
 41
0.7000000000000001
 42
0.7000000000000001
 43
0.7000000000000001
  0
MTEXT
  5
42F5
330
3AB9
100
AcDbEntity
  8
DIM
100
AcDbMText
 10
23.07639999999997
 20
59.03429619352161
 30
0.0
 40
1.0
 41
0.0
 71
     5
 72
     1
  1
\A1;18.40
  7
ROMANS
1001
ACAD
1000
MTEXTBEGIN
1070
    73
1070
     1
1070
    44
1040
1.0
1070
    74
1070
     0
1000
MTEXTEND
  0
POINT
  5
42F6
330
3AB9
100
AcDbEntity
  8
DEFPOINTS
 62
     0
100
AcDbPoint
 10
13.87639999999999
 20
54.5624
 30
0.0
  0
POINT
  5
42F7
330
3AB9
100
AcDbEntity
  8
DEFPOINTS
 62
     0
100
AcDbPoint
 10
32.27639999999996
 20
54.5624
 30
0.0
  0
POINT
  5
42F8
330
3AB9
100
AcDbEntity
  8
DEFPOINTS
 62
     0
100
AcDbPoint
 10
32.27639999999996
 20
59.03429619352161
 30
0.0
  0
ENDBLK
  5
3AC5
330
3AB9
100
AcDbEntity
  8
0
100
AcDbBlockEnd
  0
BLOCK
  5
3AD1
330
3AC6
100
AcDbEntity
  8
0
100
AcDbBlockBegin
  2
*D13
 70
     1
 10
0.0
 20
0.0
 30
0.0
  3
*D13
  1

  0
LINE
  5
42F9
330
3AC6
100
AcDbEntity
  8
DIM
100
AcDbLine
 10
35.65139999999996
 20
56.9377
 30
0.0
 11
35.65139999999996
 21
59.65929619352161
 31
0.0
  0
LINE
  5
42FA
330
3AC6
100
AcDbEntity
  8
DIM
100
AcDbLine
 10
32.27639999999996
 20
55.24989999999999
 30
0.0
 11
32.27639999999996
 21
59.65929619352161
 31
0.0
  0
LINE
  5
42FB
330
3AC6
100
AcDbEntity
  8
DIM
100
AcDbLine
 10
32.97639999999997
 20
59.03429619352161
 30
0.0
 11
34.95139999999996
 21
59.03429619352161
 31
0.0
  0
LINE
  5
42FC
330
3AC6
100
AcDbEntity
  8
DIM
100
AcDbLine
 10
35.65139999999996
 20
59.03429619352161
 30
0.0
 11
36.83526888243241
 21
59.03429619352161
 31
0.0
  0
INSERT
  5
42FD
330
3AC6
100
AcDbEntity
  8
DIM
100
AcDbBlockReference
  2
SEARROW
 10
32.27639999999996
 20
59.03429619352161
 30
0.0
 41
0.7000000000000001
 42
0.7000000000000001
 43
0.7000000000000001
 50
180.0
  0
INSERT
  5
42FE
330
3AC6
100
AcDbEntity
  8
DIM
100
AcDbBlockReference
  2
SEARROW
 10
35.65139999999996
 20
59.03429619352161
 30
0.0
 41
0.7000000000000001
 42
0.7000000000000001
 43
0.7000000000000001
  0
MTEXT
  5
42FF
330
3AC6
100
AcDbEntity
  8
DIM
100
AcDbMText
 10
38.75907840624194
 20
59.03429619352161
 30
0.0
 40
1.0
 41
0.0
 71
     5
 72
     1
  1
\A1;3.38
  7
ROMANS
1001
ACAD
1000
MTEXTBEGIN
1070
    73
1070
     1
1070
    44
1040
1.0
1070
    74
1070
     0
1000
MTEXTEND
  0
POINT
  5
4300
330
3AC6
100
AcDbEntity
  8
DEFPOINTS
 62
     0
100
AcDbPoint
 10
35.65139999999996
 20
56.3127
 30
0.0
  0
POINT
  5
4301
330
3AC6
100
AcDbEntity
  8
DEFPOINTS
 62
     0
100
AcDbPoint
 10
32.27639999999996
 20
54.62489999999999
 30
0.0
  0
POINT
  5
4302
330
3AC6
100
AcDbEntity
  8
DEFPOINTS
 62
     0
100
AcDbPoint
 10
32.27639999999996
 20
59.03429619352161
 30
0.0
  0
ENDBLK
  5
3AD2
330
3AC6
100
AcDbEntity
  8
0
100
AcDbBlockEnd
  0
BLOCK
  5
3ADE
330
3AD3
100
AcDbEntity
  8
0
100
AcDbBlockBegin
  2
*D14
 70
     1
 10
0.0
 20
0.0
 30
0.0
  3
*D14
  1

  0
LINE
  5
4303
330
3AD3
100
AcDbEntity
  8
DIM
100
AcDbLine
 10
10.50139999999998
 20
56.9377
 30
0.0
 11
10.50139999999998
 21
59.65929619352161
 31
0.0
  0
LINE
  5
4304
330
3AD3
100
AcDbEntity
  8
DIM
100
AcDbLine
 10
13.87639999999999
 20
55.24989999999999
 30
0.0
 11
13.87639999999999
 21
59.65929619352161
 31
0.0
  0
LINE
  5
4305
330
3AD3
100
AcDbEntity
  8
DIM
100
AcDbLine
 10
13.17639999999999
 20
59.03429619352161
 30
0.0
 11
11.20139999999999
 21
59.03429619352161
 31
0.0
  0
LINE
  5
4306
330
3AD3
100
AcDbEntity
  8
DIM
100
AcDbLine
 10
10.50139999999998
 20
59.03429619352161
 30
0.0
 11
9.801399999999972
 21
59.03429619352161
 31
0.0
  0
INSERT
  5
4307
330
3AD3
100
AcDbEntity
  8
DIM
100
AcDbBlockReference
  2
SEARROW
 10
13.87639999999999
 20
59.03429619352161
 30
0.0
 41
0.7000000000000001
 42
0.7000000000000001
 43
0.7000000000000001
  0
INSERT
  5
4308
330
3AD3
100
AcDbEntity
  8
DIM
100
AcDbBlockReference
  2
SEARROW
 10
10.50139999999998
 20
59.03429619352161
 30
0.0
 41
0.7000000000000001
 42
0.7000000000000001
 43
0.7000000000000001
 50
180.0
  0
MTEXT
  5
4309
330
3AD3
100
AcDbEntity
  8
DIM
100
AcDbMText
 10
7.877590476190448
 20
59.03429619352161
 30
0.0
 40
1.0
 41
0.0
 71
     5
 72
     1
  1
\A1;3.38
  7
ROMANS
1001
ACAD
1000
MTEXTBEGIN
1070
    73
1070
     1
1070
    44
1040
1.0
1070
    74
1070
     0
1000
MTEXTEND
  0
POINT
  5
430A
330
3AD3
100
AcDbEntity
  8
DEFPOINTS
 62
     0
100
AcDbPoint
 10
10.50139999999998
 20
56.3127
 30
0.0
  0
POINT
  5
430B
330
3AD3
100
AcDbEntity
  8
DEFPOINTS
 62
     0
100
AcDbPoint
 10
13.87639999999999
 20
54.62489999999999
 30
0.0
  0
POINT
  5
430C
330
3AD3
100
AcDbEntity
  8
DEFPOINTS
 62
     0
100
AcDbPoint
 10
13.87639999999999
 20
59.03429619352161
 30
0.0
  0
ENDBLK
  5
3ADF
330
3AD3
100
AcDbEntity
  8
0
100
AcDbBlockEnd
  0
BLOCK
  5
3AEB
330
3AE0
100
AcDbEntity
  8
0
100
AcDbBlockBegin
  2
*D15
 70
     1
 10
0.0
 20
0.0
 30
0.0
  3
*D15
  1

  0
LINE
  5
430D
330
3AE0
100
AcDbEntity
  8
DIM
100
AcDbLine
 10
10.50139999999998
 20
56.9377
 30
0.0
 11
10.50139999999998
 21
62.43072155680224
 31
0.0
  0
LINE
  5
430E
330
3AE0
100
AcDbEntity
  8
DIM
100
AcDbLine
 10
12.70139999999997
 20
54.30020000000002
 30
0.0
 11
12.70139999999997
 21
62.43072155680224
 31
0.0
  0
LINE
  5
430F
330
3AE0
100
AcDbEntity
  8
DIM
100
AcDbLine
 10
13.40139999999997
 20
61.80572155680224
 30
0.0
 11
14.10139999999997
 21
61.80572155680224
 31
0.0
  0
LINE
  5
4310
330
3AE0
100
AcDbEntity
  8
DIM
100
AcDbLine
 10
9.80139999999999
 20
61.80572155680224
 30
0.0
 11
9.101399999999983
 21
61.80572155680224
 31
0.0
  0
INSERT
  5
4311
330
3AE0
100
AcDbEntity
  8
DIM
100
AcDbBlockReference
  2
SEARROW
 10
12.70139999999997
 20
61.80572155680224
 30
0.0
 41
0.7000000000000001
 42
0.7000000000000001
 43
0.7000000000000001
 50
180.0
  0
INSERT
  5
4312
330
3AE0
100
AcDbEntity
  8
DIM
100
AcDbBlockReference
  2
SEARROW
 10
10.50139999999998
 20
61.80572155680224
 30
0.0
 41
0.7000000000000001
 42
0.7000000000000001
 43
0.7000000000000001
  0
MTEXT
  5
4313
330
3AE0
100
AcDbEntity
  8
DIM
100
AcDbMText
 10
7.177590476190459
 20
61.80572155680224
 30
0.0
 40
1.0
 41
0.0
 71
     5
 72
     1
  1
\A1;2.20
  7
ROMANS
1001
ACAD
1000
MTEXTBEGIN
1070
    73
1070
     1
1070
    44
1040
1.0
1070
    74
1070
     0
1000
MTEXTEND
  0
POINT
  5
4314
330
3AE0
100
AcDbEntity
  8
DEFPOINTS
 62
     0
100
AcDbPoint
 10
10.50139999999998
 20
56.3127
 30
0.0
  0
POINT
  5
4315
330
3AE0
100
AcDbEntity
  8
DEFPOINTS
 62
     0
100
AcDbPoint
 10
12.70139999999997
 20
53.67520000000002
 30
0.0
  0
POINT
  5
4316
330
3AE0
100
AcDbEntity
  8
DEFPOINTS
 62
     0
100
AcDbPoint
 10
12.70139999999997
 20
61.80572155680224
 30
0.0
  0
ENDBLK
  5
3AEC
330
3AE0
100
AcDbEntity
  8
0
100
AcDbBlockEnd
  0
BLOCK
  5
3AF8
330
3AED
100
AcDbEntity
  8
0
100
AcDbBlockBegin
  2
*D16
 70
     1
 10
0.0
 20
0.0
 30
0.0
  3
*D16
  1

  0
LINE
  5
4317
330
3AED
100
AcDbEntity
  8
DIM
100
AcDbLine
 10
36.27639999999996
 20
56.3127
 30
0.0
 11
45.09905306828819
 21
56.3127
 31
0.0
  0
LINE
  5
4318
330
3AED
100
AcDbEntity
  8
DIM
100
AcDbLine
 10
36.27639999999996
 20
32.5327
 30
0.0
 11
45.09905306828819
 21
32.5327
 31
0.0
  0
LINE
  5
4319
330
3AED
100
AcDbEntity
  8
DIM
100
AcDbLine
 10
44.47405306828819
 20
55.6127
 30
0.0
 11
44.47405306828819
 21
45.3227
 31
0.0
  0
LINE
  5
431A
330
3AED
100
AcDbEntity
  8
DIM
100
AcDbLine
 10
44.47405306828819
 20
33.2327
 30
0.0
 11
44.47405306828819
 21
43.5227
 31
0.0
  0
INSERT
  5
431B
330
3AED
100
AcDbEntity
  8
DIM
100
AcDbBlockReference
  2
SEARROW
 10
44.47405306828819
 20
56.3127
 30
0.0
 41
0.7000000000000001
 42
0.7000000000000001
 43
0.7000000000000001
 50
90.0
  0
INSERT
  5
431C
330
3AED
100
AcDbEntity
  8
DIM
100
AcDbBlockReference
  2
SEARROW
 10
44.47405306828819
 20
32.5327
 30
0.0
 41
0.7000000000000001
 42
0.7000000000000001
 43
0.7000000000000001
 50
270.0
  0
MTEXT
  5
431D
330
3AED
100
AcDbEntity
  8
DIM
100
AcDbMText
 10
44.47405306828818
 20
44.42270000000001
 30
0.0
 40
1.0
 41
0.0
 71
     5
 72
     1
  1
\A1;23.78
  7
ROMANS
1001
ACAD
1000
MTEXTBEGIN
1070
    73
1070
     1
1070
    44
1040
1.0
1070
    74
1070
     0
1000
MTEXTEND
  0
POINT
  5
431E
330
3AED
100
AcDbEntity
  8
DEFPOINTS
 62
     0
100
AcDbPoint
 10
35.65139999999996
 20
56.3127
 30
0.0
  0
POINT
  5
431F
330
3AED
100
AcDbEntity
  8
DEFPOINTS
 62
     0
100
AcDbPoint
 10
35.65139999999996
 20
32.5327
 30
0.0
  0
POINT
  5
4320
330
3AED
100
AcDbEntity
  8
DEFPOINTS
 62
     0
100
AcDbPoint
 10
44.47405306828819
 20
32.5327
 30
0.0
  0
ENDBLK
  5
3AF9
330
3AED
100
AcDbEntity
  8
0
100
AcDbBlockEnd
  0
BLOCK
  5
3B05
330
3AFA
100
AcDbEntity
  8
0
100
AcDbBlockBegin
  2
*D17
 70
     1
 10
0.0
 20
0.0
 30
0.0
  3
*D17
  1

  0
LINE
  5
4321
330
3AFA
100
AcDbEntity
  8
DIM
100
AcDbLine
 10
34.07639999999998
 20
53.61270000000001
 30
0.0
 11
39.57999781754612
 21
53.61270000000001
 31
0.0
  0
LINE
  5
4322
330
3AFA
100
AcDbEntity
  8
DIM
100
AcDbLine
 10
34.07639999999998
 20
35.23269999999999
 30
0.0
 11
39.57999781754611
 21
35.23269999999999
 31
0.0
  0
LINE
  5
4323
330
3AFA
100
AcDbEntity
  8
DIM
100
AcDbLine
 10
38.95499781754612
 20
52.91270000000001
 30
0.0
 11
38.95499781754611
 21
45.3227
 31
0.0
  0
LINE
  5
4324
330
3AFA
100
AcDbEntity
  8
DIM
100
AcDbLine
 10
38.95499781754611
 20
35.93269999999999
 30
0.0
 11
38.95499781754611
 21
43.5227
 31
0.0
  0
INSERT
  5
4325
330
3AFA
100
AcDbEntity
  8
DIM
100
AcDbBlockReference
  2
SEARROW
 10
38.95499781754612
 20
53.61270000000001
 30
0.0
 41
0.7000000000000001
 42
0.7000000000000001
 43
0.7000000000000001
 50
90.0
  0
INSERT
  5
4326
330
3AFA
100
AcDbEntity
  8
DIM
100
AcDbBlockReference
  2
SEARROW
 10
38.95499781754611
 20
35.23269999999999
 30
0.0
 41
0.7000000000000001
 42
0.7000000000000001
 43
0.7000000000000001
 50
270.0
  0
MTEXT
  5
4327
330
3AFA
100
AcDbEntity
  8
DIM
100
AcDbMText
 10
38.9549978175461
 20
44.42270000000001
 30
0.0
 40
1.0
 41
0.0
 71
     5
 72
     1
  1
\A1;18.38
  7
ROMANS
1001
ACAD
1000
MTEXTBEGIN
1070
    73
1070
     1
1070
    44
1040
1.0
1070
    74
1070
     0
1000
MTEXTEND
  0
POINT
  5
4328
330
3AFA
100
AcDbEntity
  8
DEFPOINTS
 62
     0
100
AcDbPoint
 10
33.45139999999998
 20
53.61270000000001
 30
0.0
  0
POINT
  5
4329
330
3AFA
100
AcDbEntity
  8
DEFPOINTS
 62
     0
100
AcDbPoint
 10
33.45139999999998
 20
35.23269999999999
 30
0.0
  0
POINT
  5
432A
330
3AFA
100
AcDbEntity
  8
DEFPOINTS
 62
     0
100
AcDbPoint
 10
38.95499781754611
 20
35.23269999999999
 30
0.0
  0
ENDBLK
  5
3B06
330
3AFA
100
AcDbEntity
  8
0
100
AcDbBlockEnd
  0
BLOCK
  5
3B12
330
3B07
100
AcDbEntity
  8
0
100
AcDbBlockBegin
  2
*D18
 70
     1
 10
0.0
 20
0.0
 30
0.0
  3
*D18
  1

  0
LINE
  5
432B
330
3B07
100
AcDbEntity
  8
DIM
100
AcDbLine
 10
12.84869999999997
 20
54.15969999999998
 30
0.0
 11
6.954999248204249
 21
54.15969999999998
 31
0.0
  0
LINE
  5
432C
330
3B07
100
AcDbEntity
  8
DIM
100
AcDbLine
 10
12.84869999999997
 20
34.65969999999998
 30
0.0
 11
6.954999248204245
 21
34.65969999999998
 31
0.0
  0
LINE
  5
432D
330
3B07
100
AcDbEntity
  8
DIM
100
AcDbLine
 10
7.579999248204249
 20
53.45969999999998
 30
0.0
 11
7.579999248204247
 21
45.30969999999999
 31
0.0
  0
LINE
  5
432E
330
3B07
100
AcDbEntity
  8
DIM
100
AcDbLine
 10
7.579999248204245
 20
35.35969999999998
 30
0.0
 11
7.579999248204247
 21
43.50969999999999
 31
0.0
  0
INSERT
  5
432F
330
3B07
100
AcDbEntity
  8
DIM
100
AcDbBlockReference
  2
SEARROW
 10
7.579999248204249
 20
54.15969999999998
 30
0.0
 41
0.7000000000000001
 42
0.7000000000000001
 43
0.7000000000000001
 50
90.0
  0
INSERT
  5
4330
330
3B07
100
AcDbEntity
  8
DIM
100
AcDbBlockReference
  2
SEARROW
 10
7.579999248204245
 20
34.65969999999998
 30
0.0
 41
0.7000000000000001
 42
0.7000000000000001
 43
0.7000000000000001
 50
270.0
  0
MTEXT
  5
4331
330
3B07
100
AcDbEntity
  8
DIM
100
AcDbMText
 10
7.57999924820424
 20
44.40969999999999
 30
0.0
 40
1.0
 41
0.0
 71
     5
 72
     1
  1
\A1;19.50
  7
ROMANS
1001
ACAD
1000
MTEXTBEGIN
1070
    73
1070
     1
1070
    44
1040
1.0
1070
    74
1070
     0
1000
MTEXTEND
  0
POINT
  5
4332
330
3B07
100
AcDbEntity
  8
DEFPOINTS
 62
     0
100
AcDbPoint
 10
13.47369999999997
 20
54.15969999999998
 30
0.0
  0
POINT
  5
4333
330
3B07
100
AcDbEntity
  8
DEFPOINTS
 62
     0
100
AcDbPoint
 10
13.47369999999997
 20
34.65969999999998
 30
0.0
  0
POINT
  5
4334
330
3B07
100
AcDbEntity
  8
DEFPOINTS
 62
     0
100
AcDbPoint
 10
7.579999248204245
 20
34.65969999999998
 30
0.0
  0
ENDBLK
  5
3B13
330
3B07
100
AcDbEntity
  8
0
100
AcDbBlockEnd
  0
BLOCK
  5
3B20
330
3B14
100
AcDbEntity
  8
0
100
AcDbBlockBegin
  2
*D19
 70
     1
 10
0.0
 20
0.0
 30
0.0
  3
*D19
  1

  0
LINE
  5
440B
330
3B14
100
AcDbEntity
  8
DIM
100
AcDbLine
 10
36.27639999999996
 20
32.5327
 30
0.0
 11
39.57999781754611
 21
32.5327
 31
0.0
  0
LINE
  5
440C
330
3B14
100
AcDbEntity
  8
DIM
100
AcDbLine
 10
34.13889999999998
 20
35.23269999999999
 30
0.0
 11
39.57999781754611
 21
35.23269999999999
 31
0.0
  0
LINE
  5
440D
330
3B14
100
AcDbEntity
  8
DIM
100
AcDbLine
 10
38.95499781754611
 20
33.2327
 30
0.0
 11
38.95499781754611
 21
34.53269999999999
 31
0.0
  0
LINE
  5
440E
330
3B14
100
AcDbEntity
  8
DIM
100
AcDbLine
 10
39.65499781754612
 20
30.41947033262027
 30
0.0
 11
38.95499781754611
 21
30.41947033262027
 31
0.0
  0
LINE
  5
440F
330
3B14
100
AcDbEntity
  8
DIM
100
AcDbLine
 10
38.95499781754611
 20
30.41947033262027
 30
0.0
 11
38.95499781754611
 21
32.5327
 31
0.0
  0
MTEXT
  5
4410
330
3B14
100
AcDbEntity
  8
DIM
100
AcDbMText
 10
41.57880734135563
 20
30.41947033262028
 30
0.0
 40
1.0
 41
0.0
 71
     5
 72
     1
  1
\A1;2.70
  7
ROMANS
  0
INSERT
  5
4411
330
3B14
100
AcDbEntity
  8
DIM
100
AcDbBlockReference
  2
SEARROW
 10
38.95499781754611
 20
32.5327
 30
0.0
 41
0.7000000000000001
 42
0.7000000000000001
 43
0.7000000000000001
 50
270.0
  0
INSERT
  5
4412
330
3B14
100
AcDbEntity
  8
DIM
100
AcDbBlockReference
  2
SEARROW
 10
38.95499781754611
 20
35.23269999999999
 30
0.0
 41
0.7000000000000001
 42
0.7000000000000001
 43
0.7000000000000001
 50
90.0
  0
POINT
  5
4413
330
3B14
100
AcDbEntity
  8
DEFPOINTS
 62
     0
100
AcDbPoint
 10
35.65139999999996
 20
32.5327
 30
0.0
  0
POINT
  5
4414
330
3B14
100
AcDbEntity
  8
DEFPOINTS
 62
     0
100
AcDbPoint
 10
33.51389999999998
 20
35.23269999999999
 30
0.0
  0
POINT
  5
4415
330
3B14
100
AcDbEntity
  8
DEFPOINTS
 62
     0
100
AcDbPoint
 10
38.95499781754611
 20
35.23269999999999
 30
0.0
  0
ENDBLK
  5
3B21
330
3B14
100
AcDbEntity
  8
0
100
AcDbBlockEnd
  0
BLOCK
  5
3B2D
330
3B22
100
AcDbEntity
  8
0
100
AcDbBlockBegin
  2
*D20
 70
     1
 10
0.0
 20
0.0
 30
0.0
  3
*D20
  1

  0
LINE
  5
4340
330
3B22
100
AcDbEntity
  8
DIM
100
AcDbLine
 10
9.876399999999989
 20
32.5327
 30
0.0
 11
6.954999248204244
 21
32.5327
 31
0.0
  0
LINE
  5
4341
330
3B22
100
AcDbEntity
  8
DIM
100
AcDbLine
 10
12.78619999999998
 20
34.65969999999998
 30
0.0
 11
6.954999248204245
 21
34.65969999999998
 31
0.0
  0
LINE
  5
4342
330
3B22
100
AcDbEntity
  8
DIM
100
AcDbLine
 10
7.579999248204244
 20
31.8327
 30
0.0
 11
7.579999248204244
 21
31.1327
 31
0.0
  0
LINE
  5
4343
330
3B22
100
AcDbEntity
  8
DIM
100
AcDbLine
 10
7.579999248204245
 20
35.35969999999998
 30
0.0
 11
7.579999248204245
 21
36.05969999999998
 31
0.0
  0
INSERT
  5
4344
330
3B22
100
AcDbEntity
  8
DIM
100
AcDbBlockReference
  2
SEARROW
 10
7.579999248204244
 20
32.5327
 30
0.0
 41
0.7000000000000001
 42
0.7000000000000001
 43
0.7000000000000001
 50
90.0
  0
INSERT
  5
4345
330
3B22
100
AcDbEntity
  8
DIM
100
AcDbBlockReference
  2
SEARROW
 10
7.579999248204245
 20
34.65969999999998
 30
0.0
 41
0.7000000000000001
 42
0.7000000000000001
 43
0.7000000000000001
 50
270.0
  0
MTEXT
  5
4346
330
3B22
100
AcDbEntity
  8
DIM
100
AcDbMText
 10
7.579999248204239
 20
33.59619999999999
 30
0.0
 40
1.0
 41
0.0
 71
     5
 72
     1
  1
\A1;2.13
  7
ROMANS
1001
ACAD
1000
MTEXTBEGIN
1070
    73
1070
     1
1070
    44
1040
1.0
1070
    74
1070
     0
1000
MTEXTEND
  0
POINT
  5
4347
330
3B22
100
AcDbEntity
  8
DEFPOINTS
 62
     0
100
AcDbPoint
 10
10.50139999999998
 20
32.5327
 30
0.0
  0
POINT
  5
4348
330
3B22
100
AcDbEntity
  8
DEFPOINTS
 62
     0
100
AcDbPoint
 10
13.41119999999998
 20
34.65969999999998
 30
0.0
  0
POINT
  5
4349
330
3B22
100
AcDbEntity
  8
DEFPOINTS
 62
     0
100
AcDbPoint
 10
7.579999248204245
 20
34.65969999999998
 30
0.0
  0
ENDBLK
  5
3B2E
330
3B22
100
AcDbEntity
  8
0
100
AcDbBlockEnd
  0
BLOCK
  5
3C4B
330
3C40
100
AcDbEntity
  8
0
100
AcDbBlockBegin
  2
*D21
 70
     1
 10
0.0
 20
0.0
 30
0.0
  3
*D21
  1

  0
LINE
  5
434A
330
3C40
100
AcDbEntity
  8
DIM
100
AcDbLine
 10
61.57849999999999
 20
91.97599999999885
 30
0.0
 11
61.57849999999999
 21
96.19290501160669
 31
0.0
  0
LINE
  5
434B
330
3C40
100
AcDbEntity
  8
DIM
100
AcDbLine
 10
86.72787640245035
 20
91.9819024965759
 30
0.0
 11
86.72787640245035
 21
96.19290501160669
 31
0.0
  0
LINE
  5
434C
330
3C40
100
AcDbEntity
  8
DIM
100
AcDbLine
 10
62.2785
 20
95.56790501160667
 30
0.0
 11
71.75318820122516
 21
95.56790501160667
 31
0.0
  0
LINE
  5
434D
330
3C40
100
AcDbEntity
  8
DIM
100
AcDbLine
 10
86.02787640245034
 20
95.56790501160667
 30
0.0
 11
76.55318820122516
 21
95.56790501160667
 31
0.0
  0
INSERT
  5
434E
330
3C40
100
AcDbEntity
  8
DIM
100
AcDbBlockReference
  2
SEARROW
 10
61.57849999999999
 20
95.56790501160667
 30
0.0
 41
0.7000000000000001
 42
0.7000000000000001
 43
0.7000000000000001
 50
180.0
  0
INSERT
  5
434F
330
3C40
100
AcDbEntity
  8
DIM
100
AcDbBlockReference
  2
SEARROW
 10
86.72787640245035
 20
95.56790501160667
 30
0.0
 41
0.7000000000000001
 42
0.7000000000000001
 43
0.7000000000000001
  0
MTEXT
  5
4350
330
3C40
100
AcDbEntity
  8
DIM
100
AcDbMText
 10
74.15318820122516
 20
95.56790501160667
 30
0.0
 40
1.0
 41
0.0
 71
     5
 72
     1
  1
\A1;25.15
  7
ROMANS
1001
ACAD
1000
MTEXTBEGIN
1070
    73
1070
     1
1070
    44
1040
1.0
1070
    74
1070
     0
1000
MTEXTEND
  0
POINT
  5
4351
330
3C40
100
AcDbEntity
  8
DEFPOINTS
 62
     0
100
AcDbPoint
 10
61.57849999999999
 20
91.35099999999885
 30
0.0
  0
POINT
  5
4352
330
3C40
100
AcDbEntity
  8
DEFPOINTS
 62
     0
100
AcDbPoint
 10
86.72787640245035
 20
91.3569024965759
 30
0.0
  0
POINT
  5
4353
330
3C40
100
AcDbEntity
  8
DEFPOINTS
 62
     0
100
AcDbPoint
 10
86.72787640245035
 20
95.56790501160667
 30
0.0
  0
ENDBLK
  5
3C4C
330
3C40
100
AcDbEntity
  8
0
100
AcDbBlockEnd
  0
BLOCK
  5
3C59
330
3C4E
100
AcDbEntity
  8
0
100
AcDbBlockBegin
  2
*D22
 70
     1
 10
0.0
 20
0.0
 30
0.0
  3
*D22
  1

  0
LINE
  5
4354
330
3C4E
100
AcDbEntity
  8
DIM
100
AcDbLine
 10
61.00930000000638
 20
91.40680000000001
 30
0.0
 11
55.57013485658448
 21
91.40680000000001
 31
0.0
  0
LINE
  5
4355
330
3C4E
100
AcDbEntity
  8
DIM
100
AcDbLine
 10
60.99059999999999
 20
25.4068
 30
0.0
 11
55.57013485658447
 21
25.4068
 31
0.0
  0
LINE
  5
4356
330
3C4E
100
AcDbEntity
  8
DIM
100
AcDbLine
 10
56.19513485658448
 20
90.70680000000001
 30
0.0
 11
56.19513485658448
 21
59.3068
 31
0.0
  0
LINE
  5
4357
330
3C4E
100
AcDbEntity
  8
DIM
100
AcDbLine
 10
56.19513485658447
 20
26.1068
 30
0.0
 11
56.19513485658448
 21
57.5068
 31
0.0
  0
INSERT
  5
4358
330
3C4E
100
AcDbEntity
  8
DIM
100
AcDbBlockReference
  2
SEARROW
 10
56.19513485658448
 20
91.40680000000001
 30
0.0
 41
0.7000000000000001
 42
0.7000000000000001
 43
0.7000000000000001
 50
90.0
  0
INSERT
  5
4359
330
3C4E
100
AcDbEntity
  8
DIM
100
AcDbBlockReference
  2
SEARROW
 10
56.19513485658447
 20
25.4068
 30
0.0
 41
0.7000000000000001
 42
0.7000000000000001
 43
0.7000000000000001
 50
270.0
  0
MTEXT
  5
435A
330
3C4E
100
AcDbEntity
  8
DIM
100
AcDbMText
 10
56.19513485658447
 20
58.40680000000002
 30
0.0
 40
1.0
 41
0.0
 71
     5
 72
     1
  1
\A1;66.00
  7
ROMANS
1001
ACAD
1000
MTEXTBEGIN
1070
    73
1070
     1
1070
    44
1040
1.0
1070
    74
1070
     0
1000
MTEXTEND
  0
POINT
  5
435B
330
3C4E
100
AcDbEntity
  8
DEFPOINTS
 62
     0
100
AcDbPoint
 10
61.63430000000638
 20
91.40680000000001
 30
0.0
  0
POINT
  5
435C
330
3C4E
100
AcDbEntity
  8
DEFPOINTS
 62
     0
100
AcDbPoint
 10
61.61559999999999
 20
25.4068
 30
0.0
  0
POINT
  5
435D
330
3C4E
100
AcDbEntity
  8
DEFPOINTS
 62
     0
100
AcDbPoint
 10
56.19513485658447
 20
25.4068
 30
0.0
  0
ENDBLK
  5
3C5A
330
3C4E
100
AcDbEntity
  8
0
100
AcDbBlockEnd
  0
BLOCK
  5
3C67
330
3C5C
100
AcDbEntity
  8
0
100
AcDbBlockBegin
  2
*D23
 70
     1
 10
0.0
 20
0.0
 30
0.0
  3
*D23
  1

  0
LINE
  5
435E
330
3C5C
100
AcDbEntity
  8
DIM
100
AcDbLine
 10
125.9759999999999
 20
89.23415039591398
 30
0.0
 11
125.9759999999999
 21
96.55288856001766
 31
0.0
  0
LINE
  5
435F
330
3C5C
100
AcDbEntity
  8
DIM
100
AcDbLine
 10
151.1759999999999
 20
91.80021844174532
 30
0.0
 11
151.1759999999999
 21
96.55288856001766
 31
0.0
  0
LINE
  5
4360
330
3C5C
100
AcDbEntity
  8
DIM
100
AcDbLine
 10
126.676
 20
95.92788856001766
 30
0.0
 11
136.1759999999999
 21
95.92788856001766
 31
0.0
  0
LINE
  5
4361
330
3C5C
100
AcDbEntity
  8
DIM
100
AcDbLine
 10
150.476
 20
95.92788856001766
 30
0.0
 11
140.976
 21
95.92788856001766
 31
0.0
  0
INSERT
  5
4362
330
3C5C
100
AcDbEntity
  8
DIM
100
AcDbBlockReference
  2
SEARROW
 10
125.9759999999999
 20
95.92788856001766
 30
0.0
 41
0.7000000000000001
 42
0.7000000000000001
 43
0.7000000000000001
 50
180.0
  0
INSERT
  5
4363
330
3C5C
100
AcDbEntity
  8
DIM
100
AcDbBlockReference
  2
SEARROW
 10
151.1759999999999
 20
95.92788856001766
 30
0.0
 41
0.7000000000000001
 42
0.7000000000000001
 43
0.7000000000000001
  0
MTEXT
  5
4364
330
3C5C
100
AcDbEntity
  8
DIM
100
AcDbMText
 10
138.5759999999999
 20
95.92788856001766
 30
0.0
 40
1.0
 41
0.0
 71
     5
 72
     1
  1
\A1;25.20
  7
ROMANS
1001
ACAD
1000
MTEXTBEGIN
1070
    73
1070
     1
1070
    44
1040
1.0
1070
    74
1070
     0
1000
MTEXTEND
  0
POINT
  5
4365
330
3C5C
100
AcDbEntity
  8
DEFPOINTS
 62
     0
100
AcDbPoint
 10
125.9759999999999
 20
88.60915039591398
 30
0.0
  0
POINT
  5
4366
330
3C5C
100
AcDbEntity
  8
DEFPOINTS
 62
     0
100
AcDbPoint
 10
151.1759999999999
 20
91.17521844174532
 30
0.0
  0
POINT
  5
4367
330
3C5C
100
AcDbEntity
  8
DEFPOINTS
 62
     0
100
AcDbPoint
 10
151.1759999999999
 20
95.92788856001766
 30
0.0
  0
ENDBLK
  5
3C68
330
3C5C
100
AcDbEntity
  8
0
100
AcDbBlockEnd
  0
BLOCK
  5
3C75
330
3C6A
100
AcDbEntity
  8
0
100
AcDbBlockBegin
  2
*D24
 70
     1
 10
0.0
 20
0.0
 30
0.0
  3
*D24
  1

  0
LINE
  5
4368
330
3C6A
100
AcDbEntity
  8
DIM
100
AcDbLine
 10
138.958
 20
72.93099999999999
 30
0.0
 11
158.0537888788047
 21
72.93099999999999
 31
0.0
  0
LINE
  5
4369
330
3C6A
100
AcDbEntity
  8
DIM
100
AcDbLine
 10
151.451
 20
25.4068
 30
0.0
 11
158.0537888788047
 21
25.4068
 31
0.0
  0
LINE
  5
436A
330
3C6A
100
AcDbEntity
  8
DIM
100
AcDbLine
 10
157.4287888788047
 20
72.23099999999999
 30
0.0
 11
157.4287888788047
 21
50.06889999999999
 31
0.0
  0
LINE
  5
436B
330
3C6A
100
AcDbEntity
  8
DIM
100
AcDbLine
 10
157.4287888788047
 20
26.10679999999999
 30
0.0
 11
157.4287888788047
 21
48.26889999999999
 31
0.0
  0
INSERT
  5
436C
330
3C6A
100
AcDbEntity
  8
DIM
100
AcDbBlockReference
  2
SEARROW
 10
157.4287888788047
 20
72.93099999999999
 30
0.0
 41
0.7000000000000001
 42
0.7000000000000001
 43
0.7000000000000001
 50
90.0
  0
INSERT
  5
436D
330
3C6A
100
AcDbEntity
  8
DIM
100
AcDbBlockReference
  2
SEARROW
 10
157.4287888788047
 20
25.4068
 30
0.0
 41
0.7000000000000001
 42
0.7000000000000001
 43
0.7000000000000001
 50
270.0
  0
MTEXT
  5
436E
330
3C6A
100
AcDbEntity
  8
DIM
100
AcDbMText
 10
157.4287888788047
 20
49.16890000000002
 30
0.0
 40
1.0
 41
0.0
 71
     5
 72
     1
  1
\A1;47.52
  7
ROMANS
1001
ACAD
1000
MTEXTBEGIN
1070
    73
1070
     1
1070
    44
1040
1.0
1070
    74
1070
     0
1000
MTEXTEND
  0
POINT
  5
436F
330
3C6A
100
AcDbEntity
  8
DEFPOINTS
 62
     0
100
AcDbPoint
 10
138.3329999999999
 20
72.93099999999999
 30
0.0
  0
POINT
  5
4370
330
3C6A
100
AcDbEntity
  8
DEFPOINTS
 62
     0
100
AcDbPoint
 10
150.8259999999999
 20
25.4068
 30
0.0
  0
POINT
  5
4371
330
3C6A
100
AcDbEntity
  8
DEFPOINTS
 62
     0
100
AcDbPoint
 10
157.4287888788047
 20
25.4068
 30
0.0
  0
ENDBLK
  5
3C76
330
3C6A
100
AcDbEntity
  8
0
100
AcDbBlockEnd
  0
BLOCK
  5
3C83
330
3C78
100
AcDbEntity
  8
0
100
AcDbBlockBegin
  2
*D25
 70
     1
 10
0.0
 20
0.0
 30
0.0
  3
*D25
  1

  0
LINE
  5
4372
330
3C78
100
AcDbEntity
  8
DIM
100
AcDbLine
 10
139.567
 20
40.75619999999999
 30
0.0
 11
153.9102074884305
 21
40.75619999999999
 31
0.0
  0
LINE
  5
4373
330
3C78
100
AcDbEntity
  8
DIM
100
AcDbLine
 10
151.5134999999999
 20
25.4068
 30
0.0
 11
153.9102074884305
 21
25.4068
 31
0.0
  0
LINE
  5
4374
330
3C78
100
AcDbEntity
  8
DIM
100
AcDbLine
 10
153.2852074884305
 20
40.05619999999999
 30
0.0
 11
153.2852074884305
 21
33.98149999999999
 31
0.0
  0
LINE
  5
4375
330
3C78
100
AcDbEntity
  8
DIM
100
AcDbLine
 10
153.2852074884305
 20
26.10679999999999
 30
0.0
 11
153.2852074884305
 21
32.18149999999999
 31
0.0
  0
INSERT
  5
4376
330
3C78
100
AcDbEntity
  8
DIM
100
AcDbBlockReference
  2
SEARROW
 10
153.2852074884305
 20
40.75619999999999
 30
0.0
 41
0.7000000000000001
 42
0.7000000000000001
 43
0.7000000000000001
 50
90.0
  0
INSERT
  5
4377
330
3C78
100
AcDbEntity
  8
DIM
100
AcDbBlockReference
  2
SEARROW
 10
153.2852074884305
 20
25.4068
 30
0.0
 41
0.7000000000000001
 42
0.7000000000000001
 43
0.7000000000000001
 50
270.0
  0
MTEXT
  5
4378
330
3C78
100
AcDbEntity
  8
DIM
100
AcDbMText
 10
153.2852074884305
 20
33.08150000000002
 30
0.0
 40
1.0
 41
0.0
 71
     5
 72
     1
  1
\A1;15.35
  7
ROMANS
1001
ACAD
1000
MTEXTBEGIN
1070
    73
1070
     1
1070
    44
1040
1.0
1070
    74
1070
     0
1000
MTEXTEND
  0
POINT
  5
4379
330
3C78
100
AcDbEntity
  8
DEFPOINTS
 62
     0
100
AcDbPoint
 10
138.942
 20
40.75619999999999
 30
0.0
  0
POINT
  5
437A
330
3C78
100
AcDbEntity
  8
DEFPOINTS
 62
     0
100
AcDbPoint
 10
150.8885
 20
25.4068
 30
0.0
  0
POINT
  5
437B
330
3C78
100
AcDbEntity
  8
DEFPOINTS
 62
     0
100
AcDbPoint
 10
153.2852074884305
 20
25.4068
 30
0.0
  0
ENDBLK
  5
3C84
330
3C78
100
AcDbEntity
  8
0
100
AcDbBlockEnd
  0
ENDSEC
  0
SECTION
  2
ENTITIES
  0
INSERT
  5
E46
330
1F
100
AcDbEntity
  8
0
100
AcDbBlockReference
  2
SETUP
 10
6.725780313066863
 20
5.07702380357103
 30
0.0
  0
INSERT
  5
1530
330
1F
100
AcDbEntity
  8
0
100
AcDbBlockReference
  2
MEDCLUMP_DMS_1142_
 10
0.7585923366532589
 20
-1.009653345009568
 30
0.0
  0
INSERT
  5
1531
330
1F
100
AcDbEntity
  8
0
100
AcDbBlockReference
  2
MEDCLUMP_DMS_1450_
 10
0.7585923366532589
 20
-1.009653345009568
 30
0.0
  0
INSERT
  5
1532
330
1F
100
AcDbEntity
  8
0
100
AcDbBlockReference
  2
MEDCLUMP_DMS_1474_
 10
0.7585923366532589
 20
-1.009653345009568
 30
0.0
  0
INSERT
  5
1533
330
1F
100
AcDbEntity
  8
0
  6
CONTINUOUS
100
AcDbBlockReference
  2
SETUP
 10
36.22102307275557
 20
9.463835136766618
 30
0.0
  0
MTEXT
  5
18F0
330
1F
100
AcDbEntity
  8
0
100
AcDbMText
 10
0.7015888475680973
 20
9.890340654990433
 30
0.0
 40
0.2
 41
0.0
 71
     9
 72
     1
  1

  7
ROMANS
1001
ACAD
1000
MTEXTBEGIN
1070
    73
1070
     1
1070
    44
1040
1.0
1070
    74
1070
     0
1000
MTEXTEND
  0
MTEXT
  5
1936
330
1F
100
AcDbEntity
  8
0
100
AcDbMText
 10
189.0712362786796
 20
218.2169687499913
 30
0.0
 40
0.2
 41
81.2324
 71
     1
 72
     5
  1

  7
ROMANS
1001
ACAD
1000
MTEXTBEGIN
1070
    73
1070
     1
1070
    44
1040
1.0
1070
    74
1070
     0
1000
MTEXTEND
  0
MTEXT
  5
193C
330
1F
100
AcDbEntity
  8
0
100
AcDbMText
 10
53.63297733665327
 20
253.4090946549904
 30
0.0
 40
0.2
 41
0.0
 71
     9
 72
     1
  1

  7
ROMANS
1001
ACAD
1000
MTEXTBEGIN
1070
    73
1070
     1
1070
    44
1040
1.0
1070
    74
1070
     0
1000
MTEXTEND
  0
MTEXT
  5
193E
330
1F
100
AcDbEntity
  8
0
100
AcDbMText
 10
118.3282833366532
 20
200.6117216549904
 30
0.0
 40
0.2
 41
0.0
 71
     1
 72
     1
  1

  7
ROMANS
1001
ACAD
1000
MTEXTBEGIN
1070
    73
1070
     1
1070
    44
1040
1.0
1070
    74
1070
     0
1000
MTEXTEND
  0
MTEXT
  5
1940
330
1F
100
AcDbEntity
  8
0
100
AcDbMText
 10
137.7927023366533
 20
240.1654046549904
 30
0.0
 40
0.2
 41
0.0
 71
     1
 72
     1
  1

  7
ROMANS
1001
ACAD
1000
MTEXTBEGIN
1070
    73
1070
     1
1070
    44
1040
1.0
1070
    74
1070
     0
1000
MTEXTEND
  0
MTEXT
  5
1942
330
1F
100
AcDbEntity
  8
0
100
AcDbMText
 10
118.3282833366532
 20
249.3791286549903
 30
0.0
 40
0.2
 41
0.0
 71
     1
 72
     1
  1

  7
ROMANS
1001
ACAD
1000
MTEXTBEGIN
1070
    73
1070
     1
1070
    44
1040
1.0
1070
    74
1070
     0
1000
MTEXTEND
  0
MTEXT
  5
1944
330
1F
100
AcDbEntity
  8
0
100
AcDbMText
 10
137.5565703366532
 20
260.8364576549904
 30
0.0
 40
0.2
 41
0.0
 71
     1
 72
     1
  1

  7
ROMANS
1001
ACAD
1000
MTEXTBEGIN
1070
    73
1070
     1
1070
    44
1040
1.0
1070
    74
1070
     0
1000
MTEXTEND
  0
MTEXT
  5
1946
330
1F
100
AcDbEntity
  8
0
100
AcDbMText
 10
51.03124833665328
 20
95.94974065499044
 30
0.0
 40
0.2
 41
0.0
 71
     9
 72
     1
  1

  7
ROMANS
1001
ACAD
1000
MTEXTBEGIN
1070
    73
1070
     1
1070
    44
1040
1.0
1070
    74
1070
     0
1000
MTEXTEND
  0
MTEXT
  5
1948
330
1F
100
AcDbEntity
  8
0
100
AcDbMText
 10
53.26940633665328
 20
73.81266465499045
 30
0.0
 40
0.2
 41
0.0
 71
     9
 72
     1
  1

  7
ROMANS
1001
ACAD
1000
MTEXTBEGIN
1070
    73
1070
     1
1070
    44
1040
1.0
1070
    74
1070
     0
1000
MTEXTEND
  0
MTEXT
  5
194A
330
1F
100
AcDbEntity
  8
0
100
AcDbMText
 10
113.3234768366532
 20
81.84958465499041
 30
0.0
 40
0.2
 41
0.0
 71
     1
 72
     1
  1

  7
ROMANS
1001
ACAD
1000
MTEXTBEGIN
1070
    73
1070
     1
1070
    44
1040
1.0
1070
    74
1070
     0
1000
MTEXTEND
  0
MTEXT
  5
194C
330
1F
100
AcDbEntity
  8
0
100
AcDbMText
 10
116.3397238366532
 20
110.8464486549904
 30
0.0
 40
0.2
 41
0.0
 71
     1
 72
     1
  1

  7
ROMANS
1001
ACAD
1000
MTEXTBEGIN
1070
    73
1070
     1
1070
    44
1040
1.0
1070
    74
1070
     0
1000
MTEXTEND
  0
MTEXT
  5
194E
330
1F
100
AcDbEntity
  8
0
100
AcDbMText
 10
364.0419983366533
 20
258.0089236549903
 30
0.0
 40
0.2
 41
0.0
 71
     9
 72
     1
  1

  7
ROMANS
1001
ACAD
1000
MTEXTBEGIN
1070
    73
1070
     1
1070
    44
1040
1.0
1070
    74
1070
     0
1000
MTEXTEND
  0
MTEXT
  5
1950
330
1F
100
AcDbEntity
  8
0
100
AcDbMText
 10
374.1704245970126
 20
179.7432640415952
 30
0.0
 40
0.2
 41
0.0
 71
     9
 72
     1
  1

  7
ROMANS
1001
ACAD
1000
MTEXTBEGIN
1070
    73
1070
     1
1070
    44
1040
1.0
1070
    74
1070
     0
1000
MTEXTEND
  0
MTEXT
  5
1952
330
1F
100
AcDbEntity
  8
0
100
AcDbMText
 10
213.6848731135625
 20
114.1031580866561
 30
0.0
 40
0.2
 41
0.0
 71
     9
 72
     1
  1

  7
ROMANS
1001
ACAD
1000
MTEXTBEGIN
1070
    73
1070
     1
1070
    44
1040
1.0
1070
    74
1070
     0
1000
MTEXTEND
  0
MTEXT
  5
1954
330
1F
100
AcDbEntity
  8
0
100
AcDbMText
 10
261.5481263366532
 20
115.8823886549904
 30
0.0
 40
0.2
 41
0.0
 71
     1
 72
     1
  1

  7
ROMANS
1001
ACAD
1000
MTEXTBEGIN
1070
    73
1070
     1
1070
    44
1040
1.0
1070
    74
1070
     0
1000
MTEXTEND
  0
MTEXT
  5
1956
330
1F
100
AcDbEntity
  8
0
100
AcDbMText
 10
259.7213143366532
 20
106.5069966549904
 30
0.0
 40
0.2
 41
0.0
 71
     1
 72
     1
  1

  7
ROMANS
1001
ACAD
1000
MTEXTBEGIN
1070
    73
1070
     1
1070
    44
1040
1.0
1070
    74
1070
     0
1000
MTEXTEND
  0
MTEXT
  5
1958
330
1F
100
AcDbEntity
  8
0
100
AcDbMText
 10
295.7667253366532
 20
94.50920565499044
 30
0.0
 40
0.2
 41
0.0
 71
     1
 72
     1
  1

  7
ROMANS
1001
ACAD
1000
MTEXTBEGIN
1070
    73
1070
     1
1070
    44
1040
1.0
1070
    74
1070
     0
1000
MTEXTEND
  0
MTEXT
  5
195A
330
1F
100
AcDbEntity
  8
0
100
AcDbMText
 10
294.2892032198323
 20
72.69888765499043
 30
0.0
 40
0.2
 41
0.0
 71
     1
 72
     1
  1

  7
ROMANS
1001
ACAD
1000
MTEXTBEGIN
1070
    73
1070
     1
1070
    44
1040
1.0
1070
    74
1070
     0
1000
MTEXTEND
  0
MTEXT
  5
195C
330
1F
100
AcDbEntity
  8
0
100
AcDbMText
 10
255.9529913366533
 20
161.9187166549904
 30
0.0
 40
0.2
 41
0.0
 71
     1
 72
     1
  1

  7
ROMANS
1001
ACAD
1000
MTEXTBEGIN
1070
    73
1070
     1
1070
    44
1040
1.0
1070
    74
1070
     0
1000
MTEXTEND
  0
MTEXT
  5
195E
330
1F
100
AcDbEntity
  8
0
100
AcDbMText
 10
219.0826773366533
 20
140.8776966549904
 30
0.0
 40
0.2
 41
0.0
 71
     1
 72
     1
  1

  7
ROMANS
1001
ACAD
1000
MTEXTBEGIN
1070
    73
1070
     1
1070
    44
1040
1.0
1070
    74
1070
     0
1000
MTEXTEND
  0
MTEXT
  5
1960
330
1F
100
AcDbEntity
  8
0
100
AcDbMText
 10
271.5200623366533
 20
48.93008765499044
 30
0.0
 40
0.2
 41
0.0
 71
     1
 72
     1
  1

  7
ROMANS
1001
ACAD
1000
MTEXTBEGIN
1070
    73
1070
     1
1070
    44
1040
1.0
1070
    74
1070
     0
1000
MTEXTEND
  0
MTEXT
  5
1962
330
1F
100
AcDbEntity
  8
0
100
AcDbMText
 10
269.1739133366532
 20
35.87993365499044
 30
0.0
 40
0.2
 41
0.0
 71
     1
 72
     1
  1

  7
ROMANS
1001
ACAD
1000
MTEXTBEGIN
1070
    73
1070
     1
1070
    44
1040
1.0
1070
    74
1070
     0
1000
MTEXTEND
  0
LWPOLYLINE
  5
1C30
330
1F
100
AcDbEntity
  8
VIEWPORT
100
AcDbPolyline
 90
        6
 70
     1
 43
0.0
 10
164.00001
 20
102.4999999999999
 10
164.00001
 20
9.12002000000001
 10
80.02460999999996
 20
9.12002000000001
 10
80.02460999999996
 20
0.0
 10
0.0
 20
0.0
 10
0.0
 20
102.4999999999999
1001
GENIUS_GENOREF_13
1005
0
1005
0
1005
0
1005
0
1005
0
1005
0
1005
0
1005
0
  0
VIEWPORT
  5
1C31
330
1F
100
AcDbEntity
  8
VIEWPORT
100
AcDbViewport
 10
82.00000500000001
 20
51.25
 30
0.0
 40
164.00001
 41
102.4999999999999
 69
     0
1001
ACAD
1000
MVIEW
1002
{
1070
    16
1010
0.0
1020
0.0
1030
0.0
1010
0.0
1020
0.0
1030
1.0
1040
0.0
1040
1332.4999986675
1040
3642.674374006741
1040
2256.234510530157
1040
50.0
1040
0.0
1040
0.0
1070
     0
1070
   100
1070
     1
1070
     2
1070
     0
1070
     0
1070
     0
1070
     0
1040
0.0
1040
0.0
1040
0.0
1040
0.5
1040
0.5
1040
0.5
1040
0.5
1070
     0
1002
{
1002
}
1002
}
1001
GENIUS_GENOREF_13
1005
0
1005
0
1005
0
1005
0
1005
0
1005
0
1005
0
1005
0
1001
GENIUS_GENSCREG_15
1000
PF
1040
0.0
1000
DF
1040
0.0
1000
MIN
1011
-990.5265444410394
1021
-611.7801830906378
1031
0.0
1000
MAX
1011
-826.5265344410392
1021
-509.2801830906378
1031
0.0
1000
FLAGS
1070
     2
  0
LWPOLYLINE
  5
277F
330
1F
100
AcDbEntity
  8
CONTINUOUS1
100
AcDbPolyline
 90
        5
 70
     0
 43
0.0
 10
137.3359999999999
 20
69.982
 10
137.7399999999999
 20
70.6725
 10
138.67
 20
71.60210000000001
 10
139.173
 20
71.0982
 10
138.2879999999999
 20
70.2128
  0
LWPOLYLINE
  5
2780
330
1F
100
AcDbEntity
  8
HIDDEN1
100
AcDbPolyline
 90
        3
 70
     0
 43
0.0
 10
138.2879999999999
 20
70.2128
 10
138.244
 20
70.16849999999999
 10
137.925
 20
69.982
  0
LWPOLYLINE
  5
2781
330
1F
100
AcDbEntity
  8
HIDDEN1
100
AcDbPolyline
 90
        9
 70
     0
 43
0.0
 10
136.6229999999999
 20
64.77549999999999
 42
0.0434741325233238
 10
136.7169999999999
 20
64.7671
 42
0.0298578839020391
 10
136.951
 20
64.72920000000001
 42
0.026071933148651
 10
137.1589999999999
 20
64.71860000000001
 42
0.0084312798495223
 10
137.286448641323
 20
64.70408401173862
 42
0.0086660636644098
 10
137.3300278214018
 20
64.7007106556207
 42
0.0143287769401317
 10
137.3639999999999
 20
64.6996
 42
0.0108591306928092
 10
137.5029999999999
 20
64.6965
 10
138.373
 20
64.6965
  0
LWPOLYLINE
  5
2782
330
1F
100
AcDbEntity
  8
CONTINUOUS1
100
AcDbPolyline
 90
       13
 70
     0
 43
0.0
 10
142.917
 20
41.5536
 10
142.917
 20
38.3258
 10
133.4529999999999
 20
38.3258
 10
133.4529999999999
 20
39.0758
 10
133.0529999999999
 20
39.0758
 10
133.0529999999999
 20
38.3258
 10
132.0529999999999
 20
38.3258
 10
132.0529999999999
 20
39.0758
 10
131.6529999999999
 20
39.0758
 10
131.6529999999999
 20
38.3258
 10
130.9169999999999
 20
38.3258
 10
130.9169999999999
 20
47.41259999999999
 10
130.9169999999999
 20
50.75669999999999
  0
LWPOLYLINE
  5
2783
330
1F
100
AcDbEntity
  8
CONTINUOUS1
100
AcDbPolyline
 90
        4
 70
     0
 43
0.0
 10
130.9169999999999
 20
51.8452
 10
127.237
 20
51.8452
 10
127.237
 20
64.0951
 10
130.9169999999999
 20
64.0951
  0
LWPOLYLINE
  5
2784
330
1F
100
AcDbEntity
  8
CONTINUOUS1
100
AcDbPolyline
 90
       10
 70
     0
 43
0.0
 10
130.2259999999999
 20
64.0951
 10
129.315
 20
62.7604
 10
129.474
 20
60.8961
 10
128.8799999999999
 20
59.8876
 10
130.265
 20
58.3901
 10
130.1069999999999
 20
56.0979
 10
129.1179999999999
 20
55.181
 10
129.395
 20
53.4083
 10
128.8799999999999
 20
52.27759999999999
 10
129.3549999999999
 20
51.8452
  0
LWPOLYLINE
  5
2785
330
1F
100
AcDbEntity
  8
CONTINUOUS1
100
AcDbPolyline
 90
        3
 70
     0
 43
0.0
 10
130.9169999999999
 20
53.3877
 10
132.1709999999999
 20
53.3877
 10
142.917
 20
53.3877
  0
LWPOLYLINE
  5
2786
330
1F
100
AcDbEntity
  8
CONTINUOUS1
100
AcDbPolyline
 90
       20
 70
     1
 43
0.0
 10
136.271
 20
51.92910000000001
 10
136.271
 20
51.9155
 10
136.288
 20
51.8973
 10
136.301
 20
51.88410000000001
 10
136.314
 20
51.8739
 10
136.3329999999999
 20
51.8637
 10
136.345
 20
51.8637
 10
136.3559999999999
 20
51.8637
 10
136.372
 20
51.843
 10
136.472
 20
51.843
 10
136.502
 20
51.843
 10
136.5219999999999
 20
51.85290000000001
 10
136.543
 20
51.85290000000001
 10
136.5559999999999
 20
51.871
 10
136.568
 20
51.871
 10
136.568
 20
51.8808
 10
136.59
 20
51.9015
 10
136.59
 20
51.91200000000001
 10
136.59
 20
51.92350000000001
 10
136.59
 20
51.93159999999999
  0
LWPOLYLINE
  5
2787
330
1F
100
AcDbEntity
  8
CONTINUOUS1
100
AcDbPolyline
 90
       20
 70
     1
 43
0.0
 10
136.7199999999999
 20
51.92409999999999
 10
136.7199999999999
 20
51.9104
 10
136.7369999999999
 20
51.89219999999999
 10
136.7499999999999
 20
51.87909999999999
 10
136.763
 20
51.8689
 10
136.782
 20
51.85859999999999
 10
136.7939999999999
 20
51.85859999999999
 10
136.8049999999999
 20
51.85859999999999
 10
136.8209999999999
 20
51.83790000000001
 10
136.921
 20
51.83790000000001
 10
136.951
 20
51.83790000000001
 10
136.9709999999999
 20
51.84789999999999
 10
136.992
 20
51.84789999999999
 10
137.0049999999999
 20
51.866
 10
137.0169999999999
 20
51.866
 10
137.0169999999999
 20
51.8757
 10
137.039
 20
51.8965
 10
137.039
 20
51.9069
 10
137.039
 20
51.91849999999999
 10
137.039
 20
51.9265
  0
LWPOLYLINE
  5
2788
330
1F
100
AcDbEntity
  8
CONTINUOUS1
100
AcDbPolyline
 90
        5
 70
     0
 43
0.0
 10
137.107
 20
51.95579999999999
 10
137.107
 20
51.9287
 10
136.227
 20
51.9287
 10
136.227
 20
51.9557
 10
136.227
 20
51.9287
  0
CIRCLE
  5
2789
330
1F
100
AcDbEntity
  8
CONTINUOUS1
100
AcDbCircle
 10
136.667
 20
52.4558
 30
0.0
 40
0.125
  0
CIRCLE
  5
278A
330
1F
100
AcDbEntity
  8
CONTINUOUS1
100
AcDbCircle
 10
136.667
 20
52.4558
 30
0.0
 40
0.375
  0
LWPOLYLINE
  5
278B
330
1F
100
AcDbEntity
  8
CONTINUOUS1
100
AcDbPolyline
 90
        6
 70
     1
 43
0.0
 10
136.5049999999999
 20
52.73679999999999
 10
136.829
 20
52.73679999999999
 10
136.992
 20
52.4558
 10
136.829
 20
52.17480000000001
 10
136.5049999999999
 20
52.17480000000001
 10
136.3419999999999
 20
52.4558
  0
LWPOLYLINE
  5
278C
330
1F
100
AcDbEntity
  8
CONTINUOUS1
100
AcDbPolyline
 90
        7
 70
     0
 43
0.0
 10
142.971
 20
69.95580000000001
 10
143.667
 20
69.95580000000001
 10
143.667
 20
68.45579999999999
 10
143.1669999999999
 20
68.45579999999999
 10
143.1669999999999
 20
68.6228
 10
143.1669999999999
 20
68.988
 10
142.9669999999999
 20
68.988
  0
LWPOLYLINE
  5
278D
330
1F
100
AcDbEntity
  8
CONTINUOUS1
100
AcDbPolyline
 90
        7
 70
     0
 43
0.0
 10
142.9219999999999
 20
50.7057
 10
143.618
 20
50.7057
 10
143.618
 20
49.20569999999999
 10
143.1179999999999
 20
49.20569999999999
 10
143.1179999999999
 20
49.37269999999999
 10
143.1179999999999
 20
49.73790000000001
 10
142.918
 20
49.73790000000001
  0
LWPOLYLINE
  5
278E
330
1F
100
AcDbEntity
  8
CONTINUOUS1
100
AcDbPolyline
 90
        4
 70
     1
 43
0.0
 10
133.3179999999999
 20
38.9503
 10
131.7919999999999
 20
38.9503
 10
131.7919999999999
 20
39.0758
 10
133.3179999999999
 20
39.0758
  0
LWPOLYLINE
  5
278F
330
1F
100
AcDbEntity
  8
CONTINUOUS1
100
AcDbPolyline
 90
        4
 70
     1
 43
0.0
 10
133.3179999999999
 20
74.3313
 10
131.7919999999999
 20
74.3313
 10
131.7919999999999
 20
74.2058
 10
133.3179999999999
 20
74.2058
  0
LWPOLYLINE
  5
2790
330
1F
100
AcDbEntity
  8
CONTINUOUS1
100
AcDbPolyline
 90
       10
 70
     0
 43
0.0
 10
133.4529999999999
 20
74.95580000000001
 10
133.4529999999999
 20
74.2058
 10
133.0529999999999
 20
74.2058
 10
133.0529999999999
 20
74.95580000000001
 10
132.0529999999999
 20
74.95580000000001
 10
132.0529999999999
 20
74.2058
 10
131.6529999999999
 20
74.2058
 10
131.6529999999999
 20
74.95580000000001
 10
130.9169999999999
 20
74.95580000000001
 10
130.9169999999999
 20
72.0078
  0
LINE
  5
2791
330
1F
100
AcDbEntity
  8
CONTINUOUS1
100
AcDbLine
 10
130.9169999999999
 20
72.0078
 30
0.0
 11
130.9169999999999
 21
62.5189
 31
0.0
  0
LWPOLYLINE
  5
2792
330
1F
100
AcDbEntity
  8
CONTINUOUS1
100
AcDbPolyline
 90
        4
 70
     0
 43
0.0
 10
130.9169999999999
 20
60.95579999999999
 10
130.9169999999999
 20
52.1558
 10
130.9169999999999
 20
51.95579999999999
 10
133.6799999999999
 20
51.95579999999999
  0
LWPOLYLINE
  5
2793
330
1F
100
AcDbEntity
  8
CONTINUOUS1
100
AcDbPolyline
 90
        4
 70
     0
 43
0.0
 10
133.6799999999999
 20
51.95579999999999
 10
142.917
 20
51.95579999999999
 10
142.917
 20
71.8031
 10
142.917
 20
73.0485
  0
LWPOLYLINE
  5
2794
330
1F
100
AcDbEntity
  8
CONTINUOUS1
100
AcDbPolyline
 90
        3
 70
     0
 43
0.0
 10
142.917
 20
73.0485
 10
142.917
 20
74.95580000000001
 10
133.4529999999999
 20
74.95580000000001
  0
LINE
  5
2795
330
1F
100
AcDbEntity
  8
CONTINUOUS1
100
AcDbLine
 10
136.6229999999999
 20
62.4948
 30
0.0
 11
136.6229999999999
 21
64.0344
 31
0.0
  0
CIRCLE
  5
2796
330
1F
100
AcDbEntity
  8
HIDDEN1
100
AcDbCircle
 10
137.474
 20
63.4993
 30
0.0
 40
0.2994439680474809
  0
CIRCLE
  5
2797
330
1F
100
AcDbEntity
  8
HIDDEN1
100
AcDbCircle
 10
137.474
 20
63.4993
 30
0.0
 40
0.1275462269140136
  0
LINE
  5
2798
330
1F
100
AcDbEntity
  8
CONTINUOUS1
100
AcDbLine
 10
135.1069999999999
 20
63.64139999999999
 30
0.0
 11
135.495
 21
62.19249999999999
 31
0.0
  0
LWPOLYLINE
  5
2799
330
1F
100
AcDbEntity
  8
CONTINUOUS1
100
AcDbPolyline
 90
        6
 70
     1
 43
0.0
 10
137.555
 20
63.7049
 10
137.358
 20
63.6876
 10
137.244
 20
63.47920000000001
 10
137.393
 20
63.2937
 10
137.59
 20
63.31089999999999
 10
137.704
 20
63.51939999999999
  0
LINE
  5
279A
330
1F
100
AcDbEntity
  8
CONTINUOUS1
100
AcDbLine
 10
130.9169999999999
 20
50.75669999999999
 30
0.0
 11
130.9169999999999
 21
53.42579999999999
 31
0.0
  0
LWPOLYLINE
  5
279B
330
1F
100
AcDbEntity
  8
CONTINUOUS1
100
AcDbPolyline
 90
        4
 70
     1
 43
0.0
 10
142.4799999999999
 20
47.41579999999999
 10
142.217
 20
47.19699999999999
 10
142.217
 20
43.9345
 10
142.4799999999999
 20
43.7158
  0
LWPOLYLINE
  5
279C
330
1F
100
AcDbEntity
  8
CONTINUOUS1
100
AcDbPolyline
 90
        4
 70
     1
 43
0.0
 10
142.4799999999999
 20
57.65170000000001
 10
142.217
 20
57.43299999999999
 10
142.217
 20
54.17049999999999
 10
142.4799999999999
 20
53.95179999999999
  0
LWPOLYLINE
  5
279D
330
1F
100
AcDbEntity
  8
CONTINUOUS1
100
AcDbPolyline
 90
       25
 70
     0
 43
0.0
 10
142.217
 20
47.19699999999999
 10
139.9859999999999
 20
47.19699999999999
 42
0.0270963675222288
 10
139.8707215178255
 20
47.19086552077494
 42
0.0298386245542803
 10
139.7622105444361
 20
47.17265509951027
 42
0.034249674619655
 10
139.6638819584991
 20
47.14294182459656
 42
0.0408149442072585
 10
139.5788301953512
 20
47.10266078329238
 42
0.0236579099210108
 10
139.5421382894336
 20
47.07894152688012
 42
0.0262682445162056
 10
139.5097318640259
 20
47.05307963419807
 42
0.0291386643145581
 10
139.4818663830055
 20
47.02527897775908
 42
0.0321166254144653
 10
139.4587615134209
 20
46.9957587135916
 42
0.0349385887155352
 10
139.4405993938296
 20
46.9647515536054
 42
0.0372414398387349
 10
139.4275231984766
 20
46.93250193109475
 42
0.0776063748067634
 10
139.417
 20
46.8653
 10
139.417
 20
44.15329999999999
 42
0.1016368569537098
 10
139.4267501010509
 20
44.10576834676994
 42
0.0473807102113781
 10
139.4388982524003
 20
44.08364881998829
 42
0.0417744168355023
 10
139.4558316545809
 20
44.06275684001543
 42
0.0355112802053341
 10
139.4774766019445
 20
44.04318334291421
 42
0.0296709655311979
 10
139.5037388810034
 20
44.02501352581605
 42
0.024708329803955
 10
139.534504180512
 20
44.0083264760852
 42
0.0206826181371477
 10
139.5696385890259
 20
43.99319482707695
 42
0.032448345538421
 10
139.6523846663179
 20
43.9678541271749
 42
0.0243321624559872
 10
139.7505380124298
 20
43.94943214564398
 42
0.0350273553720403
 10
139.9859999999999
 20
43.9345
 10
142.217
 20
43.9345
  0
LWPOLYLINE
  5
279E
330
1F
100
AcDbEntity
  8
CONTINUOUS1
100
AcDbPolyline
 90
       25
 70
     0
 43
0.0
 10
142.217
 20
57.43299999999999
 10
139.9859999999999
 20
57.43299999999999
 42
0.0270963692442683
 10
139.8707215178255
 20
57.42686552445147
 42
0.0298386265918955
 10
139.7622105444361
 20
57.40865510589877
 42
0.0342496769959843
 10
139.6638819584991
 20
57.37894183264715
 42
0.040814946855686
 10
139.5788301953512
 20
57.33866079190288
 42
0.023657911258913
 10
139.5421382894336
 20
57.31494153535038
 42
0.026268245760433
 10
139.5097318640259
 20
57.28907964224866
 42
0.0291386653344795
 10
139.4818663830055
 20
57.26127898511394
 42
0.0321166260361712
 10
139.4587615134209
 20
57.23175871998011
 42
0.0349385887498163
 10
139.4405993938296
 20
57.20075155876457
 42
0.0372414391370902
 10
139.4275231984766
 20
57.16850193477128
 42
0.07760637123065
 10
139.417
 20
57.1013
 10
139.417
 20
54.3893
 42
0.1016368102677539
 10
139.4267501010509
 20
54.34176832001879
 42
0.047380703954913
 10
139.4388982524003
 20
54.3196487825763
 42
0.0417744209709065
 10
139.4558316545809
 20
54.29875679381692
 42
0.0355112905272462
 10
139.4774766019445
 20
54.27918328984175
 42
0.0296709783446971
 10
139.5037388810034
 20
54.26101346781216
 42
0.0247083428449818
 10
139.534504180512
 20
54.24432641511383
 42
0.0206826303189632
 10
139.5696385890259
 20
54.22919476511498
 42
0.0324483661410443
 10
139.6523846663179
 20
54.20385406917102
 42
0.0243321783647393
 10
139.7505380124298
 20
54.18543209944548
 42
0.0350273776594827
 10
139.9859999999999
 20
54.17049999999999
 10
142.217
 20
54.17049999999999
  0
LWPOLYLINE
  5
279F
330
1F
100
AcDbEntity
  8
CONTINUOUS1
100
AcDbPolyline
 90
        4
 70
     1
 43
0.0
 10
142.4799999999999
 20
47.41579999999999
 10
142.742
 20
47.41579999999999
 10
142.742
 20
43.7158
 10
142.4799999999999
 20
43.7158
  0
LWPOLYLINE
  5
27A0
330
1F
100
AcDbEntity
  8
CONTINUOUS1
100
AcDbPolyline
 90
        4
 70
     1
 43
0.0
 10
142.4799999999999
 20
57.65170000000001
 10
142.742
 20
57.65170000000001
 10
142.742
 20
53.95179999999999
 10
142.4799999999999
 20
53.95179999999999
  0
LWPOLYLINE
  5
27A1
330
1F
100
AcDbEntity
  8
CONTINUOUS1
100
AcDbPolyline
 90
        4
 70
     1
 43
0.0
 10
142.917
 20
47.19699999999999
 10
142.742
 20
47.19699999999999
 10
142.742
 20
43.9345
 10
142.917
 20
43.9345
  0
LWPOLYLINE
  5
27A2
330
1F
100
AcDbEntity
  8
CONTINUOUS1
100
AcDbPolyline
 90
        4
 70
     1
 43
0.0
 10
142.917
 20
57.43299999999999
 10
142.742
 20
57.43299999999999
 10
142.742
 20
54.17049999999999
 10
142.917
 20
54.17049999999999
  0
LINE
  5
27A3
330
1F
100
AcDbEntity
  8
CONTINUOUS1
100
AcDbLine
 10
139.0159999999999
 20
69.2119
 30
0.0
 11
139.0159999999999
 21
68.94849999999999
 31
0.0
  0
LWPOLYLINE
  5
27A4
330
1F
100
AcDbEntity
  8
CONTINUOUS1
100
AcDbPolyline
 90
        4
 70
     0
 43
0.0
 10
139.173
 20
69.2119
 10
139.0159999999999
 20
69.2119
 10
139.0159999999999
 20
68.68509999999999
 10
139.173
 20
68.68509999999999
  0
LWPOLYLINE
  5
27A5
330
1F
100
AcDbEntity
  8
CONTINUOUS1
100
AcDbPolyline
 90
       14
 70
     0
 43
0.0
 10
139.174
 20
69.2119
 10
139.091
 20
69.2119
 10
139.0887298457641
 20
69.21171919487581
 10
139.0879999999999
 20
69.2117
 42
0.0306420780921103
 10
139.0761858557527
 20
69.21008786984427
 42
0.0330910163101936
 10
139.0651061791796
 20
69.20710727865153
 42
0.0359997674931626
 10
139.0549780744853
 20
69.2028166305526
 42
0.0392149107755354
 10
139.046
 20
69.1973
 42
0.2288312786564963
 10
139.015
 20
69.13689999999999
 10
139.015
 20
69.11129999999999
 42
0.1525179275286763
 10
139.0285381219226
 20
69.06849117683711
 42
0.1531015690992059
 10
139.0639999999999
 20
69.0411
 42
0.0911043475879039
 10
139.091
 20
69.03609999999999
 10
139.173
 20
69.03609999999999
  0
LWPOLYLINE
  5
27A6
330
1F
100
AcDbEntity
  8
CONTINUOUS1
100
AcDbPolyline
 90
       12
 70
     0
 43
0.0
 10
139.173
 20
69.03629999999999
 10
139.091
 20
69.03629999999999
 42
0.196070584750909
 10
139.0374126478945
 20
69.01419773334946
 42
0.0981265352991912
 10
139.0208982165238
 20
68.98990113861057
 42
0.0992813609481141
 10
139.015
 20
68.96130000000001
 10
139.015
 20
68.9357
 42
0.1455061348640687
 10
139.0282312385657
 20
68.89386081602589
 42
0.0728773249221898
 10
139.0431355909635
 20
68.87755169400373
 42
0.0737234840484097
 10
139.062
 20
68.8663
 42
0.0524674129284262
 10
139.0760402005514
 20
68.86188678081524
 42
0.0502977880569286
 10
139.091
 20
68.8604
 10
139.173
 20
68.8604
  0
LWPOLYLINE
  5
27A7
330
1F
100
AcDbEntity
  8
CONTINUOUS1
100
AcDbPolyline
 90
       12
 70
     0
 43
0.0
 10
139.173
 20
68.86070000000001
 10
139.091
 20
68.86070000000001
 42
-0.0019658526603808
 10
139.0579999999999
 20
68.8604
 42
0.1181192795982707
 10
139.0268875856655
 20
68.82746503708935
 42
0.0613306063435812
 10
139.0181497278039
 20
68.80690146138608
 42
0.066618677221588
 10
139.015
 20
68.78569999999999
 10
139.015
 20
68.76009999999999
 42
0.079043088356986
 10
139.0185587478606
 20
68.73731241141945
 42
0.079969792643147
 10
139.029
 20
68.7169
 42
0.119294063445108
 10
139.0561494545956
 20
68.69331190684651
 42
0.1198778992485839
 10
139.091
 20
68.68479999999999
 10
139.173
 20
68.68479999999999
  0
LWPOLYLINE
  5
27A8
330
1F
100
AcDbEntity
  8
CONTINUOUS1
100
AcDbPolyline
 90
        7
 70
     0
 43
0.0
 10
139.2919999999999
 20
69.23910000000001
 10
139.2919999999999
 20
68.6579
 10
139.2919999999999
 20
68.6204
 10
139.2359999999999
 20
68.6204
 10
139.2359999999999
 20
69.2766
 10
139.2919999999999
 20
69.2766
 10
139.2919999999999
 20
69.23910000000001
  0
LWPOLYLINE
  5
27A9
330
1F
100
AcDbEntity
  8
CONTINUOUS1
100
AcDbPolyline
 90
       14
 70
     0
 43
0.0
 10
138.298
 20
68.63719999999999
 10
138.3089999999999
 20
68.59180000000001
 42
0.1673010487663641
 10
138.3188183548373
 20
68.57625337276953
 42
0.1702739041652122
 10
138.336
 20
68.5702
 42
0.1213154365999225
 10
138.3491671021801
 20
68.5692841860563
 42
0.1195753687429974
 10
138.3613565174435
 20
68.57459885436975
 42
0.1166945892844161
 10
138.3699208417255
 20
68.58498971868529
 42
0.1150390018218332
 10
138.373
 20
68.5982
 10
138.373
 20
69.9135
 10
138.373
 20
70.02550000000001
 42
0.4142135740840659
 10
138.1229999999999
 20
70.2756
 10
138.0749999999999
 20
70.2756
 42
0.4142135740841218
 10
137.825
 20
70.02550000000001
 10
137.825
 20
69.982
  0
LWPOLYLINE
  5
27AA
330
1F
100
AcDbEntity
  8
CONTINUOUS1
100
AcDbPolyline
 90
        5
 70
     0
 43
0.0
 10
136.6229999999999
 20
64.7585
 10
136.6229999999999
 20
69.982
 10
137.983
 20
69.982
 10
138.373
 20
68.3206
 10
138.373
 20
64.6982
  0
LWPOLYLINE
  5
27AB
330
1F
100
AcDbEntity
  8
CONTINUOUS1
100
AcDbPolyline
 90
        4
 70
     1
 43
0.0
 10
142.4799999999999
 20
71.74850000000001
 10
142.217
 20
71.52980000000001
 10
142.217
 20
68.2672
 10
142.4799999999999
 20
68.0485
  0
LWPOLYLINE
  5
27AC
330
1F
100
AcDbEntity
  8
CONTINUOUS1
100
AcDbPolyline
 90
       25
 70
     0
 43
0.0
 10
142.217
 20
71.52980000000001
 10
139.9859999999999
 20
71.52980000000001
 42
0.0271061926285529
 10
139.8707258252532
 20
71.5236632632911
 42
0.0298475918764058
 10
139.7622165150473
 20
71.50544652729243
 42
0.0342575096193801
 10
139.6638877227452
 20
71.47572321796591
 42
0.0408207771672422
 10
139.5788346396216
 20
71.43542896490199
 42
0.0236595442845543
 10
139.5421418754541
 20
71.41170213079147
 42
0.0262686026196386
 10
139.5097345645078
 20
71.38583214959472
 42
0.0291373710832961
 10
139.4818682396357
 20
71.35802300707651
 42
0.0321133549340711
 10
139.4587626278468
 20
71.32849397936074
 42
0.0349332213094414
 10
139.4405999177501
 20
71.29747790393017
 42
0.037234249389955
 10
139.4275233229908
 20
71.26521934369411
 42
0.0775898801865203
 10
139.417
 20
71.19799999999999
 10
139.417
 20
68.48600000000001
 42
0.1016639239885269
 10
139.426748749454
 20
68.43848558601246
 42
0.0473918200216234
 10
139.4388955567254
 20
68.4163749694827
 42
0.041781119723695
 10
139.4558272464577
 20
68.39549189874114
 42
0.0355137889125657
 10
139.4774702017022
 20
68.37592717086531
 42
0.0296703853414427
 10
139.5037303214952
 20
68.35776585093675
 42
0.0247057873388447
 10
139.534493429997
 20
68.34108690218816
 42
0.0206789416370575
 10
139.5696257729152
 20
68.32596284268079
 42
0.0324394625791025
 10
139.6523688244492
 20
68.30063537537252
 42
0.0243226450564076
 10
139.7505220129686
 20
68.28222345333529
 42
0.0350079526135749
 10
139.9859999999999
 20
68.26730000000001
 10
142.217
 20
68.26730000000001
  0
LWPOLYLINE
  5
27AD
330
1F
100
AcDbEntity
  8
CONTINUOUS1
100
AcDbPolyline
 90
        4
 70
     1
 43
0.0
 10
142.4799999999999
 20
71.74850000000001
 10
142.742
 20
71.74850000000001
 10
142.742
 20
68.0485
 10
142.4799999999999
 20
68.0485
  0
LWPOLYLINE
  5
27AE
330
1F
100
AcDbEntity
  8
CONTINUOUS1
100
AcDbPolyline
 90
        4
 70
     1
 43
0.0
 10
142.917
 20
71.52980000000001
 10
142.742
 20
71.52980000000001
 10
142.742
 20
68.26730000000001
 10
142.917
 20
68.26730000000001
  0
LWPOLYLINE
  5
27AF
330
1F
100
AcDbEntity
  8
CONTINUOUS1
100
AcDbPolyline
 90
        4
 70
     1
 43
0.0
 10
136.492
 20
62.05169999999999
 10
139.1669999999999
 20
62.05169999999999
 10
139.1669999999999
 20
59.732
 10
136.492
 20
59.732
  0
LWPOLYLINE
  5
27B0
330
1F
100
AcDbEntity
  8
CONTINUOUS1
100
AcDbPolyline
 90
        4
 70
     1
 43
0.0
 10
142.4799999999999
 20
62.74180000000001
 10
142.217
 20
62.5231
 10
142.217
 20
59.26059999999999
 10
142.4799999999999
 20
59.0418
  0
LWPOLYLINE
  5
27B1
330
1F
100
AcDbEntity
  8
CONTINUOUS1
100
AcDbPolyline
 90
       25
 70
     0
 43
0.0
 10
142.217
 20
62.5231
 10
139.9859999999999
 20
62.5231
 42
0.0271062006160781
 10
139.8707258252534
 20
62.51696328034143
 42
0.0298476013272892
 10
139.7622165150475
 20
62.49874655692003
 42
0.0342575206398853
 10
139.6638877227456
 20
62.4690232553018
 42
0.0408207894488359
 10
139.578834639622
 20
62.42872900483456
 42
0.0236595504883615
 10
139.5421418754545
 20
62.40500217007359
 42
0.0262686083887774
 10
139.5097345645081
 20
62.37913218693062
 42
0.0291373758102593
 10
139.481868239636
 20
62.35132304118575
 42
0.0321133578166979
 10
139.4587626278471
 20
62.32179400898834
 42
0.0349332214670148
 10
139.4405999177503
 20
62.29077792785648
 42
0.0372342461371101
 10
139.427523322991
 20
62.25851936074446
 42
0.0775898636091171
 10
139.417
 20
62.19129999999999
 10
139.417
 20
59.4793
 42
0.1016640045042005
 10
139.4267487494535
 20
59.43178563212018
 42
0.04739183080707
 10
139.4388955567248
 20
59.40967503396499
 42
0.0417811125851825
 10
139.4558272464569
 20
59.38879197836732
 42
0.0355137711093514
 10
139.4774702017014
 20
59.36922726233893
 42
0.0296703632455903
 10
139.5037303214943
 20
59.35106595090982
 42
0.0247057648553083
 10
139.534493429996
 20
59.3343870072757
 42
0.0206789206365458
 10
139.5696257729142
 20
59.31926294947563
 42
0.0324394270672288
 10
139.6523688244483
 20
59.29393547534555
 42
0.024322617639478
 10
139.7505220129678
 20
59.27552353296146
 42
0.0350079142088705
 10
139.9859999999999
 20
59.26059999999999
 10
142.217
 20
59.26059999999999
  0
LWPOLYLINE
  5
27B2
330
1F
100
AcDbEntity
  8
CONTINUOUS1
100
AcDbPolyline
 90
        4
 70
     1
 43
0.0
 10
142.4799999999999
 20
62.74180000000001
 10
142.742
 20
62.74180000000001
 10
142.742
 20
59.0418
 10
142.4799999999999
 20
59.0418
  0
LWPOLYLINE
  5
27B3
330
1F
100
AcDbEntity
  8
CONTINUOUS1
100
AcDbPolyline
 90
        4
 70
     1
 43
0.0
 10
142.917
 20
62.5231
 10
142.742
 20
62.5231
 10
142.742
 20
59.26059999999999
 10
142.917
 20
59.26059999999999
  0
LWPOLYLINE
  5
27B4
330
1F
100
AcDbEntity
  8
CONTINUOUS1
100
AcDbPolyline
 90
        4
 70
     0
 43
0.0
 10
138.7
 20
41.5575
 10
138.535
 20
41.5575
 10
138.535
 20
41.95269999999999
 10
138.7
 20
41.95269999999999
  0
LWPOLYLINE
  5
27B5
330
1F
100
AcDbEntity
  8
CONTINUOUS1
100
AcDbPolyline
 90
        8
 70
     0
 43
0.0
 10
138.7
 20
41.5575
 10
138.591
 20
41.5575
 42
-0.1996089608865821
 10
138.5514013197148
 20
41.5739896438182
 42
-0.1982254794961606
 10
138.535
 20
41.6138
 10
138.535
 20
41.63299999999999
 42
-0.1984546823468684
 10
138.5514015037534
 20
41.67273927390975
 42
-0.1993740184472968
 10
138.591
 20
41.68919999999999
 10
138.7
 20
41.68919999999999
  0
LWPOLYLINE
  5
27B6
330
1F
100
AcDbEntity
  8
CONTINUOUS1
100
AcDbPolyline
 90
        8
 70
     0
 43
0.0
 10
138.7
 20
41.68919999999999
 10
138.591
 20
41.68919999999999
 42
-0.1996089678328002
 10
138.5514013197148
 20
41.70568964319839
 42
-0.1982254794966541
 10
138.535
 20
41.74549999999999
 10
138.535
 20
41.76470000000001
 42
-0.1982254792079247
 10
138.5514013197148
 20
41.80450996378385
 42
-0.1996045633614736
 10
138.591
 20
41.821
 10
138.7
 20
41.821
  0
LWPOLYLINE
  5
27B7
330
1F
100
AcDbEntity
  8
CONTINUOUS1
100
AcDbPolyline
 90
        8
 70
     0
 43
0.0
 10
138.7
 20
41.821
 10
138.591
 20
41.821
 42
-0.199377361200101
 10
138.5514015037534
 20
41.83746042778742
 42
-0.1984546824857592
 10
138.535
 20
41.87719999999999
 10
138.535
 20
41.8965
 42
-0.1984546823467777
 10
138.5514015037534
 20
41.93623927296851
 42
-0.1993740078998897
 10
138.591
 20
41.95269999999999
 10
138.7
 20
41.95269999999999
  0
LWPOLYLINE
  5
27B8
330
1F
100
AcDbEntity
  8
CONTINUOUS1
100
AcDbPolyline
 90
        7
 70
     0
 43
0.0
 10
138.7419999999999
 20
41.53719999999999
 10
138.7419999999999
 20
41.9731
 10
138.7419999999999
 20
42.0012
 10
138.7
 20
42.0012
 10
138.7
 20
41.509
 10
138.7419999999999
 20
41.509
 10
138.7419999999999
 20
41.53719999999999
  0
LWPOLYLINE
  5
27B9
330
1F
100
AcDbEntity
  8
CONTINUOUS1
100
AcDbPolyline
 90
        8
 70
     0
 43
0.0
 10
138.942
 20
41.17429999999999
 10
138.942
 20
42.04430000000001
 42
-0.4142135623730951
 10
139.0719999999999
 20
42.1743
 10
139.162
 20
42.1743
 42
0.4142136057338255
 10
139.2919999999999
 20
42.30419999999999
 10
139.2919999999999
 20
46.17429999999999
 10
139.417
 20
46.17429999999999
 10
139.417
 20
44.83150000000001
  0
LWPOLYLINE
  5
27BA
330
1F
100
AcDbEntity
  8
CONTINUOUS1
100
AcDbPolyline
 90
        7
 70
     0
 43
0.0
 10
138.942
 20
41.17429999999999
 10
139.067
 20
41.17429999999999
 10
139.067
 20
42.0363
 42
-0.4142135623735753
 10
139.0799999999999
 20
42.0493
 10
139.1569999999999
 20
42.0493
 42
0.4142135732091146
 10
139.417
 20
42.3092
 10
139.417
 20
44.83150000000001
  0
LWPOLYLINE
  5
27BB
330
1F
100
AcDbEntity
  8
CONTINUOUS1
100
AcDbPolyline
 90
        6
 70
     0
 43
0.0
 10
139.275
 20
41.6603
 10
139.412
 20
41.6603
 10
139.44
 20
41.6919
 10
139.44
 20
41.8184
 10
139.412
 20
41.84999999999999
 10
139.275
 20
41.84999999999999
  0
LINE
  5
27BC
330
1F
100
AcDbEntity
  8
CONTINUOUS1
100
AcDbLine
 10
139.288
 20
41.6603
 30
0.0
 11
139.275
 21
41.77539999999999
 31
0.0
  0
LINE
  5
27BD
330
1F
100
AcDbEntity
  8
CONTINUOUS1
100
AcDbLine
 10
139.3309999999999
 20
41.6603
 30
0.0
 11
139.31
 21
41.84999999999999
 31
0.0
  0
LINE
  5
27BE
330
1F
100
AcDbEntity
  8
CONTINUOUS1
100
AcDbLine
 10
139.375
 20
41.6603
 30
0.0
 11
139.353
 21
41.84999999999999
 31
0.0
  0
LINE
  5
27BF
330
1F
100
AcDbEntity
  8
CONTINUOUS1
100
AcDbLine
 10
139.417
 20
41.6662
 30
0.0
 11
139.396
 21
41.84999999999999
 31
0.0
  0
LWPOLYLINE
  5
27C0
330
1F
100
AcDbEntity
  8
CONTINUOUS1
100
AcDbPolyline
 90
        4
 70
     0
 43
0.0
 10
139.109
 20
41.5575
 10
139.275
 20
41.5575
 10
139.275
 20
41.95269999999999
 10
139.109
 20
41.95269999999999
  0
LWPOLYLINE
  5
27C1
330
1F
100
AcDbEntity
  8
CONTINUOUS1
100
AcDbPolyline
 90
       12
 70
     0
 43
0.0
 10
139.109
 20
41.5575
 10
139.2179999999999
 20
41.5575
 42
0.0973906950881297
 10
139.2398134569359
 20
41.56178554973444
 42
0.0980319825798587
 10
139.2583055833749
 20
41.57398969702039
 42
0.0989464763816444
 10
139.2706613907973
 20
41.59225464932036
 42
0.0995985382333244
 10
139.275
 20
41.6138
 10
139.275
 20
41.63299999999999
 42
0.0997502483039168
 10
139.270660247177
 20
41.65450693486737
 42
0.0990020324157936
 10
139.2583040842398
 20
41.67273933834879
 42
0.0979601568944583
 10
139.2398123887093
 20
41.68492184093552
 42
0.0972346377126947
 10
139.2179999999999
 20
41.68919999999999
 10
139.109
 20
41.68919999999999
  0
LWPOLYLINE
  5
27C2
330
1F
100
AcDbEntity
  8
CONTINUOUS1
100
AcDbPolyline
 90
       12
 70
     0
 43
0.0
 10
139.109
 20
41.68919999999999
 10
139.2179999999999
 20
41.68919999999999
 42
0.0973906939156607
 10
139.2398134569359
 20
41.69348554989745
 42
0.0980319813987658
 10
139.2583055833749
 20
41.70568969724063
 42
0.0989464758835376
 10
139.2706613907973
 20
41.72395464948336
 42
0.0995985387313929
 10
139.275
 20
41.74549999999999
 10
139.275
 20
41.76470000000001
 42
0.099598222841215
 10
139.2706613907973
 20
41.7862454538763
 42
0.0989467916992633
 10
139.2583055833749
 20
41.80451044241393
 42
0.098032730551129
 10
139.2398134569359
 20
41.81671455346221
 42
0.0973914375848334
 10
139.2179999999999
 20
41.821
 10
139.109
 20
41.821
  0
LWPOLYLINE
  5
27C3
330
1F
100
AcDbEntity
  8
CONTINUOUS1
100
AcDbPolyline
 90
       12
 70
     0
 43
0.0
 10
139.109
 20
41.821
 10
139.2179999999999
 20
41.821
 42
0.0972389393192743
 10
139.2398123887093
 20
41.82527756093188
 42
0.0979644944349379
 10
139.2583040842398
 20
41.83745985348378
 42
0.0990038656648318
 10
139.270660247177
 20
41.85569246700002
 42
0.0997484151700219
 10
139.275
 20
41.87719999999999
 10
139.275
 20
41.8965
 42
0.0997502540882818
 10
139.270660247177
 20
41.91800693298008
 42
0.0990020266318683
 10
139.2583040842398
 20
41.93623933579879
 42
0.0979601432088453
 10
139.2398123887093
 20
41.94842183904824
 42
0.0972346241396942
 10
139.2179999999999
 20
41.95269999999999
 10
139.109
 20
41.95269999999999
  0
LWPOLYLINE
  5
27C4
330
1F
100
AcDbEntity
  8
CONTINUOUS1
100
AcDbPolyline
 90
        7
 70
     0
 43
0.0
 10
139.067
 20
41.53719999999999
 10
139.067
 20
41.9731
 10
139.067
 20
42.0012
 10
139.109
 20
42.0012
 10
139.109
 20
41.509
 10
139.067
 20
41.509
 10
139.067
 20
41.53719999999999
  0
LINE
  5
27C5
330
1F
100
AcDbEntity
  8
CONTINUOUS1
100
AcDbLine
 10
138.3419999999999
 20
40.75619999999999
 30
0.0
 11
138.3419999999999
 21
41.4562
 31
0.0
  0
LINE
  5
27C6
330
1F
100
AcDbEntity
  8
CONTINUOUS1
100
AcDbLine
 10
138.7419999999999
 20
40.75619999999999
 30
0.0
 11
138.7419999999999
 21
41.4562
 31
0.0
  0
LWPOLYLINE
  5
27C7
330
1F
100
AcDbEntity
  8
CONTINUOUS1
100
AcDbPolyline
 90
        6
 70
     1
 43
0.0
 10
138.942
 20
40.75619999999999
 10
138.142
 20
40.75619999999999
 10
138.142
 20
41.4562
 10
138.7419999999999
 20
41.4562
 10
138.7419999999999
 20
42.2562
 10
138.942
 20
42.2562
  0
LWPOLYLINE
  5
27C8
330
1F
100
AcDbEntity
  8
CONTINUOUS1
100
AcDbPolyline
 90
        4
 70
     0
 43
0.0
 10
139.1359999999999
 20
43.63769999999999
 10
138.9159999999999
 20
43.63769999999999
 10
138.9159999999999
 20
43.11079999999999
 10
139.1359999999999
 20
43.11079999999999
  0
LWPOLYLINE
  5
27C9
330
1F
100
AcDbEntity
  8
CONTINUOUS1
100
AcDbPolyline
 90
        6
 70
     0
 43
0.0
 10
139.1359999999999
 20
43.63769999999999
 10
138.991
 20
43.63769999999999
 42
0.4142135623732061
 10
138.9159999999999
 20
43.56270000000001
 10
138.9159999999999
 20
43.53699999999999
 42
0.4142135623730396
 10
138.991
 20
43.46199999999999
 10
139.1359999999999
 20
43.46199999999999
  0
LWPOLYLINE
  5
27CA
330
1F
100
AcDbEntity
  8
CONTINUOUS1
100
AcDbPolyline
 90
        8
 70
     0
 43
0.0
 10
139.1359999999999
 20
43.46199999999999
 10
138.991
 20
43.46199999999999
 42
0.1987451253788521
 10
138.9379693286971
 20
43.44006303399208
 42
0.1990661407174604
 10
138.9159999999999
 20
43.38709999999999
 10
138.9159999999999
 20
43.36149999999999
 42
0.1987202421828021
 10
138.9379692605004
 20
43.30839698524631
 42
0.1990795957703106
 10
138.991
 20
43.2864
 10
139.1359999999999
 20
43.2864
  0
LWPOLYLINE
  5
27CB
330
1F
100
AcDbEntity
  8
CONTINUOUS1
100
AcDbPolyline
 90
        6
 70
     0
 43
0.0
 10
139.1359999999999
 20
43.2864
 10
138.991
 20
43.2864
 42
0.4142135623731505
 10
138.9159999999999
 20
43.21139999999999
 10
138.9159999999999
 20
43.18579999999999
 42
0.4142135623730396
 10
138.991
 20
43.11079999999999
 10
139.1359999999999
 20
43.11079999999999
  0
LWPOLYLINE
  5
27CC
330
1F
100
AcDbEntity
  8
CONTINUOUS1
100
AcDbPolyline
 90
        7
 70
     0
 43
0.0
 10
139.192
 20
43.66489999999999
 10
139.192
 20
43.0837
 10
139.192
 20
43.04619999999999
 10
139.1359999999999
 20
43.04619999999999
 10
139.1359999999999
 20
43.70239999999999
 10
139.192
 20
43.70239999999999
 10
139.192
 20
43.66489999999999
  0
LINE
  5
27CD
330
1F
100
AcDbEntity
  8
CONTINUOUS1
100
AcDbLine
 10
136.3249999999999
 20
44.12429999999999
 30
0.0
 11
136.3249999999999
 21
43.4513
 31
0.0
  0
LINE
  5
27CE
330
1F
100
AcDbEntity
  8
CONTINUOUS1
100
AcDbLine
 10
136.3249999999999
 20
43.29729999999999
 30
0.0
 11
136.3249999999999
 21
42.62430000000001
 31
0.0
  0
LINE
  5
27CF
330
1F
100
AcDbEntity
  8
CONTINUOUS1
100
AcDbLine
 10
137.782
 20
43.4513
 30
0.0
 11
137.782
 21
43.29729999999999
 31
0.0
  0
LINE
  5
27D0
330
1F
100
AcDbEntity
  8
CONTINUOUS1
100
AcDbLine
 10
136.3639999999999
 20
44.12429999999999
 30
0.0
 11
136.3639999999999
 21
43.4513
 31
0.0
  0
LINE
  5
27D1
330
1F
100
AcDbEntity
  8
CONTINUOUS1
100
AcDbLine
 10
136.3639999999999
 20
43.29729999999999
 30
0.0
 11
136.3639999999999
 21
42.62430000000001
 31
0.0
  0
LWPOLYLINE
  5
27D2
330
1F
100
AcDbEntity
  8
CONTINUOUS1
100
AcDbPolyline
 90
        5
 70
     0
 43
0.0
 10
134.81
 20
43.29729999999999
 10
134.81
 20
42.9799
 10
135.265
 20
42.62430000000001
 10
134.81
 20
42.9799
 10
134.7519999999999
 20
42.96479999999999
  0
LWPOLYLINE
  5
27D3
330
1F
100
AcDbEntity
  8
CONTINUOUS1
100
AcDbPolyline
 90
        5
 70
     0
 43
0.0
 10
134.81
 20
43.4513
 10
134.81
 20
43.76879999999999
 10
135.265
 20
44.12429999999999
 10
134.81
 20
43.76879999999999
 10
134.7519999999999
 20
43.78389999999999
  0
LWPOLYLINE
  5
27D4
330
1F
100
AcDbEntity
  8
CONTINUOUS1
100
AcDbPolyline
 90
       10
 70
     1
 43
0.0
 10
139.2919999999999
 20
42.62430000000001
 10
139.2919999999999
 20
44.12429999999999
 10
135.1609999999999
 20
44.12429999999999
 10
134.7519999999999
 20
43.78389999999999
 10
134.7519999999999
 20
43.4513
 10
138.382
 20
43.4513
 10
138.382
 20
43.29729999999999
 10
134.7519999999999
 20
43.29729999999999
 10
134.7519999999999
 20
42.96479999999999
 10
135.1609999999999
 20
42.62430000000001
  0
LINE
  5
27D5
330
1F
100
AcDbEntity
  8
CONTINUOUS1
100
AcDbLine
 10
139.192
 20
44.12429999999999
 30
0.0
 11
139.192
 21
42.62430000000001
 31
0.0
  0
LWPOLYLINE
  5
27D6
330
1F
100
AcDbEntity
  8
CONTINUOUS1
100
AcDbPolyline
 90
        4
 70
     0
 43
0.0
 10
139.694
 20
43.50069999999999
 10
139.793
 20
43.50069999999999
 10
139.793
 20
43.2477
 10
139.694
 20
43.2477
  0
LINE
  5
27D7
330
1F
100
AcDbEntity
  8
CONTINUOUS1
100
AcDbLine
 10
139.417
 20
43.46199999999999
 30
0.0
 11
139.473
 21
43.2864
 31
0.0
  0
LINE
  5
27D8
330
1F
100
AcDbEntity
  8
CONTINUOUS1
100
AcDbLine
 10
139.711
 20
43.50069999999999
 30
0.0
 11
139.694
 21
43.34719999999999
 31
0.0
  0
LINE
  5
27D9
330
1F
100
AcDbEntity
  8
CONTINUOUS1
100
AcDbLine
 10
139.769
 20
43.50069999999999
 30
0.0
 11
139.74
 21
43.2477
 31
0.0
  0
LWPOLYLINE
  5
27DA
330
1F
100
AcDbEntity
  8
CONTINUOUS1
100
AcDbPolyline
 90
        4
 70
     0
 43
0.0
 10
139.473
 20
43.63769999999999
 10
139.694
 20
43.63769999999999
 10
139.694
 20
43.11079999999999
 10
139.473
 20
43.11079999999999
  0
LWPOLYLINE
  5
27DB
330
1F
100
AcDbEntity
  8
CONTINUOUS1
100
AcDbPolyline
 90
        6
 70
     0
 43
0.0
 10
139.473
 20
43.63769999999999
 10
139.619
 20
43.63769999999999
 42
-0.4142135623732061
 10
139.694
 20
43.56270000000001
 10
139.694
 20
43.53699999999999
 42
-0.4142135623730396
 10
139.619
 20
43.46199999999999
 10
139.473
 20
43.46199999999999
  0
LWPOLYLINE
  5
27DC
330
1F
100
AcDbEntity
  8
CONTINUOUS1
100
AcDbPolyline
 90
        7
 70
     0
 43
0.0
 10
139.473
 20
43.46199999999999
 10
139.619
 20
43.46199999999999
 42
-0.1987451253818034
 10
139.6720353663441
 20
43.44006303399208
 42
-0.1991054725250404
 10
139.694
 20
43.38709999999999
 10
139.694
 20
43.3614
 42
-0.4142135623730396
 10
139.619
 20
43.2864
 10
139.473
 20
43.2864
  0
LWPOLYLINE
  5
27DD
330
1F
100
AcDbEntity
  8
CONTINUOUS1
100
AcDbPolyline
 90
        6
 70
     0
 43
0.0
 10
139.473
 20
43.2864
 10
139.619
 20
43.2864
 42
-0.4142135623731505
 10
139.694
 20
43.21139999999999
 10
139.694
 20
43.18579999999999
 42
-0.4142135623730396
 10
139.619
 20
43.11079999999999
 10
139.473
 20
43.11079999999999
  0
LWPOLYLINE
  5
27DE
330
1F
100
AcDbEntity
  8
CONTINUOUS1
100
AcDbPolyline
 90
        7
 70
     0
 43
0.0
 10
139.417
 20
43.66489999999999
 10
139.417
 20
43.0836
 10
139.417
 20
43.04619999999999
 10
139.473
 20
43.04619999999999
 10
139.473
 20
43.70239999999999
 10
139.417
 20
43.70239999999999
 10
139.417
 20
43.66489999999999
  0
LWPOLYLINE
  5
27DF
330
1F
100
AcDbEntity
  8
CONTINUOUS1
100
AcDbPolyline
 90
        4
 70
     0
 43
0.0
 10
139.2359999999999
 20
45.8292
 10
139.0159999999999
 20
45.8292
 10
139.0159999999999
 20
45.3023
 10
139.2359999999999
 20
45.3023
  0
LWPOLYLINE
  5
27E0
330
1F
100
AcDbEntity
  8
CONTINUOUS1
100
AcDbPolyline
 90
        7
 70
     0
 43
0.0
 10
139.2359999999999
 20
45.8292
 10
139.091
 20
45.8292
 42
0.4142135623731784
 10
139.0159999999999
 20
45.7542
 10
139.0159999999999
 20
45.72849999999999
 42
0.1990661259496341
 10
139.0379693303822
 20
45.67553846775378
 42
0.1987325619893469
 10
139.091
 20
45.6536
 10
139.2359999999999
 20
45.6536
  0
LWPOLYLINE
  5
27E1
330
1F
100
AcDbEntity
  8
CONTINUOUS1
100
AcDbPolyline
 90
        7
 70
     0
 43
0.0
 10
139.2359999999999
 20
45.6536
 10
139.091
 20
45.6536
 42
0.4142135623731505
 10
139.0159999999999
 20
45.57859999999999
 10
139.0159999999999
 20
45.55299999999999
 42
0.1987202284863666
 10
139.0379692621364
 20
45.49989702110088
 42
0.1990792957778617
 10
139.091
 20
45.47789999999999
 10
139.2359999999999
 20
45.47789999999999
  0
LWPOLYLINE
  5
27E2
330
1F
100
AcDbEntity
  8
CONTINUOUS1
100
AcDbPolyline
 90
        6
 70
     0
 43
0.0
 10
139.2359999999999
 20
45.47789999999999
 10
139.091
 20
45.47789999999999
 42
0.4142135623731505
 10
139.0159999999999
 20
45.40289999999999
 10
139.0159999999999
 20
45.37729999999999
 42
0.414213562373012
 10
139.091
 20
45.3023
 10
139.2359999999999
 20
45.3023
  0
LWPOLYLINE
  5
27E3
330
1F
100
AcDbEntity
  8
CONTINUOUS1
100
AcDbPolyline
 90
        7
 70
     0
 43
0.0
 10
139.2919999999999
 20
45.85639999999999
 10
139.2919999999999
 20
45.27519999999999
 10
139.2919999999999
 20
45.23769999999999
 10
139.2359999999999
 20
45.23769999999999
 10
139.2359999999999
 20
45.8939
 10
139.2919999999999
 20
45.8939
 10
139.2919999999999
 20
45.85639999999999
  0
CIRCLE
  5
27E4
330
1F
100
AcDbEntity
  8
CONTINUOUS1
100
AcDbCircle
 10
137.474
 20
60.89929999999999
 30
0.0
 40
0.1126000000000005
  0
CIRCLE
  5
27E5
330
1F
100
AcDbEntity
  8
CONTINUOUS1
100
AcDbCircle
 10
137.474
 20
60.89929999999999
 30
0.0
 40
0.1970000000000027
  0
LINE
  5
27E6
330
1F
100
AcDbEntity
  8
CONTINUOUS1
100
AcDbLine
 10
138.083
 20
73.30580000000001
 30
0.0
 11
138.083
 21
74.05579999999999
 31
0.0
  0
LINE
  5
27E7
330
1F
100
AcDbEntity
  8
CONTINUOUS1
100
AcDbLine
 10
138.5699999999999
 20
73.30580000000001
 30
0.0
 11
138.5699999999999
 21
74.05579999999999
 31
0.0
  0
LINE
  5
27E8
330
1F
100
AcDbEntity
  8
CONTINUOUS1
100
AcDbLine
 10
137.958
 20
73.30580000000001
 30
0.0
 11
138.708
 21
73.30580000000001
 31
0.0
  0
LINE
  5
27E9
330
1F
100
AcDbEntity
  8
CONTINUOUS1
100
AcDbLine
 10
138.1909999999999
 20
73.78289999999999
 30
0.0
 11
138.4349999999999
 21
73.5385
 31
0.0
  0
LINE
  5
27EA
330
1F
100
AcDbEntity
  8
CONTINUOUS1
100
AcDbLine
 10
138.23
 20
73.82329999999999
 30
0.0
 11
138.4749999999999
 21
73.57890000000001
 31
0.0
  0
CIRCLE
  5
27EB
330
1F
100
AcDbEntity
  8
CONTINUOUS1
100
AcDbCircle
 10
138.3329999999999
 20
72.93099999999999
 30
0.0
 40
0.11099999999999
  0
LWPOLYLINE
  5
27EC
330
1F
100
AcDbEntity
  8
CONTINUOUS1
100
AcDbPolyline
 90
        5
 70
     0
 43
0.0
 10
137.958
 20
72.55580000000001
 10
138.708
 20
72.55580000000001
 10
138.708
 20
74.05579999999999
 10
137.958
 20
74.05579999999999
 10
137.958
 20
72.55580000000001
  0
LWPOLYLINE
  5
27ED
330
1F
100
AcDbEntity
  8
CONTINUOUS1
100
AcDbPolyline
 90
        6
 70
     1
 43
0.0
 10
138.2049999999999
 20
72.72020000000001
 10
138.4479999999999
 20
72.72020000000001
 10
138.5699999999999
 20
72.93099999999999
 10
138.4479999999999
 20
73.1417
 10
138.2049999999999
 20
73.1417
 10
138.083
 20
72.93099999999999
  0
CIRCLE
  5
27EE
330
1F
100
AcDbEntity
  8
CONTINUOUS1
100
AcDbCircle
 10
138.3329999999999
 20
73.6808
 30
0.0
 40
0.1749999999999829
  0
LINE
  5
27EF
330
1F
100
AcDbEntity
  8
CONTINUOUS1
100
AcDbLine
 10
143.0369999999999
 20
62.5869
 30
0.0
 11
143.0369999999999
 21
59.2886
 31
0.0
  0
LWPOLYLINE
  5
27F0
330
1F
100
AcDbEntity
  8
CONTINUOUS1
100
AcDbPolyline
 90
        4
 70
     0
 43
0.0
 10
139.694
 20
55.928
 10
139.793
 20
55.928
 10
139.793
 20
55.6751
 10
139.694
 20
55.6751
  0
LWPOLYLINE
  5
27F1
330
1F
100
AcDbEntity
  8
CONTINUOUS1
100
AcDbPolyline
 90
        6
 70
     1
 43
0.0
 10
137.543
 20
61.0377
 10
137.4049999999999
 20
61.0377
 10
137.3129999999999
 20
60.89929999999999
 10
137.4049999999999
 20
60.7609
 10
137.543
 20
60.7609
 10
137.636
 20
60.89929999999999
  0
LWPOLYLINE
  5
27F2
330
1F
100
AcDbEntity
  8
CONTINUOUS1
100
AcDbPolyline
 90
       11
 70
     0
 43
0.0
 10
136.972
 20
61.31109999999999
 10
137.2139999999999
 20
61.08719999999999
 10
137.2379999999999
 20
61.08719999999999
 42
0.1398010236453971
 10
137.2644777009561
 20
61.08351034972634
 42
0.0701087620324946
 10
137.2774037619839
 20
61.0872029709995
 42
0.071544495966423
 10
137.2886719907588
 20
61.09428013686549
 42
0.0733280459857707
 10
137.2973453832329
 20
61.10415334906111
 42
0.0748817280427984
 10
137.3027027077008
 20
61.11600160545931
 42
0.1518156669991324
 10
137.3019999999999
 20
61.1416
 10
137.3019999999999
 20
61.16150000000001
 10
137.063
 20
61.40259999999999
  0
LWPOLYLINE
  5
27F3
330
1F
100
AcDbEntity
  8
CONTINUOUS1
100
AcDbPolyline
 90
       11
 70
     0
 43
0.0
 10
137.978
 20
61.31009999999999
 10
137.735
 20
61.08609999999999
 10
137.711
 20
61.08609999999999
 42
-0.1398028613864518
 10
137.6845084501391
 20
61.08243427313355
 42
-0.0701076720574161
 10
137.6715807620891
 20
61.08614099808041
 42
-0.0715290229360938
 10
137.6603135342927
 20
61.09323241211406
 42
-0.0732923750435999
 10
137.6516429266227
 20
61.10311931109482
 42
-0.0748268317712027
 10
137.6462893536407
 20
61.11498022249548
 42
-0.1516863788762374
 10
137.6469999999999
 20
61.14060000000001
 10
137.6469999999999
 20
61.16050000000001
 10
137.887
 20
61.4016
  0
LWPOLYLINE
  5
27F4
330
1F
100
AcDbEntity
  8
CONTINUOUS1
100
AcDbPolyline
 90
       11
 70
     0
 43
0.0
 10
137.978
 20
60.48809999999999
 10
137.735
 20
60.7121
 10
137.711
 20
60.7121
 42
0.1397996738875947
 10
137.6845084501447
 20
60.71576487520622
 42
0.0701047423248393
 10
137.6715807620962
 20
60.71205791312512
 42
0.0715262651657539
 10
137.6603135343003
 20
60.70496641779517
 42
0.0732906989010412
 10
137.6516429266297
 20
60.69507960011072
 42
0.0748268906239599
 10
137.6462893536462
 20
60.6832189258443
 42
0.1516912931984717
 10
137.6469999999999
 20
60.6576
 10
137.6469999999999
 20
60.63780000000001
 10
137.887
 20
60.39659999999999
  0
LWPOLYLINE
  5
27F5
330
1F
100
AcDbEntity
  8
CONTINUOUS1
100
AcDbPolyline
 90
       11
 70
     0
 43
0.0
 10
136.9709999999999
 20
60.48809999999999
 10
137.213
 20
60.7121
 10
137.2369999999999
 20
60.7121
 42
-0.1386760276471429
 10
137.2637585535655
 20
60.71586193706999
 42
-0.069621495064144
 10
137.2768317129877
 20
60.71219050928086
 42
-0.0712057578837991
 10
137.2882446806181
 20
60.70511996262583
 42
-0.0731798155944769
 10
137.2970545179281
 20
60.69523446513859
 42
-0.0749091583093458
 10
137.3025333568206
 20
60.68335075587924
 42
-0.152033226676918
 10
137.3019999999999
 20
60.6576
 10
137.3019999999999
 20
60.63769999999999
 10
137.062
 20
60.39659999999999
  0
LINE
  5
27F6
330
1F
100
AcDbEntity
  8
CONTINUOUS1
100
AcDbLine
 10
139.417
 20
55.8894
 30
0.0
 11
139.473
 21
55.71380000000001
 31
0.0
  0
LINE
  5
27F7
330
1F
100
AcDbEntity
  8
CONTINUOUS1
100
AcDbLine
 10
139.711
 20
55.928
 30
0.0
 11
139.694
 21
55.77460000000001
 31
0.0
  0
LINE
  5
27F8
330
1F
100
AcDbEntity
  8
CONTINUOUS1
100
AcDbLine
 10
139.769
 20
55.928
 30
0.0
 11
139.74
 21
55.6751
 31
0.0
  0
LWPOLYLINE
  5
27F9
330
1F
100
AcDbEntity
  8
CONTINUOUS1
100
AcDbPolyline
 90
        4
 70
     0
 43
0.0
 10
139.473
 20
56.065
 10
139.694
 20
56.065
 10
139.694
 20
55.5382
 10
139.473
 20
55.5382
  0
LWPOLYLINE
  5
27FA
330
1F
100
AcDbEntity
  8
CONTINUOUS1
100
AcDbPolyline
 90
        6
 70
     0
 43
0.0
 10
139.473
 20
56.065
 10
139.619
 20
56.065
 42
-0.4142135623731784
 10
139.694
 20
55.99
 10
139.694
 20
55.96440000000001
 42
-0.4142135623730396
 10
139.619
 20
55.8894
 10
139.473
 20
55.8894
  0
LWPOLYLINE
  5
27FB
330
1F
100
AcDbEntity
  8
CONTINUOUS1
100
AcDbPolyline
 90
        6
 70
     0
 43
0.0
 10
139.473
 20
55.8894
 10
139.619
 20
55.8894
 42
-0.4142135623731505
 10
139.694
 20
55.8144
 10
139.694
 20
55.78879999999999
 42
-0.4142135623729842
 10
139.619
 20
55.71380000000001
 10
139.473
 20
55.71380000000001
  0
LWPOLYLINE
  5
27FC
330
1F
100
AcDbEntity
  8
CONTINUOUS1
100
AcDbPolyline
 90
        6
 70
     0
 43
0.0
 10
139.473
 20
55.71380000000001
 10
139.619
 20
55.71380000000001
 42
-0.4142135623731505
 10
139.694
 20
55.63880000000001
 10
139.694
 20
55.61320000000001
 42
-0.4142135623730396
 10
139.619
 20
55.5382
 10
139.473
 20
55.5382
  0
LWPOLYLINE
  5
27FD
330
1F
100
AcDbEntity
  8
CONTINUOUS1
100
AcDbPolyline
 90
        7
 70
     0
 43
0.0
 10
139.417
 20
56.0922
 10
139.417
 20
55.51099999999999
 10
139.417
 20
55.4735
 10
139.473
 20
55.4735
 10
139.473
 20
56.1297
 10
139.417
 20
56.1297
 10
139.417
 20
56.0922
  0
LWPOLYLINE
  5
27FE
330
1F
100
AcDbEntity
  8
CONTINUOUS1
100
AcDbPolyline
 90
        4
 70
     0
 43
0.0
 10
139.1359999999999
 20
56.065
 10
138.9159999999999
 20
56.065
 10
138.9159999999999
 20
55.5382
 10
139.1359999999999
 20
55.5382
  0
LWPOLYLINE
  5
27FF
330
1F
100
AcDbEntity
  8
CONTINUOUS1
100
AcDbPolyline
 90
        6
 70
     0
 43
0.0
 10
139.1359999999999
 20
56.065
 10
138.991
 20
56.065
 42
0.4142135623731784
 10
138.9159999999999
 20
55.99
 10
138.9159999999999
 20
55.96440000000001
 42
0.4142135623730396
 10
138.991
 20
55.8894
 10
139.1359999999999
 20
55.8894
  0
LWPOLYLINE
  5
2800
330
1F
100
AcDbEntity
  8
CONTINUOUS1
100
AcDbPolyline
 90
        6
 70
     0
 43
0.0
 10
139.1359999999999
 20
55.8894
 10
138.991
 20
55.8894
 42
0.4142135623731505
 10
138.9159999999999
 20
55.8144
 10
138.9159999999999
 20
55.78879999999999
 42
0.4142135623729842
 10
138.991
 20
55.71380000000001
 10
139.1359999999999
 20
55.71380000000001
  0
LWPOLYLINE
  5
2801
330
1F
100
AcDbEntity
  8
CONTINUOUS1
100
AcDbPolyline
 90
        6
 70
     0
 43
0.0
 10
139.1359999999999
 20
55.71380000000001
 10
138.991
 20
55.71380000000001
 42
0.4142135623731505
 10
138.9159999999999
 20
55.63880000000001
 10
138.9159999999999
 20
55.61320000000001
 42
0.4142135623730396
 10
138.991
 20
55.5382
 10
139.1359999999999
 20
55.5382
  0
LWPOLYLINE
  5
2802
330
1F
100
AcDbEntity
  8
CONTINUOUS1
100
AcDbPolyline
 90
        7
 70
     0
 43
0.0
 10
139.192
 20
56.0922
 10
139.192
 20
55.51099999999999
 10
139.192
 20
55.4735
 10
139.1359999999999
 20
55.4735
 10
139.1359999999999
 20
56.1297
 10
139.192
 20
56.1297
 10
139.192
 20
56.0922
  0
LINE
  5
2803
330
1F
100
AcDbEntity
  8
CONTINUOUS1
100
AcDbLine
 10
136.3249999999999
 20
56.55160000000001
 30
0.0
 11
136.3249999999999
 21
55.87869999999999
 31
0.0
  0
LINE
  5
2804
330
1F
100
AcDbEntity
  8
CONTINUOUS1
100
AcDbLine
 10
136.3249999999999
 20
55.7247
 30
0.0
 11
136.3249999999999
 21
55.05169999999999
 31
0.0
  0
LINE
  5
2805
330
1F
100
AcDbEntity
  8
CONTINUOUS1
100
AcDbLine
 10
137.782
 20
55.87869999999999
 30
0.0
 11
137.782
 21
55.7247
 31
0.0
  0
LINE
  5
2806
330
1F
100
AcDbEntity
  8
CONTINUOUS1
100
AcDbLine
 10
136.3639999999999
 20
56.5517
 30
0.0
 11
136.3639999999999
 21
55.87869999999999
 31
0.0
  0
LINE
  5
2807
330
1F
100
AcDbEntity
  8
CONTINUOUS1
100
AcDbLine
 10
136.3639999999999
 20
55.7247
 30
0.0
 11
136.3639999999999
 21
55.05169999999999
 31
0.0
  0
LWPOLYLINE
  5
2808
330
1F
100
AcDbEntity
  8
CONTINUOUS1
100
AcDbPolyline
 90
        5
 70
     0
 43
0.0
 10
134.81
 20
55.7247
 10
134.81
 20
55.4072
 10
135.265
 20
55.05169999999999
 10
134.81
 20
55.4072
 10
134.7519999999999
 20
55.3921
  0
LWPOLYLINE
  5
2809
330
1F
100
AcDbEntity
  8
CONTINUOUS1
100
AcDbPolyline
 90
       10
 70
     1
 43
0.0
 10
139.2919999999999
 20
55.05169999999999
 10
139.2919999999999
 20
56.5517
 10
135.1609999999999
 20
56.5517
 10
134.7519999999999
 20
56.2113
 10
134.7519999999999
 20
55.87869999999999
 10
138.382
 20
55.87869999999999
 10
138.382
 20
55.7247
 10
134.7519999999999
 20
55.7247
 10
134.7519999999999
 20
55.3921
 10
135.1609999999999
 20
55.05169999999999
  0
LINE
  5
280A
330
1F
100
AcDbEntity
  8
CONTINUOUS1
100
AcDbLine
 10
139.192
 20
56.5517
 30
0.0
 11
139.192
 21
55.05169999999999
 31
0.0
  0
LWPOLYLINE
  5
280B
330
1F
100
AcDbEntity
  8
CONTINUOUS1
100
AcDbPolyline
 90
        4
 70
     1
 43
0.0
 10
139.2919999999999
 20
62.05169999999999
 10
139.417
 20
62.05169999999999
 10
139.417
 20
55.05169999999999
 10
139.2919999999999
 20
55.05169999999999
  0
LWPOLYLINE
  5
280C
330
1F
100
AcDbEntity
  8
CONTINUOUS1
100
AcDbPolyline
 90
        4
 70
     0
 43
0.0
 10
139.1109999999999
 20
61.15529999999999
 10
138.8909999999999
 20
61.15529999999999
 10
138.8909999999999
 20
60.6284
 10
139.1109999999999
 20
60.6284
  0
LWPOLYLINE
  5
280D
330
1F
100
AcDbEntity
  8
CONTINUOUS1
100
AcDbPolyline
 90
        7
 70
     0
 43
0.0
 10
139.1109999999999
 20
61.15529999999999
 10
138.966
 20
61.15529999999999
 42
0.1990938927439594
 10
138.9129692600913
 20
61.13330472349724
 42
0.1987202469822751
 10
138.8909999999999
 20
61.08019999999999
 10
138.8909999999999
 20
61.0546
 42
0.4142135623730396
 10
138.966
 20
60.9796
 10
139.1109999999999
 20
60.9796
  0
LWPOLYLINE
  5
280E
330
1F
100
AcDbEntity
  8
CONTINUOUS1
100
AcDbPolyline
 90
        6
 70
     0
 43
0.0
 10
139.1109999999999
 20
60.9796
 10
138.966
 20
60.9796
 42
0.4142135623731784
 10
138.8909999999999
 20
60.9046
 10
138.8909999999999
 20
60.87900000000001
 42
0.4142135623730396
 10
138.966
 20
60.804
 10
139.1109999999999
 20
60.804
  0
LWPOLYLINE
  5
280F
330
1F
100
AcDbEntity
  8
CONTINUOUS1
100
AcDbPolyline
 90
        6
 70
     0
 43
0.0
 10
139.1109999999999
 20
60.804
 10
138.966
 20
60.804
 42
0.4142135623731505
 10
138.8909999999999
 20
60.729
 10
138.8909999999999
 20
60.7034
 42
0.4142135623730396
 10
138.966
 20
60.6284
 10
139.1109999999999
 20
60.6284
  0
LWPOLYLINE
  5
2810
330
1F
100
AcDbEntity
  8
CONTINUOUS1
100
AcDbPolyline
 90
        7
 70
     0
 43
0.0
 10
139.1669999999999
 20
61.18249999999999
 10
139.1669999999999
 20
60.60120000000001
 10
139.1669999999999
 20
60.56370000000001
 10
139.1109999999999
 20
60.56370000000001
 10
139.1109999999999
 20
61.21999999999999
 10
139.1669999999999
 20
61.21999999999999
 10
139.1669999999999
 20
61.18249999999999
  0
LWPOLYLINE
  5
2811
330
1F
100
AcDbEntity
  8
CONTINUOUS1
100
AcDbPolyline
 90
        4
 70
     1
 43
0.0
 10
139.1669999999999
 20
62.05169999999999
 10
139.2919999999999
 20
62.05169999999999
 10
139.2919999999999
 20
59.732
 10
139.1669999999999
 20
59.732
  0
LWPOLYLINE
  5
2812
330
1F
100
AcDbEntity
  8
CONTINUOUS1
100
AcDbPolyline
 90
        6
 70
     1
 43
0.0
 10
137.6709999999999
 20
71.60890000000001
 10
137.9139999999999
 20
71.60890000000001
 10
138.036
 20
71.3981
 10
137.9139999999999
 20
71.18739999999999
 10
137.6709999999999
 20
71.18739999999999
 10
137.548
 20
71.3981
  0
LWPOLYLINE
  5
2813
330
1F
100
AcDbEntity
  8
CONTINUOUS1
100
AcDbPolyline
 90
        3
 70
     0
 43
0.0
 10
132.174
 20
71.6982
 10
132.174
 20
70.0502
 42
0.3654335626861672
 10
136.6229999999999
 20
64.77549999999999
  0
LWPOLYLINE
  5
2814
330
1F
100
AcDbEntity
  8
CONTINUOUS1
100
AcDbPolyline
 90
        4
 70
     0
 43
0.0
 10
138.373
 20
64.6982
 10
139.173
 20
64.6982
 10
139.173
 20
71.6982
 10
135.172
 20
71.6982
  0
LINE
  5
2815
330
1F
100
AcDbEntity
  8
CONTINUOUS1
100
AcDbLine
 10
135.172
 20
71.6982
 30
0.0
 11
132.174
 21
71.6982
 31
0.0
  0
LWPOLYLINE
  5
2816
330
1F
100
AcDbEntity
  8
CONTINUOUS1
100
AcDbPolyline
 90
        6
 70
     1
 43
0.0
 10
138.71
 20
70.19280000000001
 10
138.954
 20
70.19280000000001
 10
139.076
 20
69.982
 10
138.954
 20
69.77129999999999
 10
138.71
 20
69.77129999999999
 10
138.588
 20
69.982
  0
LWPOLYLINE
  5
2817
330
1F
100
AcDbEntity
  8
CONTINUOUS1
100
AcDbPolyline
 90
        6
 70
     1
 43
0.0
 10
138.55
 20
71.31669999999999
 10
138.793
 20
71.31669999999999
 10
138.915
 20
71.10590000000001
 10
138.793
 20
70.8952
 10
138.55
 20
70.8952
 10
138.4279999999999
 20
71.10590000000001
  0
LWPOLYLINE
  5
2818
330
1F
100
AcDbEntity
  8
HIDDEN1
100
AcDbPolyline
 90
        9
 70
     0
 43
0.0
 10
137.6859999999999
 20
69.84180000000001
 10
137.7129999999999
 20
69.81449999999999
 42
-0.4155424986905675
 10
137.7129999999999
 20
69.6377
 10
137.4579999999999
 20
69.38290000000001
 42
-0.1983267976711022
 10
137.3692950593278
 20
69.34621467802294
 42
-0.199780309530716
 10
137.281
 20
69.38290000000001
 10
136.954
 20
69.71009999999999
 42
-0.4120682269998551
 10
136.954
 20
69.88679999999999
 10
137.0489999999999
 20
69.982
  0
LWPOLYLINE
  5
2819
330
1F
100
AcDbEntity
  8
CONTINUOUS1
100
AcDbPolyline
 90
        5
 70
     0
 43
0.0
 10
137.0489999999999
 20
69.982
 10
137.209
 20
70.14160000000001
 42
-0.1983195530855768
 10
137.2977091384398
 20
70.17828745434623
 42
-0.1998028400746321
 10
137.386
 20
70.14160000000001
 10
137.413
 20
70.1143
  0
LWPOLYLINE
  5
281A
330
1F
100
AcDbEntity
  8
HIDDEN1
100
AcDbPolyline
 90
        4
 70
     0
 43
0.0
 10
137.925
 20
69.982
 10
137.271
 20
69.59929999999999
 10
137.1709999999999
 20
69.70010000000001
 10
137.3359999999999
 20
69.982
  0
LINE
  5
281B
330
1F
100
AcDbEntity
  8
CONTINUOUS1
100
AcDbLine
 10
138.244
 20
70.16849999999999
 30
0.0
 11
137.7399999999999
 21
70.6725
 31
0.0
  0
LWPOLYLINE
  5
281C
330
1F
100
AcDbEntity
  8
CONTINUOUS1
100
AcDbPolyline
 90
        4
 70
     0
 43
0.0
 10
139.173
 20
69.5988
 10
138.473
 20
69.5988
 10
138.473
 20
70.29869999999999
 10
138.4479999999999
 20
70.3723
  0
LINE
  5
281D
330
1F
100
AcDbEntity
  8
HIDDEN1
100
AcDbLine
 10
138.4479999999999
 20
70.3723
 30
0.0
 11
138.192
 21
71.0982
 31
0.0
  0
LWPOLYLINE
  5
281E
330
1F
100
AcDbEntity
  8
CONTINUOUS1
100
AcDbPolyline
 90
        3
 70
     0
 43
0.0
 10
138.192
 20
71.0982
 10
137.4919999999999
 20
71.0982
 10
137.4919999999999
 20
71.6982
  0
CIRCLE
  5
281F
330
1F
100
AcDbEntity
  8
CONTINUOUS1
100
AcDbCircle
 10
137.792
 20
71.3982
 30
0.0
 40
0.1266999999999996
  0
LWPOLYLINE
  5
2820
330
1F
100
AcDbEntity
  8
CONTINUOUS1
100
AcDbPolyline
 90
        6
 70
     0
 43
0.0
 10
139.173
 20
69.5988
 10
139.2919999999999
 20
69.5988
 10
139.2919999999999
 20
68.0987
 10
139.417
 20
68.0987
 10
139.417
 20
71.6982
 10
139.173
 20
71.6982
  0
LWPOLYLINE
  5
2821
330
1F
100
AcDbEntity
  8
CONTINUOUS1
100
AcDbPolyline
 90
        4
 70
     1
 43
0.0
 10
143.344
 20
68.37279999999999
 10
143.344
 20
68.77880000000001
 10
143.75
 20
68.77880000000001
 10
143.75
 20
68.37279999999999
  0
LWPOLYLINE
  5
2822
330
1F
100
AcDbEntity
  8
CONTINUOUS1
100
AcDbPolyline
 90
        4
 70
     1
 43
0.0
 10
143.344
 20
52.7457
 10
143.344
 20
53.15170000000001
 10
143.75
 20
53.15170000000001
 10
143.75
 20
52.7457
  0
LWPOLYLINE
  5
2823
330
1F
100
AcDbEntity
  8
CONTINUOUS1
100
AcDbPolyline
 90
        4
 70
     1
 43
0.0
 10
143.344
 20
46.4902
 10
143.344
 20
46.89619999999999
 10
143.75
 20
46.89619999999999
 10
143.75
 20
46.49009999999999
  0
LINE
  5
2824
330
1F
100
AcDbEntity
  8
CONTINUOUS1
100
AcDbLine
 10
144.0469999999999
 20
71.8031
 30
0.0
 11
143.039
 21
71.8031
 31
0.0
  0
LINE
  5
2825
330
1F
100
AcDbEntity
  8
CONTINUOUS1
100
AcDbLine
 10
144.0469999999999
 20
43.4731
 30
0.0
 11
143.0369999999999
 21
43.4731
 31
0.0
  0
LWPOLYLINE
  5
2826
330
1F
100
AcDbEntity
  8
CONTINUOUS1
100
AcDbPolyline
 90
        6
 70
     1
 43
0.0
 10
144.0469999999999
 20
71.9231
 10
142.9769999999999
 20
71.9231
 42
0.4142135623730951
 10
142.917
 20
71.8631
 10
142.917
 20
43.4131
 42
0.4142135623730951
 10
142.9769999999999
 20
43.35309999999999
 10
144.0469999999999
 20
43.35309999999999
  0
CIRCLE
  5
2829
330
1F
100
AcDbEntity
  8
HIDDEN1
100
AcDbCircle
 10
137.474
 20
63.4993
 30
0.0
 40
0.2994439680474809
  0
CIRCLE
  5
282A
330
1F
100
AcDbEntity
  8
CONTINUOUS1
100
AcDbCircle
 10
137.474
 20
63.4993
 30
0.0
 40
0.1275462269140136
  0
LWPOLYLINE
  5
282B
330
1F
100
AcDbEntity
  8
CONTINUOUS1
100
AcDbPolyline
 90
        6
 70
     1
 43
0.0
 10
137.5559999999999
 20
63.7049
 10
137.359
 20
63.6876
 10
137.244
 20
63.47920000000001
 10
137.393
 20
63.2937
 10
137.59
 20
63.31089999999999
 10
137.704
 20
63.51939999999999
  0
LWPOLYLINE
  5
282C
330
1F
100
AcDbEntity
  8
CONTINUOUS1
100
AcDbPolyline
 90
        6
 70
     0
 43
0.0
 10
124.046
 20
69.83109999999999
 10
124.3689999999999
 20
68.8219
 10
125.7249999999999
 20
62.71460000000001
 10
126.471
 20
58.48359999999999
 10
125.672
 20
58.3427
 10
123.3419999999999
 20
69.7071
  0
CIRCLE
  5
282D
330
1F
100
AcDbEntity
  8
HIDDEN1
100
AcDbCircle
 10
137.474
 20
63.4993
 30
0.0
 40
0.2994439680474809
  0
CIRCLE
  5
282E
330
1F
100
AcDbEntity
  8
CONTINUOUS1
100
AcDbCircle
 10
137.474
 20
63.4993
 30
0.0
 40
0.1275462269140136
  0
LINE
  5
282F
330
1F
100
AcDbEntity
  8
CONTINUOUS1
100
AcDbLine
 10
135.1069999999999
 20
63.64150000000001
 30
0.0
 11
135.495
 21
62.19249999999999
 31
0.0
  0
LWPOLYLINE
  5
2830
330
1F
100
AcDbEntity
  8
CONTINUOUS1
100
AcDbPolyline
 90
       10
 70
     0
 43
0.0
 10
136.706
 20
62.51699999999999
 10
130.3659999999999
 20
60.8182
 10
130.257
 20
61.2258
 10
132.063
 20
61.7098
 42
0.1989520488581501
 10
132.2620306897736
 20
61.86253584121338
 42
0.1985768766151826
 10
132.2949999999999
 20
62.11149999999999
 42
0.413727893769021
 10
131.8929999999999
 20
62.3435
 10
130.0869999999999
 20
61.8595
 10
129.978
 20
62.2671
 10
136.5729999999999
 20
64.0344
  0
LWPOLYLINE
  5
2831
330
1F
100
AcDbEntity
  8
HIDDEN1
100
AcDbPolyline
 90
        6
 70
     1
 43
0.0
 10
137.555
 20
63.7049
 10
137.358
 20
63.68769999999999
 10
137.244
 20
63.47920000000001
 10
137.393
 20
63.2937
 10
137.59
 20
63.311
 10
137.704
 20
63.51939999999999
  0
LWPOLYLINE
  5
2832
330
1F
100
AcDbEntity
  8
HIDDEN1
100
AcDbPolyline
 90
        5
 70
     0
 43
0.0
 10
136.8
 20
64.0951
 10
137.763
 20
64.3532
 42
-0.4143477904459328
 10
138.069
 20
64.1765
 10
138.091
 20
64.0951
 10
138.328
 20
63.21039999999999
  0
LINE
  5
2833
330
1F
100
AcDbEntity
  8
HIDDEN1
100
AcDbLine
 10
125.882
 20
63.69500000000001
 30
0.0
 11
124.4379999999999
 21
63.30809999999999
 31
0.0
  0
LWPOLYLINE
  5
2834
330
1F
100
AcDbEntity
  8
HIDDEN1
100
AcDbPolyline
 90
        8
 70
     0
 43
0.0
 10
126.008
 20
63.12719999999999
 10
126.008
 20
63.10159999999999
 42
0.0709040989592466
 10
125.9861212923178
 20
62.97430193135479
 42
0.0721049936675646
 10
126.0009999999999
 20
62.8471
 10
126.1149999999999
 20
62.41500000000001
 42
-0.1980210761739515
 10
126.0893776877449
 20
62.22584570510844
 42
-0.1984099862258295
 10
125.9379999999999
 20
62.10989999999999
 10
124.6669999999999
 20
61.7694
  0
LWPOLYLINE
  5
2835
330
1F
100
AcDbEntity
  8
CONTINUOUS1
100
AcDbPolyline
 90
       18
 70
     1
 43
0.0
 10
132.416
 20
51.31109999999999
 42
0.1536896393744854
 10
132.4305115376212
 20
51.32251101622895
 42
0.1512439804863006
 10
132.436
 20
51.3403
 10
132.413
 20
51.4101
 42
0.0798247305988398
 10
132.4085832118005
 20
51.41804563104901
 42
0.0777982804810922
 10
132.4018345489608
 20
51.4243129701364
 42
0.0753923670501736
 10
132.3933790896909
 20
51.42832152047478
 42
0.0734777827705073
 10
132.384
 20
51.4297
 10
131.491
 20
51.111
 42
0.0810769193033195
 10
131.4832832288703
 20
51.10654698947145
 42
0.0776735424863722
 10
131.4772116214599
 20
51.09976136603762
 42
0.0737468988725457
 10
131.4733337551363
 20
51.09125621931184
 42
0.070679979130728
 10
131.472
 20
51.0818
 10
131.4939999999999
 20
51.0121
 42
0.0797939908093372
 10
131.4984183696507
 20
51.00415498271156
 42
0.077767932628147
 10
131.5051675764346
 20
50.99788785472872
 42
0.075373414685375
 10
131.5136224917602
 20
50.99387909328577
 42
0.0734757061470069
 10
131.5229999999999
 20
50.99249999999999
  0
LWPOLYLINE
  5
2836
330
1F
100
AcDbEntity
  8
CONTINUOUS1
100
AcDbPolyline
 90
       20
 70
     1
 43
0.0
 10
132.585
 20
50.8407
 42
0.0809131483126425
 10
132.5930887373762
 20
50.84504828045462
 42
0.0788399675543536
 10
132.5994875809999
 20
50.85180400475101
 42
0.0763736459015014
 10
132.6035879875935
 20
50.86032468952074
 42
0.0744290601647788
 10
132.605
 20
50.8698
 10
132.583
 20
50.9396
 42
0.0798247482244241
 10
132.5785832128236
 20
50.94754562823126
 42
0.0777982629749258
 10
132.5718345503358
 20
50.95381296634948
 42
0.0753923234937643
 10
132.563379090714
 20
50.95782151765704
 42
0.0734777298092331
 10
132.5539999999999
 20
50.95919999999999
 10
131.6599999999999
 20
50.64059999999999
 42
0.0810768380703647
 10
131.6522832303201
 20
50.6361469854383
 42
0.077673465685484
 10
131.6462116234081
 20
50.62936136061835
 42
0.0737468534312042
 10
131.6423337565862
 20
50.6208562152787
 42
0.0706799753573015
 10
131.6409999999999
 20
50.6114
 10
131.663
 20
50.5416
 42
0.0797939734805414
 10
131.6674183706595
 20
50.53365497989062
 42
0.0777679503843077
 10
131.6741675777904
 20
50.5273878509375
 42
0.0753734583723358
 10
131.6826224927691
 20
50.52337909046483
 42
0.0734757591017192
 10
131.692
 20
50.522
  0
LWPOLYLINE
  5
2837
330
1F
100
AcDbEntity
  8
CONTINUOUS1
100
AcDbPolyline
 90
       20
 70
     1
 43
0.0
 10
132.501
 20
51.0759
 42
0.0810618353672829
 10
132.5087190347313
 20
51.08035388673101
 42
0.0776878049305914
 10
132.5147914201056
 20
51.08713981130168
 42
0.0737817520398639
 10
132.5186685084653
 20
51.09564465689061
 42
0.0707219153985094
 10
132.52
 20
51.10509999999999
 10
132.4979999999999
 20
51.1748
 42
0.0798247393671139
 10
132.4935832123098
 20
51.182745629639
 42
0.0777982716841712
 10
132.4868345496454
 20
51.18901296824141
 42
0.0753923452409251
 10
132.4783790902002
 20
51.19302151906477
 42
0.073477756284091
 10
132.4689999999999
 20
51.1944
 10
131.576
 20
50.87579999999999
 42
0.0813811083060576
 10
131.5679129649479
 20
50.8714529175706
 42
0.0790410597555926
 10
131.5615142548264
 20
50.86467897095284
 42
0.0762711943529066
 10
131.5574131064022
 20
50.85612312409376
 42
0.0740992989838973
 10
131.5559999999999
 20
50.8466
 10
131.5779999999999
 20
50.7768
 42
0.0844253932193552
 10
131.5824174578708
 20
50.76889747256974
 42
0.0796809366702044
 10
131.589348641725
 20
50.76266149191205
 42
0.0742521746527231
 10
131.5981489614524
 20
50.75867199524171
 42
0.070106400243642
 10
131.608
 20
50.7573
  0
LWPOLYLINE
  5
2838
330
1F
100
AcDbEntity
  8
CONTINUOUS1
100
AcDbPolyline
 90
       24
 70
     0
 43
0.0
 10
131.8899999999999
 20
51.78609999999999
 10
131.322
 20
51.5814
 42
0.0413745534421239
 10
131.3162208600131
 20
51.57875845469428
 42
0.0373680173713819
 10
131.3106478109499
 20
51.57506499038439
 42
0.0691166109834775
 10
131.3009603539158
 20
51.56512491254439
 42
0.0345067606327393
 10
131.2972181588493
 20
51.55926021815245
 42
0.0363810024725025
 10
131.2944121792958
 20
51.55309276887924
 42
0.0398141448360261
 10
131.2926502270158
 20
51.54685953137118
 42
0.0449770163047333
 10
131.292
 20
51.5408
 10
131.324
 20
51.4825
 42
0.0422235250142556
 10
131.326673151928
 20
51.47680812287304
 42
0.0380230548813547
 10
131.33040713633
 20
51.47133403278012
 42
0.0698571621460866
 10
131.3404485091742
 20
51.46186403664379
 42
0.0709292616992949
 10
131.352595759327
 20
51.45553140371882
 42
0.0394294721501281
 10
131.3588862871835
 20
51.45386608508132
 42
0.0442890944692917
 10
131.365
 20
51.45330000000001
 10
132.247
 20
51.7816
 42
0.0427548362507014
 10
132.2525956855524
 20
51.78419656815993
 42
0.0383119266177861
 10
132.2579899555062
 20
51.78785251356393
 42
0.0698502558853446
 10
132.2673605742015
 20
51.79774510360894
 42
0.0702488962154468
 10
132.2736849381147
 20
51.80977136858608
 42
0.038835859125927
 10
132.2753810931714
 20
51.81601756845538
 42
0.0435263522725948
 10
132.276
 20
51.82210000000001
 10
132.2549999999999
 20
51.84910000000001
  0
LWPOLYLINE
  5
2839
330
1F
100
AcDbEntity
  8
CONTINUOUS1
100
AcDbPolyline
 90
       20
 70
     1
 43
0.0
 10
132.331
 20
51.5463
 42
0.0813608946034576
 10
132.3390898754329
 20
51.55064818477901
 42
0.0790568919323655
 10
132.3454895633818
 20
51.55742251089082
 42
0.0763140341403034
 10
132.3495897339787
 20
51.56597797825585
 42
0.0741521629069011
 10
132.3509999999999
 20
51.5755
 10
132.329
 20
51.6453
 42
0.0798247220311008
 10
132.3245832113015
 20
51.65324563246016
 42
0.0777982894464728
 10
132.3178345482902
 20
51.65951297203291
 42
0.0753923889357725
 10
132.309379089192
 20
51.66352152188594
 42
0.0734778092242073
 10
132.3
 20
51.66489999999999
 10
131.406
 20
51.34619999999999
 42
0.0805920814792379
 10
131.3982808035288
 20
51.34174498388548
 42
0.0774776499154399
 10
131.3922087184889
 20
51.33497713364721
 42
0.0738621209944108
 10
131.388331808025
 20
51.32650731182432
 42
0.0710198377630738
 10
131.387
 20
51.31709999999999
 10
131.4089999999999
 20
51.24729999999999
 42
0.0797939995589757
 10
131.4134183691418
 20
51.23935498412119
 42
0.0777679238208156
 10
131.4201675757507
 20
51.23308785662318
 42
0.0753733928798358
 10
131.4286224912514
 20
51.22907909469541
 42
0.0734756796606988
 10
131.438
 20
51.2277
  0
LWPOLYLINE
  5
283A
330
1F
100
AcDbEntity
  8
CONTINUOUS1
100
AcDbPolyline
 90
       20
 70
     1
 43
0.0
 10
132.247
 20
51.7819
 42
0.0806009440177013
 10
132.2547178712237
 20
51.78635449774287
 42
0.0774693939232706
 10
132.2607895008116
 20
51.79312216983066
 42
0.0738416744066506
 10
132.2646668667275
 20
51.80159216980402
 42
0.0709950760118064
 10
132.2659999999999
 20
51.811
 10
132.244
 20
51.8808
 42
0.0798247133018448
 10
132.2395832107943
 20
51.88874563387223
 42
0.0777982982999924
 10
132.2328345476086
 20
51.89501297393067
 42
0.0753924107916532
 10
132.2243790886847
 20
51.899021523298
 42
0.0734778357342128
 10
132.215
 20
51.90039999999999
 10
131.322
 20
51.5818
 42
0.0813812538637026
 10
131.3139129622231
 20
51.57745292517264
 42
0.0790412021408964
 10
131.3075142511636
 20
51.57067898117194
 42
0.0762712806278042
 10
131.3034131036774
 20
51.56212313169579
 42
0.0740993045793401
 10
131.3019999999999
 20
51.5526
 10
131.324
 20
51.48279999999999
 42
0.0802333587115126
 10
131.3284063678566
 20
51.47489515100748
 42
0.0779211304013576
 10
131.3351511565125
 20
51.46866010032237
 42
0.0751998549484665
 10
131.3436100331432
 20
51.46467199676302
 42
0.0730519727506338
 10
131.353
 20
51.46329999999999
  0
LWPOLYLINE
  5
283B
330
1F
100
AcDbEntity
  8
CONTINUOUS1
100
AcDbPolyline
 90
       20
 70
     1
 43
0.0
 10
132.162
 20
52.0171
 42
0.0810616728404144
 10
132.1697190318334
 20
52.02155389480483
 42
0.0776876512734795
 10
132.1757914162117
 20
52.02833982215035
 42
0.0737816611512432
 10
132.1796685055674
 20
52.03684466496443
 42
0.070721907987552
 10
132.1809999999999
 20
52.0463
 10
132.159
 20
52.116
 42
0.0803071032321444
 10
132.1546064609158
 20
52.123942724551
 42
0.078098065389512
 10
132.1478636425159
 20
52.13021076870467
 42
0.0754773354716367
 10
132.1393989487108
 20
52.13422090521375
 42
0.0733979422088102
 10
132.1299999999999
 20
52.13560000000001
 10
131.237
 20
51.817
 42
0.0813813023293906
 10
131.2289129613073
 20
51.81265292770368
 42
0.0790412496422051
 10
131.2225142499324
 20
51.80587898457432
 42
0.076271309501131
 10
131.2184131027615
 20
51.79732313422683
 42
0.0740993065880473
 10
131.217
 20
51.78779999999999
 10
131.24
 20
51.7181
 42
0.0797940169194063
 10
131.2444183681312
 20
51.71015498694329
 42
0.0777679060767919
 10
131.2511675743925
 20
51.70388786041596
 42
0.0753733491802817
 10
131.2596224902408
 20
51.69987909751751
 42
0.0734756266762972
 10
131.269
 20
51.6985
  0
LWPOLYLINE
  5
283C
330
1F
100
AcDbEntity
  8
CONTINUOUS1
100
AcDbPolyline
 90
        4
 70
     0
 43
0.0
 10
131.1059999999999
 20
51.6507
 10
131.6109999999999
 20
50.2492
 10
132.833
 20
50.69259999999999
 10
132.407
 20
51.8754
  0
CIRCLE
  5
283D
330
1F
100
AcDbEntity
  8
CONTINUOUS1
100
AcDbCircle
 10
131.661
 20
51.74800000000001
 30
0.0
 40
0.1877301520800557
  0
LINE
  5
283E
330
1F
100
AcDbEntity
  8
CONTINUOUS1
100
AcDbLine
 10
131.567
 20
50.36979999999999
 30
0.0
 11
132.7909999999999
 21
50.81019999999999
 31
0.0
  0
LWPOLYLINE
  5
283F
330
1F
100
AcDbEntity
  8
CONTINUOUS1
100
AcDbPolyline
 90
       10
 70
     1
 43
0.0
 10
124.143
 20
70.10209999999999
 42
-0.4147160297743003
 10
123.94
 20
69.8125
 10
123.448
 20
69.7256
 42
-0.1993559067675195
 10
123.261007136977
 20
69.76679522838779
 42
-0.1990390388816946
 10
123.1579999999999
 20
69.9284
 10
123.0709999999999
 20
70.4208
 42
-0.4147160297742289
 10
123.2739999999999
 20
70.71039999999999
 10
123.7659999999999
 20
70.79729999999999
 42
-0.1993599763504346
 10
123.9529970925806
 20
70.75610717580336
 42
-0.1990505188409199
 10
124.056
 20
70.5945
  0
CIRCLE
  5
2840
330
1F
100
AcDbEntity
  8
CONTINUOUS1
100
AcDbCircle
 10
125.944
 20
59.13319999999999
 30
0.0
 40
0.2741985412069225
  0
CIRCLE
  5
2841
330
1F
100
AcDbEntity
  8
CONTINUOUS1
100
AcDbCircle
 10
125.944
 20
59.13319999999999
 30
0.0
 40
0.4244648866514215
  0
LWPOLYLINE
  5
2842
330
1F
100
AcDbEntity
  8
CONTINUOUS1
100
AcDbPolyline
 90
       16
 70
     1
 43
0.0
 10
124.346
 20
56.25709999999999
 42
0.1990308995941905
 10
124.3061117782687
 20
56.43628300133223
 42
0.1983411070674929
 10
124.151
 20
56.5351
 10
124.131
 20
56.5351
 42
0.0969471053694893
 10
124.0371768212613
 20
56.53333753405459
 42
0.0978470624952054
 10
123.951399310485
 20
56.49638284791458
 42
0.0991358518953051
 10
123.8867252845882
 20
56.42986151314849
 42
0.1000586479972033
 10
123.853
 20
56.34389999999999
 10
123.7279999999999
 20
55.6349
 42
0.1989882149038161
 10
123.7678806075404
 20
55.45564101590795
 42
0.1984048331895441
 10
123.923
 20
55.3568
 10
123.943
 20
55.3568
 42
0.0969469982728204
 10
124.0368232422913
 20
55.35856249461033
 42
0.0978470353453996
 10
124.1226007753842
 20
55.39551719081609
 42
0.099135923054563
 10
124.1872747789644
 20
55.46203851551644
 42
0.1000587775078801
 10
124.221
 20
55.548
  0
LWPOLYLINE
  5
2843
330
1F
100
AcDbEntity
  8
CONTINUOUS1
100
AcDbPolyline
 90
        9
 70
     0
 43
0.0
 10
127.1439999999999
 20
54.2331
 10
126.178
 20
54.49200000000001
 10
126.0009999999999
 20
55.1648
 42
-0.1292110840529213
 10
126.0009999999999
 20
55.41920000000001
 10
126.1149999999999
 20
55.8513
 42
0.4124800597828003
 10
125.9379999999999
 20
56.15639999999999
 10
124.239
 20
56.61159999999999
 42
-0.3092802126128121
 10
123.872
 20
57.0406
 10
123.6439999999999
 20
59.13319999999999
  0
LINE
  5
2844
330
1F
100
AcDbEntity
  8
HIDDEN1
100
AcDbLine
 10
127.1439999999999
 20
64.03319999999999
 30
0.0
 11
126.178
 21
63.77439999999999
 31
0.0
  0
LWPOLYLINE
  5
2845
330
1F
100
AcDbEntity
  8
CONTINUOUS1
100
AcDbPolyline
 90
        6
 70
     1
 43
0.0
 10
127.1439999999999
 20
64.03319999999999
 10
127.237
 20
64.0951
 10
127.1439999999999
 20
64.0951
 10
127.1439999999999
 20
54.1155
 10
127.237
 20
54.1155
 10
127.237
 20
64.095
  0
CIRCLE
  5
2846
330
1F
100
AcDbEntity
  8
CONTINUOUS1
100
AcDbCircle
 10
132.553
 20
74.5668
 30
0.0
 40
0.1500000000000057
  0
TEXT
  5
286F
330
1F
100
AcDbEntity
  8
MFG_NOTES
100
AcDbText
 10
90.84487141288553
 20
13.89994084365724
 30
0.0
 40
1.599999675600546
  1
%%uNOTIFY U.L. ENG. WHEN REVISING%%u
 41
0.899943230130404
  7
ROMANS
 72
     1
 11
109.2499923706054
 21
14.69994068145751
 31
0.0
100
AcDbText
 73
     2
  0
TEXT
  5
2870
330
1F
100
AcDbEntity
  8
MFG_NOTES
100
AcDbText
 10
97.66862697878501
 20
17.89997040756105
 30
0.0
 40
1.599999675600546
  1
%%uU.L. RECORDED PART%%u
 41
0.8998398791575967
  7
ROMANS
 72
     1
 11
109.2499923706054
 21
18.69997024536132
 31
0.0
100
AcDbText
 73
     2
  0
LWPOLYLINE
  5
2871
330
1F
100
AcDbEntity
  8
MFG_NOTES
100
AcDbPolyline
 90
        4
 70
     1
 43
0.0
 10
133.25
 20
21.89999999999999
 10
85.25009999999999
 20
21.89999999999999
 10
85.25009999999999
 20
11.5
 10
133.25
 20
11.5
  0
LWPOLYLINE
  5
2874
330
1F
100
AcDbEntity
  8
CENTER1
100
AcDbPolyline
 90
        3
 70
     0
 43
0.0
 10
81.0336
 20
23.1103
 10
85.3541
 20
23.1103
 10
85.3541
 20
27.2128
  0
LWPOLYLINE
  5
2875
330
1F
100
AcDbEntity
  8
CENTER1
100
AcDbPolyline
 90
        3
 70
     0
 43
0.0
 10
85.3541
 20
89.56969999999998
 10
85.3541
 20
94.2191
 10
81.10429999999999
 20
94.2191
  0
LWPOLYLINE
  5
2876
330
1F
100
AcDbEntity
  8
HIDDEN1
100
AcDbPolyline
 90
        4
 70
     0
 43
0.0
 10
136.6229999999999
 20
62.4948
 10
138.1509999999999
 20
62.9043
 42
0.4140280495417061
 10
138.328
 20
63.21039999999999
 10
138.091
 20
64.0951
  0
LINE
  5
2877
330
1F
100
AcDbEntity
  8
HIDDEN1
100
AcDbLine
 10
136.8
 20
64.0951
 30
0.0
 11
136.5729999999999
 21
64.0344
 31
0.0
  0
LWPOLYLINE
  5
2878
330
1F
100
AcDbEntity
  8
CONTINUOUS1
100
AcDbPolyline
 90
       16
 70
     0
 43
0.0
 10
126.092
 20
88.57350000000002
 10
126.092
 20
88.75580000000002
 42
-0.1991267167651336
 10
126.1271476494577
 20
88.8405286514641
 42
-0.1987858663126207
 10
126.212
 20
88.8756
 10
126.782
 20
88.8756
 10
126.782
 20
88.99180000000001
 10
126.212
 20
88.99180000000001
 42
0.4139300946285922
 10
125.9759999999999
 20
88.75580000000002
 10
125.9759999999999
 20
27.2765
 42
0.414297275311008
 10
126.212
 20
27.0403
 10
126.782
 20
27.0403
 10
126.782
 20
27.1564
 10
126.212
 20
27.1564
 42
-0.1992431360601187
 10
126.1271476494577
 20
27.19153392240595
 42
-0.1988017240356771
 10
126.092
 20
27.2765
 10
126.092
 20
27.40639999999999
  0
LINE
  5
2879
330
1F
100
AcDbEntity
  8
CONTINUOUS1
100
AcDbLine
 10
126.782
 20
88.87590000000001
 30
0.0
 11
126.782
 21
27.1565
 31
0.0
  0
LINE
  5
287A
330
1F
100
AcDbEntity
  8
HIDDEN1
100
AcDbLine
 10
126.092
 20
88.78640000000002
 30
0.0
 11
126.092
 21
27.40639999999999
 31
0.0
  0
LINE
  5
287B
330
1F
100
AcDbEntity
  8
CONTINUOUS1
100
AcDbLine
 10
136.287
 20
51.8989
 30
0.0
 11
136.3059999999999
 21
51.8801
 31
0.0
  0
LINE
  5
287C
330
1F
100
AcDbEntity
  8
CONTINUOUS1
100
AcDbLine
 10
136.323
 20
51.8692
 30
0.0
 11
136.281
 21
51.91089999999999
 31
0.0
  0
LINE
  5
287D
330
1F
100
AcDbEntity
  8
CONTINUOUS1
100
AcDbLine
 10
136.274
 20
51.9236
 30
0.0
 11
136.3359999999999
 21
51.8614
 31
0.0
  0
LINE
  5
287E
330
1F
100
AcDbEntity
  8
CONTINUOUS1
100
AcDbLine
 10
136.3499999999999
 20
51.85369999999999
 30
0.0
 11
136.274
 21
51.92910000000001
 31
0.0
  0
LINE
  5
287F
330
1F
100
AcDbEntity
  8
CONTINUOUS1
100
AcDbLine
 10
136.28
 20
51.9292
 30
0.0
 11
136.3599999999999
 21
51.84829999999999
 31
0.0
  0
LINE
  5
2880
330
1F
100
AcDbEntity
  8
CONTINUOUS1
100
AcDbLine
 10
136.371
 20
51.84319999999999
 30
0.0
 11
136.2849999999999
 21
51.9292
 31
0.0
  0
LINE
  5
2881
330
1F
100
AcDbEntity
  8
CONTINUOUS1
100
AcDbLine
 10
136.291
 20
51.9293
 30
0.0
 11
136.377
 21
51.843
 31
0.0
  0
LINE
  5
2882
330
1F
100
AcDbEntity
  8
CONTINUOUS1
100
AcDbLine
 10
136.3829999999999
 20
51.843
 30
0.0
 11
136.297
 21
51.9293
 31
0.0
  0
LINE
  5
2883
330
1F
100
AcDbEntity
  8
CONTINUOUS1
100
AcDbLine
 10
136.3019999999999
 20
51.9293
 30
0.0
 11
136.3879999999999
 21
51.843
 31
0.0
  0
LINE
  5
2884
330
1F
100
AcDbEntity
  8
CONTINUOUS1
100
AcDbLine
 10
136.394
 20
51.843
 30
0.0
 11
136.3079999999999
 21
51.9294
 31
0.0
  0
LINE
  5
2885
330
1F
100
AcDbEntity
  8
CONTINUOUS1
100
AcDbLine
 10
136.3129999999999
 20
51.9294
 30
0.0
 11
136.4
 21
51.843
 31
0.0
  0
LINE
  5
2886
330
1F
100
AcDbEntity
  8
CONTINUOUS1
100
AcDbLine
 10
136.4049999999999
 20
51.843
 30
0.0
 11
136.3189999999999
 21
51.92949999999999
 31
0.0
  0
LINE
  5
2887
330
1F
100
AcDbEntity
  8
CONTINUOUS1
100
AcDbLine
 10
136.3249999999999
 20
51.92949999999999
 30
0.0
 11
136.4109999999999
 21
51.843
 31
0.0
  0
LINE
  5
2888
330
1F
100
AcDbEntity
  8
CONTINUOUS1
100
AcDbLine
 10
136.417
 20
51.843
 30
0.0
 11
136.3299999999999
 21
51.9296
 31
0.0
  0
LINE
  5
2889
330
1F
100
AcDbEntity
  8
CONTINUOUS1
100
AcDbLine
 10
136.3359999999999
 20
51.9296
 30
0.0
 11
136.4219999999999
 21
51.843
 31
0.0
  0
LINE
  5
288A
330
1F
100
AcDbEntity
  8
CONTINUOUS1
100
AcDbLine
 10
136.4279999999999
 20
51.843
 30
0.0
 11
136.341
 21
51.9296
 31
0.0
  0
LINE
  5
288B
330
1F
100
AcDbEntity
  8
CONTINUOUS1
100
AcDbLine
 10
136.347
 20
51.92969999999999
 30
0.0
 11
136.434
 21
51.843
 31
0.0
  0
LINE
  5
288C
330
1F
100
AcDbEntity
  8
CONTINUOUS1
100
AcDbLine
 10
136.4389999999999
 20
51.843
 30
0.0
 11
136.353
 21
51.92969999999999
 31
0.0
  0
LINE
  5
288D
330
1F
100
AcDbEntity
  8
CONTINUOUS1
100
AcDbLine
 10
136.358
 20
51.9298
 30
0.0
 11
136.4449999999999
 21
51.843
 31
0.0
  0
LINE
  5
288E
330
1F
100
AcDbEntity
  8
CONTINUOUS1
100
AcDbLine
 10
136.4509999999999
 20
51.843
 30
0.0
 11
136.3639999999999
 21
51.9298
 31
0.0
  0
LINE
  5
288F
330
1F
100
AcDbEntity
  8
CONTINUOUS1
100
AcDbLine
 10
136.369
 20
51.9298
 30
0.0
 11
136.4559999999999
 21
51.843
 31
0.0
  0
LINE
  5
2890
330
1F
100
AcDbEntity
  8
CONTINUOUS1
100
AcDbLine
 10
136.4619999999999
 20
51.843
 30
0.0
 11
136.375
 21
51.9299
 31
0.0
  0
LINE
  5
2891
330
1F
100
AcDbEntity
  8
CONTINUOUS1
100
AcDbLine
 10
136.3809999999999
 20
51.92999999999999
 30
0.0
 11
136.468
 21
51.843
 31
0.0
  0
LINE
  5
2892
330
1F
100
AcDbEntity
  8
CONTINUOUS1
100
AcDbLine
 10
136.4729999999999
 20
51.843
 30
0.0
 11
136.386
 21
51.92999999999999
 31
0.0
  0
LINE
  5
2893
330
1F
100
AcDbEntity
  8
CONTINUOUS1
100
AcDbLine
 10
136.392
 20
51.92999999999999
 30
0.0
 11
136.4789999999999
 21
51.843
 31
0.0
  0
LINE
  5
2894
330
1F
100
AcDbEntity
  8
CONTINUOUS1
100
AcDbLine
 10
136.485
 20
51.843
 30
0.0
 11
136.3979999999999
 21
51.93010000000001
 31
0.0
  0
LINE
  5
2895
330
1F
100
AcDbEntity
  8
CONTINUOUS1
100
AcDbLine
 10
136.4029999999999
 20
51.93010000000001
 30
0.0
 11
136.4899999999999
 21
51.843
 31
0.0
  0
LINE
  5
2896
330
1F
100
AcDbEntity
  8
CONTINUOUS1
100
AcDbLine
 10
136.4959999999999
 20
51.843
 30
0.0
 11
136.409
 21
51.93010000000001
 31
0.0
  0
LINE
  5
2897
330
1F
100
AcDbEntity
  8
CONTINUOUS1
100
AcDbLine
 10
136.414
 20
51.9302
 30
0.0
 11
136.502
 21
51.843
 31
0.0
  0
LINE
  5
2898
330
1F
100
AcDbEntity
  8
CONTINUOUS1
100
AcDbLine
 10
136.5059999999999
 20
51.84470000000001
 30
0.0
 11
136.4199999999999
 21
51.9302
 31
0.0
  0
LINE
  5
2899
330
1F
100
AcDbEntity
  8
CONTINUOUS1
100
AcDbLine
 10
136.4259999999999
 20
51.9303
 30
0.0
 11
136.509
 21
51.84650000000001
 31
0.0
  0
LINE
  5
289A
330
1F
100
AcDbEntity
  8
CONTINUOUS1
100
AcDbLine
 10
136.513
 20
51.84840000000001
 30
0.0
 11
136.431
 21
51.9303
 31
0.0
  0
LINE
  5
289B
330
1F
100
AcDbEntity
  8
CONTINUOUS1
100
AcDbLine
 10
136.437
 20
51.9303
 30
0.0
 11
136.5169999999999
 21
51.85030000000001
 31
0.0
  0
LINE
  5
289C
330
1F
100
AcDbEntity
  8
CONTINUOUS1
100
AcDbLine
 10
136.521
 20
51.85209999999999
 30
0.0
 11
136.442
 21
51.93039999999999
 31
0.0
  0
LINE
  5
289D
330
1F
100
AcDbEntity
  8
CONTINUOUS1
100
AcDbLine
 10
136.448
 20
51.93039999999999
 30
0.0
 11
136.525
 21
51.85380000000001
 31
0.0
  0
LINE
  5
289E
330
1F
100
AcDbEntity
  8
CONTINUOUS1
100
AcDbLine
 10
136.5289999999999
 20
51.8555
 30
0.0
 11
136.454
 21
51.9305
 31
0.0
  0
LINE
  5
289F
330
1F
100
AcDbEntity
  8
CONTINUOUS1
100
AcDbLine
 10
136.4589999999999
 20
51.9305
 30
0.0
 11
136.5329999999999
 21
51.8571
 31
0.0
  0
LINE
  5
28A0
330
1F
100
AcDbEntity
  8
CONTINUOUS1
100
AcDbLine
 10
136.537
 20
51.8588
 30
0.0
 11
136.465
 21
51.9306
 31
0.0
  0
LINE
  5
28A1
330
1F
100
AcDbEntity
  8
CONTINUOUS1
100
AcDbLine
 10
136.471
 20
51.9306
 30
0.0
 11
136.541
 21
51.8604
 31
0.0
  0
LINE
  5
28A2
330
1F
100
AcDbEntity
  8
CONTINUOUS1
100
AcDbLine
 10
136.544
 20
51.86239999999999
 30
0.0
 11
136.4759999999999
 21
51.9306
 31
0.0
  0
LINE
  5
28A3
330
1F
100
AcDbEntity
  8
CONTINUOUS1
100
AcDbLine
 10
136.4819999999999
 20
51.93069999999999
 30
0.0
 11
136.548
 21
51.8648
 31
0.0
  0
LINE
  5
28A4
330
1F
100
AcDbEntity
  8
CONTINUOUS1
100
AcDbLine
 10
136.551
 20
51.86720000000001
 30
0.0
 11
136.487
 21
51.93069999999999
 31
0.0
  0
LINE
  5
28A5
330
1F
100
AcDbEntity
  8
CONTINUOUS1
100
AcDbLine
 10
136.4929999999999
 20
51.93080000000001
 30
0.0
 11
136.5539999999999
 21
51.86969999999999
 31
0.0
  0
LINE
  5
28A6
330
1F
100
AcDbEntity
  8
CONTINUOUS1
100
AcDbLine
 10
136.5569999999999
 20
51.87219999999999
 30
0.0
 11
136.4989999999999
 21
51.93080000000001
 31
0.0
  0
LINE
  5
28A7
330
1F
100
AcDbEntity
  8
CONTINUOUS1
100
AcDbLine
 10
136.504
 20
51.93089999999999
 30
0.0
 11
136.56
 21
51.87470000000001
 31
0.0
  0
LINE
  5
28A8
330
1F
100
AcDbEntity
  8
CONTINUOUS1
100
AcDbLine
 10
136.5629999999999
 20
51.87730000000001
 30
0.0
 11
136.5099999999999
 21
51.93089999999999
 31
0.0
  0
LINE
  5
28A9
330
1F
100
AcDbEntity
  8
CONTINUOUS1
100
AcDbLine
 10
136.515
 20
51.93089999999999
 30
0.0
 11
136.567
 21
51.87979999999999
 31
0.0
  0
LINE
  5
28AA
330
1F
100
AcDbEntity
  8
CONTINUOUS1
100
AcDbLine
 10
136.5699999999999
 20
51.8824
 30
0.0
 11
136.521
 21
51.93100000000001
 31
0.0
  0
LINE
  5
28AB
330
1F
100
AcDbEntity
  8
CONTINUOUS1
100
AcDbLine
 10
136.5269999999999
 20
51.93100000000001
 30
0.0
 11
136.5729999999999
 21
51.88500000000001
 31
0.0
  0
LINE
  5
28AC
330
1F
100
AcDbEntity
  8
CONTINUOUS1
100
AcDbLine
 10
136.5759999999999
 20
51.88769999999999
 30
0.0
 11
136.532
 21
51.9311
 31
0.0
  0
LINE
  5
28AD
330
1F
100
AcDbEntity
  8
CONTINUOUS1
100
AcDbLine
 10
136.538
 20
51.9311
 30
0.0
 11
136.579
 21
51.8905
 31
0.0
  0
LINE
  5
28AE
330
1F
100
AcDbEntity
  8
CONTINUOUS1
100
AcDbLine
 10
136.5809999999999
 20
51.8934
 30
0.0
 11
136.544
 21
51.9311
 31
0.0
  0
LINE
  5
28AF
330
1F
100
AcDbEntity
  8
CONTINUOUS1
100
AcDbLine
 10
136.549
 20
51.9312
 30
0.0
 11
136.584
 21
51.89619999999999
 31
0.0
  0
LINE
  5
28B0
330
1F
100
AcDbEntity
  8
CONTINUOUS1
100
AcDbLine
 10
136.5869999999999
 20
51.899
 30
0.0
 11
136.555
 21
51.9312
 31
0.0
  0
LINE
  5
28B1
330
1F
100
AcDbEntity
  8
CONTINUOUS1
100
AcDbLine
 10
136.56
 20
51.9312
 30
0.0
 11
136.59
 21
51.9021
 31
0.0
  0
LINE
  5
28B2
330
1F
100
AcDbEntity
  8
CONTINUOUS1
100
AcDbLine
 10
136.59
 20
51.9077
 30
0.0
 11
136.566
 21
51.9313
 31
0.0
  0
LINE
  5
28B3
330
1F
100
AcDbEntity
  8
CONTINUOUS1
100
AcDbLine
 10
136.572
 20
51.9313
 30
0.0
 11
136.59
 21
51.91290000000001
 31
0.0
  0
LINE
  5
28B4
330
1F
100
AcDbEntity
  8
CONTINUOUS1
100
AcDbLine
 10
136.592
 20
51.91659999999999
 30
0.0
 11
136.5769999999999
 21
51.93139999999999
 31
0.0
  0
LINE
  5
28B5
330
1F
100
AcDbEntity
  8
CONTINUOUS1
100
AcDbLine
 10
136.583
 20
51.93139999999999
 30
0.0
 11
136.5939999999999
 21
51.9202
 31
0.0
  0
LINE
  5
28B6
330
1F
100
AcDbEntity
  8
CONTINUOUS1
100
AcDbLine
 10
136.596
 20
51.92409999999999
 30
0.0
 11
136.596
 21
51.9315
 31
0.0
  0
LINE
  5
28B7
330
1F
100
AcDbEntity
  8
CONTINUOUS1
100
AcDbLine
 10
136.5939999999999
 20
51.9315
 30
0.0
 11
136.5939999999999
 21
51.92969999999999
 31
0.0
  0
LINE
  5
28B8
330
1F
100
AcDbEntity
  8
CONTINUOUS1
100
AcDbLine
 10
136.59
 20
51.90179999999999
 30
0.0
 11
136.5729999999999
 21
51.88559999999999
 31
0.0
  0
LINE
  5
28B9
330
1F
100
AcDbEntity
  8
CONTINUOUS1
100
AcDbLine
 10
136.545
 20
51.8626
 30
0.0
 11
136.59
 21
51.90739999999999
 31
0.0
  0
LINE
  5
28BA
330
1F
100
AcDbEntity
  8
CONTINUOUS1
100
AcDbLine
 10
136.591
 20
51.9144
 30
0.0
 11
136.5339999999999
 21
51.85780000000001
 31
0.0
  0
LINE
  5
28BB
330
1F
100
AcDbEntity
  8
CONTINUOUS1
100
AcDbLine
 10
136.525
 20
51.85380000000001
 30
0.0
 11
136.596
 21
51.92499999999999
 31
0.0
  0
LINE
  5
28BC
330
1F
100
AcDbEntity
  8
CONTINUOUS1
100
AcDbLine
 10
136.596
 20
51.93069999999999
 30
0.0
 11
136.514
 21
51.84879999999999
 31
0.0
  0
LINE
  5
28BD
330
1F
100
AcDbEntity
  8
CONTINUOUS1
100
AcDbLine
 10
136.5029999999999
 20
51.84339999999999
 30
0.0
 11
136.591
 21
51.9315
 31
0.0
  0
LINE
  5
28BE
330
1F
100
AcDbEntity
  8
CONTINUOUS1
100
AcDbLine
 10
136.585
 20
51.93139999999999
 30
0.0
 11
136.4969999999999
 21
51.843
 31
0.0
  0
LINE
  5
28BF
330
1F
100
AcDbEntity
  8
CONTINUOUS1
100
AcDbLine
 10
136.491
 20
51.843
 30
0.0
 11
136.5799999999999
 21
51.93139999999999
 31
0.0
  0
LINE
  5
28C0
330
1F
100
AcDbEntity
  8
CONTINUOUS1
100
AcDbLine
 10
136.574
 20
51.93139999999999
 30
0.0
 11
136.4859999999999
 21
51.843
 31
0.0
  0
LINE
  5
28C1
330
1F
100
AcDbEntity
  8
CONTINUOUS1
100
AcDbLine
 10
136.48
 20
51.843
 30
0.0
 11
136.568
 21
51.9313
 31
0.0
  0
LINE
  5
28C2
330
1F
100
AcDbEntity
  8
CONTINUOUS1
100
AcDbLine
 10
136.5629999999999
 20
51.9313
 30
0.0
 11
136.4739999999999
 21
51.843
 31
0.0
  0
LINE
  5
28C3
330
1F
100
AcDbEntity
  8
CONTINUOUS1
100
AcDbLine
 10
136.4689999999999
 20
51.843
 30
0.0
 11
136.5569999999999
 21
51.9312
 31
0.0
  0
LINE
  5
28C4
330
1F
100
AcDbEntity
  8
CONTINUOUS1
100
AcDbLine
 10
136.551
 20
51.9312
 30
0.0
 11
136.463
 21
51.843
 31
0.0
  0
LINE
  5
28C5
330
1F
100
AcDbEntity
  8
CONTINUOUS1
100
AcDbLine
 10
136.457
 20
51.843
 30
0.0
 11
136.545
 21
51.9311
 31
0.0
  0
LINE
  5
28C6
330
1F
100
AcDbEntity
  8
CONTINUOUS1
100
AcDbLine
 10
136.5399999999999
 20
51.9311
 30
0.0
 11
136.4519999999999
 21
51.843
 31
0.0
  0
LINE
  5
28C7
330
1F
100
AcDbEntity
  8
CONTINUOUS1
100
AcDbLine
 10
136.446
 20
51.843
 30
0.0
 11
136.5339999999999
 21
51.9311
 31
0.0
  0
LINE
  5
28C8
330
1F
100
AcDbEntity
  8
CONTINUOUS1
100
AcDbLine
 10
136.528
 20
51.93100000000001
 30
0.0
 11
136.44
 21
51.843
 31
0.0
  0
LINE
  5
28C9
330
1F
100
AcDbEntity
  8
CONTINUOUS1
100
AcDbLine
 10
136.4349999999999
 20
51.843
 30
0.0
 11
136.5229999999999
 21
51.93100000000001
 31
0.0
  0
LINE
  5
28CA
330
1F
100
AcDbEntity
  8
CONTINUOUS1
100
AcDbLine
 10
136.5169999999999
 20
51.93089999999999
 30
0.0
 11
136.429
 21
51.843
 31
0.0
  0
LINE
  5
28CB
330
1F
100
AcDbEntity
  8
CONTINUOUS1
100
AcDbLine
 10
136.423
 20
51.843
 30
0.0
 11
136.511
 21
51.93089999999999
 31
0.0
  0
LINE
  5
28CC
330
1F
100
AcDbEntity
  8
CONTINUOUS1
100
AcDbLine
 10
136.5059999999999
 20
51.93089999999999
 30
0.0
 11
136.418
 21
51.843
 31
0.0
  0
LINE
  5
28CD
330
1F
100
AcDbEntity
  8
CONTINUOUS1
100
AcDbLine
 10
136.4119999999999
 20
51.843
 30
0.0
 11
136.4999999999999
 21
51.93080000000001
 31
0.0
  0
LINE
  5
28CE
330
1F
100
AcDbEntity
  8
CONTINUOUS1
100
AcDbLine
 10
136.494
 20
51.93080000000001
 30
0.0
 11
136.406
 21
51.843
 31
0.0
  0
LINE
  5
28CF
330
1F
100
AcDbEntity
  8
CONTINUOUS1
100
AcDbLine
 10
136.401
 20
51.843
 30
0.0
 11
136.488
 21
51.93069999999999
 31
0.0
  0
LINE
  5
28D0
330
1F
100
AcDbEntity
  8
CONTINUOUS1
100
AcDbLine
 10
136.4829999999999
 20
51.93069999999999
 30
0.0
 11
136.395
 21
51.843
 31
0.0
  0
LINE
  5
28D1
330
1F
100
AcDbEntity
  8
CONTINUOUS1
100
AcDbLine
 10
136.389
 20
51.843
 30
0.0
 11
136.477
 21
51.9306
 31
0.0
  0
LINE
  5
28D2
330
1F
100
AcDbEntity
  8
CONTINUOUS1
100
AcDbLine
 10
136.471
 20
51.9306
 30
0.0
 11
136.384
 21
51.843
 31
0.0
  0
LINE
  5
28D3
330
1F
100
AcDbEntity
  8
CONTINUOUS1
100
AcDbLine
 10
136.378
 20
51.843
 30
0.0
 11
136.466
 21
51.9306
 31
0.0
  0
LINE
  5
28D4
330
1F
100
AcDbEntity
  8
CONTINUOUS1
100
AcDbLine
 10
136.46
 20
51.9305
 30
0.0
 11
136.372
 21
51.843
 31
0.0
  0
LINE
  5
28D5
330
1F
100
AcDbEntity
  8
CONTINUOUS1
100
AcDbLine
 10
136.368
 20
51.8446
 30
0.0
 11
136.454
 21
51.9305
 31
0.0
  0
LINE
  5
28D6
330
1F
100
AcDbEntity
  8
CONTINUOUS1
100
AcDbLine
 10
136.449
 20
51.93039999999999
 30
0.0
 11
136.365
 21
51.8464
 31
0.0
  0
LINE
  5
28D7
330
1F
100
AcDbEntity
  8
CONTINUOUS1
100
AcDbLine
 10
136.361
 20
51.84820000000001
 30
0.0
 11
136.4429999999999
 21
51.93039999999999
 31
0.0
  0
LINE
  5
28D8
330
1F
100
AcDbEntity
  8
CONTINUOUS1
100
AcDbLine
 10
136.437
 20
51.9303
 30
0.0
 11
136.3569999999999
 21
51.8501
 31
0.0
  0
LINE
  5
28D9
330
1F
100
AcDbEntity
  8
CONTINUOUS1
100
AcDbLine
 10
136.353
 20
51.8519
 30
0.0
 11
136.431
 21
51.9303
 31
0.0
  0
LINE
  5
28DA
330
1F
100
AcDbEntity
  8
CONTINUOUS1
100
AcDbLine
 10
136.4259999999999
 20
51.9303
 30
0.0
 11
136.3489999999999
 21
51.85380000000001
 31
0.0
  0
LINE
  5
28DB
330
1F
100
AcDbEntity
  8
CONTINUOUS1
100
AcDbLine
 10
136.345
 20
51.85559999999999
 30
0.0
 11
136.4199999999999
 21
51.9302
 31
0.0
  0
LINE
  5
28DC
330
1F
100
AcDbEntity
  8
CONTINUOUS1
100
AcDbLine
 10
136.414
 20
51.9302
 30
0.0
 11
136.3419999999999
 21
51.85769999999999
 31
0.0
  0
LINE
  5
28DD
330
1F
100
AcDbEntity
  8
CONTINUOUS1
100
AcDbLine
 10
136.338
 20
51.8599
 30
0.0
 11
136.409
 21
51.93010000000001
 31
0.0
  0
LINE
  5
28DE
330
1F
100
AcDbEntity
  8
CONTINUOUS1
100
AcDbLine
 10
136.4029999999999
 20
51.93010000000001
 30
0.0
 11
136.335
 21
51.86209999999999
 31
0.0
  0
LINE
  5
28DF
330
1F
100
AcDbEntity
  8
CONTINUOUS1
100
AcDbLine
 10
136.331
 20
51.8642
 30
0.0
 11
136.3969999999999
 21
51.93010000000001
 31
0.0
  0
LINE
  5
28E0
330
1F
100
AcDbEntity
  8
CONTINUOUS1
100
AcDbLine
 10
136.392
 20
51.92999999999999
 30
0.0
 11
136.328
 21
51.8663
 31
0.0
  0
LINE
  5
28E1
330
1F
100
AcDbEntity
  8
CONTINUOUS1
100
AcDbLine
 10
136.324
 20
51.8683
 30
0.0
 11
136.386
 21
51.92999999999999
 31
0.0
  0
LINE
  5
28E2
330
1F
100
AcDbEntity
  8
CONTINUOUS1
100
AcDbLine
 10
136.3799999999999
 20
51.9299
 30
0.0
 11
136.321
 21
51.87039999999999
 31
0.0
  0
LINE
  5
28E3
330
1F
100
AcDbEntity
  8
CONTINUOUS1
100
AcDbLine
 10
136.3169999999999
 20
51.8724
 30
0.0
 11
136.3739999999999
 21
51.9299
 31
0.0
  0
LINE
  5
28E4
330
1F
100
AcDbEntity
  8
CONTINUOUS1
100
AcDbLine
 10
136.369
 20
51.9298
 30
0.0
 11
136.3129999999999
 21
51.8745
 31
0.0
  0
LINE
  5
28E5
330
1F
100
AcDbEntity
  8
CONTINUOUS1
100
AcDbLine
 10
136.3099999999999
 20
51.877
 30
0.0
 11
136.363
 21
51.9298
 31
0.0
  0
LINE
  5
28E6
330
1F
100
AcDbEntity
  8
CONTINUOUS1
100
AcDbLine
 10
136.3569999999999
 20
51.9298
 30
0.0
 11
136.307
 21
51.87940000000001
 31
0.0
  0
LINE
  5
28E7
330
1F
100
AcDbEntity
  8
CONTINUOUS1
100
AcDbLine
 10
136.304
 20
51.8818
 30
0.0
 11
136.352
 21
51.92969999999999
 31
0.0
  0
LINE
  5
28E8
330
1F
100
AcDbEntity
  8
CONTINUOUS1
100
AcDbLine
 10
136.346
 20
51.92969999999999
 30
0.0
 11
136.301
 21
51.8843
 31
0.0
  0
LINE
  5
28E9
330
1F
100
AcDbEntity
  8
CONTINUOUS1
100
AcDbLine
 10
136.298
 20
51.88719999999999
 30
0.0
 11
136.34
 21
51.9296
 31
0.0
  0
LINE
  5
28EA
330
1F
100
AcDbEntity
  8
CONTINUOUS1
100
AcDbLine
 10
136.335
 20
51.9296
 30
0.0
 11
136.295
 21
51.89009999999999
 31
0.0
  0
LINE
  5
28EB
330
1F
100
AcDbEntity
  8
CONTINUOUS1
100
AcDbLine
 10
136.292
 20
51.89289999999999
 30
0.0
 11
136.329
 21
51.92949999999999
 31
0.0
  0
LINE
  5
28EC
330
1F
100
AcDbEntity
  8
CONTINUOUS1
100
AcDbLine
 10
136.323
 20
51.92949999999999
 30
0.0
 11
136.29
 21
51.8958
 31
0.0
  0
LINE
  5
28ED
330
1F
100
AcDbEntity
  8
CONTINUOUS1
100
AcDbLine
 10
136.287
 20
51.8992
 30
0.0
 11
136.3169999999999
 21
51.92949999999999
 31
0.0
  0
LINE
  5
28EE
330
1F
100
AcDbEntity
  8
CONTINUOUS1
100
AcDbLine
 10
136.312
 20
51.9294
 30
0.0
 11
136.2849999999999
 21
51.9029
 31
0.0
  0
LINE
  5
28EF
330
1F
100
AcDbEntity
  8
CONTINUOUS1
100
AcDbLine
 10
136.2829999999999
 20
51.90660000000001
 30
0.0
 11
136.3059999999999
 21
51.9294
 31
0.0
  0
LINE
  5
28F0
330
1F
100
AcDbEntity
  8
CONTINUOUS1
100
AcDbLine
 10
136.3
 20
51.9293
 30
0.0
 11
136.281
 21
51.91029999999999
 31
0.0
  0
LINE
  5
28F1
330
1F
100
AcDbEntity
  8
CONTINUOUS1
100
AcDbLine
 10
136.2789999999999
 20
51.914
 30
0.0
 11
136.295
 21
51.9293
 31
0.0
  0
LINE
  5
28F2
330
1F
100
AcDbEntity
  8
CONTINUOUS1
100
AcDbLine
 10
136.2889999999999
 20
51.9293
 30
0.0
 11
136.277
 21
51.91760000000001
 31
0.0
  0
LINE
  5
28F3
330
1F
100
AcDbEntity
  8
CONTINUOUS1
100
AcDbLine
 10
136.275
 20
51.9212
 30
0.0
 11
136.275
 21
51.9292
 31
0.0
  0
LINE
  5
28F4
330
1F
100
AcDbEntity
  8
CONTINUOUS1
100
AcDbLine
 10
136.278
 20
51.92910000000001
 30
0.0
 11
136.278
 21
51.92479999999999
 31
0.0
  0
LINE
  5
28F5
330
1F
100
AcDbEntity
  8
CONTINUOUS1
100
AcDbLine
 10
136.271
 20
51.9284
 30
0.0
 11
136.271
 21
51.92910000000001
 31
0.0
  0
LINE
  5
28F6
330
1F
100
AcDbEntity
  8
CONTINUOUS1
100
AcDbLine
 10
136.7359999999999
 20
51.8939
 30
0.0
 11
136.755
 21
51.87509999999999
 31
0.0
  0
LINE
  5
28F7
330
1F
100
AcDbEntity
  8
CONTINUOUS1
100
AcDbLine
 10
136.772
 20
51.86410000000001
 30
0.0
 11
136.7299999999999
 21
51.9058
 31
0.0
  0
LINE
  5
28F8
330
1F
100
AcDbEntity
  8
CONTINUOUS1
100
AcDbLine
 10
136.723
 20
51.91849999999999
 30
0.0
 11
136.785
 21
51.8564
 31
0.0
  0
LINE
  5
28F9
330
1F
100
AcDbEntity
  8
CONTINUOUS1
100
AcDbLine
 10
136.7979999999999
 20
51.8487
 30
0.0
 11
136.723
 21
51.92409999999999
 31
0.0
  0
LINE
  5
28FA
330
1F
100
AcDbEntity
  8
CONTINUOUS1
100
AcDbLine
 10
136.729
 20
51.9242
 30
0.0
 11
136.809
 21
51.8433
 31
0.0
  0
LINE
  5
28FB
330
1F
100
AcDbEntity
  8
CONTINUOUS1
100
AcDbLine
 10
136.8199999999999
 20
51.8382
 30
0.0
 11
136.734
 21
51.9242
 31
0.0
  0
LINE
  5
28FC
330
1F
100
AcDbEntity
  8
CONTINUOUS1
100
AcDbLine
 10
136.74
 20
51.9242
 30
0.0
 11
136.826
 21
51.83790000000001
 31
0.0
  0
LINE
  5
28FD
330
1F
100
AcDbEntity
  8
CONTINUOUS1
100
AcDbLine
 10
136.8319999999999
 20
51.83790000000001
 30
0.0
 11
136.745
 21
51.9243
 31
0.0
  0
LINE
  5
28FE
330
1F
100
AcDbEntity
  8
CONTINUOUS1
100
AcDbLine
 10
136.751
 20
51.9243
 30
0.0
 11
136.8369999999999
 21
51.83790000000001
 31
0.0
  0
LINE
  5
28FF
330
1F
100
AcDbEntity
  8
CONTINUOUS1
100
AcDbLine
 10
136.843
 20
51.83790000000001
 30
0.0
 11
136.757
 21
51.9243
 31
0.0
  0
LINE
  5
2900
330
1F
100
AcDbEntity
  8
CONTINUOUS1
100
AcDbLine
 10
136.762
 20
51.92440000000001
 30
0.0
 11
136.849
 21
51.83790000000001
 31
0.0
  0
LINE
  5
2901
330
1F
100
AcDbEntity
  8
CONTINUOUS1
100
AcDbLine
 10
136.8539999999999
 20
51.83790000000001
 30
0.0
 11
136.768
 21
51.92440000000001
 31
0.0
  0
LINE
  5
2902
330
1F
100
AcDbEntity
  8
CONTINUOUS1
100
AcDbLine
 10
136.7739999999999
 20
51.9245
 30
0.0
 11
136.86
 21
51.83790000000001
 31
0.0
  0
LINE
  5
2903
330
1F
100
AcDbEntity
  8
CONTINUOUS1
100
AcDbLine
 10
136.866
 20
51.83790000000001
 30
0.0
 11
136.779
 21
51.9245
 31
0.0
  0
LINE
  5
2904
330
1F
100
AcDbEntity
  8
CONTINUOUS1
100
AcDbLine
 10
136.785
 20
51.9246
 30
0.0
 11
136.8709999999999
 21
51.83790000000001
 31
0.0
  0
LINE
  5
2905
330
1F
100
AcDbEntity
  8
CONTINUOUS1
100
AcDbLine
 10
136.877
 20
51.83790000000001
 30
0.0
 11
136.7899999999999
 21
51.9246
 31
0.0
  0
LINE
  5
2906
330
1F
100
AcDbEntity
  8
CONTINUOUS1
100
AcDbLine
 10
136.7959999999999
 20
51.9246
 30
0.0
 11
136.883
 21
51.83790000000001
 31
0.0
  0
LINE
  5
2907
330
1F
100
AcDbEntity
  8
CONTINUOUS1
100
AcDbLine
 10
136.888
 20
51.83790000000001
 30
0.0
 11
136.802
 21
51.9247
 31
0.0
  0
LINE
  5
2908
330
1F
100
AcDbEntity
  8
CONTINUOUS1
100
AcDbLine
 10
136.8069999999999
 20
51.9247
 30
0.0
 11
136.894
 21
51.83790000000001
 31
0.0
  0
LINE
  5
2909
330
1F
100
AcDbEntity
  8
CONTINUOUS1
100
AcDbLine
 10
136.8999999999999
 20
51.83790000000001
 30
0.0
 11
136.8129999999999
 21
51.92479999999999
 31
0.0
  0
LINE
  5
290A
330
1F
100
AcDbEntity
  8
CONTINUOUS1
100
AcDbLine
 10
136.818
 20
51.92479999999999
 30
0.0
 11
136.905
 21
51.83790000000001
 31
0.0
  0
LINE
  5
290B
330
1F
100
AcDbEntity
  8
CONTINUOUS1
100
AcDbLine
 10
136.911
 20
51.83790000000001
 30
0.0
 11
136.8239999999999
 21
51.9249
 31
0.0
  0
LINE
  5
290C
330
1F
100
AcDbEntity
  8
CONTINUOUS1
100
AcDbLine
 10
136.8299999999999
 20
51.9249
 30
0.0
 11
136.9169999999999
 21
51.83790000000001
 31
0.0
  0
LINE
  5
290D
330
1F
100
AcDbEntity
  8
CONTINUOUS1
100
AcDbLine
 10
136.922
 20
51.83790000000001
 30
0.0
 11
136.835
 21
51.92499999999999
 31
0.0
  0
LINE
  5
290E
330
1F
100
AcDbEntity
  8
CONTINUOUS1
100
AcDbLine
 10
136.841
 20
51.92499999999999
 30
0.0
 11
136.928
 21
51.83790000000001
 31
0.0
  0
LINE
  5
290F
330
1F
100
AcDbEntity
  8
CONTINUOUS1
100
AcDbLine
 10
136.934
 20
51.83790000000001
 30
0.0
 11
136.8469999999999
 21
51.92499999999999
 31
0.0
  0
LINE
  5
2910
330
1F
100
AcDbEntity
  8
CONTINUOUS1
100
AcDbLine
 10
136.8519999999999
 20
51.9251
 30
0.0
 11
136.9389999999999
 21
51.83790000000001
 31
0.0
  0
LINE
  5
2911
330
1F
100
AcDbEntity
  8
CONTINUOUS1
100
AcDbLine
 10
136.945
 20
51.83790000000001
 30
0.0
 11
136.858
 21
51.9251
 31
0.0
  0
LINE
  5
2912
330
1F
100
AcDbEntity
  8
CONTINUOUS1
100
AcDbLine
 10
136.863
 20
51.9251
 30
0.0
 11
136.951
 21
51.83790000000001
 31
0.0
  0
LINE
  5
2913
330
1F
100
AcDbEntity
  8
CONTINUOUS1
100
AcDbLine
 10
136.9549999999999
 20
51.83970000000001
 30
0.0
 11
136.8689999999999
 21
51.9252
 31
0.0
  0
LINE
  5
2914
330
1F
100
AcDbEntity
  8
CONTINUOUS1
100
AcDbLine
 10
136.875
 20
51.9252
 30
0.0
 11
136.958
 21
51.84149999999999
 31
0.0
  0
LINE
  5
2915
330
1F
100
AcDbEntity
  8
CONTINUOUS1
100
AcDbLine
 10
136.9619999999999
 20
51.84339999999999
 30
0.0
 11
136.88
 21
51.92529999999999
 31
0.0
  0
LINE
  5
2916
330
1F
100
AcDbEntity
  8
CONTINUOUS1
100
AcDbLine
 10
136.8859999999999
 20
51.92529999999999
 30
0.0
 11
136.966
 21
51.8452
 31
0.0
  0
LINE
  5
2917
330
1F
100
AcDbEntity
  8
CONTINUOUS1
100
AcDbLine
 10
136.9699999999999
 20
51.84709999999999
 30
0.0
 11
136.8909999999999
 21
51.92540000000001
 31
0.0
  0
LINE
  5
2918
330
1F
100
AcDbEntity
  8
CONTINUOUS1
100
AcDbLine
 10
136.897
 20
51.92540000000001
 30
0.0
 11
136.9739999999999
 21
51.84879999999999
 31
0.0
  0
LINE
  5
2919
330
1F
100
AcDbEntity
  8
CONTINUOUS1
100
AcDbLine
 10
136.978
 20
51.8505
 30
0.0
 11
136.903
 21
51.92540000000001
 31
0.0
  0
LINE
  5
291A
330
1F
100
AcDbEntity
  8
CONTINUOUS1
100
AcDbLine
 10
136.9079999999999
 20
51.9255
 30
0.0
 11
136.982
 21
51.85209999999999
 31
0.0
  0
LINE
  5
291B
330
1F
100
AcDbEntity
  8
CONTINUOUS1
100
AcDbLine
 10
136.986
 20
51.85369999999999
 30
0.0
 11
136.9139999999999
 21
51.9255
 31
0.0
  0
LINE
  5
291C
330
1F
100
AcDbEntity
  8
CONTINUOUS1
100
AcDbLine
 10
136.92
 20
51.9256
 30
0.0
 11
136.99
 21
51.85539999999999
 31
0.0
  0
LINE
  5
291D
330
1F
100
AcDbEntity
  8
CONTINUOUS1
100
AcDbLine
 10
136.9929999999999
 20
51.8574
 30
0.0
 11
136.925
 21
51.9256
 31
0.0
  0
LINE
  5
291E
330
1F
100
AcDbEntity
  8
CONTINUOUS1
100
AcDbLine
 10
136.9309999999999
 20
51.9256
 30
0.0
 11
136.997
 21
51.8598
 31
0.0
  0
LINE
  5
291F
330
1F
100
AcDbEntity
  8
CONTINUOUS1
100
AcDbLine
 10
137.0
 20
51.86219999999999
 30
0.0
 11
136.936
 21
51.92569999999999
 31
0.0
  0
LINE
  5
2920
330
1F
100
AcDbEntity
  8
CONTINUOUS1
100
AcDbLine
 10
136.942
 20
51.92569999999999
 30
0.0
 11
137.003
 21
51.8646
 31
0.0
  0
LINE
  5
2921
330
1F
100
AcDbEntity
  8
CONTINUOUS1
100
AcDbLine
 10
137.006
 20
51.86709999999999
 30
0.0
 11
136.948
 21
51.9258
 31
0.0
  0
LINE
  5
2922
330
1F
100
AcDbEntity
  8
CONTINUOUS1
100
AcDbLine
 10
136.953
 20
51.9258
 30
0.0
 11
137.009
 21
51.86969999999999
 31
0.0
  0
LINE
  5
2923
330
1F
100
AcDbEntity
  8
CONTINUOUS1
100
AcDbLine
 10
137.012
 20
51.87219999999999
 30
0.0
 11
136.959
 21
51.9259
 31
0.0
  0
LINE
  5
2924
330
1F
100
AcDbEntity
  8
CONTINUOUS1
100
AcDbLine
 10
136.9639999999999
 20
51.9259
 30
0.0
 11
137.016
 21
51.8748
 31
0.0
  0
LINE
  5
2925
330
1F
100
AcDbEntity
  8
CONTINUOUS1
100
AcDbLine
 10
137.019
 20
51.87739999999999
 30
0.0
 11
136.9699999999999
 21
51.9259
 31
0.0
  0
LINE
  5
2926
330
1F
100
AcDbEntity
  8
CONTINUOUS1
100
AcDbLine
 10
136.976
 20
51.92599999999999
 30
0.0
 11
137.0219999999999
 21
51.87999999999999
 31
0.0
  0
LINE
  5
2927
330
1F
100
AcDbEntity
  8
CONTINUOUS1
100
AcDbLine
 10
137.025
 20
51.8827
 30
0.0
 11
136.9809999999999
 21
51.92599999999999
 31
0.0
  0
LINE
  5
2928
330
1F
100
AcDbEntity
  8
CONTINUOUS1
100
AcDbLine
 10
136.9869999999999
 20
51.92610000000001
 30
0.0
 11
137.0269999999999
 21
51.8855
 31
0.0
  0
LINE
  5
2929
330
1F
100
AcDbEntity
  8
CONTINUOUS1
100
AcDbLine
 10
137.03
 20
51.8883
 30
0.0
 11
136.9929999999999
 21
51.92610000000001
 31
0.0
  0
LINE
  5
292A
330
1F
100
AcDbEntity
  8
CONTINUOUS1
100
AcDbLine
 10
136.9979999999999
 20
51.92610000000001
 30
0.0
 11
137.033
 21
51.89119999999999
 31
0.0
  0
LINE
  5
292B
330
1F
100
AcDbEntity
  8
CONTINUOUS1
100
AcDbLine
 10
137.036
 20
51.8939
 30
0.0
 11
137.0039999999999
 21
51.92619999999999
 31
0.0
  0
LINE
  5
292C
330
1F
100
AcDbEntity
  8
CONTINUOUS1
100
AcDbLine
 10
137.009
 20
51.92630000000001
 30
0.0
 11
137.039
 21
51.89709999999999
 31
0.0
  0
LINE
  5
292D
330
1F
100
AcDbEntity
  8
CONTINUOUS1
100
AcDbLine
 10
137.039
 20
51.90269999999999
 30
0.0
 11
137.0149999999999
 21
51.92630000000001
 31
0.0
  0
LINE
  5
292E
330
1F
100
AcDbEntity
  8
CONTINUOUS1
100
AcDbLine
 10
137.0209999999999
 20
51.92630000000001
 30
0.0
 11
137.039
 21
51.90789999999999
 31
0.0
  0
LINE
  5
292F
330
1F
100
AcDbEntity
  8
CONTINUOUS1
100
AcDbLine
 10
137.0409999999999
 20
51.9115
 30
0.0
 11
137.026
 21
51.9264
 31
0.0
  0
LINE
  5
2930
330
1F
100
AcDbEntity
  8
CONTINUOUS1
100
AcDbLine
 10
137.032
 20
51.9264
 30
0.0
 11
137.043
 21
51.9152
 31
0.0
  0
LINE
  5
2931
330
1F
100
AcDbEntity
  8
CONTINUOUS1
100
AcDbLine
 10
137.0449999999999
 20
51.919
 30
0.0
 11
137.0449999999999
 21
51.9264
 31
0.0
  0
LINE
  5
2932
330
1F
100
AcDbEntity
  8
CONTINUOUS1
100
AcDbLine
 10
137.043
 20
51.9265
 30
0.0
 11
137.043
 21
51.9247
 31
0.0
  0
LINE
  5
2933
330
1F
100
AcDbEntity
  8
CONTINUOUS1
100
AcDbLine
 10
137.039
 20
51.89669999999999
 30
0.0
 11
137.0219999999999
 21
51.8806
 31
0.0
  0
LINE
  5
2934
330
1F
100
AcDbEntity
  8
CONTINUOUS1
100
AcDbLine
 10
136.9939999999999
 20
51.85760000000001
 30
0.0
 11
137.039
 21
51.9024
 31
0.0
  0
LINE
  5
2935
330
1F
100
AcDbEntity
  8
CONTINUOUS1
100
AcDbLine
 10
137.04
 20
51.90940000000001
 30
0.0
 11
136.983
 21
51.8527
 31
0.0
  0
LINE
  5
2936
330
1F
100
AcDbEntity
  8
CONTINUOUS1
100
AcDbLine
 10
136.9739999999999
 20
51.84879999999999
 30
0.0
 11
137.0449999999999
 21
51.92
 31
0.0
  0
LINE
  5
2937
330
1F
100
AcDbEntity
  8
CONTINUOUS1
100
AcDbLine
 10
137.0449999999999
 20
51.92569999999999
 30
0.0
 11
136.963
 21
51.8438
 31
0.0
  0
LINE
  5
2938
330
1F
100
AcDbEntity
  8
CONTINUOUS1
100
AcDbLine
 10
136.952
 20
51.8384
 30
0.0
 11
137.04
 21
51.9265
 31
0.0
  0
LINE
  5
2939
330
1F
100
AcDbEntity
  8
CONTINUOUS1
100
AcDbLine
 10
137.0339999999999
 20
51.9264
 30
0.0
 11
136.9459999999999
 21
51.83790000000001
 31
0.0
  0
LINE
  5
293A
330
1F
100
AcDbEntity
  8
CONTINUOUS1
100
AcDbLine
 10
136.9399999999999
 20
51.83790000000001
 30
0.0
 11
137.029
 21
51.9264
 31
0.0
  0
LINE
  5
293B
330
1F
100
AcDbEntity
  8
CONTINUOUS1
100
AcDbLine
 10
137.023
 20
51.92630000000001
 30
0.0
 11
136.934
 21
51.83790000000001
 31
0.0
  0
LINE
  5
293C
330
1F
100
AcDbEntity
  8
CONTINUOUS1
100
AcDbLine
 10
136.929
 20
51.83790000000001
 30
0.0
 11
137.0169999999999
 21
51.92630000000001
 31
0.0
  0
LINE
  5
293D
330
1F
100
AcDbEntity
  8
CONTINUOUS1
100
AcDbLine
 10
137.012
 20
51.92630000000001
 30
0.0
 11
136.9229999999999
 21
51.83790000000001
 31
0.0
  0
LINE
  5
293E
330
1F
100
AcDbEntity
  8
CONTINUOUS1
100
AcDbLine
 10
136.918
 20
51.83790000000001
 30
0.0
 11
137.006
 21
51.92619999999999
 31
0.0
  0
LINE
  5
293F
330
1F
100
AcDbEntity
  8
CONTINUOUS1
100
AcDbLine
 10
137.0
 20
51.92619999999999
 30
0.0
 11
136.912
 21
51.83790000000001
 31
0.0
  0
LINE
  5
2940
330
1F
100
AcDbEntity
  8
CONTINUOUS1
100
AcDbLine
 10
136.906
 20
51.83790000000001
 30
0.0
 11
136.9939999999999
 21
51.92610000000001
 31
0.0
  0
LINE
  5
2941
330
1F
100
AcDbEntity
  8
CONTINUOUS1
100
AcDbLine
 10
136.989
 20
51.92610000000001
 30
0.0
 11
136.9009999999999
 21
51.83790000000001
 31
0.0
  0
LINE
  5
2942
330
1F
100
AcDbEntity
  8
CONTINUOUS1
100
AcDbLine
 10
136.895
 20
51.83790000000001
 30
0.0
 11
136.983
 21
51.92599999999999
 31
0.0
  0
LINE
  5
2943
330
1F
100
AcDbEntity
  8
CONTINUOUS1
100
AcDbLine
 10
136.977
 20
51.92599999999999
 30
0.0
 11
136.889
 21
51.83790000000001
 31
0.0
  0
LINE
  5
2944
330
1F
100
AcDbEntity
  8
CONTINUOUS1
100
AcDbLine
 10
136.8839999999999
 20
51.83790000000001
 30
0.0
 11
136.972
 21
51.9259
 31
0.0
  0
LINE
  5
2945
330
1F
100
AcDbEntity
  8
CONTINUOUS1
100
AcDbLine
 10
136.966
 20
51.9259
 30
0.0
 11
136.8779999999999
 21
51.83790000000001
 31
0.0
  0
LINE
  5
2946
330
1F
100
AcDbEntity
  8
CONTINUOUS1
100
AcDbLine
 10
136.872
 20
51.83790000000001
 30
0.0
 11
136.96
 21
51.9259
 31
0.0
  0
LINE
  5
2947
330
1F
100
AcDbEntity
  8
CONTINUOUS1
100
AcDbLine
 10
136.954
 20
51.9258
 30
0.0
 11
136.8669999999999
 21
51.83790000000001
 31
0.0
  0
LINE
  5
2948
330
1F
100
AcDbEntity
  8
CONTINUOUS1
100
AcDbLine
 10
136.8609999999999
 20
51.83790000000001
 30
0.0
 11
136.949
 21
51.9258
 31
0.0
  0
LINE
  5
2949
330
1F
100
AcDbEntity
  8
CONTINUOUS1
100
AcDbLine
 10
136.943
 20
51.9258
 30
0.0
 11
136.8549999999999
 21
51.83790000000001
 31
0.0
  0
LINE
  5
294A
330
1F
100
AcDbEntity
  8
CONTINUOUS1
100
AcDbLine
 10
136.85
 20
51.83790000000001
 30
0.0
 11
136.937
 21
51.92569999999999
 31
0.0
  0
LINE
  5
294B
330
1F
100
AcDbEntity
  8
CONTINUOUS1
100
AcDbLine
 10
136.9319999999999
 20
51.9256
 30
0.0
 11
136.8439999999999
 21
51.83790000000001
 31
0.0
  0
LINE
  5
294C
330
1F
100
AcDbEntity
  8
CONTINUOUS1
100
AcDbLine
 10
136.8379999999999
 20
51.83790000000001
 30
0.0
 11
136.926
 21
51.9256
 31
0.0
  0
LINE
  5
294D
330
1F
100
AcDbEntity
  8
CONTINUOUS1
100
AcDbLine
 10
136.92
 20
51.9256
 30
0.0
 11
136.833
 21
51.83790000000001
 31
0.0
  0
LINE
  5
294E
330
1F
100
AcDbEntity
  8
CONTINUOUS1
100
AcDbLine
 10
136.827
 20
51.83790000000001
 30
0.0
 11
136.9149999999999
 21
51.9255
 31
0.0
  0
LINE
  5
294F
330
1F
100
AcDbEntity
  8
CONTINUOUS1
100
AcDbLine
 10
136.9089999999999
 20
51.9255
 30
0.0
 11
136.8209999999999
 21
51.83790000000001
 31
0.0
  0
LINE
  5
2950
330
1F
100
AcDbEntity
  8
CONTINUOUS1
100
AcDbLine
 10
136.817
 20
51.8395
 30
0.0
 11
136.903
 21
51.92540000000001
 31
0.0
  0
LINE
  5
2951
330
1F
100
AcDbEntity
  8
CONTINUOUS1
100
AcDbLine
 10
136.898
 20
51.92540000000001
 30
0.0
 11
136.8129999999999
 21
51.8414
 31
0.0
  0
LINE
  5
2952
330
1F
100
AcDbEntity
  8
CONTINUOUS1
100
AcDbLine
 10
136.81
 20
51.84319999999999
 30
0.0
 11
136.8919999999999
 21
51.92540000000001
 31
0.0
  0
LINE
  5
2953
330
1F
100
AcDbEntity
  8
CONTINUOUS1
100
AcDbLine
 10
136.8859999999999
 20
51.92529999999999
 30
0.0
 11
136.806
 21
51.84499999999999
 31
0.0
  0
LINE
  5
2954
330
1F
100
AcDbEntity
  8
CONTINUOUS1
100
AcDbLine
 10
136.802
 20
51.84689999999999
 30
0.0
 11
136.88
 21
51.92529999999999
 31
0.0
  0
LINE
  5
2955
330
1F
100
AcDbEntity
  8
CONTINUOUS1
100
AcDbLine
 10
136.875
 20
51.9252
 30
0.0
 11
136.7979999999999
 21
51.84879999999999
 31
0.0
  0
LINE
  5
2956
330
1F
100
AcDbEntity
  8
CONTINUOUS1
100
AcDbLine
 10
136.7939999999999
 20
51.8506
 30
0.0
 11
136.8689999999999
 21
51.9252
 31
0.0
  0
LINE
  5
2957
330
1F
100
AcDbEntity
  8
CONTINUOUS1
100
AcDbLine
 10
136.863
 20
51.9251
 30
0.0
 11
136.7909999999999
 21
51.8527
 31
0.0
  0
LINE
  5
2958
330
1F
100
AcDbEntity
  8
CONTINUOUS1
100
AcDbLine
 10
136.7869999999999
 20
51.8549
 30
0.0
 11
136.858
 21
51.9251
 31
0.0
  0
LINE
  5
2959
330
1F
100
AcDbEntity
  8
CONTINUOUS1
100
AcDbLine
 10
136.8519999999999
 20
51.9251
 30
0.0
 11
136.7839999999999
 21
51.8571
 31
0.0
  0
LINE
  5
295A
330
1F
100
AcDbEntity
  8
CONTINUOUS1
100
AcDbLine
 10
136.78
 20
51.8592
 30
0.0
 11
136.846
 21
51.92499999999999
 31
0.0
  0
LINE
  5
295B
330
1F
100
AcDbEntity
  8
CONTINUOUS1
100
AcDbLine
 10
136.841
 20
51.92499999999999
 30
0.0
 11
136.7769999999999
 21
51.86119999999999
 31
0.0
  0
LINE
  5
295C
330
1F
100
AcDbEntity
  8
CONTINUOUS1
100
AcDbLine
 10
136.7729999999999
 20
51.86329999999999
 30
0.0
 11
136.835
 21
51.9249
 31
0.0
  0
LINE
  5
295D
330
1F
100
AcDbEntity
  8
CONTINUOUS1
100
AcDbLine
 10
136.829
 20
51.9249
 30
0.0
 11
136.7699999999999
 21
51.86530000000001
 31
0.0
  0
LINE
  5
295E
330
1F
100
AcDbEntity
  8
CONTINUOUS1
100
AcDbLine
 10
136.766
 20
51.8674
 30
0.0
 11
136.823
 21
51.92479999999999
 31
0.0
  0
LINE
  5
295F
330
1F
100
AcDbEntity
  8
CONTINUOUS1
100
AcDbLine
 10
136.818
 20
51.92479999999999
 30
0.0
 11
136.762
 21
51.8695
 31
0.0
  0
LINE
  5
2960
330
1F
100
AcDbEntity
  8
CONTINUOUS1
100
AcDbLine
 10
136.759
 20
51.872
 30
0.0
 11
136.812
 21
51.92479999999999
 31
0.0
  0
LINE
  5
2961
330
1F
100
AcDbEntity
  8
CONTINUOUS1
100
AcDbLine
 10
136.806
 20
51.9247
 30
0.0
 11
136.756
 21
51.87439999999999
 31
0.0
  0
LINE
  5
2962
330
1F
100
AcDbEntity
  8
CONTINUOUS1
100
AcDbLine
 10
136.7529999999999
 20
51.8768
 30
0.0
 11
136.8009999999999
 21
51.9247
 31
0.0
  0
LINE
  5
2963
330
1F
100
AcDbEntity
  8
CONTINUOUS1
100
AcDbLine
 10
136.795
 20
51.9246
 30
0.0
 11
136.7499999999999
 21
51.8793
 31
0.0
  0
LINE
  5
2964
330
1F
100
AcDbEntity
  8
CONTINUOUS1
100
AcDbLine
 10
136.7469999999999
 20
51.88220000000001
 30
0.0
 11
136.789
 21
51.9246
 31
0.0
  0
LINE
  5
2965
330
1F
100
AcDbEntity
  8
CONTINUOUS1
100
AcDbLine
 10
136.7839999999999
 20
51.9246
 30
0.0
 11
136.7439999999999
 21
51.8851
 31
0.0
  0
LINE
  5
2966
330
1F
100
AcDbEntity
  8
CONTINUOUS1
100
AcDbLine
 10
136.7409999999999
 20
51.8879
 30
0.0
 11
136.7779999999999
 21
51.9245
 31
0.0
  0
LINE
  5
2967
330
1F
100
AcDbEntity
  8
CONTINUOUS1
100
AcDbLine
 10
136.772
 20
51.9245
 30
0.0
 11
136.738
 21
51.8908
 31
0.0
  0
LINE
  5
2968
330
1F
100
AcDbEntity
  8
CONTINUOUS1
100
AcDbLine
 10
136.7359999999999
 20
51.89409999999999
 30
0.0
 11
136.766
 21
51.92440000000001
 31
0.0
  0
LINE
  5
2969
330
1F
100
AcDbEntity
  8
CONTINUOUS1
100
AcDbLine
 10
136.7609999999999
 20
51.92440000000001
 30
0.0
 11
136.734
 21
51.89779999999999
 31
0.0
  0
LINE
  5
296A
330
1F
100
AcDbEntity
  8
CONTINUOUS1
100
AcDbLine
 10
136.732
 20
51.9015
 30
0.0
 11
136.755
 21
51.9243
 31
0.0
  0
LINE
  5
296B
330
1F
100
AcDbEntity
  8
CONTINUOUS1
100
AcDbLine
 10
136.7489999999999
 20
51.9243
 30
0.0
 11
136.7299999999999
 21
51.9052
 31
0.0
  0
LINE
  5
296C
330
1F
100
AcDbEntity
  8
CONTINUOUS1
100
AcDbLine
 10
136.728
 20
51.90889999999999
 30
0.0
 11
136.7439999999999
 21
51.9243
 31
0.0
  0
LINE
  5
296D
330
1F
100
AcDbEntity
  8
CONTINUOUS1
100
AcDbLine
 10
136.738
 20
51.9242
 30
0.0
 11
136.7259999999999
 21
51.91259999999999
 31
0.0
  0
LINE
  5
296E
330
1F
100
AcDbEntity
  8
CONTINUOUS1
100
AcDbLine
 10
136.724
 20
51.9162
 30
0.0
 11
136.724
 21
51.9242
 31
0.0
  0
LINE
  5
296F
330
1F
100
AcDbEntity
  8
CONTINUOUS1
100
AcDbLine
 10
136.7269999999999
 20
51.92409999999999
 30
0.0
 11
136.7269999999999
 21
51.9198
 31
0.0
  0
LINE
  5
2970
330
1F
100
AcDbEntity
  8
CONTINUOUS1
100
AcDbLine
 10
136.7199999999999
 20
51.9234
 30
0.0
 11
136.7199999999999
 21
51.92409999999999
 31
0.0
  0
LWPOLYLINE
  5
2971
330
1F
100
AcDbEntity
  8
CONTINUOUS1
100
AcDbPolyline
 90
        6
 70
     0
 43
0.0
 10
137.107
 20
52.95569999999999
 10
137.107
 20
51.9287
 10
136.227
 20
51.9287
 10
136.227
 20
52.95569999999999
 10
136.542
 20
52.95569999999999
 10
136.542
 20
52.80929999999999
  0
LWPOLYLINE
  5
2972
330
1F
100
AcDbEntity
  8
CONTINUOUS1
100
AcDbPolyline
 90
        3
 70
     0
 43
0.0
 10
136.792
 20
52.80929999999999
 10
136.792
 20
52.95569999999999
 10
137.107
 20
52.95569999999999
  0
LINE
  5
2973
330
1F
100
AcDbEntity
  8
CONTINUOUS1
100
AcDbLine
 10
137.107
 20
52.05370000000001
 30
0.0
 11
136.227
 21
52.05370000000001
 31
0.0
  0
LWPOLYLINE
  5
2974
330
1F
100
AcDbEntity
  8
CONTINUOUS1
100
AcDbPolyline
 90
        5
 70
     0
 43
0.0
 10
132.3029999999999
 20
38.60079999999999
 10
132.3029999999999
 20
38.8508
 10
132.4279999999999
 20
38.8508
 10
132.4279999999999
 20
38.60079999999999
 10
132.3029999999999
 20
38.60079999999999
  0
LWPOLYLINE
  5
2975
330
1F
100
AcDbEntity
  8
CONTINUOUS1
100
AcDbPolyline
 90
        5
 70
     0
 43
0.0
 10
132.678
 20
38.60079999999999
 10
132.803
 20
38.60079999999999
 10
132.803
 20
38.8508
 10
132.678
 20
38.8508
 10
132.678
 20
38.60079999999999
  0
LWPOLYLINE
  5
2976
330
1F
100
AcDbEntity
  8
CONTINUOUS1
100
AcDbPolyline
 90
        5
 70
     0
 43
0.0
 10
132.425
 20
38.646
 42
0.1256364923480854
 10
132.4800939730131
 20
38.59438087643485
 42
0.1263214905438578
 10
132.553
 20
38.5756
 42
0.1250628717639927
 10
132.6249474742272
 20
38.59392174936569
 42
0.1233938099246728
 10
132.68
 20
38.6445
  0
LWPOLYLINE
  5
2977
330
1F
100
AcDbEntity
  8
CONTINUOUS1
100
AcDbPolyline
 90
        4
 70
     0
 43
0.0
 10
132.68
 20
38.807
 42
0.1233849243978679
 10
132.6249474742272
 20
38.85736812160013
 42
0.1246655892867707
 10
132.553
 20
38.8756
 42
0.2609282318214182
 10
132.425
 20
38.8038
  0
LWPOLYLINE
  5
2978
330
1F
100
AcDbEntity
  8
CONTINUOUS1
100
AcDbPolyline
 90
        5
 70
     0
 43
0.0
 10
132.3029999999999
 20
74.68079999999999
 10
132.3029999999999
 20
74.43080000000001
 10
132.4279999999999
 20
74.43080000000001
 10
132.4279999999999
 20
74.68079999999999
 10
132.3029999999999
 20
74.68079999999999
  0
LWPOLYLINE
  5
2979
330
1F
100
AcDbEntity
  8
CONTINUOUS1
100
AcDbPolyline
 90
        5
 70
     0
 43
0.0
 10
132.678
 20
74.68079999999999
 10
132.803
 20
74.68079999999999
 10
132.803
 20
74.43080000000001
 10
132.678
 20
74.43080000000001
 10
132.678
 20
74.68079999999999
  0
LWPOLYLINE
  5
297A
330
1F
100
AcDbEntity
  8
CONTINUOUS1
100
AcDbPolyline
 90
        4
 70
     0
 43
0.0
 10
132.425
 20
74.63549999999999
 42
-0.2554180545305529
 10
132.553
 20
74.7056
 42
-0.1240536899947891
 10
132.6249474742272
 20
74.68732608247201
 42
-0.1231187552940224
 10
132.68
 20
74.6371
  0
LWPOLYLINE
  5
297B
330
1F
100
AcDbEntity
  8
CONTINUOUS1
100
AcDbPolyline
 90
        5
 70
     0
 43
0.0
 10
132.68
 20
74.4745
 42
-0.1232952054047929
 10
132.6249474742272
 20
74.42387971023757
 42
-0.1250086458745082
 10
132.553
 20
74.4055
 42
-0.1288916913144521
 10
132.4796810837316
 20
74.42481774544379
 42
-0.1280786911634689
 10
132.425
 20
74.4777
  0
LINE
  5
297C
330
1F
100
AcDbEntity
  8
CONTINUOUS1
100
AcDbLine
 10
143.0369999999999
 20
43.4731
 30
0.0
 11
143.0369999999999
 21
59.29079999999999
 31
0.0
  0
LINE
  5
297D
330
1F
100
AcDbEntity
  8
CONTINUOUS1
100
AcDbLine
 10
143.0369999999999
 20
62.5868
 30
0.0
 11
143.0369999999999
 21
71.8031
 31
0.0
  0
LWPOLYLINE
  5
297E
330
1F
100
AcDbEntity
  8
HIDDEN1
100
AcDbPolyline
 90
        4
 70
     0
 43
0.0
 10
130.9169999999999
 20
62.5189
 10
130.9169999999999
 20
62.4558
 10
131.7169999999999
 20
62.4558
 10
131.7169999999999
 20
62.41889999999999
  0
LWPOLYLINE
  5
297F
330
1F
100
AcDbEntity
  8
HIDDEN1
100
AcDbPolyline
 90
        3
 70
     0
 43
0.0
 10
131.7169999999999
 20
62.40899999999999
 10
131.7169999999999
 20
60.95579999999999
 10
130.9169999999999
 20
60.95579999999999
  0
LINE
  5
2980
330
1F
100
AcDbEntity
  8
CONTINUOUS1
100
AcDbLine
 10
136.6229999999999
 20
64.7747
 30
0.0
 11
136.6229999999999
 21
64.0344
 31
0.0
  0
LINE
  5
2981
330
1F
100
AcDbEntity
  8
CONTINUOUS1
100
AcDbLine
 10
136.6229999999999
 20
62.4948
 30
0.0
 11
136.6229999999999
 21
62.05169999999999
 31
0.0
  0
LINE
  5
2982
330
1F
100
AcDbEntity
  8
CONTINUOUS1
100
AcDbLine
 10
138.373
 20
62.05169999999999
 30
0.0
 11
138.373
 21
64.6982
 31
0.0
  0
LINE
  5
2983
330
1F
100
AcDbEntity
  8
CONTINUOUS1
100
AcDbLine
 10
130.883
 20
62.50969999999999
 30
0.0
 11
136.5729999999999
 21
64.0344
 31
0.0
  0
LINE
  5
2984
330
1F
100
AcDbEntity
  8
CONTINUOUS1
100
AcDbLine
 10
136.706
 20
62.51699999999999
 30
0.0
 11
131.706
 21
61.1772
 31
0.0
  0
LINE
  5
2985
330
1F
100
AcDbEntity
  8
CONTINUOUS1
100
AcDbLine
 10
130.986
 20
60.9842
 30
0.0
 11
130.898
 21
60.9606
 31
0.0
  0
LWPOLYLINE
  5
2986
330
1F
100
AcDbEntity
  8
CONTINUOUS1
100
AcDbPolyline
 90
        6
 70
     0
 43
0.0
 10
131.7099999999999
 20
61.61509999999999
 10
132.063
 20
61.7097
 42
0.1989324523708041
 10
132.2620892684198
 20
61.86250655189025
 42
0.1986570984959847
 10
132.2949999999999
 20
62.11149999999999
 42
0.413659324345065
 10
131.8929999999999
 20
62.3434
 10
131.716
 20
62.29599999999999
  0
LWPOLYLINE
  5
2987
330
1F
100
AcDbEntity
  8
CONTINUOUS1
100
AcDbPolyline
 90
        3
 70
     0
 43
0.0
 10
142.917
 20
41.5536
 10
142.917
 20
43.9345
 10
142.917
 20
51.95579999999999
  0
LINE
  5
2988
330
1F
100
AcDbEntity
  8
CONTINUOUS1
100
AcDbLine
 10
139.2359999999999
 20
69.2119
 30
0.0
 11
139.173
 21
69.2119
 31
0.0
  0
LINE
  5
2989
330
1F
100
AcDbEntity
  8
CONTINUOUS1
100
AcDbLine
 10
139.173
 20
68.68509999999999
 30
0.0
 11
139.2359999999999
 21
68.68509999999999
 31
0.0
  0
LINE
  5
298A
330
1F
100
AcDbEntity
  8
CONTINUOUS1
100
AcDbLine
 10
139.2359999999999
 20
69.2119
 30
0.0
 11
139.173
 21
69.2119
 31
0.0
  0
LINE
  5
298B
330
1F
100
AcDbEntity
  8
CONTINUOUS1
100
AcDbLine
 10
139.173
 20
69.03629999999999
 30
0.0
 11
139.2359999999999
 21
69.03629999999999
 31
0.0
  0
LINE
  5
298C
330
1F
100
AcDbEntity
  8
CONTINUOUS1
100
AcDbLine
 10
139.2359999999999
 20
69.03629999999999
 30
0.0
 11
139.173
 21
69.03629999999999
 31
0.0
  0
LINE
  5
298D
330
1F
100
AcDbEntity
  8
CONTINUOUS1
100
AcDbLine
 10
139.173
 20
68.86070000000001
 30
0.0
 11
139.2359999999999
 21
68.86070000000001
 31
0.0
  0
LINE
  5
298E
330
1F
100
AcDbEntity
  8
CONTINUOUS1
100
AcDbLine
 10
139.2359999999999
 20
68.86070000000001
 30
0.0
 11
139.173
 21
68.86070000000001
 31
0.0
  0
LINE
  5
298F
330
1F
100
AcDbEntity
  8
CONTINUOUS1
100
AcDbLine
 10
139.173
 20
68.68509999999999
 30
0.0
 11
139.2359999999999
 21
68.68509999999999
 31
0.0
  0
LINE
  5
2990
330
1F
100
AcDbEntity
  8
CONTINUOUS1
100
AcDbLine
 10
135.5639999999999
 20
44.12429999999999
 30
0.0
 11
135.5639999999999
 21
43.4513
 31
0.0
  0
LINE
  5
2991
330
1F
100
AcDbEntity
  8
CONTINUOUS1
100
AcDbLine
 10
135.5639999999999
 20
43.29729999999999
 30
0.0
 11
135.5639999999999
 21
42.62430000000001
 31
0.0
  0
LWPOLYLINE
  5
2992
330
1F
100
AcDbEntity
  8
CONTINUOUS1
100
AcDbPolyline
 90
        3
 70
     0
 43
0.0
 10
137.4919999999999
 20
71.6982
 10
137.4919999999999
 20
73.4982
 10
137.958
 20
73.4982
  0
LWPOLYLINE
  5
2993
330
1F
100
AcDbEntity
  8
CONTINUOUS1
100
AcDbPolyline
 90
        3
 70
     0
 43
0.0
 10
138.708
 20
73.4982
 10
139.173
 20
73.4982
 10
139.173
 20
71.6981
  0
LINE
  5
2994
330
1F
100
AcDbEntity
  8
CONTINUOUS1
100
AcDbLine
 10
135.5639999999999
 20
56.5517
 30
0.0
 11
135.5639999999999
 21
55.87869999999999
 31
0.0
  0
LINE
  5
2995
330
1F
100
AcDbEntity
  8
CONTINUOUS1
100
AcDbLine
 10
135.5639999999999
 20
55.7247
 30
0.0
 11
135.5639999999999
 21
55.05169999999999
 31
0.0
  0
LWPOLYLINE
  5
2996
330
1F
100
AcDbEntity
  8
CONTINUOUS1
100
AcDbPolyline
 90
        3
 70
     0
 43
0.0
 10
137.8859999999999
 20
60.39659999999999
 42
-0.1741137609255734
 10
137.504
 20
60.25929999999999
 42
-0.1951347427418403
 10
137.062
 20
60.39659999999999
  0
LWPOLYLINE
  5
2997
330
1F
100
AcDbEntity
  8
CONTINUOUS1
100
AcDbPolyline
 90
        3
 70
     0
 43
0.0
 10
136.9709999999999
 20
60.48809999999999
 42
-0.17301554256619
 10
136.834
 20
60.8698
 42
-0.1947259974342971
 10
136.972
 20
61.31109999999999
  0
LWPOLYLINE
  5
2998
330
1F
100
AcDbEntity
  8
CONTINUOUS1
100
AcDbPolyline
 90
       11
 70
     0
 43
0.0
 10
137.0589999999999
 20
61.399
 10
137.0591482783373
 20
61.39931967675924
 10
137.0593643712462
 20
61.39967623588248
 10
137.059648278546
 20
61.40006967707216
 10
137.06
 20
61.40049999999999
 42
0.0374449259751525
 10
137.0607512112224
 20
61.40107503888653
 42
0.0457487381832665
 10
137.0613349491794
 20
61.40170005288733
 42
0.0531008244444477
 10
137.0617512124443
 20
61.402375040475
 42
0.0567768904224622
 10
137.062
 20
61.4031
 42
-0.1588452687543628
 10
137.4449999999999
 20
61.5484
 42
-0.1847905767187171
 10
137.887
 20
61.4013
  0
LWPOLYLINE
  5
2999
330
1F
100
AcDbEntity
  8
CONTINUOUS1
100
AcDbPolyline
 90
        4
 70
     0
 43
0.0
 10
137.978
 20
61.31009999999999
 42
-0.1590432744870481
 10
138.124
 20
60.92839999999999
 42
-0.0906739371945538
 10
138.0912903551413
 20
60.69199530047242
 42
-0.0948506854467707
 10
137.978
 20
60.48809999999999
  0
LINE
  5
29A0
330
1F
100
AcDbEntity
  8
HIDDEN1
100
AcDbLine
 10
82.94249999999999
 20
54.0668
 30
0.0
 11
82.94249999999999
 21
52.8168
 31
0.0
  0
LWPOLYLINE
  5
29A1
330
1F
100
AcDbEntity
  8
HIDDEN1
100
AcDbPolyline
 90
        5
 70
     1
 43
0.0
 10
83.5205
 20
54.0668
 10
82.8405
 20
54.0668
 10
81.0805
 20
54.0668
 10
81.0805
 20
52.8168
 10
83.5205
 20
52.8168
  0
LWPOLYLINE
  5
29A2
330
1F
100
AcDbEntity
  8
HIDDEN1
100
AcDbPolyline
 90
        4
 70
     1
 43
0.0
 10
82.22089999999999
 20
53.8868
 10
81.93989999999999
 20
53.8868
 10
81.93989999999999
 20
53.00679999999999
 10
82.22089999999999
 20
53.00679999999999
  0
LWPOLYLINE
  5
29A3
330
1F
100
AcDbEntity
  8
HIDDEN1
100
AcDbPolyline
 90
        4
 70
     1
 43
0.0
 10
81.60099999999999
 20
53.8868
 10
81.3199
 20
53.8868
 10
81.3199
 20
53.00679999999999
 10
81.60099999999999
 20
53.00679999999999
  0
CIRCLE
  5
29A4
330
1F
100
AcDbEntity
  8
CONTINUOUS1
100
AcDbCircle
 10
82.03787640245035
 20
53.44680249655011
 30
0.0
 40
0.140500000000003
  0
CIRCLE
  5
29A5
330
1F
100
AcDbEntity
  8
CONTINUOUS1
100
AcDbCircle
 10
81.41787640245034
 20
53.44680249655011
 30
0.0
 40
0.1404999999999887
  0
LINE
  5
29A6
330
1F
100
AcDbEntity
  8
HIDDEN1
100
AcDbLine
 10
82.8405
 20
54.0668
 30
0.0
 11
82.8405
 21
52.8168
 31
0.0
  0
LWPOLYLINE
  5
29A7
330
1F
100
AcDbEntity
  8
CONTINUOUS1
100
AcDbPolyline
 90
        6
 70
     1
 43
0.0
 10
81.89737640245034
 20
53.30630249655011
 10
81.84787640245035
 20
53.30630249655011
 10
81.84787640245035
 20
53.58730249655011
 10
82.17837640245035
 20
53.58730249655011
 10
82.22787640245035
 20
53.58730249655011
 10
82.22787640245035
 20
53.30630249655011
  0
LWPOLYLINE
  5
29A8
330
1F
100
AcDbEntity
  8
CONTINUOUS1
100
AcDbPolyline
 90
        6
 70
     1
 43
0.0
 10
81.27737640245035
 20
53.30630249655011
 10
81.22787640245034
 20
53.30630249655011
 10
81.22787640245034
 20
53.58730249655011
 10
81.55837640245035
 20
53.58730249655011
 10
81.60777640245035
 20
53.58730249655011
 10
81.60777640245035
 20
53.30630249655011
  0
LWPOLYLINE
  5
29A9
330
1F
100
AcDbEntity
  8
HIDDEN1
100
AcDbPolyline
 90
        2
 70
     1
 43
0.0
 10
150.8259999999999
 20
27.1987
 42
-0.4926371136405103
 10
150.8259999999999
 20
26.3547
  0
LWPOLYLINE
  5
29AA
330
1F
100
AcDbEntity
  8
HIDDEN1
100
AcDbPolyline
 90
        6
 70
     0
 43
0.0
 10
150.607
 20
26.96089999999999
 10
149.883
 20
26.96089999999999
 10
149.8259999999999
 20
26.9039
 10
149.8259999999999
 20
26.6494
 10
149.883
 20
26.5924
 10
150.607
 20
26.5924
  0
LINE
  5
29AB
330
1F
100
AcDbEntity
  8
HIDDEN1
100
AcDbLine
 10
149.883
 20
26.96089999999999
 30
0.0
 11
149.883
 21
26.5924
 31
0.0
  0
LINE
  5
29AC
330
1F
100
AcDbEntity
  8
HIDDEN1
100
AcDbLine
 10
150.072
 20
26.7768
 30
0.0
 11
150.669
 21
26.7768
 31
0.0
  0
LWPOLYLINE
  5
29AD
330
1F
100
AcDbEntity
  8
HIDDEN1
100
AcDbPolyline
 90
        5
 70
     0
 43
0.0
 10
150.2459999999999
 20
26.939
 42
-0.139616487488018
 10
150.2094942228383
 20
26.97246584520174
 42
-0.1388148824478299
 10
150.1959818535591
 20
27.02026516823829
 42
-0.1384383492088735
 10
150.2094942228383
 20
27.06813734069787
 42
-0.1388968666275756
 10
150.2459999999999
 20
27.10179999999999
  0
LWPOLYLINE
  5
29AE
330
1F
100
AcDbEntity
  8
HIDDEN1
100
AcDbPolyline
 90
        3
 70
     0
 43
0.0
 10
150.483
 20
26.939
 42
0.2845780885126932
 10
150.5333172976795
 20
27.02026516823829
 42
0.2834201828219509
 10
150.483
 20
27.10179999999999
  0
LWPOLYLINE
  5
29AF
330
1F
100
AcDbEntity
  8
HIDDEN1
100
AcDbPolyline
 90
        4
 70
     0
 43
0.0
 10
150.2459999999999
 20
26.61459999999999
 42
0.2831747672034197
 10
150.1959201565191
 20
26.53313016803514
 42
0.1388641576674342
 10
150.2094490489373
 20
26.48531439482525
 42
0.1394178236709905
 10
150.2459999999999
 20
26.45179999999999
  0
LWPOLYLINE
  5
29B0
330
1F
100
AcDbEntity
  8
HIDDEN1
100
AcDbPolyline
 90
        3
 70
     0
 43
0.0
 10
150.483
 20
26.61459999999999
 42
-0.283520890926403
 10
150.5332399499972
 20
26.53313016803514
 42
-0.2841211055286438
 10
150.483
 20
26.45179999999999
  0
ARC
  5
29B1
330
1F
100
AcDbEntity
  8
HIDDEN1
100
AcDbCircle
 10
150.4830649633755
 20
26.77675
 30
0.0
 40
0.287271403659075
100
AcDbArc
 50
145.6118107032662
 51
214.3881892967571
  0
ARC
  5
29B2
330
1F
100
AcDbEntity
  8
HIDDEN1
100
AcDbCircle
 10
150.246598146356
 20
26.77675
 30
0.0
 40
0.2867244302572034
100
AcDbArc
 50
325.5369703605012
 51
34.46302963952222
  0
LINE
  5
29B3
330
1F
100
AcDbEntity
  8
HIDDEN1
100
AcDbLine
 10
150.2459999999999
 20
26.939
 30
0.0
 11
150.483
 21
26.939
 31
0.0
  0
LINE
  5
29B4
330
1F
100
AcDbEntity
  8
HIDDEN1
100
AcDbLine
 10
150.2459999999999
 20
26.6145
 30
0.0
 11
150.483
 21
26.6145
 31
0.0
  0
LWPOLYLINE
  5
29B5
330
1F
100
AcDbEntity
  8
HIDDEN1
100
AcDbPolyline
 90
        8
 70
     1
 43
0.0
 10
150.2459999999999
 20
27.10179999999999
 10
150.1959999999999
 20
27.05769999999999
 10
150.1959999999999
 20
26.4958
 10
150.2459999999999
 20
26.45179999999999
 10
150.483
 20
26.45179999999999
 10
150.533
 20
26.4958
 10
150.533
 20
27.05769999999999
 10
150.483
 20
27.10179999999999
  0
LWPOLYLINE
  5
29B6
330
1F
100
AcDbEntity
  8
HIDDEN1
100
AcDbPolyline
 90
        4
 70
     0
 43
0.0
 10
150.533
 20
26.76919999999999
 10
150.533
 20
26.45189999999999
 10
150.672
 20
26.45189999999999
 10
150.672
 20
26.7768
  0
LWPOLYLINE
  5
29B7
330
1F
100
AcDbEntity
  8
HIDDEN1
100
AcDbPolyline
 90
        4
 70
     0
 43
0.0
 10
150.533
 20
26.7844
 10
150.533
 20
27.1017
 10
150.672
 20
27.1017
 10
150.672
 20
26.7768
  0
LWPOLYLINE
  5
29B8
330
1F
100
AcDbEntity
  8
CONTINUOUS1
100
AcDbPolyline
 90
       10
 70
     1
 43
0.0
 10
124.504
 20
59.13319999999999
 10
125.529
 20
59.8979
 42
-0.1249488742189505
 10
125.944
 20
60.00320000000001
 42
-0.1249488742189472
 10
126.3589999999999
 20
59.8979
 10
127.404
 20
59.6332
 42
-0.1990593621130812
 10
127.758
 20
59.4868
 42
-0.198765533502094
 10
127.9039999999999
 20
59.13319999999999
 42
-1.181914057467364
 10
124.092
 20
59.77319999999999
 10
124.224
 20
59.77319999999999
 10
124.304
 20
59.13319999999999
  0
LWPOLYLINE
  5
29B9
330
1F
100
AcDbEntity
  8
HIDDEN1
100
AcDbPolyline
 90
        4
 70
     1
 43
0.0
 10
125.6279999999999
 20
59.44919999999999
 10
126.2599999999999
 20
59.44919999999999
 10
126.2599999999999
 20
58.8172
 10
125.6279999999999
 20
58.8172
  0
LWPOLYLINE
  5
29BA
330
1F
100
AcDbEntity
  8
CONTINUOUS1
100
AcDbPolyline
 90
        3
 70
     0
 43
0.0
 10
127.1439999999999
 20
64.03319999999999
 10
127.1739999999999
 20
64.05079999999999
 10
125.882
 20
63.69500000000001
  0
LWPOLYLINE
  5
29BB
330
1F
100
AcDbEntity
  8
CONTINUOUS1
100
AcDbPolyline
 90
        8
 70
     0
 43
0.0
 10
124.6429999999999
 20
63.36289999999999
 10
123.8909999999999
 20
63.1615
 42
0.3297122011531152
 10
123.521
 20
62.6963
 10
123.394
 20
59.13319999999999
 10
123.521
 20
55.5702
 42
0.1604402078146798
 10
123.6294112111832
 20
55.27635257992137
 42
0.1608679052634123
 10
123.8909999999999
 20
55.1049
 10
127.1439999999999
 20
54.2332
  0
LINE
  5
29BC
330
1F
100
AcDbEntity
  8
CONTINUOUS1
100
AcDbLine
 10
132.5399999999999
 20
50.9571
 30
0.0
 11
132.204
 21
50.8847
 31
0.0
  0
LINE
  5
29BD
330
1F
100
AcDbEntity
  8
CONTINUOUS1
100
AcDbLine
 10
131.9569999999999
 20
50.83149999999999
 30
0.0
 11
131.6189999999999
 21
50.75849999999999
 31
0.0
  0
LINE
  5
29BE
330
1F
100
AcDbEntity
  8
CONTINUOUS1
100
AcDbLine
 10
132.286
 20
51.6628
 30
0.0
 11
131.9499999999999
 21
51.5903
 31
0.0
  0
LINE
  5
29BF
330
1F
100
AcDbEntity
  8
CONTINUOUS1
100
AcDbLine
 10
131.703
 20
51.53719999999999
 30
0.0
 11
131.365
 21
51.46419999999999
 31
0.0
  0
LINE
  5
29C0
330
1F
100
AcDbEntity
  8
CONTINUOUS1
100
AcDbLine
 10
132.2009999999999
 20
51.8983
 30
0.0
 11
131.865
 21
51.82590000000001
 31
0.0
  0
LINE
  5
29C1
330
1F
100
AcDbEntity
  8
CONTINUOUS1
100
AcDbLine
 10
131.6189999999999
 20
51.7727
 30
0.0
 11
131.2799999999999
 21
51.6997
 31
0.0
  0
LINE
  5
29C2
330
1F
100
AcDbEntity
  8
CONTINUOUS1
100
AcDbLine
 10
132.37
 20
51.42759999999999
 30
0.0
 11
132.0349999999999
 21
51.3551
 31
0.0
  0
LINE
  5
29C3
330
1F
100
AcDbEntity
  8
CONTINUOUS1
100
AcDbLine
 10
131.788
 20
51.30189999999999
 30
0.0
 11
131.45
 21
51.229
 31
0.0
  0
LINE
  5
29C4
330
1F
100
AcDbEntity
  8
CONTINUOUS1
100
AcDbLine
 10
132.4549999999999
 20
51.1923
 30
0.0
 11
132.119
 21
51.11989999999999
 31
0.0
  0
LINE
  5
29C5
330
1F
100
AcDbEntity
  8
CONTINUOUS1
100
AcDbLine
 10
131.8729999999999
 20
51.06670000000001
 30
0.0
 11
131.5339999999999
 21
50.9937
 31
0.0
  0
LINE
  5
29C6
330
1F
100
AcDbEntity
  8
CONTINUOUS1
100
AcDbLine
 10
131.923
 20
51.665
 30
0.0
 11
131.9649999999999
 21
51.5474
 31
0.0
  0
LINE
  5
29C7
330
1F
100
AcDbEntity
  8
CONTINUOUS1
100
AcDbLine
 10
132.0079999999999
 20
51.4298
 30
0.0
 11
132.05
 21
51.31219999999999
 31
0.0
  0
LINE
  5
29C8
330
1F
100
AcDbEntity
  8
CONTINUOUS1
100
AcDbLine
 10
132.0919999999999
 20
51.1946
 30
0.0
 11
132.135
 21
51.07700000000001
 31
0.0
  0
LINE
  5
29C9
330
1F
100
AcDbEntity
  8
CONTINUOUS1
100
AcDbLine
 10
132.177
 20
50.95939999999999
 30
0.0
 11
132.2189999999999
 21
50.84179999999999
 31
0.0
  0
LINE
  5
29CA
330
1F
100
AcDbEntity
  8
CONTINUOUS1
100
AcDbLine
 10
132.262
 20
50.72420000000001
 30
0.0
 11
132.2949999999999
 21
50.6317
 31
0.0
  0
LWPOLYLINE
  5
29CB
330
1F
100
AcDbEntity
  8
CONTINUOUS1
100
AcDbPolyline
 90
        4
 70
     0
 43
0.0
 10
132.338
 20
50.5129
 10
132.497
 20
50.06260000000001
 10
132.261
 20
49.97790000000001
 10
132.103
 20
50.42760000000001
  0
LINE
  5
29CC
330
1F
100
AcDbEntity
  8
CONTINUOUS1
100
AcDbLine
 10
132.0599999999999
 20
50.547
 30
0.0
 11
132.026
 21
50.6395
 31
0.0
  0
LINE
  5
29CD
330
1F
100
AcDbEntity
  8
CONTINUOUS1
100
AcDbLine
 10
131.9839999999999
 20
50.7571
 30
0.0
 11
131.942
 21
50.87469999999999
 31
0.0
  0
LINE
  5
29CE
330
1F
100
AcDbEntity
  8
CONTINUOUS1
100
AcDbLine
 10
131.899
 20
50.9923
 30
0.0
 11
131.857
 21
51.10990000000001
 31
0.0
  0
LINE
  5
29CF
330
1F
100
AcDbEntity
  8
CONTINUOUS1
100
AcDbLine
 10
131.8149999999999
 20
51.22749999999999
 30
0.0
 11
131.772
 21
51.34509999999999
 31
0.0
  0
LINE
  5
29D0
330
1F
100
AcDbEntity
  8
CONTINUOUS1
100
AcDbLine
 10
131.7299999999999
 20
51.4628
 30
0.0
 11
131.6879999999999
 21
51.58039999999999
 31
0.0
  0
LWPOLYLINE
  5
29D1
330
1F
100
AcDbEntity
  8
CONTINUOUS1
100
AcDbPolyline
 90
        5
 70
     0
 43
0.0
 10
131.645
 20
51.69800000000001
 10
131.63
 20
51.74109999999999
 10
131.553
 20
51.95579999999999
 10
131.796
 20
52.0176
 10
131.881
 20
51.78270000000001
  0
LWPOLYLINE
  5
29D2
330
1F
100
AcDbEntity
  8
CENTER1
100
AcDbPolyline
 90
        3
 70
     0
 43
0.0
 10
125.944
 20
59.80800000000001
 10
125.944
 20
59.13319999999999
 10
125.2689999999999
 20
59.13319999999999
  0
LINE
  5
29D3
330
1F
100
AcDbEntity
  8
CENTER1
100
AcDbLine
 10
125.944
 20
59.13319999999999
 30
0.0
 11
125.944
 21
58.4583
 31
0.0
  0
LINE
  5
29D4
330
1F
100
AcDbEntity
  8
CENTER1
100
AcDbLine
 10
125.944
 20
59.13319999999999
 30
0.0
 11
126.6189999999999
 21
59.13319999999999
 31
0.0
  0
LWPOLYLINE
  5
29D5
330
1F
100
AcDbEntity
  8
CONTINUOUS1
100
AcDbPolyline
 90
        4
 70
     0
 43
0.0
 10
123.6439999999999
 20
59.13319999999999
 10
123.872
 20
61.2258
 42
-0.30941120704053
 10
124.239
 20
61.6547
 10
124.954
 20
61.84619999999999
  0
LWPOLYLINE
  5
29D6
330
1F
100
AcDbEntity
  8
CONTINUOUS1
100
AcDbPolyline
 90
        3
 70
     0
 43
0.0
 10
126.008
 20
63.12730000000001
 10
126.178
 20
63.77439999999999
 10
127.1439999999999
 20
64.03319999999999
  0
CIRCLE
  5
29D9
330
1F
100
AcDbEntity
  8
CONTINUOUS1
100
AcDbCircle
 10
69.56540000000001
 20
85.50670000000001
 30
0.0
 40
0.1004999999999825
  0
CIRCLE
  5
29DC
330
1F
100
AcDbEntity
  8
CONTINUOUS1
100
AcDbCircle
 10
78.8154
 20
85.50670000000001
 30
0.0
 40
0.1004999999999967
  0
CIRCLE
  5
29DF
330
1F
100
AcDbEntity
  8
CONTINUOUS1
100
AcDbCircle
 10
78.8154
 20
79.31670000000001
 30
0.0
 40
0.1004999999999967
  0
CIRCLE
  5
29E2
330
1F
100
AcDbEntity
  8
CONTINUOUS1
100
AcDbCircle
 10
69.56540000000001
 20
79.31670000000001
 30
0.0
 40
0.1004999999999825
  0
LWPOLYLINE
  5
29E3
330
1F
100
AcDbEntity
  8
CONTINUOUS1
100
AcDbPolyline
 90
       10
 70
     1
 43
0.0
 10
82.02287640245037
 20
69.62680249655011
 42
0.4145888272874418
 10
82.14787640245035
 20
69.50170249655011
 10
83.52287640245036
 20
69.50170249655011
 42
0.199174395004354
 10
83.61121006007042
 20
69.5383326669822
 42
0.1987848038709792
 10
83.64777640245035
 20
69.62680249655011
 10
83.64777640245035
 20
70.62670249655011
 42
0.4141289547429201
 10
83.52287640245036
 20
70.75170249655011
 10
82.14787640245035
 20
70.75170249655011
 42
0.1988032369355887
 10
82.05940314297
 20
70.71508980163817
 42
0.1990875805314295
 10
82.02277640245036
 20
70.62670249655011
  0
LWPOLYLINE
  5
29E4
330
1F
100
AcDbEntity
  8
CONTINUOUS1
100
AcDbPolyline
 90
        9
 70
     1
 43
0.0
 10
82.02287640245037
 20
48.24680249655011
 42
0.4139755614723529
 10
82.14787640245035
 20
48.12170249655011
 10
83.52287640245036
 20
48.12170249655011
 42
0.1990524526769334
 10
83.61121006007042
 20
48.15835694706281
 42
0.1987848381868844
 10
83.64777640245035
 20
48.24680249655011
 10
83.64777640245035
 20
49.24680249655011
 42
0.4139915085372014
 10
83.52287640245036
 20
49.37170249655011
 10
82.14787640245035
 20
49.37170249655011
 42
0.414002100206644
 10
82.02277640245036
 20
49.24670249655011
  0
LWPOLYLINE
  5
29E5
330
1F
100
AcDbEntity
  8
CONTINUOUS1
100
AcDbPolyline
 90
       16
 70
     1
 43
0.0
 10
76.87039999999999
 20
69.9567
 10
72.87049999999999
 20
69.9567
 10
72.4957
 20
69.923
 42
0.3625650994421021
 10
68.5441
 20
65.97139999999999
 10
68.51040000000001
 20
65.5968
 10
68.51040000000001
 20
63.5968
 10
68.5441
 20
63.2221
 42
0.362550731491017
 10
72.4957
 20
59.27039999999999
 10
72.87040000000001
 20
59.23670000000001
 10
76.87039999999999
 20
59.23670000000001
 10
77.245
 20
59.27039999999999
 42
0.3625672406377113
 10
81.19659999999999
 20
63.2221
 10
81.23029999999999
 20
63.5968
 10
81.23029999999999
 20
65.58709999999999
 10
81.23029999999999
 20
65.73319999999999
 42
0.3790944996872307
 10
77.2385
 20
69.92530000000001
  0
LWPOLYLINE
  5
29E6
330
1F
100
AcDbEntity
  8
CONTINUOUS1
100
AcDbPolyline
 90
       10
 70
     1
 43
0.0
 10
72.87049999999999
 20
69.0767
 10
76.87149999999999
 20
69.0767
 42
-0.4142270240219109
 10
80.3514
 20
65.5967
 10
80.3514
 20
63.5968
 10
80.3514
 20
63.59670000000001
 42
-0.4142127449856135
 10
76.87149999999999
 20
60.11669999999999
 10
72.87049999999999
 20
60.11669999999999
 42
-0.4142055136050393
 10
69.39029999999999
 20
63.59670000000001
 10
69.39029999999999
 20
65.5967
 42
-0.4142065279311524
 10
72.8703
 20
69.07659999999999
  0
LWPOLYLINE
  5
29E7
330
1F
100
AcDbEntity
  8
CONTINUOUS1
100
AcDbPolyline
 90
        6
 70
     1
 43
0.0
 10
81.89737640245034
 20
53.30630249655011
 10
81.84787640245035
 20
53.30630249655011
 10
81.84787640245035
 20
53.58730249655011
 10
82.17837640245035
 20
53.58730249655011
 10
82.22787640245035
 20
53.58730249655011
 10
82.22787640245035
 20
53.30630249655011
  0
LWPOLYLINE
  5
29E8
330
1F
100
AcDbEntity
  8
CONTINUOUS1
100
AcDbPolyline
 90
        6
 70
     1
 43
0.0
 10
81.27737640245035
 20
53.30630249655011
 10
81.22787640245034
 20
53.30630249655011
 10
81.22787640245034
 20
53.58730249655011
 10
81.55837640245035
 20
53.58730249655011
 10
81.60787640245034
 20
53.58730249655011
 10
81.60787640245034
 20
53.30630249655011
  0
CIRCLE
  5
29EB
330
1F
100
AcDbEntity
  8
CONTINUOUS1
100
AcDbCircle
 10
82.14787640245035
 20
48.74680249655011
 30
0.0
 40
0.0679999999999979
  0
CIRCLE
  5
29EE
330
1F
100
AcDbEntity
  8
CONTINUOUS1
100
AcDbCircle
 10
83.52787640245034
 20
48.74680249655011
 30
0.0
 40
0.0679999999999979
  0
CIRCLE
  5
29F1
330
1F
100
AcDbEntity
  8
CONTINUOUS1
100
AcDbCircle
 10
82.14787640245035
 20
70.12680249655011
 30
0.0
 40
0.0679999999999979
  0
CIRCLE
  5
29F4
330
1F
100
AcDbEntity
  8
CONTINUOUS1
100
AcDbCircle
 10
83.52787640245034
 20
70.12680249655011
 30
0.0
 40
0.0679999999999979
  0
CIRCLE
  5
29F5
330
1F
100
AcDbEntity
  8
CONTINUOUS1
100
AcDbCircle
 10
83.27787640245034
 20
33.1568024965501
 30
0.0
 40
0.2185000000000059
  0
CIRCLE
  5
29F6
330
1F
100
AcDbEntity
  8
CONTINUOUS1
100
AcDbCircle
 10
83.27787640245034
 20
58.03180249655011
 30
0.0
 40
0.2185000000000059
  0
CIRCLE
  5
29F7
330
1F
100
AcDbEntity
  8
CONTINUOUS1
100
AcDbCircle
 10
83.27787640245034
 20
58.03180249655011
 30
0.0
 40
0.7200000000000131
  0
CIRCLE
  5
29F8
330
1F
100
AcDbEntity
  8
CONTINUOUS1
100
AcDbCircle
 10
83.27787640245034
 20
58.03180249655011
 30
0.0
 40
0.6459000000000117
  0
CIRCLE
  5
29F9
330
1F
100
AcDbEntity
  8
CONTINUOUS1
100
AcDbCircle
 10
83.27787640245034
 20
82.87610249655012
 30
0.0
 40
0.2185000000000059
  0
LWPOLYLINE
  5
29FA
330
1F
100
AcDbEntity
  8
CONTINUOUS1
100
AcDbPolyline
 90
        4
 70
     1
 43
0.0
 10
64.112
 20
31.5163
 10
64.112
 20
31.7973
 10
64.393
 20
31.7973
 10
64.393
 20
31.5163
  0
LWPOLYLINE
  5
29FB
330
1F
100
AcDbEntity
  8
CONTINUOUS1
100
AcDbPolyline
 90
        4
 70
     1
 43
0.0
 10
64.112
 20
34.5163
 10
64.112
 20
34.79729999999999
 10
64.393
 20
34.79729999999999
 10
64.393
 20
34.5163
  0
LWPOLYLINE
  5
29FC
330
1F
100
AcDbEntity
  8
CONTINUOUS1
100
AcDbPolyline
 90
        4
 70
     1
 43
0.0
 10
64.112
 20
56.3913
 10
64.112
 20
56.67229999999999
 10
64.393
 20
56.67229999999999
 10
64.393
 20
56.3913
  0
LWPOLYLINE
  5
29FD
330
1F
100
AcDbEntity
  8
CONTINUOUS1
100
AcDbPolyline
 90
        4
 70
     1
 43
0.0
 10
64.112
 20
59.39129999999999
 10
64.112
 20
59.6723
 10
64.393
 20
59.6723
 10
64.393
 20
59.39129999999999
  0
LWPOLYLINE
  5
29FE
330
1F
100
AcDbEntity
  8
CONTINUOUS1
100
AcDbPolyline
 90
        4
 70
     1
 43
0.0
 10
64.112
 20
81.23560000000003
 10
64.112
 20
81.51659999999999
 10
64.393
 20
81.51659999999999
 10
64.393
 20
81.23560000000003
  0
LWPOLYLINE
  5
29FF
330
1F
100
AcDbEntity
  8
CONTINUOUS1
100
AcDbPolyline
 90
        4
 70
     1
 43
0.0
 10
64.112
 20
84.2356
 10
64.112
 20
84.51660000000002
 10
64.393
 20
84.51660000000002
 10
64.393
 20
84.2356
  0
LWPOLYLINE
  5
2A00
330
1F
100
AcDbEntity
  8
CENTER1
100
AcDbPolyline
 90
       11
 70
     1
 43
0.0
 10
72.87049999999999
 20
69.5968
 42
0.4142357410991274
 10
68.8703
 20
65.5968
 10
68.8703
 20
63.5968
 42
0.4142056409172261
 10
72.87040000000001
 20
59.5967
 10
76.87039999999999
 20
59.5967
 42
0.4142142296272035
 10
80.8703
 20
63.5968
 10
80.8703
 20
65.5968
 42
0.2132299276216362
 10
79.78984428954641
 20
68.42508662289741
 42
0.0512123482622989
 10
79.17773750781528
 20
68.92251309642297
 42
0.0498177000872559
 10
78.4685102185106
 20
69.29213415777619
 42
0.0956932295880667
 10
76.87039999999999
 20
69.59660000000001
  0
CIRCLE
  5
2A03
330
1F
100
AcDbEntity
  8
CONTINUOUS1
100
AcDbCircle
 10
68.96040000000001
 20
30.0968
 30
0.0
 40
0.1004999999999967
  0
CIRCLE
  5
2A06
330
1F
100
AcDbEntity
  8
CONTINUOUS1
100
AcDbCircle
 10
68.96040000000001
 20
29.5968
 30
0.0
 40
0.1004999999999967
  0
CIRCLE
  5
2A09
330
1F
100
AcDbEntity
  8
CONTINUOUS1
100
AcDbCircle
 10
82.03787640245035
 20
30.09680249655011
 30
0.0
 40
0.1005000000000109
  0
CIRCLE
  5
2A0C
330
1F
100
AcDbEntity
  8
CONTINUOUS1
100
AcDbCircle
 10
82.03787640245035
 20
29.59680249655011
 30
0.0
 40
0.1005000000000109
  0
LWPOLYLINE
  5
2A0D
330
1F
100
AcDbEntity
  8
CONTINUOUS1
100
AcDbPolyline
 90
       12
 70
     1
 43
0.0
 10
62.8566
 20
27.15679999999999
 10
62.97259999999999
 20
27.15679999999999
 10
62.97259999999999
 20
27.04079999999999
 10
84.32797640245034
 20
27.0408024965501
 10
84.32797640245034
 20
27.1568024965501
 10
84.44387640245034
 20
27.1568024965501
 10
84.44387640245034
 20
88.87610249655011
 10
84.32787640245035
 20
88.87610249655011
 10
84.32787640245035
 20
88.99210249655011
 10
62.9725
 20
88.99210000000001
 10
62.9725
 20
88.8761
 10
62.85649999999999
 20
88.8761
  0
LWPOLYLINE
  5
2A0E
330
1F
100
AcDbEntity
  8
CONTINUOUS1
100
AcDbPolyline
 90
       11
 70
     1
 43
0.0
 10
72.31539999999999
 20
77.84480000000001
 42
-0.1994969190655209
 10
72.33352234480905
 20
77.88858958584537
 42
-0.1989010885803899
 10
72.37739999999999
 20
77.9067
 10
76.0034
 20
77.9067
 42
-0.4140246307259628
 10
76.06530000000001
 20
77.84480000000001
 10
76.06530000000001
 20
76.9688
 42
-0.1985880194264212
 10
76.04717928823723
 20
76.92489977657512
 42
-0.1992190308187126
 10
76.0034
 20
76.90670000000001
 10
72.37739999999999
 20
76.90670000000001
 42
-0.1988002389796922
 10
72.3334688536212
 20
76.92489977657512
 42
-0.1991126756680448
 10
72.31530000000001
 20
76.9688
  0
LWPOLYLINE
  5
2A0F
330
1F
100
AcDbEntity
  8
CONTINUOUS1
100
AcDbPolyline
 90
       11
 70
     1
 43
0.0
 10
79.97787640245035
 20
90.34480249655011
 42
-0.1994059603684319
 10
79.99603696870749
 20
90.38863392387076
 42
-0.1986098221772705
 10
80.03997640245037
 20
90.40680249655011
 10
83.66597640245037
 20
90.40680249655011
 42
-0.1993778324444619
 10
83.70971005369481
 20
90.38864761040255
 42
-0.1988411253033049
 10
83.72777640245034
 20
90.34480249655011
 10
83.72777640245034
 20
89.46880249655011
 42
-0.4145105492515939
 10
83.66587640245034
 20
89.40680249655011
 10
80.03997640245037
 20
89.40680249655011
 42
-0.1989998988925832
 10
79.99599961907877
 20
89.42491172273745
 42
-0.1992777947910243
 10
79.97777640245034
 20
89.46880249655011
  0
LWPOLYLINE
  5
2A10
330
1F
100
AcDbEntity
  8
HIDDEN1
100
AcDbPolyline
 90
        4
 70
     1
 43
0.0
 10
62.9305
 20
27.15679999999999
 10
84.37049999999999
 20
27.15679999999999
 10
84.37049999999999
 20
88.9067
 10
62.9305
 20
88.9067
  0
LINE
  5
2A11
330
1F
100
AcDbEntity
  8
CONTINUOUS1
100
AcDbLine
 10
82.99237640245035
 20
82.63300249655012
 30
0.0
 11
83.52097640245036
 21
83.16160249655011
 31
0.0
  0
LINE
  5
2A12
330
1F
100
AcDbEntity
  8
CONTINUOUS1
100
AcDbLine
 10
83.03487640245036
 20
82.59060249655011
 30
0.0
 11
83.56347640245035
 21
83.11920249655011
 31
0.0
  0
CIRCLE
  5
2A13
330
1F
100
AcDbEntity
  8
CONTINUOUS1
100
AcDbCircle
 10
83.27787640245034
 20
82.87610249655012
 30
0.0
 40
0.3125
  0
CIRCLE
  5
2A14
330
1F
100
AcDbEntity
  8
CONTINUOUS1
100
AcDbCircle
 10
83.27787640245034
 20
82.87610249655012
 30
0.0
 40
0.3750000000000142
  0
LINE
  5
2A15
330
1F
100
AcDbEntity
  8
CONTINUOUS1
100
AcDbLine
 10
82.99237640245035
 20
57.78870249655011
 30
0.0
 11
83.52097640245036
 21
58.31730249655011
 31
0.0
  0
LINE
  5
2A16
330
1F
100
AcDbEntity
  8
CONTINUOUS1
100
AcDbLine
 10
83.03477640245034
 20
57.7462024965501
 30
0.0
 11
83.56337640245035
 21
58.27490249655011
 31
0.0
  0
CIRCLE
  5
2A17
330
1F
100
AcDbEntity
  8
CONTINUOUS1
100
AcDbCircle
 10
83.27787640245034
 20
58.03180249655011
 30
0.0
 40
0.3125
  0
CIRCLE
  5
2A18
330
1F
100
AcDbEntity
  8
CONTINUOUS1
100
AcDbCircle
 10
83.27787640245034
 20
58.03180249655011
 30
0.0
 40
0.3750000000000142
  0
LWPOLYLINE
  5
2A1D
330
1F
100
AcDbEntity
  8
CONTINUOUS1
100
AcDbPolyline
 90
        5
 70
     1
 43
0.0
 10
76.62040000000001
 20
50.13670000000001
 10
73.12039999999999
 20
50.13670000000001
 10
73.12039999999999
 20
56.63669999999999
 10
76.4954
 20
56.63669999999999
 10
76.62040000000001
 20
56.63669999999999
  0
LWPOLYLINE
  5
2A1E
330
1F
100
AcDbEntity
  8
CONTINUOUS1
100
AcDbPolyline
 90
        5
 70
     0
 43
0.0
 10
76.62040000000001
 20
51.8595
 42
0.4133983107247978
 10
76.55789999999999
 20
51.9219
 10
73.1828
 20
51.9219
 42
0.1985641967249825
 10
73.13857376731369
 20
51.90360948611997
 42
0.1994430440357485
 10
73.1203
 20
51.8595
  0
CIRCLE
  5
2A21
330
1F
100
AcDbEntity
  8
CONTINUOUS1
100
AcDbCircle
 10
73.2454
 20
56.4867
 30
0.0
 40
0.0625
  0
CIRCLE
  5
2A24
330
1F
100
AcDbEntity
  8
CONTINUOUS1
100
AcDbCircle
 10
76.4954
 20
56.4867
 30
0.0
 40
0.0623999999999967
  0
CIRCLE
  5
2A27
330
1F
100
AcDbEntity
  8
CONTINUOUS1
100
AcDbCircle
 10
76.4954
 20
50.28669999999999
 30
0.0
 40
0.0623999999999967
  0
CIRCLE
  5
2A2A
330
1F
100
AcDbEntity
  8
CONTINUOUS1
100
AcDbCircle
 10
73.2454
 20
50.28669999999999
 30
0.0
 40
0.0625
  0
LWPOLYLINE
  5
2A32
330
1F
100
AcDbEntity
  8
CONTINUOUS1
100
AcDbPolyline
 90
        8
 70
     1
 43
0.0
 10
69.19039999999999
 20
85.53169999999999
 42
-0.4141995308813634
 10
69.56540000000001
 20
85.90670000000001
 10
78.8154
 20
85.90670000000001
 42
-0.4142187459877645
 10
79.19039999999999
 20
85.53169999999999
 10
79.19039999999999
 20
79.28180000000001
 42
-0.4142895776410454
 10
78.8154
 20
78.9067
 10
69.5655
 20
78.9067
 42
-0.4141389259281662
 10
69.1905
 20
79.28180000000001
  0
LWPOLYLINE
  5
2A33
330
1F
100
AcDbEntity
  8
PHANTOM1
100
AcDbPolyline
 90
        4
 70
     1
 43
0.0
 10
129.8019999999999
 20
91.4281
 10
129.8019999999999
 20
91.38489999999999
 10
130.302
 20
91.38489999999999
 10
130.302
 20
91.42799999999999
  0
LWPOLYLINE
  5
2A34
330
1F
100
AcDbEntity
  8
PHANTOM1
100
AcDbPolyline
 90
        4
 70
     1
 43
0.0
 10
144.8019999999999
 20
91.4281
 10
144.8019999999999
 20
91.38489999999999
 10
145.302
 20
91.38489999999999
 10
145.302
 20
91.42799999999999
  0
LWPOLYLINE
  5
2A35
330
1F
100
AcDbEntity
  8
PHANTOM1
100
AcDbPolyline
 90
        4
 70
     1
 43
0.0
 10
141.802
 20
91.4281
 10
141.802
 20
91.38489999999999
 10
142.3019999999999
 20
91.38489999999999
 10
142.3019999999999
 20
91.42799999999999
  0
LWPOLYLINE
  5
2A36
330
1F
100
AcDbEntity
  8
PHANTOM1
100
AcDbPolyline
 90
        4
 70
     1
 43
0.0
 10
138.802
 20
91.4281
 10
138.802
 20
91.38489999999999
 10
139.3019999999999
 20
91.38489999999999
 10
139.3019999999999
 20
91.42799999999999
  0
LWPOLYLINE
  5
2A37
330
1F
100
AcDbEntity
  8
PHANTOM1
100
AcDbPolyline
 90
        4
 70
     1
 43
0.0
 10
135.802
 20
91.4281
 10
135.802
 20
91.38489999999999
 10
136.3019999999999
 20
91.38489999999999
 10
136.3019999999999
 20
91.42799999999999
  0
LWPOLYLINE
  5
2A38
330
1F
100
AcDbEntity
  8
PHANTOM1
100
AcDbPolyline
 90
        4
 70
     1
 43
0.0
 10
132.802
 20
91.4281
 10
132.802
 20
91.38489999999999
 10
133.3019999999999
 20
91.38489999999999
 10
133.3019999999999
 20
91.42799999999999
  0
LWPOLYLINE
  5
2A39
330
1F
100
AcDbEntity
  8
CONTINUOUS1
100
AcDbPolyline
 90
       12
 70
     0
 43
0.0
 10
127.112
 20
91.3761
 10
151.103
 20
91.3761
 10
151.103
 20
90.632
 10
150.752
 20
90.632
 10
151.1759999999999
 20
90.632
 10
151.1759999999999
 20
91.33590000000001
 42
0.4141597113544023
 10
151.0559999999999
 20
91.45590000000002
 10
127.0979999999999
 20
91.45590000000002
 42
0.1987488641938195
 10
127.013266830877
 20
91.42077157098318
 42
0.1983945325739979
 10
126.978
 20
91.33599999999999
 10
126.978
 20
90.632
 10
127.0519999999999
 20
90.632
  0
LWPOLYLINE
  5
2A3A
330
1F
100
AcDbEntity
  8
CONTINUOUS1
100
AcDbPolyline
 90
        5
 70
     0
 43
0.0
 10
127.0519999999999
 20
90.632
 10
127.0519999999999
 20
91.316
 42
-0.1986489794774499
 10
127.0696194885438
 20
91.35838531275538
 42
-0.1990059046645454
 10
127.112
 20
91.37590000000001
 10
127.5479999999999
 20
91.37590000000001
  0
LWPOLYLINE
  5
2A3B
330
1F
100
AcDbEntity
  8
HIDDEN1
100
AcDbPolyline
 90
        4
 70
     1
 43
0.0
 10
73.65350000000001
 20
27.9766
 10
74.65349999999999
 20
27.9766
 10
74.65349999999999
 20
26.2366
 10
73.65350000000001
 20
26.2366
  0
CIRCLE
  5
2A3C
330
1F
100
AcDbEntity
  8
HIDDEN1
100
AcDbCircle
 10
74.1535
 20
26.4866
 30
0.0
 40
0.1004999999999825
  0
CIRCLE
  5
2A3D
330
1F
100
AcDbEntity
  8
HIDDEN1
100
AcDbCircle
 10
74.1535
 20
26.9865
 30
0.0
 40
0.1004999999999825
  0
LWPOLYLINE
  5
2A3E
330
1F
100
AcDbEntity
  8
PHANTOM1
100
AcDbPolyline
 90
        4
 70
     0
 43
0.0
 10
61.7275
 20
26.4066
 10
61.7275
 20
25.4808
 10
86.57939999999999
 20
25.4808
 10
86.57939999999999
 20
26.4066
  0
LWPOLYLINE
  5
2A3F
330
1F
100
AcDbEntity
  8
CONTINUOUS1
100
AcDbPolyline
 90
        4
 70
     0
 43
0.0
 10
84.23097640245037
 20
25.40680249655011
 10
84.23097640245037
 20
27.8606024965501
 10
63.91559999999998
 20
27.86059999999999
 10
63.91559999999998
 20
25.4068
  0
LINE
  5
2A40
330
1F
100
AcDbEntity
  8
HIDDEN1
100
AcDbLine
 10
63.87349999999999
 20
27.7866
 30
0.0
 11
84.27350000000002
 21
27.7866
 31
0.0
  0
LWPOLYLINE
  5
2A41
330
1F
100
AcDbEntity
  8
PHANTOM1
100
AcDbPolyline
 90
        7
 70
     1
 43
0.0
 10
86.6534
 20
25.5268
 42
-0.1983879752441658
 10
86.61822320704061
 20
25.44190691700961
 42
-0.1989694824879866
 10
86.53350000000001
 20
25.4067
 10
61.7735
 20
25.4067
 42
-0.4139036959425081
 10
61.6533
 20
25.5268
 10
61.6533
 20
26.4066
 10
86.6534
 20
26.4066
  0
LINE
  5
2A42
330
1F
100
AcDbEntity
  8
PHANTOM1
100
AcDbLine
 10
68.07349999999999
 20
91.4375
 30
0.0
 11
67.57349999999999
 21
91.4375
 31
0.0
  0
LINE
  5
2A43
330
1F
100
AcDbEntity
  8
PHANTOM1
100
AcDbLine
 10
80.0735
 20
91.4375
 30
0.0
 11
79.57349999999999
 21
91.4375
 31
0.0
  0
LINE
  5
2A44
330
1F
100
AcDbEntity
  8
PHANTOM1
100
AcDbLine
 10
74.0735
 20
91.4375
 30
0.0
 11
73.5735
 21
91.4375
 31
0.0
  0
LWPOLYLINE
  5
2A45
330
1F
100
AcDbEntity
  8
PHANTOM1
100
AcDbPolyline
 90
        4
 70
     0
 43
0.0
 10
67.8235
 20
91.31249999999999
 10
67.8235
 20
91.4375
 10
67.3235
 20
91.4375
 10
67.3235
 20
91.31249999999999
  0
LWPOLYLINE
  5
2A46
330
1F
100
AcDbEntity
  8
PHANTOM1
100
AcDbPolyline
 90
        4
 70
     0
 43
0.0
 10
79.8235
 20
91.31249999999999
 10
79.8235
 20
91.4375
 10
79.32349999999999
 20
91.4375
 10
79.32349999999999
 20
91.31249999999999
  0
LWPOLYLINE
  5
2A47
330
1F
100
AcDbEntity
  8
PHANTOM1
100
AcDbPolyline
 90
        4
 70
     0
 43
0.0
 10
73.82349999999999
 20
91.31249999999999
 10
73.82349999999999
 20
91.4375
 10
73.32349999999999
 20
91.4375
 10
73.32349999999999
 20
91.31249999999999
  0
LINE
  5
2A48
330
1F
100
AcDbEntity
  8
PHANTOM1
100
AcDbLine
 10
67.7235
 20
91.4375
 30
0.0
 11
67.7235
 21
91.32659999999999
 31
0.0
  0
LINE
  5
2A49
330
1F
100
AcDbEntity
  8
PHANTOM1
100
AcDbLine
 10
79.7235
 20
91.4375
 30
0.0
 11
79.7235
 21
91.32659999999999
 31
0.0
  0
LINE
  5
2A4A
330
1F
100
AcDbEntity
  8
PHANTOM1
100
AcDbLine
 10
73.7235
 20
91.4375
 30
0.0
 11
73.7235
 21
91.32659999999999
 31
0.0
  0
LINE
  5
2A4B
330
1F
100
AcDbEntity
  8
PHANTOM1
100
AcDbLine
 10
67.62349999999999
 20
91.4375
 30
0.0
 11
67.62349999999999
 21
91.32659999999999
 31
0.0
  0
LINE
  5
2A4C
330
1F
100
AcDbEntity
  8
PHANTOM1
100
AcDbLine
 10
79.62349999999999
 20
91.4375
 30
0.0
 11
79.62349999999999
 21
91.32659999999999
 31
0.0
  0
LINE
  5
2A4D
330
1F
100
AcDbEntity
  8
PHANTOM1
100
AcDbLine
 10
73.62350000000001
 20
91.4375
 30
0.0
 11
73.62350000000001
 21
91.32659999999999
 31
0.0
  0
LINE
  5
2A4E
330
1F
100
AcDbEntity
  8
PHANTOM1
100
AcDbLine
 10
67.52349999999999
 20
91.4375
 30
0.0
 11
67.52349999999999
 21
91.32659999999999
 31
0.0
  0
LINE
  5
2A4F
330
1F
100
AcDbEntity
  8
PHANTOM1
100
AcDbLine
 10
79.5235
 20
91.4375
 30
0.0
 11
79.5235
 21
91.32659999999999
 31
0.0
  0
LINE
  5
2A50
330
1F
100
AcDbEntity
  8
PHANTOM1
100
AcDbLine
 10
73.5235
 20
91.4375
 30
0.0
 11
73.5235
 21
91.32659999999999
 31
0.0
  0
LINE
  5
2A51
330
1F
100
AcDbEntity
  8
PHANTOM1
100
AcDbLine
 10
67.4235
 20
91.4375
 30
0.0
 11
67.4235
 21
91.32659999999999
 31
0.0
  0
LINE
  5
2A52
330
1F
100
AcDbEntity
  8
PHANTOM1
100
AcDbLine
 10
79.42350000000001
 20
91.4375
 30
0.0
 11
79.42350000000001
 21
91.32659999999999
 31
0.0
  0
LINE
  5
2A53
330
1F
100
AcDbEntity
  8
PHANTOM1
100
AcDbLine
 10
73.42349999999999
 20
91.4375
 30
0.0
 11
73.42349999999999
 21
91.32659999999999
 31
0.0
  0
LINE
  5
2A54
330
1F
100
AcDbEntity
  8
HIDDEN1
100
AcDbLine
 10
86.73349999999999
 20
91.4067
 30
0.0
 11
86.73349999999999
 21
91.0941
 31
0.0
  0
LWPOLYLINE
  5
2A55
330
1F
100
AcDbEntity
  8
CONTINUOUS1
100
AcDbPolyline
 90
        9
 70
     1
 43
0.0
 10
61.57849999999999
 20
91.0636
 10
61.57849999999999
 20
91.35099999999999
 42
-0.1995797891853657
 10
61.59478409201543
 20
91.39045712156262
 42
-0.198918721734238
 10
61.63429999999999
 20
91.40680000000001
 10
72.0197
 20
91.40680000000001
 10
86.67797640245035
 20
91.40680249655011
 42
-0.4139558249553334
 10
86.72787640245035
 20
91.35690249655011
 10
86.72787640245035
 20
91.06350249655012
 10
85.00767640245035
 20
91.06350249655012
  0
LINE
  5
2A56
330
1F
100
AcDbEntity
  8
CONTINUOUS1
100
AcDbLine
 10
150.532
 20
91.29600000000001
 30
0.0
 11
150.532
 21
91.376
 31
0.0
  0
LINE
  5
2A57
330
1F
100
AcDbEntity
  8
CENTER1
100
AcDbLine
 10
149.5919999999999
 20
91.90659999999999
 30
0.0
 11
149.5919999999999
 21
90.82660000000002
 31
0.0
  0
LWPOLYLINE
  5
2A58
330
1F
100
AcDbEntity
  8
CONTINUOUS1
100
AcDbPolyline
 90
       11
 70
     0
 43
0.0
 10
129.132
 20
91.37590000000001
 10
150.6119999999999
 20
91.37590000000001
 42
-0.1983915564519577
 10
150.654319716368
 20
91.35832673410916
 42
-0.1980104568872334
 10
150.672
 20
91.316
 10
150.672
 20
90.296
 10
150.592
 20
90.296
 10
150.592
 20
91.23600000000001
 42
0.2015002363241939
 10
150.5746527575044
 20
91.27836688201441
 42
0.0989597312942166
 10
150.555128529588
 20
91.2913486630264
 42
0.0979252169099241
 10
150.532
 20
91.2959
 10
129.132
 20
91.2959
  0
CIRCLE
  5
2A5B
330
1F
100
AcDbEntity
  8
CONTINUOUS1
100
AcDbCircle
 10
128.0519999999999
 20
88.8761
 30
0.0
 40
0.171999999999997
  0
CIRCLE
  5
2A5E
330
1F
100
AcDbEntity
  8
CONTINUOUS1
100
AcDbCircle
 10
128.0519999999999
 20
73.9067
 30
0.0
 40
0.171999999999997
  0
LINE
  5
2A5F
330
1F
100
AcDbEntity
  8
HIDDEN1
100
AcDbLine
 10
127.8
 20
58.4067
 30
0.0
 11
128.3039999999999
 21
58.4067
 31
0.0
  0
LINE
  5
2A60
330
1F
100
AcDbEntity
  8
HIDDEN1
100
AcDbLine
 10
128.0519999999999
 20
58.65870000000001
 30
0.0
 11
128.0519999999999
 21
58.15470000000001
 31
0.0
  0
CIRCLE
  5
2A61
330
1F
100
AcDbEntity
  8
HIDDEN1
100
AcDbCircle
 10
128.0519999999999
 20
58.4067
 30
0.0
 40
0.171999999999997
  0
CIRCLE
  5
2A64
330
1F
100
AcDbEntity
  8
CONTINUOUS1
100
AcDbCircle
 10
128.0519999999999
 20
42.9067
 30
0.0
 40
0.171999999999997
  0
CIRCLE
  5
2A67
330
1F
100
AcDbEntity
  8
CONTINUOUS1
100
AcDbCircle
 10
128.0519999999999
 20
27.9068
 30
0.0
 40
0.171999999999997
  0
LWPOLYLINE
  5
2A68
330
1F
100
AcDbEntity
  8
CONTINUOUS1
100
AcDbPolyline
 90
        8
 70
     0
 43
0.0
 10
131.776
 20
74.2058
 10
131.776
 20
74.2267
 10
132.023
 20
74.2267
 10
132.023
 20
74.97679999999999
 10
133.0829999999999
 20
74.97679999999999
 10
133.0829999999999
 20
74.2267
 10
133.276
 20
74.2267
 10
133.276
 20
74.2058
  0
LWPOLYLINE
  5
2A69
330
1F
100
AcDbEntity
  8
HIDDEN1
100
AcDbPolyline
 90
        4
 70
     1
 43
0.0
 10
130.82
 20
55.01619999999999
 10
130.82
 20
55.29720000000001
 10
131.101
 20
55.29720000000001
 10
131.101
 20
55.01619999999999
  0
LWPOLYLINE
  5
2A6A
330
1F
100
AcDbEntity
  8
HIDDEN1
100
AcDbPolyline
 90
        4
 70
     0
 43
0.0
 10
133.276
 20
74.2058
 10
133.276
 20
72.7268
 10
131.776
 20
72.7268
 10
131.776
 20
74.2058
  0
LINE
  5
2A6B
330
1F
100
AcDbEntity
  8
HIDDEN1
100
AcDbLine
 10
131.776
 20
73.91670000000001
 30
0.0
 11
133.276
 21
73.91670000000001
 31
0.0
  0
LINE
  5
2A6C
330
1F
100
AcDbEntity
  8
HIDDEN1
100
AcDbLine
 10
131.776
 20
73.8007
 30
0.0
 11
133.276
 21
73.8007
 31
0.0
  0
CIRCLE
  5
2A6D
330
1F
100
AcDbEntity
  8
CONTINUOUS1
100
AcDbCircle
 10
132.553
 20
74.56669999999999
 30
0.0
 40
0.1720000000000255
  0
LWPOLYLINE
  5
2A6E
330
1F
100
AcDbEntity
  8
CONTINUOUS1
100
AcDbPolyline
 90
       10
 70
     0
 43
0.0
 10
129.132
 20
91.376
 10
127.0519999999999
 20
91.376
 10
127.0519999999999
 20
87.29599999999999
 10
126.782
 20
87.29599999999999
 10
127.0519999999999
 20
87.29599999999999
 10
126.1719999999999
 20
87.29599999999999
 10
126.1719999999999
 20
88.25599999999999
 10
126.092
 20
88.25599999999999
 10
126.092
 20
87.216
 10
127.0519999999999
 20
87.216
  0
LINE
  5
2A6F
330
1F
100
AcDbEntity
  8
CONTINUOUS1
100
AcDbLine
 10
127.072
 20
27.7868
 30
0.0
 11
126.782
 21
27.7868
 31
0.0
  0
LINE
  5
2A70
330
1F
100
AcDbEntity
  8
CONTINUOUS1
100
AcDbLine
 10
127.072
 20
27.8608
 30
0.0
 11
126.782
 21
27.8608
 31
0.0
  0
LWPOLYLINE
  5
2A71
330
1F
100
AcDbEntity
  8
HIDDEN1
100
AcDbPolyline
 90
        4
 70
     0
 43
0.0
 10
126.782
 20
27.8668
 10
126.092
 20
27.8668
 10
126.092
 20
27.7868
 10
126.782
 20
27.7868
  0
LWPOLYLINE
  5
2A72
330
1F
100
AcDbEntity
  8
HIDDEN1
100
AcDbPolyline
 90
       12
 70
     0
 43
0.0
 10
127.072
 20
27.8608
 42
-0.1987517555543141
 10
127.1668014626281
 20
27.82151797321401
 42
-0.1991426849800538
 10
127.2059999999999
 20
27.72679999999999
 10
127.2059999999999
 20
25.54679999999999
 42
0.198398233567477
 10
127.2236227494647
 20
25.50438104320672
 42
0.1988343327974108
 10
127.2659999999999
 20
25.4868
 10
150.5979999999999
 20
25.4868
 10
150.5979999999999
 20
26.4808
 10
150.672
 20
26.4808
 10
150.672
 20
25.5268
 42
-0.1983547115188749
 10
150.636746122501
 20
25.44193620633272
 42
-0.1989699303714699
 10
150.5519999999999
 20
25.4068
  0
LWPOLYLINE
  5
2A73
330
1F
100
AcDbEntity
  8
HIDDEN1
100
AcDbPolyline
 90
        6
 70
     0
 43
0.0
 10
127.072
 20
27.7868
 42
-0.1987125208833705
 10
127.1144907315508
 20
27.76920724213664
 42
-0.1995856401198586
 10
127.132
 20
27.72679999999999
 10
127.132
 20
25.5268
 42
0.1985761309131533
 10
127.1672115131517
 20
25.44193620633272
 42
0.1989698676746665
 10
127.2519999999999
 20
25.4068
  0
LWPOLYLINE
  5
2A74
330
1F
100
AcDbEntity
  8
PHANTOM1
100
AcDbPolyline
 90
       14
 70
     1
 43
0.0
 10
127.276
 20
91.32659999999999
 42
0.4129361105162831
 10
127.211
 20
91.2617
 42
0.1978755990747632
 10
127.2301249791955
 20
91.21565109858076
 42
0.1992696029264675
 10
127.276
 20
91.19659999999999
 10
127.775
 20
91.19659999999999
 10
127.7755199271657
 20
91.19654069001922
 10
127.776
 20
91.19659999999999
 42
0.1987629495971239
 10
127.82257518394
 20
91.21584027781734
 42
0.0982301692029546
 10
127.8369248429692
 20
91.23717762324535
 42
0.0988616838448351
 10
127.842
 20
91.26229999999999
 42
0.0973989333454695
 10
127.8364990491874
 20
91.28695619474356
 42
0.0966120539283719
 10
127.8220491035943
 20
91.30780520191258
 42
0.0965085427759133
 10
127.8008201044212
 20
91.32171613638695
 42
0.0971447123266013
 10
127.776
 20
91.32659999999999
  0
LWPOLYLINE
  5
2A75
330
1F
100
AcDbEntity
  8
PHANTOM1
100
AcDbPolyline
 90
       12
 70
     1
 43
0.0
 10
128.4209999999999
 20
91.32659999999999
 42
0.1984217944266193
 10
128.3749274623366
 20
91.30756099450506
 42
0.2001831872252399
 10
128.356
 20
91.2617
 42
0.1997780493436826
 10
128.3749274623366
 20
91.21565109858076
 42
0.1992684300722312
 10
128.4209999999999
 20
91.19659999999999
 10
128.9189999999999
 20
91.19659999999999
 10
128.9195536810798
 20
91.19656569075685
 10
128.9199999999999
 20
91.19669999999999
 42
0.1991524063085866
 10
128.9667365517052
 20
91.21589898888917
 42
0.200566976336673
 10
128.986
 20
91.26239999999999
 42
0.1962749230762787
 10
128.9665685427533
 20
91.30783442567519
 42
0.1972654442428854
 10
128.9209999999999
 20
91.32659999999999
  0
LWPOLYLINE
  5
2A76
330
1F
100
AcDbEntity
  8
CONTINUOUS1
100
AcDbPolyline
 90
       16
 70
     1
 43
0.0
 10
149.853
 20
91.29600000000001
 42
0.1986211864634328
 10
149.8069795987485
 20
91.27693170518195
 42
0.1994773844220764
 10
149.788
 20
91.231
 42
0.1992766052647909
 10
149.8069795987485
 20
91.18499251993453
 42
0.1988696988104655
 10
149.853
 20
91.1659
 10
150.351
 20
91.1659
 10
150.3513895118119
 20
91.16586176564142
 10
150.3516860211241
 20
91.16586568780633
 10
150.3518895191882
 20
91.16591176637903
 10
150.3519999999999
 20
91.166
 42
0.0980840162242657
 10
150.3773938771384
 20
91.17098180402457
 42
0.0987371419199115
 10
150.3988837413995
 20
91.18524153189699
 42
0.0996582757433659
 10
150.4131531603935
 20
91.20657854508312
 42
0.1003002840459605
 10
150.418
 20
91.2317
 42
0.197922785380976
 10
150.3987379139256
 20
91.27712270164535
 42
0.19715186184984
 10
150.353
 20
91.2959
  0
LWPOLYLINE
  5
2A77
330
1F
100
AcDbEntity
  8
CONTINUOUS1
100
AcDbPolyline
 90
       15
 70
     1
 43
0.0
 10
149.004
 20
91.29600000000001
 42
0.1986191600474081
 10
148.9581750149735
 20
91.27693170518195
 42
0.197589230170659
 10
148.939
 20
91.231
 42
0.1973918525480192
 10
148.9581750149735
 20
91.18499251993453
 42
0.0981631030950403
 10
148.9792269394113
 20
91.17087407165753
 42
0.0987765608949954
 10
149.004
 20
91.1659
 10
149.503
 20
91.1659
 10
149.503
 20
91.166
 42
0.1965944927982812
 10
149.550215732717
 20
91.18521217637956
 42
0.0985214257798135
 10
149.5647997430734
 20
91.20651673096517
 42
0.1000467715675971
 10
149.57
 20
91.23160000000002
 42
0.0961623674536972
 10
149.5643050467081
 20
91.25624750940035
 42
0.0953716720037559
 10
149.5497870183764
 20
91.27709347786234
 42
0.0959483941974057
 10
149.5286260895123
 20
91.29100746315321
 42
0.0975931393802754
 10
149.5039999999999
 20
91.2959
  0
LINE
  5
2A78
330
1F
100
AcDbEntity
  8
HIDDEN1
100
AcDbLine
 10
127.2119999999999
 20
90.3316
 30
0.0
 11
127.2119999999999
 21
91.32659999999999
 31
0.0
  0
LINE
  5
2A79
330
1F
100
AcDbEntity
  8
HIDDEN1
100
AcDbLine
 10
126.4699999999999
 20
58.55669999999999
 30
0.0
 11
126.7149999999999
 21
58.55669999999999
 31
0.0
  0
LINE
  5
2A7A
330
1F
100
AcDbEntity
  8
HIDDEN1
100
AcDbLine
 10
126.5919999999999
 20
58.4342
 30
0.0
 11
126.5919999999999
 21
58.67919999999999
 31
0.0
  0
CIRCLE
  5
2A7B
330
1F
100
AcDbEntity
  8
HIDDEN1
100
AcDbCircle
 10
126.5919999999999
 20
58.55669999999999
 30
0.0
 40
0.0630000000000024
  0
LINE
  5
2A7C
330
1F
100
AcDbEntity
  8
HIDDEN1
100
AcDbLine
 10
126.4699999999999
 20
57.55670000000001
 30
0.0
 11
126.7149999999999
 21
57.55670000000001
 31
0.0
  0
LINE
  5
2A7D
330
1F
100
AcDbEntity
  8
HIDDEN1
100
AcDbLine
 10
126.5919999999999
 20
57.4342
 30
0.0
 11
126.5919999999999
 21
57.6792
 31
0.0
  0
CIRCLE
  5
2A7E
330
1F
100
AcDbEntity
  8
HIDDEN1
100
AcDbCircle
 10
126.5919999999999
 20
57.55670000000001
 30
0.0
 40
0.0630000000000024
  0
CIRCLE
  5
2A7F
330
1F
100
AcDbEntity
  8
HIDDEN1
100
AcDbCircle
 10
132.1519999999999
 20
73.22669999999999
 30
0.0
 40
0.1400000000000148
  0
CIRCLE
  5
2A80
330
1F
100
AcDbEntity
  8
HIDDEN1
100
AcDbCircle
 10
132.901
 20
73.2268
 30
0.0
 40
0.1409999999999911
  0
CIRCLE
  5
2A81
330
1F
100
AcDbEntity
  8
HIDDEN1
100
AcDbCircle
 10
134.796
 20
57.11669999999999
 30
0.0
 40
0.1410000000000195
  0
CIRCLE
  5
2A82
330
1F
100
AcDbEntity
  8
HIDDEN1
100
AcDbCircle
 10
134.796
 20
61.1967
 30
0.0
 40
0.1410000000000195
  0
CIRCLE
  5
2A83
330
1F
100
AcDbEntity
  8
HIDDEN1
100
AcDbCircle
 10
131.962
 20
62.7167
 30
0.0
 40
0.1410000000000195
  0
CIRCLE
  5
2A84
330
1F
100
AcDbEntity
  8
HIDDEN1
100
AcDbCircle
 10
132.3679999999999
 20
63.59670000000001
 30
0.0
 40
0.1409999999999911
  0
CIRCLE
  5
2A85
330
1F
100
AcDbEntity
  8
HIDDEN1
100
AcDbCircle
 10
134.43
 20
63.59670000000001
 30
0.0
 40
0.1409999999999911
  0
CIRCLE
  5
2A86
330
1F
100
AcDbEntity
  8
HIDDEN1
100
AcDbCircle
 10
134.579
 20
52.2334
 30
0.0
 40
0.1399999999999864
  0
CIRCLE
  5
2A87
330
1F
100
AcDbEntity
  8
HIDDEN1
100
AcDbCircle
 10
127.7889999999999
 20
56.5133
 30
0.0
 40
0.1400000000000006
  0
LWPOLYLINE
  5
2A88
330
1F
100
AcDbEntity
  8
HIDDEN1
100
AcDbPolyline
 90
        8
 70
     1
 43
0.0
 10
134.266
 20
59.0439
 10
134.266
 20
59.30279999999999
 10
134.449
 20
59.4859
 10
134.708
 20
59.4859
 10
134.891
 20
59.30279999999999
 10
134.891
 20
59.0439
 10
134.708
 20
58.8609
 10
134.449
 20
58.8609
  0
LWPOLYLINE
  5
2A89
330
1F
100
AcDbEntity
  8
HIDDEN1
100
AcDbPolyline
 90
        8
 70
     1
 43
0.0
 10
131.6499999999999
 20
59.0273
 10
131.6499999999999
 20
59.28619999999999
 10
131.833
 20
59.4693
 10
132.0919999999999
 20
59.4693
 10
132.2749999999999
 20
59.28619999999999
 10
132.2749999999999
 20
59.0273
 10
132.0919999999999
 20
58.8443
 10
131.833
 20
58.8443
  0
LINE
  5
2A8A
330
1F
100
AcDbEntity
  8
HIDDEN1
100
AcDbLine
 10
150.672
 20
28.51309999999999
 30
0.0
 11
150.672
 21
91.4066
 31
0.0
  0
LINE
  5
2A8B
330
1F
100
AcDbEntity
  8
HIDDEN1
100
AcDbLine
 10
127.132
 20
25.4068
 30
0.0
 11
127.132
 21
91.4066
 31
0.0
  0
LINE
  5
2A8C
330
1F
100
AcDbEntity
  8
HIDDEN1
100
AcDbLine
 10
147.4269999999999
 20
25.4868
 30
0.0
 11
127.0519999999999
 21
25.4868
 31
0.0
  0
LINE
  5
2A8D
330
1F
100
AcDbEntity
  8
HIDDEN1
100
AcDbLine
 10
148.2439999999999
 20
26.4868
 30
0.0
 11
127.0519999999999
 21
26.4868
 31
0.0
  0
LINE
  5
2A8E
330
1F
100
AcDbEntity
  8
HIDDEN1
100
AcDbLine
 10
148.2439999999999
 20
26.4868
 30
0.0
 11
150.2119999999999
 21
26.4868
 31
0.0
  0
LINE
  5
2A8F
330
1F
100
AcDbEntity
  8
CONTINUOUS1
100
AcDbLine
 10
150.672
 20
27.1017
 30
0.0
 11
150.672
 21
28.51309999999999
 31
0.0
  0
LWPOLYLINE
  5
2A90
330
1F
100
AcDbEntity
  8
CONTINUOUS1
100
AcDbPolyline
 90
        3
 70
     0
 43
0.0
 10
150.752
 20
25.4068
 10
150.8259999999999
 20
25.4068
 10
150.8259999999999
 20
91.3761
  0
LINE
  5
2A91
330
1F
100
AcDbEntity
  8
CONTINUOUS1
100
AcDbLine
 10
150.752
 20
91.376
 30
0.0
 11
127.0519999999999
 21
91.376
 31
0.0
  0
LWPOLYLINE
  5
2A92
330
1F
100
AcDbEntity
  8
CONTINUOUS1
100
AcDbPolyline
 90
        3
 70
     0
 43
0.0
 10
126.092
 20
87.216
 10
126.092
 20
27.8668
 10
127.0519999999999
 20
27.8668
  0
LWPOLYLINE
  5
2A93
330
1F
100
AcDbEntity
  8
HIDDEN1
100
AcDbPolyline
 90
        4
 70
     0
 43
0.0
 10
126.092
 20
88.28659999999999
 10
126.1719999999999
 20
88.28659999999999
 10
126.1719999999999
 20
87.32659999999999
 10
126.782
 20
87.32659999999999
  0
LWPOLYLINE
  5
2A94
330
1F
100
AcDbEntity
  8
PHANTOM1
100
AcDbPolyline
 90
        4
 70
     0
 43
0.0
 10
129.132
 20
91.32659999999999
 10
127.2119999999999
 20
91.32659999999999
 10
127.2119999999999
 20
87.2466
 10
127.0519999999999
 20
87.2466
  0
LINE
  5
2A95
330
1F
100
AcDbEntity
  8
CENTER1
100
AcDbLine
 10
128.132
 20
90.82660000000002
 30
0.0
 11
128.132
 21
91.90659999999999
 31
0.0
  0
LINE
  5
2A96
330
1F
100
AcDbEntity
  8
CENTER1
100
AcDbLine
 10
130.0519999999999
 20
91.92080000000002
 30
0.0
 11
130.0519999999999
 21
90.9152
 31
0.0
  0
LINE
  5
2A97
330
1F
100
AcDbEntity
  8
CENTER1
100
AcDbLine
 10
142.0519999999999
 20
91.964
 30
0.0
 11
142.0519999999999
 21
90.9584
 31
0.0
  0
LINE
  5
2A98
330
1F
100
AcDbEntity
  8
CENTER1
100
AcDbLine
 10
147.9929999999999
 20
91.964
 30
0.0
 11
147.9929999999999
 21
90.9584
 31
0.0
  0
LINE
  5
2A99
330
1F
100
AcDbEntity
  8
CENTER1
100
AcDbLine
 10
145.052
 20
91.964
 30
0.0
 11
145.052
 21
90.9584
 31
0.0
  0
LINE
  5
2A9A
330
1F
100
AcDbEntity
  8
CENTER1
100
AcDbLine
 10
139.052
 20
91.92080000000002
 30
0.0
 11
139.052
 21
90.9152
 31
0.0
  0
LINE
  5
2A9B
330
1F
100
AcDbEntity
  8
CENTER1
100
AcDbLine
 10
136.0519999999999
 20
91.9424
 30
0.0
 11
136.0519999999999
 21
90.9368
 31
0.0
  0
LINE
  5
2A9C
330
1F
100
AcDbEntity
  8
CENTER1
100
AcDbLine
 10
133.0519999999999
 20
91.9425
 30
0.0
 11
133.0519999999999
 21
90.9369
 31
0.0
  0
LWPOLYLINE
  5
2A9D
330
1F
100
AcDbEntity
  8
CONTINUOUS1
100
AcDbPolyline
 90
        4
 70
     1
 43
0.0
 10
145.8719999999999
 20
74.47669999999999
 10
149.372
 20
74.47669999999999
 10
149.372
 20
72.22669999999999
 10
145.8719999999999
 20
72.22669999999999
  0
LWPOLYLINE
  5
2A9E
330
1F
100
AcDbEntity
  8
CONTINUOUS1
100
AcDbPolyline
 90
        4
 70
     0
 43
0.0
 10
145.875
 20
74.4845
 10
145.875
 20
74.9922
 10
149.372
 20
74.9922
 10
149.372
 20
74.47669999999999
  0
LINE
  5
2A9F
330
1F
100
AcDbEntity
  8
HIDDEN1
100
AcDbLine
 10
147.6239999999999
 20
74.9922
 30
0.0
 11
147.6239999999999
 21
74.47669999999999
 31
0.0
  0
CIRCLE
  5
2AA0
330
1F
100
AcDbEntity
  8
CONTINUOUS1
100
AcDbCircle
 10
146.682
 20
73.22669999999999
 30
0.0
 40
0.1409999999999911
  0
LINE
  5
2AA1
330
1F
100
AcDbEntity
  8
CONTINUOUS1
100
AcDbLine
 10
145.8719999999999
 20
74.3117
 30
0.0
 11
149.372
 21
74.3117
 31
0.0
  0
CIRCLE
  5
2AA2
330
1F
100
AcDbEntity
  8
CONTINUOUS1
100
AcDbCircle
 10
148.5619999999999
 20
73.22669999999999
 30
0.0
 40
0.1410000000000195
  0
LWPOLYLINE
  5
2AA3
330
1F
100
AcDbEntity
  8
CONTINUOUS1
100
AcDbPolyline
 90
       10
 70
     0
 43
0.0
 10
126.4639999999999
 20
50.801
 42
-0.2610162530527429
 10
126.2889978066932
 20
50.81928104571744
 42
-0.2607284289993173
 10
126.2129999999999
 20
50.97809999999999
 10
126.353
 20
53.1245
 10
126.3349999999999
 20
53.22479999999999
 10
126.7079999999999
 20
53.2939
 10
126.727
 20
53.19359999999999
 42
0.1997767835159739
 10
126.7769019933661
 20
53.11653893481881
 42
0.1985735004531863
 10
126.8669999999999
 20
53.09739999999999
 10
127.237
 20
53.16600000000001
  0
LINE
  5
2AA4
330
1F
100
AcDbEntity
  8
CONTINUOUS1
100
AcDbLine
 10
126.782
 20
50.9379
 30
0.0
 11
126.4639999999999
 21
50.801
 31
0.0
  0
LINE
  5
2AA5
330
1F
100
AcDbEntity
  8
CONTINUOUS1
100
AcDbLine
 10
126.727
 20
53.19359999999999
 30
0.0
 11
126.353
 21
53.1245
 31
0.0
  0
LWPOLYLINE
  5
2AA6
330
1F
100
AcDbEntity
  8
CONTINUOUS1
100
AcDbPolyline
 90
        4
 70
     1
 43
0.0
 10
86.39087640245035
 20
62.2716024965501
 10
86.39087640245035
 20
74.2716024965501
 10
85.89087640245034
 20
74.2716024965501
 10
85.89087640245034
 20
62.2716024965501
  0
CIRCLE
  5
2AA7
330
1F
100
AcDbEntity
  8
CONTINUOUS1
100
AcDbCircle
 10
86.15187640245036
 20
74.62480249655012
 30
0.0
 40
0.375
  0
LWPOLYLINE
  5
2AA8
330
1F
100
AcDbEntity
  8
HIDDEN1
100
AcDbPolyline
 90
       13
 70
     1
 43
0.0
 10
63.20529999999999
 20
91.32659999999999
 42
0.1982209656584117
 10
63.15929133265768
 20
91.30756099450506
 42
0.199080114018038
 10
63.1402
 20
91.2617
 42
0.198681367414622
 10
63.15929133265768
 20
91.21565109858076
 42
0.19906914000447
 10
63.20529999999999
 20
91.19659999999999
 10
63.7039
 20
91.19659999999999
 10
63.70435676994684
 20
91.19658307683017
 10
63.70449999999999
 20
91.19669999999999
 42
0.1981992224372836
 10
63.75138402657248
 20
91.21591631743944
 42
0.0986179383474294
 10
63.76581362028723
 20
91.23725974458414
 42
0.0994780154175055
 10
63.77089999999999
 20
91.26239999999999
 42
0.1959956826678533
 10
63.75114084446394
 20
91.30787065727679
 42
0.1964283026909187
 10
63.70529999999999
 20
91.32659999999999
  0
LWPOLYLINE
  5
2AA9
330
1F
100
AcDbEntity
  8
HIDDEN1
100
AcDbPolyline
 90
       12
 70
     1
 43
0.0
 10
61.71549999999999
 20
91.32659999999999
 42
0.1982219100390149
 10
61.66943133393841
 20
91.30753170518195
 42
0.1989763357960237
 10
61.6503
 20
91.2616
 42
0.1987771352536448
 10
61.66943133393841
 20
91.21559251993451
 42
0.1984704161902162
 10
61.71549999999999
 20
91.1965
 10
62.214
 20
91.1965
 10
62.21445963613405
 20
91.19652763947772
 10
62.2146
 20
91.19659999999999
 42
0.1978558142235389
 10
62.26151102355466
 20
91.21585247730342
 42
0.0986725385574294
 10
62.27593359150803
 20
91.23718649492268
 42
0.0996739373597286
 10
62.28100000000001
 20
91.26229999999999
 42
0.4082693381641106
 10
62.2154
 20
91.32649999999999
  0
LWPOLYLINE
  5
2AAA
330
1F
100
AcDbEntity
  8
HIDDEN1
100
AcDbPolyline
 90
       11
 70
     1
 43
0.0
 10
84.4306
 20
91.32659999999999
 42
0.1982213077357029
 10
84.38456084790145
 20
91.30756099450506
 42
0.1993751990588607
 10
84.3655
 20
91.2617
 42
0.4139666661830371
 10
84.4306
 20
91.19659999999999
 10
84.92919999999999
 20
91.19659999999999
 10
84.9296557899723
 20
91.19656569075685
 10
84.92980000000001
 20
91.19669999999999
 42
0.1978093344153653
 10
84.97670274136616
 20
91.21595769996099
 42
0.0986241366896606
 10
84.99112759282491
 20
91.23729051506646
 42
0.0996482426073761
 10
84.9962
 20
91.26239999999999
 42
0.4078016583976315
 10
84.93059999999999
 20
91.32659999999999
  0
LWPOLYLINE
  5
2AAB
330
1F
100
AcDbEntity
  8
HIDDEN1
100
AcDbPolyline
 90
       13
 70
     1
 43
0.0
 10
86.0125
 20
91.32659999999999
 42
0.1982211230089612
 10
85.96647718916061
 20
91.30756099450506
 42
0.1992170154627155
 10
85.94739999999999
 20
91.2617
 42
0.4141439878163621
 10
86.0125
 20
91.19659999999999
 10
86.5111
 20
91.19659999999999
 10
86.51146042570621
 20
91.19659502699393
 10
86.51160000000002
 20
91.19669999999999
 42
0.1980912791534808
 10
86.55854973593239
 20
91.21592726153954
 42
0.0989002980450026
 10
86.572962118443
 20
91.23726769344612
 42
0.0998029856384067
 10
86.57799999999999
 20
91.26239999999999
 42
0.1959114632491229
 10
86.55828211122928
 20
91.30784207862602
 42
0.0969309948185323
 10
86.53719238176494
 20
91.32172962904141
 42
0.0975628834441481
 10
86.51249999999999
 20
91.32659999999999
  0
LINE
  5
2AAC
330
1F
100
AcDbEntity
  8
HIDDEN1
100
AcDbLine
 10
63.79349999999999
 20
91.32659999999999
 30
0.0
 11
61.6535
 21
91.32659999999999
 31
0.0
  0
LINE
  5
2AAD
330
1F
100
AcDbEntity
  8
HIDDEN1
100
AcDbLine
 10
84.3534
 20
91.32659999999999
 30
0.0
 11
86.6534
 21
91.32659999999999
 31
0.0
  0
LINE
  5
2AAE
330
1F
100
AcDbEntity
  8
CENTER1
100
AcDbLine
 10
64.54340000000001
 20
90.8267
 30
0.0
 11
64.54340000000001
 21
91.9067
 31
0.0
  0
LINE
  5
2AAF
330
1F
100
AcDbEntity
  8
CENTER1
100
AcDbLine
 10
67.5364
 20
91.879
 30
0.0
 11
67.5364
 21
90.7389
 31
0.0
  0
LINE
  5
2AB0
330
1F
100
AcDbEntity
  8
CENTER1
100
AcDbLine
 10
73.5364
 20
91.879
 30
0.0
 11
73.5364
 21
90.7389
 31
0.0
  0
LINE
  5
2AB1
330
1F
100
AcDbEntity
  8
CENTER1
100
AcDbLine
 10
79.53630000000001
 20
91.879
 30
0.0
 11
79.53630000000001
 21
90.7389
 31
0.0
  0
LINE
  5
2AB2
330
1F
100
AcDbEntity
  8
CENTER1
100
AcDbLine
 10
85.5363
 20
91.879
 30
0.0
 11
85.5363
 21
90.7389
 31
0.0
  0
LINE
  5
2AB3
330
1F
100
AcDbEntity
  8
CENTER1
100
AcDbLine
 10
83.60329999999999
 20
90.8267
 30
0.0
 11
83.60329999999999
 21
91.9067
 31
0.0
  0
LWPOLYLINE
  5
2AB4
330
1F
100
AcDbEntity
  8
HIDDEN1
100
AcDbPolyline
 90
        4
 70
     1
 43
0.0
 10
84.3534
 20
90.32669999999999
 10
63.79349999999999
 20
90.32669999999999
 10
63.79349999999999
 20
91.32659999999999
 10
84.3534
 20
91.32659999999999
  0
CIRCLE
  5
2AB5
330
1F
100
AcDbEntity
  8
CONTINUOUS1
100
AcDbCircle
 10
85.03087640245034
 20
44.0368024965501
 30
0.0
 40
0.2199809309917589
  0
CIRCLE
  5
2AB6
330
1F
100
AcDbEntity
  8
CONTINUOUS1
100
AcDbCircle
 10
86.16087640245035
 20
44.0368024965501
 30
0.0
 40
0.2199809309917489
  0
CIRCLE
  5
2AB7
330
1F
100
AcDbEntity
  8
CONTINUOUS1
100
AcDbCircle
 10
85.59087640245035
 20
43.15680249655011
 30
0.0
 40
0.6899947970818378
  0
CIRCLE
  5
2ABA
330
1F
100
AcDbEntity
  8
CONTINUOUS1
100
AcDbCircle
 10
86.16087640245035
 20
65.40670249655011
 30
0.0
 40
0.1954999999999956
  0
LWPOLYLINE
  5
2ABC
330
1F
100
AcDbEntity
  8
CONTINUOUS1
100
AcDbPolyline
 90
        4
 70
     1
 43
0.0
 10
86.02037640245034
 20
48.64630249655011
 10
86.02037640245034
 20
48.92730249655011
 10
86.30137640245035
 20
48.92730249655011
 10
86.30137640245035
 20
48.64630249655011
  0
LWPOLYLINE
  5
2ABD
330
1F
100
AcDbEntity
  8
CONTINUOUS1
100
AcDbPolyline
 90
        4
 70
     1
 43
0.0
 10
84.89037640245035
 20
46.39630249655011
 10
84.89037640245035
 20
46.67730249655011
 10
85.17137640245035
 20
46.67730249655011
 10
85.17137640245035
 20
46.39630249655011
  0
CIRCLE
  5
2ABF
330
1F
100
AcDbEntity
  8
CONTINUOUS1
100
AcDbCircle
 10
86.16087640245035
 20
56.90670249655011
 30
0.0
 40
0.1954999999999956
  0
LWPOLYLINE
  5
2AC0
330
1F
100
AcDbEntity
  8
CONTINUOUS1
100
AcDbPolyline
 90
        8
 70
     1
 43
0.0
 10
86.50087640245034
 20
64.8167024965501
 10
85.78087640245035
 20
64.8167024965501
 10
85.78087640245035
 20
60.71680249655011
 10
86.00087640245035
 20
60.71680249655011
 10
86.00087640245035
 20
59.41670249655011
 10
86.32087640245037
 20
59.41670249655011
 10
86.32087640245037
 20
60.71680249655011
 10
86.50087640245034
 20
60.71680249655011
  0
LINE
  5
2AC1
330
1F
100
AcDbEntity
  8
HIDDEN1
100
AcDbLine
 10
61.6535
 20
25.4868
 30
0.0
 11
61.6535
 21
91.4067
 31
0.0
  0
LWPOLYLINE
  5
2AC2
330
1F
100
AcDbEntity
  8
HIDDEN1
100
AcDbPolyline
 90
        3
 70
     0
 43
0.0
 10
61.5735
 20
91.0942
 10
61.5735
 20
91.4067
 10
86.73339999999999
 20
91.4067
  0
LINE
  5
2AC3
330
1F
100
AcDbEntity
  8
HIDDEN1
100
AcDbLine
 10
86.6534
 20
25.4868
 30
0.0
 11
86.6534
 21
91.4067
 31
0.0
  0
LINE
  5
2AC4
330
1F
100
AcDbEntity
  8
HIDDEN1
100
AcDbLine
 10
63.7934
 20
87.3267
 30
0.0
 11
84.3534
 21
87.3267
 31
0.0
  0
LWPOLYLINE
  5
2AC5
330
1F
100
AcDbEntity
  8
HIDDEN1
100
AcDbPolyline
 90
        3
 70
     0
 43
0.0
 10
84.27350000000002
 20
27.8668
 10
84.3534
 20
27.8668
 10
84.3534
 20
88.28659999999999
  0
LINE
  5
2AC6
330
1F
100
AcDbEntity
  8
HIDDEN1
100
AcDbLine
 10
84.3534
 20
88.28659999999999
 30
0.0
 11
63.7934
 21
88.28659999999999
 31
0.0
  0
LWPOLYLINE
  5
2AC7
330
1F
100
AcDbEntity
  8
HIDDEN1
100
AcDbPolyline
 90
        3
 70
     0
 43
0.0
 10
63.7934
 20
88.28659999999999
 10
63.7934
 20
27.8668
 10
63.87349999999999
 20
27.8668
  0
LINE
  5
2AC8
330
1F
100
AcDbEntity
  8
CONTINUOUS1
100
AcDbLine
 10
63.83549999999999
 20
88.25610000000002
 30
0.0
 11
63.83549999999999
 21
91.376
 31
0.0
  0
LINE
  5
2AC9
330
1F
100
AcDbEntity
  8
CONTINUOUS1
100
AcDbLine
 10
84.31087640245035
 20
88.2560024965501
 30
0.0
 11
84.31087640245035
 21
91.37600249655012
 31
0.0
  0
LWPOLYLINE
  5
2ACA
330
1F
100
AcDbEntity
  8
HIDDEN1
100
AcDbPolyline
 90
        4
 70
     0
 43
0.0
 10
63.87349999999999
 20
27.8668
 10
63.87349999999999
 20
87.2466
 10
84.27350000000002
 20
87.2466
 10
84.27350000000002
 20
27.8668
  0
LWPOLYLINE
  5
2ACF
330
1F
100
AcDbEntity
  8
HIDDEN1
100
AcDbPolyline
 90
       14
 70
     1
 43
0.0
 10
86.3235
 20
26.6168
 42
-0.1992116233987345
 10
86.3693518285611
 20
26.59775147496388
 42
-0.1988142732000124
 10
86.3883
 20
26.5518
 42
-0.1988141982351764
 10
86.3693518285611
 20
26.50584157903958
 42
-0.1992788090337756
 10
86.3235
 20
26.4868
 10
85.82489999999999
 20
26.4868
 10
85.82425718455947
 20
26.48678147392449
 10
85.82399999999999
 20
26.4868
 42
-0.1977362601715572
 10
85.7771154635253
 20
26.50606541279027
 42
-0.0985250509316668
 10
85.76268588333164
 20
26.52739621617033
 42
-0.0995779138814013
 10
85.7576
 20
26.5525
 42
-0.0976536453378142
 10
85.76303529049482
 20
26.57715000920652
 42
-0.0969050393316368
 10
85.77744323442166
 20
26.59799685484587
 42
-0.1956021076115812
 10
85.82349999999999
 20
26.6168
  0
LWPOLYLINE
  5
2AD0
330
1F
100
AcDbEntity
  8
HIDDEN1
100
AcDbPolyline
 90
       14
 70
     1
 43
0.0
 10
80.32349999999999
 20
26.6168
 42
-0.1992115038475848
 10
80.36931683185118
 20
26.59775147496388
 42
-0.1984763592936261
 10
80.38830000000002
 20
26.5518
 42
-0.1984763715029515
 10
80.36931683185118
 20
26.50584157903958
 42
-0.1992787771072692
 10
80.32349999999999
 20
26.4868
 10
79.8249
 20
26.4868
 10
79.82430516017998
 20
26.48678147392449
 10
79.8241
 20
26.4868
 42
-0.197540270175434
 10
79.77711190203665
 20
26.50606541279027
 42
-0.0987314393485204
 10
79.76266915919947
 20
26.52739621617033
 42
-0.099867594858978
 10
79.7576
 20
26.5525
 42
-0.0976217318256736
 10
79.76304022717322
 20
26.57715000920652
 42
-0.0968739633767047
 10
79.77744990337132
 20
26.59799685484587
 42
-0.1956020871410128
 10
79.8235
 20
26.6168
  0
LWPOLYLINE
  5
2AD1
330
1F
100
AcDbEntity
  8
HIDDEN1
100
AcDbPolyline
 90
       14
 70
     1
 43
0.0
 10
68.32349999999999
 20
26.6168
 42
-0.1990112770379835
 10
68.36939328504694
 20
26.59775147496388
 42
-0.1987321553123226
 10
68.38840000000001
 20
26.5518
 42
-0.1987321514008553
 10
68.36939328504694
 20
26.50584157903958
 42
-0.1990784271141172
 10
68.32349999999999
 20
26.4868
 10
67.8249
 20
26.4868
 10
67.8243228105981
 20
26.48677042245663
 10
67.8241
 20
26.4868
 42
-0.1976885037111947
 10
67.7771520726262
 20
26.50607011578874
 42
-0.09880896556796
 10
67.76273910082628
 20
26.52739954684716
 42
-0.0998807805854286
 10
67.7577
 20
26.5525
 42
-0.0975128427248193
 10
67.763131192535
 20
26.57714332286018
 42
-0.0968089848550907
 10
67.77751889348417
 20
26.59798801587135
 42
-0.1957159554046743
 10
67.8235
 20
26.6168
  0
LWPOLYLINE
  5
2AD2
330
1F
100
AcDbEntity
  8
HIDDEN1
100
AcDbPolyline
 90
       14
 70
     1
 43
0.0
 10
62.3235
 20
26.6168
 42
-0.1990111613803525
 10
62.36935828833703
 20
26.59775147496388
 42
-0.1983942520709143
 10
62.38839999999999
 20
26.5518
 42
-0.1983943353352452
 10
62.36935828833703
 20
26.50584157903958
 42
-0.1990783989992384
 10
62.3235
 20
26.4868
 10
61.8249
 20
26.4868
 10
61.82432408335335
 20
26.48678147392449
 10
61.8241
 20
26.4868
 42
-0.1975404028580013
 10
61.77713057308818
 20
26.50606541279027
 42
-0.0986451810968629
 10
61.7626829751726
 20
26.52739621617033
 42
-0.099780221408685
 10
61.7576
 20
26.5525
 42
-0.0975259766520061
 10
61.76305503720843
 20
26.57715000920652
 42
-0.0967807566751695
 10
61.77746991022036
 20
26.59799685484587
 42
-0.1956020289041209
 10
61.82349999999999
 20
26.6168
  0
LINE
  5
2AD3
330
1F
100
AcDbEntity
  8
HIDDEN1
100
AcDbLine
 10
61.5735
 20
26.4868
 30
0.0
 11
86.73349999999999
 21
26.4868
 31
0.0
  0
LWPOLYLINE
  5
2AD4
330
1F
100
AcDbEntity
  8
CONTINUOUS1
100
AcDbPolyline
 90
        4
 70
     0
 43
0.0
 10
61.61559999999999
 20
91.0636
 10
61.61559999999999
 20
25.4068
 10
86.69097640245034
 20
25.40680249655011
 10
86.69097640245034
 20
91.06350249655012
  0
LWPOLYLINE
  5
2AD5
330
1F
100
AcDbEntity
  8
HIDDEN1
100
AcDbPolyline
 90
        3
 70
     0
 43
0.0
 10
86.73349999999999
 20
91.4067
 10
61.5735
 20
91.4067
 10
61.5735
 20
91.0942
  0
LINE
  5
2B4E
330
1F
100
AcDbEntity
  8
HIDDEN1
100
AcDbLine
 10
150.607
 20
26.96089999999999
 30
0.0
 11
150.8259999999999
 21
26.96089999999999
 31
0.0
  0
LINE
  5
2B4F
330
1F
100
AcDbEntity
  8
HIDDEN1
100
AcDbLine
 10
150.8259999999999
 20
26.5924
 30
0.0
 11
150.607
 21
26.5924
 31
0.0
  0
LINE
  5
2B60
330
1F
100
AcDbEntity
  8
CONTINUOUS1
100
AcDbLine
 10
151.1399999999999
 20
91.42180000000001
 30
0.0
 11
151.095
 21
91.37640000000002
 31
0.0
  0
LINE
  5
2B61
330
1F
100
AcDbEntity
  8
CONTINUOUS1
100
AcDbLine
 10
150.2169999999999
 20
91.37640000000002
 30
0.0
 11
150.2969999999999
 21
91.45630000000002
 31
0.0
  0
LINE
  5
2B62
330
1F
100
AcDbEntity
  8
CONTINUOUS1
100
AcDbLine
 10
149.413
 20
91.45630000000002
 30
0.0
 11
149.333
 21
91.37640000000002
 31
0.0
  0
LINE
  5
2B63
330
1F
100
AcDbEntity
  8
CONTINUOUS1
100
AcDbLine
 10
148.449
 20
91.37640000000002
 30
0.0
 11
148.5289999999999
 21
91.45630000000002
 31
0.0
  0
LINE
  5
2B64
330
1F
100
AcDbEntity
  8
CONTINUOUS1
100
AcDbLine
 10
147.6449999999999
 20
91.45630000000002
 30
0.0
 11
147.5649999999999
 21
91.37640000000002
 31
0.0
  0
LINE
  5
2B65
330
1F
100
AcDbEntity
  8
CONTINUOUS1
100
AcDbLine
 10
146.681
 20
91.37640000000002
 30
0.0
 11
146.761
 21
91.45630000000002
 31
0.0
  0
LINE
  5
2B66
330
1F
100
AcDbEntity
  8
CONTINUOUS1
100
AcDbLine
 10
145.877
 20
91.45630000000002
 30
0.0
 11
145.7969999999999
 21
91.37640000000002
 31
0.0
  0
LINE
  5
2B67
330
1F
100
AcDbEntity
  8
CONTINUOUS1
100
AcDbLine
 10
144.914
 20
91.37640000000002
 30
0.0
 11
144.9929999999999
 21
91.45630000000002
 31
0.0
  0
LINE
  5
2B68
330
1F
100
AcDbEntity
  8
CONTINUOUS1
100
AcDbLine
 10
144.1099999999999
 20
91.45630000000002
 30
0.0
 11
144.03
 21
91.37640000000002
 31
0.0
  0
LINE
  5
2B69
330
1F
100
AcDbEntity
  8
CONTINUOUS1
100
AcDbLine
 10
143.146
 20
91.37640000000002
 30
0.0
 11
143.226
 21
91.45630000000002
 31
0.0
  0
LINE
  5
2B6A
330
1F
100
AcDbEntity
  8
CONTINUOUS1
100
AcDbLine
 10
142.3419999999999
 20
91.45630000000002
 30
0.0
 11
142.262
 21
91.37640000000002
 31
0.0
  0
LINE
  5
2B6B
330
1F
100
AcDbEntity
  8
CONTINUOUS1
100
AcDbLine
 10
141.378
 20
91.37640000000002
 30
0.0
 11
141.4579999999999
 21
91.45630000000002
 31
0.0
  0
LINE
  5
2B6C
330
1F
100
AcDbEntity
  8
CONTINUOUS1
100
AcDbLine
 10
140.5739999999999
 20
91.45630000000002
 30
0.0
 11
140.494
 21
91.37640000000002
 31
0.0
  0
LINE
  5
2B6D
330
1F
100
AcDbEntity
  8
CONTINUOUS1
100
AcDbLine
 10
139.61
 20
91.37640000000002
 30
0.0
 11
139.69
 21
91.45630000000002
 31
0.0
  0
LINE
  5
2B6E
330
1F
100
AcDbEntity
  8
CONTINUOUS1
100
AcDbLine
 10
138.8059999999999
 20
91.45630000000002
 30
0.0
 11
138.7259999999999
 21
91.37640000000002
 31
0.0
  0
LINE
  5
2B6F
330
1F
100
AcDbEntity
  8
CONTINUOUS1
100
AcDbLine
 10
137.8429999999999
 20
91.37640000000002
 30
0.0
 11
137.9219999999999
 21
91.45630000000002
 31
0.0
  0
LINE
  5
2B70
330
1F
100
AcDbEntity
  8
CONTINUOUS1
100
AcDbLine
 10
137.0379999999999
 20
91.45630000000002
 30
0.0
 11
136.959
 21
91.37640000000002
 31
0.0
  0
LINE
  5
2B71
330
1F
100
AcDbEntity
  8
CONTINUOUS1
100
AcDbLine
 10
136.0749999999999
 20
91.37640000000002
 30
0.0
 11
136.155
 21
91.45630000000002
 31
0.0
  0
LINE
  5
2B72
330
1F
100
AcDbEntity
  8
CONTINUOUS1
100
AcDbLine
 10
135.271
 20
91.45630000000002
 30
0.0
 11
135.1909999999999
 21
91.37640000000002
 31
0.0
  0
LINE
  5
2B73
330
1F
100
AcDbEntity
  8
CONTINUOUS1
100
AcDbLine
 10
134.3069999999999
 20
91.37640000000002
 30
0.0
 11
134.387
 21
91.45630000000002
 31
0.0
  0
LINE
  5
2B74
330
1F
100
AcDbEntity
  8
CONTINUOUS1
100
AcDbLine
 10
133.503
 20
91.45630000000002
 30
0.0
 11
133.423
 21
91.3765
 31
0.0
  0
LINE
  5
2B75
330
1F
100
AcDbEntity
  8
CONTINUOUS1
100
AcDbLine
 10
132.5389999999999
 20
91.3765
 30
0.0
 11
132.6189999999999
 21
91.45630000000002
 31
0.0
  0
LINE
  5
2B76
330
1F
100
AcDbEntity
  8
CONTINUOUS1
100
AcDbLine
 10
131.735
 20
91.45630000000002
 30
0.0
 11
131.655
 21
91.3765
 31
0.0
  0
LINE
  5
2B77
330
1F
100
AcDbEntity
  8
CONTINUOUS1
100
AcDbLine
 10
130.7709999999999
 20
91.3765
 30
0.0
 11
130.851
 21
91.45630000000002
 31
0.0
  0
LINE
  5
2B78
330
1F
100
AcDbEntity
  8
CONTINUOUS1
100
AcDbLine
 10
129.967
 20
91.45630000000002
 30
0.0
 11
129.888
 21
91.3765
 31
0.0
  0
LINE
  5
2B79
330
1F
100
AcDbEntity
  8
CONTINUOUS1
100
AcDbLine
 10
129.0039999999999
 20
91.3765
 30
0.0
 11
129.0839999999999
 21
91.45630000000002
 31
0.0
  0
LINE
  5
2B86
330
1F
100
AcDbEntity
  8
HIDDEN1
100
AcDbLine
 10
130.278
 20
55.1567
 30
0.0
 11
130.6039999999999
 21
55.1567
 31
0.0
  0
LINE
  5
2B87
330
1F
100
AcDbEntity
  8
HIDDEN1
100
AcDbLine
 10
130.7909999999999
 20
55.1567
 30
0.0
 11
131.1289999999999
 21
55.1567
 31
0.0
  0
LINE
  5
2B88
330
1F
100
AcDbEntity
  8
HIDDEN1
100
AcDbLine
 10
131.317
 20
55.1567
 30
0.0
 11
131.6419999999999
 21
55.1567
 31
0.0
  0
LINE
  5
2B89
330
1F
100
AcDbEntity
  8
HIDDEN1
100
AcDbLine
 10
130.96
 20
55.83849999999999
 30
0.0
 11
130.96
 21
55.5132
 31
0.0
  0
LINE
  5
2B8A
330
1F
100
AcDbEntity
  8
HIDDEN1
100
AcDbLine
 10
130.96
 20
55.32569999999999
 30
0.0
 11
130.96
 21
54.9876
 31
0.0
  0
LWPOLYLINE
  5
2B8B
330
1F
100
AcDbEntity
  8
HIDDEN1
100
AcDbPolyline
 90
        3
 70
     0
 43
0.0
 10
130.96
 20
54.8001
 10
130.96
 20
54.47479999999999
 10
130.96
 20
55.1567
  0
LINE
  5
2B8C
330
1F
100
AcDbEntity
  8
HIDDEN1
100
AcDbLine
 10
132.1519999999999
 20
73.00620000000001
 30
0.0
 11
132.1519999999999
 21
73.44719999999999
 31
0.0
  0
LINE
  5
2B8D
330
1F
100
AcDbEntity
  8
HIDDEN1
100
AcDbLine
 10
132.3719999999999
 20
73.2268
 30
0.0
 11
131.9309999999999
 21
73.2268
 31
0.0
  0
LINE
  5
2B8E
330
1F
100
AcDbEntity
  8
HIDDEN1
100
AcDbLine
 10
132.901
 20
73.00629999999999
 30
0.0
 11
132.901
 21
73.4473
 31
0.0
  0
LINE
  5
2B8F
330
1F
100
AcDbEntity
  8
HIDDEN1
100
AcDbLine
 10
133.122
 20
73.2268
 30
0.0
 11
132.681
 21
73.2268
 31
0.0
  0
LINE
  5
2B90
330
1F
100
AcDbEntity
  8
HIDDEN1
100
AcDbLine
 10
134.796
 20
56.89619999999999
 30
0.0
 11
134.796
 21
57.33719999999999
 31
0.0
  0
LINE
  5
2B91
330
1F
100
AcDbEntity
  8
HIDDEN1
100
AcDbLine
 10
135.017
 20
57.11669999999999
 30
0.0
 11
134.576
 21
57.11669999999999
 31
0.0
  0
LINE
  5
2B92
330
1F
100
AcDbEntity
  8
HIDDEN1
100
AcDbLine
 10
134.796
 20
60.9762
 30
0.0
 11
134.796
 21
61.4172
 31
0.0
  0
LINE
  5
2B93
330
1F
100
AcDbEntity
  8
HIDDEN1
100
AcDbLine
 10
135.017
 20
61.1967
 30
0.0
 11
134.576
 21
61.1967
 31
0.0
  0
LINE
  5
2B94
330
1F
100
AcDbEntity
  8
HIDDEN1
100
AcDbLine
 10
131.962
 20
62.4962
 30
0.0
 11
131.962
 21
62.9372
 31
0.0
  0
LINE
  5
2B95
330
1F
100
AcDbEntity
  8
HIDDEN1
100
AcDbLine
 10
132.183
 20
62.7167
 30
0.0
 11
131.742
 21
62.7167
 31
0.0
  0
LINE
  5
2B96
330
1F
100
AcDbEntity
  8
HIDDEN1
100
AcDbLine
 10
132.3679999999999
 20
63.37620000000001
 30
0.0
 11
132.3679999999999
 21
63.8172
 31
0.0
  0
LINE
  5
2B97
330
1F
100
AcDbEntity
  8
HIDDEN1
100
AcDbLine
 10
132.589
 20
63.59670000000001
 30
0.0
 11
132.1479999999999
 21
63.59670000000001
 31
0.0
  0
LINE
  5
2B98
330
1F
100
AcDbEntity
  8
HIDDEN1
100
AcDbLine
 10
134.43
 20
63.37620000000001
 30
0.0
 11
134.43
 21
63.8172
 31
0.0
  0
LINE
  5
2B99
330
1F
100
AcDbEntity
  8
HIDDEN1
100
AcDbLine
 10
134.651
 20
63.59670000000001
 30
0.0
 11
134.2099999999999
 21
63.59670000000001
 31
0.0
  0
LINE
  5
2B9A
330
1F
100
AcDbEntity
  8
HIDDEN1
100
AcDbLine
 10
134.3579999999999
 20
58.95240000000001
 30
0.0
 11
134.8
 21
59.3943
 31
0.0
  0
LINE
  5
2B9B
330
1F
100
AcDbEntity
  8
HIDDEN1
100
AcDbLine
 10
134.3579999999999
 20
59.3943
 30
0.0
 11
134.8
 21
58.95240000000001
 31
0.0
  0
LINE
  5
2B9C
330
1F
100
AcDbEntity
  8
HIDDEN1
100
AcDbLine
 10
134.579
 20
52.0128
 30
0.0
 11
134.579
 21
52.4538
 31
0.0
  0
LINE
  5
2B9D
330
1F
100
AcDbEntity
  8
HIDDEN1
100
AcDbLine
 10
134.799
 20
52.2334
 30
0.0
 11
134.3579999999999
 21
52.2334
 31
0.0
  0
LINE
  5
2B9E
330
1F
100
AcDbEntity
  8
HIDDEN1
100
AcDbLine
 10
127.7889999999999
 20
56.2928
 30
0.0
 11
127.7889999999999
 21
56.7338
 31
0.0
  0
LINE
  5
2B9F
330
1F
100
AcDbEntity
  8
HIDDEN1
100
AcDbLine
 10
128.009
 20
56.5133
 30
0.0
 11
127.5679999999999
 21
56.5133
 31
0.0
  0
LINE
  5
2BA0
330
1F
100
AcDbEntity
  8
HIDDEN1
100
AcDbLine
 10
131.7409999999999
 20
58.9358
 30
0.0
 11
132.183
 21
59.3777
 31
0.0
  0
LINE
  5
2BA1
330
1F
100
AcDbEntity
  8
HIDDEN1
100
AcDbLine
 10
131.7409999999999
 20
59.3777
 30
0.0
 11
132.183
 21
58.9358
 31
0.0
  0
LINE
  5
2BA2
330
1F
100
AcDbEntity
  8
CONTINUOUS1
100
AcDbLine
 10
127.0519999999999
 20
91.3761
 30
0.0
 11
127.0519999999999
 21
53.1318
 31
0.0
  0
LWPOLYLINE
  5
2BA3
330
1F
100
AcDbEntity
  8
CONTINUOUS1
100
AcDbPolyline
 90
        4
 70
     0
 43
0.0
 10
127.0519999999999
 20
51.0541
 10
127.0519999999999
 20
25.4068
 10
150.752
 20
25.4068
 10
150.752
 20
91.376
  0
LINE
  5
2BA4
330
1F
100
AcDbEntity
  8
HIDDEN1
100
AcDbLine
 10
126.6369999999999
 20
27.8668
 30
0.0
 11
126.6369999999999
 21
53.28079999999999
 31
0.0
  0
LINE
  5
2BA5
330
1F
100
AcDbEntity
  8
HIDDEN1
100
AcDbLine
 10
126.6369999999999
 20
50.8755
 30
0.0
 11
126.6369999999999
 21
87.2466
 31
0.0
  0
LINE
  5
2BDF
330
1F
100
AcDbEntity
  8
CONTINUOUS1
100
AcDbLine
 10
128.1999999999999
 20
91.45630000000002
 30
0.0
 11
128.12
 21
91.3765
 31
0.0
  0
LINE
  5
2BE0
330
1F
100
AcDbEntity
  8
CONTINUOUS1
100
AcDbLine
 10
126.978
 20
91.11850000000002
 30
0.0
 11
127.0529999999999
 21
91.19370000000001
 31
0.0
  0
LINE
  5
2BE1
330
1F
100
AcDbEntity
  8
CONTINUOUS1
100
AcDbLine
 10
127.2359999999999
 20
91.3765
 30
0.0
 11
127.316
 21
91.45630000000002
 31
0.0
  0
INSERT
  5
3713
330
1F
100
AcDbEntity
  8
0
100
AcDbBlockReference
  2
SETUP
 10
170.7257903130669
 20
107.577023803571
 30
0.0
  0
INSERT
  5
3714
330
1F
100
AcDbEntity
  8
0
100
AcDbBlockReference
  2
MEDCLUMP_DMS_1142_
 10
164.7586023366532
 20
101.4903466549904
 30
0.0
  0
INSERT
  5
3715
330
1F
100
AcDbEntity
  8
0
100
AcDbBlockReference
  2
MEDCLUMP_DMS_1450_
 10
164.7586023366532
 20
101.4903466549904
 30
0.0
  0
INSERT
  5
3716
330
1F
100
AcDbEntity
  8
0
100
AcDbBlockReference
  2
MEDCLUMP_DMS_1474_
 10
164.7586023366532
 20
101.4903466549904
 30
0.0
  0
INSERT
  5
3717
330
1F
100
AcDbEntity
  8
0
  6
CONTINUOUS
100
AcDbBlockReference
  2
SETUP
 10
200.2210330727556
 20
111.9638351367666
 30
0.0
  0
MTEXT
  5
3718
330
1F
100
AcDbEntity
  8
0
100
AcDbMText
 10
164.7015988475681
 20
112.3903406549904
 30
0.0
 40
0.2
 41
0.0
 71
     9
 72
     1
  1

  7
ROMANS
1001
ACAD
1000
MTEXTBEGIN
1070
    73
1070
     1
1070
    44
1040
1.0
1070
    74
1070
     0
1000
MTEXTEND
  0
MTEXT
  5
3719
330
1F
100
AcDbEntity
  8
0
100
AcDbMText
 10
353.0712462786797
 20
320.7169687499913
 30
0.0
 40
0.2
 41
81.2324
 71
     1
 72
     5
  1

  7
ROMANS
1001
ACAD
1000
MTEXTBEGIN
1070
    73
1070
     1
1070
    44
1040
1.0
1070
    74
1070
     0
1000
MTEXTEND
  0
MTEXT
  5
371A
330
1F
100
AcDbEntity
  8
0
100
AcDbMText
 10
217.6329873366533
 20
355.9090946549904
 30
0.0
 40
0.2
 41
0.0
 71
     9
 72
     1
  1

  7
ROMANS
1001
ACAD
1000
MTEXTBEGIN
1070
    73
1070
     1
1070
    44
1040
1.0
1070
    74
1070
     0
1000
MTEXTEND
  0
MTEXT
  5
371B
330
1F
100
AcDbEntity
  8
0
100
AcDbMText
 10
282.3282933366533
 20
303.1117216549904
 30
0.0
 40
0.2
 41
0.0
 71
     1
 72
     1
  1

  7
ROMANS
1001
ACAD
1000
MTEXTBEGIN
1070
    73
1070
     1
1070
    44
1040
1.0
1070
    74
1070
     0
1000
MTEXTEND
  0
MTEXT
  5
371C
330
1F
100
AcDbEntity
  8
0
100
AcDbMText
 10
301.7927123366533
 20
342.6654046549904
 30
0.0
 40
0.2
 41
0.0
 71
     1
 72
     1
  1

  7
ROMANS
1001
ACAD
1000
MTEXTBEGIN
1070
    73
1070
     1
1070
    44
1040
1.0
1070
    74
1070
     0
1000
MTEXTEND
  0
MTEXT
  5
371D
330
1F
100
AcDbEntity
  8
0
100
AcDbMText
 10
282.3282933366533
 20
351.8791286549904
 30
0.0
 40
0.2
 41
0.0
 71
     1
 72
     1
  1

  7
ROMANS
1001
ACAD
1000
MTEXTBEGIN
1070
    73
1070
     1
1070
    44
1040
1.0
1070
    74
1070
     0
1000
MTEXTEND
  0
MTEXT
  5
371E
330
1F
100
AcDbEntity
  8
0
100
AcDbMText
 10
301.5565803366533
 20
363.3364576549904
 30
0.0
 40
0.2
 41
0.0
 71
     1
 72
     1
  1

  7
ROMANS
1001
ACAD
1000
MTEXTBEGIN
1070
    73
1070
     1
1070
    44
1040
1.0
1070
    74
1070
     0
1000
MTEXTEND
  0
MTEXT
  5
371F
330
1F
100
AcDbEntity
  8
0
100
AcDbMText
 10
215.0312583366533
 20
198.4497406549904
 30
0.0
 40
0.2
 41
0.0
 71
     9
 72
     1
  1

  7
ROMANS
1001
ACAD
1000
MTEXTBEGIN
1070
    73
1070
     1
1070
    44
1040
1.0
1070
    74
1070
     0
1000
MTEXTEND
  0
MTEXT
  5
3720
330
1F
100
AcDbEntity
  8
0
100
AcDbMText
 10
217.2694163366533
 20
176.3126646549904
 30
0.0
 40
0.2
 41
0.0
 71
     9
 72
     1
  1

  7
ROMANS
1001
ACAD
1000
MTEXTBEGIN
1070
    73
1070
     1
1070
    44
1040
1.0
1070
    74
1070
     0
1000
MTEXTEND
  0
MTEXT
  5
3721
330
1F
100
AcDbEntity
  8
0
100
AcDbMText
 10
277.3234868366532
 20
184.3495846549904
 30
0.0
 40
0.2
 41
0.0
 71
     1
 72
     1
  1

  7
ROMANS
1001
ACAD
1000
MTEXTBEGIN
1070
    73
1070
     1
1070
    44
1040
1.0
1070
    74
1070
     0
1000
MTEXTEND
  0
MTEXT
  5
3722
330
1F
100
AcDbEntity
  8
0
100
AcDbMText
 10
280.3397338366533
 20
213.3464486549904
 30
0.0
 40
0.2
 41
0.0
 71
     1
 72
     1
  1

  7
ROMANS
1001
ACAD
1000
MTEXTBEGIN
1070
    73
1070
     1
1070
    44
1040
1.0
1070
    74
1070
     0
1000
MTEXTEND
  0
MTEXT
  5
3723
330
1F
100
AcDbEntity
  8
0
100
AcDbMText
 10
528.0420083366533
 20
360.5089236549904
 30
0.0
 40
0.2
 41
0.0
 71
     9
 72
     1
  1

  7
ROMANS
1001
ACAD
1000
MTEXTBEGIN
1070
    73
1070
     1
1070
    44
1040
1.0
1070
    74
1070
     0
1000
MTEXTEND
  0
MTEXT
  5
3724
330
1F
100
AcDbEntity
  8
0
100
AcDbMText
 10
538.1704345970127
 20
282.2432640415952
 30
0.0
 40
0.2
 41
0.0
 71
     9
 72
     1
  1

  7
ROMANS
1001
ACAD
1000
MTEXTBEGIN
1070
    73
1070
     1
1070
    44
1040
1.0
1070
    74
1070
     0
1000
MTEXTEND
  0
MTEXT
  5
3725
330
1F
100
AcDbEntity
  8
0
100
AcDbMText
 10
377.6848831135625
 20
216.6031580866562
 30
0.0
 40
0.2
 41
0.0
 71
     9
 72
     1
  1

  7
ROMANS
1001
ACAD
1000
MTEXTBEGIN
1070
    73
1070
     1
1070
    44
1040
1.0
1070
    74
1070
     0
1000
MTEXTEND
  0
MTEXT
  5
3726
330
1F
100
AcDbEntity
  8
0
100
AcDbMText
 10
425.5481363366532
 20
218.3823886549904
 30
0.0
 40
0.2
 41
0.0
 71
     1
 72
     1
  1

  7
ROMANS
1001
ACAD
1000
MTEXTBEGIN
1070
    73
1070
     1
1070
    44
1040
1.0
1070
    74
1070
     0
1000
MTEXTEND
  0
MTEXT
  5
3727
330
1F
100
AcDbEntity
  8
0
100
AcDbMText
 10
423.7213243366532
 20
209.0069966549904
 30
0.0
 40
0.2
 41
0.0
 71
     1
 72
     1
  1

  7
ROMANS
1001
ACAD
1000
MTEXTBEGIN
1070
    73
1070
     1
1070
    44
1040
1.0
1070
    74
1070
     0
1000
MTEXTEND
  0
MTEXT
  5
3728
330
1F
100
AcDbEntity
  8
0
100
AcDbMText
 10
459.7667353366532
 20
197.0092056549904
 30
0.0
 40
0.2
 41
0.0
 71
     1
 72
     1
  1

  7
ROMANS
1001
ACAD
1000
MTEXTBEGIN
1070
    73
1070
     1
1070
    44
1040
1.0
1070
    74
1070
     0
1000
MTEXTEND
  0
MTEXT
  5
3729
330
1F
100
AcDbEntity
  8
0
100
AcDbMText
 10
458.2892132198323
 20
175.1988876549904
 30
0.0
 40
0.2
 41
0.0
 71
     1
 72
     1
  1

  7
ROMANS
1001
ACAD
1000
MTEXTBEGIN
1070
    73
1070
     1
1070
    44
1040
1.0
1070
    74
1070
     0
1000
MTEXTEND
  0
MTEXT
  5
372A
330
1F
100
AcDbEntity
  8
0
100
AcDbMText
 10
419.9530013366533
 20
264.4187166549904
 30
0.0
 40
0.2
 41
0.0
 71
     1
 72
     1
  1

  7
ROMANS
1001
ACAD
1000
MTEXTBEGIN
1070
    73
1070
     1
1070
    44
1040
1.0
1070
    74
1070
     0
1000
MTEXTEND
  0
MTEXT
  5
372B
330
1F
100
AcDbEntity
  8
0
100
AcDbMText
 10
383.0826873366533
 20
243.3776966549904
 30
0.0
 40
0.2
 41
0.0
 71
     1
 72
     1
  1

  7
ROMANS
1001
ACAD
1000
MTEXTBEGIN
1070
    73
1070
     1
1070
    44
1040
1.0
1070
    74
1070
     0
1000
MTEXTEND
  0
MTEXT
  5
372C
330
1F
100
AcDbEntity
  8
0
100
AcDbMText
 10
435.5200723366533
 20
151.4300876549904
 30
0.0
 40
0.2
 41
0.0
 71
     1
 72
     1
  1

  7
ROMANS
1001
ACAD
1000
MTEXTBEGIN
1070
    73
1070
     1
1070
    44
1040
1.0
1070
    74
1070
     0
1000
MTEXTEND
  0
MTEXT
  5
372D
330
1F
100
AcDbEntity
  8
0
100
AcDbMText
 10
433.1739233366532
 20
138.3799336549904
 30
0.0
 40
0.2
 41
0.0
 71
     1
 72
     1
  1

  7
ROMANS
1001
ACAD
1000
MTEXTBEGIN
1070
    73
1070
     1
1070
    44
1040
1.0
1070
    74
1070
     0
1000
MTEXTEND
  0
TEXT
  5
37AF
330
1F
100
AcDbEntity
  8
TEXT1
100
AcDbText
 10
17.80918931008452
 20
20.07956215362548
 30
0.0
 40
1.0
  1
%%uFLOOR PLAN%%u
 41
1.124331780546638
  7
ROMANS
 72
     1
 11
22.96773059844969
 21
20.57956215362549
 31
0.0
100
AcDbText
 73
     2
  0
LWPOLYLINE
  5
37B0
102
{ACAD_REACTORS
330
3A33
102
}
330
1F
100
AcDbEntity
  8
CONTINUOUS1
100
AcDbPolyline
 90
        5
 70
     0
 43
0.0
 10
12.70139999999997
 20
53.61270000000001
 10
33.45139999999998
 20
53.61270000000001
 10
33.45139999999998
 20
35.23269999999999
 10
12.70139999999997
 20
35.23269999999999
 10
12.70139999999997
 20
53.61270000000001
  0
CIRCLE
  5
37B4
330
1F
100
AcDbEntity
  8
CONTINUOUS1
100
AcDbCircle
 10
13.87639999999999
 20
34.65969999999998
 30
0.0
 40
0.2810000000000006
  0
CIRCLE
  5
37B5
330
1F
100
AcDbEntity
  8
CONTINUOUS1
100
AcDbCircle
 10
32.27639999999996
 20
34.65969999999998
 30
0.0
 40
0.2809999999999988
  0
CIRCLE
  5
37B6
330
1F
100
AcDbEntity
  8
CONTINUOUS1
100
AcDbCircle
 10
32.27639999999996
 20
54.15969999999998
 30
0.0
 40
0.2809999999999988
  0
CIRCLE
  5
37B7
330
1F
100
AcDbEntity
  8
CONTINUOUS1
100
AcDbCircle
 10
13.87639999999999
 20
54.15969999999998
 30
0.0
 40
0.2810000000000006
  0
LWPOLYLINE
  5
37B8
330
1F
100
AcDbEntity
  8
CONTINUOUS1
100
AcDbPolyline
 90
        4
 70
     1
 43
0.0
 10
35.65139999999996
 20
56.3127
 10
10.50139999999998
 20
56.3127
 10
10.50139999999998
 20
32.5327
 10
35.65139999999996
 20
32.5327
  0
LWPOLYLINE
  5
37B9
330
1F
100
AcDbEntity
  8
CONTINUOUS1
100
AcDbPolyline
 90
        4
 70
     0
 43
0.0
 10
11.77959999999998
 20
32.5327
 10
11.77959999999998
 20
31.72669999999999
 10
33.44739999999998
 20
31.72669999999999
 10
33.44739999999998
 20
32.5327
  0
TEXT
  5
3959
330
1F
100
AcDbEntity
  8
TEXT1
100
AcDbText
 10
21.24460265388752
 20
29.2016692779541
 30
0.0
 40
0.8
  1
FRONT
 41
0.897712865519562
  7
ROMANS
 72
     1
 11
22.98873050689695
 21
29.6016692779541
 31
0.0
100
AcDbText
 73
     2
  0
LINE
  5
39D5
330
1F
100
AcDbEntity
  8
DIM
100
AcDbLine
 10
13.87639999999999
 20
35.0624
 30
0.0
 11
13.87639999999999
 21
34.257
 31
0.0
  0
LINE
  5
39D6
330
1F
100
AcDbEntity
  8
DIM
100
AcDbLine
 10
14.27909999999997
 20
34.65969999999998
 30
0.0
 11
13.47369999999997
 21
34.65969999999998
 31
0.0
  0
LINE
  5
39D7
330
1F
100
AcDbEntity
  8
DIM
100
AcDbLine
 10
32.27639999999996
 20
35.0624
 30
0.0
 11
32.27639999999996
 21
34.257
 31
0.0
  0
LINE
  5
39D8
330
1F
100
AcDbEntity
  8
DIM
100
AcDbLine
 10
32.67909999999997
 20
34.65969999999998
 30
0.0
 11
31.87369999999998
 21
34.65969999999998
 31
0.0
  0
LINE
  5
39D9
330
1F
100
AcDbEntity
  8
DIM
100
AcDbLine
 10
32.27639999999996
 20
54.5624
 30
0.0
 11
32.27639999999996
 21
53.75700000000001
 31
0.0
  0
LINE
  5
39DA
330
1F
100
AcDbEntity
  8
DIM
100
AcDbLine
 10
32.67909999999997
 20
54.15969999999998
 30
0.0
 11
31.87369999999998
 21
54.15969999999998
 31
0.0
  0
LINE
  5
39DB
330
1F
100
AcDbEntity
  8
DIM
100
AcDbLine
 10
13.87639999999999
 20
54.5624
 30
0.0
 11
13.87639999999999
 21
53.75700000000001
 31
0.0
  0
LINE
  5
39DC
330
1F
100
AcDbEntity
  8
DIM
100
AcDbLine
 10
14.27909999999997
 20
54.15969999999998
 30
0.0
 11
13.47369999999997
 21
54.15969999999998
 31
0.0
  0
LINE
  5
3A1E
330
1F
100
AcDbEntity
  8
TEXT1
100
AcDbLine
 10
22.97469999999998
 20
29.09049999999999
 30
0.0
 11
22.97469999999998
 21
25.96699999999998
 31
0.0
  0
SOLID
  5
3A22
330
1F
100
AcDbEntity
  8
TEXT1
100
AcDbTrace
 10
22.59699122394601
 20
27.56700005106287
 30
0.0
 11
23.35240877605397
 21
27.5670000510629
 31
0.0
 12
22.97469999999998
 22
25.96700000000001
 32
0.0
 13
22.97469999999998
 23
25.96700000000001
 33
0.0
  0
DIMENSION
  5
3A28
330
1F
100
AcDbEntity
  8
DIM
100
AcDbDimension
  2
*D10
 10
10.50139999999998
 20
64.90929476301014
 30
0.0
 11
23.07639999999997
 21
64.90929476301014
 31
0.0
 70
    32
  3
SCHNEIDERELECTRIC
100
AcDbAlignedDimension
 13
35.65139999999996
 23
56.3127
 33
0.0
 14
10.50139999999998
 24
56.3127
 34
0.0
100
AcDbRotatedDimension
1001
ACAD
1000
DSTYLE
1002
{
1070
    40
1040
10.0
1002
}
  0
DIMENSION
  5
3A29
330
1F
100
AcDbEntity
  8
DIM
100
AcDbDimension
  2
*D11
 10
33.45139999999998
 20
61.80572155680224
 30
0.0
 11
23.07639999999997
 21
61.80572155680224
 31
0.0
 70
    32
  3
SCHNEIDERELECTRIC
100
AcDbAlignedDimension
 13
12.70139999999997
 23
53.61270000000001
 33
0.0
 14
33.45139999999998
 24
53.61270000000001
 34
0.0
100
AcDbRotatedDimension
1001
ACAD
1000
DSTYLE
1002
{
1070
    40
1040
10.0
1002
}
  0
DIMENSION
  5
3A2A
330
1F
100
AcDbEntity
  8
DIM
100
AcDbDimension
  2
*D12
 10
32.27639999999996
 20
59.03429619352161
 30
0.0
 11
23.07639999999997
 21
59.03429619352161
 31
0.0
 70
    32
  3
SCHNEIDERELECTRIC
100
AcDbAlignedDimension
 13
13.87639999999999
 23
54.5624
 33
0.0
 14
32.27639999999996
 24
54.5624
 34
0.0
100
AcDbRotatedDimension
1001
ACAD
1000
DSTYLE
1002
{
1070
    40
1040
10.0
1002
}
  0
DIMENSION
  5
3A2B
330
1F
100
AcDbEntity
  8
DIM
100
AcDbDimension
  2
*D13
 10
32.27639999999996
 20
59.03429619352161
 30
0.0
 11
38.75907840624194
 21
59.03429619352161
 31
0.0
 70
   160
  3
SCHNEIDERELECTRIC
100
AcDbAlignedDimension
 13
35.65139999999996
 23
56.3127
 33
0.0
 14
32.27639999999996
 24
54.62489999999999
 34
0.0
100
AcDbRotatedDimension
1001
ACAD
1000
DSTYLE
1002
{
1070
    40
1040
10.0
1002
}
  0
DIMENSION
  5
3A2C
330
1F
100
AcDbEntity
  8
DIM
100
AcDbDimension
  2
*D14
 10
13.87639999999999
 20
59.03429619352161
 30
0.0
 11
7.877590476190448
 21
59.03429619352161
 31
0.0
 70
   160
  3
SCHNEIDERELECTRIC
100
AcDbAlignedDimension
 13
10.50139999999998
 23
56.3127
 33
0.0
 14
13.87639999999999
 24
54.62489999999999
 34
0.0
100
AcDbRotatedDimension
1001
ACAD
1000
DSTYLE
1002
{
1070
    40
1040
10.0
1002
}
  0
DIMENSION
  5
3A2D
330
1F
100
AcDbEntity
  8
DIM
100
AcDbDimension
  2
*D15
 10
12.70139999999997
 20
61.80572155680224
 30
0.0
 11
7.177590476190459
 21
61.80572155680224
 31
0.0
 70
   160
  3
SCHNEIDERELECTRIC
100
AcDbAlignedDimension
 13
10.50139999999998
 23
56.3127
 33
0.0
 14
12.70139999999997
 24
53.67520000000002
 34
0.0
100
AcDbRotatedDimension
1001
ACAD
1000
DSTYLE
1002
{
1070
    40
1040
10.0
1002
}
  0
DIMENSION
  5
3A2E
330
1F
100
AcDbEntity
  8
DIM
100
AcDbDimension
  2
*D16
 10
44.47405306828819
 20
32.5327
 30
0.0
 11
44.47405306828818
 21
44.42270000000001
 31
0.0
 70
    32
  3
SCHNEIDERELECTRIC
100
AcDbAlignedDimension
 13
35.65139999999996
 23
56.3127
 33
0.0
 14
35.65139999999996
 24
32.5327
 34
0.0
 50
90.0
100
AcDbRotatedDimension
1001
ACAD
1000
DSTYLE
1002
{
1070
    40
1040
10.0
1002
}
  0
DIMENSION
  5
3A2F
330
1F
100
AcDbEntity
  8
DIM
100
AcDbDimension
  2
*D17
 10
38.95499781754611
 20
35.23269999999999
 30
0.0
 11
38.9549978175461
 21
44.42270000000001
 31
0.0
 70
    32
  3
SCHNEIDERELECTRIC
100
AcDbAlignedDimension
 13
33.45139999999998
 23
53.61270000000001
 33
0.0
 14
33.45139999999998
 24
35.23269999999999
 34
0.0
 50
90.0
100
AcDbRotatedDimension
1001
ACAD
1000
DSTYLE
1002
{
1070
    40
1040
10.0
1002
}
  0
DIMENSION
  5
3A30
330
1F
100
AcDbEntity
  8
DIM
100
AcDbDimension
  2
*D18
 10
7.579999248204245
 20
34.65969999999998
 30
0.0
 11
7.57999924820424
 21
44.40969999999999
 31
0.0
 70
    32
  3
SCHNEIDERELECTRIC
100
AcDbAlignedDimension
 13
13.47369999999997
 23
54.15969999999998
 33
0.0
 14
13.47369999999997
 24
34.65969999999998
 34
0.0
 50
90.0
100
AcDbRotatedDimension
1001
ACAD
1000
DSTYLE
1002
{
1070
    40
1040
10.0
1002
}
  0
DIMENSION
  5
3A31
330
1F
100
AcDbEntity
  8
DIM
100
AcDbDimension
  2
*D19
 10
38.95499781754611
 20
35.23269999999999
 30
0.0
 11
39.97912928026011
 21
30.41947033262028
 31
0.0
 70
   160
  3
SCHNEIDERELECTRIC
100
AcDbAlignedDimension
 13
35.65139999999996
 23
32.5327
 33
0.0
 14
33.51389999999998
 24
35.23269999999999
 34
0.0
 50
90.0
100
AcDbRotatedDimension
1001
ACAD
1000
DSTYLE
1002
{
1070
   287
1070
     4
1070
   287
1070
     4
1070
   287
1070
     4
1070
   287
1070
     4
1070
   287
1070
     4
1070
   287
1070
     4
1070
    40
1040
10.0
1070
   279
1070
     1
1002
}
  0
DIMENSION
  5
3A32
330
1F
100
AcDbEntity
  8
DIM
100
AcDbDimension
  2
*D20
 10
7.579999248204245
 20
34.65969999999998
 30
0.0
 11
7.579999248204239
 21
33.59619999999999
 31
0.0
 70
    32
  3
SCHNEIDERELECTRIC
100
AcDbAlignedDimension
 13
10.50139999999998
 23
32.5327
 33
0.0
 14
13.41119999999998
 24
34.65969999999998
 34
0.0
 50
90.0
100
AcDbRotatedDimension
1001
ACAD
1000
DSTYLE
1002
{
1070
    40
1040
10.0
1002
}
  0
HATCH
  5
3A33
330
1F
100
AcDbEntity
  8
CONTINUOUS1
100
AcDbHatch
 10
0.0
 20
0.0
 30
0.0
210
0.0
220
0.0
230
1.0
  2
ANSI31
 70
     0
 71
     1
 91
        1
 92
        7
 72
     0
 73
     1
 93
        4
 10
12.70139999999997
 20
35.23269999999999
 10
33.45139999999998
 20
35.23269999999999
 10
33.45139999999998
 20
53.61270000000001
 10
12.70139999999997
 20
53.61270000000001
 97
        1
330
37B0
 75
     0
 76
     1
 52
0.0
 41
10.0
 77
     0
 78
     1
 53
45.0
 43
0.0799999999999841
 44
-0.3826999999999998
 45
-0.8838834764831842
 46
0.8838834764831844
 79
     0
 47
0.0704384425759841
 98
        1
 10
21.46004276710379
 20
44.2482813315423
  0
INSERT
  5
3A34
330
1F
100
AcDbEntity
  8
0
100
AcDbBlockReference
  2
SETUP
 10
334.7258003130669
 20
210.077023803571
 30
0.0
  0
INSERT
  5
3A35
330
1F
100
AcDbEntity
  8
0
100
AcDbBlockReference
  2
MEDCLUMP_DMS_1142_
 10
328.7586123366533
 20
203.9903466549904
 30
0.0
  0
INSERT
  5
3A36
330
1F
100
AcDbEntity
  8
0
100
AcDbBlockReference
  2
MEDCLUMP_DMS_1450_
 10
328.7586123366533
 20
203.9903466549904
 30
0.0
  0
INSERT
  5
3A37
330
1F
100
AcDbEntity
  8
0
100
AcDbBlockReference
  2
MEDCLUMP_DMS_1474_
 10
328.7586123366533
 20
203.9903466549904
 30
0.0
  0
INSERT
  5
3A38
330
1F
100
AcDbEntity
  8
0
  6
CONTINUOUS
100
AcDbBlockReference
  2
SETUP
 10
364.2210430727556
 20
214.4638351367666
 30
0.0
  0
MTEXT
  5
3A39
330
1F
100
AcDbEntity
  8
0
100
AcDbMText
 10
328.7016088475681
 20
214.8903406549904
 30
0.0
 40
0.2
 41
0.0
 71
     9
 72
     1
  1

  7
ROMANS
1001
ACAD
1000
MTEXTBEGIN
1070
    73
1070
     1
1070
    44
1040
1.0
1070
    74
1070
     0
1000
MTEXTEND
  0
MTEXT
  5
3A3A
330
1F
100
AcDbEntity
  8
0
100
AcDbMText
 10
517.0712562786798
 20
423.2169687499913
 30
0.0
 40
0.2
 41
81.2324
 71
     1
 72
     5
  1

  7
ROMANS
1001
ACAD
1000
MTEXTBEGIN
1070
    73
1070
     1
1070
    44
1040
1.0
1070
    74
1070
     0
1000
MTEXTEND
  0
MTEXT
  5
3A3B
330
1F
100
AcDbEntity
  8
0
100
AcDbMText
 10
381.6329973366533
 20
458.4090946549904
 30
0.0
 40
0.2
 41
0.0
 71
     9
 72
     1
  1

  7
ROMANS
1001
ACAD
1000
MTEXTBEGIN
1070
    73
1070
     1
1070
    44
1040
1.0
1070
    74
1070
     0
1000
MTEXTEND
  0
MTEXT
  5
3A3C
330
1F
100
AcDbEntity
  8
0
100
AcDbMText
 10
446.3283033366533
 20
405.6117216549904
 30
0.0
 40
0.2
 41
0.0
 71
     1
 72
     1
  1

  7
ROMANS
1001
ACAD
1000
MTEXTBEGIN
1070
    73
1070
     1
1070
    44
1040
1.0
1070
    74
1070
     0
1000
MTEXTEND
  0
MTEXT
  5
3A3D
330
1F
100
AcDbEntity
  8
0
100
AcDbMText
 10
465.7927223366534
 20
445.1654046549903
 30
0.0
 40
0.2
 41
0.0
 71
     1
 72
     1
  1

  7
ROMANS
1001
ACAD
1000
MTEXTBEGIN
1070
    73
1070
     1
1070
    44
1040
1.0
1070
    74
1070
     0
1000
MTEXTEND
  0
MTEXT
  5
3A3E
330
1F
100
AcDbEntity
  8
0
100
AcDbMText
 10
446.3283033366533
 20
454.3791286549903
 30
0.0
 40
0.2
 41
0.0
 71
     1
 72
     1
  1

  7
ROMANS
1001
ACAD
1000
MTEXTBEGIN
1070
    73
1070
     1
1070
    44
1040
1.0
1070
    74
1070
     0
1000
MTEXTEND
  0
MTEXT
  5
3A3F
330
1F
100
AcDbEntity
  8
0
100
AcDbMText
 10
465.5565903366533
 20
465.8364576549904
 30
0.0
 40
0.2
 41
0.0
 71
     1
 72
     1
  1

  7
ROMANS
1001
ACAD
1000
MTEXTBEGIN
1070
    73
1070
     1
1070
    44
1040
1.0
1070
    74
1070
     0
1000
MTEXTEND
  0
MTEXT
  5
3A40
330
1F
100
AcDbEntity
  8
0
100
AcDbMText
 10
379.0312683366533
 20
300.9497406549904
 30
0.0
 40
0.2
 41
0.0
 71
     9
 72
     1
  1

  7
ROMANS
1001
ACAD
1000
MTEXTBEGIN
1070
    73
1070
     1
1070
    44
1040
1.0
1070
    74
1070
     0
1000
MTEXTEND
  0
MTEXT
  5
3A41
330
1F
100
AcDbEntity
  8
0
100
AcDbMText
 10
381.2694263366533
 20
278.8126646549904
 30
0.0
 40
0.2
 41
0.0
 71
     9
 72
     1
  1

  7
ROMANS
1001
ACAD
1000
MTEXTBEGIN
1070
    73
1070
     1
1070
    44
1040
1.0
1070
    74
1070
     0
1000
MTEXTEND
  0
MTEXT
  5
3A42
330
1F
100
AcDbEntity
  8
0
100
AcDbMText
 10
441.3234968366532
 20
286.8495846549904
 30
0.0
 40
0.2
 41
0.0
 71
     1
 72
     1
  1

  7
ROMANS
1001
ACAD
1000
MTEXTBEGIN
1070
    73
1070
     1
1070
    44
1040
1.0
1070
    74
1070
     0
1000
MTEXTEND
  0
MTEXT
  5
3A43
330
1F
100
AcDbEntity
  8
0
100
AcDbMText
 10
444.3397438366533
 20
315.8464486549904
 30
0.0
 40
0.2
 41
0.0
 71
     1
 72
     1
  1

  7
ROMANS
1001
ACAD
1000
MTEXTBEGIN
1070
    73
1070
     1
1070
    44
1040
1.0
1070
    74
1070
     0
1000
MTEXTEND
  0
MTEXT
  5
3A44
330
1F
100
AcDbEntity
  8
0
100
AcDbMText
 10
692.0420183366534
 20
463.0089236549904
 30
0.0
 40
0.2
 41
0.0
 71
     9
 72
     1
  1

  7
ROMANS
1001
ACAD
1000
MTEXTBEGIN
1070
    73
1070
     1
1070
    44
1040
1.0
1070
    74
1070
     0
1000
MTEXTEND
  0
MTEXT
  5
3A45
330
1F
100
AcDbEntity
  8
0
100
AcDbMText
 10
702.1704445970126
 20
384.7432640415952
 30
0.0
 40
0.2
 41
0.0
 71
     9
 72
     1
  1

  7
ROMANS
1001
ACAD
1000
MTEXTBEGIN
1070
    73
1070
     1
1070
    44
1040
1.0
1070
    74
1070
     0
1000
MTEXTEND
  0
MTEXT
  5
3A46
330
1F
100
AcDbEntity
  8
0
100
AcDbMText
 10
541.6848931135625
 20
319.1031580866562
 30
0.0
 40
0.2
 41
0.0
 71
     9
 72
     1
  1

  7
ROMANS
1001
ACAD
1000
MTEXTBEGIN
1070
    73
1070
     1
1070
    44
1040
1.0
1070
    74
1070
     0
1000
MTEXTEND
  0
MTEXT
  5
3A47
330
1F
100
AcDbEntity
  8
0
100
AcDbMText
 10
589.5481463366534
 20
320.8823886549904
 30
0.0
 40
0.2
 41
0.0
 71
     1
 72
     1
  1

  7
ROMANS
1001
ACAD
1000
MTEXTBEGIN
1070
    73
1070
     1
1070
    44
1040
1.0
1070
    74
1070
     0
1000
MTEXTEND
  0
MTEXT
  5
3A48
330
1F
100
AcDbEntity
  8
0
100
AcDbMText
 10
587.7213343366533
 20
311.5069966549904
 30
0.0
 40
0.2
 41
0.0
 71
     1
 72
     1
  1

  7
ROMANS
1001
ACAD
1000
MTEXTBEGIN
1070
    73
1070
     1
1070
    44
1040
1.0
1070
    74
1070
     0
1000
MTEXTEND
  0
MTEXT
  5
3A49
330
1F
100
AcDbEntity
  8
0
100
AcDbMText
 10
623.7667453366532
 20
299.5092056549903
 30
0.0
 40
0.2
 41
0.0
 71
     1
 72
     1
  1

  7
ROMANS
1001
ACAD
1000
MTEXTBEGIN
1070
    73
1070
     1
1070
    44
1040
1.0
1070
    74
1070
     0
1000
MTEXTEND
  0
MTEXT
  5
3A4A
330
1F
100
AcDbEntity
  8
0
100
AcDbMText
 10
622.2892232198323
 20
277.6988876549904
 30
0.0
 40
0.2
 41
0.0
 71
     1
 72
     1
  1

  7
ROMANS
1001
ACAD
1000
MTEXTBEGIN
1070
    73
1070
     1
1070
    44
1040
1.0
1070
    74
1070
     0
1000
MTEXTEND
  0
MTEXT
  5
3A4B
330
1F
100
AcDbEntity
  8
0
100
AcDbMText
 10
583.9530113366533
 20
366.9187166549904
 30
0.0
 40
0.2
 41
0.0
 71
     1
 72
     1
  1

  7
ROMANS
1001
ACAD
1000
MTEXTBEGIN
1070
    73
1070
     1
1070
    44
1040
1.0
1070
    74
1070
     0
1000
MTEXTEND
  0
MTEXT
  5
3A4C
330
1F
100
AcDbEntity
  8
0
100
AcDbMText
 10
547.0826973366533
 20
345.8776966549904
 30
0.0
 40
0.2
 41
0.0
 71
     1
 72
     1
  1

  7
ROMANS
1001
ACAD
1000
MTEXTBEGIN
1070
    73
1070
     1
1070
    44
1040
1.0
1070
    74
1070
     0
1000
MTEXTEND
  0
MTEXT
  5
3A4D
330
1F
100
AcDbEntity
  8
0
100
AcDbMText
 10
599.5200823366533
 20
253.9300876549904
 30
0.0
 40
0.2
 41
0.0
 71
     1
 72
     1
  1

  7
ROMANS
1001
ACAD
1000
MTEXTBEGIN
1070
    73
1070
     1
1070
    44
1040
1.0
1070
    74
1070
     0
1000
MTEXTEND
  0
MTEXT
  5
3A4E
330
1F
100
AcDbEntity
  8
0
100
AcDbMText
 10
597.1739333366533
 20
240.8799336549904
 30
0.0
 40
0.2
 41
0.0
 71
     1
 72
     1
  1

  7
ROMANS
1001
ACAD
1000
MTEXTBEGIN
1070
    73
1070
     1
1070
    44
1040
1.0
1070
    74
1070
     0
1000
MTEXTEND
  0
MTEXT
  5
3A4F
330
1F
100
AcDbEntity
  8
0
100
AcDbMText
 10
392.686393522201
 20
379.7638571141685
 30
0.0
 40
0.1
 41
0.0
 71
     1
 72
     1
  1

  7
ROMANS
1001
ACAD
1000
MTEXTBEGIN
1070
    73
1070
     1
1070
    44
1040
1.0
1070
    74
1070
     0
1000
MTEXTEND
  0
MTEXT
  5
3A50
330
1F
100
AcDbEntity
  8
0
100
AcDbMText
 10
391.144273522201
 20
369.4858571141685
 30
0.0
 40
0.1
 41
0.0
 71
     1
 72
     1
  1

  7
ROMANS
1001
ACAD
1000
MTEXTBEGIN
1070
    73
1070
     1
1070
    44
1040
1.0
1070
    74
1070
     0
1000
MTEXTEND
  0
MTEXT
  5
3A51
330
1F
100
AcDbEntity
  8
0
100
AcDbMText
 10
392.745913522201
 20
309.9358571141686
 30
0.0
 40
0.1
 41
0.0
 71
     1
 72
     1
  1

  7
ROMANS
1001
ACAD
1000
MTEXTBEGIN
1070
    73
1070
     1
1070
    44
1040
1.0
1070
    74
1070
     0
1000
MTEXTEND
  0
MTEXT
  5
3A52
330
1F
100
AcDbEntity
  8
0
100
AcDbMText
 10
389.877553522201
 20
299.6590571141685
 30
0.0
 40
0.1
 41
0.0
 71
     1
 72
     1
  1

  7
ROMANS
1001
ACAD
1000
MTEXTBEGIN
1070
    73
1070
     1
1070
    44
1040
1.0
1070
    74
1070
     0
1000
MTEXTEND
  0
MTEXT
  5
3A53
330
1F
100
AcDbEntity
  8
0
100
AcDbMText
 10
413.2178809478505
 20
274.3265371141685
 30
0.0
 40
0.1
 41
0.0
 71
     9
 72
     1
  1

  7
ROMANS
1001
ACAD
1000
MTEXTBEGIN
1070
    73
1070
     1
1070
    44
1040
1.0
1070
    74
1070
     0
1000
MTEXTEND
  0
MTEXT
  5
3A54
330
1F
100
AcDbEntity
  8
0
100
AcDbMText
 10
363.471313522201
 20
242.9602571141685
 30
0.0
 40
0.1
 41
0.0
 71
     1
 72
     1
  1

  7
ROMANS
1001
ACAD
1000
MTEXTBEGIN
1070
    73
1070
     1
1070
    44
1040
1.0
1070
    74
1070
     0
1000
MTEXTEND
  0
MTEXT
  5
3A55
330
1F
100
AcDbEntity
  8
TEXT1
100
AcDbMText
 10
38.27564273278971
 20
23.57307251200191
 30
0.0
 40
0.8
 41
0.0
 71
     1
 72
     1
  1
(4) .562 DIAMETER\PKNOCKOUTS
  7
ROMANS
1001
ACAD
1000
MTEXTBEGIN
1070
    73
1070
     1
1070
    44
1040
1.0
1070
    74
1070
     0
1000
MTEXTEND
  0
MTEXT
  5
3A56
330
1F
100
AcDbEntity
  8
TEXT1
100
AcDbMText
 10
4.732942546442586
 20
28.45703496408762
 30
0.0
 40
0.8
 41
0.0
 71
     1
 72
     1
  1
SHADED AREA\PRECOMMENDED\PBOTTOM CONDUIT\PENTRANCE
  7
ROMANS
1001
ACAD
1000
MTEXTBEGIN
1070
    73
1070
     1
1070
    44
1040
1.0
1070
    74
1070
     0
1000
MTEXTEND
  0
MTEXT
  5
3A57
330
1F
100
AcDbEntity
  8
TEXT1
100
AcDbMText
 10
153.1581495528547
 20
81.45134265695062
 30
0.0
 40
0.8
 41
0.0
 71
     1
 72
     1
  1
CABLE\PSUPPORT\PBRACE
  7
ROMANS
1001
ACAD
1000
MTEXTBEGIN
1070
    73
1070
     1
1070
    44
1040
1.0
1070
    74
1070
     0
1000
MTEXTEND
  0
LEADER
  5
3A58
330
1F
100
AcDbEntity
  8
TEXT1
100
AcDbLeader
  3
SCHNEIDERELECTRIC
 73
     0
 74
     0
 75
     1
 40
0.1
 76
     3
 10
32.39169999999998
 20
34.4035
 30
0.0
 10
36.47999999999997
 20
22.86729999999999
 30
0.0
 10
37.17999999999998
 20
22.86729999999999
 30
0.0
340
3A59
213
0.0
223
-0.05
233
0.0
1001
ACAD
1000
DSTYLE
1002
{
1070
     5
1000
SEARROW
1070
    40
1040
10.0
1070
   342
1005
E0D
1002
}
  0
MTEXT
  5
3A59
102
{ACAD_REACTORS
330
3A58
102
}
330
1F
100
AcDbEntity
  8
0
100
AcDbMText
 10
201.50001
 20
125.8
 30
0.0
 40
0.1
 41
0.0
 71
     1
 72
     1
  1

  7
ROMANS
1001
ACAD
1000
MTEXTBEGIN
1070
    73
1070
     1
1070
    44
1040
1.0
1070
    74
1070
     0
1000
MTEXTEND
  0
LEADER
  5
3A5A
330
1F
100
AcDbEntity
  8
TEXT1
100
AcDbLeader
  3
SCHNEIDERELECTRIC
 73
     0
 75
     1
 40
0.1
 76
     3
 10
19.81868265866802
 20
36.19812000561831
 30
0.0
 10
14.57593613636031
 20
28.09747470626288
 30
0.0
 10
13.8759361363603
 20
28.09747470626288
 30
0.0
340
3A5B
213
0.0
223
0.05
233
0.0
1001
ACAD
1000
DSTYLE
1002
{
1070
     5
1000
SEARROW
1070
    40
1040
10.0
1070
   342
1005
E0D
1002
}
  0
MTEXT
  5
3A5B
102
{ACAD_REACTORS
330
3A5A
102
}
330
1F
100
AcDbEntity
  8
0
100
AcDbMText
 10
177.3959461363603
 20
130.9301747062628
 30
0.0
 40
0.1
 41
0.0
 71
     9
 72
     1
  1

  7
ROMANS
1001
ACAD
1000
MTEXTBEGIN
1070
    73
1070
     1
1070
    44
1040
1.0
1070
    74
1070
     0
1000
MTEXTEND
  0
MTEXT
  5
3A5D
330
1F
100
AcDbEntity
  8
0
100
AcDbMText
 10
318.9186273686132
 20
184.1953082732546
 30
0.0
 40
0.1
 41
0.0
 71
     1
 72
     1
  1

  7
ROMANS
1001
ACAD
1000
MTEXTBEGIN
1070
    73
1070
     1
1070
    44
1040
1.0
1070
    74
1070
     0
1000
MTEXTEND
  0
DIMENSION
  5
3C3F
330
1F
100
AcDbEntity
  8
DIM
100
AcDbDimension
  2
*D21
 10
86.72787640245035
 20
95.56790501160667
 30
0.0
 11
74.15318820122516
 21
95.56790501160667
 31
0.0
 70
    32
  3
SCHNEIDERELECTRIC
100
AcDbAlignedDimension
 13
61.57849999999999
 23
91.35099999999885
 33
0.0
 14
86.72787640245035
 24
91.3569024965759
 34
0.0
100
AcDbRotatedDimension
1001
ACAD
1000
DSTYLE
1002
{
1070
    40
1040
10.0
1002
}
  0
DIMENSION
  5
3C4D
330
1F
100
AcDbEntity
  8
DIM
100
AcDbDimension
  2
*D22
 10
56.19513485658447
 20
25.4068
 30
0.0
 11
56.19513485658447
 21
58.40680000000002
 31
0.0
 70
    32
  3
SCHNEIDERELECTRIC
100
AcDbAlignedDimension
 13
61.63430000000638
 23
91.40680000000001
 33
0.0
 14
61.61559999999999
 24
25.4068
 34
0.0
 50
90.0
100
AcDbRotatedDimension
1001
ACAD
1000
DSTYLE
1002
{
1070
    40
1040
10.0
1002
}
  0
DIMENSION
  5
3C5B
330
1F
100
AcDbEntity
  8
DIM
100
AcDbDimension
  2
*D23
 10
151.1759999999999
 20
95.92788856001766
 30
0.0
 11
138.5759999999999
 21
95.92788856001766
 31
0.0
 70
    32
  3
SCHNEIDERELECTRIC
100
AcDbAlignedDimension
 13
125.9759999999999
 23
88.60915039591398
 33
0.0
 14
151.1759999999999
 24
91.17521844174532
 34
0.0
100
AcDbRotatedDimension
1001
ACAD
1000
DSTYLE
1002
{
1070
    40
1040
10.0
1002
}
  0
DIMENSION
  5
3C69
330
1F
100
AcDbEntity
  8
DIM
100
AcDbDimension
  2
*D24
 10
157.4287888788047
 20
25.4068
 30
0.0
 11
157.4287888788047
 21
49.16890000000002
 31
0.0
 70
    32
  3
SCHNEIDERELECTRIC
100
AcDbAlignedDimension
 13
138.3329999999999
 23
72.93099999999999
 33
0.0
 14
150.8259999999999
 24
25.4068
 34
0.0
 50
90.0
100
AcDbRotatedDimension
1001
ACAD
1000
DSTYLE
1002
{
1070
    40
1040
10.0
1002
}
  0
DIMENSION
  5
3C77
330
1F
100
AcDbEntity
  8
DIM
100
AcDbDimension
  2
*D25
 10
153.2852074884305
 20
25.4068
 30
0.0
 11
153.2852074884305
 21
33.08150000000002
 31
0.0
 70
    32
  3
SCHNEIDERELECTRIC
100
AcDbAlignedDimension
 13
138.942
 23
40.75619999999999
 33
0.0
 14
150.8885
 24
25.4068
 34
0.0
 50
90.0
100
AcDbRotatedDimension
1001
ACAD
1000
DSTYLE
1002
{
1070
    40
1040
10.0
1002
}
  0
SOLID
  5
3E3D
330
1F
100
AcDbEntity
  8
CENTER1
100
AcDbTrace
 10
82.70430005106288
 20
94.59680877605391
 30
0.0
 11
82.70430005106286
 21
93.84139122394595
 31
0.0
 12
81.10429999999999
 22
94.21910000000002
 32
0.0
 13
81.10429999999999
 23
94.21910000000002
 33
0.0
  0
SOLID
  5
3E3E
330
1F
100
AcDbEntity
  8
CENTER1
100
AcDbTrace
 10
82.63360005106278
 20
23.4880087760539
 30
0.0
 11
82.63360005106276
 21
22.73259122394594
 31
0.0
 12
81.03359999999989
 22
23.11030000000002
 32
0.0
 13
81.03359999999989
 23
23.11030000000002
 33
0.0
  0
MTEXT
  5
3E3F
330
1F
100
AcDbEntity
  8
TEXT1
100
AcDbMText
 10
90.04307782714096
 20
88.80818177864446
 30
0.0
 40
0.8
 41
0.0
 71
     1
 72
     1
  1
ENCLOSURE\PASSY
  7
ROMANS
1001
ACAD
1000
MTEXTBEGIN
1070
    73
1070
     1
1070
    44
1040
1.0
1070
    74
1070
     0
1000
MTEXTEND
  0
MTEXT
  5
3E40
330
1F
100
AcDbEntity
  8
TEXT1
100
AcDbMText
 10
138.9319999999999
 20
23.24261187052859
 30
0.0
 40
1.0
 41
0.0
 71
     5
 72
     1
  1
SECTION A-A
  7
ROMANS
1001
ACAD
1000
MTEXTBEGIN
1070
    73
1070
     1
1070
    44
1040
1.0
1070
    74
1070
     0
1000
MTEXTEND
  0
LEADER
  5
3E41
330
1F
100
AcDbEntity
  8
TEXT1
100
AcDbLeader
  3
SCHNEIDERELECTRIC
 73
     0
 74
     0
 75
     1
 40
0.1
 76
     3
 10
86.69097640245034
 20
83.99714144318947
 30
0.0
 10
88.63117302720752
 20
88.4310347828638
 30
0.0
 10
89.33117302720752
 20
88.4310347828638
 30
0.0
340
3E42
213
0.0
223
-0.05
233
0.0
1001
ACAD
1000
DSTYLE
1002
{
1070
     5
1000
SEARROW
1070
    40
1040
10.0
1070
   342
1005
E0D
1002
}
  0
MTEXT
  5
3E42
102
{ACAD_REACTORS
330
3E41
102
}
330
1F
100
AcDbEntity
  8
0
100
AcDbMText
 10
89.37117302720753
 20
88.48103478286381
 30
0.0
 40
0.1
 41
0.0
 71
     1
 72
     1
  1

  7
ROMANS
1001
ACAD
1000
MTEXTBEGIN
1070
    73
1070
     1
1070
    44
1040
1.0
1070
    74
1070
     0
1000
MTEXTEND
  0
LEADER
  5
3E43
330
1F
100
AcDbEntity
  8
TEXT1
100
AcDbLeader
  3
SCHNEIDERELECTRIC
 73
     0
 74
     0
 75
     1
 40
0.1
 76
     3
 10
148.3242762438168
 20
74.9922
 30
0.0
 10
151.7716517302265
 20
81.05191199605545
 30
0.0
 10
152.4716517302265
 20
81.05191199605545
 30
0.0
340
3E44
213
0.0
223
-0.05
233
0.0
1001
ACAD
1000
DSTYLE
1002
{
1070
     5
1000
SEARROW
1070
    40
1040
10.0
1070
   342
1005
E0D
1002
}
  0
MTEXT
  5
3E44
102
{ACAD_REACTORS
330
3E43
102
}
330
1F
100
AcDbEntity
  8
0
100
AcDbMText
 10
152.5116517302265
 20
81.10191199605544
 30
0.0
 40
0.1
 41
0.0
 71
     1
 72
     1
  1

  7
ROMANS
1001
ACAD
1000
MTEXTBEGIN
1070
    73
1070
     1
1070
    44
1040
1.0
1070
    74
1070
     0
1000
MTEXTEND
  0
TEXT
  5
3E45
330
1F
100
AcDbEntity
  8
TEXT1
100
AcDbText
 10
79.7243761814747
 20
22.6103
 30
0.0
 40
1.0
  1
A
 41
0.897712865519562
  7
ROMANS
 72
     1
 11
80.10911026669736
 21
23.1103
 31
0.0
100
AcDbText
 73
     2
  0
TEXT
  5
3E46
330
1F
100
AcDbEntity
  8
TEXT1
100
AcDbText
 10
79.7243761814747
 20
93.71909999999999
 30
0.0
 40
1.0
  1
A
 41
0.897712865519562
  7
ROMANS
 72
     1
 11
80.10911026669736
 21
94.2191
 31
0.0
100
AcDbText
 73
     2
  0
VIEWPORT
  5
32
330
1B
100
AcDbEntity
 67
     1
  8
0
100
AcDbViewport
 10
8.199552550603792
 20
5.049598523466701
 30
0.0
 40
16.47973434356645
 41
10.49311072076324
 68
     1
 69
     1
1001
ACAD
1000
MVIEW
1002
{
1070
    16
1010
0.0
1020
0.0
1030
0.0
1010
0.0
1020
0.0
1030
1.0
1040
0.0
1040
10.49311072076324
1040
8.199552550603792
1040
5.049598523466701
1040
50.0
1040
0.0
1040
0.0
1070
     0
1070
   100
1070
     1
1070
     0
1070
     0
1070
     0
1070
     0
1070
     0
1040
0.0
1040
0.0
1040
0.0
1040
0.5
1040
0.5
1040
0.5
1040
0.5
1070
     0
1002
{
1002
}
1002
}
  0
LWPOLYLINE
  5
175
330
1B
100
AcDbEntity
 67
     1
  8
VIEWPORT
100
AcDbPolyline
 90
        6
 70
     1
 43
0.0
 10
16.40000099999999
 20
10.25
 10
16.40000099999999
 20
0.9120019999999993
 10
8.002461
 20
0.9120019999999993
 10
8.002461
 20
0.0
 10
0.0
 20
0.0
 10
0.0
 20
10.25
1001
GENIUS_GENOREF_13
1005
0
1005
0
1005
0
1005
0
1005
0
1005
0
1005
0
1005
0
  0
VIEWPORT
  5
177
330
1B
100
AcDbEntity
 67
     1
  8
VIEWPORT
100
AcDbViewport
 10
8.200000499999999
 20
5.125
 30
0.0
 40
16.40000099999999
 41
10.25
 68
     2
 69
     2
1001
ACAD
1000
MVIEW
1002
{
1070
    16
1010
0.0
1020
0.0
1030
0.0
1010
0.0
1020
0.0
1030
1.0
1040
0.0
1040
102.4999999999999
1040
82.00000500000003
1040
51.25
1040
50.0
1040
0.0
1040
0.0
1070
     0
1070
   100
1070
     1
1070
     2
1070
     0
1070
     0
1070
     0
1070
     0
1040
0.0
1040
0.0
1040
0.0
1040
0.5
1040
0.5
1040
0.5
1040
0.5
1070
     0
1002
{
1002
}
1002
}
1001
GENIUS_GENOREF_13
1005
0
1005
0
1005
0
1005
0
1005
0
1005
0
1005
0
1005
0
1001
GENIUS_GENSCREG_15
1000
PF
1040
0.0
1000
DF
1040
0.0
1000
MIN
1011
0.0
1021
0.0
1031
0.0
1000
MAX
1011
16.40000099999999
1021
10.25
1031
0.0
1000
FLAGS
1070
     2
  0
INSERT
  5
B2C
330
1B
100
AcDbEntity
 67
     1
  8
TITLEBLOCK
100
AcDbBlockReference
 66
     1
  2
TITLE-PAD
 10
0.0
 20
0.0
 30
0.0
  0
ATTRIB
  5
B2D
330
B2C
100
AcDbEntity
 67
     1
  8
TEXT1
 62
     0
100
AcDbText
 10
9.037552634652273
 20
0.7069698979828261
 30
0.0
 40
0.1
  1
OUTLINE, MINIBREAK DIGEST
  7
ROMANS
 72
     4
 11
10.10183834893798
 21
0.7474460884590166
 31
0.0
100
AcDbAttribute
  2
DESCRIPTION 1
 70
     0
  0
ATTRIB
  5
B2E
330
B2C
100
AcDbEntity
 67
     1
  8
TEXT1
 62
     0
100
AcDbText
 10
9.335171682271321
 20
0.5612469806644811
 30
0.0
 40
0.1
  1
FUSED 5.5KV, 200A
  7
ROMANS
 72
     4
 11
10.10183834893798
 21
0.6017231711406717
 31
0.0
100
AcDbAttribute
  2
DESCRIPTION 2
 70
     0
  0
ATTRIB
  5
B2F
330
B2C
100
AcDbEntity
 67
     1
  8
TEXT1
 62
     0
100
AcDbText
 10
10.10183834893798
 20
0.4560002538223267
 30
0.0
 40
0.08
  1

  7
ROMANS
 72
     4
 11
10.10183834893798
 21
0.4560002538223267
 31
0.0
100
AcDbAttribute
  2
DESCRIPTION 3
 70
     0
  0
ATTRIB
  5
B30
330
B2C
100
AcDbEntity
 67
     1
  8
TEXT1
 62
     0
100
AcDbText
 10
10.10183834893798
 20
0.3202773365039833
 30
0.0
 40
0.08
  1

  7
ROMANS
 72
     4
 11
10.10183834893798
 21
0.3202773365039833
 31
0.0
100
AcDbAttribute
  2
DESCRIPTION 4
 70
     0
  0
ATTRIB
  5
B31
330
B2C
100
AcDbEntity
 67
     1
  8
TEXT1
 62
     0
100
AcDbText
 10
10.10183834893798
 20
0.1845544191856399
 30
0.0
 40
0.08
  1

  7
ROMANS
 72
     4
 11
10.10183834893798
 21
0.1845544191856399
 31
0.0
100
AcDbAttribute
  2
DESCRIPTION 5
 70
     0
  0
ATTRIB
  5
B32
330
B2C
100
AcDbEntity
 67
     1
  8
TEXT1
 62
     0
100
AcDbText
 10
12.74772367103195
 20
0.096540546036505
 30
0.0
 40
0.12
  1
44070-885
 41
0.9512024731840066
  7
M_STANDARD
 11
12.74772367103195
 21
0.156540546036505
 31
0.0
100
AcDbAttribute
  2
DWGNO
 70
     0
 74
     2
  0
ATTRIB
  5
B33
330
B2C
100
AcDbEntity
 67
     1
  8
TEXT1
 62
     0
100
AcDbText
 10
15.6579216923504
 20
-0.1507193079929352
 30
0.0
 40
0.08
  1
44070-885
  7
ROMANS
 72
     2
 11
16.35506454949325
 21
-0.1107193079929352
 31
0.0
100
AcDbAttribute
  2
REF
 70
     0
 74
     2
  0
ATTRIB
  5
B34
330
B2C
100
AcDbEntity
 67
     1
  8
TEXT1
 62
     0
100
AcDbText
 10
0.0266402374038712
 20
-0.1507193079929352
 30
0.0
 40
0.08
  1
APRIL 2002
  7
ROMANS
 11
0.0266402374038712
 21
-0.1107193079929352
 31
0.0
100
AcDbAttribute
  2
DATE
 70
     0
 74
     2
  0
SEQEND
  5
B35
330
B2C
100
AcDbEntity
 67
     1
  8
0
  0
ENDSEC
  0
SECTION
  2
OBJECTS
  0
DICTIONARY
  5
C
330
0
100
AcDbDictionary
  3
ACAD_GROUP
350
D
  3
ACAD_LAYOUT
350
1A
  3
ACAD_MLINESTYLE
350
17
  3
ACAD_PLOTSETTINGS
350
19
  3
ACAD_PLOTSTYLENAME
350
E
  3
ACDBHEADERROUNDTRIPXREC
350
43E8
  3
ACDBVARIABLEDICTIONARY
350
374
  3
ACMDICTIONARY
350
383
  3
AMG
350
36B
  3
AMGSNAPSETTINGS
350
399
  3
ASE_INDEX_DICTIONARY
350
6A
  3
DWGPROPS
350
D65
  0
DICTIONARY
  5
73
330
1F
100
AcDbDictionary
280
     1
  3
ACAD_INDEX
360
1C33
  3
ACAD_LAYOUTSELFREF
360
440A
  0
DICTIONARY
  5
75
330
1B
100
AcDbDictionary
280
     1
  3
ACAD_LAYOUTSELFREF
360
4409
  0
DICTIONARY
  5
D
102
{ACAD_REACTORS
330
C
102
}
330
C
100
AcDbDictionary
  0
DICTIONARY
  5
1A
102
{ACAD_REACTORS
330
C
102
}
330
C
100
AcDbDictionary
  0
DICTIONARY
  5
17
102
{ACAD_REACTORS
330
C
102
}
330
C
100
AcDbDictionary
  3
STANDARD
350
18
  0
DICTIONARY
  5
19
102
{ACAD_REACTORS
330
C
102
}
330
C
100
AcDbDictionary
  3
A_SIZE_PAPER
350
2FF
  3
B_SIZE_PAPER
350
2FD
  3
D_SIZE_PAPER
350
2FE
  0
ACDBDICTIONARYWDFLT
  5
E
102
{ACAD_REACTORS
330
C
102
}
330
C
100
AcDbDictionary
281
     1
  3
Normal
350
F
100
AcDbDictionaryWithDefault
340
F
  0
DICTIONARY
  5
43E8
102
{ACAD_REACTORS
330
C
102
}
330
C
100
AcDbDictionary
  3
CEPSNTYPE
350
43F2
  3
DIMSTYLEDATA
350
43F6
  3
FINGERPRINTGUID
350
43F3
  3
HYPERLINKBASE
350
43EB
  3
INSUNITS
350
43F1
  3
LAYOUTDICT
350
43ED
  3
LWETCUNION
350
43F0
  3
PLOTSETDICT
350
43EE
  3
PLOTSTYLNAMDICT
350
43EF
  3
PSVPSCALE
350
43F5
  3
PUCSBASE
350
43F9
  3
PUCSORGBACK
350
43FF
  3
PUCSORGBOTTOM
350
43FB
  3
PUCSORGFRONT
350
43FE
  3
PUCSORGLEFT
350
43FC
  3
PUCSORGRIGHT
350
43FD
  3
PUCSORGTOP
350
43FA
  3
PUCSORTHOREF
350
43F7
  3
PUCSORTHOVIEW
350
43F8
  3
STYLESHEET
350
43EC
  3
TSTACKALIGN
350
43E9
  3
TSTACKSIZE
350
43EA
  3
UCSBASE
350
4402
  3
UCSORGBACK
350
4408
  3
UCSORGBOTTOM
350
4404
  3
UCSORGFRONT
350
4407
  3
UCSORGLEFT
350
4405
  3
UCSORGRIGHT
350
4406
  3
UCSORGTOP
350
4403
  3
UCSORTHOREF
350
4400
  3
UCSORTHOVIEW
350
4401
  3
VERSIONGUID
350
43F4
  0
DICTIONARY
  5
374
102
{ACAD_REACTORS
330
C
102
}
330
C
100
AcDbDictionary
  3
DIMASSOC
350
1EEC
  3
INDEXCTL
350
375
  0
DICTIONARY
  5
383
102
{ACAD_REACTORS
330
C
102
}
330
C
100
AcDbDictionary
  0
DICTIONARY
  5
36B
102
{ACAD_REACTORS
330
C
102
}
330
C
100
AcDbDictionary
  3
ACMGSETTINGS
350
36C
  0
DICTIONARY
  5
399
102
{ACAD_REACTORS
330
C
102
}
330
C
100
AcDbDictionary
  0
DICTIONARY
  5
6A
102
{ACAD_REACTORS
330
C
102
}
330
C
100
AcDbDictionary
  3
ASEBLOCKHIERARCHYINDEXRECORD
350
6C
1001
DCO15
1040
1379130883.246999
  0
XRECORD
  5
D65
102
{ACAD_REACTORS
330
C
102
}
330
C
100
AcDbXrecord
  1
DWGPROPS COOKIE
  2

  3

  4

  6

  7

  8
mgp706
  9

300
AmdtFileType=84
301
=
302
=
303
=
304
=
305
=
306
=
307
=
308
=
309
=
 40
0.2109203356481482
 41
2451764.535041909
 42
2451851.599312743
  1

 90
        1
  0
DICTIONARY
  5
1C33
102
{ACAD_REACTORS
330
73
102
}
330
73
100
AcDbDictionary
  3
*A1
350
1C34
  0
XRECORD
  5
440A
102
{ACAD_REACTORS
330
73
102
}
330
73
100
AcDbXrecord
340
1F
  0
XRECORD
  5
4409
102
{ACAD_REACTORS
330
75
102
}
330
75
100
AcDbXrecord
340
1B
  0
MLINESTYLE
  5
18
102
{ACAD_REACTORS
330
17
102
}
330
17
100
AcDbMlineStyle
  2
STANDARD
 70
     0
  3

 62
   256
 51
90.0
 52
90.0
 71
     2
 49
0.5
 62
   256
  6
BYLAYER
 49
-0.5
 62
   256
  6
BYLAYER
  0
PLOTSETTINGS
  5
2FF
102
{ACAD_REACTORS
330
19
102
}
330
19
100
AcDbPlotSettings
  1
A Size Paper
  2
none_device
  4
ANSI_A_(8.50_x_11.00_Inches)
  6

 40
6.349999904632568
 41
19.04999923706054
 42
6.350006103515625
 43
19.04998779296875
 44
215.8999938964843
 45
279.3999938964843
 46
19.04999999999999
 47
-9.651999999999999
 48
0.0
 49
0.0
140
0.0
141
0.0
142
1.0
143
1.6
 70
   740
 72
     0
 73
     1
 74
     1
  7
monochrome.ctb
 75
     0
147
0.625
148
0.0034886547032954
149
0.0199946439100934
  0
PLOTSETTINGS
  5
2FD
102
{ACAD_REACTORS
330
19
102
}
330
19
100
AcDbPlotSettings
  1
B Size Paper
  2
none_device
  4
ANSI_B_(11.00_x_17.00_Inches)
  6

 40
6.349999904632568
 41
19.04999923706054
 42
6.350006103515625
 43
19.04998779296875
 44
279.3999938964843
 45
431.7999877929687
 46
1.27
 47
-11.43
 48
0.0
 49
0.0
140
0.0
141
0.0
142
1.0
143
1.0
 70
   756
 72
     0
 73
     1
 74
     1
  7
monochrome.ctb
 75
    16
147
1.0
148
0.0034886547032954
149
0.0199946439100934
  0
PLOTSETTINGS
  5
2FE
102
{ACAD_REACTORS
330
19
102
}
330
19
100
AcDbPlotSettings
  1
D Size Paper
  2
none_device
  4
ANSI_D_(22.00_x_34.00_Inches)
  6

 40
6.349999904632568
 41
19.04999923706054
 42
6.3499755859375
 43
19.04998779296875
 44
558.7999877929687
 45
863.5999755859375
 46
8.889999999999998
 47
-3.809999999999999
 48
0.0
 49
0.0
140
0.0
141
0.0
142
1.0
143
0.5
 70
   740
 72
     0
 73
     1
 74
     1
  7
monochrome.ctb
 75
     0
147
2.0
148
0.0034886547032954
149
0.0199946439100934
  0
ACDBPLACEHOLDER
  5
F
102
{ACAD_REACTORS
330
E
102
}
330
E
100
AcDbPlaceHolder
280
     0
  0
XRECORD
  5
43F2
102
{ACAD_REACTORS
330
43E8
102
}
330
43E8
100
AcDbXrecord
 90
        0
  0
XRECORD
  5
43F6
102
{ACAD_REACTORS
330
43E8
102
}
330
43E8
100
AcDbXrecord
1000
DSTYLE
1002
{
1070
    79
 70
     1
1070
   148
 40
0.1
1070
   341
340
E0D
1070
   342
340
E0D
1070
   371
 70
    -1
1070
   372
 70
    -1
1002
}
  0
XRECORD
  5
43F3
102
{ACAD_REACTORS
330
43E8
102
}
330
43E8
100
AcDbXrecord
  1
{4E694E3A-6C64-11D4-81E3-0004AC4461C9}
  0
XRECORD
  5
43EB
102
{ACAD_REACTORS
330
43E8
102
}
330
43E8
100
AcDbXrecord
  1

  0
XRECORD
  5
43F1
102
{ACAD_REACTORS
330
43E8
102
}
330
43E8
100
AcDbXrecord
 90
        1
  0
XRECORD
  5
43ED
102
{ACAD_REACTORS
330
43E8
102
}
330
43E8
100
AcDbXrecord
340
1A
  0
XRECORD
  5
43F0
102
{ACAD_REACTORS
330
43E8
102
}
330
43E8
100
AcDbXrecord
 90
    10269
  0
XRECORD
  5
43EE
102
{ACAD_REACTORS
330
43E8
102
}
330
43E8
100
AcDbXrecord
340
19
  0
XRECORD
  5
43EF
102
{ACAD_REACTORS
330
43E8
102
}
330
43E8
100
AcDbXrecord
340
E
  0
XRECORD
  5
43F5
102
{ACAD_REACTORS
330
43E8
102
}
330
43E8
100
AcDbXrecord
 40
1.0
  0
XRECORD
  5
43F9
102
{ACAD_REACTORS
330
43E8
102
}
330
43E8
100
AcDbXrecord
340
0
  0
XRECORD
  5
43FF
102
{ACAD_REACTORS
330
43E8
102
}
330
43E8
100
AcDbXrecord
 10
0.0
 20
0.0
 30
0.0
  0
XRECORD
  5
43FB
102
{ACAD_REACTORS
330
43E8
102
}
330
43E8
100
AcDbXrecord
 10
0.0
 20
0.0
 30
0.0
  0
XRECORD
  5
43FE
102
{ACAD_REACTORS
330
43E8
102
}
330
43E8
100
AcDbXrecord
 10
0.0
 20
0.0
 30
0.0
  0
XRECORD
  5
43FC
102
{ACAD_REACTORS
330
43E8
102
}
330
43E8
100
AcDbXrecord
 10
0.0
 20
0.0
 30
0.0
  0
XRECORD
  5
43FD
102
{ACAD_REACTORS
330
43E8
102
}
330
43E8
100
AcDbXrecord
 10
0.0
 20
0.0
 30
0.0
  0
XRECORD
  5
43FA
102
{ACAD_REACTORS
330
43E8
102
}
330
43E8
100
AcDbXrecord
 10
0.0
 20
0.0
 30
0.0
  0
XRECORD
  5
43F7
102
{ACAD_REACTORS
330
43E8
102
}
330
43E8
100
AcDbXrecord
340
0
  0
XRECORD
  5
43F8
102
{ACAD_REACTORS
330
43E8
102
}
330
43E8
100
AcDbXrecord
 70
     0
  0
XRECORD
  5
43EC
102
{ACAD_REACTORS
330
43E8
102
}
330
43E8
100
AcDbXrecord
  1

  0
XRECORD
  5
43E9
102
{ACAD_REACTORS
330
43E8
102
}
330
43E8
100
AcDbXrecord
 90
        1
  0
XRECORD
  5
43EA
102
{ACAD_REACTORS
330
43E8
102
}
330
43E8
100
AcDbXrecord
 90
       70
  0
XRECORD
  5
4402
102
{ACAD_REACTORS
330
43E8
102
}
330
43E8
100
AcDbXrecord
340
0
  0
XRECORD
  5
4408
102
{ACAD_REACTORS
330
43E8
102
}
330
43E8
100
AcDbXrecord
 10
0.0
 20
0.0
 30
0.0
  0
XRECORD
  5
4404
102
{ACAD_REACTORS
330
43E8
102
}
330
43E8
100
AcDbXrecord
 10
0.0
 20
0.0
 30
0.0
  0
XRECORD
  5
4407
102
{ACAD_REACTORS
330
43E8
102
}
330
43E8
100
AcDbXrecord
 10
0.0
 20
0.0
 30
0.0
  0
XRECORD
  5
4405
102
{ACAD_REACTORS
330
43E8
102
}
330
43E8
100
AcDbXrecord
 10
0.0
 20
0.0
 30
0.0
  0
XRECORD
  5
4406
102
{ACAD_REACTORS
330
43E8
102
}
330
43E8
100
AcDbXrecord
 10
0.0
 20
0.0
 30
0.0
  0
XRECORD
  5
4403
102
{ACAD_REACTORS
330
43E8
102
}
330
43E8
100
AcDbXrecord
 10
0.0
 20
0.0
 30
0.0
  0
XRECORD
  5
4400
102
{ACAD_REACTORS
330
43E8
102
}
330
43E8
100
AcDbXrecord
340
0
  0
XRECORD
  5
4401
102
{ACAD_REACTORS
330
43E8
102
}
330
43E8
100
AcDbXrecord
 70
     0
  0
XRECORD
  5
43F4
102
{ACAD_REACTORS
330
43E8
102
}
330
43E8
100
AcDbXrecord
  1
{227A7A6E-7300-11D6-B0EF-000347E5A8BF}
  0
DICTIONARYVAR
  5
1EEC
102
{ACAD_REACTORS
330
374
102
}
330
374
100
DictionaryVariables
280
     0
  1
1
  0
DICTIONARYVAR
  5
375
102
{ACAD_REACTORS
330
374
102
}
330
374
100
DictionaryVariables
280
     0
  1
1
  0
DICTIONARY
  5
36C
102
{ACAD_REACTORS
330
36B
102
}
330
36B
100
AcDbDictionary
  3
DWGSETTINGS
350
D51
  0
XRECORD
  5
6C
102
{ACAD_REACTORS
330
6A
102
}
330
6A
100
AcDbXrecord
  0
LAYER_INDEX
  5
1C34
102
{ACAD_REACTORS
330
1C33
102
}
330
1C33
100
AcDbIndex
 40
2452424.315922419
100
AcDbLayerIndex
  8
0
360
1C35
 90
       92
  8
CENTER1
360
1C36
 90
       23
  8
CONTINUOUS1
360
1C37
 90
      630
  8
CONTINUOUS2
360
1C38
 90
        0
  8
CONTINUOUS3
360
1C39
 90
        0
  8
DIM
360
1C3A
 90
       24
  8
HIDDEN1
360
1C3B
 90
      134
  8
PHANTOM1
360
1C3C
 90
       29
  8
TEXT1
360
1C3D
 90
       15
  8
TITLEBLOCK
360
1C3E
 90
        0
  8
VIEWPORT
360
1C3F
 90
        2
  8
Defpoints
360
1C40
 90
        0
  8
MFG_NOTES
360
1C41
 90
        3
  0
XRECORD
  5
D51
102
{ACAD_REACTORS
330
36C
102
}
330
36C
100
AcDbXrecord
  1
VERSION
140
15.0
  1
PRODUCT
  2
AutoCAD Mechanical 2000
  0
IDBUFFER
  5
1C35
330
0
100
AcDbIdBuffer
330
E46
330
1530
330
1531
330
1532
330
1533
330
18F0
330
1936
330
193C
330
193E
330
1940
330
1942
330
1944
330
1946
330
1948
330
194A
330
194C
330
194E
330
1950
330
1952
330
1954
330
1956
330
1958
330
195A
330
195C
330
195E
330
1960
330
1962
330
3713
330
3714
330
3715
330
3716
330
3717
330
3718
330
3719
330
371A
330
371B
330
371C
330
371D
330
371E
330
371F
330
3720
330
3721
330
3722
330
3723
330
3724
330
3725
330
3726
330
3727
330
3728
330
3729
330
372A
330
372B
330
372C
330
372D
330
3A34
330
3A35
330
3A36
330
3A37
330
3A38
330
3A39
330
3A3A
330
3A3B
330
3A3C
330
3A3D
330
3A3E
330
3A3F
330
3A40
330
3A41
330
3A42
330
3A43
330
3A44
330
3A45
330
3A46
330
3A47
330
3A48
330
3A49
330
3A4A
330
3A4B
330
3A4C
330
3A4D
330
3A4E
330
3A4F
330
3A50
330
3A51
330
3A52
330
3A53
330
3A54
330
3A59
330
3A5B
330
3A5D
330
3E42
330
3E44
  0
IDBUFFER
  5
1C36
330
0
100
AcDbIdBuffer
330
2874
330
2875
330
29D2
330
29D3
330
29D4
330
2A00
330
2A57
330
2A95
330
2A96
330
2A97
330
2A98
330
2A99
330
2A9A
330
2A9B
330
2A9C
330
2AAE
330
2AAF
330
2AB0
330
2AB1
330
2AB2
330
2AB3
330
3E3D
330
3E3E
  0
IDBUFFER
  5
1C37
330
0
100
AcDbIdBuffer
330
277F
330
2782
330
2783
330
2784
330
2785
330
2786
330
2787
330
2788
330
2789
330
278A
330
278B
330
278C
330
278D
330
278E
330
278F
330
2790
330
2791
330
2792
330
2793
330
2794
330
2795
330
2798
330
2799
330
279A
330
279B
330
279C
330
279D
330
279E
330
279F
330
27A0
330
27A1
330
27A2
330
27A3
330
27A4
330
27A5
330
27A6
330
27A7
330
27A8
330
27A9
330
27AA
330
27AB
330
27AC
330
27AD
330
27AE
330
27AF
330
27B0
330
27B1
330
27B2
330
27B3
330
27B4
330
27B5
330
27B6
330
27B7
330
27B8
330
27B9
330
27BA
330
27BB
330
27BC
330
27BD
330
27BE
330
27BF
330
27C0
330
27C1
330
27C2
330
27C3
330
27C4
330
27C5
330
27C6
330
27C7
330
27C8
330
27C9
330
27CA
330
27CB
330
27CC
330
27CD
330
27CE
330
27CF
330
27D0
330
27D1
330
27D2
330
27D3
330
27D4
330
27D5
330
27D6
330
27D7
330
27D8
330
27D9
330
27DA
330
27DB
330
27DC
330
27DD
330
27DE
330
27DF
330
27E0
330
27E1
330
27E2
330
27E3
330
27E4
330
27E5
330
27E6
330
27E7
330
27E8
330
27E9
330
27EA
330
27EB
330
27EC
330
27ED
330
27EE
330
27EF
330
27F0
330
27F1
330
27F2
330
27F3
330
27F4
330
27F5
330
27F6
330
27F7
330
27F8
330
27F9
330
27FA
330
27FB
330
27FC
330
27FD
330
27FE
330
27FF
330
2800
330
2801
330
2802
330
2803
330
2804
330
2805
330
2806
330
2807
330
2808
330
2809
330
280A
330
280B
330
280C
330
280D
330
280E
330
280F
330
2810
330
2811
330
2812
330
2813
330
2814
330
2815
330
2816
330
2817
330
2819
330
281B
330
281C
330
281E
330
281F
330
2820
330
2821
330
2822
330
2823
330
2824
330
2825
330
2826
330
282A
330
282B
330
282C
330
282E
330
282F
330
2830
330
2835
330
2836
330
2837
330
2838
330
2839
330
283A
330
283B
330
283C
330
283D
330
283E
330
283F
330
2840
330
2841
330
2842
330
2843
330
2845
330
2846
330
2878
330
2879
330
287B
330
287C
330
287D
330
287E
330
287F
330
2880
330
2881
330
2882
330
2883
330
2884
330
2885
330
2886
330
2887
330
2888
330
2889
330
288A
330
288B
330
288C
330
288D
330
288E
330
288F
330
2890
330
2891
330
2892
330
2893
330
2894
330
2895
330
2896
330
2897
330
2898
330
2899
330
289A
330
289B
330
289C
330
289D
330
289E
330
289F
330
28A0
330
28A1
330
28A2
330
28A3
330
28A4
330
28A5
330
28A6
330
28A7
330
28A8
330
28A9
330
28AA
330
28AB
330
28AC
330
28AD
330
28AE
330
28AF
330
28B0
330
28B1
330
28B2
330
28B3
330
28B4
330
28B5
330
28B6
330
28B7
330
28B8
330
28B9
330
28BA
330
28BB
330
28BC
330
28BD
330
28BE
330
28BF
330
28C0
330
28C1
330
28C2
330
28C3
330
28C4
330
28C5
330
28C6
330
28C7
330
28C8
330
28C9
330
28CA
330
28CB
330
28CC
330
28CD
330
28CE
330
28CF
330
28D0
330
28D1
330
28D2
330
28D3
330
28D4
330
28D5
330
28D6
330
28D7
330
28D8
330
28D9
330
28DA
330
28DB
330
28DC
330
28DD
330
28DE
330
28DF
330
28E0
330
28E1
330
28E2
330
28E3
330
28E4
330
28E5
330
28E6
330
28E7
330
28E8
330
28E9
330
28EA
330
28EB
330
28EC
330
28ED
330
28EE
330
28EF
330
28F0
330
28F1
330
28F2
330
28F3
330
28F4
330
28F5
330
28F6
330
28F7
330
28F8
330
28F9
330
28FA
330
28FB
330
28FC
330
28FD
330
28FE
330
28FF
330
2900
330
2901
330
2902
330
2903
330
2904
330
2905
330
2906
330
2907
330
2908
330
2909
330
290A
330
290B
330
290C
330
290D
330
290E
330
290F
330
2910
330
2911
330
2912
330
2913
330
2914
330
2915
330
2916
330
2917
330
2918
330
2919
330
291A
330
291B
330
291C
330
291D
330
291E
330
291F
330
2920
330
2921
330
2922
330
2923
330
2924
330
2925
330
2926
330
2927
330
2928
330
2929
330
292A
330
292B
330
292C
330
292D
330
292E
330
292F
330
2930
330
2931
330
2932
330
2933
330
2934
330
2935
330
2936
330
2937
330
2938
330
2939
330
293A
330
293B
330
293C
330
293D
330
293E
330
293F
330
2940
330
2941
330
2942
330
2943
330
2944
330
2945
330
2946
330
2947
330
2948
330
2949
330
294A
330
294B
330
294C
330
294D
330
294E
330
294F
330
2950
330
2951
330
2952
330
2953
330
2954
330
2955
330
2956
330
2957
330
2958
330
2959
330
295A
330
295B
330
295C
330
295D
330
295E
330
295F
330
2960
330
2961
330
2962
330
2963
330
2964
330
2965
330
2966
330
2967
330
2968
330
2969
330
296A
330
296B
330
296C
330
296D
330
296E
330
296F
330
2970
330
2971
330
2972
330
2973
330
2974
330
2975
330
2976
330
2977
330
2978
330
2979
330
297A
330
297B
330
297C
330
297D
330
2980
330
2981
330
2982
330
2983
330
2984
330
2985
330
2986
330
2987
330
2988
330
2989
330
298A
330
298B
330
298C
330
298D
330
298E
330
298F
330
2990
330
2991
330
2992
330
2993
330
2994
330
2995
330
2996
330
2997
330
2998
330
2999
330
29A4
330
29A5
330
29A7
330
29A8
330
29B8
330
29BA
330
29BB
330
29BC
330
29BD
330
29BE
330
29BF
330
29C0
330
29C1
330
29C2
330
29C3
330
29C4
330
29C5
330
29C6
330
29C7
330
29C8
330
29C9
330
29CA
330
29CB
330
29CC
330
29CD
330
29CE
330
29CF
330
29D0
330
29D1
330
29D5
330
29D6
330
29D9
330
29DC
330
29DF
330
29E2
330
29E3
330
29E4
330
29E5
330
29E6
330
29E7
330
29E8
330
29EB
330
29EE
330
29F1
330
29F4
330
29F5
330
29F6
330
29F7
330
29F8
330
29F9
330
29FA
330
29FB
330
29FC
330
29FD
330
29FE
330
29FF
330
2A03
330
2A06
330
2A09
330
2A0C
330
2A0D
330
2A0E
330
2A0F
330
2A11
330
2A12
330
2A13
330
2A14
330
2A15
330
2A16
330
2A17
330
2A18
330
2A1D
330
2A1E
330
2A21
330
2A24
330
2A27
330
2A2A
330
2A32
330
2A39
330
2A3A
330
2A3F
330
2A55
330
2A56
330
2A58
330
2A5B
330
2A5E
330
2A64
330
2A67
330
2A68
330
2A6D
330
2A6E
330
2A6F
330
2A70
330
2A76
330
2A77
330
2A8F
330
2A90
330
2A91
330
2A92
330
2A9D
330
2A9E
330
2AA0
330
2AA1
330
2AA2
330
2AA3
330
2AA4
330
2AA5
330
2AA6
330
2AA7
330
2AB5
330
2AB6
330
2AB7
330
2ABA
330
2ABC
330
2ABD
330
2ABF
330
2AC0
330
2AC8
330
2AC9
330
2AD4
330
2B60
330
2B61
330
2B62
330
2B63
330
2B64
330
2B65
330
2B66
330
2B67
330
2B68
330
2B69
330
2B6A
330
2B6B
330
2B6C
330
2B6D
330
2B6E
330
2B6F
330
2B70
330
2B71
330
2B72
330
2B73
330
2B74
330
2B75
330
2B76
330
2B77
330
2B78
330
2B79
330
2BA2
330
2BA3
330
2BDF
330
2BE0
330
2BE1
330
37B0
330
37B4
330
37B5
330
37B6
330
37B7
330
37B8
330
37B9
330
3A33
  0
IDBUFFER
  5
1C38
330
0
100
AcDbIdBuffer
  0
IDBUFFER
  5
1C39
330
0
100
AcDbIdBuffer
  0
IDBUFFER
  5
1C3A
330
0
100
AcDbIdBuffer
330
39D5
330
39D6
330
39D7
330
39D8
330
39D9
330
39DA
330
39DB
330
39DC
330
3A28
330
3A29
330
3A2A
330
3A2B
330
3A2C
330
3A2D
330
3A2E
330
3A2F
330
3A30
330
3A31
330
3A32
330
3C3F
330
3C4D
330
3C5B
330
3C69
330
3C77
  0
IDBUFFER
  5
1C3B
330
0
100
AcDbIdBuffer
330
2780
330
2781
330
2796
330
2797
330
2818
330
281A
330
281D
330
2829
330
282D
330
2831
330
2832
330
2833
330
2834
330
2844
330
2876
330
2877
330
287A
330
297E
330
297F
330
29A0
330
29A1
330
29A2
330
29A3
330
29A6
330
29A9
330
29AA
330
29AB
330
29AC
330
29AD
330
29AE
330
29AF
330
29B0
330
29B1
330
29B2
330
29B3
330
29B4
330
29B5
330
29B6
330
29B7
330
29B9
330
2A10
330
2A3B
330
2A3C
330
2A3D
330
2A40
330
2A54
330
2A5F
330
2A60
330
2A61
330
2A69
330
2A6A
330
2A6B
330
2A6C
330
2A71
330
2A72
330
2A73
330
2A78
330
2A79
330
2A7A
330
2A7B
330
2A7C
330
2A7D
330
2A7E
330
2A7F
330
2A80
330
2A81
330
2A82
330
2A83
330
2A84
330
2A85
330
2A86
330
2A87
330
2A88
330
2A89
330
2A8A
330
2A8B
330
2A8C
330
2A8D
330
2A8E
330
2A93
330
2A9F
330
2AA8
330
2AA9
330
2AAA
330
2AAB
330
2AAC
330
2AAD
330
2AB4
330
2AC1
330
2AC2
330
2AC3
330
2AC4
330
2AC5
330
2AC6
330
2AC7
330
2ACA
330
2ACF
330
2AD0
330
2AD1
330
2AD2
330
2AD3
330
2AD5
330
2B4E
330
2B4F
330
2B86
330
2B87
330
2B88
330
2B89
330
2B8A
330
2B8B
330
2B8C
330
2B8D
330
2B8E
330
2B8F
330
2B90
330
2B91
330
2B92
330
2B93
330
2B94
330
2B95
330
2B96
330
2B97
330
2B98
330
2B99
330
2B9A
330
2B9B
330
2B9C
330
2B9D
330
2B9E
330
2B9F
330
2BA0
330
2BA1
330
2BA4
330
2BA5
  0
IDBUFFER
  5
1C3C
330
0
100
AcDbIdBuffer
330
2A33
330
2A34
330
2A35
330
2A36
330
2A37
330
2A38
330
2A3E
330
2A41
330
2A42
330
2A43
330
2A44
330
2A45
330
2A46
330
2A47
330
2A48
330
2A49
330
2A4A
330
2A4B
330
2A4C
330
2A4D
330
2A4E
330
2A4F
330
2A50
330
2A51
330
2A52
330
2A53
330
2A74
330
2A75
330
2A94
  0
IDBUFFER
  5
1C3D
330
0
100
AcDbIdBuffer
330
37AF
330
3959
330
3A1E
330
3A22
330
3A55
330
3A56
330
3A57
330
3A58
330
3A5A
330
3E3F
330
3E40
330
3E41
330
3E43
330
3E45
330
3E46
  0
IDBUFFER
  5
1C3E
330
0
100
AcDbIdBuffer
  0
IDBUFFER
  5
1C3F
330
0
100
AcDbIdBuffer
330
1C30
330
1C31
  0
IDBUFFER
  5
1C40
330
0
100
AcDbIdBuffer
  0
IDBUFFER
  5
1C41
330
0
100
AcDbIdBuffer
330
286F
330
2870
330
2871
  0
ENDSEC
  0
EOF
