  0
SECTION
  2
HEADER
  9
$ACADVER
  1
AC1014
  9
$ACADMAINTVER
 70
     9
  9
$DWGCODEPAGE
  3
ANSI_1252
  9
$INSBASE
 10
0.0
 20
0.0
 30
0.0
  9
$EXTMIN
 10
0.0
 20
-0.0159541128274282
 30
0.0
  9
$EXTMAX
 10
131.200008
 20
81.98404588717258
 30
0.0
  9
$LIMMIN
 10
0.0
 20
0.0
  9
$LIMMAX
 10
32.80000199999999
 20
20.5
  9
$ORTHOMODE
 70
     1
  9
$REGENMODE
 70
     1
  9
$FILLMODE
 70
     1
  9
$QTEXTMODE
 70
     0
  9
$MIRRTEXT
 70
     1
  9
$DRAGMODE
 70
     2
  9
$LTSCALE
 40
1.0
  9
$OSMODE
 70
   759
  9
$ATTMODE
 70
     1
  9
$TEXTSIZE
 40
0.2
  9
$TRACEWID
 40
0.05
  9
$TEXTSTYLE
  7
ROMANS
  9
$CLAYER
  8
CONTINUOUS1
  9
$CELTYPE
  6
BYLAYER
  9
$CECOLOR
 62
   256
  9
$CELTSCALE
 40
1.0
  9
$DELOBJ
 70
     1
  9
$DISPSILH
 70
     0
  9
$DIMSCALE
 40
0.0
  9
$DIMASZ
 40
0.07
  9
$DIMEXO
 40
0.0625
  9
$DIMDLI
 40
0.38
  9
$DIMRND
 40
0.001
  9
$DIMDLE
 40
0.0
  9
$DIMEXE
 40
0.0625
  9
$DIMTP
 40
0.0
  9
$DIMTM
 40
0.0
  9
$DIMTXT
 40
0.1
  9
$DIMCEN
 40
0.09
  9
$DIMTSZ
 40
0.0
  9
$DIMTOL
 70
     0
  9
$DIMLIM
 70
     0
  9
$DIMTIH
 70
     1
  9
$DIMTOH
 70
     1
  9
$DIMSE1
 70
     0
  9
$DIMSE2
 70
     0
  9
$DIMTAD
 70
     0
  9
$DIMZIN
 70
     4
  9
$DIMBLK
  1
SEARROW
  9
$DIMASO
 70
     1
  9
$DIMSHO
 70
     1
  9
$DIMPOST
  1
\P
  9
$DIMAPOST
  1

  9
$DIMALT
 70
     1
  9
$DIMALTD
 70
     0
  9
$DIMALTF
 40
25.4
  9
$DIMLFAC
 40
1.0
  9
$DIMTOFL
 70
     0
  9
$DIMTVP
 40
0.0
  9
$DIMTIX
 70
     0
  9
$DIMSOXD
 70
     0
  9
$DIMSAH
 70
     0
  9
$DIMBLK1
  1

  9
$DIMBLK2
  1

  9
$DIMSTYLE
  2
SCHNEIDERELECTRIC_DUAL_BEL
  9
$DIMCLRD
 70
   256
  9
$DIMCLRE
 70
   256
  9
$DIMCLRT
 70
   256
  9
$DIMTFAC
 40
1.0
  9
$DIMGAP
 40
0.04
  9
$DIMJUST
 70
     0
  9
$DIMSD1
 70
     0
  9
$DIMSD2
 70
     0
  9
$DIMTOLJ
 70
     1
  9
$DIMTZIN
 70
     0
  9
$DIMALTZ
 70
     4
  9
$DIMALTTZ
 70
     0
  9
$DIMFIT
 70
     3
  9
$DIMUPT
 70
     0
  9
$DIMUNIT
 70
     2
  9
$DIMDEC
 70
     2
  9
$DIMTDEC
 70
     2
  9
$DIMALTU
 70
     2
  9
$DIMALTTD
 70
     0
  9
$DIMTXSTY
  7
ROMANS
  9
$DIMAUNIT
 70
     0
  9
$LUNITS
 70
     2
  9
$LUPREC
 70
     4
  9
$SKETCHINC
 40
0.1
  9
$FILLETRAD
 40
0.5
  9
$AUNITS
 70
     0
  9
$AUPREC
 70
     0
  9
$MENU
  1
.
  9
$ELEVATION
 40
0.0
  9
$PELEVATION
 40
0.0
  9
$THICKNESS
 40
0.0
  9
$LIMCHECK
 70
     0
  9
$BLIPMODE
 70
     0
  9
$CHAMFERA
 40
0.5
  9
$CHAMFERB
 40
0.5
  9
$CHAMFERC
 40
1.0
  9
$CHAMFERD
 40
0.0
  9
$SKPOLY
 70
     0
  9
$TDCREATE
 40
2451764.576708576
  9
$TDUPDATE
 40
2452348.266948009
  9
$TDINDWG
 40
0.8725429282
  9
$TDUSRTIMER
 40
0.8725426968
  9
$USRTIMER
 70
     1
  9
$ANGBASE
 50
0.0
  9
$ANGDIR
 70
     0
  9
$PDMODE
 70
     0
  9
$PDSIZE
 40
0.0
  9
$PLINEWID
 40
0.0
  9
$COORDS
 70
     0
  9
$SPLFRAME
 70
     0
  9
$SPLINETYPE
 70
     6
  9
$SPLINESEGS
 70
     8
  9
$ATTDIA
 70
     0
  9
$ATTREQ
 70
     1
  9
$HANDLING
 70
 22529
  9
$HANDSEED
  5
8A4F
  9
$SURFTAB1
 70
     6
  9
$SURFTAB2
 70
     6
  9
$SURFTYPE
 70
     6
  9
$SURFU
 70
     6
  9
$SURFV
 70
     6
  9
$UCSNAME
  2

  9
$UCSORG
 10
0.0
 20
0.0
 30
0.0
  9
$UCSXDIR
 10
1.0
 20
0.0
 30
0.0
  9
$UCSYDIR
 10
0.0
 20
1.0
 30
0.0
  9
$PUCSNAME
  2

  9
$PUCSORG
 10
0.0
 20
0.0
 30
0.0
  9
$PUCSXDIR
 10
1.0
 20
0.0
 30
0.0
  9
$PUCSYDIR
 10
0.0
 20
1.0
 30
0.0
  9
$USERI1
 70
     0
  9
$USERI2
 70
     0
  9
$USERI3
 70
     0
  9
$USERI4
 70
     0
  9
$USERI5
 70
     0
  9
$USERR1
 40
0.0
  9
$USERR2
 40
0.0
  9
$USERR3
 40
0.0
  9
$USERR4
 40
0.0
  9
$USERR5
 40
0.0
  9
$WORLDVIEW
 70
     1
  9
$SHADEDGE
 70
     3
  9
$SHADEDIF
 70
    70
  9
$TILEMODE
 70
     0
  9
$MAXACTVP
 70
    48
  9
$PINSBASE
 10
0.0
 20
0.0
 30
0.0
  9
$PLIMCHECK
 70
     0
  9
$PEXTMIN
 10
-0.001010874945294
 20
-0.1512781664647882
 30
-0.0000000000112498
  9
$PEXTMAX
 10
16.40117492566047
 20
10.2505184933364
 30
0.0000000000002956
  9
$PLIMMIN
 10
-0.2572952919468931
 20
-1.483955840453708
  9
$PLIMMAX
 10
16.65745960246971
 20
11.58653649398089
  9
$UNITMODE
 70
     0
  9
$VISRETAIN
 70
     1
  9
$PLINEGEN
 70
     0
  9
$PSLTSCALE
 70
     1
  9
$TREEDEPTH
 70
  3020
  9
$PICKSTYLE
 70
     1
  9
$CMLSTYLE
  2
STANDARD
  9
$CMLJUST
 70
     0
  9
$CMLSCALE
 40
1.0
  9
$PROXYGRAPHICS
 70
     1
  9
$MEASUREMENT
 70
     0
  0
ENDSEC
  0
SECTION
  2
CLASSES
  0
CLASS
  1
ACDBDICTIONARYWDFLT
  2
AcDbDictionaryWithDefault
  3
AutoCAD 2000
 90
        0
280
     0
281
     0
  0
CLASS
  1
ACDBPLACEHOLDER
  2
AcDbPlaceHolder
  3
AutoCAD 2000
 90
        0
280
     0
281
     0
  0
CLASS
  1
LAYOUT
  2
AcDbLayout
  3
AutoCAD 2000
 90
        0
280
     0
281
     0
  0
CLASS
  1
LONG_TRANSACTION
  2
AcDbLongTransaction
  3
AutoCAD 2000
 90
        0
280
     0
281
     0
  0
CLASS
  1
LWPOLYLINE
  2
AcDbPolyline
  3
AutoCAD 2000
 90
        0
280
     0
281
     1
  0
CLASS
  1
HATCH
  2
AcDbHatch
  3
AutoCAD 2000
 90
        0
280
     0
281
     1
  0
CLASS
  1
XRECORD
  2
AcDbXrecord
  3
AutoCAD 2000
 90
        0
280
     0
281
     0
  0
CLASS
  1
LONG_TRANSACTION
  2
AcDbLongTransaction
  3
AutoCAD 2000
 90
        0
280
     0
281
     0
  0
CLASS
  1
LWPOLYLINE
  2
AcDbPolyline
  3
AutoCAD 2000
 90
        0
280
     0
281
     1
  0
CLASS
  1
HATCH
  2
AcDbHatch
  3
AutoCAD 2000
 90
        0
280
     0
281
     1
  0
CLASS
  1
XRECORD
  2
AcDbXrecord
  3
AutoCAD 2000
 90
        0
280
     0
281
     0
  0
CLASS
  1
LONG_TRANSACTION
  2
AcDbLongTransaction
  3
AutoCAD 2000
 90
        0
280
     0
281
     0
  0
CLASS
  1
LWPOLYLINE
  2
AcDbPolyline
  3
AutoCAD 2000
 90
        0
280
     0
281
     1
  0
CLASS
  1
HATCH
  2
AcDbHatch
  3
AutoCAD 2000
 90
        0
280
     0
281
     1
  0
CLASS
  1
XRECORD
  2
AcDbXrecord
  3
AutoCAD 2000
 90
        0
280
     0
281
     0
  0
CLASS
  1
PLOTSETTINGS
  2
AcDbPlotSettings
  3
AutoCAD 2000
 90
        0
280
     0
281
     0
  0
CLASS
  1
ACME_DOCUMENT
  2
AcMeDbDoc
  3
AcMeServices
 90
        0
280
     0
281
     0
  0
CLASS
  1
AMGSETTINGSOBJ
  2
AmgSettingsObj
  3
"AcadM|Product Description: AutoCAD Mechanical 2000|Company: Autodesk"
 90
        0
280
     0
281
     0
  0
CLASS
  1
ACMESCOPE
  2
AcMeScope
  3
AcMeServices
 90
        0
280
     0
281
     0
  0
CLASS
  1
ACMECOMMANDHISTORY
  2
AcMeCommandHistory
  3
AcMeServices
 90
        0
280
     0
281
     0
  0
CLASS
  1
DICTIONARYVAR
  2
AcDbDictionaryVar
  3
AutoCAD 2000
 90
        0
280
     0
281
     0
  0
CLASS
  1
ACIMSYSVARMAN
  2
AcImSysVarManager
  3
AcMeServices
 90
        0
280
     0
281
     0
  0
CLASS
  1
ACIMREALSYSVAR
  2
AcImRealSysVar
  3
AcMeServices
 90
        0
280
     0
281
     0
  0
CLASS
  1
ACIMINTSYSVAR
  2
AcImIntSysVar
  3
AcMeServices
 90
        0
280
     0
281
     0
  0
CLASS
  1
ACMEDRAWINGMAN
  2
AcMeDrawingMan
  3
AcMeServices
 90
        0
280
     0
281
     0
  0
CLASS
  1
ACMEVIEW
  2
AcMeView
  3
AcMeServices
 90
        0
280
     0
281
     0
  0
CLASS
  1
ACDBENTITYCACHE
  2
AcMeEntityCache
  3
AcMeServices
 90
        0
280
     0
281
     0
  0
CLASS
  1
GSMANAGER
  2
AcMeGSManager
  3
AcMeServices
 90
        0
280
     0
281
     0
  0
CLASS
  1
AmdtInternalReactor
  2
AmdtInternalReactor
  3
AcMeServices
 90
        0
280
     0
281
     0
  0
CLASS
  1
ACMESTATEMGR
  2
AcMeStateMgr
  3
AcMeServices
 90
        0
280
     0
281
     0
  0
CLASS
  1
ACME_DATABASE
  2
AcMeDbDatabase
  3
AcMeServices
 90
        0
280
     0
281
     0
  0
CLASS
  1
ACRFINSADJUSTERMGR
  2
AcRfInsAdjusterMgr
  3
AcMeServices
 90
        0
280
     0
281
     0
  0
CLASS
  1
ACMDATADICTIONARY
  2
AcmDataDictionary
  3
"AcmSymBB|Product Description: AutoCAD Mechanical 2000|Company: Autodesk"
 90
        0
280
     0
281
     0
  0
CLASS
  1
ACMDATAENTRYBLOCK
  2
AcmDataEntryBlock
  3
"AcmSymBB|Product Description: AutoCAD Mechanical 2000|Company: Autodesk"
 90
        0
280
     0
281
     0
  0
CLASS
  1
AMGOBJPROPCFG
  2
AmgObjPropCfg
  3
"AmgLay|Product Description: AutoCAD Mechanical 2000|Company: Autodesk"
 90
        1
280
     0
281
     0
  0
CLASS
  1
ACAMGFILTERDAT
  2
AcAmgFilterDat
  3
"AcadM|Product Description: AutoCAD Mechanical 2000|Company: Autodesk"
 90
        0
280
     0
281
     0
  0
CLASS
  1
LAYER_INDEX
  2
AcDbLayerIndex
  3
AutoCAD 2000
 90
        0
280
     0
281
     0
  0
CLASS
  1
IDBUFFER
  2
AcDbIdBuffer
  3
AutoCAD 2000
 90
        0
280
     0
281
     0
  0
CLASS
  1
LONG_TRANSACTION
  2
AcDbLongTransaction
  3
AutoCAD 2000
 90
        0
280
     0
281
     0
  0
CLASS
  1
LWPOLYLINE
  2
AcDbPolyline
  3
AutoCAD 2000
 90
        0
280
     0
281
     1
  0
CLASS
  1
HATCH
  2
AcDbHatch
  3
AutoCAD 2000
 90
        0
280
     0
281
     1
  0
CLASS
  1
XRECORD
  2
AcDbXrecord
  3
AutoCAD 2000
 90
        0
280
     0
281
     0
  0
CLASS
  1
LONG_TRANSACTION
  2
AcDbLongTransaction
  3
AutoCAD 2000
 90
        0
280
     0
281
     0
  0
CLASS
  1
LWPOLYLINE
  2
AcDbPolyline
  3
AutoCAD 2000
 90
        0
280
     0
281
     1
  0
CLASS
  1
HATCH
  2
AcDbHatch
  3
AutoCAD 2000
 90
        0
280
     0
281
     1
  0
CLASS
  1
XRECORD
  2
AcDbXrecord
  3
AutoCAD 2000
 90
        0
280
     0
281
     0
  0
CLASS
  1
LONG_TRANSACTION
  2
AcDbLongTransaction
  3
AutoCAD 2000
 90
        0
280
     0
281
     0
  0
CLASS
  1
LWPOLYLINE
  2
AcDbPolyline
  3
AutoCAD 2000
 90
        0
280
     0
281
     1
  0
CLASS
  1
HATCH
  2
AcDbHatch
  3
AutoCAD 2000
 90
        0
280
     0
281
     1
  0
CLASS
  1
XRECORD
  2
AcDbXrecord
  3
AutoCAD 2000
 90
        0
280
     0
281
     0
  0
CLASS
  1
LONG_TRANSACTION
  2
AcDbLongTransaction
  3
AutoCAD 2000
 90
        0
280
     0
281
     0
  0
CLASS
  1
LWPOLYLINE
  2
AcDbPolyline
  3
AutoCAD 2000
 90
        0
280
     0
281
     1
  0
CLASS
  1
HATCH
  2
AcDbHatch
  3
AutoCAD 2000
 90
        0
280
     0
281
     1
  0
CLASS
  1
XRECORD
  2
AcDbXrecord
  3
AutoCAD 2000
 90
        0
280
     0
281
     0
  0
CLASS
  1
LONG_TRANSACTION
  2
AcDbLongTransaction
  3
AutoCAD 2000
 90
        0
280
     0
281
     0
  0
CLASS
  1
LWPOLYLINE
  2
AcDbPolyline
  3
AutoCAD 2000
 90
        0
280
     0
281
     1
  0
CLASS
  1
HATCH
  2
AcDbHatch
  3
AutoCAD 2000
 90
        0
280
     0
281
     1
  0
CLASS
  1
XRECORD
  2
AcDbXrecord
  3
AutoCAD 2000
 90
        0
280
     0
281
     0
  0
CLASS
  1
LONG_TRANSACTION
  2
AcDbLongTransaction
  3
AutoCAD 2000
 90
        0
280
     0
281
     0
  0
CLASS
  1
LWPOLYLINE
  2
AcDbPolyline
  3
AutoCAD 2000
 90
        0
280
     0
281
     1
  0
CLASS
  1
HATCH
  2
AcDbHatch
  3
AutoCAD 2000
 90
        0
280
     0
281
     1
  0
CLASS
  1
XRECORD
  2
AcDbXrecord
  3
AutoCAD 2000
 90
        0
280
     0
281
     0
  0
CLASS
  1
LONG_TRANSACTION
  2
AcDbLongTransaction
  3
AutoCAD 2000
 90
        0
280
     0
281
     0
  0
CLASS
  1
LWPOLYLINE
  2
AcDbPolyline
  3
AutoCAD 2000
 90
        0
280
     0
281
     1
  0
CLASS
  1
HATCH
  2
AcDbHatch
  3
AutoCAD 2000
 90
        0
280
     0
281
     1
  0
CLASS
  1
XRECORD
  2
AcDbXrecord
  3
AutoCAD 2000
 90
        0
280
     0
281
     0
  0
CLASS
  1
LONG_TRANSACTION
  2
AcDbLongTransaction
  3
AutoCAD 2000
 90
        0
280
     0
281
     0
  0
CLASS
  1
LWPOLYLINE
  2
AcDbPolyline
  3
AutoCAD 2000
 90
        0
280
     0
281
     1
  0
CLASS
  1
HATCH
  2
AcDbHatch
  3
AutoCAD 2000
 90
        0
280
     0
281
     1
  0
CLASS
  1
XRECORD
  2
AcDbXrecord
  3
AutoCAD 2000
 90
        0
280
     0
281
     0
  0
CLASS
  1
LONG_TRANSACTION
  2
AcDbLongTransaction
  3
AutoCAD 2000
 90
        0
280
     0
281
     0
  0
CLASS
  1
LWPOLYLINE
  2
AcDbPolyline
  3
AutoCAD 2000
 90
        0
280
     0
281
     1
  0
CLASS
  1
HATCH
  2
AcDbHatch
  3
AutoCAD 2000
 90
        0
280
     0
281
     1
  0
CLASS
  1
XRECORD
  2
AcDbXrecord
  3
AutoCAD 2000
 90
        0
280
     0
281
     0
  0
CLASS
  1
LONG_TRANSACTION
  2
AcDbLongTransaction
  3
AutoCAD 2000
 90
        0
280
     0
281
     0
  0
CLASS
  1
LWPOLYLINE
  2
AcDbPolyline
  3
AutoCAD 2000
 90
        0
280
     0
281
     1
  0
CLASS
  1
HATCH
  2
AcDbHatch
  3
AutoCAD 2000
 90
        0
280
     0
281
     1
  0
CLASS
  1
XRECORD
  2
AcDbXrecord
  3
AutoCAD 2000
 90
        0
280
     0
281
     0
  0
CLASS
  1
LONG_TRANSACTION
  2
AcDbLongTransaction
  3
AutoCAD 2000
 90
        0
280
     0
281
     0
  0
CLASS
  1
LWPOLYLINE
  2
AcDbPolyline
  3
AutoCAD 2000
 90
        0
280
     0
281
     1
  0
CLASS
  1
HATCH
  2
AcDbHatch
  3
AutoCAD 2000
 90
        0
280
     0
281
     1
  0
CLASS
  1
XRECORD
  2
AcDbXrecord
  3
AutoCAD 2000
 90
        0
280
     0
281
     0
  0
CLASS
  1
LONG_TRANSACTION
  2
AcDbLongTransaction
  3
AutoCAD 2000
 90
        0
280
     0
281
     0
  0
CLASS
  1
LWPOLYLINE
  2
AcDbPolyline
  3
AutoCAD 2000
 90
        0
280
     0
281
     1
  0
CLASS
  1
HATCH
  2
AcDbHatch
  3
AutoCAD 2000
 90
        0
280
     0
281
     1
  0
CLASS
  1
XRECORD
  2
AcDbXrecord
  3
AutoCAD 2000
 90
        0
280
     0
281
     0
  0
CLASS
  1
LONG_TRANSACTION
  2
AcDbLongTransaction
  3
AutoCAD 2000
 90
        0
280
     0
281
     0
  0
CLASS
  1
LWPOLYLINE
  2
AcDbPolyline
  3
AutoCAD 2000
 90
        0
280
     0
281
     1
  0
CLASS
  1
HATCH
  2
AcDbHatch
  3
AutoCAD 2000
 90
        0
280
     0
281
     1
  0
CLASS
  1
XRECORD
  2
AcDbXrecord
  3
AutoCAD 2000
 90
        0
280
     0
281
     0
  0
CLASS
  1
LONG_TRANSACTION
  2
AcDbLongTransaction
  3
AutoCAD 2000
 90
        0
280
     0
281
     0
  0
CLASS
  1
LWPOLYLINE
  2
AcDbPolyline
  3
AutoCAD 2000
 90
        0
280
     0
281
     1
  0
CLASS
  1
HATCH
  2
AcDbHatch
  3
AutoCAD 2000
 90
        0
280
     0
281
     1
  0
CLASS
  1
XRECORD
  2
AcDbXrecord
  3
AutoCAD 2000
 90
        0
280
     0
281
     0
  0
CLASS
  1
LONG_TRANSACTION
  2
AcDbLongTransaction
  3
AutoCAD 2000
 90
        0
280
     0
281
     0
  0
CLASS
  1
LWPOLYLINE
  2
AcDbPolyline
  3
AutoCAD 2000
 90
        0
280
     0
281
     1
  0
CLASS
  1
HATCH
  2
AcDbHatch
  3
AutoCAD 2000
 90
        0
280
     0
281
     1
  0
CLASS
  1
XRECORD
  2
AcDbXrecord
  3
AutoCAD 2000
 90
        0
280
     0
281
     0
  0
CLASS
  1
LONG_TRANSACTION
  2
AcDbLongTransaction
  3
AutoCAD 2000
 90
        0
280
     0
281
     0
  0
CLASS
  1
LWPOLYLINE
  2
AcDbPolyline
  3
AutoCAD 2000
 90
        0
280
     0
281
     1
  0
CLASS
  1
HATCH
  2
AcDbHatch
  3
AutoCAD 2000
 90
        0
280
     0
281
     1
  0
CLASS
  1
XRECORD
  2
AcDbXrecord
  3
AutoCAD 2000
 90
        0
280
     0
281
     0
  0
CLASS
  1
LONG_TRANSACTION
  2
AcDbLongTransaction
  3
AutoCAD 2000
 90
        0
280
     0
281
     0
  0
CLASS
  1
LWPOLYLINE
  2
AcDbPolyline
  3
AutoCAD 2000
 90
        0
280
     0
281
     1
  0
CLASS
  1
HATCH
  2
AcDbHatch
  3
AutoCAD 2000
 90
        0
280
     0
281
     1
  0
CLASS
  1
XRECORD
  2
AcDbXrecord
  3
AutoCAD 2000
 90
        0
280
     0
281
     0
  0
CLASS
  1
LONG_TRANSACTION
  2
AcDbLongTransaction
  3
AutoCAD 2000
 90
        0
280
     0
281
     0
  0
CLASS
  1
LWPOLYLINE
  2
AcDbPolyline
  3
AutoCAD 2000
 90
        0
280
     0
281
     1
  0
CLASS
  1
HATCH
  2
AcDbHatch
  3
AutoCAD 2000
 90
        0
280
     0
281
     1
  0
CLASS
  1
XRECORD
  2
AcDbXrecord
  3
AutoCAD 2000
 90
        0
280
     0
281
     0
  0
CLASS
  1
LONG_TRANSACTION
  2
AcDbLongTransaction
  3
AutoCAD 2000
 90
        0
280
     0
281
     0
  0
CLASS
  1
LWPOLYLINE
  2
AcDbPolyline
  3
AutoCAD 2000
 90
        0
280
     0
281
     1
  0
CLASS
  1
HATCH
  2
AcDbHatch
  3
AutoCAD 2000
 90
        0
280
     0
281
     1
  0
CLASS
  1
XRECORD
  2
AcDbXrecord
  3
AutoCAD 2000
 90
        0
280
     0
281
     0
  0
CLASS
  1
LONG_TRANSACTION
  2
AcDbLongTransaction
  3
AutoCAD 2000
 90
        0
280
     0
281
     0
  0
CLASS
  1
LWPOLYLINE
  2
AcDbPolyline
  3
AutoCAD 2000
 90
        0
280
     0
281
     1
  0
CLASS
  1
HATCH
  2
AcDbHatch
  3
AutoCAD 2000
 90
        0
280
     0
281
     1
  0
CLASS
  1
XRECORD
  2
AcDbXrecord
  3
AutoCAD 2000
 90
        0
280
     0
281
     0
  0
CLASS
  1
LONG_TRANSACTION
  2
AcDbLongTransaction
  3
AutoCAD 2000
 90
        0
280
     0
281
     0
  0
CLASS
  1
LWPOLYLINE
  2
AcDbPolyline
  3
AutoCAD 2000
 90
        0
280
     0
281
     1
  0
CLASS
  1
HATCH
  2
AcDbHatch
  3
AutoCAD 2000
 90
        0
280
     0
281
     1
  0
CLASS
  1
XRECORD
  2
AcDbXrecord
  3
AutoCAD 2000
 90
        0
280
     0
281
     0
  0
CLASS
  1
LONG_TRANSACTION
  2
AcDbLongTransaction
  3
AutoCAD 2000
 90
        0
280
     0
281
     0
  0
CLASS
  1
LWPOLYLINE
  2
AcDbPolyline
  3
AutoCAD 2000
 90
        0
280
     0
281
     1
  0
CLASS
  1
HATCH
  2
AcDbHatch
  3
AutoCAD 2000
 90
        0
280
     0
281
     1
  0
CLASS
  1
XRECORD
  2
AcDbXrecord
  3
AutoCAD 2000
 90
        0
280
     0
281
     0
  0
CLASS
  1
LONG_TRANSACTION
  2
AcDbLongTransaction
  3
AutoCAD 2000
 90
        0
280
     0
281
     0
  0
CLASS
  1
LWPOLYLINE
  2
AcDbPolyline
  3
AutoCAD 2000
 90
        0
280
     0
281
     1
  0
CLASS
  1
HATCH
  2
AcDbHatch
  3
AutoCAD 2000
 90
        0
280
     0
281
     1
  0
CLASS
  1
XRECORD
  2
AcDbXrecord
  3
AutoCAD 2000
 90
        0
280
     0
281
     0
  0
CLASS
  1
LONG_TRANSACTION
  2
AcDbLongTransaction
  3
AutoCAD 2000
 90
        0
280
     0
281
     0
  0
CLASS
  1
LWPOLYLINE
  2
AcDbPolyline
  3
AutoCAD 2000
 90
        0
280
     0
281
     1
  0
CLASS
  1
HATCH
  2
AcDbHatch
  3
AutoCAD 2000
 90
        0
280
     0
281
     1
  0
CLASS
  1
XRECORD
  2
AcDbXrecord
  3
AutoCAD 2000
 90
        0
280
     0
281
     0
  0
CLASS
  1
LONG_TRANSACTION
  2
AcDbLongTransaction
  3
AutoCAD 2000
 90
        0
280
     0
281
     0
  0
CLASS
  1
LWPOLYLINE
  2
AcDbPolyline
  3
AutoCAD 2000
 90
        0
280
     0
281
     1
  0
CLASS
  1
HATCH
  2
AcDbHatch
  3
AutoCAD 2000
 90
        0
280
     0
281
     1
  0
CLASS
  1
XRECORD
  2
AcDbXrecord
  3
AutoCAD 2000
 90
        0
280
     0
281
     0
  0
CLASS
  1
LONG_TRANSACTION
  2
AcDbLongTransaction
  3
AutoCAD 2000
 90
        0
280
     0
281
     0
  0
CLASS
  1
LWPOLYLINE
  2
AcDbPolyline
  3
AutoCAD 2000
 90
        0
280
     0
281
     1
  0
CLASS
  1
HATCH
  2
AcDbHatch
  3
AutoCAD 2000
 90
        0
280
     0
281
     1
  0
CLASS
  1
XRECORD
  2
AcDbXrecord
  3
AutoCAD 2000
 90
        0
280
     0
281
     0
  0
CLASS
  1
LONG_TRANSACTION
  2
AcDbLongTransaction
  3
AutoCAD 2000
 90
        0
280
     0
281
     0
  0
CLASS
  1
LWPOLYLINE
  2
AcDbPolyline
  3
AutoCAD 2000
 90
        0
280
     0
281
     1
  0
CLASS
  1
HATCH
  2
AcDbHatch
  3
AutoCAD 2000
 90
        0
280
     0
281
     1
  0
CLASS
  1
XRECORD
  2
AcDbXrecord
  3
AutoCAD 2000
 90
        0
280
     0
281
     0
  0
CLASS
  1
LONG_TRANSACTION
  2
AcDbLongTransaction
  3
AutoCAD 2000
 90
        0
280
     0
281
     0
  0
CLASS
  1
LWPOLYLINE
  2
AcDbPolyline
  3
AutoCAD 2000
 90
        0
280
     0
281
     1
  0
CLASS
  1
HATCH
  2
AcDbHatch
  3
AutoCAD 2000
 90
        0
280
     0
281
     1
  0
CLASS
  1
XRECORD
  2
AcDbXrecord
  3
AutoCAD 2000
 90
        0
280
     0
281
     0
  0
CLASS
  1
LONG_TRANSACTION
  2
AcDbLongTransaction
  3
AutoCAD 2000
 90
        0
280
     0
281
     0
  0
CLASS
  1
LWPOLYLINE
  2
AcDbPolyline
  3
AutoCAD 2000
 90
        0
280
     0
281
     1
  0
CLASS
  1
HATCH
  2
AcDbHatch
  3
AutoCAD 2000
 90
        0
280
     0
281
     1
  0
CLASS
  1
XRECORD
  2
AcDbXrecord
  3
AutoCAD 2000
 90
        0
280
     0
281
     0
  0
CLASS
  1
LONG_TRANSACTION
  2
AcDbLongTransaction
  3
AutoCAD 2000
 90
        0
280
     0
281
     0
  0
CLASS
  1
LWPOLYLINE
  2
AcDbPolyline
  3
AutoCAD 2000
 90
        0
280
     0
281
     1
  0
CLASS
  1
HATCH
  2
AcDbHatch
  3
AutoCAD 2000
 90
        0
280
     0
281
     1
  0
CLASS
  1
XRECORD
  2
AcDbXrecord
  3
AutoCAD 2000
 90
        0
280
     0
281
     0
  0
CLASS
  1
LONG_TRANSACTION
  2
AcDbLongTransaction
  3
AutoCAD 2000
 90
        0
280
     0
281
     0
  0
CLASS
  1
LWPOLYLINE
  2
AcDbPolyline
  3
AutoCAD 2000
 90
        0
280
     0
281
     1
  0
CLASS
  1
HATCH
  2
AcDbHatch
  3
AutoCAD 2000
 90
        0
280
     0
281
     1
  0
CLASS
  1
XRECORD
  2
AcDbXrecord
  3
AutoCAD 2000
 90
        0
280
     0
281
     0
  0
CLASS
  1
LONG_TRANSACTION
  2
AcDbLongTransaction
  3
AutoCAD 2000
 90
        0
280
     0
281
     0
  0
CLASS
  1
LWPOLYLINE
  2
AcDbPolyline
  3
AutoCAD 2000
 90
        0
280
     0
281
     1
  0
CLASS
  1
HATCH
  2
AcDbHatch
  3
AutoCAD 2000
 90
        0
280
     0
281
     1
  0
CLASS
  1
XRECORD
  2
AcDbXrecord
  3
AutoCAD 2000
 90
        0
280
     0
281
     0
  0
CLASS
  1
LONG_TRANSACTION
  2
AcDbLongTransaction
  3
AutoCAD 2000
 90
        0
280
     0
281
     0
  0
CLASS
  1
LWPOLYLINE
  2
AcDbPolyline
  3
AutoCAD 2000
 90
        0
280
     0
281
     1
  0
CLASS
  1
HATCH
  2
AcDbHatch
  3
AutoCAD 2000
 90
        0
280
     0
281
     1
  0
CLASS
  1
XRECORD
  2
AcDbXrecord
  3
AutoCAD 2000
 90
        0
280
     0
281
     0
  0
CLASS
  1
LONG_TRANSACTION
  2
AcDbLongTransaction
  3
AutoCAD 2000
 90
        0
280
     0
281
     0
  0
CLASS
  1
LWPOLYLINE
  2
AcDbPolyline
  3
AutoCAD 2000
 90
        0
280
     0
281
     1
  0
CLASS
  1
HATCH
  2
AcDbHatch
  3
AutoCAD 2000
 90
        0
280
     0
281
     1
  0
CLASS
  1
XRECORD
  2
AcDbXrecord
  3
AutoCAD 2000
 90
        0
280
     0
281
     0
  0
CLASS
  1
LONG_TRANSACTION
  2
AcDbLongTransaction
  3
AutoCAD 2000
 90
        0
280
     0
281
     0
  0
CLASS
  1
LWPOLYLINE
  2
AcDbPolyline
  3
AutoCAD 2000
 90
        0
280
     0
281
     1
  0
CLASS
  1
HATCH
  2
AcDbHatch
  3
AutoCAD 2000
 90
        0
280
     0
281
     1
  0
CLASS
  1
XRECORD
  2
AcDbXrecord
  3
AutoCAD 2000
 90
        0
280
     0
281
     0
  0
CLASS
  1
LONG_TRANSACTION
  2
AcDbLongTransaction
  3
AutoCAD 2000
 90
        0
280
     0
281
     0
  0
CLASS
  1
LWPOLYLINE
  2
AcDbPolyline
  3
AutoCAD 2000
 90
        0
280
     0
281
     1
  0
CLASS
  1
HATCH
  2
AcDbHatch
  3
AutoCAD 2000
 90
        0
280
     0
281
     1
  0
CLASS
  1
XRECORD
  2
AcDbXrecord
  3
AutoCAD 2000
 90
        0
280
     0
281
     0
  0
CLASS
  1
LONG_TRANSACTION
  2
AcDbLongTransaction
  3
AutoCAD 2000
 90
        0
280
     0
281
     0
  0
CLASS
  1
LWPOLYLINE
  2
AcDbPolyline
  3
AutoCAD 2000
 90
        0
280
     0
281
     1
  0
CLASS
  1
HATCH
  2
AcDbHatch
  3
AutoCAD 2000
 90
        0
280
     0
281
     1
  0
CLASS
  1
XRECORD
  2
AcDbXrecord
  3
AutoCAD 2000
 90
        0
280
     0
281
     0
  0
CLASS
  1
LONG_TRANSACTION
  2
AcDbLongTransaction
  3
AutoCAD 2000
 90
        0
280
     0
281
     0
  0
CLASS
  1
LWPOLYLINE
  2
AcDbPolyline
  3
AutoCAD 2000
 90
        0
280
     0
281
     1
  0
CLASS
  1
HATCH
  2
AcDbHatch
  3
AutoCAD 2000
 90
        0
280
     0
281
     1
  0
CLASS
  1
XRECORD
  2
AcDbXrecord
  3
AutoCAD 2000
 90
        0
280
     0
281
     0
  0
CLASS
  1
LONG_TRANSACTION
  2
AcDbLongTransaction
  3
AutoCAD 2000
 90
        0
280
     0
281
     0
  0
CLASS
  1
LWPOLYLINE
  2
AcDbPolyline
  3
AutoCAD 2000
 90
        0
280
     0
281
     1
  0
CLASS
  1
HATCH
  2
AcDbHatch
  3
AutoCAD 2000
 90
        0
280
     0
281
     1
  0
CLASS
  1
XRECORD
  2
AcDbXrecord
  3
AutoCAD 2000
 90
        0
280
     0
281
     0
  0
CLASS
  1
LONG_TRANSACTION
  2
AcDbLongTransaction
  3
AutoCAD 2000
 90
        0
280
     0
281
     0
  0
CLASS
  1
LWPOLYLINE
  2
AcDbPolyline
  3
AutoCAD 2000
 90
        0
280
     0
281
     1
  0
CLASS
  1
HATCH
  2
AcDbHatch
  3
AutoCAD 2000
 90
        0
280
     0
281
     1
  0
CLASS
  1
XRECORD
  2
AcDbXrecord
  3
AutoCAD 2000
 90
        0
280
     0
281
     0
  0
CLASS
  1
LONG_TRANSACTION
  2
AcDbLongTransaction
  3
AutoCAD 2000
 90
        0
280
     0
281
     0
  0
CLASS
  1
LWPOLYLINE
  2
AcDbPolyline
  3
AutoCAD 2000
 90
        0
280
     0
281
     1
  0
CLASS
  1
HATCH
  2
AcDbHatch
  3
AutoCAD 2000
 90
        0
280
     0
281
     1
  0
CLASS
  1
XRECORD
  2
AcDbXrecord
  3
AutoCAD 2000
 90
        0
280
     0
281
     0
  0
CLASS
  1
LONG_TRANSACTION
  2
AcDbLongTransaction
  3
AutoCAD 2000
 90
        0
280
     0
281
     0
  0
CLASS
  1
LWPOLYLINE
  2
AcDbPolyline
  3
AutoCAD 2000
 90
        0
280
     0
281
     1
  0
CLASS
  1
HATCH
  2
AcDbHatch
  3
AutoCAD 2000
 90
        0
280
     0
281
     1
  0
CLASS
  1
XRECORD
  2
AcDbXrecord
  3
AutoCAD 2000
 90
        0
280
     0
281
     0
  0
CLASS
  1
LONG_TRANSACTION
  2
AcDbLongTransaction
  3
AutoCAD 2000
 90
        0
280
     0
281
     0
  0
CLASS
  1
LWPOLYLINE
  2
AcDbPolyline
  3
AutoCAD 2000
 90
        0
280
     0
281
     1
  0
CLASS
  1
HATCH
  2
AcDbHatch
  3
AutoCAD 2000
 90
        0
280
     0
281
     1
  0
CLASS
  1
XRECORD
  2
AcDbXrecord
  3
AutoCAD 2000
 90
        0
280
     0
281
     0
  0
CLASS
  1
LONG_TRANSACTION
  2
AcDbLongTransaction
  3
AutoCAD 2000
 90
        0
280
     0
281
     0
  0
CLASS
  1
LWPOLYLINE
  2
AcDbPolyline
  3
AutoCAD 2000
 90
        0
280
     0
281
     1
  0
CLASS
  1
HATCH
  2
AcDbHatch
  3
AutoCAD 2000
 90
        0
280
     0
281
     1
  0
CLASS
  1
XRECORD
  2
AcDbXrecord
  3
AutoCAD 2000
 90
        0
280
     0
281
     0
  0
CLASS
  1
LONG_TRANSACTION
  2
AcDbLongTransaction
  3
AutoCAD 2000
 90
        0
280
     0
281
     0
  0
CLASS
  1
LWPOLYLINE
  2
AcDbPolyline
  3
AutoCAD 2000
 90
        0
280
     0
281
     1
  0
CLASS
  1
HATCH
  2
AcDbHatch
  3
AutoCAD 2000
 90
        0
280
     0
281
     1
  0
CLASS
  1
XRECORD
  2
AcDbXrecord
  3
AutoCAD 2000
 90
        0
280
     0
281
     0
  0
CLASS
  1
LONG_TRANSACTION
  2
AcDbLongTransaction
  3
AutoCAD 2000
 90
        0
280
     0
281
     0
  0
CLASS
  1
LWPOLYLINE
  2
AcDbPolyline
  3
AutoCAD 2000
 90
        0
280
     0
281
     1
  0
CLASS
  1
HATCH
  2
AcDbHatch
  3
AutoCAD 2000
 90
        0
280
     0
281
     1
  0
CLASS
  1
XRECORD
  2
AcDbXrecord
  3
AutoCAD 2000
 90
        0
280
     0
281
     0
  0
CLASS
  1
LONG_TRANSACTION
  2
AcDbLongTransaction
  3
AutoCAD 2000
 90
        0
280
     0
281
     0
  0
CLASS
  1
LWPOLYLINE
  2
AcDbPolyline
  3
AutoCAD 2000
 90
        0
280
     0
281
     1
  0
CLASS
  1
HATCH
  2
AcDbHatch
  3
AutoCAD 2000
 90
        0
280
     0
281
     1
  0
CLASS
  1
XRECORD
  2
AcDbXrecord
  3
AutoCAD 2000
 90
        0
280
     0
281
     0
  0
CLASS
  1
LONG_TRANSACTION
  2
AcDbLongTransaction
  3
AutoCAD 2000
 90
        0
280
     0
281
     0
  0
CLASS
  1
LWPOLYLINE
  2
AcDbPolyline
  3
AutoCAD 2000
 90
        0
280
     0
281
     1
  0
CLASS
  1
HATCH
  2
AcDbHatch
  3
AutoCAD 2000
 90
        0
280
     0
281
     1
  0
CLASS
  1
XRECORD
  2
AcDbXrecord
  3
AutoCAD 2000
 90
        0
280
     0
281
     0
  0
CLASS
  1
LONG_TRANSACTION
  2
AcDbLongTransaction
  3
AutoCAD 2000
 90
        0
280
     0
281
     0
  0
CLASS
  1
LWPOLYLINE
  2
AcDbPolyline
  3
AutoCAD 2000
 90
        0
280
     0
281
     1
  0
CLASS
  1
HATCH
  2
AcDbHatch
  3
AutoCAD 2000
 90
        0
280
     0
281
     1
  0
CLASS
  1
XRECORD
  2
AcDbXrecord
  3
AutoCAD 2000
 90
        0
280
     0
281
     0
  0
CLASS
  1
LONG_TRANSACTION
  2
AcDbLongTransaction
  3
AutoCAD 2000
 90
        0
280
     0
281
     0
  0
CLASS
  1
LWPOLYLINE
  2
AcDbPolyline
  3
AutoCAD 2000
 90
        0
280
     0
281
     1
  0
CLASS
  1
HATCH
  2
AcDbHatch
  3
AutoCAD 2000
 90
        0
280
     0
281
     1
  0
CLASS
  1
XRECORD
  2
AcDbXrecord
  3
AutoCAD 2000
 90
        0
280
     0
281
     0
  0
CLASS
  1
LONG_TRANSACTION
  2
AcDbLongTransaction
  3
AutoCAD 2000
 90
        0
280
     0
281
     0
  0
CLASS
  1
LWPOLYLINE
  2
AcDbPolyline
  3
AutoCAD 2000
 90
        0
280
     0
281
     1
  0
CLASS
  1
HATCH
  2
AcDbHatch
  3
AutoCAD 2000
 90
        0
280
     0
281
     1
  0
CLASS
  1
XRECORD
  2
AcDbXrecord
  3
AutoCAD 2000
 90
        0
280
     0
281
     0
  0
CLASS
  1
LONG_TRANSACTION
  2
AcDbLongTransaction
  3
AutoCAD 2000
 90
        0
280
     0
281
     0
  0
CLASS
  1
LWPOLYLINE
  2
AcDbPolyline
  3
AutoCAD 2000
 90
        0
280
     0
281
     1
  0
CLASS
  1
HATCH
  2
AcDbHatch
  3
AutoCAD 2000
 90
        0
280
     0
281
     1
  0
CLASS
  1
XRECORD
  2
AcDbXrecord
  3
AutoCAD 2000
 90
        0
280
     0
281
     0
  0
CLASS
  1
LONG_TRANSACTION
  2
AcDbLongTransaction
  3
AutoCAD 2000
 90
        0
280
     0
281
     0
  0
CLASS
  1
LWPOLYLINE
  2
AcDbPolyline
  3
AutoCAD 2000
 90
        0
280
     0
281
     1
  0
CLASS
  1
HATCH
  2
AcDbHatch
  3
AutoCAD 2000
 90
        0
280
     0
281
     1
  0
CLASS
  1
XRECORD
  2
AcDbXrecord
  3
AutoCAD 2000
 90
        0
280
     0
281
     0
  0
CLASS
  1
LONG_TRANSACTION
  2
AcDbLongTransaction
  3
AutoCAD 2000
 90
        0
280
     0
281
     0
  0
CLASS
  1
LWPOLYLINE
  2
AcDbPolyline
  3
AutoCAD 2000
 90
        0
280
     0
281
     1
  0
CLASS
  1
HATCH
  2
AcDbHatch
  3
AutoCAD 2000
 90
        0
280
     0
281
     1
  0
CLASS
  1
XRECORD
  2
AcDbXrecord
  3
AutoCAD 2000
 90
        0
280
     0
281
     0
  0
CLASS
  1
LONG_TRANSACTION
  2
AcDbLongTransaction
  3
AutoCAD 2000
 90
        0
280
     0
281
     0
  0
CLASS
  1
LWPOLYLINE
  2
AcDbPolyline
  3
AutoCAD 2000
 90
        0
280
     0
281
     1
  0
CLASS
  1
HATCH
  2
AcDbHatch
  3
AutoCAD 2000
 90
        0
280
     0
281
     1
  0
CLASS
  1
XRECORD
  2
AcDbXrecord
  3
AutoCAD 2000
 90
        0
280
     0
281
     0
  0
CLASS
  1
LONG_TRANSACTION
  2
AcDbLongTransaction
  3
AutoCAD 2000
 90
        0
280
     0
281
     0
  0
CLASS
  1
LWPOLYLINE
  2
AcDbPolyline
  3
AutoCAD 2000
 90
        0
280
     0
281
     1
  0
CLASS
  1
HATCH
  2
AcDbHatch
  3
AutoCAD 2000
 90
        0
280
     0
281
     1
  0
CLASS
  1
XRECORD
  2
AcDbXrecord
  3
AutoCAD 2000
 90
        0
280
     0
281
     0
  0
CLASS
  1
LONG_TRANSACTION
  2
AcDbLongTransaction
  3
AutoCAD 2000
 90
        0
280
     0
281
     0
  0
CLASS
  1
LWPOLYLINE
  2
AcDbPolyline
  3
AutoCAD 2000
 90
        0
280
     0
281
     1
  0
CLASS
  1
HATCH
  2
AcDbHatch
  3
AutoCAD 2000
 90
        0
280
     0
281
     1
  0
CLASS
  1
XRECORD
  2
AcDbXrecord
  3
AutoCAD 2000
 90
        0
280
     0
281
     0
  0
CLASS
  1
LONG_TRANSACTION
  2
AcDbLongTransaction
  3
AutoCAD 2000
 90
        0
280
     0
281
     0
  0
CLASS
  1
LWPOLYLINE
  2
AcDbPolyline
  3
AutoCAD 2000
 90
        0
280
     0
281
     1
  0
CLASS
  1
HATCH
  2
AcDbHatch
  3
AutoCAD 2000
 90
        0
280
     0
281
     1
  0
CLASS
  1
XRECORD
  2
AcDbXrecord
  3
AutoCAD 2000
 90
        0
280
     0
281
     0
  0
ENDSEC
  0
SECTION
  2
TABLES
  0
TABLE
  2
VPORT
  5
8
330
0
100
AcDbSymbolTable
 70
     1
  0
VPORT
  5
8851
330
8
100
AcDbSymbolTableRecord
100
AcDbViewportTableRecord
  2
*ACTIVE
 70
     0
 10
0.0
 20
0.0
 11
1.0
 21
1.0
 12
65.60000430547382
 22
41.56553118014977
 13
0.0
 23
0.0
 14
0.5
 24
0.5
 15
0.5
 25
0.5
 16
0.0
 26
0.0
 36
1.0
 17
0.0
 27
0.0
 37
0.0
 40
84.7104531319246
 41
1.556803995006242
 42
50.0
 43
0.0
 44
0.0
 50
0.0
 51
0.0
 71
     0
 72
   100
 73
     1
 74
     2
 75
     0
 76
     0
 77
     0
 78
     0
  0
ENDTAB
  0
TABLE
  2
LTYPE
  5
5
330
0
100
AcDbSymbolTable
 70
     3
  0
LTYPE
  5
14
330
5
100
AcDbSymbolTableRecord
100
AcDbLinetypeTableRecord
  2
BYBLOCK
 70
     0
  3

 72
    65
 73
     0
 40
0.0
  0
LTYPE
  5
15
330
5
100
AcDbSymbolTableRecord
100
AcDbLinetypeTableRecord
  2
BYLAYER
 70
     0
  3

 72
    65
 73
     0
 40
0.0
  0
LTYPE
  5
16
330
5
100
AcDbSymbolTableRecord
100
AcDbLinetypeTableRecord
  2
CONTINUOUS
 70
     0
  3
Solid line
 72
    65
 73
     0
 40
0.0
  0
LTYPE
  5
4B54
330
5
100
AcDbSymbolTableRecord
100
AcDbLinetypeTableRecord
  2
HIDDEN2
 70
     0
  3
Hidden (.5x) _ _ _ _ _ _ _ _ _ _ _ _ _ _ _ _ _
 72
    65
 73
     2
 40
0.1875
 49
0.125
 74
     0
 49
-0.0625
 74
     0
  0
LTYPE
  5
6134
330
5
100
AcDbSymbolTableRecord
100
AcDbLinetypeTableRecord
  2
PHANTOM2
 70
     0
  3
Phantom (.5x) ___ _ _ ___ _ _ ___ _ _ ___ _ _
 72
    65
 73
     6
 40
1.25
 49
0.625
 74
     0
 49
-0.125
 74
     0
 49
0.125
 74
     0
 49
-0.125
 74
     0
 49
0.125
 74
     0
 49
-0.125
 74
     0
  0
ENDTAB
  0
TABLE
  2
LAYER
  5
2
330
0
100
AcDbSymbolTable
 70
    12
  0
LAYER
  5
10
330
2
100
AcDbSymbolTableRecord
100
AcDbLayerTableRecord
  2
0
 70
     0
 62
     7
  6
CONTINUOUS
  0
LAYER
  5
48
330
2
100
AcDbSymbolTableRecord
100
AcDbLayerTableRecord
  2
CONTINUOUS2
 70
     0
 62
   254
  6
CONTINUOUS
  0
LAYER
  5
49
330
2
100
AcDbSymbolTableRecord
100
AcDbLayerTableRecord
  2
CONTINUOUS3
 70
     0
 62
   253
  6
CONTINUOUS
  0
LAYER
  5
55
330
2
100
AcDbSymbolTableRecord
100
AcDbLayerTableRecord
  2
TEXT1
 70
     0
 62
     3
  6
CONTINUOUS
  0
LAYER
  5
58
330
2
100
AcDbSymbolTableRecord
100
AcDbLayerTableRecord
  2
TITLEBLOCK
 70
     0
 62
     9
  6
CONTINUOUS
  0
LAYER
  5
59
330
2
100
AcDbSymbolTableRecord
100
AcDbLayerTableRecord
  2
VIEWPORT
 70
     0
 62
     9
  6
CONTINUOUS
  0
LAYER
  5
4B5B
330
2
100
AcDbSymbolTableRecord
100
AcDbLayerTableRecord
  2
CONTINUOUS1
 70
     0
 62
     7
  6
CONTINUOUS
  0
LAYER
  5
4B5F
330
2
100
AcDbSymbolTableRecord
100
AcDbLayerTableRecord
  2
DIM
 70
     0
 62
     2
  6
CONTINUOUS
  0
LAYER
  5
4B60
330
2
100
AcDbSymbolTableRecord
100
AcDbLayerTableRecord
  2
HIDDEN1
 70
     0
 62
     5
  6
HIDDEN2
  0
LAYER
  5
4B69
330
2
100
AcDbSymbolTableRecord
100
AcDbLayerTableRecord
  2
DEFPOINTS
 70
     0
 62
     7
  6
CONTINUOUS
  0
LAYER
  5
6140
330
2
100
AcDbSymbolTableRecord
100
AcDbLayerTableRecord
  2
PHANTOM1
 70
     0
 62
     6
  6
PHANTOM2
  0
LAYER
  5
6D94
330
2
100
AcDbSymbolTableRecord
100
AcDbLayerTableRecord
  2
TEXT3
 70
     0
 62
    82
  6
CONTINUOUS
  0
ENDTAB
  0
TABLE
  2
STYLE
  5
3
330
0
100
AcDbSymbolTable
 70
     3
  0
STYLE
  5
11
330
3
100
AcDbSymbolTableRecord
100
AcDbTextStyleTableRecord
  2
STANDARD
 70
     0
 40
0.0
 41
1.0
 50
0.0
 71
     0
 42
0.2
  3
txt
  4

  0
STYLE
  5
36
330
3
100
AcDbSymbolTableRecord
100
AcDbTextStyleTableRecord
  2
ROMANS
 70
     0
 40
0.0
 41
1.0
 50
0.0
 71
     0
 42
0.2
  3
romans.shx
  4

  0
STYLE
  5
6CC
330
3
100
AcDbSymbolTableRecord
100
AcDbTextStyleTableRecord
  2
M_STANDARD
 70
     0
 40
0.0
 41
0.8
 50
0.0
 71
     0
 42
0.0
  3
MEDUSA.SHX
  4

  0
ENDTAB
  0
TABLE
  2
VIEW
  5
6
330
0
100
AcDbSymbolTable
 70
     0
  0
ENDTAB
  0
TABLE
  2
UCS
  5
7
330
0
100
AcDbSymbolTable
 70
     0
  0
ENDTAB
  0
TABLE
  2
APPID
  5
9
330
0
100
AcDbSymbolTable
 70
    11
  0
APPID
  5
12
330
9
100
AcDbSymbolTableRecord
100
AcDbRegAppTableRecord
  2
ACAD
 70
     0
  0
APPID
  5
6B
330
9
100
AcDbSymbolTableRecord
100
AcDbRegAppTableRecord
  2
DCO15
 70
     0
  0
APPID
  5
370
330
9
100
AcDbSymbolTableRecord
100
AcDbRegAppTableRecord
  2
MCAD_NO_VIS
 70
     0
  0
APPID
  5
371
330
9
100
AcDbSymbolTableRecord
100
AcDbRegAppTableRecord
  2
ACAD_TEMP_GRAPHIC
 70
     0
  0
APPID
  5
387
330
9
100
AcDbSymbolTableRecord
100
AcDbRegAppTableRecord
  2
GENIUS_GENSCREG_15
 70
     0
  0
APPID
  5
389
330
9
100
AcDbSymbolTableRecord
100
AcDbRegAppTableRecord
  2
GENIUS_GENODEF_13
 70
     0
  0
APPID
  5
38A
330
9
100
AcDbSymbolTableRecord
100
AcDbRegAppTableRecord
  2
GENIUS_GENOBJ-N-SDF_13
 70
     0
  0
APPID
  5
38B
330
9
100
AcDbSymbolTableRecord
100
AcDbRegAppTableRecord
  2
GENIUS_GENOENT_13
 70
     0
  0
APPID
  5
38C
330
9
100
AcDbSymbolTableRecord
100
AcDbRegAppTableRecord
  2
GENIUS_GENOREF_13
 70
     0
  0
APPID
  5
38D
330
9
100
AcDbSymbolTableRecord
100
AcDbRegAppTableRecord
  2
GENIUS_GENOLIS_13
 70
     0
  0
APPID
  5
6CE
330
9
100
AcDbSymbolTableRecord
100
AcDbRegAppTableRecord
  2
MED_PRIMTYPE
 70
     0
  0
ENDTAB
  0
TABLE
  2
DIMSTYLE
  5
A
330
0
100
AcDbSymbolTable
 70
     1
  0
DIMSTYLE
105
3025
102
{ACAD_REACTORS
330
4DBE
330
4DCC
330
4DF6
330
4E0E
330
4E38
330
526E
330
52FD
330
5303
330
5301
330
5EC3
330
5ED1
330
5FAE
330
65EB
330
6813
330
7487
330
7E23
330
7E27
330
7E4F
330
7EC1
330
83E9
330
83EB
102
}
330
A
100
AcDbSymbolTableRecord
100
AcDbDimStyleTableRecord
  2
SCHNEIDERELECTRIC_DUAL_BEL
 70
     0
  3
\P
  4

  5
SEARROW
  6

  7

 40
0.0
 41
0.07
 42
0.0625
 43
0.38
 44
0.0625
 45
0.001
 46
0.0
 47
0.0
 48
0.0
140
0.1
141
0.09
142
0.0
143
25.4
144
1.0
145
0.0
146
1.0
147
0.04
 71
     0
 72
     0
 73
     1
 74
     1
 75
     0
 76
     0
 77
     0
 78
     4
170
     1
171
     0
172
     0
173
     0
174
     0
175
     0
176
   256
177
   256
178
   256
270
     2
271
     2
272
     2
273
     2
274
     0
340
36
275
     0
280
     0
281
     0
282
     0
283
     1
284
     0
285
     4
286
     0
287
     3
288
     0
  0
ENDTAB
  0
TABLE
  2
BLOCK_RECORD
  5
1
330
0
100
AcDbSymbolTable
 70
    18
  0
BLOCK_RECORD
  5
1F
102
{ACAD_XDICTIONARY
360
73
102
}
330
1
100
AcDbSymbolTableRecord
100
AcDbBlockTableRecord
  2
*MODEL_SPACE
  0
BLOCK_RECORD
  5
1B
102
{ACAD_XDICTIONARY
360
75
102
}
330
1
100
AcDbSymbolTableRecord
100
AcDbBlockTableRecord
  2
*PAPER_SPACE
  0
BLOCK_RECORD
  5
841
330
1
100
AcDbSymbolTableRecord
100
AcDbBlockTableRecord
  2
LOGO-PAD
1001
ACAD
1000
DesignCenter Data
1002
{
1070
     1
1070
     1
1002
}
  0
BLOCK_RECORD
  5
AE5
330
1
100
AcDbSymbolTableRecord
100
AcDbBlockTableRecord
  2
TITLE-PAD
1001
ACAD
1000
DesignCenter Data
1002
{
1070
     1
1070
     1
1002
}
  0
BLOCK_RECORD
  5
3021
330
1
100
AcDbSymbolTableRecord
100
AcDbBlockTableRecord
  2
SEARROW
1001
ACAD
1000
DesignCenter Data
1002
{
1070
     1
1070
     1
1002
}
  0
BLOCK_RECORD
  5
4B6D
330
1
100
AcDbSymbolTableRecord
100
AcDbBlockTableRecord
  2
SETUP
1001
ACAD
1000
DesignCenter Data
1002
{
1070
     1
1070
     1
1002
}
  0
BLOCK_RECORD
  5
4DBF
330
1
100
AcDbSymbolTableRecord
100
AcDbBlockTableRecord
  2
*D4
  0
BLOCK_RECORD
  5
4DCD
330
1
100
AcDbSymbolTableRecord
100
AcDbBlockTableRecord
  2
*D5
  0
BLOCK_RECORD
  5
4DF7
330
1
100
AcDbSymbolTableRecord
100
AcDbBlockTableRecord
  2
*D6
  0
BLOCK_RECORD
  5
4E0F
330
1
100
AcDbSymbolTableRecord
100
AcDbBlockTableRecord
  2
*D7
  0
BLOCK_RECORD
  5
4E39
330
1
100
AcDbSymbolTableRecord
100
AcDbBlockTableRecord
  2
*D8
  0
BLOCK_RECORD
  5
5EC4
330
1
100
AcDbSymbolTableRecord
100
AcDbBlockTableRecord
  2
*D9
  0
BLOCK_RECORD
  5
5ED2
330
1
100
AcDbSymbolTableRecord
100
AcDbBlockTableRecord
  2
*D10
  0
BLOCK_RECORD
  5
5FAF
330
1
100
AcDbSymbolTableRecord
100
AcDbBlockTableRecord
  2
*D11
  0
BLOCK_RECORD
  5
65EC
330
1
100
AcDbSymbolTableRecord
100
AcDbBlockTableRecord
  2
*D12
  0
BLOCK_RECORD
  5
6814
330
1
100
AcDbSymbolTableRecord
100
AcDbBlockTableRecord
  2
*D13
  0
BLOCK_RECORD
  5
7488
330
1
100
AcDbSymbolTableRecord
100
AcDbBlockTableRecord
  2
*D14
  0
BLOCK_RECORD
  5
7E67
330
1
100
AcDbSymbolTableRecord
100
AcDbBlockTableRecord
  2
*D15
  0
BLOCK_RECORD
  5
7E74
330
1
100
AcDbSymbolTableRecord
100
AcDbBlockTableRecord
  2
*D16
  0
BLOCK_RECORD
  5
7E81
330
1
100
AcDbSymbolTableRecord
100
AcDbBlockTableRecord
  2
*D17
  0
ENDTAB
  0
ENDSEC
  0
SECTION
  2
BLOCKS
  0
BLOCK
  5
20
330
1F
100
AcDbEntity
  8
0
100
AcDbBlockBegin
  2
*MODEL_SPACE
 70
     0
 10
0.0
 20
0.0
 30
0.0
  3
*MODEL_SPACE
  1

  0
ENDBLK
  5
21
330
1F
100
AcDbEntity
  8
0
100
AcDbBlockEnd
  0
BLOCK
  5
1C
330
1B
100
AcDbEntity
 67
     1
  8
0
100
AcDbBlockBegin
  2
*PAPER_SPACE
 70
     0
 10
0.0
 20
0.0
 30
0.0
  3
*PAPER_SPACE
  1

  0
ENDBLK
  5
1D
330
1B
100
AcDbEntity
 67
     1
  8
0
100
AcDbBlockEnd
  0
BLOCK
  5
852
330
841
100
AcDbEntity
  8
0
100
AcDbBlockBegin
  2
LOGO-PAD
 70
     0
 10
0.0
 20
0.0
 30
0.0
  3
LOGO-PAD
  1

  0
HATCH
  5
842
330
841
100
AcDbEntity
  8
TITLEBLOCK
 62
     0
100
AcDbHatch
 10
0.0
 20
0.0
 30
0.0
210
0.0
220
0.0
230
1.0
  2
SOLID
 70
     1
 71
     0
 91
        2
 92
        1
 93
       11
 72
     2
 10
1.203771209334867
 20
0.3650136751459491
 40
0.021562648149145
 50
90.00000747299615
 51
179.9997683268519
 73
     1
 72
     1
 10
1.182208561185898
 20
0.3650137623336376
 11
1.182208392435807
 21
0.2795138227272444
 72
     2
 10
1.203771079023129
 20
0.2795136821032751
 40
0.0215626865877801
 50
179.9996263378447
 51
269.9998903896797
 73
     1
 72
     1
 10
1.203771037772394
 20
0.2579509955155343
 11
1.330521045577125
 21
0.2579511736405264
 72
     2
 10
1.330521265257171
 20
0.2795136382789064
 40
0.021562464639499
 50
269.9994162661957
 51
311.7040125634689
 73
     1
 72
     1
 10
1.344866398698837
 20
0.2634152834601535
 11
1.352083334663557
 21
0.2579511736405264
 72
     1
 10
1.352083334663557
 20
0.2579511736405264
 11
1.365099386916806
 21
0.2751416404960081
 72
     1
 10
1.365099386916806
 20
0.2751416404960081
 11
1.352083522163621
 21
0.284997066934386
 72
     1
 10
1.352083522163621
 20
0.284997066934386
 11
1.352083690913712
 21
0.3650136723335662
 72
     2
 10
1.330521042764654
 20
0.3650136751460369
 40
0.0215626481490576
 50
359.9999925267666
 51
449.9999925267678
 73
     1
 72
     1
 10
1.330521045577125
 20
0.3865763232950938
 11
1.203771206522485
 21
0.3865763232950938
 97
        0
 92
       16
 93
       10
 72
     2
 10
1.21455271481628
 20
0.3542325202904111
 40
0.0107811520434708
 50
90.00043844291294
 51
179.9999701074038
 73
     1
 72
     1
 10
1.203771562772811
 20
0.3542325259151993
 11
1.203771562772811
 21
0.2902950591455122
 72
     2
 10
1.214552849813946
 20
0.2902948416431456
 40
0.0107812870433294
 50
179.9988441113203
 51
269.9988441346395
 73
     1
 72
     1
 10
1.214552632315967
 20
0.2795135546020104
 11
1.323606134809704
 21
0.2795135546020104
 72
     1
 10
1.323606134809704
 20
0.2795135546020104
 11
1.280867956889135
 21
0.311873265117333
 72
     1
 10
1.280867956889135
 20
0.311873265117333
 11
1.293884009142384
 21
0.3290635557226322
 72
     1
 10
1.293884009142384
 20
0.3290635557226322
 11
1.330521045577125
 21
0.3013240413506308
 72
     1
 10
1.330521045577125
 20
0.3013240413506308
 11
1.330521045577125
 21
0.3542324377902786
 72
     2
 10
1.319739809158772
 20
0.3542324359152127
 40
0.0107812364183532
 50
0.0000099648460607
 51
90.00000996484372
 73
     1
 72
     1
 10
1.319739807283706
 20
0.3650136723335662
 11
1.214552632315967
 21
0.3650136723335662
 97
        0
 75
     0
 76
     1
 98
        1
 10
-7.279586802153931
 20
-0.4081141432880261
  0
HATCH
  5
843
330
841
100
AcDbEntity
  8
TITLEBLOCK
 62
     0
100
AcDbHatch
 10
0.0
 20
0.0
 30
0.0
210
0.0
220
0.0
230
1.0
  2
SOLID
 70
     1
 71
     0
 91
        1
 92
        1
 93
        4
 72
     1
 10
3.703333445713536
 20
0.1990762889281312
 11
1.018147379006204
 21
0.1990762889281312
 72
     1
 10
1.018147379006204
 20
0.1990762889281312
 11
1.018147379006204
 21
0.220706173683743
 72
     1
 10
1.018147379006204
 20
0.220706173683743
 11
3.703333445713536
 21
0.220706173683743
 72
     1
 10
3.703333445713536
 20
0.220706173683743
 11
3.703333445713536
 21
0.1990762889281312
 97
        0
 75
     0
 76
     1
 98
        1
 10
-7.279586802153931
 20
-0.4081141432880261
  0
HATCH
  5
844
330
841
100
AcDbEntity
  8
TITLEBLOCK
 62
     0
100
AcDbHatch
 10
0.0
 20
0.0
 30
0.0
210
0.0
220
0.0
230
1.0
  2
SOLID
 70
     1
 71
     0
 91
        4
 92
        1
 93
        4
 72
     1
 10
0.8306472632318495
 20
0.4814782717956759
 11
0.4556470182475714
 21
0.4814782717956759
 72
     1
 10
0.4556470182475714
 20
0.4814782717956759
 11
0.4556470182475714
 21
0.1064783844396073
 72
     1
 10
0.4556470182475714
 20
0.1064783844396073
 11
0.8306472632318495
 21
0.1064783844396073
 72
     1
 10
0.8306472632318495
 20
0.1064783844396073
 11
0.8306472632318495
 21
0.4814782717956759
 97
        0
 92
        0
 93
       10
 72
     1
 10
0.7368972019857374
 20
0.4177282462416896
 11
0.5193971779121789
 21
0.4177282462416896
 72
     1
 10
0.5193971779121789
 20
0.4177282462416896
 11
0.5193971779121789
 21
0.37460312508514
 72
     1
 10
0.5193971779121789
 20
0.37460312508514
 11
0.5531473465883146
 21
0.37460312508514
 72
     1
 10
0.5531473465883146
 20
0.37460312508514
 11
0.5531473465883146
 21
0.2133535311501431
 72
     1
 10
0.5531473465883146
 20
0.2133535311501431
 11
0.5193971779121789
 21
0.2133535311501431
 72
     1
 10
0.5193971779121789
 20
0.2133535311501431
 11
0.5193971779121789
 21
0.1702282758831428
 72
     1
 10
0.5193971779121789
 20
0.1702282758831428
 11
0.7368972019857374
 21
0.1702282758831428
 72
     1
 10
0.7368972019857374
 20
0.1702282758831428
 11
0.7668970141602749
 21
0.2002283115750982
 72
     1
 10
0.7668970141602749
 20
0.2002283115750982
 11
0.7668970141602749
 21
0.3877281658462506
 72
     1
 10
0.7668970141602749
 20
0.3877281658462506
 11
0.7368972019857374
 21
0.4177282462416896
 97
        0
 92
       16
 93
        4
 72
     1
 10
0.7987720492890098
 20
0.4496031025563197
 11
0.4875220533764768
 21
0.4496031025563197
 72
     1
 10
0.4875220533764768
 20
0.4496031025563197
 11
0.4875220533764768
 21
0.1383533301613751
 72
     1
 10
0.4875220533764768
 20
0.1383533301613751
 11
0.7987720492890098
 21
0.1383533301613751
 72
     1
 10
0.7987720492890098
 20
0.1383533301613751
 11
0.7987720492890098
 21
0.4496031025563197
 97
        0
 92
        0
 93
        4
 72
     1
 10
0.5962724677448641
 20
0.37460312508514
 11
0.5962724677448641
 21
0.2133535311501431
 72
     1
 10
0.5962724677448641
 20
0.2133535311501431
 11
0.7237719824106926
 21
0.2133535311501431
 72
     1
 10
0.7237719824106926
 20
0.2133535311501431
 11
0.7237719824106926
 21
0.37460312508514
 72
     1
 10
0.7237719824106926
 20
0.37460312508514
 11
0.5962724677448641
 21
0.37460312508514
 97
        0
 75
     0
 76
     1
 98
        1
 10
-7.279586802153931
 20
-0.313212194787444
  0
HATCH
  5
845
330
841
100
AcDbEntity
  8
TITLEBLOCK
 62
     0
100
AcDbHatch
 10
0.0
 20
0.0
 30
0.0
210
0.0
220
0.0
230
1.0
  2
SOLID
 70
     1
 71
     0
 91
        1
 92
        1
 93
       26
 72
     1
 10
1.050490193885575
 20
0.3650136723335662
 11
1.138990457951802
 21
0.3650136723335662
 72
     2
 10
1.138990281703138
 20
0.3542326140418093
 40
0.0107810582931976
 50
270.0009366709926
 51
360.0009366862294
 73
     0
 72
     1
 10
1.149771339994895
 20
0.3542324377902786
 11
1.171333797831589
 21
0.3542324377902786
 72
     1
 10
1.171333797831589
 20
0.3542324377902786
 11
1.171333797831589
 21
0.3650136723335662
 72
     2
 10
1.149771243432702
 20
0.365013768896207
 40
0.0215625543991033
 50
359.9997434148255
 51
449.9997434160159
 73
     1
 72
     1
 10
1.149771339994895
 20
0.3865763232950938
 11
1.039708786842066
 21
0.3865763232950938
 72
     2
 10
1.039709408398413
 20
0.3650142939052909
 40
0.0215620293987615
 50
90.00165163282177
 51
180.0014125206716
 73
     1
 72
     1
 10
1.018147379006204
 20
0.3650137623336376
 11
1.018147379006204
 21
0.3334199129435318
 72
     2
 10
1.039709363397143
 20
0.3334193363730153
 40
0.0215619843986475
 50
179.9984679027414
 51
269.9984679437668
 73
     1
 72
     1
 10
1.039708786842066
 20
0.3118573519820755
 11
1.138990457951802
 21
0.311857620107139
 72
     2
 10
1.138990280765661
 20
0.3010765608779043
 40
0.0107810592306907
 50
270.0009416531222
 51
360.0009416684906
 73
     0
 72
     1
 10
1.149771339994895
 20
0.3010763836888712
 11
1.149771508744986
 21
0.2902949691454408
 72
     2
 10
1.138990231076649
 20
0.2902948322713164
 40
0.0107812776692067
 50
359.9992725992319
 51
449.9997907459082
 73
     0
 72
     1
 10
1.138990270451738
 20
0.279513554602181
 11
1.050490193885575
 21
0.2795135546020104
 72
     2
 10
1.05049014888543
 20
0.2902951041454384
 40
0.0107815495435218
 50
89.99976085826782
 51
179.9997608594354
 73
     0
 72
     1
 10
1.039708599342002
 20
0.2902950591455122
 11
1.018147379006204
 21
0.2902950591455122
 72
     1
 10
1.018147379006204
 20
0.2902950591455122
 11
1.018147379006204
 21
0.2795138227272444
 72
     2
 10
1.039709273392517
 20
0.2795130680345569
 40
0.0215618943995203
 50
179.9979945776083
 51
269.9987071039827
 73
     1
 72
     1
 10
1.039708786842066
 20
0.2579511736405264
 11
1.149771339994895
 21
0.2579511736405264
 72
     2
 10
1.149771378432784
 20
0.2795135930396681
 40
0.0215624193991759
 50
269.9998978626289
 51
359.9996636967671
 73
     1
 72
     1
 10
1.171333797831589
 20
0.2795134664769192
 11
1.171333797831589
 21
0.3114825579869829
 72
     2
 10
1.149771333432362
 20
0.3114825645494808
 40
0.0215624643992288
 50
359.9999825621309
 51
449.9999825620359
 73
     1
 72
     1
 10
1.149771339994895
 20
0.3330450289487088
 11
1.050490193885575
 21
0.3330447608234748
 72
     2
 10
1.050490103885701
 20
0.3438262653667981
 40
0.0107815045436989
 50
89.99952171675776
 51
179.9999900368059
 73
     0
 72
     1
 10
1.039708599342002
 20
0.3438262634919964
 11
1.039708786842066
 21
0.3542325259151993
 72
     2
 10
1.050490107634269
 20
0.3542323515402983
 40
0.0107813207936133
 50
180.0009266903443
 51
270.0004583701697
 73
     0
 97
        0
 75
     0
 76
     1
 98
        1
 10
-7.279586802153931
 20
-0.4081141432880261
  0
HATCH
  5
846
330
841
100
AcDbEntity
  8
TITLEBLOCK
 62
     0
100
AcDbHatch
 10
0.0
 20
0.0
 30
0.0
210
0.0
220
0.0
230
1.0
  2
SOLID
 70
     1
 71
     0
 91
        1
 92
        1
 93
       18
 72
     2
 10
2.471082802883087
 20
0.3650137595211706
 40
0.021562563774099
 50
180.0000074732525
 51
269.9997683261728
 73
     0
 72
     1
 10
2.471082715695484
 20
0.3865763232950938
 11
2.586957622645552
 21
0.3865763232950938
 72
     2
 10
2.586957713583391
 20
0.3650135813961111
 40
0.0215627418991744
 50
269.9997583630888
 51
359.999758364108
 73
     0
 72
     1
 10
2.608520455482373
 20
0.3650136723335662
 11
2.608520455482373
 21
0.3542324377902786
 72
     1
 10
2.608520455482373
 20
0.3542324377902786
 11
2.586957622645552
 21
0.3542324377902786
 72
     2
 10
2.576176208103625
 20
0.3542322577916381
 40
0.0107814145434302
 50
0.0009565685814303
 51
90.00095658455173
 73
     1
 72
     1
 10
2.576176028101979
 20
0.3650136723335662
 11
2.481864141488966
 21
0.3650136723335662
 72
     2
 10
2.481864045863444
 20
0.3542323421656055
 40
0.0107813301683848
 50
89.99949181235312
 51
179.9994918168631
 73
     1
 72
     1
 10
2.471082715695484
 20
0.3542324377902786
 11
2.471082715695484
 21
0.2902950591455122
 72
     2
 10
2.481864090863785
 20
0.2902951097704553
 40
0.0107813751684203
 50
180.0002690376259
 51
270.0002690388874
 73
     1
 72
     1
 10
2.481864141488966
 20
0.2795137346021532
 11
2.576176028101979
 21
0.2795135546020104
 72
     2
 10
2.576176073102679
 20
0.2902951041456356
 40
0.010781549543719
 50
269.9997608553225
 51
359.9992825760937
 73
     1
 72
     1
 10
2.586957622645552
 20
0.2902949691454408
 11
2.608520455482373
 21
0.2902950591455122
 72
     1
 10
2.608520455482373
 20
0.2902950591455122
 11
2.608520099232048
 21
0.2795134664769192
 72
     2
 10
2.586957670458414
 20
0.2795136024145366
 40
0.0215624287740632
 50
0.0003612140281018
 51
90.00012704854281
 73
     0
 72
     1
 10
2.586957622645552
 20
0.2579511736405264
 11
2.471082715695484
 21
0.2579511736405264
 72
     2
 10
2.471082667882924
 20
0.2795136024144634
 40
0.02156242877399
 50
89.99987295225965
 51
179.9998729525419
 73
     0
 72
     1
 10
2.449520239108988
 20
0.2795135546020104
 11
2.449520239108988
 21
0.3650137623336376
 97
        0
 75
     0
 76
     1
 98
        1
 10
-7.279586802153931
 20
-0.4081141432880261
  0
HATCH
  5
847
330
841
100
AcDbEntity
  8
TITLEBLOCK
 62
     0
100
AcDbHatch
 10
0.0
 20
0.0
 30
0.0
210
0.0
220
0.0
230
1.0
  2
SOLID
 70
     1
 71
     0
 91
        1
 92
        1
 93
       12
 72
     1
 10
2.026708344139745
 20
0.3865765014202565
 11
1.890208311215626
 21
0.3865765014202565
 72
     1
 10
1.890208311215626
 20
0.3865765014202565
 11
1.890208311215626
 21
0.2579511736405264
 72
     1
 10
1.890208311215626
 20
0.2579511736405264
 11
2.026708344139745
 21
0.2579511736405264
 72
     1
 10
2.026708344139745
 20
0.2579511736405264
 11
2.026708344139745
 21
0.2795135546020104
 72
     1
 10
2.026708344139745
 20
0.2795135546020104
 11
1.911770600302059
 21
0.2795135546020104
 72
     1
 10
1.911770600302059
 20
0.2795135546020104
 11
1.911770600302059
 21
0.3114825579869829
 72
     1
 10
1.911770600302059
 20
0.3114825579869829
 11
2.026708344139745
 21
0.3114825579869829
 72
     1
 10
2.026708344139745
 20
0.3114825579869829
 11
2.026708344139745
 21
0.333044848948566
 72
     1
 10
2.026708344139745
 20
0.333044848948566
 11
1.911770600302059
 21
0.333044848948566
 72
     1
 10
1.911770600302059
 20
0.333044848948566
 11
1.911770600302059
 21
0.3650136723335662
 72
     1
 10
1.911770600302059
 20
0.3650136723335662
 11
2.026708344139745
 21
0.3650136723335662
 72
     1
 10
2.026708344139745
 20
0.3650136723335662
 11
2.026708344139745
 21
0.3865765014202565
 97
        0
 75
     0
 76
     1
 98
        1
 10
-7.279586802153931
 20
-0.4081141432880261
  0
HATCH
  5
848
330
841
100
AcDbEntity
  8
TITLEBLOCK
 62
     0
100
AcDbHatch
 10
0.0
 20
0.0
 30
0.0
210
0.0
220
0.0
230
1.0
  2
SOLID
 70
     1
 71
     0
 91
        2
 92
        1
 93
        8
 72
     1
 10
1.614830743814064
 20
0.3865765014202565
 11
1.531145595393223
 21
0.2579509955155343
 72
     1
 10
1.531145595393223
 20
0.2579509955155343
 11
1.556870855949323
 21
0.2579511736405264
 72
     1
 10
1.556870855949323
 20
0.2579511736405264
 11
1.570898996363819
 21
0.2795135546020104
 72
     1
 10
1.570898996363819
 20
0.2795135546020104
 11
1.673830432358027
 21
0.2795135546020104
 72
     1
 10
1.673830432358027
 20
0.2795135546020104
 11
1.687858760272586
 21
0.2579514417655899
 72
     1
 10
1.687858760272586
 20
0.2579514417655899
 11
1.713583120827973
 21
0.2579514417655899
 72
     1
 10
1.713583120827973
 20
0.2579514417655899
 11
1.629898141157394
 21
0.3865765014202565
 72
     1
 10
1.629898141157394
 20
0.3865765014202565
 11
1.614830743814064
 21
0.3865765014202565
 97
        0
 92
       16
 93
        3
 72
     1
 10
1.622364536235675
 20
0.3586169575295115
 11
1.659801223192726
 21
0.3010763836888712
 72
     1
 10
1.659801223192726
 20
0.3010763836888712
 11
1.584928205528949
 21
0.3010762055637086
 72
     1
 10
1.584928205528949
 20
0.3010762055637086
 11
1.622364348735612
 21
0.3586165994043766
 97
        0
 75
     0
 76
     1
 98
        1
 10
-7.279586802153931
 20
-0.4081141432880261
  0
HATCH
  5
849
330
841
100
AcDbEntity
  8
TITLEBLOCK
 62
     0
100
AcDbHatch
 10
0.0
 20
0.0
 30
0.0
210
0.0
220
0.0
230
1.0
  2
SOLID
 70
     1
 71
     0
 91
        1
 92
        1
 93
       12
 72
     1
 10
1.392021104504447
 20
0.3865765014202565
 11
1.370458815418015
 21
0.3865765014202565
 72
     1
 10
1.370458815418015
 20
0.3865765014202565
 11
1.370458627917951
 21
0.2795138227272444
 72
     2
 10
1.39202114575308
 20
0.2795135133528436
 40
0.0215625178373483
 50
179.999177932392
 51
269.9998903944058
 73
     1
 72
     1
 10
1.392021104504447
 20
0.2579509955155343
 11
1.509583287556818
 21
0.2579511736405264
 72
     2
 10
1.509583335369764
 20
0.2795136024146219
 40
0.0215624287741484
 50
269.9998729512306
 51
359.9996387857453
 73
     1
 72
     1
 10
1.531145764143484
 20
0.2795134664769192
 11
1.531146120393639
 21
0.3865765014202565
 72
     1
 10
1.531146120393639
 20
0.3865765014202565
 11
1.509583287556818
 21
0.3865765014202565
 72
     1
 10
1.509583287556818
 20
0.3865765014202565
 11
1.509583287556818
 21
0.2902950591455122
 72
     2
 10
1.498801916139266
 20
0.290294926019563
 40
0.0107813714183743
 50
359.9992925246018
 51
449.9992925333428
 73
     0
 72
     1
 10
1.49880204926357
 20
0.2795135546020104
 11
1.402802342797695
 21
0.2795135546020104
 72
     2
 10
1.402802382172719
 20
0.2902950197703451
 40
0.0107814651684066
 50
90.00020925010334
 51
180.0002092508632
 73
     0
 72
     1
 10
1.392020917004384
 20
0.2902950591455122
 11
1.392021104504447
 21
0.3865765014202565
 97
        0
 75
     0
 76
     1
 98
        1
 10
-7.279586802153931
 20
-0.4081141432880261
  0
HATCH
  5
84A
330
841
100
AcDbEntity
  8
TITLEBLOCK
 62
     0
100
AcDbHatch
 10
0.0
 20
0.0
 30
0.0
210
0.0
220
0.0
230
1.0
  2
SOLID
 70
     1
 71
     0
 91
        2
 92
        1
 93
       13
 72
     2
 10
1.851958289039648
 20
0.2899198104641797
 40
0.0215625675244637
 50
0.0002565813902296
 51
90.00070498518821
 73
     1
 72
     2
 10
1.851958289040149
 20
0.3330449455099156
 40
0.0215625675245372
 50
269.9992950134807
 51
359.9995092535441
 73
     1
 72
     1
 10
1.873520856563896
 20
0.3330447608234748
 11
1.873520856563896
 21
0.3650136657708798
 72
     2
 10
1.851957894958188
 20
0.3650135398162329
 40
0.0215629616060761
 50
0.0003346789653151
 51
89.99920945081219
 73
     1
 72
     1
 10
1.851958192477166
 20
0.3865765014202565
 11
1.720333350237904
 21
0.3865765014202565
 72
     1
 10
1.720333350237904
 20
0.3865765014202565
 11
1.720333350237904
 21
0.2579511736405264
 72
     1
 10
1.720333350237904
 20
0.2579511736405264
 11
1.741896183074725
 21
0.2579511736405264
 72
     1
 10
1.741896183074725
 20
0.2579511736405264
 11
1.741896183074725
 21
0.3007013215688856
 72
     1
 10
1.741896183074725
 20
0.3007013215688856
 11
1.841176785433827
 21
0.3007013215688856
 72
     2
 10
1.841176693559081
 20
0.2899201789011263
 40
0.0107811426681508
 50
270.0004882631974
 51
360.0004882673548
 73
     0
 72
     1
 10
1.851957836226841
 20
0.289920087025598
 11
1.851958192477166
 21
0.2579511736405264
 72
     1
 10
1.851958192477166
 20
0.2579511736405264
 11
1.873520856563896
 21
0.2579511736405264
 72
     1
 10
1.873520856563896
 20
0.2579511736405264
 11
1.873520856563896
 21
0.2899199070254552
 97
        0
 92
       16
 93
        6
 72
     2
 10
1.841176693559081
 20
0.3542325296658069
 40
0.0107811426681508
 50
270.0004882631974
 51
360.0004882673548
 73
     0
 72
     1
 10
1.851957836226841
 20
0.3542324377902786
 11
1.851958192477166
 21
0.333044848948566
 72
     2
 10
1.841176871684197
 20
0.333044935198247
 40
0.0107813207933138
 50
0.0004583615308307
 51
90.00045836519477
 73
     0
 72
     1
 10
1.841176785433827
 20
0.3222636144052784
 11
1.741896183074725
 21
0.3222638825303419
 72
     1
 10
1.741896183074725
 20
0.3222638825303419
 11
1.741896183074725
 21
0.3650136723335662
 72
     1
 10
1.741896183074725
 20
0.3650136723335662
 11
1.841176785433827
 21
0.3650136723335662
 97
        0
 75
     0
 76
     1
 98
        1
 10
-7.279586802153931
 20
-0.4081141432880261
  0
HATCH
  5
84B
330
841
100
AcDbEntity
  8
TITLEBLOCK
 62
     0
100
AcDbHatch
 10
0.0
 20
0.0
 30
0.0
210
0.0
220
0.0
230
1.0
  2
SOLID
 70
     1
 71
     0
 91
        2
 92
        1
 93
       10
 72
     1
 10
2.168832611988261
 20
0.3650136723335662
 11
2.168832611988261
 21
0.2795135546021492
 72
     1
 10
2.168832611988261
 20
0.2795135546021492
 11
2.148020079641632
 21
0.2795135546021492
 72
     1
 10
2.148020079641632
 20
0.2795135546021492
 11
2.148020079641632
 21
0.2579511736406499
 72
     1
 10
2.148020079641632
 20
0.2579511736406499
 11
2.314895263659607
 21
0.2579511736406499
 72
     2
 10
2.314895311472477
 20
0.2795136024147182
 40
0.0215624287741214
 50
269.9998729514336
 51
359.9996387859474
 73
     1
 72
     1
 10
2.336457740246171
 20
0.2795134664770916
 11
2.336457740246171
 21
0.3650136723335662
 72
     2
 10
2.314895087410214
 20
0.3650138485844006
 40
0.0215626528366775
 50
359.9995316703829
 51
449.999531674211
 73
     1
 72
     1
 10
2.314895263659607
 20
0.386576501420358
 11
2.148020079641632
 21
0.386576501420358
 72
     1
 10
2.148020079641632
 20
0.386576501420358
 11
2.148020079641632
 21
0.3650136723335662
 72
     1
 10
2.148020079641632
 20
0.3650136723335662
 11
2.168832611988261
 21
0.3650136723335662
 97
        0
 92
       16
 93
        6
 72
     1
 10
2.190395257324933
 20
0.3650136723335662
 11
2.304113856616218
 21
0.3650136723335662
 72
     2
 10
2.304113942866619
 20
0.3542323515405775
 40
0.0107813207933337
 50
269.9995416346447
 51
359.9995416383139
 73
     0
 72
     1
 10
2.314895263659607
 20
0.3542324377902877
 11
2.314895263659607
 21
0.2902949691455452
 72
     2
 10
2.304113807866077
 20
0.2902950103956483
 40
0.0107814557936096
 50
0.0002192149982456
 51
89.99974092762393
 73
     0
 72
     1
 10
2.304113856616218
 20
0.2795135546021492
 11
2.190395257324933
 21
0.2795135546021492
 72
     1
 10
2.190395257324933
 20
0.2795135546021492
 11
2.190395257324933
 21
0.3650136723335662
 97
        0
 75
     0
 76
     1
 98
        1
 10
-7.279586802153931
 20
-0.4081141432880261
  0
HATCH
  5
84C
330
841
100
AcDbEntity
  8
TITLEBLOCK
 62
     0
100
AcDbHatch
 10
0.0
 20
0.0
 30
0.0
210
0.0
220
0.0
230
1.0
  2
SOLID
 70
     1
 71
     0
 91
        2
 92
        1
 93
        8
 72
     1
 10
3.241392303571654
 20
0.3865765014202565
 11
3.157707226761072
 21
0.2579509955155343
 72
     1
 10
3.157707226761072
 20
0.2579509955155343
 11
3.183432299816939
 21
0.2579511736405264
 72
     1
 10
3.183432299816939
 20
0.2579511736405264
 11
3.197460983981823
 21
0.2795133764768478
 72
     1
 10
3.197460983981823
 20
0.2795133764768478
 11
3.30039082622498
 21
0.2795135546020104
 72
     1
 10
3.30039082622498
 20
0.2795135546020104
 11
3.314419679139785
 21
0.2579514417655899
 72
     1
 10
3.314419679139785
 20
0.2579514417655899
 11
3.340144583445731
 21
0.2579511736405264
 72
     1
 10
3.340144583445731
 20
0.2579511736405264
 11
3.256459603774981
 21
0.3865765014202565
 72
     1
 10
3.256459603774981
 20
0.3865765014202565
 11
3.241392303571654
 21
0.3865765014202565
 97
        0
 92
       16
 93
        3
 72
     1
 10
3.248925740352245
 20
0.358616778466603
 11
3.211489480646473
 21
0.3010762055637086
 72
     1
 10
3.211489480646473
 20
0.3010762055637086
 11
3.28636178580994
 21
0.3010763836888712
 72
     1
 10
3.28636178580994
 20
0.3010763836888712
 11
3.248925740352245
 21
0.358616778466603
 97
        0
 75
     0
 76
     1
 98
        1
 10
-7.279586802153931
 20
-0.4081141432880261
  0
HATCH
  5
84D
330
841
100
AcDbEntity
  8
TITLEBLOCK
 62
     0
100
AcDbHatch
 10
0.0
 20
0.0
 30
0.0
210
0.0
220
0.0
230
1.0
  2
SOLID
 70
     1
 71
     0
 91
        1
 92
        1
 93
       13
 72
     1
 10
2.838488736968525
 20
0.3865765014202565
 11
2.806145209588674
 21
0.3865765014202565
 72
     1
 10
2.806145209588674
 20
0.3865765014202565
 11
2.806145209588674
 21
0.2579511736405264
 72
     1
 10
2.806145209588674
 20
0.2579511736405264
 11
2.827707667425368
 21
0.2579511736405264
 72
     1
 10
2.827707667425368
 20
0.2579511736405264
 11
2.827707667425368
 21
0.3640633654626753
 72
     1
 10
2.827707667425368
 20
0.3640633654626753
 11
2.899718420719221
 21
0.2579514417655899
 72
     1
 10
2.899718420719221
 20
0.2579514417655899
 11
2.922570860648686
 21
0.2579511736405264
 72
     1
 10
2.922570860648686
 20
0.2579511736405264
 11
2.994582138942956
 21
0.3640642598382782
 72
     1
 10
2.994582138942956
 20
0.3640642598382782
 11
2.994582138942956
 21
0.2579511736405264
 72
     1
 10
2.994582138942956
 20
0.2579511736405264
 11
3.016144596779479
 21
0.2579511736405264
 72
     1
 10
3.016144596779479
 20
0.2579511736405264
 11
3.016144596779479
 21
0.3865765014202565
 72
     1
 10
3.016144596779479
 20
0.3865765014202565
 11
2.983801425649954
 21
0.3865765014202565
 72
     1
 10
2.983801425649954
 20
0.3865765014202565
 11
2.911144640683954
 21
0.2795135546020104
 72
     1
 10
2.911144640683954
 20
0.2795135546020104
 11
2.838488380718199
 21
0.3865765014202565
 97
        0
 75
     0
 76
     1
 98
        1
 10
-7.279586802153931
 20
-0.4081141432880261
  0
HATCH
  5
84E
330
841
100
AcDbEntity
  8
TITLEBLOCK
 62
     0
100
AcDbHatch
 10
0.0
 20
0.0
 30
0.0
210
0.0
220
0.0
230
1.0
  2
SOLID
 70
     1
 71
     0
 91
        2
 92
        1
 93
        8
 72
     1
 10
2.79358243888161
 20
0.2795134664769192
 11
2.793582795131936
 21
0.3650136723335662
 72
     2
 10
2.772020240733041
 20
0.3650137688961994
 40
0.0215625543991104
 50
359.9997434148459
 51
449.999743415997
 73
     1
 72
     1
 10
2.772020337295241
 20
0.3865763232950938
 11
2.640957676673206
 21
0.3865763232950938
 72
     2
 10
2.640957763860811
 20
0.3650137595211699
 40
0.0215625637741002
 50
90.00023167383188
 51
179.9999925267453
 73
     1
 72
     1
 10
2.61939520008671
 20
0.3650137623336376
 11
2.61939520008671
 21
0.2795135546020104
 72
     2
 10
2.640957628860649
 20
0.2795136024144641
 40
0.0215624287739915
 50
180.0001270474597
 51
270.0001270477355
 73
     1
 72
     1
 10
2.640957676673206
 20
0.2579511736405264
 11
2.772020337295241
 21
0.2579511736405264
 72
     2
 10
2.772020197607671
 20
0.2795134149140743
 40
0.0215622412740004
 50
270.000371181646
 51
360.000137014207
 73
     1
 97
        0
 92
       16
 93
        8
 72
     2
 10
2.651738913091431
 20
0.3542324359149649
 40
0.0107812364186015
 50
89.9999900344766
 51
179.999521702949
 73
     1
 72
     1
 10
2.640957676673206
 20
0.3542325259151993
 11
2.640957676673206
 21
0.2902950591455122
 72
     2
 10
2.651738958091508
 20
0.2902950160204556
 40
0.010781281418388
 50
179.9997708172488
 51
269.9997708181704
 73
     1
 72
     1
 10
2.651738914966625
 20
0.2795137346021532
 11
2.761238742751839
 21
0.2795135546020104
 72
     2
 10
2.761238956501978
 20
0.2902951041442614
 40
0.0107815495443698
 50
269.9988640797126
 51
359.9992825833961
 73
     1
 72
     1
 10
2.772020506045503
 20
0.2902949691454408
 11
2.772020337295241
 21
0.3542324377902786
 72
     2
 10
2.761239007127366
 20
0.3542323421656908
 40
0.0107813301682991
 50
0.0005081826837109
 51
90.00050818719378
 73
     1
 72
     1
 10
2.76123891150193
 20
0.3650136723335662
 11
2.651738914966625
 21
0.3650136723335662
 97
        0
 75
     0
 76
     1
 98
        1
 10
-7.279586802153931
 20
-0.4081141432880261
  0
HATCH
  5
84F
330
841
100
AcDbEntity
  8
TITLEBLOCK
 62
     0
100
AcDbHatch
 10
0.0
 20
0.0
 30
0.0
210
0.0
220
0.0
230
1.0
  2
SOLID
 70
     1
 71
     0
 91
        2
 92
        1
 93
        8
 72
     2
 10
3.162769048174736
 20
0.3650134554401196
 40
0.0215630459811904
 50
270.0005663490367
 51
359.9994236862867
 73
     0
 72
     1
 10
3.184332094154836
 20
0.3650136723335662
 11
3.184332094154836
 21
0.3222638825303419
 72
     2
 10
3.162769397256125
 20
0.3222640184675962
 40
0.0215626968991391
 50
0.0003612085718475
 51
90.00036121084693
 73
     0
 72
     1
 10
3.162769261318015
 20
0.3007013215688856
 11
3.052707420665665
 21
0.3007013215688856
 72
     1
 10
3.052707420665665
 20
0.3007013215688856
 11
3.052707420665665
 21
0.2579511736405264
 72
     1
 10
3.052707420665665
 20
0.2579511736405264
 11
3.031144250328662
 21
0.2579511736405264
 72
     1
 10
3.031144250328662
 20
0.2579511736405264
 11
3.031144250328662
 21
0.3865765014202565
 72
     1
 10
3.031144250328662
 20
0.3865765014202565
 11
3.162769261318015
 21
0.3865765014202565
 97
        0
 92
       16
 93
        6
 72
     2
 10
3.151988118650169
 20
0.3542325296657216
 40
0.0107811426682361
 50
270.0004882627443
 51
360.0004882669015
 73
     0
 72
     1
 10
3.162769261318015
 20
0.3542324377902786
 11
3.162769261318015
 21
0.333044848948566
 72
     2
 10
3.151988118650169
 20
0.333044757073123
 40
0.0107811426682367
 50
359.9995117330984
 51
449.9995117372556
 73
     0
 72
     1
 10
3.15198821052483
 20
0.3222636144052784
 11
3.052707420665665
 21
0.3222638825303419
 72
     1
 10
3.052707420665665
 20
0.3222638825303419
 11
3.052707420665665
 21
0.3650136723335662
 72
     1
 10
3.052707420665665
 20
0.3650136723335662
 11
3.15198821052483
 21
0.3650136723335662
 97
        0
 75
     0
 76
     1
 98
        1
 10
-7.279586802153931
 20
-0.4081141432880261
  0
HATCH
  5
850
330
841
100
AcDbEntity
  8
TITLEBLOCK
 62
     0
100
AcDbHatch
 10
0.0
 20
0.0
 30
0.0
210
0.0
220
0.0
230
1.0
  2
SOLID
 70
     1
 71
     0
 91
        1
 92
        1
 93
        9
 72
     1
 10
3.556847887515953
 20
0.3865763232950938
 11
3.525206566844968
 21
0.3865765014202565
 72
     1
 10
3.525206566844968
 20
0.3865765014202565
 11
3.60348814923547
 21
0.3136817019238036
 72
     1
 10
3.60348814923547
 20
0.3136817019238036
 11
3.603486349234383
 21
0.2579511736405264
 72
     1
 10
3.603486349234383
 20
0.2579511736405264
 11
3.625050607072164
 21
0.2579511736405264
 72
     1
 10
3.625050607072164
 20
0.2579511736405264
 11
3.625050607072164
 21
0.3136813437984982
 72
     1
 10
3.625050607072164
 20
0.3136813437984982
 11
3.703331833212512
 21
0.3865766795454191
 72
     1
 10
3.703331833212512
 20
0.3865766795454191
 11
3.671691225042007
 21
0.3865765014202565
 72
     1
 10
3.671691225042007
 20
0.3865765014202565
 11
3.61426955627898
 21
0.3331056458632473
 72
     1
 10
3.61426955627898
 20
0.3331056458632473
 11
3.556847887515953
 21
0.3865763232950938
 97
        0
 75
     0
 76
     1
 98
        1
 10
-7.279586802153931
 20
-0.4081141432880261
  0
HATCH
  5
851
330
841
100
AcDbEntity
  8
TITLEBLOCK
 62
     0
100
AcDbHatch
 10
0.0
 20
0.0
 30
0.0
210
0.0
220
0.0
230
1.0
  2
SOLID
 70
     1
 71
     0
 91
        1
 92
        1
 93
       10
 72
     1
 10
3.376247484495632
 20
0.3865765014202565
 11
3.345207161752892
 21
0.3865765014202565
 72
     1
 10
3.345207161752892
 20
0.3865765014202565
 11
3.345207161752892
 21
0.2579511736405264
 72
     1
 10
3.345207161752892
 20
0.2579511736405264
 11
3.366769638339558
 21
0.2579511736405264
 72
     1
 10
3.366769638339558
 20
0.2579511736405264
 11
3.366769638339558
 21
0.3659393041881229
 72
     1
 10
3.366769638339558
 20
0.3659393041881229
 11
3.48273627034943
 21
0.2579509955155343
 72
     1
 10
3.48273627034943
 20
0.2579509955155343
 11
3.515082122730785
 21
0.2579511736405264
 72
     1
 10
3.515082122730785
 20
0.2579511736405264
 11
3.515082122730785
 21
0.3865765014202565
 72
     1
 10
3.515082122730785
 20
0.3865765014202565
 11
3.49351767739277
 21
0.3865765014202565
 72
     1
 10
3.49351767739277
 20
0.3865765014202565
 11
3.49351767739277
 21
0.277374671329744
 72
     1
 10
3.49351767739277
 20
0.277374671329744
 11
3.376247484495632
 21
0.3865765014202565
 97
        0
 75
     0
 76
     1
 98
        1
 10
-7.279586802153931
 20
-0.4081141432880261
  0
ENDBLK
  5
853
330
841
100
AcDbEntity
  8
0
100
AcDbBlockEnd
  0
BLOCK
  5
AF5
330
AE5
100
AcDbEntity
  8
0
100
AcDbBlockBegin
  2
TITLE-PAD
 70
     2
 10
0.0
 20
0.0
 30
0.0
  3
TITLE-PAD
  1

  0
LWPOLYLINE
  5
B1D
330
AE5
100
AcDbEntity
  8
CONTINUOUS2
 62
     0
100
AcDbPolyline
 90
        7
 70
     1
 43
0.0
 10
16.40000099999999
 20
0.0
 10
16.40000099999999
 20
0.0
 10
16.40000099999999
 20
0.0
 10
8.002461
 20
0.0
 10
8.002461
 20
0.9120019999999993
 10
16.40000099999999
 20
0.9120019999999993
 10
16.40000099999999
 20
0.0
  0
INSERT
  5
B1E
330
AE5
100
AcDbEntity
  8
TITLEBLOCK
 62
     0
100
AcDbBlockReference
  2
LOGO-PAD
 10
12.245701
 20
0.3040000000000003
 30
0.0
  0
LINE
  5
B1F
330
AE5
100
AcDbEntity
  8
CONTINUOUS2
 62
     0
100
AcDbLine
 10
16.40000099999999
 20
0.3040000000000003
 30
0.0
 11
12.245701
 21
0.3040000000000003
 31
0.0
  0
LINE
  5
B20
330
AE5
100
AcDbEntity
  8
CONTINUOUS2
 62
     0
100
AcDbLine
 10
12.245701
 20
0.9120019999999993
 30
0.0
 11
12.245701
 21
0.0
 31
0.0
  0
TEXT
  5
B21
330
AE5
100
AcDbEntity
  8
TEXT1
  6
CONTINUOUS
 62
     0
100
AcDbText
 10
12.36897712113656
 20
0.0611566731182909
 30
0.0
 40
0.0699999951940822
  1
NO.
  7
ROMANS
 11
12.36897712113656
 21
0.096156670715332
 31
0.0
100
AcDbText
 73
     2
  0
TEXT
  5
B22
330
AE5
100
AcDbEntity
  8
TEXT1
  6
CONTINUOUS
 62
     0
100
AcDbText
 10
12.36897712113656
 20
0.1661566731182908
 30
0.0
 40
0.0699999951940822
  1
DWG#
  7
ROMANS
 11
12.36897712113656
 21
0.2011566707153319
 31
0.0
100
AcDbText
 73
     2
  0
ATTDEF
  5
B23
330
AE5
100
AcDbEntity
  8
TEXT1
 62
     0
100
AcDbText
 10
10.10183834893798
 20
0.7474460884590166
 30
0.0
 40
0.1
  1

  7
ROMANS
 72
     4
 11
10.10183834893798
 21
0.7474460884590166
 31
0.0
100
AcDbAttributeDefinition
  3
DESCRIPTION 1
  2
DESCRIPTION 1
 70
     0
  0
ATTDEF
  5
B24
330
AE5
100
AcDbEntity
  8
TEXT1
 62
     0
100
AcDbText
 10
10.10183834893798
 20
0.6017231711406717
 30
0.0
 40
0.1
  1

  7
ROMANS
 72
     4
 11
10.10183834893798
 21
0.6017231711406717
 31
0.0
100
AcDbAttributeDefinition
  3
DESCRIPTION 2
  2
DESCRIPTION 2
 70
     0
  0
ATTDEF
  5
B25
330
AE5
100
AcDbEntity
  8
TEXT1
 62
     0
100
AcDbText
 10
10.10183834893798
 20
0.4560002538223267
 30
0.0
 40
0.08
  1

  7
ROMANS
 72
     4
 11
10.10183834893798
 21
0.4560002538223267
 31
0.0
100
AcDbAttributeDefinition
  3
DESCRIPTION 3
  2
DESCRIPTION 3
 70
     0
  0
ATTDEF
  5
B26
330
AE5
100
AcDbEntity
  8
TEXT1
 62
     0
100
AcDbText
 10
10.10183834893798
 20
0.3202773365039833
 30
0.0
 40
0.08
  1

  7
ROMANS
 72
     4
 11
10.10183834893798
 21
0.3202773365039833
 31
0.0
100
AcDbAttributeDefinition
  3
DESCRIPTION 4
  2
DESCRIPTION 4
 70
     0
  0
ATTDEF
  5
B27
330
AE5
100
AcDbEntity
  8
TEXT1
 62
     0
100
AcDbText
 10
10.10183834893798
 20
0.1845544191856399
 30
0.0
 40
0.08
  1

  7
ROMANS
 72
     4
 11
10.10183834893798
 21
0.1845544191856399
 31
0.0
100
AcDbAttributeDefinition
  3
DESCRIPTION 5
  2
DESCRIPTION 5
 70
     0
  0
ATTDEF
  5
B28
330
AE5
100
AcDbEntity
  8
TEXT1
 62
     0
100
AcDbText
 10
12.74772367103195
 20
0.096540546036505
 30
0.0
 40
0.12
  1

 41
0.9512024731840066
  7
M_STANDARD
 11
12.74772367103195
 21
0.156540546036505
 31
0.0
100
AcDbAttributeDefinition
  3
DRAWING NUMBER
  2
DWGNO
 70
     0
 74
     2
  0
ATTDEF
  5
B29
330
AE5
100
AcDbEntity
  8
TEXT1
 62
     0
100
AcDbText
 10
16.35506454949325
 20
-0.1507193079929352
 30
0.0
 40
0.08
  1

  7
ROMANS
 72
     2
 11
16.35506454949325
 21
-0.1107193079929352
 31
0.0
100
AcDbAttributeDefinition
  3
REF DWG #
  2
REF
 70
     0
 74
     2
  0
ATTDEF
  5
B2A
330
AE5
100
AcDbEntity
  8
TEXT1
 62
     0
100
AcDbText
 10
0.0266402374038712
 20
-0.1507193079929352
 30
0.0
 40
0.08
  1

  7
ROMANS
 11
0.0266402374038712
 21
-0.1107193079929352
 31
0.0
100
AcDbAttributeDefinition
  3
DATE MODIFIED
  2
DATE
 70
     0
 74
     2
  0
LWPOLYLINE
  5
B2B
330
AE5
100
AcDbEntity
  8
CONTINUOUS3
 62
     0
100
AcDbPolyline
 90
        4
 70
   129
 43
0.0
 10
0.0
 20
0.0
 10
16.40000099999999
 20
0.0
 10
16.40000099999999
 20
10.25
 10
0.0
 20
10.25
  0
ENDBLK
  5
AF6
330
AE5
100
AcDbEntity
  8
0
100
AcDbBlockEnd
  0
BLOCK
  5
3023
330
3021
100
AcDbEntity
  8
0
100
AcDbBlockBegin
  2
SEARROW
 70
     0
 10
0.0
 20
0.0
 30
0.0
  3
SEARROW
  1

  0
LWPOLYLINE
  5
3022
330
3021
100
AcDbEntity
  8
0
  6
BYBLOCK
100
AcDbPolyline
 90
        2
 70
     0
 10
0.0
 20
0.0
 40
0.0
 41
0.5000000001500001
 10
-1.000000000300019
 20
0.0
 40
0.5000000001500001
 41
0.5000000001500001
  0
ENDBLK
  5
3024
330
3021
100
AcDbEntity
  8
0
100
AcDbBlockEnd
  0
BLOCK
  5
4B6E
330
4B6D
100
AcDbEntity
  8
0
100
AcDbBlockBegin
  2
SETUP
 70
     0
 10
0.0
 20
0.0
 30
0.0
  3
SETUP
  1

  0
ENDBLK
  5
4B6F
330
4B6D
100
AcDbEntity
  8
0
100
AcDbBlockEnd
  0
BLOCK
  5
4DCA
330
4DBF
100
AcDbEntity
  8
0
100
AcDbBlockBegin
  2
*D4
 70
     1
 10
0.0
 20
0.0
 30
0.0
  3
*D4
  1

  0
LINE
  5
8852
330
4DBF
100
AcDbEntity
  8
DIM
100
AcDbLine
 10
17.45004747334686
 20
70.828499757825
 30
0.0
 11
17.45004747334686
 21
73.94708557986611
 31
0.0
  0
LINE
  5
8853
330
4DBF
100
AcDbEntity
  8
DIM
100
AcDbLine
 10
11.20004747334686
 20
70.82849975782498
 30
0.0
 11
11.20004747334686
 21
73.94708557986611
 31
0.0
  0
LINE
  5
8854
330
4DBF
100
AcDbEntity
  8
DIM
100
AcDbLine
 10
16.89004747334686
 20
73.44708557986611
 30
0.0
 11
16.54980937810877
 21
73.44708557986611
 31
0.0
  0
LINE
  5
8855
330
4DBF
100
AcDbEntity
  8
DIM
100
AcDbLine
 10
11.76004747334686
 20
73.44708557986611
 30
0.0
 11
12.10028556858495
 21
73.44708557986611
 31
0.0
  0
INSERT
  5
8856
330
4DBF
100
AcDbEntity
  8
DIM
100
AcDbBlockReference
  2
SEARROW
 10
17.45004747334686
 20
73.44708557986611
 30
0.0
 41
0.5600000000000001
 42
0.5600000000000001
 43
0.5600000000000001
  0
INSERT
  5
8857
330
4DBF
100
AcDbEntity
  8
DIM
100
AcDbBlockReference
  2
SEARROW
 10
11.20004747334686
 20
73.44708557986611
 30
0.0
 41
0.5600000000000001
 42
0.5600000000000001
 43
0.5600000000000001
 50
180.0
  0
MTEXT
  5
8858
330
4DBF
100
AcDbEntity
  8
DIM
100
AcDbMText
 10
14.32504747334686
 20
73.44708557986611
 30
0.0
 40
0.8
 41
0.0
 71
     5
 72
     1
  1
\A1;6.25\P [159]
  7
ROMANS
1001
ACAD
1000
MTEXTBEGIN
1070
    73
1070
     1
1070
    44
1040
1.0
1070
    74
1070
     0
1000
MTEXTEND
  0
POINT
  5
8859
330
4DBF
100
AcDbEntity
  8
DEFPOINTS
 62
     0
100
AcDbPoint
 10
17.45004747334686
 20
70.328499757825
 30
0.0
  0
POINT
  5
885A
330
4DBF
100
AcDbEntity
  8
DEFPOINTS
 62
     0
100
AcDbPoint
 10
11.20004747334686
 20
70.32849975782498
 30
0.0
  0
POINT
  5
885B
330
4DBF
100
AcDbEntity
  8
DEFPOINTS
 62
     0
100
AcDbPoint
 10
11.20004747334686
 20
73.44708557986611
 30
0.0
  0
ENDBLK
  5
4DCB
330
4DBF
100
AcDbEntity
  8
0
100
AcDbBlockEnd
  0
BLOCK
  5
4DD8
330
4DCD
100
AcDbEntity
  8
0
100
AcDbBlockBegin
  2
*D5
 70
     1
 10
0.0
 20
0.0
 30
0.0
  3
*D5
  1

  0
LINE
  5
885C
330
4DCD
100
AcDbEntity
  8
DIM
100
AcDbLine
 10
10.13004747334686
 20
54.33651077601579
 30
0.0
 11
10.13004747334686
 21
58.83857325598877
 31
0.0
  0
LINE
  5
885D
330
4DCD
100
AcDbEntity
  8
DIM
100
AcDbLine
 10
8.550047473346863
 20
56.11401077601579
 30
0.0
 11
8.550047473346863
 21
58.83857325598877
 31
0.0
  0
LINE
  5
885E
330
4DCD
100
AcDbEntity
  8
DIM
100
AcDbLine
 10
10.69004747334686
 20
58.33857325598877
 30
0.0
 11
11.25004747334686
 21
58.33857325598877
 31
0.0
  0
LINE
  5
885F
330
4DCD
100
AcDbEntity
  8
DIM
100
AcDbLine
 10
7.990047473346862
 20
58.33857325598877
 30
0.0
 11
6.799935413541517
 21
58.33857325598877
 31
0.0
  0
INSERT
  5
8860
330
4DCD
100
AcDbEntity
  8
DIM
100
AcDbBlockReference
  2
SEARROW
 10
10.13004747334686
 20
58.33857325598877
 30
0.0
 41
0.5600000000000001
 42
0.5600000000000001
 43
0.5600000000000001
 50
180.0
  0
INSERT
  5
8861
330
4DCD
100
AcDbEntity
  8
DIM
100
AcDbBlockReference
  2
SEARROW
 10
8.550047473346863
 20
58.33857325598877
 30
0.0
 41
0.5600000000000001
 42
0.5600000000000001
 43
0.5600000000000001
  0
MTEXT
  5
8862
330
4DCD
100
AcDbEntity
  8
DIM
100
AcDbMText
 10
4.956125889731993
 20
58.33857325598877
 30
0.0
 40
0.8
 41
0.0
 71
     5
 72
     1
  1
\A1;1.58\P [40]
  7
ROMANS
1001
ACAD
1000
MTEXTBEGIN
1070
    73
1070
     1
1070
    44
1040
1.0
1070
    74
1070
     0
1000
MTEXTEND
  0
POINT
  5
8863
330
4DCD
100
AcDbEntity
  8
DEFPOINTS
 62
     0
100
AcDbPoint
 10
10.13004747334686
 20
53.83651077601579
 30
0.0
  0
POINT
  5
8864
330
4DCD
100
AcDbEntity
  8
DEFPOINTS
 62
     0
100
AcDbPoint
 10
8.550047473346863
 20
55.61401077601579
 30
0.0
  0
POINT
  5
8865
330
4DCD
100
AcDbEntity
  8
DEFPOINTS
 62
     0
100
AcDbPoint
 10
8.550047473346863
 20
58.33857325598877
 30
0.0
  0
ENDBLK
  5
4DD9
330
4DCD
100
AcDbEntity
  8
0
100
AcDbBlockEnd
  0
BLOCK
  5
4E02
330
4DF7
100
AcDbEntity
  8
0
100
AcDbBlockBegin
  2
*D6
 70
     1
 10
0.0
 20
0.0
 30
0.0
  3
*D6
  1

  0
LINE
  5
8866
330
4DF7
100
AcDbEntity
  8
DIM
100
AcDbLine
 10
8.225047473346863
 20
40.36401077601579
 30
0.0
 11
1.894257325356257
 21
40.36401077601579
 31
0.0
  0
LINE
  5
8867
330
4DF7
100
AcDbEntity
  8
DIM
100
AcDbLine
 10
8.225047473346863
 20
13.61401077601579
 30
0.0
 11
1.894257325356251
 21
13.61401077601579
 31
0.0
  0
LINE
  5
8868
330
4DF7
100
AcDbEntity
  8
DIM
100
AcDbLine
 10
2.394257325356256
 20
39.80401077601579
 30
0.0
 11
2.394257325356254
 21
28.58520125220626
 31
0.0
  0
LINE
  5
8869
330
4DF7
100
AcDbEntity
  8
DIM
100
AcDbLine
 10
2.39425732535625
 20
14.17401077601579
 30
0.0
 11
2.394257325356253
 21
25.39282029982531
 31
0.0
  0
INSERT
  5
886A
330
4DF7
100
AcDbEntity
  8
DIM
100
AcDbBlockReference
  2
SEARROW
 10
2.394257325356256
 20
40.36401077601579
 30
0.0
 41
0.5600000000000001
 42
0.5600000000000001
 43
0.5600000000000001
 50
90.0
  0
INSERT
  5
886B
330
4DF7
100
AcDbEntity
  8
DIM
100
AcDbBlockReference
  2
SEARROW
 10
2.39425732535625
 20
13.61401077601579
 30
0.0
 41
0.5600000000000001
 42
0.5600000000000001
 43
0.5600000000000001
 50
270.0
  0
MTEXT
  5
886C
330
4DF7
100
AcDbEntity
  8
DIM
100
AcDbMText
 10
2.394257325356249
 20
26.98901077601579
 30
0.0
 40
0.8
 41
0.0
 71
     5
 72
     1
  1
\A1;26.75\P [679]
  7
ROMANS
1001
ACAD
1000
MTEXTBEGIN
1070
    73
1070
     1
1070
    44
1040
1.0
1070
    74
1070
     0
1000
MTEXTEND
  0
POINT
  5
886D
330
4DF7
100
AcDbEntity
  8
DEFPOINTS
 62
     0
100
AcDbPoint
 10
8.725047473346863
 20
40.36401077601579
 30
0.0
  0
POINT
  5
886E
330
4DF7
100
AcDbEntity
  8
DEFPOINTS
 62
     0
100
AcDbPoint
 10
8.725047473346863
 20
13.61401077601579
 30
0.0
  0
POINT
  5
886F
330
4DF7
100
AcDbEntity
  8
DEFPOINTS
 62
     0
100
AcDbPoint
 10
2.39425732535625
 20
13.61401077601579
 30
0.0
  0
ENDBLK
  5
4E03
330
4DF7
100
AcDbEntity
  8
0
100
AcDbBlockEnd
  0
BLOCK
  5
4E1A
330
4E0F
100
AcDbEntity
  8
0
100
AcDbBlockBegin
  2
*D7
 70
     1
 10
0.0
 20
0.0
 30
0.0
  3
*D7
  1

  0
LINE
  5
8870
330
4E0F
100
AcDbEntity
  8
DIM
100
AcDbLine
 10
8.225047473346863
 20
13.61401077601579
 30
0.0
 11
5.560572328385222
 21
13.61401077601579
 31
0.0
  0
LINE
  5
8871
330
4E0F
100
AcDbEntity
  8
DIM
100
AcDbLine
 10
8.162547473346863
 20
31.61401077601579
 30
0.0
 11
5.560572328385227
 21
31.61401077601579
 31
0.0
  0
LINE
  5
8872
330
4E0F
100
AcDbEntity
  8
DIM
100
AcDbLine
 10
6.060572328385223
 20
14.17401077601579
 30
0.0
 11
6.060572328385224
 21
21.01782029982531
 31
0.0
  0
LINE
  5
8873
330
4E0F
100
AcDbEntity
  8
DIM
100
AcDbLine
 10
6.060572328385227
 20
31.05401077601579
 30
0.0
 11
6.060572328385225
 21
24.21020125220626
 31
0.0
  0
INSERT
  5
8874
330
4E0F
100
AcDbEntity
  8
DIM
100
AcDbBlockReference
  2
SEARROW
 10
6.060572328385222
 20
13.61401077601579
 30
0.0
 41
0.5600000000000001
 42
0.5600000000000001
 43
0.5600000000000001
 50
270.0
  0
INSERT
  5
8875
330
4E0F
100
AcDbEntity
  8
DIM
100
AcDbBlockReference
  2
SEARROW
 10
6.060572328385227
 20
31.61401077601579
 30
0.0
 41
0.5600000000000001
 42
0.5600000000000001
 43
0.5600000000000001
 50
90.0
  0
MTEXT
  5
8876
330
4E0F
100
AcDbEntity
  8
DIM
100
AcDbMText
 10
6.060572328385221
 20
22.61401077601579
 30
0.0
 40
0.8
 41
0.0
 71
     5
 72
     1
  1
\A1;18.00\P [457]
  7
ROMANS
1001
ACAD
1000
MTEXTBEGIN
1070
    73
1070
     1
1070
    44
1040
1.0
1070
    74
1070
     0
1000
MTEXTEND
  0
POINT
  5
8877
330
4E0F
100
AcDbEntity
  8
DEFPOINTS
 62
     0
100
AcDbPoint
 10
8.725047473346863
 20
13.61401077601579
 30
0.0
  0
POINT
  5
8878
330
4E0F
100
AcDbEntity
  8
DEFPOINTS
 62
     0
100
AcDbPoint
 10
8.662547473346863
 20
31.61401077601579
 30
0.0
  0
POINT
  5
8879
330
4E0F
100
AcDbEntity
  8
DEFPOINTS
 62
     0
100
AcDbPoint
 10
6.060572328385227
 20
31.61401077601579
 30
0.0
  0
ENDBLK
  5
4E1B
330
4E0F
100
AcDbEntity
  8
0
100
AcDbBlockEnd
  0
BLOCK
  5
4E44
330
4E39
100
AcDbEntity
  8
0
100
AcDbBlockBegin
  2
*D8
 70
     1
 10
0.0
 20
0.0
 30
0.0
  3
*D8
  1

  0
LINE
  5
887A
330
4E39
100
AcDbEntity
  8
DIM
100
AcDbLine
 10
20.52504747334686
 20
56.61401077601579
 30
0.0
 11
23.52848791942062
 21
56.61401077601579
 31
0.0
  0
LINE
  5
887B
330
4E39
100
AcDbEntity
  8
DIM
100
AcDbLine
 10
20.52504747334686
 20
13.61401077601579
 30
0.0
 11
23.52848791942061
 21
13.61401077601579
 31
0.0
  0
LINE
  5
887C
330
4E39
100
AcDbEntity
  8
DIM
100
AcDbLine
 10
23.02848791942062
 20
56.05401077601579
 30
0.0
 11
23.02848791942062
 21
40.87020125220626
 31
0.0
  0
LINE
  5
887D
330
4E39
100
AcDbEntity
  8
DIM
100
AcDbLine
 10
23.02848791942061
 20
14.17401077601579
 30
0.0
 11
23.02848791942061
 21
37.6778202998253
 31
0.0
  0
INSERT
  5
887E
330
4E39
100
AcDbEntity
  8
DIM
100
AcDbBlockReference
  2
SEARROW
 10
23.02848791942062
 20
56.61401077601579
 30
0.0
 41
0.5600000000000001
 42
0.5600000000000001
 43
0.5600000000000001
 50
90.0
  0
INSERT
  5
887F
330
4E39
100
AcDbEntity
  8
DIM
100
AcDbBlockReference
  2
SEARROW
 10
23.02848791942061
 20
13.61401077601579
 30
0.0
 41
0.5600000000000001
 42
0.5600000000000001
 43
0.5600000000000001
 50
270.0
  0
MTEXT
  5
8880
330
4E39
100
AcDbEntity
  8
DIM
100
AcDbMText
 10
23.02848791942061
 20
39.27401077601579
 30
0.0
 40
0.8
 41
0.0
 71
     5
 72
     1
  1
\A1;43.00\P [1092]
  7
ROMANS
1001
ACAD
1000
MTEXTBEGIN
1070
    73
1070
     1
1070
    44
1040
1.0
1070
    74
1070
     0
1000
MTEXTEND
  0
POINT
  5
8881
330
4E39
100
AcDbEntity
  8
DEFPOINTS
 62
     0
100
AcDbPoint
 10
20.02504747334686
 20
56.61401077601579
 30
0.0
  0
POINT
  5
8882
330
4E39
100
AcDbEntity
  8
DEFPOINTS
 62
     0
100
AcDbPoint
 10
20.02504747334686
 20
13.61401077601579
 30
0.0
  0
POINT
  5
8883
330
4E39
100
AcDbEntity
  8
DEFPOINTS
 62
     0
100
AcDbPoint
 10
23.02848791942061
 20
13.61401077601579
 30
0.0
  0
ENDBLK
  5
4E45
330
4E39
100
AcDbEntity
  8
0
100
AcDbBlockEnd
  0
BLOCK
  5
5ECF
330
5EC4
100
AcDbEntity
  8
0
100
AcDbBlockBegin
  2
*D9
 70
     1
 10
0.0
 20
0.0
 30
0.0
  3
*D9
  1

  0
LINE
  5
8884
330
5EC4
100
AcDbEntity
  8
DIM
100
AcDbLine
 10
34.5709091131099
 20
56.61401077601579
 30
0.0
 11
37.53376558307195
 21
56.61401077601579
 31
0.0
  0
LINE
  5
8885
330
5EC4
100
AcDbEntity
  8
DIM
100
AcDbLine
 10
34.70620432785358
 20
54.02401077601579
 30
0.0
 11
37.53376558307195
 21
54.02401077601579
 31
0.0
  0
LINE
  5
8886
330
5EC4
100
AcDbEntity
  8
DIM
100
AcDbLine
 10
37.03376558307195
 20
54.58401077601579
 30
0.0
 11
37.03376558307195
 21
56.05401077601579
 31
0.0
  0
LINE
  5
8887
330
5EC4
100
AcDbEntity
  8
DIM
100
AcDbLine
 10
37.03376558307195
 20
56.61401077601579
 30
0.0
 11
37.03376558307195
 21
58.51686924562101
 31
0.0
  0
LINE
  5
8888
330
5EC4
100
AcDbEntity
  8
DIM
100
AcDbLine
 10
37.03376558307195
 20
58.51686924562101
 30
0.0
 11
37.59376558307195
 21
58.51686924562101
 31
0.0
  0
INSERT
  5
8889
330
5EC4
100
AcDbEntity
  8
DIM
100
AcDbBlockReference
  2
SEARROW
 10
37.03376558307195
 20
54.02401077601579
 30
0.0
 41
0.5600000000000001
 42
0.5600000000000001
 43
0.5600000000000001
 50
270.0
  0
INSERT
  5
888A
330
5EC4
100
AcDbEntity
  8
DIM
100
AcDbBlockReference
  2
SEARROW
 10
37.03376558307195
 20
56.61401077601579
 30
0.0
 41
0.5600000000000001
 42
0.5600000000000001
 43
0.5600000000000001
 50
90.0
  0
MTEXT
  5
888B
330
5EC4
100
AcDbEntity
  8
DIM
100
AcDbMText
 10
39.43757510688147
 20
58.51686924562102
 30
0.0
 40
0.8
 41
0.0
 71
     5
 72
     1
  1
\A1;2.59\P [66]
  7
ROMANS
1001
ACAD
1000
MTEXTBEGIN
1070
    73
1070
     1
1070
    44
1040
1.0
1070
    74
1070
     0
1000
MTEXTEND
  0
POINT
  5
888C
330
5EC4
100
AcDbEntity
  8
DEFPOINTS
 62
     0
100
AcDbPoint
 10
34.0709091131099
 20
56.61401077601579
 30
0.0
  0
POINT
  5
888D
330
5EC4
100
AcDbEntity
  8
DEFPOINTS
 62
     0
100
AcDbPoint
 10
34.20620432785358
 20
54.02401077601579
 30
0.0
  0
POINT
  5
888E
330
5EC4
100
AcDbEntity
  8
DEFPOINTS
 62
     0
100
AcDbPoint
 10
37.03376558307195
 20
54.02401077601579
 30
0.0
  0
ENDBLK
  5
5ED0
330
5EC4
100
AcDbEntity
  8
0
100
AcDbBlockEnd
  0
BLOCK
  5
5EDD
330
5ED2
100
AcDbEntity
  8
0
100
AcDbBlockBegin
  2
*D10
 70
     1
 10
0.0
 20
0.0
 30
0.0
  3
*D10
  1

  0
LINE
  5
888F
330
5ED2
100
AcDbEntity
  8
DIM
100
AcDbLine
 10
34.70620432785358
 20
54.02401077601579
 30
0.0
 11
37.53376558307195
 21
54.02401077601579
 31
0.0
  0
LINE
  5
8890
330
5ED2
100
AcDbEntity
  8
DIM
100
AcDbLine
 10
34.70620432785358
 20
43.02401077601579
 30
0.0
 11
37.53376558307194
 21
43.02401077601579
 31
0.0
  0
LINE
  5
8891
330
5ED2
100
AcDbEntity
  8
DIM
100
AcDbLine
 10
37.03376558307195
 20
53.46401077601579
 30
0.0
 11
37.03376558307195
 21
50.12020125220627
 31
0.0
  0
LINE
  5
8892
330
5ED2
100
AcDbEntity
  8
DIM
100
AcDbLine
 10
37.03376558307194
 20
43.58401077601579
 30
0.0
 11
37.03376558307194
 21
46.92782029982531
 31
0.0
  0
INSERT
  5
8893
330
5ED2
100
AcDbEntity
  8
DIM
100
AcDbBlockReference
  2
SEARROW
 10
37.03376558307195
 20
54.02401077601579
 30
0.0
 41
0.5600000000000001
 42
0.5600000000000001
 43
0.5600000000000001
 50
90.0
  0
INSERT
  5
8894
330
5ED2
100
AcDbEntity
  8
DIM
100
AcDbBlockReference
  2
SEARROW
 10
37.03376558307194
 20
43.02401077601579
 30
0.0
 41
0.5600000000000001
 42
0.5600000000000001
 43
0.5600000000000001
 50
270.0
  0
MTEXT
  5
8895
330
5ED2
100
AcDbEntity
  8
DIM
100
AcDbMText
 10
37.03376558307194
 20
48.5240107760158
 30
0.0
 40
0.8
 41
0.0
 71
     5
 72
     1
  1
\A1;11.00\P [279]
  7
ROMANS
1001
ACAD
1000
MTEXTBEGIN
1070
    73
1070
     1
1070
    44
1040
1.0
1070
    74
1070
     0
1000
MTEXTEND
  0
POINT
  5
8896
330
5ED2
100
AcDbEntity
  8
DEFPOINTS
 62
     0
100
AcDbPoint
 10
34.20620432785358
 20
54.02401077601579
 30
0.0
  0
POINT
  5
8897
330
5ED2
100
AcDbEntity
  8
DEFPOINTS
 62
     0
100
AcDbPoint
 10
34.20620432785358
 20
43.02401077601579
 30
0.0
  0
POINT
  5
8898
330
5ED2
100
AcDbEntity
  8
DEFPOINTS
 62
     0
100
AcDbPoint
 10
37.03376558307194
 20
43.02401077601579
 30
0.0
  0
ENDBLK
  5
5EDE
330
5ED2
100
AcDbEntity
  8
0
100
AcDbBlockEnd
  0
BLOCK
  5
5FBA
330
5FAF
100
AcDbEntity
  8
0
100
AcDbBlockBegin
  2
*D11
 70
     1
 10
0.0
 20
0.0
 30
0.0
  3
*D11
  1

  0
LINE
  5
8899
330
5FAF
100
AcDbEntity
  8
DIM
100
AcDbLine
 10
20.20004747334686
 20
57.11401077601578
 30
0.0
 11
20.20004747334686
 21
62.50878009438816
 31
0.0
  0
LINE
  5
889A
330
5FAF
100
AcDbEntity
  8
DIM
100
AcDbLine
 10
8.550047473346863
 20
57.11401077601578
 30
0.0
 11
8.550047473346863
 21
62.50878009438816
 31
0.0
  0
LINE
  5
889B
330
5FAF
100
AcDbEntity
  8
DIM
100
AcDbLine
 10
19.64004747334686
 20
62.00878009438817
 30
0.0
 11
16.59980937810876
 21
62.00878009438817
 31
0.0
  0
LINE
  5
889C
330
5FAF
100
AcDbEntity
  8
DIM
100
AcDbLine
 10
9.110047473346863
 20
62.00878009438817
 30
0.0
 11
12.15028556858495
 21
62.00878009438817
 31
0.0
  0
INSERT
  5
889D
330
5FAF
100
AcDbEntity
  8
DIM
100
AcDbBlockReference
  2
SEARROW
 10
20.20004747334686
 20
62.00878009438817
 30
0.0
 41
0.5600000000000001
 42
0.5600000000000001
 43
0.5600000000000001
  0
INSERT
  5
889E
330
5FAF
100
AcDbEntity
  8
DIM
100
AcDbBlockReference
  2
SEARROW
 10
8.550047473346863
 20
62.00878009438817
 30
0.0
 41
0.5600000000000001
 42
0.5600000000000001
 43
0.5600000000000001
 50
180.0
  0
MTEXT
  5
889F
330
5FAF
100
AcDbEntity
  8
DIM
100
AcDbMText
 10
14.37504747334686
 20
62.00878009438817
 30
0.0
 40
0.8
 41
0.0
 71
     5
 72
     1
  1
\A1;11.65\P [296]
  7
ROMANS
1001
ACAD
1000
MTEXTBEGIN
1070
    73
1070
     1
1070
    44
1040
1.0
1070
    74
1070
     0
1000
MTEXTEND
  0
POINT
  5
88A0
330
5FAF
100
AcDbEntity
  8
DEFPOINTS
 62
     0
100
AcDbPoint
 10
20.20004747334686
 20
56.61401077601579
 30
0.0
  0
POINT
  5
88A1
330
5FAF
100
AcDbEntity
  8
DEFPOINTS
 62
     0
100
AcDbPoint
 10
8.550047473346863
 20
56.61401077601579
 30
0.0
  0
POINT
  5
88A2
330
5FAF
100
AcDbEntity
  8
DEFPOINTS
 62
     0
100
AcDbPoint
 10
8.550047473346863
 20
62.00878009438817
 30
0.0
  0
ENDBLK
  5
5FBB
330
5FAF
100
AcDbEntity
  8
0
100
AcDbBlockEnd
  0
BLOCK
  5
65F7
330
65EC
100
AcDbEntity
  8
0
100
AcDbBlockBegin
  2
*D12
 70
     1
 10
0.0
 20
0.0
 30
0.0
  3
*D12
  1

  0
LINE
  5
88A3
330
65EC
100
AcDbEntity
  8
DIM
100
AcDbLine
 10
20.20004747334686
 20
71.82849975782499
 30
0.0
 11
20.20004747334686
 21
73.94708557986611
 31
0.0
  0
LINE
  5
88A4
330
65EC
100
AcDbEntity
  8
DIM
100
AcDbLine
 10
17.45004747334686
 20
70.828499757825
 30
0.0
 11
17.45004747334686
 21
73.94708557986611
 31
0.0
  0
LINE
  5
88A5
330
65EC
100
AcDbEntity
  8
DIM
100
AcDbLine
 10
18.01004747334686
 20
73.44708557986611
 30
0.0
 11
19.64004747334686
 21
73.44708557986611
 31
0.0
  0
LINE
  5
88A6
330
65EC
100
AcDbEntity
  8
DIM
100
AcDbLine
 10
20.20004747334686
 20
73.44708557986611
 30
0.0
 11
20.82254747334686
 21
73.44708557986611
 31
0.0
  0
INSERT
  5
88A7
330
65EC
100
AcDbEntity
  8
DIM
100
AcDbBlockReference
  2
SEARROW
 10
17.45004747334686
 20
73.44708557986611
 30
0.0
 41
0.5600000000000001
 42
0.5600000000000001
 43
0.5600000000000001
 50
180.0
  0
INSERT
  5
88A8
330
65EC
100
AcDbEntity
  8
DIM
100
AcDbBlockReference
  2
SEARROW
 10
20.20004747334686
 20
73.44708557986611
 30
0.0
 41
0.5600000000000001
 42
0.5600000000000001
 43
0.5600000000000001
  0
MTEXT
  5
88A9
330
65EC
100
AcDbEntity
  8
DIM
100
AcDbMText
 10
22.66635699715638
 20
73.44708557986611
 30
0.0
 40
0.8
 41
0.0
 71
     5
 72
     1
  1
\A1;2.75\P [70]
  7
ROMANS
1001
ACAD
1000
MTEXTBEGIN
1070
    73
1070
     1
1070
    44
1040
1.0
1070
    74
1070
     0
1000
MTEXTEND
  0
POINT
  5
88AA
330
65EC
100
AcDbEntity
  8
DEFPOINTS
 62
     0
100
AcDbPoint
 10
20.20004747334686
 20
71.32849975782498
 30
0.0
  0
POINT
  5
88AB
330
65EC
100
AcDbEntity
  8
DEFPOINTS
 62
     0
100
AcDbPoint
 10
17.45004747334686
 20
70.328499757825
 30
0.0
  0
POINT
  5
88AC
330
65EC
100
AcDbEntity
  8
DEFPOINTS
 62
     0
100
AcDbPoint
 10
17.45004747334686
 20
73.44708557986611
 30
0.0
  0
ENDBLK
  5
65F8
330
65EC
100
AcDbEntity
  8
0
100
AcDbBlockEnd
  0
BLOCK
  5
681F
330
6814
100
AcDbEntity
  8
0
100
AcDbBlockBegin
  2
*D13
 70
     1
 10
0.0
 20
0.0
 30
0.0
  3
*D13
  1

  0
LINE
  5
88AD
330
6814
100
AcDbEntity
  8
DIM
100
AcDbLine
 10
10.13004747334686
 20
54.71151077601579
 30
0.0
 11
10.13004747334686
 21
58.83857325598877
 31
0.0
  0
LINE
  5
88AE
330
6814
100
AcDbEntity
  8
DIM
100
AcDbLine
 10
18.63004747334686
 20
54.71151077601579
 30
0.0
 11
18.63004747334686
 21
58.83857325598877
 31
0.0
  0
LINE
  5
88AF
330
6814
100
AcDbEntity
  8
DIM
100
AcDbLine
 10
10.69004747334686
 20
58.33857325598877
 30
0.0
 11
12.15528556858495
 21
58.33857325598877
 31
0.0
  0
LINE
  5
88B0
330
6814
100
AcDbEntity
  8
DIM
100
AcDbLine
 10
18.07004747334686
 20
58.33857325598877
 30
0.0
 11
16.60480937810876
 21
58.33857325598877
 31
0.0
  0
INSERT
  5
88B1
330
6814
100
AcDbEntity
  8
DIM
100
AcDbBlockReference
  2
SEARROW
 10
10.13004747334686
 20
58.33857325598877
 30
0.0
 41
0.5600000000000001
 42
0.5600000000000001
 43
0.5600000000000001
 50
180.0
  0
INSERT
  5
88B2
330
6814
100
AcDbEntity
  8
DIM
100
AcDbBlockReference
  2
SEARROW
 10
18.63004747334686
 20
58.33857325598877
 30
0.0
 41
0.5600000000000001
 42
0.5600000000000001
 43
0.5600000000000001
  0
MTEXT
  5
88B3
330
6814
100
AcDbEntity
  8
DIM
100
AcDbMText
 10
14.38004747334686
 20
58.33857325598877
 30
0.0
 40
0.8
 41
0.0
 71
     5
 72
     1
  1
\A1;8.50\P [216]
  7
ROMANS
1001
ACAD
1000
MTEXTBEGIN
1070
    73
1070
     1
1070
    44
1040
1.0
1070
    74
1070
     0
1000
MTEXTEND
  0
POINT
  5
88B4
330
6814
100
AcDbEntity
  8
DEFPOINTS
 62
     0
100
AcDbPoint
 10
10.13004747334686
 20
54.21151077601579
 30
0.0
  0
POINT
  5
88B5
330
6814
100
AcDbEntity
  8
DEFPOINTS
 62
     0
100
AcDbPoint
 10
18.63004747334686
 20
54.21151077601579
 30
0.0
  0
POINT
  5
88B6
330
6814
100
AcDbEntity
  8
DEFPOINTS
 62
     0
100
AcDbPoint
 10
18.63004747334686
 20
58.33857325598877
 30
0.0
  0
ENDBLK
  5
6820
330
6814
100
AcDbEntity
  8
0
100
AcDbBlockEnd
  0
BLOCK
  5
7493
330
7488
100
AcDbEntity
  8
0
100
AcDbBlockBegin
  2
*D14
 70
     1
 10
0.0
 20
0.0
 30
0.0
  3
*D14
  1

  0
LINE
  5
88B7
330
7488
100
AcDbEntity
  8
DIM
100
AcDbLine
 10
28.43149954259725
 20
57.11401077601578
 30
0.0
 11
28.43149954259725
 21
62.50878009438816
 31
0.0
  0
LINE
  5
88B8
330
7488
100
AcDbEntity
  8
DIM
100
AcDbLine
 10
34.34149954259726
 20
54.91490932936799
 30
0.0
 11
34.34149954259726
 21
62.50878009438816
 31
0.0
  0
LINE
  5
88B9
330
7488
100
AcDbEntity
  8
DIM
100
AcDbLine
 10
27.87149954259726
 20
62.00878009438817
 30
0.0
 11
27.31149954259725
 21
62.00878009438817
 31
0.0
  0
LINE
  5
88BA
330
7488
100
AcDbEntity
  8
DIM
100
AcDbLine
 10
34.90149954259726
 20
62.00878009438817
 30
0.0
 11
35.46149954259726
 21
62.00878009438817
 31
0.0
  0
INSERT
  5
88BB
330
7488
100
AcDbEntity
  8
DIM
100
AcDbBlockReference
  2
SEARROW
 10
28.43149954259725
 20
62.00878009438817
 30
0.0
 41
0.5600000000000001
 42
0.5600000000000001
 43
0.5600000000000001
  0
INSERT
  5
88BC
330
7488
100
AcDbEntity
  8
DIM
100
AcDbBlockReference
  2
SEARROW
 10
34.34149954259726
 20
62.00878009438817
 30
0.0
 41
0.5600000000000001
 42
0.5600000000000001
 43
0.5600000000000001
 50
180.0
  0
MTEXT
  5
88BD
330
7488
100
AcDbEntity
  8
DIM
100
AcDbMText
 10
31.38649954259726
 20
62.00878009438817
 30
0.0
 40
0.8
 41
0.0
 71
     5
 72
     1
  1
\A1;5.91\P [150]
  7
ROMANS
1001
ACAD
1000
MTEXTBEGIN
1070
    73
1070
     1
1070
    44
1040
1.0
1070
    74
1070
     0
1000
MTEXTEND
  0
POINT
  5
88BE
330
7488
100
AcDbEntity
  8
DEFPOINTS
 62
     0
100
AcDbPoint
 10
28.43149954259725
 20
56.61401077601579
 30
0.0
  0
POINT
  5
88BF
330
7488
100
AcDbEntity
  8
DEFPOINTS
 62
     0
100
AcDbPoint
 10
34.34149954259726
 20
54.41490932936799
 30
0.0
  0
POINT
  5
88C0
330
7488
100
AcDbEntity
  8
DEFPOINTS
 62
     0
100
AcDbPoint
 10
34.34149954259726
 20
62.00878009438817
 30
0.0
  0
ENDBLK
  5
7494
330
7488
100
AcDbEntity
  8
0
100
AcDbBlockEnd
  0
BLOCK
  5
7E72
330
7E67
100
AcDbEntity
  8
0
100
AcDbBlockBegin
  2
*D15
 70
     1
 10
0.0
 20
0.0
 30
0.0
  3
*D15
  1

  0
LINE
  5
8A45
330
7E67
100
AcDbEntity
  8
DIM
100
AcDbLine
 10
109.4665563903375
 20
25.93414175281175
 30
0.0
 11
112.626916175976
 21
24.10950717983722
 31
0.0
  0
LINE
  5
8A46
330
7E67
100
AcDbEntity
  8
DIM
100
AcDbLine
 10
99.68046932757335
 20
20.28414175281174
 30
0.0
 11
102.8408291132119
 21
18.45950717983723
 31
0.0
  0
LINE
  5
8A47
330
7E67
100
AcDbEntity
  8
DIM
100
AcDbLine
 10
111.6419419498568
 20
24.11818231443204
 30
0.0
 11
109.4586345493559
 21
22.85764919902915
 31
0.0
  0
LINE
  5
8A48
330
7E67
100
AcDbEntity
  8
DIM
100
AcDbLine
 10
102.8258033393312
 20
19.02818231443205
 30
0.0
 11
105.0091107398321
 21
20.28871542983493
 31
0.0
  0
INSERT
  5
8A49
330
7E67
100
AcDbEntity
  8
DIM
100
AcDbBlockReference
  2
SEARROW
 10
112.126916175976
 20
24.39818231443204
 30
0.0
 41
0.5600000000000001
 42
0.5600000000000001
 43
0.5600000000000001
 50
29.99999999999997
  0
INSERT
  5
8A4A
330
7E67
100
AcDbEntity
  8
DIM
100
AcDbBlockReference
  2
SEARROW
 10
102.3408291132119
 20
18.74818231443205
 30
0.0
 41
0.5600000000000001
 42
0.5600000000000001
 43
0.5600000000000001
 50
209.9999999999999
  0
MTEXT
  5
8A4B
330
7E67
100
AcDbEntity
  8
DIM
100
AcDbMText
 10
107.233872644594
 20
21.57318231443205
 30
0.0
 40
0.8
 41
0.0
 71
     5
 72
     1
  1
\A1;11.30\P [287]
  7
ROMANS
  0
POINT
  5
8A4C
330
7E67
100
AcDbEntity
  8
DEFPOINTS
 62
     0
100
AcDbPoint
 10
108.9665563903374
 20
26.22281688740656
 30
0.0
  0
POINT
  5
8A4D
330
7E67
100
AcDbEntity
  8
DEFPOINTS
 62
     0
100
AcDbPoint
 10
99.18046932757334
 20
20.57281688740655
 30
0.0
  0
POINT
  5
8A4E
330
7E67
100
AcDbEntity
  8
DEFPOINTS
 62
     0
100
AcDbPoint
 10
102.3408291132119
 20
18.74818231443205
 30
0.0
  0
ENDBLK
  5
7E73
330
7E67
100
AcDbEntity
  8
0
100
AcDbBlockEnd
  0
BLOCK
  5
7E7F
330
7E74
100
AcDbEntity
  8
0
100
AcDbBlockBegin
  2
*D16
 70
     1
 10
0.0
 20
0.0
 30
0.0
  3
*D16
  1

  0
LINE
  5
88CB
330
7E74
100
AcDbEntity
  8
DIM
100
AcDbLine
 10
88.42131588799198
 20
26.20726675281172
 30
0.0
 11
84.78456454204382
 21
24.10758738425283
 31
0.0
  0
LINE
  5
88CC
330
7E74
100
AcDbEntity
  8
DIM
100
AcDbLine
 10
51.18222352526109
 20
47.70726675281173
 30
0.0
 11
47.54547217931292
 21
45.60758738425282
 31
0.0
  0
LINE
  5
88CD
330
7E74
100
AcDbEntity
  8
DIM
100
AcDbLine
 10
84.79959031592455
 20
24.67626251884765
 30
0.0
 11
69.27073264639266
 21
33.64185267455925
 31
0.0
  0
LINE
  5
88CE
330
7E74
100
AcDbEntity
  8
DIM
100
AcDbLine
 10
48.53044640543221
 20
45.61626251884764
 30
0.0
 11
64.05930407496409
 21
36.65067236313603
 31
0.0
  0
INSERT
  5
88CF
330
7E74
100
AcDbEntity
  8
DIM
100
AcDbBlockReference
  2
SEARROW
 10
85.28456454204382
 20
24.39626251884765
 30
0.0
 41
0.5600000000000001
 42
0.5600000000000001
 43
0.5600000000000001
 50
330.0
  0
INSERT
  5
88D0
330
7E74
100
AcDbEntity
  8
DIM
100
AcDbBlockReference
  2
SEARROW
 10
48.04547217931293
 20
45.89626251884763
 30
0.0
 41
0.5600000000000001
 42
0.5600000000000001
 43
0.5600000000000001
 50
150.0
  0
MTEXT
  5
88D1
330
7E74
100
AcDbEntity
  8
DIM
100
AcDbMText
 10
66.66501836067837
 20
35.14626251884764
 30
0.0
 40
0.8
 41
0.0
 71
     5
 72
     1
  1
\A1;43.00\P [1092]
  7
ROMANS
1001
ACAD
1000
MTEXTBEGIN
1070
    73
1070
     1
1070
    44
1040
1.0
1070
    74
1070
     0
1000
MTEXTEND
  0
POINT
  5
88D2
330
7E74
100
AcDbEntity
  8
DEFPOINTS
 62
     0
100
AcDbPoint
 10
88.92131588799198
 20
26.49594188740654
 30
0.0
  0
POINT
  5
88D3
330
7E74
100
AcDbEntity
  8
DEFPOINTS
 62
     0
100
AcDbPoint
 10
51.68222352526109
 20
47.99594188740654
 30
0.0
  0
POINT
  5
88D4
330
7E74
100
AcDbEntity
  8
DEFPOINTS
 62
     0
100
AcDbPoint
 10
48.04547217931293
 20
45.89626251884763
 30
0.0
  0
ENDBLK
  5
7E80
330
7E74
100
AcDbEntity
  8
0
100
AcDbBlockEnd
  0
BLOCK
  5
7E8C
330
7E81
100
AcDbEntity
  8
0
100
AcDbBlockBegin
  2
*D17
 70
     1
 10
0.0
 20
0.0
 30
0.0
  3
*D17
  1

  0
LINE
  5
88D5
330
7E81
100
AcDbEntity
  8
DIM
100
AcDbLine
 10
109.2500500393914
 20
30.73649202200135
 30
0.0
 11
111.3001954362131
 21
31.92014401873428
 31
0.0
  0
LINE
  5
88D6
330
7E81
100
AcDbEntity
  8
DIM
100
AcDbLine
 10
98.04368131442075
 20
37.20649202200135
 30
0.0
 11
100.0938267112425
 21
38.39014401873428
 31
0.0
  0
LINE
  5
88D7
330
7E81
100
AcDbEntity
  8
DIM
100
AcDbLine
 10
110.3152212100939
 20
31.91146888413948
 30
0.0
 11
107.4217729784897
 21
33.58200199954237
 31
0.0
  0
LINE
  5
88D8
330
7E81
100
AcDbEntity
  8
DIM
100
AcDbLine
 10
100.0788009373618
 20
37.82146888413947
 30
0.0
 11
102.9722491689659
 21
36.15093576873658
 31
0.0
  0
INSERT
  5
88D9
330
7E81
100
AcDbEntity
  8
DIM
100
AcDbBlockReference
  2
SEARROW
 10
110.8001954362132
 20
31.63146888413947
 30
0.0
 41
0.5600000000000001
 42
0.5600000000000001
 43
0.5600000000000001
 50
330.0
  0
INSERT
  5
88DA
330
7E81
100
AcDbEntity
  8
DIM
100
AcDbBlockReference
  2
SEARROW
 10
99.59382671124254
 20
38.10146888413948
 30
0.0
 41
0.5600000000000001
 42
0.5600000000000001
 43
0.5600000000000001
 50
150.0
  0
MTEXT
  5
88DB
330
7E81
100
AcDbEntity
  8
DIM
100
AcDbMText
 10
105.1970110737278
 20
34.86646888413948
 30
0.0
 40
0.8
 41
0.0
 71
     5
 72
     1
  1
\A1;12.94\P [329]
  7
ROMANS
1001
ACAD
1000
MTEXTBEGIN
1070
    73
1070
     1
1070
    44
1040
1.0
1070
    74
1070
     0
1000
MTEXTEND
  0
POINT
  5
88DC
330
7E81
100
AcDbEntity
  8
DEFPOINTS
 62
     0
100
AcDbPoint
 10
108.7500500393914
 20
30.44781688740654
 30
0.0
  0
POINT
  5
88DD
330
7E81
100
AcDbEntity
  8
DEFPOINTS
 62
     0
100
AcDbPoint
 10
97.54368131442076
 20
36.91781688740654
 30
0.0
  0
POINT
  5
88DE
330
7E81
100
AcDbEntity
  8
DEFPOINTS
 62
     0
100
AcDbPoint
 10
99.59382671124254
 20
38.10146888413948
 30
0.0
  0
ENDBLK
  5
7E8D
330
7E81
100
AcDbEntity
  8
0
100
AcDbBlockEnd
  0
ENDSEC
  0
SECTION
  2
ENTITIES
  0
LWPOLYLINE
  5
BF7
330
1F
100
AcDbEntity
  8
VIEWPORT
100
AcDbPolyline
 90
        6
 70
     1
 43
0.0
 10
131.200008
 20
81.98404588717258
 10
131.200008
 20
7.280061887172566
 10
64.019688
 20
7.280061887172566
 10
64.019688
 20
-0.0159541128274282
 10
0.0
 20
-0.0159541128274282
 10
0.0
 20
81.98404588717258
1001
GENIUS_GENOREF_13
1005
0
1005
0
1005
0
1005
0
1005
0
1005
0
1005
0
1005
0
1005
0
1005
0
1005
0
1005
0
1005
0
1005
0
  0
VIEWPORT
  5
BF8
330
1F
100
AcDbEntity
  8
VIEWPORT
100
AcDbViewport
 10
65.60000399999999
 20
40.98404588717257
 30
0.0
 40
131.200008
 41
82.0
 69
     0
1001
ACAD
1000
MVIEW
1002
{
1070
    16
1010
0.0
1020
0.0
1030
0.0
1010
0.0
1020
0.0
1030
1.0
1040
0.0
1040
10.25
1040
8.193386135163109
1040
5.146330469914579
1040
50.0
1040
0.0
1040
0.0
1070
     0
1070
   100
1070
     1
1070
     2
1070
     0
1070
     0
1070
     0
1070
     0
1040
0.0
1040
0.0
1040
0.0
1040
0.5
1040
0.5
1040
0.5
1040
0.5
1070
     0
1002
{
1002
}
1002
}
1001
GENIUS_GENOREF_13
1005
0
1005
0
1005
0
1005
0
1005
0
1005
0
1005
0
1005
0
1005
0
1005
0
1005
0
1005
0
1005
0
1005
0
1001
GENIUS_GENSCREG_15
1000
PF
1040
0.0
1000
DF
1040
0.0
1000
MIN
1011
0.0
1021
-0.0159541128274282
1031
0.0
1000
MAX
1011
131.200008
1021
81.98404588717258
1031
0.0
1000
FLAGS
1070
     2
  0
MTEXT
  5
2517
330
1F
100
AcDbEntity
  8
0
100
AcDbMText
 10
22.11248634229724
 20
14.94238675539585
 30
0.0
 40
0.2
 41
0.0
 71
     1
 72
     1
  1

  7
ROMANS
1001
ACAD
1000
MTEXTBEGIN
1070
    73
1070
     1
1070
    44
1040
1.0
1070
    74
1070
     0
1000
MTEXTEND
  0
LWPOLYLINE
  5
4B44
330
1F
100
AcDbEntity
  8
CONTINUOUS1
100
AcDbPolyline
 90
        4
 70
     1
 43
0.0
 10
20.02504747334686
 20
13.61401077601579
 10
8.725047473346863
 20
13.61401077601579
 10
8.725047473346863
 20
55.61401077601579
 10
20.02504747334686
 20
55.61401077601579
  0
LWPOLYLINE
  5
4B47
330
1F
100
AcDbEntity
  8
CONTINUOUS1
100
AcDbPolyline
 90
        4
 70
     1
 43
0.0
 10
28.43149954259725
 20
13.61401077601579
 10
34.0709091131099
 20
13.61401077601579
 10
34.0709091131099
 20
56.61401077601579
 10
28.43149954259725
 20
56.61401077601579
  0
LINE
  5
4B49
330
1F
100
AcDbEntity
  8
HIDDEN1
100
AcDbLine
 10
34.0709091131099
 20
31.61401077601579
 30
0.0
 11
29.43149954259725
 21
31.61401077601579
 31
0.0
  0
LINE
  5
4B4A
330
1F
100
AcDbEntity
  8
CONTINUOUS1
100
AcDbLine
 10
29.43149954259725
 20
40.36401077601579
 30
0.0
 11
28.43149954259725
 21
40.36401077601579
 31
0.0
  0
LINE
  5
4B4F
330
1F
100
AcDbEntity
  8
HIDDEN1
100
AcDbLine
 10
20.02504747334686
 20
31.61401077601579
 30
0.0
 11
8.725047473346862
 21
31.61401077601579
 31
0.0
  0
LINE
  5
4B50
330
1F
100
AcDbEntity
  8
CONTINUOUS1
100
AcDbLine
 10
20.02504747334686
 20
40.36401077601579
 30
0.0
 11
8.725047473346862
 21
40.36401077601579
 31
0.0
  0
INSERT
  5
4B71
330
1F
100
AcDbEntity
  8
0
100
AcDbBlockReference
  2
SETUP
 10
66.70419011264181
 20
26.1953979752061
 30
0.0
  0
LWPOLYLINE
  5
4BAF
330
1F
100
AcDbEntity
  8
CONTINUOUS1
100
AcDbPolyline
 90
       10
 70
   128
 43
0.0
 10
119.5181177738255
 20
65.78423053270511
 10
119.5181177738255
 20
66.45089719937178
 10
120.8514511071588
 20
66.45089719937178
 10
120.8514511071588
 20
67.78423053270514
 10
121.5181177738255
 20
68.45089719937181
 10
122.8514511071588
 20
68.45089719937179
 10
123.5181177738255
 20
67.78423053270515
 10
123.5181177738255
 20
66.45089719937178
 10
122.8514511071588
 20
65.78423053270511
 10
119.5181177738255
 20
65.78423053270511
  0
LWPOLYLINE
  5
4BB0
330
1F
100
AcDbEntity
  8
CONTINUOUS1
100
AcDbPolyline
 90
        7
 70
   128
 43
0.0
 10
115.1272001424839
 20
65.78423053270512
 10
115.1272001424839
 20
66.11756386603845
 10
114.8872001424839
 20
66.11756386603845
 10
114.8872001424839
 20
68.45089719937179
 10
114.5538668091506
 20
68.45089719937179
 10
114.5538668091506
 20
65.78423053270512
 10
115.1272001424839
 20
65.78423053270514
  0
LWPOLYLINE
  5
4BB1
330
1F
100
AcDbEntity
  8
CONTINUOUS1
100
AcDbPolyline
 90
        5
 70
   128
 43
0.0
 10
119.5181177738255
 20
65.78423053270511
 10
119.5181177738255
 20
69.7842305327051
 10
119.1847844404921
 20
69.7842305327051
 10
119.1847844404921
 20
65.78423053270511
 10
119.5181177738255
 20
65.78423053270511
  0
LWPOLYLINE
  5
4BB2
330
1F
100
AcDbEntity
  8
CONTINUOUS1
100
AcDbPolyline
 90
        7
 70
   128
 43
0.0
 10
117.7938668091506
 20
65.78423053270511
 10
115.1272001424839
 20
65.78423053270512
 10
115.1272001424839
 20
69.11756386603845
 10
115.7938668091506
 20
69.78423053270514
 10
117.1272001424839
 20
69.78423053270512
 10
117.7938668091506
 20
69.11756386603847
 10
117.7938668091506
 20
65.78423053270511
  0
CIRCLE
  5
4BB3
330
1F
100
AcDbEntity
  8
CONTINUOUS1
100
AcDbCircle
 10
116.4605334758173
 20
68.45089719937182
 30
0.0
 40
0.5600000000000023
  0
TEXT
  5
4BBC
330
1F
100
AcDbEntity
  8
TEXT1
100
AcDbText
 10
114.9743799905379
 20
62.83584516329993
 30
0.0
 40
0.8
  1
COVER LATCH
 41
0.9549340065443457
  7
M_STANDARD
 72
     1
 11
118.8668728934044
 21
63.23584516329993
 31
0.0
100
AcDbText
 73
     2
  0
LWPOLYLINE
  5
4BC1
330
1F
100
AcDbEntity
  8
CONTINUOUS1
100
AcDbPolyline
 90
        5
 70
   128
 43
0.0
 10
116.9005334758173
 20
66.92194402753138
 10
116.0205334758173
 20
66.92194402753138
 10
116.0205334758173
 20
66.68194402753139
 10
116.9005334758173
 20
66.68194402753139
 10
116.9005334758173
 20
66.92194402753138
  0
CIRCLE
  5
4BC3
330
1F
100
AcDbEntity
  8
CONTINUOUS1
100
AcDbCircle
 10
116.0205334758173
 20
67.49384405061194
 30
0.0
 40
0.1200000000000045
  0
CIRCLE
  5
4BC5
330
1F
100
AcDbEntity
  8
CONTINUOUS1
100
AcDbCircle
 10
122.1847844404922
 20
67.11756386603844
 30
0.0
 40
0.6666666666666714
  0
LWPOLYLINE
  5
4BC6
330
1F
100
AcDbEntity
  8
CONTINUOUS1
100
AcDbPolyline
 90
        5
 70
   128
 43
0.0
 10
13.7832086215687
 20
40.54523558652769
 10
13.78320862156871
 20
42.04523558652769
 10
13.65820862156871
 20
42.04523558652769
 10
13.65820862156871
 20
40.54523558652769
 10
13.78320862156871
 20
40.54523558652769
  0
LWPOLYLINE
  5
4BC7
330
1F
100
AcDbEntity
  8
CONTINUOUS1
100
AcDbPolyline
 90
       10
 70
   128
 43
0.0
 10
13.78320862156871
 20
40.54523558652769
 10
13.7832086215687
 20
40.79523558652769
 10
14.28320862156873
 20
40.79523558652769
 10
14.28320862156873
 20
41.2952355865277
 10
14.53320862156871
 20
41.54523558652769
 10
15.03320862156873
 20
41.54523558652769
 10
15.28320862156872
 20
41.2952355865277
 10
15.28320862156872
 20
40.79523558652769
 10
15.03320862156873
 20
40.54523558652769
 10
13.78320862156871
 20
40.54523558652769
  0
CIRCLE
  5
4BC8
330
1F
100
AcDbEntity
  8
CONTINUOUS1
100
AcDbCircle
 10
14.78320862156873
 20
41.04523558652767
 30
0.0
 40
0.2500000000000018
  0
LWPOLYLINE
  5
4BD4
330
1F
100
AcDbEntity
  8
CONTINUOUS1
100
AcDbPolyline
 90
        4
 70
     1
 43
0.0
 10
20.20004747334686
 20
71.32849975782498
 10
8.550047473346864
 20
71.32849975782498
 10
8.550047473346864
 20
66.828499757825
 10
20.20004747334686
 20
66.828499757825
  0
CIRCLE
  5
4BD7
330
1F
100
AcDbEntity
  8
CONTINUOUS1
100
AcDbCircle
 10
11.20004747334686
 20
69.078499757825
 30
0.0
 40
1.25
  0
CIRCLE
  5
4BDA
330
1F
100
AcDbEntity
  8
CONTINUOUS1
100
AcDbCircle
 10
9.744998962800387
 20
70.32849975782498
 30
0.0
 40
0.25
  0
CIRCLE
  5
4BDC
330
1F
100
AcDbEntity
  8
CONTINUOUS1
100
AcDbCircle
 10
12.65509598389334
 20
67.828499757825
 30
0.0
 40
0.25
  0
DIMENSION
  5
4DBE
330
1F
100
AcDbEntity
  8
DIM
100
AcDbDimension
  2
*D4
 10
11.20004747334686
 20
73.44708557986611
 30
0.0
 11
14.32504747334686
 21
73.44708557986611
 31
0.0
 70
    32
  3
SCHNEIDERELECTRIC_DUAL_BEL
100
AcDbAlignedDimension
 13
17.45004747334686
 23
70.328499757825
 33
0.0
 14
11.20004747334686
 24
70.32849975782498
 34
0.0
100
AcDbRotatedDimension
1001
ACAD
1000
DSTYLE
1002
{
1070
    40
1040
8.0
1002
}
  0
DIMENSION
  5
4DCC
330
1F
100
AcDbEntity
  8
DIM
100
AcDbDimension
  2
*D5
 10
8.550047473346863
 20
58.33857325598877
 30
0.0
 11
4.956125889731993
 21
58.33857325598877
 31
0.0
 70
   160
  3
SCHNEIDERELECTRIC_DUAL_BEL
100
AcDbAlignedDimension
 13
10.13004747334686
 23
53.83651077601579
 33
0.0
 14
8.550047473346863
 24
55.61401077601579
 34
0.0
100
AcDbRotatedDimension
1001
ACAD
1000
DSTYLE
1002
{
1070
    40
1040
8.0
1002
}
  0
DIMENSION
  5
4DF6
330
1F
100
AcDbEntity
  8
DIM
100
AcDbDimension
  2
*D6
 10
2.39425732535625
 20
13.61401077601579
 30
0.0
 11
2.394257325356249
 21
26.98901077601579
 31
0.0
 70
    32
  3
SCHNEIDERELECTRIC_DUAL_BEL
100
AcDbAlignedDimension
 13
8.725047473346863
 23
40.36401077601579
 33
0.0
 14
8.725047473346863
 24
13.61401077601579
 34
0.0
 50
90.0
100
AcDbRotatedDimension
1001
ACAD
1000
DSTYLE
1002
{
1070
    40
1040
8.0
1002
}
  0
DIMENSION
  5
4E0E
330
1F
100
AcDbEntity
  8
DIM
100
AcDbDimension
  2
*D7
 10
6.060572328385227
 20
31.61401077601579
 30
0.0
 11
6.060572328385221
 21
22.61401077601579
 31
0.0
 70
    32
  3
SCHNEIDERELECTRIC_DUAL_BEL
100
AcDbAlignedDimension
 13
8.725047473346863
 23
13.61401077601579
 33
0.0
 14
8.662547473346863
 24
31.61401077601579
 34
0.0
 50
90.0
100
AcDbRotatedDimension
1001
ACAD
1000
DSTYLE
1002
{
1070
    40
1040
8.0
1002
}
  0
DIMENSION
  5
4E38
330
1F
100
AcDbEntity
  8
DIM
100
AcDbDimension
  2
*D8
 10
23.02848791942061
 20
13.61401077601579
 30
0.0
 11
23.02848791942061
 21
39.27401077601579
 31
0.0
 70
   160
  3
SCHNEIDERELECTRIC_DUAL_BEL
100
AcDbAlignedDimension
 13
20.02504747334686
 23
56.61401077601579
 33
0.0
 14
20.02504747334686
 24
13.61401077601579
 34
0.0
 50
90.0
100
AcDbRotatedDimension
1001
ACAD
1000
DSTYLE
1002
{
1070
    40
1040
8.0
1002
}
  0
MTEXT
  5
526B
330
1F
100
AcDbEntity
  8
0
100
AcDbMText
 10
39.9418402012902
 20
53.90401077601579
 30
0.0
 40
0.2
 41
0.0
 71
     1
 72
     1
  1

  7
ROMANS
1001
ACAD
1000
MTEXTBEGIN
1070
    73
1070
     1
1070
    44
1040
1.0
1070
    74
1070
     0
1000
MTEXTEND
  0
MTEXT
  5
526D
330
1F
100
AcDbEntity
  8
TEXT1
100
AcDbMText
 10
37.77440117954807
 20
26.81690475502882
 30
0.0
 40
0.6400000000000001
 41
0.0
 71
     1
 72
     1
  1
FINAL GRADE
  7
ROMANS
1001
ACAD
1000
MTEXTBEGIN
1070
    73
1070
     1
1070
    44
1040
1.0
1070
    74
1070
     0
1000
MTEXTEND
  0
LEADER
  5
526E
330
1F
100
AcDbEntity
  8
TEXT1
100
AcDbLeader
  3
SCHNEIDERELECTRIC_DUAL_BEL
 73
     0
 74
     0
 75
     1
 40
0.2
 76
     3
 10
33.27996859122555
 20
31.61401077601579
 30
0.0
 10
36.62536151069534
 20
26.52710649047243
 30
0.0
 10
37.18536151069535
 20
26.52710649047243
 30
0.0
340
526F
213
-1.181476635015854
223
2.416272053300023
233
0.0
1001
ACAD
1000
DSTYLE
1002
{
1070
     5
1000
SEARROW
1070
    40
1040
8.0
1070
   342
1005
3021
1002
}
  0
MTEXT
  5
526F
102
{ACAD_REACTORS
330
526E
102
}
330
1F
100
AcDbEntity
  8
0
100
AcDbMText
 10
38.6868381457112
 20
24.1108344371724
 30
0.0
 40
0.2
 41
0.0
 71
     1
 72
     1
  1

  7
ROMANS
1001
ACAD
1000
MTEXTBEGIN
1070
    73
1070
     1
1070
    44
1040
1.0
1070
    74
1070
     0
1000
MTEXTEND
  0
LEADER
  5
52FD
330
1F
100
AcDbEntity
  8
DIM
100
AcDbLeader
  3
SCHNEIDERELECTRIC_DUAL_BEL
 73
     0
 75
     1
 40
2.552380952380952
 41
4.571428571428572
 76
     3
 10
116.3341143837576
 20
68.99644116016948
 30
0.0
 10
113.6297262432176
 20
72.58442296821903
 30
0.0
 10
113.0697262432176
 20
72.58442296821903
 30
0.0
340
52FE
213
4.618145906396691
223
-0.3573728862597335
233
0.0
1001
ACAD
1000
DSTYLE
1002
{
1070
     5
1000
SEARROW
1070
    40
1040
8.0
1070
   342
1005
3021
1002
}
  0
MTEXT
  5
52FE
102
{ACAD_REACTORS
330
52FD
102
}
330
1F
100
AcDbEntity
  8
DIM
100
AcDbMText
 10
108.1315803368209
 20
72.94179585447877
 30
0.0
 40
0.8
 41
0.0
 71
     1
 72
     1
  1
.42 DIA.\P[11]
  7
ROMANS
1001
ACAD
1000
MTEXTBEGIN
1070
    73
1070
     1
1070
    44
1040
1.0
1070
    74
1070
     0
1000
MTEXTEND
  0
LEADER
  5
5301
330
1F
100
AcDbEntity
  8
DIM
100
AcDbLeader
  3
SCHNEIDERELECTRIC_DUAL_BEL
 73
     0
 75
     1
 40
2.552380952380952
 41
4.571428571428572
 76
     3
 10
115.9037577384108
 20
67.5214742361557
 30
0.0
 10
112.4571362523381
 20
68.61795940242385
 30
0.0
 10
111.8971362523381
 20
68.61795940242385
 30
0.0
340
5302
213
4.568589198362076
223
-0.4390221853566147
233
0.0
1001
ACAD
1000
DSTYLE
1002
{
1070
     5
1000
SEARROW
1070
    40
1040
8.0
1070
   342
1005
3021
1002
}
  0
MTEXT
  5
5302
102
{ACAD_REACTORS
330
5301
102
}
330
1F
100
AcDbEntity
  8
DIM
100
AcDbMText
 10
107.008547053976
 20
69.05698158778047
 30
0.0
 40
0.8
 41
0.0
 71
     1
 72
     1
  1
.09 DIA.\P[3]       
  7
ROMANS
1001
ACAD
1000
MTEXTBEGIN
1070
    73
1070
     1
1070
    44
1040
1.0
1070
    74
1070
     0
1000
MTEXTEND
  0
LEADER
  5
5303
330
1F
100
AcDbEntity
  8
DIM
100
AcDbLeader
  3
SCHNEIDERELECTRIC_DUAL_BEL
 73
     0
 75
     1
 40
2.552380952380952
 41
9.638095238095241
 76
     3
 10
116.0205334758172
 20
66.68194402753139
 30
0.0
 10
112.9052020028969
 20
64.91726969295726
 30
0.0
 10
112.3452020028969
 20
64.91726969295726
 30
0.0
340
5304
213
9.685890548005602
223
0.807420438585126
233
0.0
1001
ACAD
1000
DSTYLE
1002
{
1070
     5
1000
SEARROW
1070
    40
1040
8.0
1070
   342
1005
3021
1002
}
  0
MTEXT
  5
5304
102
{ACAD_REACTORS
330
5303
102
}
330
1F
100
AcDbEntity
  8
DIM
100
AcDbMText
 10
102.3393114548913
 20
64.10984925437213
 30
0.0
 40
0.8
 41
0.0
 71
     4
 72
     1
  1
.09 X .33 SLOT\P[3]    [8]
  7
ROMANS
1001
ACAD
1000
MTEXTBEGIN
1070
    73
1070
     1
1070
    44
1040
1.0
1070
    74
1070
     0
1000
MTEXTEND
  0
MTEXT
  5
5D93
330
1F
100
AcDbEntity
  8
TEXT1
100
AcDbMText
 10
68.91229217050437
 20
47.95537151578652
 30
0.0
 40
0.1
 41
0.0
 71
     4
 72
     1
  1

  7
ROMANS
1001
ACAD
1000
MTEXTBEGIN
1070
    73
1070
     1
1070
    44
1040
1.0
1070
    74
1070
     0
1000
MTEXTEND
  0
MTEXT
  5
5D95
330
1F
100
AcDbEntity
  8
TEXT1
100
AcDbMText
 10
105.7621384383332
 20
48.43597439789421
 30
0.0
 40
0.1
 41
0.0
 71
     1
 72
     1
  1

  7
ROMANS
1001
ACAD
1000
MTEXTBEGIN
1070
    73
1070
     1
1070
    44
1040
1.0
1070
    74
1070
     0
1000
MTEXTEND
  0
MTEXT
  5
5E5D
330
1F
100
AcDbEntity
  8
TEXT1
100
AcDbMText
 10
26.00440003896913
 20
23.9608344371724
 30
0.0
 40
0.1
 41
0.0
 71
     9
 72
     1
  1

  7
ROMANS
1001
ACAD
1000
MTEXTBEGIN
1070
    73
1070
     1
1070
    44
1040
1.0
1070
    74
1070
     0
1000
MTEXTEND
  0
LWPOLYLINE
  5
5E65
330
1F
100
AcDbEntity
  8
CONTINUOUS1
100
AcDbPolyline
 90
        4
 70
     1
 43
0.0
 10
34.0709091131099
 20
55.61401077601579
 10
28.43149954259725
 20
55.61401077601579
 10
28.43149954259725
 20
56.61401077601579
 10
34.0709091131099
 20
56.61401077601579
  0
LWPOLYLINE
  5
5E66
330
1F
100
AcDbEntity
  8
CONTINUOUS1
100
AcDbPolyline
 90
        4
 70
     1
 43
0.0
 10
29.43149954259725
 20
55.61401077601579
 10
28.43149954259725
 20
55.61401077601579
 10
28.43149954259725
 20
13.61401077601579
 10
29.43149954259725
 20
13.61401077601579
  0
DIMENSION
  5
5EC3
330
1F
100
AcDbEntity
  8
DIM
100
AcDbDimension
  2
*D9
 10
37.03376558307195
 20
54.02401077601579
 30
0.0
 11
39.43757510688147
 21
58.51686924562102
 31
0.0
 70
   160
  3
SCHNEIDERELECTRIC_DUAL_BEL
100
AcDbAlignedDimension
 13
34.0709091131099
 23
56.61401077601579
 33
0.0
 14
34.20620432785358
 24
54.02401077601579
 34
0.0
 50
90.0
100
AcDbRotatedDimension
1001
ACAD
1000
DSTYLE
1002
{
1070
    40
1040
8.0
1002
}
  0
DIMENSION
  5
5ED1
330
1F
100
AcDbEntity
  8
DIM
100
AcDbDimension
  2
*D10
 10
37.03376558307194
 20
43.02401077601579
 30
0.0
 11
37.03376558307194
 21
48.5240107760158
 31
0.0
 70
    32
  3
SCHNEIDERELECTRIC_DUAL_BEL
100
AcDbAlignedDimension
 13
34.20620432785358
 23
54.02401077601579
 33
0.0
 14
34.20620432785358
 24
43.02401077601579
 34
0.0
 50
90.0
100
AcDbRotatedDimension
1001
ACAD
1000
DSTYLE
1002
{
1070
    40
1040
8.0
1002
}
  0
CIRCLE
  5
5F13
330
1F
100
AcDbEntity
  8
HIDDEN1
100
AcDbCircle
 10
10.13004747334686
 20
54.02401077601579
 30
0.0
 40
0.1875
  0
LWPOLYLINE
  5
5F24
330
1F
100
AcDbEntity
  8
CONTINUOUS1
100
AcDbPolyline
 90
        4
 70
     1
 43
0.0
 10
20.20004747334686
 20
55.61401077601579
 10
8.550047473346863
 20
55.61401077601579
 10
8.550047473346863
 20
56.61401077601579
 10
20.20004747334686
 20
56.61401077601579
  0
CIRCLE
  5
5F28
330
1F
100
AcDbEntity
  8
HIDDEN1
100
AcDbCircle
 10
10.09590720199025
 20
43.02401077601579
 30
0.0
 40
0.1875
  0
LWPOLYLINE
  5
5F2F
330
1F
100
AcDbEntity
  8
CONTINUOUS1
100
AcDbPolyline
 90
        4
 70
     1
 43
0.0
 10
19.53352107212245
 20
13.61401077601579
 10
9.216573874571269
 20
13.61401077601579
 10
9.216573874571269
 20
14.61401077601578
 10
19.53352107212245
 20
14.61401077601578
  0
MTEXT
  5
5F31
330
1F
100
AcDbEntity
  8
TEXT1
100
AcDbMText
 10
34.56531430490201
 20
48.46504904939106
 30
0.0
 40
0.1
 41
0.0
 71
     9
 72
     1
  1

  7
ROMANS
1001
ACAD
1000
MTEXTBEGIN
1070
    73
1070
     1
1070
    44
1040
1.0
1070
    74
1070
     0
1000
MTEXTEND
  0
MTEXT
  5
5F33
330
1F
100
AcDbEntity
  8
TEXT1
100
AcDbMText
 10
34.91549532745892
 20
47.92059400347826
 30
0.0
 40
0.1
 41
0.0
 71
     9
 72
     1
  1

  7
ROMANS
1001
ACAD
1000
MTEXTBEGIN
1070
    73
1070
     1
1070
    44
1040
1.0
1070
    74
1070
     0
1000
MTEXTEND
  0
DIMENSION
  5
5FAE
330
1F
100
AcDbEntity
  8
DIM
100
AcDbDimension
  2
*D11
 10
8.550047473346863
 20
62.00878009438817
 30
0.0
 11
14.37504747334686
 21
62.00878009438817
 31
0.0
 70
   160
  3
SCHNEIDERELECTRIC_DUAL_BEL
100
AcDbAlignedDimension
 13
20.20004747334686
 23
56.61401077601579
 33
0.0
 14
8.550047473346863
 24
56.61401077601579
 34
0.0
100
AcDbRotatedDimension
1001
ACAD
1000
DSTYLE
1002
{
1070
    40
1040
8.0
1002
}
  0
INSERT
  5
6149
330
1F
100
AcDbEntity
  8
TEXT1
100
AcDbBlockReference
  2
SETUP
 10
47.1789871322245
 20
19.42712419844087
 30
0.0
  0
MTEXT
  5
625C
330
1F
100
AcDbEntity
  8
TEXT1
100
AcDbMText
 10
43.31562463946261
 20
38.00821923635066
 30
0.0
 40
0.8
 41
0.0
 71
     6
 72
     1
  1

  7
ROMANS
1001
ACAD
1000
MTEXTBEGIN
1070
    73
1070
     1
1070
    44
1040
1.0
1070
    74
1070
     0
1000
MTEXTEND
  0
MTEXT
  5
625D
330
1F
100
AcDbEntity
  8
TEXT1
100
AcDbMText
 10
37.75816498216629
 20
34.62997998686134
 30
0.0
 40
0.8
 41
0.0
 71
     1
 72
     1
  1
MP43X11PED
  7
ROMANS
1001
ACAD
1000
MTEXTBEGIN
1070
    73
1070
     1
1070
    44
1040
1.0
1070
    74
1070
     0
1000
MTEXTEND
  0
CIRCLE
  5
6562
330
1F
100
AcDbEntity
  8
HIDDEN1
100
AcDbCircle
 10
18.63004747334686
 20
54.02401077601579
 30
0.0
 40
0.1875
  0
CIRCLE
  5
6563
330
1F
100
AcDbEntity
  8
HIDDEN1
100
AcDbCircle
 10
18.59590720199025
 20
43.02401077601579
 30
0.0
 40
0.1875
  0
CIRCLE
  5
65DE
330
1F
100
AcDbEntity
  8
CONTINUOUS1
100
AcDbCircle
 10
15.99499896280038
 20
67.828499757825
 30
0.0
 40
0.25
  0
CIRCLE
  5
65DF
330
1F
100
AcDbEntity
  8
CONTINUOUS1
100
AcDbCircle
 10
17.45004747334686
 20
69.078499757825
 30
0.0
 40
1.25
  0
CIRCLE
  5
65E0
330
1F
100
AcDbEntity
  8
CONTINUOUS1
100
AcDbCircle
 10
18.90509598389334
 20
70.32849975782498
 30
0.0
 40
0.25
  0
DIMENSION
  5
65EB
330
1F
100
AcDbEntity
  8
DIM
100
AcDbDimension
  2
*D12
 10
17.45004747334686
 20
73.44708557986611
 30
0.0
 11
22.66635699715638
 21
73.44708557986611
 31
0.0
 70
   160
  3
SCHNEIDERELECTRIC_DUAL_BEL
100
AcDbAlignedDimension
 13
20.20004747334686
 23
71.32849975782498
 33
0.0
 14
17.45004747334686
 24
70.328499757825
 34
0.0
100
AcDbRotatedDimension
1001
ACAD
1000
DSTYLE
1002
{
1070
    40
1040
8.0
1002
}
  0
MTEXT
  5
664A
330
1F
100
AcDbEntity
  8
0
100
AcDbMText
 10
47.46442358635596
 20
32.84038562536458
 30
0.0
 40
0.1
 41
0.0
 71
     1
 72
     1
  1

  7
ROMANS
1001
ACAD
1000
MTEXTBEGIN
1070
    73
1070
     1
1070
    44
1040
1.0
1070
    74
1070
     0
1000
MTEXTEND
  0
DIMENSION
  5
6813
330
1F
100
AcDbEntity
  8
DIM
100
AcDbDimension
  2
*D13
 10
18.63004747334686
 20
58.33857325598877
 30
0.0
 11
14.38004747334686
 21
58.33857325598877
 31
0.0
 70
    32
  3
SCHNEIDERELECTRIC_DUAL_BEL
100
AcDbAlignedDimension
 13
10.13004747334686
 23
54.21151077601579
 33
0.0
 14
18.63004747334686
 24
54.21151077601579
 34
0.0
100
AcDbRotatedDimension
1001
ACAD
1000
DSTYLE
1002
{
1070
    40
1040
8.0
1002
}
  0
MTEXT
  5
692E
330
1F
100
AcDbEntity
  8
0
100
AcDbMText
 10
64.47241087592482
 20
37.87495801857612
 30
0.0
 40
0.1
 41
0.0
 71
     9
 72
     1
  1

  7
ROMANS
1001
ACAD
1000
MTEXTBEGIN
1070
    73
1070
     1
1070
    44
1040
1.0
1070
    74
1070
     0
1000
MTEXTEND
  0
INSERT
  5
6D99
330
1F
100
AcDbEntity
  8
0
100
AcDbBlockReference
  2
SETUP
 10
61.1433243623261
 20
18.92707547913443
 30
0.0
  0
LWPOLYLINE
  5
6E23
330
1F
100
AcDbEntity
  8
CONTINUOUS1
100
AcDbPolyline
 90
        4
 70
     0
 43
0.0
 10
34.0709091131099
 20
54.57662238882324
 10
34.34149954259726
 20
54.41490932936799
 10
34.34149954259727
 20
53.63311222266359
 10
34.0709091131099
 20
53.47139916320834
  0
MTEXT
  5
6E3E
330
1F
100
AcDbEntity
  8
TEXT1
100
AcDbMText
 10
172.9424584383332
 20
123.1399583978942
 30
0.0
 40
0.1
 41
0.0
 71
     1
 72
     1
  1

  7
ROMANS
1001
ACAD
1000
MTEXTBEGIN
1070
    73
1070
     1
1070
    44
1040
1.0
1070
    74
1070
     0
1000
MTEXTEND
  0
MTEXT
  5
6E5A
330
1F
100
AcDbEntity
  8
TEXT1
100
AcDbMText
 10
136.0926121705043
 20
122.6593555157865
 30
0.0
 40
0.1
 41
0.0
 71
     9
 72
     1
  1

  7
ROMANS
1001
ACAD
1000
MTEXTBEGIN
1070
    73
1070
     1
1070
    44
1040
1.0
1070
    74
1070
     0
1000
MTEXTEND
  0
LWPOLYLINE
  5
73FF
330
1F
100
AcDbEntity
  8
CONTINUOUS1
100
AcDbPolyline
 90
        4
 70
     0
 43
0.0
 10
34.07090911310989
 20
43.57662238882324
 10
34.34149954259725
 20
43.41490932936799
 10
34.34149954259726
 20
42.63311222266358
 10
34.07090911310989
 20
42.47139916320833
  0
DIMENSION
  5
7487
330
1F
100
AcDbEntity
  8
DIM
100
AcDbDimension
  2
*D14
 10
34.34149954259726
 20
62.00878009438817
 30
0.0
 11
31.38649954259726
 21
62.00878009438817
 31
0.0
 70
    32
  3
SCHNEIDERELECTRIC_DUAL_BEL
100
AcDbAlignedDimension
 13
28.43149954259725
 23
56.61401077601579
 33
0.0
 14
34.34149954259726
 24
54.41490932936799
 34
0.0
100
AcDbRotatedDimension
1001
ACAD
1000
DSTYLE
1002
{
1070
    40
1040
8.0
1002
}
  0
TEXT
  5
768C
330
1F
100
AcDbEntity
  8
TEXT1
100
AcDbText
 10
123.0773915767773
 20
28.14056140760115
 30
0.0
 40
0.6400000000000001
  1
MPR43-200
  7
ROMANS
 72
     1
 11
126.0183439577297
 21
28.46056140760115
 31
0.0
100
AcDbText
 73
     2
  0
LINE
  5
768D
330
1F
100
AcDbEntity
  8
0
100
AcDbLine
 10
122.0144487487357
 20
32.86056140760114
 30
0.0
 11
122.0144487487357
 21
8.220561407601167
 31
0.0
  0
TEXT
  5
768E
330
1F
100
AcDbEntity
  8
TEXT1
100
AcDbText
 10
115.0543630635511
 20
28.14056140760114
 30
0.0
 40
0.6400000000000001
  1
MPH33-125
  7
ROMANS
 72
     1
 11
118.0105535397416
 21
28.46056140760114
 31
0.0
100
AcDbText
 73
     2
  0
LWPOLYLINE
  5
768F
330
1F
100
AcDbEntity
  8
CONTINUOUS1
100
AcDbPolyline
 90
        4
 70
     1
 43
0.0
 10
130.0222391667237
 20
27.58056140760114
 10
114.0066583307476
 20
27.58056140760114
 10
114.0066583307476
 20
29.34056140760114
 10
130.0222391667237
 20
29.34056140760114
  0
TEXT
  5
7690
330
1F
100
AcDbEntity
  8
TEXT1
100
AcDbText
 10
123.1383439577297
 20
8.780561407601169
 30
0.0
 40
0.6400000000000001
  1
MPL43-200
  7
ROMANS
 72
     1
 11
126.0183439577297
 21
9.100561407601169
 31
0.0
100
AcDbText
 73
     2
  0
TEXT
  5
7691
330
1F
100
AcDbEntity
  8
TEXT1
100
AcDbText
 10
123.0621534815392
 20
10.54056140760116
 30
0.0
 40
0.6400000000000001
  1
MPH86-200
  7
ROMANS
 72
     1
 11
126.0183439577297
 21
10.86056140760116
 31
0.0
100
AcDbText
 73
     2
  0
TEXT
  5
7692
330
1F
100
AcDbEntity
  8
TEXT1
100
AcDbText
 10
123.0773915767773
 20
12.30056140760116
 30
0.0
 40
0.6400000000000001
  1
MPR86-200
  7
ROMANS
 72
     1
 11
126.0183439577297
 21
12.62056140760116
 31
0.0
100
AcDbText
 73
     2
  0
TEXT
  5
7693
330
1F
100
AcDbEntity
  8
TEXT1
100
AcDbText
 10
123.3973915767773
 20
14.06056140760116
 30
0.0
 40
0.6400000000000001
  1
MP86-200
  7
ROMANS
 72
     1
 11
126.0183439577297
 21
14.38056140760116
 31
0.0
100
AcDbText
 73
     2
  0
TEXT
  5
7694
330
1F
100
AcDbEntity
  8
TEXT1
100
AcDbText
 10
123.0621534815392
 20
15.82056140760116
 30
0.0
 40
0.6400000000000001
  1
MPH85-200
  7
ROMANS
 72
     1
 11
126.0183439577297
 21
16.14056140760116
 31
0.0
100
AcDbText
 73
     2
  0
TEXT
  5
7695
330
1F
100
AcDbEntity
  8
TEXT1
100
AcDbText
 10
123.0773915767773
 20
17.58056140760116
 30
0.0
 40
0.6400000000000001
  1
MPR85-200
  7
ROMANS
 72
     1
 11
126.0183439577297
 21
17.90056140760116
 31
0.0
100
AcDbText
 73
     2
  0
TEXT
  5
7696
330
1F
100
AcDbEntity
  8
TEXT1
100
AcDbText
 10
123.3973915767773
 20
19.34056140760116
 30
0.0
 40
0.6400000000000001
  1
MP85-200
  7
ROMANS
 72
     1
 11
126.0183439577297
 21
19.66056140760116
 31
0.0
100
AcDbText
 73
     2
  0
TEXT
  5
7697
330
1F
100
AcDbEntity
  8
TEXT1
100
AcDbText
 10
123.0621534815392
 20
21.10056140760115
 30
0.0
 40
0.6400000000000001
  1
MPH64-200
  7
ROMANS
 72
     1
 11
126.0183439577297
 21
21.42056140760115
 31
0.0
100
AcDbText
 73
     2
  0
TEXT
  5
7698
330
1F
100
AcDbEntity
  8
TEXT1
100
AcDbText
 10
123.0773915767773
 20
22.86056140760116
 30
0.0
 40
0.6400000000000001
  1
MPR64-200
  7
ROMANS
 72
     1
 11
126.0183439577297
 21
23.18056140760116
 31
0.0
100
AcDbText
 73
     2
  0
TEXT
  5
7699
330
1F
100
AcDbEntity
  8
TEXT1
100
AcDbText
 10
123.3973915767773
 20
24.62056140760115
 30
0.0
 40
0.6400000000000001
  1
MP64-200
  7
ROMANS
 72
     1
 11
126.0183439577297
 21
24.94056140760115
 31
0.0
100
AcDbText
 73
     2
  0
TEXT
  5
769A
330
1F
100
AcDbEntity
  8
TEXT1
100
AcDbText
 10
123.0621534815392
 20
26.38056140760115
 30
0.0
 40
0.6400000000000001
  1
MPH43-200
  7
ROMANS
 72
     1
 11
126.0183439577297
 21
26.70056140760115
 31
0.0
100
AcDbText
 73
     2
  0
LWPOLYLINE
  5
769B
330
1F
100
AcDbEntity
  8
CONTINUOUS1
100
AcDbPolyline
 90
        4
 70
     1
 43
0.0
 10
130.0222391667237
 20
25.82056140760114
 10
114.0066583307476
 20
25.82056140760114
 10
114.0066583307476
 20
27.58056140760114
 10
130.0222391667237
 20
27.58056140760114
  0
LWPOLYLINE
  5
769C
330
1F
100
AcDbEntity
  8
CONTINUOUS1
100
AcDbPolyline
 90
        4
 70
     1
 43
0.0
 10
130.0222391667237
 20
22.30056140760115
 10
114.0066583307476
 20
22.30056140760115
 10
114.0066583307476
 20
24.06056140760115
 10
130.0222391667237
 20
24.06056140760115
  0
LWPOLYLINE
  5
769D
330
1F
100
AcDbEntity
  8
CONTINUOUS1
100
AcDbPolyline
 90
        4
 70
     1
 43
0.0
 10
130.0222391667237
 20
24.06056140760115
 10
114.0066583307476
 20
24.06056140760115
 10
114.0066583307476
 20
25.82056140760114
 10
130.0222391667237
 20
25.82056140760114
  0
LWPOLYLINE
  5
769E
330
1F
100
AcDbEntity
  8
CONTINUOUS1
100
AcDbPolyline
 90
        4
 70
     1
 43
0.0
 10
130.0222391667237
 20
18.78056140760115
 10
114.0066583307476
 20
18.78056140760115
 10
114.0066583307476
 20
20.54056140760115
 10
130.0222391667237
 20
20.54056140760115
  0
LWPOLYLINE
  5
769F
330
1F
100
AcDbEntity
  8
CONTINUOUS1
100
AcDbPolyline
 90
        4
 70
     1
 43
0.0
 10
130.0222391667237
 20
20.54056140760115
 10
114.0066583307476
 20
20.54056140760115
 10
114.0066583307476
 20
22.30056140760115
 10
130.0222391667237
 20
22.30056140760115
  0
LWPOLYLINE
  5
76A0
330
1F
100
AcDbEntity
  8
CONTINUOUS1
100
AcDbPolyline
 90
        4
 70
     1
 43
0.0
 10
130.0222391667237
 20
15.26056140760116
 10
114.0066583307476
 20
15.26056140760116
 10
114.0066583307476
 20
17.02056140760115
 10
130.0222391667237
 20
17.02056140760115
  0
LWPOLYLINE
  5
76A1
330
1F
100
AcDbEntity
  8
CONTINUOUS1
100
AcDbPolyline
 90
        4
 70
     1
 43
0.0
 10
130.0222391667237
 20
17.02056140760115
 10
114.0066583307476
 20
17.02056140760115
 10
114.0066583307476
 20
18.78056140760115
 10
130.0222391667237
 20
18.78056140760115
  0
LWPOLYLINE
  5
76A2
330
1F
100
AcDbEntity
  8
CONTINUOUS1
100
AcDbPolyline
 90
        4
 70
     1
 43
0.0
 10
130.0222391667237
 20
13.50056140760116
 10
114.0066583307476
 20
13.50056140760116
 10
114.0066583307476
 20
15.26056140760116
 10
130.0222391667237
 20
15.26056140760116
  0
LWPOLYLINE
  5
76A3
330
1F
100
AcDbEntity
  8
CONTINUOUS1
100
AcDbPolyline
 90
        4
 70
     1
 43
0.0
 10
130.0222391667237
 20
11.74056140760116
 10
114.0066583307476
 20
11.74056140760116
 10
114.0066583307476
 20
13.50056140760116
 10
130.0222391667237
 20
13.50056140760116
  0
LWPOLYLINE
  5
76A4
330
1F
100
AcDbEntity
  8
CONTINUOUS1
100
AcDbPolyline
 90
        4
 70
     1
 43
0.0
 10
130.0222391667237
 20
8.220561407601167
 10
114.0066583307476
 20
8.220561407601167
 10
114.0066583307476
 20
9.980561407601165
 10
130.0222391667237
 20
9.980561407601165
  0
LWPOLYLINE
  5
76A5
330
1F
100
AcDbEntity
  8
CONTINUOUS1
100
AcDbPolyline
 90
        4
 70
     1
 43
0.0
 10
130.0222391667237
 20
9.980561407601165
 10
114.0066583307476
 20
9.980561407601165
 10
114.0066583307476
 20
11.74056140760116
 10
130.0222391667237
 20
11.74056140760116
  0
TEXT
  5
76A6
330
1F
100
AcDbEntity
  8
TEXT1
100
AcDbText
 10
115.0543630635511
 20
12.30056140760115
 30
0.0
 40
0.6400000000000001
  1
MPH66-125
  7
ROMANS
 72
     1
 11
118.0105535397416
 21
12.62056140760115
 31
0.0
100
AcDbText
 73
     2
  0
TEXT
  5
76A7
330
1F
100
AcDbEntity
  8
TEXT1
100
AcDbText
 10
115.0696011587892
 20
14.06056140760115
 30
0.0
 40
0.6400000000000001
  1
MPR66-125
  7
ROMANS
 72
     1
 11
118.0105535397416
 21
14.38056140760115
 31
0.0
100
AcDbText
 73
     2
  0
TEXT
  5
76A8
330
1F
100
AcDbEntity
  8
TEXT1
100
AcDbText
 10
115.0696011587892
 20
8.780561407601162
 30
0.0
 40
0.6400000000000001
  1
MPR42-200
  7
ROMANS
 72
     1
 11
118.0105535397416
 21
9.100561407601162
 31
0.0
100
AcDbText
 73
     2
  0
TEXT
  5
76A9
330
1F
100
AcDbEntity
  8
TEXT1
100
AcDbText
 10
115.3896011587892
 20
10.54056140760116
 30
0.0
 40
0.6400000000000001
  1
MP42-200
  7
ROMANS
 72
     1
 11
118.0105535397416
 21
10.86056140760116
 31
0.0
100
AcDbText
 73
     2
  0
TEXT
  5
76AA
330
1F
100
AcDbEntity
  8
TEXT1
100
AcDbText
 10
115.3896011587892
 20
26.38056140760115
 30
0.0
 40
0.6400000000000001
  1
MP44-125
  7
ROMANS
 72
     1
 11
118.0105535397416
 21
26.70056140760115
 31
0.0
100
AcDbText
 73
     2
  0
TEXT
  5
76AB
330
1F
100
AcDbEntity
  8
TEXT1
100
AcDbText
 10
115.0696011587892
 20
24.62056140760114
 30
0.0
 40
0.6400000000000001
  1
MPR44-125
  7
ROMANS
 72
     1
 11
118.0105535397416
 21
24.94056140760114
 31
0.0
100
AcDbText
 73
     2
  0
TEXT
  5
76AC
330
1F
100
AcDbEntity
  8
TEXT1
100
AcDbText
 10
115.0543630635511
 20
22.86056140760115
 30
0.0
 40
0.6400000000000001
  1
MPH44-125
  7
ROMANS
 72
     1
 11
118.0105535397416
 21
23.18056140760115
 31
0.0
100
AcDbText
 73
     2
  0
TEXT
  5
76AD
330
1F
100
AcDbEntity
  8
TEXT1
100
AcDbText
 10
115.3896011587892
 20
21.10056140760114
 30
0.0
 40
0.6400000000000001
  1
MP55-125
  7
ROMANS
 72
     1
 11
118.0105535397416
 21
21.42056140760114
 31
0.0
100
AcDbText
 73
     2
  0
TEXT
  5
76AE
330
1F
100
AcDbEntity
  8
TEXT1
100
AcDbText
 10
115.0696011587892
 20
19.34056140760115
 30
0.0
 40
0.6400000000000001
  1
MPR55-125
  7
ROMANS
 72
     1
 11
118.0105535397416
 21
19.66056140760115
 31
0.0
100
AcDbText
 73
     2
  0
TEXT
  5
76AF
330
1F
100
AcDbEntity
  8
TEXT1
100
AcDbText
 10
115.0543630635511
 20
17.58056140760115
 30
0.0
 40
0.6400000000000001
  1
MPH55-125
  7
ROMANS
 72
     1
 11
118.0105535397416
 21
17.90056140760115
 31
0.0
100
AcDbText
 73
     2
  0
TEXT
  5
76B0
330
1F
100
AcDbEntity
  8
TEXT1
100
AcDbText
 10
115.3896011587892
 20
15.82056140760115
 30
0.0
 40
0.6400000000000001
  1
MP66-125
  7
ROMANS
 72
     1
 11
118.0105535397416
 21
16.14056140760115
 31
0.0
100
AcDbText
 73
     2
  0
TEXT
  5
76B1
330
1F
100
AcDbEntity
  8
TEXT1
100
AcDbText
 10
123.3973915767773
 20
29.90056140760115
 30
0.0
 40
0.6400000000000001
  1
MP43-200
  7
ROMANS
 72
     1
 11
126.0183439577297
 21
30.22056140760115
 31
0.0
100
AcDbText
 73
     2
  0
TEXT
  5
76B2
330
1F
100
AcDbEntity
  8
TEXT1
100
AcDbText
 10
123.0621534815392
 20
31.66056140760114
 30
0.0
 40
0.6400000000000001
  1
MPH42-200
  7
ROMANS
 72
     1
 11
126.0183439577297
 21
31.98056140760114
 31
0.0
100
AcDbText
 73
     2
  0
LWPOLYLINE
  5
76B3
330
1F
100
AcDbEntity
  8
0
100
AcDbPolyline
 90
        4
 70
     1
 43
0.0
 10
122.0144487487357
 20
32.86056140760114
 10
130.0222391667237
 20
32.86056140760114
 10
130.0222391667237
 20
35.50056140760112
 10
122.0144487487357
 20
35.50056140760112
  0
TEXT
  5
76B4
330
1F
100
AcDbEntity
  8
TEXT1
100
AcDbText
 10
123.991677291063
 20
34.30056140760113
 30
0.0
 40
0.6400000000000001
  1
CATALOG
  7
ROMANS
 72
     1
 11
126.0183439577297
 21
34.62056140760113
 31
0.0
100
AcDbText
 73
     2
  0
LWPOLYLINE
  5
76B5
330
1F
100
AcDbEntity
  8
CONTINUOUS1
100
AcDbPolyline
 90
        4
 70
     1
 43
0.0
 10
130.0222391667237
 20
29.34056140760114
 10
114.0066583307476
 20
29.34056140760114
 10
114.0066583307476
 20
31.10056140760114
 10
130.0222391667237
 20
31.10056140760114
  0
LWPOLYLINE
  5
76B6
330
1F
100
AcDbEntity
  8
CONTINUOUS1
100
AcDbPolyline
 90
        4
 70
     1
 43
0.0
 10
130.0222391667237
 20
31.10056140760114
 10
114.0066583307476
 20
31.10056140760114
 10
114.0066583307476
 20
32.86056140760114
 10
130.0222391667237
 20
32.86056140760114
  0
LWPOLYLINE
  5
76B7
330
1F
100
AcDbEntity
  8
CONTINUOUS1
100
AcDbPolyline
 90
        4
 70
     1
 43
0.0
 10
130.0222391667237
 20
35.50056140760112
 10
114.0066583307476
 20
35.50056140760112
 10
114.0066583307476
 20
39.90056140760112
 10
130.0222391667237
 20
39.90056140760112
  0
TEXT
  5
76B8
330
1F
100
AcDbEntity
  8
TEXT1
100
AcDbText
 10
114.7915916058785
 20
36.06056140760112
 30
0.0
 40
0.6400000000000001
  1
SURFACE APPLICATIONS ONLY
  7
ROMANS
 72
     1
 11
122.0144487487357
 21
36.38056140760112
 31
0.0
100
AcDbText
 73
     2
  0
LWPOLYLINE
  5
76B9
330
1F
100
AcDbEntity
  8
0
100
AcDbPolyline
 90
        4
 70
     1
 43
0.0
 10
114.0066583307476
 20
32.86056140760114
 10
122.0144487487357
 20
32.86056140760114
 10
122.0144487487357
 20
35.50056140760112
 10
114.0066583307476
 20
35.50056140760112
  0
TEXT
  5
76BA
330
1F
100
AcDbEntity
  8
TEXT1
100
AcDbText
 10
116.0296011587892
 20
33.42056140760113
 30
0.0
 40
0.6400000000000001
  1
NUMBER
  7
ROMANS
 72
     1
 11
118.0105535397416
 21
33.74056140760113
 31
0.0
100
AcDbText
 73
     2
  0
TEXT
  5
76BB
330
1F
100
AcDbEntity
  8
TEXT1
100
AcDbText
 10
115.3896011587892
 20
31.66056140760113
 30
0.0
 40
0.6400000000000001
  1
MP33-125
  7
ROMANS
 72
     1
 11
118.0105535397416
 21
31.98056140760114
 31
0.0
100
AcDbText
 73
     2
  0
TEXT
  5
76BC
330
1F
100
AcDbEntity
  8
TEXT1
100
AcDbText
 10
115.0696011587892
 20
29.90056140760114
 30
0.0
 40
0.6400000000000001
  1
MPR33-125
  7
ROMANS
 72
     1
 11
118.0105535397416
 21
30.22056140760114
 31
0.0
100
AcDbText
 73
     2
  0
TEXT
  5
76BD
330
1F
100
AcDbEntity
  8
TEXT1
100
AcDbText
 10
115.9838868730749
 20
34.30056140760113
 30
0.0
 40
0.6400000000000001
  1
CATALOG
  7
ROMANS
 72
     1
 11
118.0105535397416
 21
34.62056140760113
 31
0.0
100
AcDbText
 73
     2
  0
TEXT
  5
76BE
330
1F
100
AcDbEntity
  8
TEXT1
100
AcDbText
 10
116.8487344630214
 20
37.82056140760112
 30
0.0
 40
0.6400000000000001
  1
WITH THE FOLLOWING
  7
ROMANS
 72
     1
 11
122.0144487487357
 21
38.14056140760112
 31
0.0
100
AcDbText
 73
     2
  0
TEXT
  5
76BF
330
1F
100
AcDbEntity
  8
TEXT1
100
AcDbText
 10
116.3458773201642
 20
38.70056140760112
 30
0.0
 40
0.6400000000000001
  1
MP43X11PED FOR USE
  7
ROMANS
 72
     1
 11
122.0144487487357
 21
39.02056140760112
 31
0.0
100
AcDbText
 73
     2
  0
TEXT
  5
76C0
330
1F
100
AcDbEntity
  8
TEXT1
100
AcDbText
 10
116.1782582725452
 20
36.94056140760113
 30
0.0
 40
0.6400000000000001
  1
METER-PAK DEVICES IN
  7
ROMANS
 72
     1
 11
122.0144487487357
 21
37.26056140760113
 31
0.0
100
AcDbText
 73
     2
  0
TEXT
  5
76C1
330
1F
100
AcDbEntity
  8
TEXT1
100
AcDbText
 10
124.0373915767773
 20
33.42056140760113
 30
0.0
 40
0.6400000000000001
  1
NUMBER
  7
ROMANS
 72
     1
 11
126.0183439577297
 21
33.74056140760113
 31
0.0
100
AcDbText
 73
     2
  0
TEXT
  5
76C2
330
1F
100
AcDbEntity
  8
TEXT1
100
AcDbText
 10
112.6142741800882
 20
46.68106092802971
 30
0.0
 40
0.6400000000000001
  1
SURFACE APPLICATIONS ONLY
  7
ROMANS
 72
     1
 11
119.8371313229454
 21
47.00106092802971
 31
0.0
100
AcDbText
 73
     2
  0
LWPOLYLINE
  5
76C3
330
1F
100
AcDbEntity
  8
CONTINUOUS1
100
AcDbPolyline
 90
        4
 70
     1
 43
0.0
 10
130.0222391667237
 20
46.12106092802971
 10
109.652023479167
 20
46.12106092802971
 10
109.652023479167
 20
50.5210609280297
 10
130.0222391667237
 20
50.5210609280297
  0
LWPOLYLINE
  5
76C4
330
1F
100
AcDbEntity
  8
CONTINUOUS1
100
AcDbPolyline
 90
        4
 70
     1
 43
0.0
 10
130.0222391667237
 20
42.60106092802971
 10
109.652023479167
 20
42.60106092802971
 10
109.652023479167
 20
44.36106092802972
 10
130.0222391667237
 20
44.36106092802972
  0
LWPOLYLINE
  5
76C5
330
1F
100
AcDbEntity
  8
CONTINUOUS1
100
AcDbPolyline
 90
        4
 70
     1
 43
0.0
 10
130.0222391667237
 20
44.36106092802972
 10
109.652023479167
 20
44.36106092802972
 10
109.652023479167
 20
46.12106092802971
 10
130.0222391667237
 20
46.12106092802971
  0
LWPOLYLINE
  5
76C6
330
1F
100
AcDbEntity
  8
CONTINUOUS1
100
AcDbPolyline
 90
        4
 70
     1
 43
0.0
 10
130.0222391667237
 20
40.84106092802971
 10
109.652023479167
 20
40.84106092802971
 10
109.652023479167
 20
42.60106092802971
 10
130.0222391667237
 20
42.60106092802971
  0
TEXT
  5
76C7
330
1F
100
AcDbEntity
  8
TEXT1
100
AcDbText
 10
116.6828456086597
 20
43.16106092802971
 30
0.0
 40
0.6400000000000001
  1
MP35X11PED
  7
ROMANS
 72
     1
 11
119.8371313229454
 21
43.48106092802972
 31
0.0
100
AcDbText
 73
     2
  0
TEXT
  5
76C8
330
1F
100
AcDbEntity
  8
TEXT1
100
AcDbText
 10
116.6828456086597
 20
41.40106092802971
 30
0.0
 40
0.6400000000000001
  1
MP43X11PED
  7
ROMANS
 72
     1
 11
119.8371313229454
 21
41.72106092802971
 31
0.0
100
AcDbText
 73
     2
  0
TEXT
  5
76C9
330
1F
100
AcDbEntity
  8
TEXT1
100
AcDbText
 10
115.5247503705644
 20
44.92106092802971
 30
0.0
 40
0.6400000000000001
  1
CATALOG NUMBER
  7
ROMANS
 72
     1
 11
119.8371313229454
 21
45.24106092802971
 31
0.0
100
AcDbText
 73
     2
  0
TEXT
  5
76CA
330
1F
100
AcDbEntity
  8
TEXT1
100
AcDbText
 10
110.3590360848501
 20
49.32106092802971
 30
0.0
 40
0.6400000000000001
  1
MP12X11PEDEXT (ORDER SEPARATELY)
  7
ROMANS
 72
     1
 11
119.8371313229454
 21
49.64106092802971
 31
0.0
100
AcDbText
 73
     2
  0
TEXT
  5
76CB
330
1F
100
AcDbEntity
  8
TEXT1
100
AcDbText
 10
112.1418932277073
 20
48.44106092802971
 30
0.0
 40
0.6400000000000001
  1
FOR USE WITH THE FOLLOWING
  7
ROMANS
 72
     1
 11
119.8371313229454
 21
48.76106092802971
 31
0.0
100
AcDbText
 73
     2
  0
TEXT
  5
76CC
330
1F
100
AcDbEntity
  8
TEXT1
100
AcDbText
 10
113.9095122753263
 20
47.56106092802972
 30
0.0
 40
0.6400000000000001
  1
METER-PAK WIREWAY IN
  7
ROMANS
 72
     1
 11
119.8371313229454
 21
47.88106092802972
 31
0.0
100
AcDbText
 73
     2
  0
MTEXT
  5
773C
330
1F
100
AcDbEntity
  8
CONTINUOUS1
100
AcDbMText
 10
96.54067098310179
 20
14.12684437226097
 30
0.0
 40
0.1
 41
0.0
 71
     9
 72
     1
  1

  7
ROMANS
1001
ACAD
1000
MTEXTBEGIN
1070
    73
1070
     1
1070
    44
1040
1.0
1070
    74
1070
     0
1000
MTEXTEND
  0
MTEXT
  5
7E1E
330
1F
100
AcDbEntity
  8
TEXT1
100
AcDbMText
 10
82.19687687591616
 20
19.67763615492465
 30
0.0
 40
0.8
 41
0.0
 71
     1
 72
     1
  1
MP12X11PEDEXT
  7
ROMANS
1001
ACAD
1000
MTEXTBEGIN
1070
    73
1070
     1
1070
    44
1040
1.0
1070
    74
1070
     0
1000
MTEXTEND
  0
MTEXT
  5
7E1F
330
1F
100
AcDbEntity
  8
TEXT1
100
AcDbMText
 10
42.28151330345503
 20
51.40570588447475
 30
0.0
 40
0.8
 41
0.0
 71
     1
 72
     1
  1
MP43X11PED
  7
ROMANS
1001
ACAD
1000
MTEXTBEGIN
1070
    73
1070
     1
1070
    44
1040
1.0
1070
    74
1070
     0
1000
MTEXTEND
  0
MTEXT
  5
7E21
330
1F
100
AcDbEntity
  8
TEXT1
100
AcDbMText
 10
82.19687687591616
 20
18.47976226520465
 30
0.0
 40
0.6400000000000001
 41
0.0
 71
     1
 72
     1
  1
(ORDER SEPARATELY)
  7
ROMANS
1001
ACAD
1000
MTEXTBEGIN
1070
    73
1070
     1
1070
    44
1040
1.0
1070
    74
1070
     0
1000
MTEXTEND
  0
DIMENSION
  5
7E23
330
1F
100
AcDbEntity
  8
DIM
100
AcDbDimension
  2
*D15
 10
102.3408291132119
 20
18.74818231443205
 30
0.0
 11
107.233872644594
 21
21.57318231443205
 31
0.0
 70
    33
  3
SCHNEIDERELECTRIC_DUAL_BEL
100
AcDbAlignedDimension
 13
108.9665563903374
 23
26.22281688740655
 33
0.0
 14
99.18046932757334
 24
20.57281688740656
 34
0.0
1001
ACAD
1000
DSTYLE
1002
{
1070
   287
1070
     0
1070
   287
1070
     0
1070
   287
1070
     0
1070
   287
1070
     0
1070
   287
1070
     0
1070
   287
1070
     0
1070
   287
1070
     0
1070
   287
1070
     0
1070
   287
1070
     0
1070
   287
1070
     0
1070
   289
1070
     0
1070
    40
1040
8.0
1002
}
  0
LWPOLYLINE
  5
7E24
330
1F
100
AcDbEntity
  8
CONTINUOUS1
100
AcDbPolyline
 90
        4
 70
     0
 43
0.0
 10
66.20384574909405
 20
58.75731373448598
 10
66.20384574909405
 20
58.25731373448597
 10
88.921315887992
 20
45.12325123448597
 10
88.92131588799196
 20
45.62325123448597
  0
LWPOLYLINE
  5
7E25
330
1F
100
AcDbEntity
  8
CONTINUOUS1
100
AcDbPolyline
 90
        5
 70
     0
 43
0.0
 10
98.70740295075613
 20
51.27325123448601
 10
75.98993281185818
 20
64.40731373448598
 10
66.20384574909405
 20
58.75731373448598
 10
88.92131588799196
 20
45.62325123448597
 10
98.70740295075613
 20
51.27325123448601
  0
LINE
  5
7E26
330
1F
100
AcDbEntity
  8
0
100
AcDbLine
 10
93.99297715890456
 20
34.86781688740654
 30
0.0
 11
72.62299971327514
 21
47.20577911821691
 31
0.0
  0
DIMENSION
  5
7E27
330
1F
100
AcDbEntity
  8
DIM
100
AcDbDimension
  2
*D16
 10
48.04547217931293
 20
45.89626251884763
 30
0.0
 11
66.66501836067837
 21
35.14626251884764
 31
0.0
 70
    33
  3
SCHNEIDERELECTRIC_DUAL_BEL
100
AcDbAlignedDimension
 13
88.92131588799198
 23
26.49594188740654
 33
0.0
 14
51.68222352526109
 24
47.99594188740655
 34
0.0
1001
ACAD
1000
DSTYLE
1002
{
1070
    40
1040
8.0
1002
}
  0
LINE
  5
7E28
330
1F
100
AcDbEntity
  8
CONTINUOUS1
100
AcDbLine
 10
96.39069337043526
 20
37.35316924886005
 30
0.0
 11
77.03633837542752
 21
48.52741131521907
 31
0.0
  0
LWPOLYLINE
  5
7E29
330
1F
100
AcDbEntity
  8
CONTINUOUS1
100
AcDbPolyline
 90
        4
 70
     0
 43
0.0
 10
97.7601876653669
 20
37.04281688740655
 10
61.46831058802527
 20
57.99594188740655
 10
51.68222352526109
 20
52.34594188740654
 10
88.92131588799196
 20
30.84594188740654
  0
LWPOLYLINE
  5
7E2A
330
1F
100
AcDbEntity
  8
CONTINUOUS1
100
AcDbPolyline
 90
        2
 70
     0
 43
0.0
 10
51.68222352526109
 20
47.99594188740655
 10
88.92131588799196
 20
26.49594188740654
  0
LWPOLYLINE
  5
7E2B
330
1F
100
AcDbEntity
  8
CONTINUOUS1
100
AcDbPolyline
 90
        5
 70
     0
 43
0.0
 10
88.92131588799196
 20
26.49594188740655
 10
88.92131588799196
 20
30.84594188740654
 10
52.56394563948913
 20
51.83687938740654
 10
52.56394563948913
 20
47.48687938740654
 10
88.92131588799196
 20
26.49594188740654
  0
LWPOLYLINE
  5
7E2C
330
1F
100
AcDbEntity
  8
CONTINUOUS1
100
AcDbPolyline
 90
        3
 70
     0
 43
0.0
 10
52.56394563948913
 20
51.85655384902729
 10
52.56394563948913
 20
51.35655384902729
 10
88.92131588799196
 20
30.36561634902729
  0
LWPOLYLINE
  5
7E2D
330
1F
100
AcDbEntity
  8
CONTINUOUS1
100
AcDbPolyline
 90
        3
 70
     0
 43
0.0
 10
52.56394563948913
 20
51.35655384902729
 10
52.56394563948913
 20
51.23155384902729
 10
88.92131588799196
 20
30.24061634902729
  0
LINE
  5
7E2E
330
1F
100
AcDbEntity
  8
PHANTOM1
100
AcDbLine
 10
52.56394563948913
 20
51.83687938740654
 30
0.0
 11
52.56394563948913
 21
70.28983126767032
 31
0.0
  0
LWPOLYLINE
  5
7E2F
330
1F
100
AcDbEntity
  8
CONTINUOUS1
100
AcDbPolyline
 90
        5
 70
     0
 43
0.0
 10
75.98993281185824
 20
68.0648312676703
 10
62.35003270225334
 20
75.9398312676703
 10
52.56394563948913
 20
70.28983126767032
 10
66.20384574909405
 20
62.41483126767032
 10
75.98993281185824
 20
68.0648312676703
  0
LWPOLYLINE
  5
7E30
330
1F
100
AcDbEntity
  8
CONTINUOUS1
100
AcDbPolyline
 90
        4
 70
     0
 43
0.0
 10
52.56394563948913
 20
70.28983126767032
 10
52.56394563948913
 20
69.78983126767032
 10
66.20384574909405
 20
61.91483126767032
 10
66.20384574909405
 20
62.41483126767032
  0
LWPOLYLINE
  5
7E32
330
1F
100
AcDbEntity
  8
CONTINUOUS1
100
AcDbPolyline
 90
        5
 70
     0
 43
0.0
 10
51.68222352526109
 20
52.34594188740654
 10
52.54690705591977
 20
51.84671661821692
 10
62.33299411868395
 20
57.49671661821695
 10
61.46831058802527
 20
57.99594188740655
 10
51.68222352526109
 20
52.34594188740654
  0
LWPOLYLINE
  5
7E33
330
1F
100
AcDbEntity
  8
CONTINUOUS1
100
AcDbPolyline
 90
        5
 70
     0
 43
0.0
 10
71.3410001911679
 20
47.94594188740656
 10
61.46831058802527
 20
53.64594188740658
 10
61.46831058802527
 20
56.9974913490273
 10
61.46831058802527
 20
53.64594188740658
 10
55.44943403172339
 20
50.17094188740654
  0
LWPOLYLINE
  5
7E34
330
1F
100
AcDbEntity
  8
CONTINUOUS1
100
AcDbPolyline
 90
        5
 70
     0
 43
0.0
 10
51.68222352526109
 20
47.99594188740655
 10
51.68222352526109
 20
52.34594188740654
 10
52.56394563948913
 20
51.83687938740654
 10
52.56394563948913
 20
47.48687938740654
 10
51.68222352526109
 20
47.99594188740655
  0
LWPOLYLINE
  5
7E36
330
1F
100
AcDbEntity
  8
CONTINUOUS1
100
AcDbPolyline
 90
        6
 70
     0
 43
0.0
 10
66.31209892456715
 20
59.06981373448598
 10
66.5286052755132
 20
58.944813734486
 10
75.66517328543901
 20
64.21981373448598
 10
75.4486669344929
 20
64.34481373448598
 10
66.31209892456715
 20
59.06981373448598
 10
66.31209892456715
 20
58.81981373448603
  0
LWPOLYLINE
  5
7E37
330
1F
100
AcDbEntity
  8
CONTINUOUS1
100
AcDbPolyline
 90
        3
 70
     0
 43
0.0
 10
75.97423610141463
 20
49.62094188740654
 10
75.97423610141463
 20
49.14061634902731
 10
66.6041231569733
 20
43.73077911821691
  0
LWPOLYLINE
  5
7E38
330
1F
100
AcDbEntity
  8
CONTINUOUS1
100
AcDbPolyline
 90
        3
 70
     0
 43
0.0
 10
70.10676479599107
 20
47.23335574975786
 10
65.322123634866
 20
44.47094188740654
 10
66.18814903865043
 20
43.97094188740654
  0
LWPOLYLINE
  5
7E39
330
1F
100
AcDbEntity
  8
CONTINUOUS1
100
AcDbPolyline
 90
        4
 70
     0
 43
0.0
 10
66.18814903865043
 20
43.97094188740654
 10
75.97423610141463
 20
49.62094188740654
 10
75.10821069763018
 20
50.12094188740654
 10
70.78334714269766
 20
47.62398074975786
  0
LINE
  5
7E3A
330
1F
100
AcDbEntity
  8
CONTINUOUS1
100
AcDbLine
 10
74.69223657930732
 20
49.88077911821692
 30
0.0
 11
61.91702000036091
 21
57.25655384902721
 31
0.0
  0
LWPOLYLINE
  5
7E3B
330
1F
100
AcDbEntity
  8
CONTINUOUS1
100
AcDbPolyline
 90
        3
 70
     0
 43
0.0
 10
67.95308739896438
 20
43.36584089391317
 42
-0.2972094006603809
 10
67.89132083380201
 20
43.24406659486467
 10
67.66922740495073
 20
43.11584089393214
  0
LWPOLYLINE
  5
7E3C
330
1F
100
AcDbEntity
  8
CONTINUOUS1
100
AcDbPolyline
 90
        8
 70
     0
 43
0.0
 10
66.99628907907146
 20
43.50436201752654
 10
67.36680178096368
 20
43.71827762570217
 42
-0.2679491924311224
 10
67.49180178096368
 20
43.71827762570217
 10
67.89132083380201
 20
43.4876151929996
 42
-0.5773502691896344
 10
67.89132083380201
 20
43.27110884205349
 10
67.64580813190979
 20
43.12936201752655
 10
67.6458081319098
 20
43.12936201752655
 10
66.99628907907146
 20
43.50436201752654
  0
LINE
  5
7E3D
330
1F
100
AcDbEntity
  8
PHANTOM1
100
AcDbLine
 10
66.18814903865043
 20
43.97094188740654
 30
0.0
 11
66.20384574909405
 21
62.41483126767032
 31
0.0
  0
LWPOLYLINE
  5
7E42
330
1F
100
AcDbEntity
  8
CONTINUOUS1
100
AcDbPolyline
 90
        7
 70
     0
 43
0.0
 10
70.13382808985934
 20
46.72227802505521
 10
70.10676479599107
 20
46.73790302505522
 10
70.10676479599107
 20
47.73790302505521
 10
70.75628384882939
 20
48.11290302505522
 10
70.78334714269766
 20
48.09727802505522
 10
70.13382808985934
 20
47.72227802505521
 10
70.10676479599107
 20
47.73790302505521
  0
LWPOLYLINE
  5
7E43
330
1F
100
AcDbEntity
  8
CONTINUOUS1
100
AcDbPolyline
 90
        5
 70
     0
 43
0.0
 10
70.40446102854197
 20
46.87852802505521
 10
70.51271420401502
 20
46.94102802505521
 10
70.51271420401502
 20
47.94102802505522
 10
70.40446102854197
 20
47.87852802505521
 10
70.40446102854197
 20
46.87852802505521
  0
LWPOLYLINE
  5
7E44
330
1F
100
AcDbEntity
  8
CONTINUOUS1
100
AcDbPolyline
 90
        5
 70
     0
 43
0.0
 10
70.78334714269766
 20
47.09727802505521
 10
70.78334714269766
 20
48.09727802505522
 10
70.13382808985934
 20
47.72227802505521
 10
70.13382808985934
 20
46.72227802505521
 10
70.78334714269766
 20
47.09727802505521
  0
LWPOLYLINE
  5
7E45
330
1F
100
AcDbEntity
  8
CONTINUOUS1
100
AcDbPolyline
 90
        7
 70
     0
 43
0.0
 10
76.78237614183565
 20
49.15436201752655
 10
76.53686343994344
 20
49.01261519299959
 42
0.5773502691896325
 10
76.53686343994344
 20
48.79610884205348
 10
76.93638249278179
 20
48.56544640935091
 42
0.2679491924311228
 10
77.06138249278179
 20
48.56544640935091
 10
77.43189519467399
 20
48.77936201752655
 10
76.78237614183565
 20
49.15436201752655
  0
LWPOLYLINE
  5
7E46
330
1F
100
AcDbEntity
  8
CONTINUOUS1
100
AcDbPolyline
 90
        6
 70
     0
 43
0.0
 10
76.47511522444286
 20
48.89067330154602
 42
0.296793387196559
 10
76.53690232035494
 20
48.76908904248072
 10
76.93642137319328
 20
48.53842660977814
 42
0.2679491924311228
 10
77.06142137319329
 20
48.53842660977814
 10
77.43193407508549
 20
48.75234221795378
 10
77.43189519467399
 20
48.77936201752655
  0
LINE
  5
7E47
330
1F
100
AcDbEntity
  8
CONTINUOUS1
100
AcDbLine
 10
76.47740429431948
 20
48.85011205740605
 30
0.0
 11
75.97423610141463
 21
49.14061634902731
 31
0.0
  0
LINE
  5
7E48
330
1F
100
AcDbEntity
  8
CONTINUOUS1
100
AcDbLine
 10
75.54122339952241
 20
49.87094188740655
 30
0.0
 11
75.10821069763018
 21
50.12094188740654
 31
0.0
  0
LWPOLYLINE
  5
7E4D
330
1F
100
AcDbEntity
  8
CONTINUOUS1
100
AcDbPolyline
 90
        3
 70
     0
 43
0.0
 10
75.98993281185824
 20
68.0648312676703
 10
75.98993281185824
 20
67.5648312676703
 10
75.55692010996603
 20
67.8148312676703
  0
LWPOLYLINE
  5
7E4E
330
1F
100
AcDbEntity
  8
CONTINUOUS1
100
AcDbPolyline
 90
        6
 70
     0
 43
0.0
 10
52.67219881496226
 20
70.60233126767027
 10
52.8887051659083
 20
70.47733126767032
 10
62.02527317583419
 20
75.7523312676703
 10
61.80876682488807
 20
75.8773312676703
 10
52.67219881496226
 20
70.60233126767027
 10
52.67219881496226
 20
70.35233126767032
  0
DIMENSION
  5
7E4F
330
1F
100
AcDbEntity
  8
DIM
100
AcDbDimension
  2
*D17
 10
99.59382671124254
 20
38.10146888413948
 30
0.0
 11
105.1970110737278
 21
34.86646888413948
 31
0.0
 70
    33
  3
SCHNEIDERELECTRIC_DUAL_BEL
100
AcDbAlignedDimension
 13
108.7500500393914
 23
30.44781688740654
 33
0.0
 14
97.54368131442078
 24
36.91781688740654
 34
0.0
1001
ACAD
1000
DSTYLE
1002
{
1070
    40
1040
8.0
1002
}
  0
LWPOLYLINE
  5
7E50
330
1F
100
AcDbEntity
  8
CONTINUOUS1
100
AcDbPolyline
 90
        2
 70
     0
 43
0.0
 10
108.7500500393914
 20
30.44781688740654
 10
97.54368131442078
 20
36.91781688740654
  0
LWPOLYLINE
  5
7E51
330
1F
100
AcDbEntity
  8
CONTINUOUS1
100
AcDbPolyline
 90
        5
 70
     0
 43
0.0
 10
99.39697567851947
 20
25.04781688740655
 10
108.7500500393914
 20
30.44781688740654
 10
108.4252905129722
 20
30.63531688740654
 10
99.0722161521003
 20
25.23531688740657
 10
99.39697567851947
 20
25.04781688740655
  0
LWPOLYLINE
  5
7E52
330
1F
100
AcDbEntity
  8
CONTINUOUS1
100
AcDbPolyline
 90
        4
 70
     0
 43
0.0
 10
97.54368131442078
 20
36.91781688740654
 10
88.17932708714742
 20
31.51130445350327
 10
99.38569581211806
 20
25.04130445350327
 10
108.7500500393914
 20
30.44781688740654
  0
LWPOLYLINE
  5
7E53
330
1F
100
AcDbEntity
  8
CONTINUOUS1
100
AcDbPolyline
 90
        4
 70
     0
 43
0.0
 10
88.92131588799196
 20
26.49594188740654
 10
99.18046932757334
 20
20.57281688740656
 10
108.9665563903374
 20
26.22281688740655
 10
108.9665563903374
 20
29.60551621683386
  0
LINE
  5
7E54
330
1F
100
AcDbEntity
  8
PHANTOM1
100
AcDbLine
 10
88.92131588799196
 20
30.84594188740654
 30
0.0
 11
88.92131588799196
 21
45.62325123448597
 31
0.0
  0
LINE
  5
7E55
330
1F
100
AcDbEntity
  8
CONTINUOUS1
100
AcDbLine
 10
88.92131588799196
 20
30.11561634902729
 30
0.0
 11
99.18046932757334
 21
24.1924913490273
 31
0.0
  0
LINE
  5
7E56
330
1F
100
AcDbEntity
  8
CONTINUOUS1
100
AcDbLine
 10
88.92131588799196
 20
30.49061634902729
 30
0.0
 11
99.34284909078293
 21
24.4737413490273
 31
0.0
  0
LWPOLYLINE
  5
7E57
330
1F
100
AcDbEntity
  8
CONTINUOUS1
100
AcDbPolyline
 90
        5
 70
     0
 43
0.0
 10
99.39697567851949
 20
24.79781688740655
 10
99.39697567851949
 20
25.04781688740655
 10
88.17932708714742
 20
31.51130445350327
 10
88.17932708714742
 20
31.27432932130981
 10
99.39697567851947
 20
24.79781688740652
  0
LWPOLYLINE
  5
7E58
330
1F
100
AcDbEntity
  8
CONTINUOUS1
100
AcDbPolyline
 90
        5
 70
     0
 43
0.0
 10
88.92131588799196
 20
26.49594188740655
 10
88.92131588799196
 20
29.8876253533202
 10
88.59655636157279
 20
30.0751253533202
 10
88.59655636157279
 20
26.68344188740656
 10
88.92131588799196
 20
26.49594188740655
  0
LWPOLYLINE
  5
7E59
330
1F
100
AcDbEntity
  8
CONTINUOUS1
100
AcDbPolyline
 90
        3
 70
     0
 43
0.0
 10
87.85295992383527
 20
31.87664413483974
 42
-0.2972094006603809
 10
87.7911933586729
 20
31.75486983579124
 10
87.56909992982162
 20
31.6266441348587
  0
LWPOLYLINE
  5
7E5A
330
1F
100
AcDbEntity
  8
CONTINUOUS1
100
AcDbPolyline
 90
        8
 70
     0
 43
0.0
 10
86.89616160394235
 20
32.01516525845311
 10
87.26667430583457
 20
32.22908086662873
 42
-0.2679491924311224
 10
87.39167430583457
 20
32.22908086662873
 10
87.7911933586729
 20
31.99841843392616
 42
-0.5773502691896344
 10
87.7911933586729
 20
31.78191208298005
 10
87.54568065678068
 20
31.64016525845311
 10
87.54568065678069
 20
31.64016525845311
 10
86.89616160394235
 20
32.01516525845311
  0
LWPOLYLINE
  5
7E5B
330
1F
100
AcDbEntity
  8
CONTINUOUS1
100
AcDbPolyline
 90
        2
 70
     0
 43
0.0
 10
99.18046932757334
 20
20.57281688740656
 10
99.18046932757334
 20
24.1924913490273
  0
LWPOLYLINE
  5
7E5C
330
1F
100
AcDbEntity
  8
CONTINUOUS1
100
AcDbPolyline
 90
        5
 70
     0
 43
0.0
 10
99.18046932757334
 20
20.57281688740656
 10
99.18046932757334
 20
23.9645003533202
 10
98.85570980115419
 20
24.1520003533202
 10
98.85570980115419
 20
20.76031688740656
 10
99.18046932757334
 20
20.57281688740656
  0
LWPOLYLINE
  5
7E5D
330
1F
100
AcDbEntity
  8
CONTINUOUS1
100
AcDbPolyline
 90
        4
 70
     0
 43
0.0
 10
99.18046932757334
 20
24.1924913490273
 10
99.34284909078295
 20
24.4737413490273
 10
99.39697567851949
 20
24.79781688740655
 10
99.39697567851949
 20
25.04781688740655
  0
LWPOLYLINE
  5
7E5E
330
1F
100
AcDbEntity
  8
CONTINUOUS1
100
AcDbPolyline
 90
        6
 70
     0
 43
0.0
 10
96.37498774931373
 20
37.40147654247258
 42
0.296793387196559
 10
96.43677484522582
 20
37.27989228340728
 10
96.83629389806416
 20
37.0492298507047
 42
0.2679491924311228
 10
96.96129389806415
 20
37.0492298507047
 10
97.33180659995637
 20
37.26314545888034
 10
97.33176771954488
 20
37.29016525845311
  0
LWPOLYLINE
  5
7E5F
330
1F
100
AcDbEntity
  8
CONTINUOUS1
100
AcDbPolyline
 90
        7
 70
     0
 43
0.0
 10
96.68224866670653
 20
37.66516525845311
 10
96.43673596481432
 20
37.52341843392615
 42
0.5773502691896325
 10
96.43673596481432
 20
37.30691208298004
 10
96.83625501765266
 20
37.07624965027747
 42
0.2679491924311228
 10
96.96125501765266
 20
37.07624965027747
 10
97.33176771954488
 20
37.29016525845311
 10
96.68224866670653
 20
37.66516525845311
  0
LINE
  5
7E60
330
1F
100
AcDbEntity
  8
0
100
AcDbLine
 10
97.7601876653669
 20
37.04281688740655
 30
0.0
 11
97.7601876653669
 21
36.79281688740653
 31
0.0
  0
LINE
  5
7E61
330
1F
100
AcDbEntity
  8
CONTINUOUS1
100
AcDbLine
 10
97.3442135470443
 20
36.80265411821709
 30
0.0
 11
96.93621090029871
 21
37.03821455614573
 31
0.0
  0
LWPOLYLINE
  5
7E62
330
1F
100
AcDbEntity
  8
CONTINUOUS1
100
AcDbPolyline
 90
        4
 70
     0
 43
0.0
 10
98.38264342433696
 20
51.08575123448601
 10
98.16613707339085
 20
51.21075123448601
 10
89.02956906346503
 20
45.93575123448603
 10
89.24607541441117
 20
45.81075123448603
  0
LWPOLYLINE
  5
7E63
330
1F
100
AcDbEntity
  8
CONTINUOUS1
100
AcDbPolyline
 90
        3
 70
     0
 43
0.0
 10
98.70740295075613
 20
51.27325123448601
 10
98.70740295075613
 20
50.77325123448601
 10
98.27439024886391
 20
51.02325123448601
  0
LINE
  5
7E64
330
1F
100
AcDbEntity
  8
0
100
AcDbLine
 10
108.9665563903374
 20
26.22281688740655
 30
0.0
 11
105.1993458838752
 21
28.39781688740655
 31
0.0
  0
LINE
  5
7E65
330
1F
100
AcDbEntity
  8
CONTINUOUS1
100
AcDbLine
 10
108.9665563903375
 20
29.60551621683384
 30
0.0
 11
108.1288494365238
 21
30.0891665521202
 31
0.0
  0
LWPOLYLINE
  5
7E66
330
1F
100
AcDbEntity
  8
CONTINUOUS1
100
AcDbPolyline
 90
        4
 70
     0
 43
0.0
 10
108.9665563903375
 20
29.60551621683384
 10
108.8041766271279
 20
29.88676621683385
 10
108.7500500393914
 20
30.21084175521309
 10
108.7500500393914
 20
30.46084175521309
  0
LEADER
  5
7EC1
330
1F
100
AcDbEntity
  8
TEXT1
100
AcDbLeader
  3
SCHNEIDERELECTRIC_DUAL_BEL
 73
     0
 75
     1
 40
0.1
 76
     3
 10
99.98577521166499
 20
30.95291025391259
 30
0.0
 10
92.81096182413046
 20
19.21196244856633
 30
0.0
 10
92.25096182413045
 20
19.21196244856633
 30
0.0
340
7EC2
213
-2.561541232935041
223
-1.343038958536322
233
0.0
1001
ACAD
1000
DSTYLE
1002
{
1070
     5
1000
SEARROW
1070
    40
1040
8.0
1070
   342
1005
3021
1002
}
  0
MTEXT
  5
7EC2
102
{ACAD_REACTORS
330
7EC1
102
}
330
1F
100
AcDbEntity
  8
CONTINUOUS1
100
AcDbMText
 10
94.4925030570655
 20
20.55500140710266
 30
0.0
 40
0.1
 41
0.0
 71
     9
 72
     1
  1

  7
ROMANS
1001
ACAD
1000
MTEXTBEGIN
1070
    73
1070
     1
1070
    44
1040
1.0
1070
    74
1070
     0
1000
MTEXTEND
  0
TEXT
  5
8107
330
1F
100
AcDbEntity
  8
TEXT3
100
AcDbText
 10
2.0
 20
3.52
 30
0.0
 40
0.8
  1
THESE DEVICES WILL NOT SUPPORT THE WEIGHT OF A MP METER-PAK METER CENTER.
  7
ROMANS
 11
2.0
 21
3.919999999999999
 31
0.0
100
AcDbText
 73
     2
  0
TEXT
  5
8108
330
1F
100
AcDbEntity
  8
TEXT1
100
AcDbText
 10
2.0
 20
2.64
 30
0.0
 40
0.6400000000000001
  1
FINISH - GRAY BAKED ENAMEL POWDER COAT PAINT OVER CLEANED GALVANNEALED STEEL.
  7
ROMANS
 11
2.0
 21
2.959999999999999
 31
0.0
100
AcDbText
 73
     2
  0
TEXT
  5
8109
330
1F
100
AcDbEntity
  8
TEXT1
100
AcDbText
 10
2.0
 20
4.840772175394669
 30
0.0
 40
0.6400000000000001
  1
NOTES:
  7
ROMANS
 11
2.0
 21
5.16077217539467
 31
0.0
100
AcDbText
 73
     2
  0
TEXT
  5
810A
330
1F
100
AcDbEntity
  8
TEXT1
100
AcDbText
 10
2.0
 20
1.679999999999999
 30
0.0
 40
0.6400000000000001
  1
UL LISTED-FILE E-131840, VOL. M
  7
ROMANS
 11
2.0
 21
2.0
 31
0.0
100
AcDbText
 73
     2
  0
MTEXT
  5
810E
330
1F
100
AcDbEntity
  8
CONTINUOUS1
100
AcDbMText
 10
58.90228563213463
 20
37.20130596234627
 30
0.0
 40
0.1
 41
0.0
 71
     9
 72
     1
  1

  7
ROMANS
1001
ACAD
1000
MTEXTBEGIN
1070
    73
1070
     1
1070
    44
1040
1.0
1070
    74
1070
     0
1000
MTEXTEND
  0
LEADER
  5
82DA
330
1F
100
AcDbEntity
  8
TEXT1
100
AcDbLeader
  3
SCHNEIDERELECTRIC_DUAL_BEL
 40
0.1
 76
     2
 10
34.34149954259726
 20
42.63311222266358
 30
0.0
 10
36.93234726939135
 20
40.62588420450262
 30
0.0
213
0.8252582130537433
223
0.1029727910542675
233
0.0
1001
ACAD
1000
DSTYLE
1002
{
1070
     5
1000
SEARROW
1070
    40
1040
8.0
1070
   342
1005
3021
1002
}
  0
MTEXT
  5
82DB
330
1F
100
AcDbEntity
  8
TEXT1
100
AcDbMText
 10
37.1754765481317
 20
40.97488924849628
 30
0.0
 40
0.6400000000000001
 41
0.0
 71
     1
 72
     1
  1
.25 DIA.\PEMBOSSMENTS
  7
ROMANS
1001
ACAD
1000
MTEXTBEGIN
1070
    73
1070
     1
1070
    44
1040
1.0
1070
    74
1070
     0
1000
MTEXTEND
  0
LEADER
  5
82DD
330
1F
100
AcDbEntity
  8
TEXT1
100
AcDbLeader
  3
SCHNEIDERELECTRIC_DUAL_BEL
 40
0.1
 76
     2
 10
34.0709091131099
 20
32.8661049449459
 30
0.0
 10
37.38215557511662
 20
34.20312499999998
 30
0.0
213
0.0
223
-5.637260625364592
233
0.0
1001
ACAD
1000
DSTYLE
1002
{
1070
     5
1000
SEARROW
1070
    40
1040
8.0
1070
   342
1005
3021
1002
}
  0
MTEXT
  5
82DE
102
{ACAD_REACTORS
330
82DD
102
}
330
1F
100
AcDbEntity
  8
0
100
AcDbMText
 10
114.6447435863559
 20
107.5443696253645
 30
0.0
 40
0.1
 41
0.0
 71
     1
 72
     1
  1

  7
ROMANS
1001
ACAD
1000
MTEXTBEGIN
1070
    73
1070
     1
1070
    44
1040
1.0
1070
    74
1070
     0
1000
MTEXTEND
  0
ELLIPSE
  5
8324
330
1F
100
AcDbEntity
  8
0
100
AcDbEllipse
 10
54.18131157825332
 20
52.29212651973385
 30
0.0
 11
-0.1530931089239506
 21
-0.2651650429449542
 31
0.0
210
0.0
220
0.0
230
1.0
 40
0.5773502691896235
 41
0.0
 42
6.283185307179586
  0
ELLIPSE
  5
8325
330
1F
100
AcDbEntity
  8
0
100
AcDbEllipse
 10
55.62540595468044
 20
51.99452201872912
 30
0.0
 11
-0.8102856455261576
 21
-1.403455906695049
 31
0.0
210
0.0
220
0.0
230
0.9999999999999998
 40
0.5773502691896259
 41
0.0
 42
6.283185307179586
  0
ELLIPSE
  5
8326
330
1F
100
AcDbEntity
  8
0
100
AcDbEllipse
 10
56.78589716597383
 20
51.39735694771854
 30
0.0
 11
-0.1530931089239506
 21
-0.2651650429449542
 31
0.0
210
0.0
220
0.0
230
1.0
 40
0.5773502691896235
 41
0.0
 42
6.283185307179586
  0
ELLIPSE
  5
8327
330
1F
100
AcDbEntity
  8
0
100
AcDbEllipse
 10
58.00386596263519
 20
52.10055156033554
 30
0.0
 11
-0.1530931089239506
 21
-0.2651650429449542
 31
0.0
210
0.0
220
0.0
230
1.0
 40
0.5773502691896235
 41
0.0
 42
6.283185307179586
  0
ELLIPSE
  5
8328
330
1F
100
AcDbEntity
  8
0
100
AcDbEllipse
 10
59.44796033906232
 20
54.20147482154398
 30
0.0
 11
-0.8102856455261576
 21
-1.403455906695049
 31
0.0
210
0.0
220
0.0
230
0.9999999999999998
 40
0.5773502691896259
 41
0.0
 42
6.283185307179586
  0
ELLIPSE
  5
832A
330
1F
100
AcDbEntity
  8
0
100
AcDbEllipse
 10
60.60845155035571
 20
56.00283751274658
 30
0.0
 11
-0.1530931089239506
 21
-0.2651650429449542
 31
0.0
210
0.0
220
0.0
230
1.0
 40
0.5773502691896235
 41
0.0
 42
6.283185307179586
  0
ELLIPSE
  5
832B
330
1F
100
AcDbEntity
  8
0
100
AcDbEllipse
 10
69.04521297663241
 20
65.97355083371212
 30
0.0
 11
0.0154317853795315
 21
-0.026728636328853
 31
0.0
210
0.0
220
0.0
230
1.0
 40
0.5773502691896337
 41
0.0
 42
6.283185307179586
  0
LWPOLYLINE
  5
832C
330
1F
100
AcDbEntity
  8
0
100
AcDbPolyline
 90
        7
 70
     0
 43
0.0
 10
69.42645119072711
 20
65.61685914845153
 10
69.4894978401226
 20
65.65325914845151
 10
69.4894978401226
 20
66.21325914845151
 10
69.42645119072711
 20
66.17685914845151
 10
69.4894978401226
 20
66.21325914845151
 10
68.88328005747348
 20
66.56325914845152
 10
68.69898985154816
 20
66.45685914845152
  0
LWPOLYLINE
  5
832D
330
1F
100
AcDbEntity
  8
0
100
AcDbPolyline
 90
        7
 70
     0
 43
0.0
 10
69.42645119072711
 20
65.61685914845153
 10
69.42645119072711
 20
66.17685914845151
 10
68.82023340807799
 20
66.52685914845152
 10
68.69898985154816
 20
66.45685914845152
 10
68.69898985154816
 20
66.17685914845151
 10
68.82023340807799
 20
65.96685914845152
 10
69.42645119072711
 20
65.61685914845153
  0
LINE
  5
832E
330
1F
100
AcDbEntity
  8
0
100
AcDbLine
 10
68.82023340807799
 20
66.52685914845152
 30
0.0
 11
68.88328005747348
 21
66.56325914845152
 31
0.0
  0
ELLIPSE
  5
832F
330
1F
100
AcDbEntity
  8
0
100
AcDbEllipse
 10
68.91973674457865
 20
66.18941087033757
 30
0.0
 11
0.0720149984378298
 21
-0.1247336362013045
 31
0.0
210
0.0
220
0.0
230
1.0
 40
0.5773502691896136
 41
0.0
 42
6.283185307179586
  0
ELLIPSE
  5
8330
330
1F
100
AcDbEntity
  8
0
100
AcDbEllipse
 10
68.98278339397418
 20
66.22581087033757
 30
0.0
 11
0.0720149984378298
 21
-0.1247336362013045
 31
0.0
210
0.0
220
0.0
230
1.0
 40
0.5773502691896136
 41
3.594668122002643
 42
5.830109838766705
  0
LWPOLYLINE
  5
8331
330
1F
100
AcDbEntity
  8
0
100
AcDbPolyline
 90
        3
 70
     0
 43
0.0
 10
69.4894978401226
 20
65.53285914845149
 10
69.42645119072709
 20
65.56925914845151
 10
69.42645119072709
 20
66.1768591484515
  0
LWPOLYLINE
  5
8332
330
1F
100
AcDbEntity
  8
0
100
AcDbPolyline
 90
        5
 70
     0
 43
0.0
 10
69.4894978401226
 20
65.53285914845149
 10
70.21695917930154
 20
65.95285914845151
 10
70.21695917930154
 20
66.63325914845152
 10
69.4894978401226
 20
66.21325914845151
 10
69.4894978401226
 20
65.53285914845149
  0
LWPOLYLINE
  5
8333
330
1F
100
AcDbEntity
  8
0
100
AcDbPolyline
 90
        5
 70
     0
 43
0.0
 10
69.42645119072709
 20
66.24965914845152
 10
69.4894978401226
 20
66.21325914845151
 10
69.42645119072709
 20
66.24965914845152
 10
70.15391252990602
 20
66.66965914845151
 10
70.21695917930154
 20
66.63325914845152
  0
LWPOLYLINE
  5
8334
330
1F
100
AcDbEntity
  8
0
100
AcDbPolyline
 90
        5
 70
     0
 43
0.0
 10
69.1892815805347
 20
65.9413890867397
 10
69.1892815805347
 20
66.12618908673969
 10
69.14563390018395
 20
66.15138908673968
 10
69.14563390018395
 20
65.9665890867397
 10
69.1892815805347
 20
65.9413890867397
  0
LEADER
  5
83E9
330
1F
100
AcDbEntity
  8
TEXT1
100
AcDbLeader
  3
SCHNEIDERELECTRIC_DUAL_BEL
 73
     0
 75
     1
 40
0.1
 76
     3
 10
54.24895290551188
 20
48.25939684955836
 30
0.0
 10
50.79505635236925
 20
51.04901626772359
 30
0.0
 10
50.23505635236925
 20
51.04901626772359
 30
0.0
340
83EA
213
-0.4767926614418485
223
0.05
233
0.0
1001
ACAD
1000
DSTYLE
1002
{
1070
     5
1000
SEARROW
1070
    40
1040
8.0
1070
   342
1005
3021
1002
}
  0
MTEXT
  5
83EA
102
{ACAD_REACTORS
330
83E9
102
}
330
1F
100
AcDbEntity
  8
CONTINUOUS1
100
AcDbMText
 10
50.39184901381109
 20
50.99901626772359
 30
0.0
 40
0.1
 41
0.0
 71
     9
 72
     1
  1

  7
ROMANS
1001
ACAD
1000
MTEXTBEGIN
1070
    73
1070
     1
1070
    44
1040
1.0
1070
    74
1070
     0
1000
MTEXTEND
  0
LEADER
  5
83EB
330
1F
100
AcDbEntity
  8
TEXT1
100
AcDbLeader
  3
SCHNEIDERELECTRIC_DUAL_BEL
 73
     0
 40
0.1
 76
     2
 10
17.20203488369681
 20
31.61401077601579
 30
0.0
 10
36.62536151069534
 20
26.52710649047243
 30
0.0
340
83EC
213
1.330540076126965
223
0.4155757138078549
233
0.0
1001
ACAD
1000
DSTYLE
1002
{
1070
     5
1000
SEARROW
1070
    40
1040
8.0
1070
   342
1005
3021
1002
}
  0
MTEXT
  5
83EC
102
{ACAD_REACTORS
330
83EB
102
}
330
1F
100
AcDbEntity
  8
CONTINUOUS1
100
AcDbMText
 10
35.61482143456838
 20
26.11153077666457
 30
0.0
 40
0.1
 41
0.0
 71
     1
 72
     1
  1

  7
ROMANS
1001
ACAD
1000
MTEXTBEGIN
1070
    73
1070
     1
1070
    44
1040
1.0
1070
    74
1070
     0
1000
MTEXTEND
  0
ELLIPSE
  5
85D0
330
1F
100
AcDbEntity
  8
0
100
AcDbEllipse
 10
65.74765504677849
 20
43.96862274323388
 30
0.0
 11
0.0535192356484691
 21
-0.0926980353253959
 31
0.0
210
0.0
220
0.0
230
1.0
 40
0.5773502691896148
 41
0.0
 42
6.283185307179586
  0
ELLIPSE
  5
85D1
330
1F
100
AcDbEntity
  8
0
100
AcDbEllipse
 10
65.47881412833365
 20
44.12383811986719
 30
0.0
 11
0.0535192356484691
 21
-0.0926980353253959
 31
0.0
210
0.0
220
0.0
230
1.0
 40
0.5773502691896148
 41
0.0
 42
6.283185307179586
  0
ELLIPSE
  5
85D2
330
1F
100
AcDbEntity
  8
0
100
AcDbEllipse
 10
67.27108589476424
 20
43.08906953305752
 30
0.0
 11
0.0535192356484691
 21
-0.0926980353253959
 31
0.0
210
0.0
220
0.0
230
1.0
 40
0.5773502691896148
 41
0.0
 42
6.283185307179586
  0
ELLIPSE
  5
85D3
330
1F
100
AcDbEntity
  8
0
100
AcDbEllipse
 10
67.0022449763194
 20
43.24428490969084
 30
0.0
 11
0.0535192356484691
 21
-0.0926980353253959
 31
0.0
210
0.0
220
0.0
230
1.0
 40
0.5773502691896148
 41
0.0
 42
6.283185307179586
  0
ELLIPSE
  5
85DB
330
1F
100
AcDbEntity
  8
0
100
AcDbEllipse
 10
87.16853786582786
 20
31.6012702813763
 30
0.0
 11
0.0535192356484691
 21
-0.0926980353253959
 31
0.0
210
0.0
220
0.0
230
1.0
 40
0.5773502691896148
 41
0.0
 42
6.283185307179586
  0
ELLIPSE
  5
85DC
330
1F
100
AcDbEntity
  8
0
100
AcDbEllipse
 10
86.89969694738302
 20
31.75648565800961
 30
0.0
 11
0.0535192356484691
 21
-0.0926980353253959
 31
0.0
210
0.0
220
0.0
230
1.0
 40
0.5773502691896148
 41
0.0
 42
6.283185307179586
  0
ELLIPSE
  5
85DD
330
1F
100
AcDbEntity
  8
0
100
AcDbEllipse
 10
88.7582144735296
 20
29.69454211342423
 30
0.0
 11
0.0535192356484691
 21
-0.0926980353253959
 31
0.0
210
0.0
220
0.0
230
1.0
 40
0.5773502691896148
 41
0.0
 42
6.283185307179586
  0
LWPOLYLINE
  5
85DF
330
1F
100
AcDbEntity
  8
CONTINUOUS1
100
AcDbPolyline
 90
        2
 70
     0
 43
0.0
 10
97.33180659995637
 20
37.26314545888034
 10
97.33180659995637
 20
36.80981727245813
  0
LWPOLYLINE
  5
85E0
330
1F
100
AcDbEntity
  8
CONTINUOUS1
100
AcDbPolyline
 90
        2
 70
     0
 43
0.0
 10
77.43193407508549
 20
48.75234221795378
 10
77.43193407508549
 20
48.29901403153129
  0
MTEXT
  5
8850
330
1F
100
AcDbEntity
  8
TEXT1
100
AcDbMText
 10
64.019688
 20
8.280061887172568
 30
0.0
 40
0.6400000000000001
 41
0.0
 71
     1
 72
     1
  1
DRAWING NOT TO SCALE
  7
ROMANS
1001
ACAD
1000
MTEXTBEGIN
1070
    73
1070
     1
1070
    44
1040
1.0
1070
    74
1070
     0
1000
MTEXTEND
  0
VIEWPORT
  5
32
330
1B
100
AcDbEntity
 67
     1
  8
0
100
AcDbViewport
 10
8.200082025357595
 20
5.049620163435809
 30
0.0
 40
16.50167859505959
 41
10.48061703872269
 68
     1
 69
     1
1001
ACAD
1000
MVIEW
1002
{
1070
    16
1010
0.0
1020
0.0
1030
0.0
1010
0.0
1020
0.0
1030
1.0
1040
0.0
1040
10.48061703872269
1040
8.200082025357595
1040
5.049620163435809
1040
50.0
1040
0.0
1040
0.0
1070
     0
1070
   100
1070
     1
1070
     0
1070
     0
1070
     0
1070
     0
1070
     0
1040
0.0
1040
0.0
1040
0.0
1040
0.5
1040
0.5
1040
0.5
1040
0.5
1070
     0
1002
{
1002
}
1002
}
  0
LWPOLYLINE
  5
175
330
1B
100
AcDbEntity
 67
     1
  8
VIEWPORT
100
AcDbPolyline
 90
        6
 70
     1
 43
0.0
 10
16.40000099999999
 20
10.25
 10
16.40000099999999
 20
0.9120019999999993
 10
8.002461
 20
0.9120019999999993
 10
8.002461
 20
0.0
 10
0.0
 20
0.0
 10
0.0
 20
10.25
1001
GENIUS_GENOREF_13
1005
0
1005
0
1005
0
1005
0
1005
0
1005
0
1005
0
1005
0
1005
0
1005
0
1005
0
1005
0
1005
0
1005
0
  0
VIEWPORT
  5
177
330
1B
100
AcDbEntity
 67
     1
  8
VIEWPORT
100
AcDbViewport
 10
8.200000499999999
 20
5.125
 30
0.0
 40
16.40000099999999
 41
10.25
 68
     2
 69
     2
1001
ACAD
1000
MVIEW
1002
{
1070
    16
1010
0.0
1020
0.0
1030
0.0
1010
0.0
1020
0.0
1030
1.0
1040
0.0
1040
82.0
1040
65.60000430547384
1040
40.9840460780937
1040
50.0
1040
0.0
1040
0.0
1070
     0
1070
   100
1070
     1
1070
     2
1070
     0
1070
     0
1070
     0
1070
     0
1040
0.0
1040
0.0
1040
0.0
1040
0.5
1040
0.5
1040
0.5
1040
0.5
1070
     0
1002
{
1002
}
1002
}
1001
GENIUS_GENOREF_13
1005
0
1005
0
1005
0
1005
0
1005
0
1005
0
1005
0
1005
0
1005
0
1005
0
1005
0
1005
0
1005
0
1005
0
1001
GENIUS_GENSCREG_15
1000
PF
1040
0.0
1000
DF
1040
0.0
1000
MIN
1011
0.0
1021
0.0
1031
0.0
1000
MAX
1011
16.40000099999999
1021
10.25
1031
0.0
1000
FLAGS
1070
     2
  0
INSERT
  5
B2C
330
1B
100
AcDbEntity
 67
     1
  8
TITLEBLOCK
100
AcDbBlockReference
 66
     1
  2
TITLE-PAD
 10
0.0
 20
0.0
 30
0.0
  0
ATTRIB
  5
B2D
330
B2C
100
AcDbEntity
 67
     1
  8
TEXT1
 62
     0
100
AcDbText
 10
10.10183834893798
 20
0.7474460884590166
 30
0.0
 40
0.1
  1

  7
ROMANS
 72
     4
 11
10.10183834893798
 21
0.7474460884590166
 31
0.0
100
AcDbAttribute
  2
DESCRIPTION 1
 70
     0
  0
ATTRIB
  5
B2E
330
B2C
100
AcDbEntity
 67
     1
  8
TEXT1
 62
     0
100
AcDbText
 10
8.628028825128465
 20
0.5564850759025762
 30
0.0
 40
0.1
  1
MP METER-PAK METERING EQUIPMENT
  7
ROMANS
 72
     4
 11
10.10183834893798
 21
0.6017231711406717
 31
0.0
100
AcDbAttribute
  2
DESCRIPTION 2
 70
     0
  0
ATTRIB
  5
B2F
330
B2C
100
AcDbEntity
 67
     1
  8
TEXT1
 62
     0
100
AcDbText
 10
9.64279072989037
 20
0.4160002538223267
 30
0.0
 40
0.08
  1
NEMA TYPE 3R
  7
ROMANS
 72
     4
 11
10.10183834893798
 21
0.4560002538223267
 31
0.0
100
AcDbAttribute
  2
DESCRIPTION 3
 70
     0
  0
ATTRIB
  5
B30
330
B2C
100
AcDbEntity
 67
     1
  8
TEXT1
 62
     0
100
AcDbText
 10
8.72279072989037
 20
0.2802773365039832
 30
0.0
 40
0.08
  1
WIREWAY AND WIREWAY EXTENSION SECTIONS
  7
ROMANS
 72
     4
 11
10.10183834893798
 21
0.3202773365039833
 31
0.0
100
AcDbAttribute
  2
DESCRIPTION 4
 70
     0
  0
ATTRIB
  5
B31
330
B2C
100
AcDbEntity
 67
     1
  8
TEXT1
 62
     0
100
AcDbText
 10
10.10183834893798
 20
0.1845544191856399
 30
0.0
 40
0.08
  1

  7
ROMANS
 72
     4
 11
10.10183834893798
 21
0.1845544191856399
 31
0.0
100
AcDbAttribute
  2
DESCRIPTION 5
 70
     0
  0
ATTRIB
  5
B32
330
B2C
100
AcDbEntity
 67
     1
  8
TEXT1
 62
     0
100
AcDbText
 10
12.74772367103195
 20
0.096540546036505
 30
0.0
 40
0.12
  1
3254
 41
0.9512024731840066
  7
M_STANDARD
 11
12.74772367103195
 21
0.156540546036505
 31
0.0
100
AcDbAttribute
  2
DWGNO
 70
     0
 74
     2
  0
ATTRIB
  5
B33
330
B2C
100
AcDbEntity
 67
     1
  8
TEXT1
 62
     0
100
AcDbText
 10
16.0579216923504
 20
-0.1507193079929352
 30
0.0
 40
0.08
  1
3254
  7
ROMANS
 72
     2
 11
16.35506454949325
 21
-0.1107193079929352
 31
0.0
100
AcDbAttribute
  2
REF
 70
     0
 74
     2
  0
ATTRIB
  5
B34
330
B2C
100
AcDbEntity
 67
     1
  8
TEXT1
 62
     0
100
AcDbText
 10
0.0266402374038712
 20
-0.1507193079929352
 30
0.0
 40
0.08
  1
FEBRURAY 2002
  7
ROMANS
 11
0.0266402374038712
 21
-0.1107193079929352
 31
0.0
100
AcDbAttribute
  2
DATE
 70
     0
 74
     2
  0
SEQEND
  5
B35
330
B2C
100
AcDbEntity
 67
     1
  8
0
  0
ENDSEC
  0
SECTION
  2
OBJECTS
  0
DICTIONARY
  5
C
330
0
100
AcDbDictionary
  3
ACAD_GROUP
350
D
  3
ACAD_LAYOUT
350
1A
  3
ACAD_MLINESTYLE
350
17
  3
ACAD_PLOTSETTINGS
350
19
  3
ACAD_PLOTSTYLENAME
350
E
  3
ACADDIM
350
810C
  3
ACDBHEADERROUNDTRIPXREC
350
8A22
  3
ACDBVARIABLEDICTIONARY
350
374
  3
ACMDICTIONARY
350
383
  3
AMG
350
36B
  3
AMGSNAPSETTINGS
350
399
  3
ASE_INDEX_DICTIONARY
350
6A
  3
DWGPROPS
350
2677
  0
DICTIONARY
  5
73
330
1F
100
AcDbDictionary
280
     1
  3
ACAD_INDEX
360
5305
  3
ACAD_LAYOUTSELFREF
360
8A44
  0
DICTIONARY
  5
75
330
1B
100
AcDbDictionary
280
     1
  3
ACAD_LAYOUTSELFREF
360
8A43
  0
DICTIONARY
  5
D
102
{ACAD_REACTORS
330
C
102
}
330
C
100
AcDbDictionary
  0
DICTIONARY
  5
1A
102
{ACAD_REACTORS
330
C
102
}
330
C
100
AcDbDictionary
  0
DICTIONARY
  5
17
102
{ACAD_REACTORS
330
C
102
}
330
C
100
AcDbDictionary
  3
STANDARD
350
18
  0
DICTIONARY
  5
19
102
{ACAD_REACTORS
330
C
102
}
330
C
100
AcDbDictionary
  3
A_SIZE_PAPER
350
2FF
  3
B_SIZE_PAPER
350
2FD
  3
D_SIZE_PAPER
350
2FE
  0
ACDBDICTIONARYWDFLT
  5
E
102
{ACAD_REACTORS
330
C
102
}
330
C
100
AcDbDictionary
281
     1
  3
Normal
350
F
100
AcDbDictionaryWithDefault
340
F
  0
XRECORD
  5
810C
102
{ACAD_REACTORS
330
C
102
}
330
C
100
AcDbXrecord
 90
   990106
  3

 60
     0
 61
     0
 62
     1
 63
     3
 64
     0
 65
     0
 66
     0
 67
     3
 68
     1
 69
     0
 70
     0
 71
     0
 72
     0
 40
0.0
170
     0
340
83EC
  0
DICTIONARY
  5
8A22
102
{ACAD_REACTORS
330
C
102
}
330
C
100
AcDbDictionary
  3
CEPSNTYPE
350
8A2C
  3
DIMSTYLEDATA
350
8A30
  3
FINGERPRINTGUID
350
8A2D
  3
HYPERLINKBASE
350
8A25
  3
INSUNITS
350
8A2B
  3
LAYOUTDICT
350
8A27
  3
LWETCUNION
350
8A2A
  3
PLOTSETDICT
350
8A28
  3
PLOTSTYLNAMDICT
350
8A29
  3
PSVPSCALE
350
8A2F
  3
PUCSBASE
350
8A33
  3
PUCSORGBACK
350
8A39
  3
PUCSORGBOTTOM
350
8A35
  3
PUCSORGFRONT
350
8A38
  3
PUCSORGLEFT
350
8A36
  3
PUCSORGRIGHT
350
8A37
  3
PUCSORGTOP
350
8A34
  3
PUCSORTHOREF
350
8A31
  3
PUCSORTHOVIEW
350
8A32
  3
STYLESHEET
350
8A26
  3
TSTACKALIGN
350
8A23
  3
TSTACKSIZE
350
8A24
  3
UCSBASE
350
8A3C
  3
UCSORGBACK
350
8A42
  3
UCSORGBOTTOM
350
8A3E
  3
UCSORGFRONT
350
8A41
  3
UCSORGLEFT
350
8A3F
  3
UCSORGRIGHT
350
8A40
  3
UCSORGTOP
350
8A3D
  3
UCSORTHOREF
350
8A3A
  3
UCSORTHOVIEW
350
8A3B
  3
VERSIONGUID
350
8A2E
  0
DICTIONARY
  5
374
102
{ACAD_REACTORS
330
C
102
}
330
C
100
AcDbDictionary
  3
DIMASSOC
350
5960
  3
INDEXCTL
350
375
  3
SORTENTS
350
34A4
  0
DICTIONARY
  5
383
102
{ACAD_REACTORS
330
C
102
}
330
C
100
AcDbDictionary
  0
DICTIONARY
  5
36B
102
{ACAD_REACTORS
330
C
102
}
330
C
100
AcDbDictionary
  3
ACMGSETTINGS
350
36C
  0
DICTIONARY
  5
399
102
{ACAD_REACTORS
330
C
102
}
330
C
100
AcDbDictionary
  0
DICTIONARY
  5
6A
102
{ACAD_REACTORS
330
C
102
}
330
C
100
AcDbDictionary
  3
ASEBLOCKHIERARCHYINDEXRECORD
350
6C
1001
DCO15
1040
1379130883.246999
  0
XRECORD
  5
2677
102
{ACAD_REACTORS
330
C
102
}
330
C
100
AcDbXrecord
  1
DWGPROPS COOKIE
  2

  3

  4

  6

  7

  8
mgp706
  9

300
AmdtFileType=84
301
=
302
=
303
=
304
=
305
=
306
=
307
=
308
=
309
=
 40
0.2355075231481481
 41
2451764.535041909
 42
2451880.60424662
  1

 90
        1
  0
DICTIONARY
  5
5305
102
{ACAD_REACTORS
330
73
102
}
330
73
100
AcDbDictionary
  3
*A1
350
5306
  0
XRECORD
  5
8A44
102
{ACAD_REACTORS
330
73
102
}
330
73
100
AcDbXrecord
340
1F
  0
XRECORD
  5
8A43
102
{ACAD_REACTORS
330
75
102
}
330
75
100
AcDbXrecord
340
1B
  0
MLINESTYLE
  5
18
102
{ACAD_REACTORS
330
17
102
}
330
17
100
AcDbMlineStyle
  2
STANDARD
 70
     0
  3

 62
   256
 51
90.0
 52
90.0
 71
     2
 49
0.5
 62
   256
  6
BYLAYER
 49
-0.5
 62
   256
  6
BYLAYER
  0
PLOTSETTINGS
  5
2FF
102
{ACAD_REACTORS
330
19
102
}
330
19
100
AcDbPlotSettings
  1
A Size Paper
  2
none_device
  4
ANSI_A_(8.50_x_11.00_Inches)
  6

 40
6.349999904632568
 41
19.04999923706054
 42
6.350006103515625
 43
19.04998779296875
 44
215.8999938964843
 45
279.3999938964843
 46
19.04999999999999
 47
-9.651999999999999
 48
0.0
 49
0.0
140
0.0
141
0.0
142
1.0
143
1.6
 70
   740
 72
     0
 73
     1
 74
     1
  7
monochrome.ctb
 75
     0
147
0.625
148
0.0034886547032954
149
0.0199946439100934
  0
PLOTSETTINGS
  5
2FD
102
{ACAD_REACTORS
330
19
102
}
330
19
100
AcDbPlotSettings
  1
B Size Paper
  2
none_device
  4
ANSI_B_(11.00_x_17.00_Inches)
  6

 40
6.349999904632568
 41
19.04999923706054
 42
6.350006103515625
 43
19.04998779296875
 44
279.3999938964843
 45
431.7999877929687
 46
1.27
 47
-11.43
 48
0.0
 49
0.0
140
0.0
141
0.0
142
1.0
143
1.0
 70
   756
 72
     0
 73
     1
 74
     1
  7
monochrome.ctb
 75
    16
147
1.0
148
0.0034886547032954
149
0.0199946439100934
  0
PLOTSETTINGS
  5
2FE
102
{ACAD_REACTORS
330
19
102
}
330
19
100
AcDbPlotSettings
  1
D Size Paper
  2
none_device
  4
ANSI_D_(22.00_x_34.00_Inches)
  6

 40
6.349999904632568
 41
19.04999923706054
 42
6.3499755859375
 43
19.04998779296875
 44
558.7999877929687
 45
863.5999755859375
 46
8.889999999999998
 47
-3.809999999999999
 48
0.0
 49
0.0
140
0.0
141
0.0
142
1.0
143
0.5
 70
   740
 72
     0
 73
     1
 74
     1
  7
monochrome.ctb
 75
     0
147
2.0
148
0.0034886547032954
149
0.0199946439100934
  0
ACDBPLACEHOLDER
  5
F
102
{ACAD_REACTORS
330
E
102
}
330
E
100
AcDbPlaceHolder
280
     0
  0
XRECORD
  5
8A2C
102
{ACAD_REACTORS
330
8A22
102
}
330
8A22
100
AcDbXrecord
 90
        0
  0
XRECORD
  5
8A30
102
{ACAD_REACTORS
330
8A22
102
}
330
8A22
100
AcDbXrecord
1000
DSTYLE
1002
{
1070
    79
 70
     1
1070
   148
 40
0.1
1070
   341
340
3021
1070
   342
340
3021
1070
   371
 70
    -1
1070
   372
 70
    -1
1002
}
  0
XRECORD
  5
8A2D
102
{ACAD_REACTORS
330
8A22
102
}
330
8A22
100
AcDbXrecord
  1
{4E694E3A-6C64-11D4-81E3-0004AC4461C9}
  0
XRECORD
  5
8A25
102
{ACAD_REACTORS
330
8A22
102
}
330
8A22
100
AcDbXrecord
  1

  0
XRECORD
  5
8A2B
102
{ACAD_REACTORS
330
8A22
102
}
330
8A22
100
AcDbXrecord
 90
        1
  0
XRECORD
  5
8A27
102
{ACAD_REACTORS
330
8A22
102
}
330
8A22
100
AcDbXrecord
340
1A
  0
XRECORD
  5
8A2A
102
{ACAD_REACTORS
330
8A22
102
}
330
8A22
100
AcDbXrecord
 90
    10269
  0
XRECORD
  5
8A28
102
{ACAD_REACTORS
330
8A22
102
}
330
8A22
100
AcDbXrecord
340
19
  0
XRECORD
  5
8A29
102
{ACAD_REACTORS
330
8A22
102
}
330
8A22
100
AcDbXrecord
340
E
  0
XRECORD
  5
8A2F
102
{ACAD_REACTORS
330
8A22
102
}
330
8A22
100
AcDbXrecord
 40
1.0
  0
XRECORD
  5
8A33
102
{ACAD_REACTORS
330
8A22
102
}
330
8A22
100
AcDbXrecord
340
0
  0
XRECORD
  5
8A39
102
{ACAD_REACTORS
330
8A22
102
}
330
8A22
100
AcDbXrecord
 10
0.0
 20
0.0
 30
0.0
  0
XRECORD
  5
8A35
102
{ACAD_REACTORS
330
8A22
102
}
330
8A22
100
AcDbXrecord
 10
0.0
 20
0.0
 30
0.0
  0
XRECORD
  5
8A38
102
{ACAD_REACTORS
330
8A22
102
}
330
8A22
100
AcDbXrecord
 10
0.0
 20
0.0
 30
0.0
  0
XRECORD
  5
8A36
102
{ACAD_REACTORS
330
8A22
102
}
330
8A22
100
AcDbXrecord
 10
0.0
 20
0.0
 30
0.0
  0
XRECORD
  5
8A37
102
{ACAD_REACTORS
330
8A22
102
}
330
8A22
100
AcDbXrecord
 10
0.0
 20
0.0
 30
0.0
  0
XRECORD
  5
8A34
102
{ACAD_REACTORS
330
8A22
102
}
330
8A22
100
AcDbXrecord
 10
0.0
 20
0.0
 30
0.0
  0
XRECORD
  5
8A31
102
{ACAD_REACTORS
330
8A22
102
}
330
8A22
100
AcDbXrecord
340
0
  0
XRECORD
  5
8A32
102
{ACAD_REACTORS
330
8A22
102
}
330
8A22
100
AcDbXrecord
 70
     0
  0
XRECORD
  5
8A26
102
{ACAD_REACTORS
330
8A22
102
}
330
8A22
100
AcDbXrecord
  1

  0
XRECORD
  5
8A23
102
{ACAD_REACTORS
330
8A22
102
}
330
8A22
100
AcDbXrecord
 90
        1
  0
XRECORD
  5
8A24
102
{ACAD_REACTORS
330
8A22
102
}
330
8A22
100
AcDbXrecord
 90
       70
  0
XRECORD
  5
8A3C
102
{ACAD_REACTORS
330
8A22
102
}
330
8A22
100
AcDbXrecord
340
0
  0
XRECORD
  5
8A42
102
{ACAD_REACTORS
330
8A22
102
}
330
8A22
100
AcDbXrecord
 10
0.0
 20
0.0
 30
0.0
  0
XRECORD
  5
8A3E
102
{ACAD_REACTORS
330
8A22
102
}
330
8A22
100
AcDbXrecord
 10
0.0
 20
0.0
 30
0.0
  0
XRECORD
  5
8A41
102
{ACAD_REACTORS
330
8A22
102
}
330
8A22
100
AcDbXrecord
 10
0.0
 20
0.0
 30
0.0
  0
XRECORD
  5
8A3F
102
{ACAD_REACTORS
330
8A22
102
}
330
8A22
100
AcDbXrecord
 10
0.0
 20
0.0
 30
0.0
  0
XRECORD
  5
8A40
102
{ACAD_REACTORS
330
8A22
102
}
330
8A22
100
AcDbXrecord
 10
0.0
 20
0.0
 30
0.0
  0
XRECORD
  5
8A3D
102
{ACAD_REACTORS
330
8A22
102
}
330
8A22
100
AcDbXrecord
 10
0.0
 20
0.0
 30
0.0
  0
XRECORD
  5
8A3A
102
{ACAD_REACTORS
330
8A22
102
}
330
8A22
100
AcDbXrecord
340
0
  0
XRECORD
  5
8A3B
102
{ACAD_REACTORS
330
8A22
102
}
330
8A22
100
AcDbXrecord
 70
     0
  0
XRECORD
  5
8A2E
102
{ACAD_REACTORS
330
8A22
102
}
330
8A22
100
AcDbXrecord
  1
{3B0B10B1-3745-11D6-B14A-000629A2B5F4}
  0
DICTIONARYVAR
  5
5960
102
{ACAD_REACTORS
330
374
102
}
330
374
100
DictionaryVariables
280
     0
  1
1
  0
DICTIONARYVAR
  5
375
102
{ACAD_REACTORS
330
374
102
}
330
374
100
DictionaryVariables
280
     0
  1
1
  0
DICTIONARYVAR
  5
34A4
102
{ACAD_REACTORS
330
374
102
}
330
374
100
DictionaryVariables
280
     0
  1
96
  0
DICTIONARY
  5
36C
102
{ACAD_REACTORS
330
36B
102
}
330
36B
100
AcDbDictionary
  3
DWGSETTINGS
350
2663
  0
XRECORD
  5
6C
102
{ACAD_REACTORS
330
6A
102
}
330
6A
100
AcDbXrecord
  0
LAYER_INDEX
  5
5306
102
{ACAD_REACTORS
330
5305
102
}
330
5305
100
AcDbIndex
 40
2452348.266948009
100
AcDbLayerIndex
  8
0
360
5307
 90
       37
  8
CONTINUOUS2
360
5308
 90
        0
  8
CONTINUOUS3
360
5309
 90
        0
  8
TEXT1
360
530A
 90
       69
  8
TITLEBLOCK
360
530B
 90
        0
  8
VIEWPORT
360
530C
 90
        2
  8
CONTINUOUS1
360
5312
 90
      103
  8
DIM
360
5316
 90
       20
  8
HIDDEN1
360
5317
 90
        6
  8
Defpoints
360
5320
 90
        0
  8
PHANTOM1
360
6155
 90
        3
  8
TEXT3
360
6158
 90
        1
  0
XRECORD
  5
2663
102
{ACAD_REACTORS
330
36C
102
}
330
36C
100
AcDbXrecord
  1
VERSION
140
15.0
  1
PRODUCT
  2
AutoCAD Mechanical 2000
  0
IDBUFFER
  5
5307
330
0
100
AcDbIdBuffer
330
2517
330
4B71
330
526B
330
526F
330
664A
330
692E
330
6D99
330
768D
330
76B3
330
76B9
330
7E26
330
7E60
330
7E64
330
82DE
330
8324
330
8325
330
8326
330
8327
330
8328
330
832A
330
832B
330
832C
330
832D
330
832E
330
832F
330
8330
330
8331
330
8332
330
8333
330
8334
330
85D0
330
85D1
330
85D2
330
85D3
330
85DB
330
85DC
330
85DD
  0
IDBUFFER
  5
5308
330
0
100
AcDbIdBuffer
  0
IDBUFFER
  5
5309
330
0
100
AcDbIdBuffer
  0
IDBUFFER
  5
530A
330
0
100
AcDbIdBuffer
330
4BBC
330
526D
330
526E
330
5D93
330
5D95
330
5E5D
330
5F31
330
5F33
330
6149
330
625C
330
625D
330
6E3E
330
6E5A
330
768C
330
768E
330
7690
330
7691
330
7692
330
7693
330
7694
330
7695
330
7696
330
7697
330
7698
330
7699
330
769A
330
76A6
330
76A7
330
76A8
330
76A9
330
76AA
330
76AB
330
76AC
330
76AD
330
76AE
330
76AF
330
76B0
330
76B1
330
76B2
330
76B4
330
76B8
330
76BA
330
76BB
330
76BC
330
76BD
330
76BE
330
76BF
330
76C0
330
76C1
330
76C2
330
76C7
330
76C8
330
76C9
330
76CA
330
76CB
330
76CC
330
7E1E
330
7E1F
330
7E21
330
7EC1
330
8108
330
8109
330
810A
330
82DA
330
82DB
330
82DD
330
83E9
330
83EB
330
8850
  0
IDBUFFER
  5
530B
330
0
100
AcDbIdBuffer
  0
IDBUFFER
  5
530C
330
0
100
AcDbIdBuffer
330
BF7
330
BF8
  0
IDBUFFER
  5
5312
330
0
100
AcDbIdBuffer
330
4B44
330
4B47
330
4B4A
330
4B50
330
4BAF
330
4BB0
330
4BB1
330
4BB2
330
4BB3
330
4BC1
330
4BC3
330
4BC5
330
4BC6
330
4BC7
330
4BC8
330
4BD4
330
4BD7
330
4BDA
330
4BDC
330
5E65
330
5E66
330
5F24
330
5F2F
330
65DE
330
65DF
330
65E0
330
6E23
330
73FF
330
768F
330
769B
330
769C
330
769D
330
769E
330
769F
330
76A0
330
76A1
330
76A2
330
76A3
330
76A4
330
76A5
330
76B5
330
76B6
330
76B7
330
76C3
330
76C4
330
76C5
330
76C6
330
773C
330
7E24
330
7E25
330
7E28
330
7E29
330
7E2A
330
7E2B
330
7E2C
330
7E2D
330
7E2F
330
7E30
330
7E32
330
7E33
330
7E34
330
7E36
330
7E37
330
7E38
330
7E39
330
7E3A
330
7E3B
330
7E3C
330
7E42
330
7E43
330
7E44
330
7E45
330
7E46
330
7E47
330
7E48
330
7E4D
330
7E4E
330
7E50
330
7E51
330
7E52
330
7E53
330
7E55
330
7E56
330
7E57
330
7E58
330
7E59
330
7E5A
330
7E5B
330
7E5C
330
7E5D
330
7E5E
330
7E5F
330
7E61
330
7E62
330
7E63
330
7E65
330
7E66
330
7EC2
330
810E
330
83EA
330
83EC
330
85DF
330
85E0
  0
IDBUFFER
  5
5316
330
0
100
AcDbIdBuffer
330
4DBE
330
4DCC
330
4DF6
330
4E0E
330
4E38
330
52FD
330
52FE
330
5301
330
5302
330
5303
330
5304
330
5EC3
330
5ED1
330
5FAE
330
65EB
330
6813
330
7487
330
7E23
330
7E27
330
7E4F
  0
IDBUFFER
  5
5317
330
0
100
AcDbIdBuffer
330
4B49
330
4B4F
330
5F13
330
5F28
330
6562
330
6563
  0
IDBUFFER
  5
5320
330
0
100
AcDbIdBuffer
  0
IDBUFFER
  5
6155
330
0
100
AcDbIdBuffer
330
7E2E
330
7E3D
330
7E54
  0
IDBUFFER
  5
6158
330
0
100
AcDbIdBuffer
330
8107
  0
ENDSEC
  0
EOF
