  0
SECTION
  2
HEADER
  9
$ACADVER
  1
AC1014
  9
$ACADMAINTVER
 70
     0
  9
$DWGCODEPAGE
  3
ANSI_1252
  9
$INSBASE
 10
93.894301
 20
236.06014
 30
0.0
  9
$EXTMIN
 10
30.402833
 20
59.970109
 30
-0.001526
  9
$EXTMAX
 10
91.477661
 20
140.138718
 30
0.0
  9
$LIMMIN
 10
0.0
 20
0.0
  9
$LIMMAX
 10
210.0
 20
297.0
  9
$ORTHOMODE
 70
     0
  9
$REGENMODE
 70
     1
  9
$FILLMODE
 70
     1
  9
$QTEXTMODE
 70
     0
  9
$MIRRTEXT
 70
     0
  9
$DRAGMODE
 70
     1
  9
$LTSCALE
 40
7.0
  9
$OSMODE
 70
  2559
  9
$ATTMODE
 70
     1
  9
$TEXTSIZE
 40
2.5
  9
$TRACEWID
 40
0.05
  9
$TEXTSTYLE
  7
STANDARD
  9
$CLAYER
  8
COTATION1
  9
$CELTYPE
  6
BYLAYER
  9
$CECOLOR
 62
   256
  9
$CELTSCALE
 40
1.0
  9
$DELOBJ
 70
     1
  9
$DISPSILH
 70
     0
  9
$DIMSCALE
 40
1.0
  9
$DIMASZ
 40
3.0
  9
$DIMEXO
 40
0.0625
  9
$DIMDLI
 40
0.38
  9
$DIMRND
 40
0.01
  9
$DIMDLE
 40
0.0
  9
$DIMEXE
 40
0.18
  9
$DIMTP
 40
0.0
  9
$DIMTM
 40
0.0
  9
$DIMTXT
 40
2.5
  9
$DIMCEN
 40
0.09
  9
$DIMTSZ
 40
0.0
  9
$DIMTOL
 70
     0
  9
$DIMLIM
 70
     0
  9
$DIMTIH
 70
     0
  9
$DIMTOH
 70
     0
  9
$DIMSE1
 70
     0
  9
$DIMSE2
 70
     0
  9
$DIMTAD
 70
     1
  9
$DIMZIN
 70
    12
  9
$DIMBLK
  1

  9
$DIMASO
 70
     1
  9
$DIMSHO
 70
     1
  9
$DIMPOST
  1

  9
$DIMAPOST
  1

  9
$DIMALT
 70
     0
  9
$DIMALTD
 70
     2
  9
$DIMALTF
 40
25.4
  9
$DIMLFAC
 40
1.0
  9
$DIMTOFL
 70
     1
  9
$DIMTVP
 40
0.0
  9
$DIMTIX
 70
     0
  9
$DIMSOXD
 70
     0
  9
$DIMSAH
 70
     0
  9
$DIMBLK1
  1

  9
$DIMBLK2
  1

  9
$DIMSTYLE
  2
SC_STAND
  9
$DIMCLRD
 70
     0
  9
$DIMCLRE
 70
     0
  9
$DIMCLRT
 70
     0
  9
$DIMTFAC
 40
1.0
  9
$DIMGAP
 40
1.0
  9
$DIMJUST
 70
     0
  9
$DIMSD1
 70
     0
  9
$DIMSD2
 70
     0
  9
$DIMTOLJ
 70
     1
  9
$DIMTZIN
 70
    12
  9
$DIMALTZ
 70
    12
  9
$DIMALTTZ
 70
    12
  9
$DIMFIT
 70
     5
  9
$DIMUPT
 70
     0
  9
$DIMUNIT
 70
     2
  9
$DIMDEC
 70
     3
  9
$DIMTDEC
 70
     3
  9
$DIMALTU
 70
     2
  9
$DIMALTTD
 70
     2
  9
$DIMTXSTY
  7
STANDARD
  9
$DIMAUNIT
 70
     0
  9
$LUNITS
 70
     2
  9
$LUPREC
 70
     3
  9
$SKETCHINC
 40
0.1
  9
$FILLETRAD
 40
0.0625
  9
$AUNITS
 70
     0
  9
$AUPREC
 70
     0
  9
$MENU
  1
ACAD
  9
$ELEVATION
 40
0.0
  9
$PELEVATION
 40
0.0
  9
$THICKNESS
 40
0.0
  9
$LIMCHECK
 70
     0
  9
$BLIPMODE
 70
     1
  9
$CHAMFERA
 40
0.0
  9
$CHAMFERB
 40
0.0
  9
$CHAMFERC
 40
0.0
  9
$CHAMFERD
 40
0.0
  9
$SKPOLY
 70
     0
  9
$TDCREATE
 40
2450953.590960648
  9
$TDUPDATE
 40
2452842.455482488
  9
$TDINDWG
 40
0.0191175579
  9
$TDUSRTIMER
 40
0.0191175579
  9
$USRTIMER
 70
     1
  9
$ANGBASE
 50
0.0
  9
$ANGDIR
 70
     0
  9
$PDMODE
 70
     0
  9
$PDSIZE
 40
0.0
  9
$PLINEWID
 40
0.0
  9
$COORDS
 70
     0
  9
$SPLFRAME
 70
     0
  9
$SPLINETYPE
 70
     6
  9
$SPLINESEGS
 70
     8
  9
$ATTDIA
 70
     0
  9
$ATTREQ
 70
     1
  9
$HANDLING
 70
     1
  9
$HANDSEED
  5
934
  9
$SURFTAB1
 70
     6
  9
$SURFTAB2
 70
     6
  9
$SURFTYPE
 70
     6
  9
$SURFU
 70
     6
  9
$SURFV
 70
     6
  9
$UCSNAME
  2

  9
$UCSORG
 10
0.0
 20
0.0
 30
0.0
  9
$UCSXDIR
 10
1.0
 20
0.0
 30
0.0
  9
$UCSYDIR
 10
0.0
 20
1.0
 30
0.0
  9
$PUCSNAME
  2

  9
$PUCSORG
 10
0.0
 20
0.0
 30
0.0
  9
$PUCSXDIR
 10
1.0
 20
0.0
 30
0.0
  9
$PUCSYDIR
 10
0.0
 20
1.0
 30
0.0
  9
$USERI1
 70
     0
  9
$USERI2
 70
     0
  9
$USERI3
 70
     0
  9
$USERI4
 70
     0
  9
$USERI5
 70
     0
  9
$USERR1
 40
0.0
  9
$USERR2
 40
0.0
  9
$USERR3
 40
0.0
  9
$USERR4
 40
0.0
  9
$USERR5
 40
0.0
  9
$WORLDVIEW
 70
     1
  9
$SHADEDGE
 70
     3
  9
$SHADEDIF
 70
    70
  9
$TILEMODE
 70
     1
  9
$MAXACTVP
 70
    32
  9
$PINSBASE
 10
0.0
 20
0.0
 30
0.0
  9
$PLIMCHECK
 70
     0
  9
$PEXTMIN
 10
-3.174999
 20
-3.175
 30
0.0
  9
$PEXTMAX
 10
203.812116
 20
370.276807
 30
0.0
  9
$PLIMMIN
 10
-3.175
 20
-3.175
  9
$PLIMMAX
 10
203.812115
 20
370.276807
  9
$UNITMODE
 70
     0
  9
$VISRETAIN
 70
     0
  9
$PLINEGEN
 70
     0
  9
$PSLTSCALE
 70
     1
  9
$TREEDEPTH
 70
  3020
  9
$PICKSTYLE
 70
     0
  9
$CMLSTYLE
  2
STANDARD
  9
$CMLJUST
 70
     0
  9
$CMLSCALE
 40
1.0
  9
$PROXYGRAPHICS
 70
     1
  9
$MEASUREMENT
 70
     0
  0
ENDSEC
  0
SECTION
  2
CLASSES
  0
CLASS
  1
DICTIONARYVAR
  2
AcDbDictionaryVar
  3
"AutoCAD"
 90
        0
280
     0
281
     0
  0
ENDSEC
  0
SECTION
  2
TABLES
  0
TABLE
  2
VPORT
  5
F4
100
AcDbSymbolTable
 70
     4
  0
VPORT
  5
933
100
AcDbSymbolTableRecord
100
AcDbViewportTableRecord
  2
*ACTIVE
 70
     0
 10
0.0
 20
0.0
 11
1.0
 21
1.0
 12
60.940247
 22
100.054413
 13
0.0
 23
0.0
 14
1.0
 24
1.0
 15
10.0
 25
10.0
 16
0.0
 26
0.0
 36
1.0
 17
0.0
 27
0.0
 37
0.0
 40
80.795743
 41
1.592689
 42
50.0
 43
0.0
 44
0.0
 50
0.0
 51
0.0
 71
     0
 72
   100
 73
     1
 74
     1
 75
     0
 76
     1
 77
     0
 78
     0
  0
ENDTAB
  0
TABLE
  2
LTYPE
  5
F1
100
AcDbSymbolTable
 70
    23
  0
LTYPE
  5
FD
100
AcDbSymbolTableRecord
100
AcDbLinetypeTableRecord
  2
BYBLOCK
 70
     0
  3

 72
    65
 73
     0
 40
0.0
  0
LTYPE
  5
FE
100
AcDbSymbolTableRecord
100
AcDbLinetypeTableRecord
  2
BYLAYER
 70
     0
  3

 72
    65
 73
     0
 40
0.0
  0
LTYPE
  5
FF
100
AcDbSymbolTableRecord
100
AcDbLinetypeTableRecord
  2
CONTINUOUS
 70
     0
  3
Solid line
 72
    65
 73
     0
 40
0.0
  0
LTYPE
  5
110
100
AcDbSymbolTableRecord
100
AcDbLinetypeTableRecord
  2
CACHE
 70
     0
  3
__ __ __ __ __ __ __ __ __ __ __ __ __ __ __ __
 72
    65
 73
     2
 40
0.375
 49
0.25
 74
     0
 49
-0.125
 74
     0
  0
LTYPE
  5
112
100
AcDbSymbolTableRecord
100
AcDbLinetypeTableRecord
  2
AXES2
 70
     0
  3
___ _ ___ _ ___ _ ___ _ ___ _ ___ _ ___ _ ___ _
 72
    65
 73
     4
 40
1.125
 49
0.75
 74
     0
 49
-0.125
 74
     0
 49
0.125
 74
     0
 49
-0.125
 74
     0
  0
LTYPE
  5
120
100
AcDbSymbolTableRecord
100
AcDbLinetypeTableRecord
  2
CACHE2
 70
     0
  3
_ _ _ _ _ _ _ _ _ _ _ _ _ _ _ _ _ _ _ _ _ _ _ _
 72
    65
 73
     2
 40
0.1875
 49
0.125
 74
     0
 49
-0.0625
 74
     0
  0
LTYPE
  5
121
100
AcDbSymbolTableRecord
100
AcDbLinetypeTableRecord
  2
CACHEX2
 70
     0
  3
____ ____ ____ ____ ____ ____ ____ ____ ____ __
 72
    65
 73
     2
 40
0.75
 49
0.5
 74
     0
 49
-0.25
 74
     0
  0
ENDTAB
  0
TABLE
  2
LAYER
  5
EE
100
AcDbSymbolTable
 70
    21
  0
LAYER
  5
FA
100
AcDbSymbolTableRecord
100
AcDbLayerTableRecord
  2
0
 70
     0
 62
     7
  6
CONTINUOUS
  0
LAYER
  5
12C
100
AcDbSymbolTableRecord
100
AcDbLayerTableRecord
  2
ALPHA
 70
     0
 62
   255
  6
CONTINUOUS
  0
LAYER
  5
12F
100
AcDbSymbolTableRecord
100
AcDbLayerTableRecord
  2
COTATION1
 70
     0
 62
     2
  6
CONTINUOUS
  0
LAYER
  5
132
100
AcDbSymbolTableRecord
100
AcDbLayerTableRecord
  2
TEXTE
 70
     0
 62
   131
  6
CONTINUOUS
  0
LAYER
  5
13B
100
AcDbSymbolTableRecord
100
AcDbLayerTableRecord
  2
ASHADE
 70
     0
 62
     7
  6
CONTINUOUS
  0
LAYER
  5
13E
100
AcDbSymbolTableRecord
100
AcDbLayerTableRecord
  2
DEFPOINTS
 70
     0
 62
     7
  6
CONTINUOUS
  0
ENDTAB
  0
TABLE
  2
STYLE
  5
EF
100
AcDbSymbolTable
 70
     4
  0
STYLE
  5
FB
100
AcDbSymbolTableRecord
100
AcDbTextStyleTableRecord
  2
STANDARD
 70
     0
 40
0.0
 41
1.0
 50
0.0
 71
     0
 42
2.5
  3
txt
  4

  0
ENDTAB
  0
TABLE
  2
VIEW
  5
F2
100
AcDbSymbolTable
 70
     0
  0
ENDTAB
  0
TABLE
  2
UCS
  5
F3
100
AcDbSymbolTable
 70
     0
  0
ENDTAB
  0
TABLE
  2
APPID
  5
F5
100
AcDbSymbolTable
 70
     3
  0
APPID
  5
FC
100
AcDbSymbolTableRecord
100
AcDbRegAppTableRecord
  2
ACAD
 70
     0
  0
APPID
  5
127
100
AcDbSymbolTableRecord
100
AcDbRegAppTableRecord
  2
AVE_RENDER
 70
     0
  0
APPID
  5
128
100
AcDbSymbolTableRecord
100
AcDbRegAppTableRecord
  2
AVE_MATERIAL
 70
     0
  0
ENDTAB
  0
TABLE
  2
DIMSTYLE
  5
F6
100
AcDbSymbolTable
 70
     2
  0
DIMSTYLE
105
129
100
AcDbSymbolTableRecord
100
AcDbDimStyleTableRecord
  2
STANDARD
 70
     0
  3

  4

  5

  6

  7

 40
1.0
 41
0.18
 42
0.0625
 43
0.38
 44
0.18
 45
0.0
 46
0.0
 47
0.0
 48
0.0
140
0.18
141
0.09
142
0.0
143
25.4
144
1.0
145
0.0
146
1.0
147
0.09
 71
     0
 72
     0
 73
     1
 74
     1
 75
     0
 76
     0
 77
     0
 78
     0
170
     0
171
     2
172
     0
173
     0
174
     0
175
     0
176
     0
177
     0
178
     0
270
     2
271
     3
272
     3
273
     2
274
     2
340
FB
275
     0
280
     0
281
     0
282
     0
283
     1
284
    12
285
    12
286
    12
287
     5
288
     0
  0
DIMSTYLE
105
12A
102
{ACAD_REACTORS
330
8F7
330
904
102
}
100
AcDbSymbolTableRecord
100
AcDbDimStyleTableRecord
  2
SC_STAND
 70
     0
  3

  4

  5

  6

  7

 40
1.0
 41
3.0
 42
0.0625
 43
0.38
 44
0.18
 45
0.01
 46
0.0
 47
0.0
 48
0.0
140
2.5
141
0.09
142
0.0
143
25.4
144
1.0
145
0.0
146
1.0
147
1.0
 71
     0
 72
     0
 73
     0
 74
     0
 75
     0
 76
     0
 77
     1
 78
    12
170
     0
171
     2
172
     1
173
     0
174
     0
175
     0
176
     0
177
     0
178
     0
270
     2
271
     3
272
     3
273
     2
274
     2
340
FB
275
     0
280
     0
281
     0
282
     0
283
     1
284
    12
285
    12
286
    12
287
     5
288
     0
  0
ENDTAB
  0
TABLE
  2
BLOCK_RECORD
  5
ED
100
AcDbSymbolTable
 70
    13
  0
BLOCK_RECORD
  5
103
100
AcDbSymbolTableRecord
100
AcDbBlockTableRecord
  2
*MODEL_SPACE
  0
BLOCK_RECORD
  5
100
100
AcDbSymbolTableRecord
100
AcDbBlockTableRecord
  2
*PAPER_SPACE
  0
BLOCK_RECORD
  5
108
100
AcDbSymbolTableRecord
100
AcDbBlockTableRecord
  2
AVE_RENDER
  0
BLOCK_RECORD
  5
109
100
AcDbSymbolTableRecord
100
AcDbBlockTableRecord
  2
AVE_GLOBAL
  0
BLOCK_RECORD
  5
10A
100
AcDbSymbolTableRecord
100
AcDbBlockTableRecord
  2
SCH_IS
  0
BLOCK_RECORD
  5
14D
100
AcDbSymbolTableRecord
100
AcDbBlockTableRecord
  2
AI9-BLK1
  0
BLOCK_RECORD
  5
8EB
100
AcDbSymbolTableRecord
100
AcDbBlockTableRecord
  2
*D11
  0
BLOCK_RECORD
  5
8F8
100
AcDbSymbolTableRecord
100
AcDbBlockTableRecord
  2
*D12
  0
ENDTAB
  0
ENDSEC
  0
SECTION
  2
BLOCKS
  0
BLOCK
  5
141
100
AcDbEntity
  8
0
100
AcDbBlockBegin
  2
*MODEL_SPACE
 70
     0
 10
0.0
 20
0.0
 30
0.0
  3
*MODEL_SPACE
  1

  0
ENDBLK
  5
142
100
AcDbEntity
  8
0
100
AcDbBlockEnd
  0
BLOCK
  5
13F
100
AcDbEntity
 67
     1
  8
0
100
AcDbBlockBegin
  2
*PAPER_SPACE
 70
     0
 10
0.0
 20
0.0
 30
0.0
  3
*PAPER_SPACE
  1

  0
ENDBLK
  5
140
100
AcDbEntity
 67
     1
  8
0
100
AcDbBlockEnd
  0
BLOCK
  5
8D
100
AcDbEntity
  8
0
100
AcDbBlockBegin
  2
AVE_RENDER
 70
     0
 10
0.0
 20
0.0
 30
0.0
  3
AVE_RENDER
  1
AVE_RENDER
  0
ENDBLK
  5
8E
100
AcDbEntity
  8
0
100
AcDbBlockEnd
  0
BLOCK
  5
90
100
AcDbEntity
  8
0
100
AcDbBlockBegin
  2
AVE_GLOBAL
 70
     0
 10
0.0
 20
0.0
 30
0.0
  3
AVE_GLOBAL
  1
AVE_GLOBAL
  0
ENDBLK
  5
91
100
AcDbEntity
  8
0
100
AcDbBlockEnd
  0
BLOCK
  5
C9
100
AcDbEntity
  8
0
100
AcDbBlockBegin
  2
SCH_IS
 70
     0
 10
0.0
 20
0.0
 30
0.0
  3
SCH_IS
  1

  0
INSERT
  5
C0
100
AcDbEntity
  8
ASHADE
 62
     1
100
AcDbBlockReference
  2
AVE_RENDER
 10
0.0
 20
0.0
 30
0.0
1001
AVE_RENDER
1002
{
1070
     6
1000
Pref
1070
    50
1070
    20
1070
     1
1070
     0
1000

1070
    10
1070
     1
1070
    30
1040
25.4
1070
     1
1040
0.3
1040
0.7
1040
0.0
1040
10.0
1010
-1.0
1020
-1.0
1030
-1.0
1040
0.3
1070
    49
1070
     0
1070
     0
1010
1.0
1020
1.0
1030
1.0
1040
45.0
1070
     1
1070
     0
1000
WCS
1040
0.0
1002
}
  0
INSERT
  5
C1
100
AcDbEntity
  8
ASHADE
 62
     3
100
AcDbBlockReference
  2
AVE_RENDER
 10
0.0
 20
0.0
 30
0.0
1001
AVE_RENDER
1002
{
1070
     0
1000
Full Opt
1070
     0
1070
     1
1070
     1
1070
     1
1070
     0
1070
     0
1070
     0
1070
     1
1070
     1
1040
0.0001
1040
0.0001
1002
}
  0
INSERT
  5
C2
100
AcDbEntity
  8
ASHADE
 62
     4
100
AcDbBlockReference
  2
AVE_RENDER
 10
0.0
 20
0.0
 30
0.0
1001
AVE_RENDER
1002
{
1070
     0
1000
Quick Opt
1070
     0
1070
     1
1070
     1
1070
     1
1070
     0
1070
     0
1070
     1
1002
}
  0
INSERT
  5
C3
100
AcDbEntity
  8
ASHADE
 62
     5
100
AcDbBlockReference
  2
AVE_RENDER
 10
0.0
 20
0.0
 30
0.0
1001
AVE_RENDER
1002
{
1070
     1
1000
Scanl Opt
1070
     2
1070
     0
1070
     2
1040
2.0
1040
4.0
1070
     0
1070
     1
1070
     0
1040
0.03
1002
}
  0
INSERT
  5
C4
100
AcDbEntity
  8
ASHADE
 62
     6
100
AcDbBlockReference
  2
AVE_RENDER
 10
0.0
 20
0.0
 30
0.0
1001
AVE_RENDER
1002
{
1070
     2
1000
Raytr Opt
1070
     2
1070
     0
1070
     2
1040
2.0
1040
4.0
1070
     0
1070
     1
1070
     1
1040
0.03
1070
     3
1040
0.03
1002
}
  0
INSERT
  5
C5
100
AcDbEntity
  8
ASHADE
 62
     7
100
AcDbBlockReference
  2
AVE_RENDER
 10
0.0
 20
0.0
 30
0.0
1001
AVE_RENDER
1002
{
1070
     0
1000
RFile Opt
1070
     5
1070
   640
1070
   480
1070
 10000
1070
     3
1070
    32
1070
    24
1070
     0
1070
     0
1070
     0
1070
     1
1070
     0
1070
     0
1070
     0
1002
}
  0
INSERT
  5
C6
100
AcDbEntity
  8
ASHADE
 62
     8
100
AcDbBlockReference
  2
AVE_RENDER
 10
0.0
 20
0.0
 30
0.0
1001
AVE_RENDER
1002
{
1070
     0
1000
Fog Opt
1070
     0
1070
     0
1040
0.0
1040
1.0
1040
0.0
1040
1.0
1010
0.5
1020
0.5
1030
0.5
1002
}
  0
INSERT
  5
C7
100
AcDbEntity
  8
ASHADE
 62
     9
100
AcDbBlockReference
  2
AVE_RENDER
 10
0.0
 20
0.0
 30
0.0
1001
AVE_RENDER
1002
{
1070
     0
1000
BG Opt
1070
     0
1070
     1
1010
0.0
1020
0.0
1030
0.0
1010
1.0
1020
0.0
1030
0.0
1010
0.0
1020
1.0
1030
0.0
1010
0.0
1020
0.0
1030
1.0
1040
0.5
1040
0.33
1040
0.0
1000

1070
     1
1000

1070
     1
1070
     1
1040
1.0
1040
1.0
1040
0.0
1040
0.0
1070
     0
1002
}
  0
INSERT
  5
C8
100
AcDbEntity
  8
ASHADE
 62
     1
100
AcDbBlockReference
  2
AVE_GLOBAL
 10
0.0
 20
0.0
 30
0.0
1001
AVE_MATERIAL
1002
{
1000
*GLOBAL*
1000
1
1000
Finition globale.
1002
{
1002
}
1002
{
1070
    63
1002
{
1002
{
1010
-1.0
1020
-1.0
1030
-1.0
1002
}
1040
0.1
1000

1040
0.0
1002
{
1002
}
1040
0.0
1002
{
1002
}
1040
0.0
1002
}
1002
{
1002
{
1010
-1.0
1020
-1.0
1030
-1.0
1002
}
1040
0.7
1000

1040
0.0
1002
{
1002
}
1040
0.0
1002
{
1002
}
1040
0.0
1002
}
1002
{
1002
{
1010
-1.0
1020
-1.0
1030
-1.0
1002
}
1040
0.2
1000

1040
0.0
1002
{
1002
}
1040
0.0
1002
{
1002
}
1040
0.0
1002
}
1002
{
1070
     0
1002
{
1070
     1
1002
{
1040
1.0
1040
1.0
1000

1040
0.0
1002
{
1002
}
1040
0.0
1002
{
1002
}
1040
0.0
1002
}
1002
}
1040
1.0
1040
0.0
1040
0.0
1002
}
1002
{
1040
1.0
1040
1.0
1000

1040
0.0
1002
{
1002
}
1040
0.0
1002
{
1002
}
1040
0.0
1002
}
1002
{
1040
0.5
1040
1.0
1000

1040
0.0
1002
{
1002
}
1040
0.0
1002
{
1002
}
1040
0.0
1002
}
1002
{
1070
     0
1040
0.0
1002
{
1002
}
1040
1.0
1002
{
1002
}
1040
0.0
1002
}
1002
{
1040
0.0
1002
{
1002
{
1010
0.0
1020
0.0
1030
0.0
1002
}
1040
1.0
1000

1040
0.0
1002
{
1002
}
1040
0.0
1002
{
1002
}
1040
0.0
1002
}
1002
}
1002
{
1002
{
1070
     1
1002
{
1040
0.0
1040
1.0
1000

1040
0.0
1002
{
1002
}
1040
0.0
1002
{
1002
}
1040
0.0
1002
}
1002
}
1040
0.0
1002
{
1002
}
1010
1.0
1020
0.0
1030
0.0
1010
0.0
1020
1.0
1030
0.0
1010
0.0
1020
0.0
1030
1.0
1070
     0
1002
}
1002
{
1002
{
1040
1.0
1040
1.0
1002
{
1070
     1
1002
{
1040
1.0
1040
1.0
1000

1040
0.0
1002
{
1002
}
1040
0.0
1002
{
1002
}
1040
0.0
1002
}
1002
}
1002
}
1070
     0
1040
0.0
1002
{
1002
}
1002
}
1002
{
1002
}
1002
}
1002
{
1071
        3
1070
     3
1070
     0
1002
{
1070
     2
1070
     0
1070
     0
1040
0.0
1002
}
1070
     0
1070
     2
1002
{
1002
}
1002
}
1002
{
1040
8030.0
1040
190.300003
1040
0.305
1040
228.0
1040
545.0
1040
14.0
1040
17.4
1040
0.456
1002
}
1002
}
  0
ENDBLK
  5
CA
100
AcDbEntity
  8
0
100
AcDbBlockEnd
  0
BLOCK
  5
232
100
AcDbEntity
  8
ALPHA
 62
     7
100
AcDbBlockBegin
  2
AI9-BLK1
 70
     0
 10
0.0
 20
0.0
 30
0.0
  3
AI9-BLK1
  1

  0
SPLINE
  5
14E
100
AcDbEntity
  8
ALPHA
 62
     7
100
AcDbSpline
210
0.0
220
0.0
230
-1.0
 70
    11
 71
     3
 72
    29
 73
    25
 74
     0
 42
0.0000001
 43
0.0000001
 40
0.0
 40
0.0
 40
0.0
 40
0.0
 40
1.0
 40
1.0
 40
1.0
 40
2.0
 40
2.0
 40
2.0
 40
3.0
 40
3.0
 40
3.0
 40
4.0
 40
4.0
 40
4.0
 40
5.0
 40
5.0
 40
5.0
 40
6.0
 40
6.0
 40
6.0
 40
7.0
 40
7.0
 40
7.0
 40
8.0
 40
8.0
 40
8.0
 40
8.0
 10
146.0000891791449
 20
-98.25020446777344
 30
0.0
 10
146.0000891791449
 20
-99.90660637749565
 30
0.0
 10
144.6571909586588
 20
-101.2501936170789
 30
0.0
 10
143.0001000298393
 20
-101.2501936170789
 30
0.0
 10
143.0001000298393
 20
-101.2501936170789
 30
0.0
 10
-143.0000139024522
 20
-101.2501936170789
 30
0.0
 10
-143.0000139024522
 20
-101.2501936170789
 30
0.0
 10
-144.656760321723
 20
-101.2501936170789
 30
0.0
 10
-146.0000030517577
 20
-99.90660637749565
 30
0.0
 10
-146.0000030517577
 20
-98.25020446777344
 30
0.0
 10
-146.0000030517577
 20
-98.25020446777344
 30
0.0
 10
-146.0000030517577
 20
98.25011834038628
 30
0.0
 10
-146.0000030517577
 20
98.25011834038628
 30
0.0
 10
-146.0000030517577
 20
99.90686475965711
 30
0.0
 10
-144.656760321723
 20
101.2501074896918
 30
0.0
 10
-143.0000139024522
 20
101.2501074896918
 30
0.0
 10
-143.0000139024522
 20
101.2501074896918
 30
0.0
 10
143.0001000298393
 20
101.2501074896918
 30
0.0
 10
143.0001000298393
 20
101.2501074896918
 30
0.0
 10
144.6571909586588
 20
101.2501074896918
 30
0.0
 10
146.0000891791449
 20
99.90686475965711
 30
0.0
 10
146.0000891791449
 20
98.25011834038628
 30
0.0
 10
146.0000891791449
 20
98.25011834038628
 30
0.0
 10
146.0000891791449
 20
-98.25020446777344
 30
0.0
 10
146.0000891791449
 20
-98.25020446777344
 30
0.0
  0
SPLINE
  5
14F
100
AcDbEntity
  8
ALPHA
 62
     7
100
AcDbSpline
210
0.0
220
0.0
230
-1.0
 70
    11
 71
     3
 72
    29
 73
    25
 74
     0
 42
0.0000001
 43
0.0000001
 40
0.0
 40
0.0
 40
0.0
 40
0.0
 40
1.0
 40
1.0
 40
1.0
 40
2.0
 40
2.0
 40
2.0
 40
3.0
 40
3.0
 40
3.0
 40
4.0
 40
4.0
 40
4.0
 40
5.0
 40
5.0
 40
5.0
 40
6.0
 40
6.0
 40
6.0
 40
7.0
 40
7.0
 40
7.0
 40
8.0
 40
8.0
 40
8.0
 40
8.0
 10
76.18936326768663
 20
40.38818935818142
 30
0.0
 10
77.01894226074218
 20
40.38818935818142
 30
0.0
 10
77.69142489963107
 20
41.0606719970703
 30
0.0
 10
77.69142489963107
 20
41.88887295193142
 30
0.0
 10
77.69142489963107
 20
41.88887295193142
 30
0.0
 10
77.87056986490885
 20
67.24339769151474
 30
0.0
 10
77.87056986490885
 20
67.24339769151474
 30
0.0
 10
77.87056986490885
 20
68.0757327609592
 30
0.0
 10
77.19808722601996
 20
68.74683736165363
 30
0.0
 10
76.36437411838106
 20
68.74683736165363
 30
0.0
 10
76.36437411838106
 20
68.74683736165363
 30
0.0
 10
-76.01202697753905
 20
68.92460428873697
 30
0.0
 10
-76.01202697753905
 20
68.92460428873697
 30
0.0
 10
-76.84022793240017
 20
68.92460428873697
 30
0.0
 10
-77.51271057128906
 20
68.25074361165363
 30
0.0
 10
-77.51271057128906
 20
67.42116461859808
 30
0.0
 10
-77.51271057128906
 20
67.42116461859808
 30
0.0
 10
-77.69185553656683
 20
41.88887295193142
 30
0.0
 10
-77.69185553656683
 20
41.88887295193142
 30
0.0
 10
-77.69185553656683
 20
41.0606719970703
 30
0.0
 10
-77.01937289767794
 20
40.38818935818142
 30
0.0
 10
-76.1870378282335
 20
40.38818935818142
 30
0.0
 10
-76.1870378282335
 20
40.38818935818142
 30
0.0
 10
76.18936326768663
 20
40.38818935818142
 30
0.0
 10
76.18936326768663
 20
40.38818935818142
 30
0.0
  0
POLYLINE
  5
150
100
AcDbEntity
  8
ALPHA
 62
     7
100
AcDb2dPolyline
 66
     1
 10
0.0
 20
0.0
 30
0.0
 70
     1
  0
VERTEX
  5
151
100
AcDbEntity
  8
ALPHA
 62
     7
100
AcDbVertex
100
AcDb2dVertex
 10
77.691425
 20
-84.679973
 30
0.0
  0
VERTEX
  5
152
100
AcDbEntity
  8
ALPHA
 62
     7
100
AcDbVertex
100
AcDb2dVertex
 10
77.691425
 20
25.69279
 30
0.0
  0
VERTEX
  5
153
100
AcDbEntity
  8
ALPHA
 62
     7
100
AcDbVertex
100
AcDb2dVertex
 10
-77.691856
 20
25.69279
 30
0.0
  0
VERTEX
  5
154
100
AcDbEntity
  8
ALPHA
 62
     7
100
AcDbVertex
100
AcDb2dVertex
 10
-77.691856
 20
-84.679973
 30
0.0
  0
SEQEND
  5
155
100
AcDbEntity
  8
ALPHA
 62
     7
  0
POLYLINE
  5
156
100
AcDbEntity
  8
ALPHA
 62
     7
100
AcDb2dPolyline
 66
     1
 10
0.0
 20
0.0
 30
0.0
 70
     1
  0
VERTEX
  5
157
100
AcDbEntity
  8
ALPHA
 62
     7
100
AcDbVertex
100
AcDb2dVertex
 10
-36.28198
 20
-29.293862
 30
0.0
  0
VERTEX
  5
158
100
AcDbEntity
  8
ALPHA
 62
     7
100
AcDbVertex
100
AcDb2dVertex
 10
-41.795511
 20
-25.282393
 30
0.0
  0
VERTEX
  5
159
100
AcDbEntity
  8
ALPHA
 62
     7
100
AcDbVertex
100
AcDb2dVertex
 10
-41.795511
 20
-25.282393
 30
0.0
  0
VERTEX
  5
15A
100
AcDbEntity
  8
ALPHA
 62
     7
100
AcDbVertex
100
AcDb2dVertex
 10
-47.307664
 20
-29.293862
 30
0.0
  0
VERTEX
  5
15B
100
AcDbEntity
  8
ALPHA
 62
     7
100
AcDbVertex
100
AcDb2dVertex
 10
-44.558477
 20
-29.297996
 30
0.0
  0
VERTEX
  5
15C
100
AcDbEntity
  8
ALPHA
 62
     7
100
AcDbVertex
100
AcDb2dVertex
 10
-44.558477
 20
-32.304876
 30
0.0
  0
VERTEX
  5
15D
100
AcDbEntity
  8
ALPHA
 62
     7
100
AcDbVertex
100
AcDb2dVertex
 10
-39.046325
 20
-32.304876
 30
0.0
  0
VERTEX
  5
15E
100
AcDbEntity
  8
ALPHA
 62
     7
100
AcDbVertex
100
AcDb2dVertex
 10
-39.046325
 20
-29.297996
 30
0.0
  0
SEQEND
  5
15F
100
AcDbEntity
  8
ALPHA
 62
     7
  0
POLYLINE
  5
160
100
AcDbEntity
  8
ALPHA
 62
     7
100
AcDb2dPolyline
 66
     1
 10
0.0
 20
0.0
 30
0.0
 70
     1
  0
VERTEX
  5
161
100
AcDbEntity
  8
ALPHA
 62
     7
100
AcDbVertex
100
AcDb2dVertex
 10
-23.222312
 20
-53.379214
 30
0.0
  0
VERTEX
  5
162
100
AcDbEntity
  8
ALPHA
 62
     7
100
AcDbVertex
100
AcDb2dVertex
 10
-19.210843
 20
-47.865683
 30
0.0
  0
VERTEX
  5
163
100
AcDbEntity
  8
ALPHA
 62
     7
100
AcDbVertex
100
AcDb2dVertex
 10
-19.210843
 20
-47.865683
 30
0.0
  0
VERTEX
  5
164
100
AcDbEntity
  8
ALPHA
 62
     7
100
AcDbVertex
100
AcDb2dVertex
 10
-23.222312
 20
-42.349396
 30
0.0
  0
VERTEX
  5
165
100
AcDbEntity
  8
ALPHA
 62
     7
100
AcDbVertex
100
AcDb2dVertex
 10
-23.231958
 20
-45.102716
 30
0.0
  0
VERTEX
  5
166
100
AcDbEntity
  8
ALPHA
 62
     7
100
AcDbVertex
100
AcDb2dVertex
 10
-26.238838
 20
-45.102716
 30
0.0
  0
VERTEX
  5
167
100
AcDbEntity
  8
ALPHA
 62
     7
100
AcDbVertex
100
AcDb2dVertex
 10
-26.238838
 20
-50.614869
 30
0.0
  0
VERTEX
  5
168
100
AcDbEntity
  8
ALPHA
 62
     7
100
AcDbVertex
100
AcDb2dVertex
 10
-23.231958
 20
-50.614869
 30
0.0
  0
SEQEND
  5
169
100
AcDbEntity
  8
ALPHA
 62
     7
  0
POLYLINE
  5
16A
100
AcDbEntity
  8
ALPHA
 62
     7
100
AcDb2dPolyline
 66
     1
 10
0.0
 20
0.0
 30
0.0
 70
     1
  0
VERTEX
  5
16B
100
AcDbEntity
  8
ALPHA
 62
     7
100
AcDbVertex
100
AcDb2dVertex
 10
-60.367159
 20
-42.349396
 30
0.0
  0
VERTEX
  5
16C
100
AcDbEntity
  8
ALPHA
 62
     7
100
AcDbVertex
100
AcDb2dVertex
 10
-64.378629
 20
-47.865683
 30
0.0
  0
VERTEX
  5
16D
100
AcDbEntity
  8
ALPHA
 62
     7
100
AcDbVertex
100
AcDb2dVertex
 10
-64.378629
 20
-47.865683
 30
0.0
  0
VERTEX
  5
16E
100
AcDbEntity
  8
ALPHA
 62
     7
100
AcDbVertex
100
AcDb2dVertex
 10
-60.367159
 20
-53.379214
 30
0.0
  0
VERTEX
  5
16F
100
AcDbEntity
  8
ALPHA
 62
     7
100
AcDbVertex
100
AcDb2dVertex
 10
-60.363025
 20
-50.62865
 30
0.0
  0
VERTEX
  5
170
100
AcDbEntity
  8
ALPHA
 62
     7
100
AcDbVertex
100
AcDb2dVertex
 10
-57.356146
 20
-50.62865
 30
0.0
  0
VERTEX
  5
171
100
AcDbEntity
  8
ALPHA
 62
     7
100
AcDbVertex
100
AcDb2dVertex
 10
-57.356146
 20
-45.112363
 30
0.0
  0
VERTEX
  5
172
100
AcDbEntity
  8
ALPHA
 62
     7
100
AcDbVertex
100
AcDb2dVertex
 10
-60.363025
 20
-45.112363
 30
0.0
  0
SEQEND
  5
173
100
AcDbEntity
  8
ALPHA
 62
     7
  0
POLYLINE
  5
174
100
AcDbEntity
  8
ALPHA
 62
     7
100
AcDb2dPolyline
 66
     1
 10
0.0
 20
0.0
 30
0.0
 70
     1
  0
VERTEX
  5
175
100
AcDbEntity
  8
ALPHA
 62
     7
100
AcDbVertex
100
AcDb2dVertex
 10
-47.307664
 20
-66.438882
 30
0.0
  0
VERTEX
  5
176
100
AcDbEntity
  8
ALPHA
 62
     7
100
AcDbVertex
100
AcDb2dVertex
 10
-41.795511
 20
-70.444839
 30
0.0
  0
VERTEX
  5
177
100
AcDbEntity
  8
ALPHA
 62
     7
100
AcDbVertex
100
AcDb2dVertex
 10
-41.795511
 20
-70.444839
 30
0.0
  0
VERTEX
  5
178
100
AcDbEntity
  8
ALPHA
 62
     7
100
AcDbVertex
100
AcDb2dVertex
 10
-36.28198
 20
-66.438882
 30
0.0
  0
VERTEX
  5
179
100
AcDbEntity
  8
ALPHA
 62
     7
100
AcDbVertex
100
AcDb2dVertex
 10
-39.032544
 20
-66.429236
 30
0.0
  0
VERTEX
  5
17A
100
AcDbEntity
  8
ALPHA
 62
     7
100
AcDbVertex
100
AcDb2dVertex
 10
-39.032544
 20
-63.422356
 30
0.0
  0
VERTEX
  5
17B
100
AcDbEntity
  8
ALPHA
 62
     7
100
AcDbVertex
100
AcDb2dVertex
 10
-44.544697
 20
-63.422356
 30
0.0
  0
VERTEX
  5
17C
100
AcDbEntity
  8
ALPHA
 62
     7
100
AcDbVertex
100
AcDb2dVertex
 10
-44.544697
 20
-66.429236
 30
0.0
  0
SEQEND
  5
17D
100
AcDbEntity
  8
ALPHA
 62
     7
  0
SPLINE
  5
17E
100
AcDbEntity
  8
ALPHA
 62
     7
100
AcDbSpline
210
0.0
220
0.0
230
-1.0
 70
     8
 71
     3
 72
    17
 73
    13
 74
     0
 42
0.0000001
 43
0.0000001
 40
0.0
 40
0.0
 40
0.0
 40
0.0
 40
1.0
 40
1.0
 40
1.0
 40
2.0
 40
2.0
 40
2.0
 40
3.0
 40
3.0
 40
3.0
 40
4.0
 40
4.0
 40
4.0
 40
4.0
 10
-48.39906989203559
 20
-38.33792690700954
 30
0.0
 10
-48.39906989203559
 20
-38.33792690700954
 30
0.0
 10
-48.39906989203559
 20
-34.95759921603732
 30
0.0
 10
-48.39906989203559
 20
-34.95759921603732
 30
0.0
 10
-48.39906989203559
 20
-34.95759921603732
 30
0.0
 10
-48.40320400661892
 20
-34.95346510145399
 30
0.0
 10
-48.40320400661892
 20
-34.95346510145399
 30
0.0
 10
-49.89975348578559
 20
-33.34667256673176
 30
0.0
 10
-50.81614888509114
 20
-31.18590867784288
 30
0.0
 10
-50.81614888509114
 20
-28.81017083062065
 30
0.0
 10
-50.81614888509114
 20
-24.42525329589843
 30
0.0
 10
-47.6893802218967
 20
-20.76931796603732
 30
0.0
 10
-43.54010721842447
 20
-19.95903150770399
 30
0.0
  0
SPLINE
  5
17F
100
AcDbEntity
  8
ALPHA
 62
     7
100
AcDbSpline
210
0.0
220
0.0
230
1.0
 70
     8
 71
     3
 72
    17
 73
    13
 74
     0
 42
0.0000001
 43
0.0000001
 40
0.0
 40
0.0
 40
0.0
 40
0.0
 40
1.0
 40
1.0
 40
1.0
 40
2.0
 40
2.0
 40
2.0
 40
3.0
 40
3.0
 40
3.0
 40
4.0
 40
4.0
 40
4.0
 40
4.0
 10
-40.0495364718967
 20
-19.95903150770399
 30
0.0
 10
-35.9043975830078
 20
-20.76931796603732
 30
0.0
 10
-32.77349480523003
 20
-24.42525329589843
 30
0.0
 10
-32.77349480523003
 20
-28.81017083062065
 30
0.0
 10
-32.77349480523003
 20
-31.28237135145399
 30
0.0
 10
-33.76292622884114
 20
-33.51617126464843
 30
0.0
 10
-35.37109680175781
 20
-35.14639044867621
 30
0.0
 10
-35.37109680175781
 20
-35.14639044867621
 30
0.0
 10
-35.36558464898003
 20
-35.15603671603732
 30
0.0
 10
-35.36558464898003
 20
-35.15603671603732
 30
0.0
 10
-35.36558464898003
 20
-35.15603671603732
 30
0.0
 10
-35.36558464898003
 20
-38.33792690700954
 30
0.0
 10
-35.36558464898003
 20
-38.33792690700954
 30
0.0
  0
SPLINE
  5
180
100
AcDbEntity
  8
ALPHA
 62
     7
100
AcDbSpline
210
0.0
220
0.0
230
-1.0
 70
     8
 71
     3
 72
    17
 73
    13
 74
     0
 42
0.0000001
 43
0.0000001
 40
0.0
 40
0.0
 40
0.0
 40
0.0
 40
1.0
 40
1.0
 40
1.0
 40
2.0
 40
2.0
 40
2.0
 40
3.0
 40
3.0
 40
3.0
 40
4.0
 40
4.0
 40
4.0
 40
4.0
 10
-32.35870530870225
 20
-41.3503184000651
 30
0.0
 10
-32.35870530870225
 20
-41.3503184000651
 30
0.0
 10
-28.9742435031467
 20
-41.3503184000651
 30
0.0
 10
-28.9742435031467
 20
-41.3503184000651
 30
0.0
 10
-28.9742435031467
 20
-41.3503184000651
 30
0.0
 10
-28.9742435031467
 20
-41.34480624728732
 30
0.0
 10
-28.9742435031467
 20
-41.34480624728732
 30
0.0
 10
-27.3619388156467
 20
-39.84825676812065
 30
0.0
 10
-25.20255296495225
 20
-38.9318613688151
 30
0.0
 10
-22.83094923231336
 20
-38.9318613688151
 30
0.0
 10
-18.44740973578558
 20
-38.9318613688151
 30
0.0
 10
-14.79009636773003
 20
-42.05863003200954
 30
0.0
 10
-13.9798099093967
 20
-46.20790303548176
 30
0.0
  0
SPLINE
  5
181
100
AcDbEntity
  8
ALPHA
 62
     7
100
AcDbSpline
210
0.0
220
0.0
230
1.0
 70
     8
 71
     3
 72
    17
 73
    13
 74
     0
 42
0.0000001
 43
0.0000001
 40
0.0
 40
0.0
 40
0.0
 40
0.0
 40
1.0
 40
1.0
 40
1.0
 40
2.0
 40
2.0
 40
2.0
 40
3.0
 40
3.0
 40
3.0
 40
4.0
 40
4.0
 40
4.0
 40
4.0
 10
-13.9798099093967
 20
-49.69847378200954
 30
0.0
 10
-14.79009636773003
 20
-53.84361267089843
 30
0.0
 10
-18.44740973578558
 20
-56.97589348687065
 30
0.0
 10
-22.83094923231336
 20
-56.97589348687065
 30
0.0
 10
-25.29901563856336
 20
-56.97589348687065
 30
0.0
 10
-27.53694966634114
 20
-55.9850840250651
 30
0.0
 10
-29.16716885036892
 20
-54.37829149034287
 30
0.0
 10
-29.16716885036892
 20
-54.37829149034287
 30
0.0
 10
-29.17681511773003
 20
-54.38242560492621
 30
0.0
 10
-29.17681511773003
 20
-54.38242560492621
 30
0.0
 10
-29.17681511773003
 20
-54.38242560492621
 30
0.0
 10
-32.35870530870225
 20
-54.38242560492621
 30
0.0
 10
-32.35870530870225
 20
-54.38242560492621
 30
0.0
  0
SPLINE
  5
182
100
AcDbEntity
  8
ALPHA
 62
     7
100
AcDbSpline
210
0.0
220
0.0
230
1.0
 70
     8
 71
     3
 72
    17
 73
    13
 74
     0
 42
0.0000001
 43
0.0000001
 40
0.0
 40
0.0
 40
0.0
 40
0.0
 40
1.0
 40
1.0
 40
1.0
 40
2.0
 40
2.0
 40
2.0
 40
3.0
 40
3.0
 40
3.0
 40
4.0
 40
4.0
 40
4.0
 40
4.0
 10
-35.36558464898003
 20
-57.38930494520399
 30
0.0
 10
-35.36558464898003
 20
-57.38930494520399
 30
0.0
 10
-35.36558464898003
 20
-60.77514478895398
 30
0.0
 10
-35.36558464898003
 20
-60.77514478895398
 30
0.0
 10
-35.36558464898003
 20
-60.77514478895398
 30
0.0
 10
-35.36558464898003
 20
-60.77514478895398
 30
0.0
 10
-35.36558464898003
 20
-60.77514478895398
 30
0.0
 10
-33.86490105523003
 20
-62.38607143825954
 30
0.0
 10
-32.94850565592447
 20
-64.54683532714843
 30
0.0
 10
-32.94850565592447
 20
-66.91843905978732
 30
0.0
 10
-32.94850565592447
 20
-71.30197855631509
 30
0.0
 10
-36.07940843370225
 20
-74.95791388617622
 30
0.0
 10
-40.22868143717447
 20
-75.76957838270399
 30
0.0
  0
SPLINE
  5
183
100
AcDbEntity
  8
ALPHA
 62
     7
100
AcDbSpline
210
0.0
220
0.0
230
-1.0
 70
     8
 71
     3
 72
    17
 73
    13
 74
     0
 42
0.0000001
 43
0.0000001
 40
0.0
 40
0.0
 40
0.0
 40
0.0
 40
1.0
 40
1.0
 40
1.0
 40
2.0
 40
2.0
 40
2.0
 40
3.0
 40
3.0
 40
3.0
 40
4.0
 40
4.0
 40
4.0
 40
4.0
 10
-43.71511806911892
 20
-75.76957838270399
 30
0.0
 10
-47.86439107259114
 20
-74.95791388617622
 30
0.0
 10
-50.99667188856336
 20
-71.30197855631509
 30
0.0
 10
-50.99667188856336
 20
-66.91843905978732
 30
0.0
 10
-50.99667188856336
 20
-64.44899461534287
 30
0.0
 10
-50.00172831217447
 20
-62.2110605875651
 30
0.0
 10
-48.39493577745225
 20
-60.58084140353732
 30
0.0
 10
-48.39493577745225
 20
-60.58084140353732
 30
0.0
 10
-48.39906989203559
 20
-60.57257317437065
 30
0.0
 10
-48.39906989203559
 20
-60.57257317437065
 30
0.0
 10
-48.39906989203559
 20
-60.57257317437065
 30
0.0
 10
-48.39906989203559
 20
-57.38930494520399
 30
0.0
 10
-48.39906989203559
 20
-57.38930494520399
 30
0.0
  0
SPLINE
  5
184
100
AcDbEntity
  8
ALPHA
 62
     7
100
AcDbSpline
210
0.0
220
0.0
230
1.0
 70
     8
 71
     3
 72
    17
 73
    13
 74
     0
 42
0.0000001
 43
0.0000001
 40
0.0
 40
0.0
 40
0.0
 40
0.0
 40
1.0
 40
1.0
 40
1.0
 40
2.0
 40
2.0
 40
2.0
 40
3.0
 40
3.0
 40
3.0
 40
4.0
 40
4.0
 40
4.0
 40
4.0
 10
-51.4100833468967
 20
-54.38242560492621
 30
0.0
 10
-51.4100833468967
 20
-54.38242560492621
 30
0.0
 10
-54.79023878309462
 20
-54.38242560492621
 30
0.0
 10
-54.79023878309462
 20
-54.38242560492621
 30
0.0
 10
-54.79023878309462
 20
-54.38242560492621
 30
0.0
 10
-54.79575093587239
 20
-54.38242560492621
 30
0.0
 10
-54.79575093587239
 20
-54.38242560492621
 30
0.0
 10
-56.40254347059461
 20
-55.88448723687065
 30
0.0
 10
-58.56192932128905
 20
-56.80088263617621
 30
0.0
 10
-60.93904520670572
 20
-56.80088263617621
 30
0.0
 10
-65.3225847032335
 20
-56.80088263617621
 30
0.0
 10
-68.97989807128905
 20
-53.66860182020399
 30
0.0
 10
-69.7901845296224
 20
-49.51932881673176
 30
0.0
  0
SPLINE
  5
185
100
AcDbEntity
  8
ALPHA
 62
     7
100
AcDbSpline
210
0.0
220
0.0
230
-1.0
 70
     8
 71
     3
 72
    17
 73
    13
 74
     0
 42
0.0000001
 43
0.0000001
 40
0.0
 40
0.0
 40
0.0
 40
0.0
 40
1.0
 40
1.0
 40
1.0
 40
2.0
 40
2.0
 40
2.0
 40
3.0
 40
3.0
 40
3.0
 40
4.0
 40
4.0
 40
4.0
 40
4.0
 10
-69.7901845296224
 20
-46.03289218478732
 30
0.0
 10
-68.97989807128905
 20
-41.88361918131509
 30
0.0
 10
-65.3225847032335
 20
-38.75271640353732
 30
0.0
 10
-60.93904520670572
 20
-38.75271640353732
 30
0.0
 10
-58.46546664767794
 20
-38.75271640353732
 30
0.0
 10
-56.2316667344835
 20
-39.74765997992621
 30
0.0
 10
-54.60161980523003
 20
-41.35445251464843
 30
0.0
 10
-54.60161980523003
 20
-41.35445251464843
 30
0.0
 10
-54.59335157606336
 20
-41.3503184000651
 30
0.0
 10
-54.59335157606336
 20
-41.3503184000651
 30
0.0
 10
-54.59335157606336
 20
-41.3503184000651
 30
0.0
 10
-51.4100833468967
 20
-41.3503184000651
 30
0.0
 10
-51.4100833468967
 20
-41.3503184000651
 30
0.0
  0
SPLINE
  5
186
100
AcDbEntity
  8
ALPHA
 62
     7
100
AcDbSpline
210
0.0
220
0.0
230
-1.0
 70
    11
 71
     3
 72
    29
 73
    25
 74
     0
 42
0.0000001
 43
0.0000001
 40
0.0
 40
0.0
 40
0.0
 40
0.0
 40
1.0
 40
1.0
 40
1.0
 40
2.0
 40
2.0
 40
2.0
 40
3.0
 40
3.0
 40
3.0
 40
4.0
 40
4.0
 40
4.0
 40
5.0
 40
5.0
 40
5.0
 40
6.0
 40
6.0
 40
6.0
 40
7.0
 40
7.0
 40
7.0
 40
8.0
 40
8.0
 40
8.0
 40
8.0
 10
-16.60497266981336
 20
-72.66485833062064
 30
0.0
 10
-16.05237935384114
 20
-72.66485833062064
 30
0.0
 10
-15.60589497884114
 20
-72.21837395562065
 30
0.0
 10
-15.60589497884114
 20
-71.66578063964843
 30
0.0
 10
-15.60589497884114
 20
-71.66578063964843
 30
0.0
 10
-15.60589497884114
 20
-64.64743211534288
 30
0.0
 10
-15.60589497884114
 20
-64.64743211534288
 30
0.0
 10
-15.60589497884114
 20
-64.09483879937065
 30
0.0
 10
-16.05237935384114
 20
-63.64422030978732
 30
0.0
 10
-16.60497266981336
 20
-63.64422030978732
 30
0.0
 10
-16.60497266981336
 20
-63.64422030978732
 30
0.0
 10
-28.63386806911892
 20
-63.64422030978732
 30
0.0
 10
-28.63386806911892
 20
-63.64422030978732
 30
0.0
 10
-29.19059549967447
 20
-63.64422030978732
 30
0.0
 10
-29.63707987467447
 20
-64.09483879937065
 30
0.0
 10
-29.63707987467447
 20
-64.64743211534288
 30
0.0
 10
-29.63707987467447
 20
-64.64743211534288
 30
0.0
 10
-29.63707987467447
 20
-71.66578063964843
 30
0.0
 10
-29.63707987467447
 20
-71.66578063964843
 30
0.0
 10
-29.63707987467447
 20
-72.21837395562065
 30
0.0
 10
-29.19059549967447
 20
-72.66485833062064
 30
0.0
 10
-28.63386806911892
 20
-72.66485833062064
 30
0.0
 10
-28.63386806911892
 20
-72.66485833062064
 30
0.0
 10
-16.60497266981336
 20
-72.66485833062064
 30
0.0
 10
-16.60497266981336
 20
-72.66485833062064
 30
0.0
  0
SPLINE
  5
187
100
AcDbEntity
  8
ALPHA
 62
     7
100
AcDbSpline
210
0.0
220
0.0
230
1.0
 70
     8
 71
     3
 72
    32
 73
    28
 74
     0
 42
0.0000001
 43
0.0000001
 40
0.0
 40
0.0
 40
0.0
 40
0.0
 40
1.0
 40
1.0
 40
1.0
 40
2.0
 40
2.0
 40
2.0
 40
3.0
 40
3.0
 40
3.0
 40
4.0
 40
4.0
 40
4.0
 40
5.0
 40
5.0
 40
5.0
 40
6.0
 40
6.0
 40
6.0
 40
7.0
 40
7.0
 40
7.0
 40
8.0
 40
8.0
 40
8.0
 40
9.0
 40
9.0
 40
9.0
 40
9.0
 10
-109.2930274115668
 20
44.47682868109808
 30
0.0
 10
-109.2930274115668
 20
44.47682868109808
 30
0.0
 10
-108.5419965955946
 20
44.47682868109808
 30
0.0
 10
-108.5419965955946
 20
44.47682868109808
 30
0.0
 10
-107.7137956407334
 20
44.47682868109808
 30
0.0
 10
-107.0413130018446
 20
45.14931131998697
 30
0.0
 10
-107.0413130018446
 20
45.98302442762586
 30
0.0
 10
-107.0413130018446
 20
45.98302442762586
 30
0.0
 10
-107.0413130018446
 20
49.49150967068142
 30
0.0
 10
-107.0413130018446
 20
49.49150967068142
 30
0.0
 10
-107.0413130018446
 20
50.32246670193142
 30
0.0
 10
-107.7137956407334
 20
50.99494934082031
 30
0.0
 10
-108.5419965955946
 20
50.99494934082031
 30
0.0
 10
-108.5419965955946
 20
50.99494934082031
 30
0.0
 10
-115.5603451199001
 20
50.99494934082031
 30
0.0
 10
-115.5603451199001
 20
50.99494934082031
 30
0.0
 10
-116.3899241129557
 20
50.99494934082031
 30
0.0
 10
-117.0624067518446
 20
50.32246670193142
 30
0.0
 10
-117.0624067518446
 20
49.49150967068142
 30
0.0
 10
-117.0624067518446
 20
49.49150967068142
 30
0.0
 10
-117.0624067518446
 20
45.98302442762586
 30
0.0
 10
-117.0624067518446
 20
45.98302442762586
 30
0.0
 10
-117.0624067518446
 20
45.14931131998697
 30
0.0
 10
-116.3899241129557
 20
44.47682868109808
 30
0.0
 10
-115.5603451199001
 20
44.47682868109808
 30
0.0
 10
-115.5603451199001
 20
44.47682868109808
 30
0.0
 10
-114.8106923421223
 20
44.47682868109808
 30
0.0
 10
-114.8106923421223
 20
44.47682868109808
 30
0.0
  0
SPLINE
  5
188
100
AcDbEntity
  8
ALPHA
 62
     7
100
AcDbSpline
210
0.0
220
0.0
230
-1.0
 70
     8
 71
     3
 72
    20
 73
    16
 74
     0
 42
0.0000001
 43
0.0000001
 40
0.0
 40
0.0
 40
0.0
 40
0.0
 40
1.0
 40
1.0
 40
1.0
 40
2.0
 40
2.0
 40
2.0
 40
3.0
 40
3.0
 40
3.0
 40
4.0
 40
4.0
 40
4.0
 40
5.0
 40
5.0
 40
5.0
 40
5.0
 10
-109.2930274115668
 20
42.47316114637587
 30
0.0
 10
-109.2930274115668
 20
42.47316114637587
 30
0.0
 10
-109.2930274115668
 20
45.23199361165364
 30
0.0
 10
-109.2930274115668
 20
45.23199361165364
 30
0.0
 10
-109.2930274115668
 20
46.75610385470919
 30
0.0
 10
-110.527749633789
 20
47.99082607693142
 30
0.0
 10
-112.0518598768446
 20
47.99082607693142
 30
0.0
 10
-112.0518598768446
 20
47.99082607693142
 30
0.0
 10
-112.0518598768446
 20
47.99082607693142
 30
0.0
 10
-112.0518598768446
 20
47.99082607693142
 30
0.0
 10
-113.5759701199001
 20
47.99082607693142
 30
0.0
 10
-114.8106923421223
 20
46.75610385470919
 30
0.0
 10
-114.8106923421223
 20
45.23199361165364
 30
0.0
 10
-114.8106923421223
 20
45.23199361165364
 30
0.0
 10
-114.8106923421223
 20
42.47316114637587
 30
0.0
 10
-114.8106923421223
 20
42.47316114637587
 30
0.0
  0
SPLINE
  5
189
100
AcDbEntity
  8
ALPHA
 62
     7
100
AcDbSpline
210
0.0
220
0.0
230
-1.0
 70
    11
 71
     3
 72
    29
 73
    25
 74
     0
 42
0.0000001
 43
0.0000001
 40
0.0
 40
0.0
 40
0.0
 40
0.0
 40
1.0
 40
1.0
 40
1.0
 40
2.0
 40
2.0
 40
2.0
 40
3.0
 40
3.0
 40
3.0
 40
4.0
 40
4.0
 40
4.0
 40
5.0
 40
5.0
 40
5.0
 40
6.0
 40
6.0
 40
6.0
 40
7.0
 40
7.0
 40
7.0
 40
8.0
 40
8.0
 40
8.0
 40
8.0
 10
-112.0518598768446
 20
43.92423536512587
 30
0.0
 10
-111.3600847032335
 20
43.92423536512587
 30
0.0
 10
-110.7992231580946
 20
44.4864749484592
 30
0.0
 10
-110.7992231580946
 20
45.17687208387586
 30
0.0
 10
-110.7992231580946
 20
45.17687208387586
 30
0.0
 10
-110.7992231580946
 20
46.18146192762586
 30
0.0
 10
-110.7992231580946
 20
46.18146192762586
 30
0.0
 10
-110.7992231580946
 20
46.87185906304253
 30
0.0
 10
-111.3600847032335
 20
47.43409864637587
 30
0.0
 10
-112.0518598768446
 20
47.43409864637587
 30
0.0
 10
-112.0518598768446
 20
47.43409864637587
 30
0.0
 10
-112.0518598768446
 20
47.43409864637587
 30
0.0
 10
-112.0518598768446
 20
47.43409864637587
 30
0.0
 10
-112.7422570122612
 20
47.43409864637587
 30
0.0
 10
-113.3044965955946
 20
46.87185906304253
 30
0.0
 10
-113.3044965955946
 20
46.18146192762586
 30
0.0
 10
-113.3044965955946
 20
46.18146192762586
 30
0.0
 10
-113.3044965955946
 20
45.17687208387586
 30
0.0
 10
-113.3044965955946
 20
45.17687208387586
 30
0.0
 10
-113.3044965955946
 20
44.4864749484592
 30
0.0
 10
-112.7422570122612
 20
43.92423536512587
 30
0.0
 10
-112.0518598768446
 20
43.92423536512587
 30
0.0
 10
-112.0518598768446
 20
43.92423536512587
 30
0.0
 10
-112.0518598768446
 20
43.92423536512587
 30
0.0
 10
-112.0518598768446
 20
43.92423536512587
 30
0.0
  0
SPLINE
  5
18A
100
AcDbEntity
  8
ALPHA
 62
     7
100
AcDbSpline
210
0.0
220
0.0
230
-1.0
 70
     8
 71
     3
 72
    32
 73
    28
 74
     0
 42
0.0000001
 43
0.0000001
 40
0.0
 40
0.0
 40
0.0
 40
0.0
 40
1.0
 40
1.0
 40
1.0
 40
2.0
 40
2.0
 40
2.0
 40
3.0
 40
3.0
 40
3.0
 40
4.0
 40
4.0
 40
4.0
 40
5.0
 40
5.0
 40
5.0
 40
6.0
 40
6.0
 40
6.0
 40
7.0
 40
7.0
 40
7.0
 40
8.0
 40
8.0
 40
8.0
 40
9.0
 40
9.0
 40
9.0
 40
9.0
 10
-127.8207509358723
 20
15.07362772623697
 30
0.0
 10
-127.8207509358723
 20
15.07362772623697
 30
0.0
 10
-127.8207509358723
 20
12.06537034776475
 30
0.0
 10
-127.8207509358723
 20
12.06537034776475
 30
0.0
 10
-127.8207509358723
 20
11.5086429172092
 30
0.0
 10
-127.3742665608723
 20
11.0621585422092
 30
0.0
 10
-126.8189171685112
 20
11.0621585422092
 30
0.0
 10
-126.8189171685112
 20
11.0621585422092
 30
0.0
 10
-112.7835981580946
 20
11.0621585422092
 30
0.0
 10
-112.7835981580946
 20
11.0621585422092
 30
0.0
 10
-112.2310048421223
 20
11.0621585422092
 30
0.0
 10
-111.780386352539
 20
11.5086429172092
 30
0.0
 10
-111.780386352539
 20
12.06537034776475
 30
0.0
 10
-111.780386352539
 20
12.06537034776475
 30
0.0
 10
-111.780386352539
 20
24.09426574707031
 30
0.0
 10
-111.780386352539
 20
24.09426574707031
 30
0.0
 10
-111.780386352539
 20
24.64685906304253
 30
0.0
 10
-112.2310048421223
 20
25.09334343804253
 30
0.0
 10
-112.7835981580946
 20
25.09334343804253
 30
0.0
 10
-112.7835981580946
 20
25.09334343804253
 30
0.0
 10
-126.8189171685112
 20
25.09334343804253
 30
0.0
 10
-126.8189171685112
 20
25.09334343804253
 30
0.0
 10
-127.3742665608723
 20
25.09334343804253
 30
0.0
 10
-127.8207509358723
 20
24.64685906304253
 30
0.0
 10
-127.8207509358723
 20
24.09426574707031
 30
0.0
 10
-127.8207509358723
 20
24.09426574707031
 30
0.0
 10
-127.8207509358723
 20
21.08738640679253
 30
0.0
 10
-127.8207509358723
 20
21.08738640679253
 30
0.0
  0
SPLINE
  5
18B
100
AcDbEntity
  8
ALPHA
 62
     7
100
AcDbSpline
210
0.0
220
0.0
230
1.0
 70
    11
 71
     3
 72
    26
 73
    22
 74
     0
 42
0.0000001
 43
0.0000001
 40
0.0
 40
0.0
 40
0.0
 40
0.0
 40
1.0
 40
1.0
 40
1.0
 40
2.0
 40
2.0
 40
2.0
 40
3.0
 40
3.0
 40
3.0
 40
4.0
 40
4.0
 40
4.0
 40
5.0
 40
5.0
 40
5.0
 40
6.0
 40
6.0
 40
6.0
 40
7.0
 40
7.0
 40
7.0
 40
7.0
 10
-124.8083594428168
 20
18.08050706651475
 30
0.0
 10
-124.8083594428168
 20
18.08050706651475
 30
0.0
 10
-127.816616821289
 20
21.08738640679253
 30
0.0
 10
-127.816616821289
 20
21.08738640679253
 30
0.0
 10
-127.816616821289
 20
21.08738640679253
 30
0.0
 10
-132.8285417344835
 20
21.08738640679253
 30
0.0
 10
-132.8285417344835
 20
21.08738640679253
 30
0.0
 10
-134.489077758789
 20
21.08738640679253
 30
0.0
 10
-135.8367991129556
 20
19.73828701443142
 30
0.0
 10
-135.8367991129556
 20
18.08050706651475
 30
0.0
 10
-135.8367991129556
 20
18.08050706651475
 30
0.0
 10
-135.8367991129556
 20
18.08050706651475
 30
0.0
 10
-135.8367991129556
 20
18.08050706651475
 30
0.0
 10
-135.8367991129556
 20
16.41721496582031
 30
0.0
 10
-134.489077758789
 20
15.07362772623697
 30
0.0
 10
-132.8285417344835
 20
15.07362772623697
 30
0.0
 10
-132.8285417344835
 20
15.07362772623697
 30
0.0
 10
-127.816616821289
 20
15.07362772623697
 30
0.0
 10
-127.816616821289
 20
15.07362772623697
 30
0.0
 10
-127.816616821289
 20
15.07362772623697
 30
0.0
 10
-124.8083594428168
 20
18.08050706651475
 30
0.0
 10
-124.8083594428168
 20
18.08050706651475
 30
0.0
  0
SPLINE
  5
18C
100
AcDbEntity
  8
ALPHA
 62
     7
100
AcDbSpline
210
0.0
220
0.0
230
-1.0
 70
     8
 71
     3
 72
    32
 73
    28
 74
     0
 42
0.0000001
 43
0.0000001
 40
0.0
 40
0.0
 40
0.0
 40
0.0
 40
1.0
 40
1.0
 40
1.0
 40
2.0
 40
2.0
 40
2.0
 40
3.0
 40
3.0
 40
3.0
 40
4.0
 40
4.0
 40
4.0
 40
5.0
 40
5.0
 40
5.0
 40
6.0
 40
6.0
 40
6.0
 40
7.0
 40
7.0
 40
7.0
 40
8.0
 40
8.0
 40
8.0
 40
9.0
 40
9.0
 40
9.0
 40
9.0
 10
-127.8207509358723
 20
-4.024775865342881
 30
0.0
 10
-127.8207509358723
 20
-4.024775865342881
 30
0.0
 10
-127.8207509358723
 20
-7.031655205620658
 30
0.0
 10
-127.8207509358723
 20
-7.031655205620658
 30
0.0
 10
-127.8207509358723
 20
-7.589760674370658
 30
0.0
 10
-127.3742665608723
 20
-8.036245049370659
 30
0.0
 10
-126.8189171685112
 20
-8.036245049370659
 30
0.0
 10
-126.8189171685112
 20
-8.036245049370659
 30
0.0
 10
-112.7835981580946
 20
-8.036245049370659
 30
0.0
 10
-112.7835981580946
 20
-8.036245049370659
 30
0.0
 10
-112.2310048421223
 20
-8.036245049370659
 30
0.0
 10
-111.780386352539
 20
-7.589760674370658
 30
0.0
 10
-111.780386352539
 20
-7.031655205620658
 30
0.0
 10
-111.780386352539
 20
-7.031655205620658
 30
0.0
 10
-111.780386352539
 20
4.997240193684895
 30
0.0
 10
-111.780386352539
 20
4.997240193684895
 30
0.0
 10
-111.780386352539
 20
5.549833509657117
 30
0.0
 10
-112.2310048421223
 20
5.996317884657117
 30
0.0
 10
-112.7835981580946
 20
5.996317884657117
 30
0.0
 10
-112.7835981580946
 20
5.996317884657117
 30
0.0
 10
-126.8189171685112
 20
5.996317884657117
 30
0.0
 10
-126.8189171685112
 20
5.996317884657117
 30
0.0
 10
-127.3742665608723
 20
5.996317884657117
 30
0.0
 10
-127.8207509358723
 20
5.549833509657117
 30
0.0
 10
-127.8207509358723
 20
4.997240193684895
 30
0.0
 10
-127.8207509358723
 20
4.997240193684895
 30
0.0
 10
-127.8207509358723
 20
1.988982815212673
 30
0.0
 10
-127.8207509358723
 20
1.988982815212673
 30
0.0
  0
SPLINE
  5
18D
100
AcDbEntity
  8
ALPHA
 62
     7
100
AcDbSpline
210
0.0
220
0.0
230
1.0
 70
    11
 71
     3
 72
    26
 73
    22
 74
     0
 42
0.0000001
 43
0.0000001
 40
0.0
 40
0.0
 40
0.0
 40
0.0
 40
1.0
 40
1.0
 40
1.0
 40
2.0
 40
2.0
 40
2.0
 40
3.0
 40
3.0
 40
3.0
 40
4.0
 40
4.0
 40
4.0
 40
5.0
 40
5.0
 40
5.0
 40
6.0
 40
6.0
 40
6.0
 40
7.0
 40
7.0
 40
7.0
 40
7.0
 10
-124.8083594428168
 20
-1.017896525065103
 30
0.0
 10
-124.8083594428168
 20
-1.017896525065103
 30
0.0
 10
-127.816616821289
 20
1.988982815212673
 30
0.0
 10
-127.816616821289
 20
1.988982815212673
 30
0.0
 10
-127.816616821289
 20
1.988982815212673
 30
0.0
 10
-132.8285417344835
 20
1.988982815212673
 30
0.0
 10
-132.8285417344835
 20
1.988982815212673
 30
0.0
 10
-134.489077758789
 20
1.988982815212673
 30
0.0
 10
-135.8367991129556
 20
0.6398834228515625
 30
0.0
 10
-135.8367991129556
 20
-1.017896525065103
 30
0.0
 10
-135.8367991129556
 20
-1.017896525065103
 30
0.0
 10
-135.8367991129556
 20
-1.017896525065103
 30
0.0
 10
-135.8367991129556
 20
-1.017896525065103
 30
0.0
 10
-135.8367991129556
 20
-2.679810587565103
 30
0.0
 10
-134.489077758789
 20
-4.024775865342881
 30
0.0
 10
-132.8285417344835
 20
-4.024775865342881
 30
0.0
 10
-132.8285417344835
 20
-4.024775865342881
 30
0.0
 10
-127.816616821289
 20
-4.024775865342881
 30
0.0
 10
-127.816616821289
 20
-4.024775865342881
 30
0.0
 10
-127.816616821289
 20
-4.024775865342881
 30
0.0
 10
-124.8083594428168
 20
-1.017896525065103
 30
0.0
 10
-124.8083594428168
 20
-1.017896525065103
 30
0.0
  0
SPLINE
  5
18E
100
AcDbEntity
  8
ALPHA
 62
     7
100
AcDbSpline
210
0.0
220
0.0
230
-1.0
 70
     8
 71
     3
 72
    32
 73
    28
 74
     0
 42
0.0000001
 43
0.0000001
 40
0.0
 40
0.0
 40
0.0
 40
0.0
 40
1.0
 40
1.0
 40
1.0
 40
2.0
 40
2.0
 40
2.0
 40
3.0
 40
3.0
 40
3.0
 40
4.0
 40
4.0
 40
4.0
 40
5.0
 40
5.0
 40
5.0
 40
6.0
 40
6.0
 40
6.0
 40
7.0
 40
7.0
 40
7.0
 40
8.0
 40
8.0
 40
8.0
 40
9.0
 40
9.0
 40
9.0
 40
9.0
 10
-127.8207509358723
 20
-23.12300720214843
 30
0.0
 10
-127.8207509358723
 20
-23.12300720214843
 30
0.0
 10
-127.8207509358723
 20
-26.12988654242621
 30
0.0
 10
-127.8207509358723
 20
-26.12988654242621
 30
0.0
 10
-127.8207509358723
 20
-26.68661397298176
 30
0.0
 10
-127.3742665608723
 20
-27.13309834798177
 30
0.0
 10
-126.8189171685112
 20
-27.13309834798177
 30
0.0
 10
-126.8189171685112
 20
-27.13309834798177
 30
0.0
 10
-112.7835981580946
 20
-27.13309834798177
 30
0.0
 10
-112.7835981580946
 20
-27.13309834798177
 30
0.0
 10
-112.2310048421223
 20
-27.13309834798177
 30
0.0
 10
-111.780386352539
 20
-26.68661397298176
 30
0.0
 10
-111.780386352539
 20
-26.12988654242621
 30
0.0
 10
-111.780386352539
 20
-26.12988654242621
 30
0.0
 10
-111.780386352539
 20
-14.10099114312066
 30
0.0
 10
-111.780386352539
 20
-14.10099114312066
 30
0.0
 10
-111.780386352539
 20
-13.54839782714843
 30
0.0
 10
-112.2310048421223
 20
-13.10191345214843
 30
0.0
 10
-112.7835981580946
 20
-13.10191345214843
 30
0.0
 10
-112.7835981580946
 20
-13.10191345214843
 30
0.0
 10
-126.8189171685112
 20
-13.10191345214843
 30
0.0
 10
-126.8189171685112
 20
-13.10191345214843
 30
0.0
 10
-127.3742665608723
 20
-13.10191345214843
 30
0.0
 10
-127.8207509358723
 20
-13.54839782714843
 30
0.0
 10
-127.8207509358723
 20
-14.10099114312066
 30
0.0
 10
-127.8207509358723
 20
-14.10099114312066
 30
0.0
 10
-127.8207509358723
 20
-17.10787048339843
 30
0.0
 10
-127.8207509358723
 20
-17.10787048339843
 30
0.0
  0
SPLINE
  5
18F
100
AcDbEntity
  8
ALPHA
 62
     7
100
AcDbSpline
210
0.0
220
0.0
230
1.0
 70
    11
 71
     3
 72
    26
 73
    22
 74
     0
 42
0.0000001
 43
0.0000001
 40
0.0
 40
0.0
 40
0.0
 40
0.0
 40
1.0
 40
1.0
 40
1.0
 40
2.0
 40
2.0
 40
2.0
 40
3.0
 40
3.0
 40
3.0
 40
4.0
 40
4.0
 40
4.0
 40
5.0
 40
5.0
 40
5.0
 40
6.0
 40
6.0
 40
6.0
 40
7.0
 40
7.0
 40
7.0
 40
7.0
 10
-124.8083594428168
 20
-20.11474982367621
 30
0.0
 10
-124.8083594428168
 20
-20.11474982367621
 30
0.0
 10
-127.816616821289
 20
-17.10787048339843
 30
0.0
 10
-127.816616821289
 20
-17.10787048339843
 30
0.0
 10
-127.816616821289
 20
-17.10787048339843
 30
0.0
 10
-132.8285417344835
 20
-17.10787048339843
 30
0.0
 10
-132.8285417344835
 20
-17.10787048339843
 30
0.0
 10
-134.489077758789
 20
-17.10787048339843
 30
0.0
 10
-135.8367991129556
 20
-18.45696987575954
 30
0.0
 10
-135.8367991129556
 20
-20.11474982367621
 30
0.0
 10
-135.8367991129556
 20
-20.11474982367621
 30
0.0
 10
-135.8367991129556
 20
-20.11474982367621
 30
0.0
 10
-135.8367991129556
 20
-20.11474982367621
 30
0.0
 10
-135.8367991129556
 20
-21.77804192437065
 30
0.0
 10
-134.489077758789
 20
-23.12300720214843
 30
0.0
 10
-132.8285417344835
 20
-23.12300720214843
 30
0.0
 10
-132.8285417344835
 20
-23.12300720214843
 30
0.0
 10
-127.816616821289
 20
-23.12300720214843
 30
0.0
 10
-127.816616821289
 20
-23.12300720214843
 30
0.0
 10
-127.816616821289
 20
-23.12300720214843
 30
0.0
 10
-124.8083594428168
 20
-20.11474982367621
 30
0.0
 10
-124.8083594428168
 20
-20.11474982367621
 30
0.0
  0
SPLINE
  5
190
100
AcDbEntity
  8
ALPHA
 62
     7
100
AcDbSpline
210
0.0
220
0.0
230
-1.0
 70
     8
 71
     3
 72
    32
 73
    28
 74
     0
 42
0.0000001
 43
0.0000001
 40
0.0
 40
0.0
 40
0.0
 40
0.0
 40
1.0
 40
1.0
 40
1.0
 40
2.0
 40
2.0
 40
2.0
 40
3.0
 40
3.0
 40
3.0
 40
4.0
 40
4.0
 40
4.0
 40
5.0
 40
5.0
 40
5.0
 40
6.0
 40
6.0
 40
6.0
 40
7.0
 40
7.0
 40
7.0
 40
8.0
 40
8.0
 40
8.0
 40
9.0
 40
9.0
 40
9.0
 40
9.0
 10
-127.8207509358723
 20
-42.21986050075954
 30
0.0
 10
-127.8207509358723
 20
-42.21986050075954
 30
0.0
 10
-127.8207509358723
 20
-45.22811787923177
 30
0.0
 10
-127.8207509358723
 20
-45.22811787923177
 30
0.0
 10
-127.8207509358723
 20
-45.78484530978732
 30
0.0
 10
-127.3742665608723
 20
-46.23132968478731
 30
0.0
 10
-126.8189171685112
 20
-46.23132968478731
 30
0.0
 10
-126.8189171685112
 20
-46.23132968478731
 30
0.0
 10
-112.7835981580946
 20
-46.23132968478731
 30
0.0
 10
-112.7835981580946
 20
-46.23132968478731
 30
0.0
 10
-112.2310048421223
 20
-46.23132968478731
 30
0.0
 10
-111.780386352539
 20
-45.78484530978732
 30
0.0
 10
-111.780386352539
 20
-45.22811787923177
 30
0.0
 10
-111.780386352539
 20
-45.22811787923177
 30
0.0
 10
-111.780386352539
 20
-33.19922247992621
 30
0.0
 10
-111.780386352539
 20
-33.19922247992621
 30
0.0
 10
-111.780386352539
 20
-32.64662916395399
 30
0.0
 10
-112.2310048421223
 20
-32.19876675075954
 30
0.0
 10
-112.7835981580946
 20
-32.19876675075954
 30
0.0
 10
-112.7835981580946
 20
-32.19876675075954
 30
0.0
 10
-126.8189171685112
 20
-32.19876675075954
 30
0.0
 10
-126.8189171685112
 20
-32.19876675075954
 30
0.0
 10
-127.3742665608723
 20
-32.19876675075954
 30
0.0
 10
-127.8207509358723
 20
-32.64662916395399
 30
0.0
 10
-127.8207509358723
 20
-33.19922247992621
 30
0.0
 10
-127.8207509358723
 20
-33.19922247992621
 30
0.0
 10
-127.8207509358723
 20
-36.20610182020399
 30
0.0
 10
-127.8207509358723
 20
-36.20610182020399
 30
0.0
  0
SPLINE
  5
191
100
AcDbEntity
  8
ALPHA
 62
     7
100
AcDbSpline
210
0.0
220
0.0
230
1.0
 70
    11
 71
     3
 72
    26
 73
    22
 74
     0
 42
0.0000001
 43
0.0000001
 40
0.0
 40
0.0
 40
0.0
 40
0.0
 40
1.0
 40
1.0
 40
1.0
 40
2.0
 40
2.0
 40
2.0
 40
3.0
 40
3.0
 40
3.0
 40
4.0
 40
4.0
 40
4.0
 40
5.0
 40
5.0
 40
5.0
 40
6.0
 40
6.0
 40
6.0
 40
7.0
 40
7.0
 40
7.0
 40
7.0
 10
-124.8083594428168
 20
-39.21298116048177
 30
0.0
 10
-124.8083594428168
 20
-39.21298116048177
 30
0.0
 10
-127.816616821289
 20
-36.20610182020399
 30
0.0
 10
-127.816616821289
 20
-36.20610182020399
 30
0.0
 10
-127.816616821289
 20
-36.20610182020399
 30
0.0
 10
-132.8285417344835
 20
-36.20610182020399
 30
0.0
 10
-132.8285417344835
 20
-36.20610182020399
 30
0.0
 10
-134.489077758789
 20
-36.20610182020399
 30
0.0
 10
-135.8367991129556
 20
-37.5552012125651
 30
0.0
 10
-135.8367991129556
 20
-39.21298116048177
 30
0.0
 10
-135.8367991129556
 20
-39.21298116048177
 30
0.0
 10
-135.8367991129556
 20
-39.21298116048177
 30
0.0
 10
-135.8367991129556
 20
-39.21298116048177
 30
0.0
 10
-135.8367991129556
 20
-40.87489522298176
 30
0.0
 10
-134.489077758789
 20
-42.21986050075954
 30
0.0
 10
-132.8285417344835
 20
-42.21986050075954
 30
0.0
 10
-132.8285417344835
 20
-42.21986050075954
 30
0.0
 10
-127.816616821289
 20
-42.21986050075954
 30
0.0
 10
-127.816616821289
 20
-42.21986050075954
 30
0.0
 10
-127.816616821289
 20
-42.21986050075954
 30
0.0
 10
-124.8083594428168
 20
-39.21298116048177
 30
0.0
 10
-124.8083594428168
 20
-39.21298116048177
 30
0.0
  0
SPLINE
  5
192
100
AcDbEntity
  8
ALPHA
 62
     7
100
AcDbSpline
210
0.0
220
0.0
230
-1.0
 70
     8
 71
     3
 72
    32
 73
    28
 74
     0
 42
0.0000001
 43
0.0000001
 40
0.0
 40
0.0
 40
0.0
 40
0.0
 40
1.0
 40
1.0
 40
1.0
 40
2.0
 40
2.0
 40
2.0
 40
3.0
 40
3.0
 40
3.0
 40
4.0
 40
4.0
 40
4.0
 40
5.0
 40
5.0
 40
5.0
 40
6.0
 40
6.0
 40
6.0
 40
7.0
 40
7.0
 40
7.0
 40
8.0
 40
8.0
 40
8.0
 40
9.0
 40
9.0
 40
9.0
 40
9.0
 10
-127.8207509358723
 20
-61.3180918375651
 30
0.0
 10
-127.8207509358723
 20
-61.3180918375651
 30
0.0
 10
-127.8207509358723
 20
-64.32497117784286
 30
0.0
 10
-127.8207509358723
 20
-64.32497117784286
 30
0.0
 10
-127.8207509358723
 20
-64.88169860839843
 30
0.0
 10
-127.3742665608723
 20
-65.32956102159288
 30
0.0
 10
-126.8189171685112
 20
-65.32956102159288
 30
0.0
 10
-126.8189171685112
 20
-65.32956102159288
 30
0.0
 10
-112.7835981580946
 20
-65.32956102159288
 30
0.0
 10
-112.7835981580946
 20
-65.32956102159288
 30
0.0
 10
-112.2310048421223
 20
-65.32956102159288
 30
0.0
 10
-111.780386352539
 20
-64.88169860839843
 30
0.0
 10
-111.780386352539
 20
-64.32497117784286
 30
0.0
 10
-111.780386352539
 20
-64.32497117784286
 30
0.0
 10
-111.780386352539
 20
-52.29607577853732
 30
0.0
 10
-111.780386352539
 20
-52.29607577853732
 30
0.0
 10
-111.780386352539
 20
-51.7434824625651
 30
0.0
 10
-112.2310048421223
 20
-51.2969980875651
 30
0.0
 10
-112.7835981580946
 20
-51.2969980875651
 30
0.0
 10
-112.7835981580946
 20
-51.2969980875651
 30
0.0
 10
-126.8189171685112
 20
-51.2969980875651
 30
0.0
 10
-126.8189171685112
 20
-51.2969980875651
 30
0.0
 10
-127.3742665608723
 20
-51.2969980875651
 30
0.0
 10
-127.8207509358723
 20
-51.7434824625651
 30
0.0
 10
-127.8207509358723
 20
-52.29607577853732
 30
0.0
 10
-127.8207509358723
 20
-52.29607577853732
 30
0.0
 10
-127.8207509358723
 20
-55.3029551188151
 30
0.0
 10
-127.8207509358723
 20
-55.3029551188151
 30
0.0
  0
SPLINE
  5
193
100
AcDbEntity
  8
ALPHA
 62
     7
100
AcDbSpline
210
0.0
220
0.0
230
1.0
 70
    11
 71
     3
 72
    26
 73
    22
 74
     0
 42
0.0000001
 43
0.0000001
 40
0.0
 40
0.0
 40
0.0
 40
0.0
 40
1.0
 40
1.0
 40
1.0
 40
2.0
 40
2.0
 40
2.0
 40
3.0
 40
3.0
 40
3.0
 40
4.0
 40
4.0
 40
4.0
 40
5.0
 40
5.0
 40
5.0
 40
6.0
 40
6.0
 40
6.0
 40
7.0
 40
7.0
 40
7.0
 40
7.0
 10
-124.8083594428168
 20
-58.31121249728732
 30
0.0
 10
-124.8083594428168
 20
-58.31121249728732
 30
0.0
 10
-127.816616821289
 20
-55.3029551188151
 30
0.0
 10
-127.816616821289
 20
-55.3029551188151
 30
0.0
 10
-127.816616821289
 20
-55.3029551188151
 30
0.0
 10
-132.8285417344835
 20
-55.3029551188151
 30
0.0
 10
-132.8285417344835
 20
-55.3029551188151
 30
0.0
 10
-134.489077758789
 20
-55.3029551188151
 30
0.0
 10
-135.8367991129556
 20
-56.65343254937066
 30
0.0
 10
-135.8367991129556
 20
-58.31121249728732
 30
0.0
 10
-135.8367991129556
 20
-58.31121249728732
 30
0.0
 10
-135.8367991129556
 20
-58.31121249728732
 30
0.0
 10
-135.8367991129556
 20
-58.31121249728732
 30
0.0
 10
-135.8367991129556
 20
-59.97312655978731
 30
0.0
 10
-134.489077758789
 20
-61.3180918375651
 30
0.0
 10
-132.8285417344835
 20
-61.3180918375651
 30
0.0
 10
-132.8285417344835
 20
-61.3180918375651
 30
0.0
 10
-127.816616821289
 20
-61.3180918375651
 30
0.0
 10
-127.816616821289
 20
-61.3180918375651
 30
0.0
 10
-127.816616821289
 20
-61.3180918375651
 30
0.0
 10
-124.8083594428168
 20
-58.31121249728732
 30
0.0
 10
-124.8083594428168
 20
-58.31121249728732
 30
0.0
  0
SPLINE
  5
194
100
AcDbEntity
  8
ALPHA
 62
     7
100
AcDbSpline
210
0.0
220
0.0
230
-1.0
 70
     8
 71
     3
 72
    32
 73
    28
 74
     0
 42
0.0000001
 43
0.0000001
 40
0.0
 40
0.0
 40
0.0
 40
0.0
 40
1.0
 40
1.0
 40
1.0
 40
2.0
 40
2.0
 40
2.0
 40
3.0
 40
3.0
 40
3.0
 40
4.0
 40
4.0
 40
4.0
 40
5.0
 40
5.0
 40
5.0
 40
6.0
 40
6.0
 40
6.0
 40
7.0
 40
7.0
 40
7.0
 40
8.0
 40
8.0
 40
8.0
 40
9.0
 40
9.0
 40
9.0
 40
9.0
 10
-127.8207509358723
 20
-80.41494513617621
 30
0.0
 10
-127.8207509358723
 20
-80.41494513617621
 30
0.0
 10
-127.8207509358723
 20
-83.42320251464842
 30
0.0
 10
-127.8207509358723
 20
-83.42320251464842
 30
0.0
 10
-127.8207509358723
 20
-83.97992994520398
 30
0.0
 10
-127.3742665608723
 20
-84.42641432020399
 30
0.0
 10
-126.8189171685112
 20
-84.42641432020399
 30
0.0
 10
-126.8189171685112
 20
-84.42641432020399
 30
0.0
 10
-112.7835981580946
 20
-84.42641432020399
 30
0.0
 10
-112.7835981580946
 20
-84.42641432020399
 30
0.0
 10
-112.2310048421223
 20
-84.42641432020399
 30
0.0
 10
-111.780386352539
 20
-83.97992994520398
 30
0.0
 10
-111.780386352539
 20
-83.42320251464842
 30
0.0
 10
-111.780386352539
 20
-83.42320251464842
 30
0.0
 10
-111.780386352539
 20
-71.39430711534287
 30
0.0
 10
-111.780386352539
 20
-71.39430711534287
 30
0.0
 10
-111.780386352539
 20
-70.84171379937065
 30
0.0
 10
-112.2310048421223
 20
-70.39522942437065
 30
0.0
 10
-112.7835981580946
 20
-70.39522942437065
 30
0.0
 10
-112.7835981580946
 20
-70.39522942437065
 30
0.0
 10
-126.8189171685112
 20
-70.39522942437065
 30
0.0
 10
-126.8189171685112
 20
-70.39522942437065
 30
0.0
 10
-127.3742665608723
 20
-70.39522942437065
 30
0.0
 10
-127.8207509358723
 20
-70.84171379937065
 30
0.0
 10
-127.8207509358723
 20
-71.39430711534287
 30
0.0
 10
-127.8207509358723
 20
-71.39430711534287
 30
0.0
 10
-127.8207509358723
 20
-74.40118645562065
 30
0.0
 10
-127.8207509358723
 20
-74.40118645562065
 30
0.0
  0
SPLINE
  5
195
100
AcDbEntity
  8
ALPHA
 62
     7
100
AcDbSpline
210
0.0
220
0.0
230
1.0
 70
    11
 71
     3
 72
    26
 73
    22
 74
     0
 42
0.0000001
 43
0.0000001
 40
0.0
 40
0.0
 40
0.0
 40
0.0
 40
1.0
 40
1.0
 40
1.0
 40
2.0
 40
2.0
 40
2.0
 40
3.0
 40
3.0
 40
3.0
 40
4.0
 40
4.0
 40
4.0
 40
5.0
 40
5.0
 40
5.0
 40
6.0
 40
6.0
 40
6.0
 40
7.0
 40
7.0
 40
7.0
 40
7.0
 10
-124.8083594428168
 20
-77.40806579589843
 30
0.0
 10
-124.8083594428168
 20
-77.40806579589843
 30
0.0
 10
-127.816616821289
 20
-74.40118645562065
 30
0.0
 10
-127.816616821289
 20
-74.40118645562065
 30
0.0
 10
-127.816616821289
 20
-74.40118645562065
 30
0.0
 10
-132.8285417344835
 20
-74.40118645562065
 30
0.0
 10
-132.8285417344835
 20
-74.40118645562065
 30
0.0
 10
-134.489077758789
 20
-74.40118645562065
 30
0.0
 10
-135.8367991129556
 20
-75.75028584798175
 30
0.0
 10
-135.8367991129556
 20
-77.40806579589843
 30
0.0
 10
-135.8367991129556
 20
-77.40806579589843
 30
0.0
 10
-135.8367991129556
 20
-77.40806579589843
 30
0.0
 10
-135.8367991129556
 20
-77.40806579589843
 30
0.0
 10
-135.8367991129556
 20
-79.07135789659287
 30
0.0
 10
-134.489077758789
 20
-80.41494513617621
 30
0.0
 10
-132.8285417344835
 20
-80.41494513617621
 30
0.0
 10
-132.8285417344835
 20
-80.41494513617621
 30
0.0
 10
-127.816616821289
 20
-80.41494513617621
 30
0.0
 10
-127.816616821289
 20
-80.41494513617621
 30
0.0
 10
-127.816616821289
 20
-80.41494513617621
 30
0.0
 10
-124.8083594428168
 20
-77.40806579589843
 30
0.0
 10
-124.8083594428168
 20
-77.40806579589843
 30
0.0
  0
SPLINE
  5
196
100
AcDbEntity
  8
ALPHA
 62
     7
100
AcDbSpline
210
0.0
220
0.0
230
-1.0
 70
     8
 71
     3
 72
    32
 73
    28
 74
     0
 42
0.0000001
 43
0.0000001
 40
0.0
 40
0.0
 40
0.0
 40
0.0
 40
1.0
 40
1.0
 40
1.0
 40
2.0
 40
2.0
 40
2.0
 40
3.0
 40
3.0
 40
3.0
 40
4.0
 40
4.0
 40
4.0
 40
5.0
 40
5.0
 40
5.0
 40
6.0
 40
6.0
 40
6.0
 40
7.0
 40
7.0
 40
7.0
 40
8.0
 40
8.0
 40
8.0
 40
9.0
 40
9.0
 40
9.0
 40
9.0
 10
-89.72075093587239
 20
15.07362772623697
 30
0.0
 10
-89.72075093587239
 20
15.07362772623697
 30
0.0
 10
-89.72075093587239
 20
12.06537034776475
 30
0.0
 10
-89.72075093587239
 20
12.06537034776475
 30
0.0
 10
-89.72075093587239
 20
11.5086429172092
 30
0.0
 10
-90.16723531087238
 20
11.0621585422092
 30
0.0
 10
-90.72534077962238
 20
11.0621585422092
 30
0.0
 10
-90.72534077962238
 20
11.0621585422092
 30
0.0
 10
-104.7565256754557
 20
11.0621585422092
 30
0.0
 10
-104.7565256754557
 20
11.0621585422092
 30
0.0
 10
-105.3091189914279
 20
11.0621585422092
 30
0.0
 10
-105.7611155192057
 20
11.5086429172092
 30
0.0
 10
-105.7611155192057
 20
12.06537034776475
 30
0.0
 10
-105.7611155192057
 20
12.06537034776475
 30
0.0
 10
-105.7611155192057
 20
24.09426574707031
 30
0.0
 10
-105.7611155192057
 20
24.09426574707031
 30
0.0
 10
-105.7611155192057
 20
24.64685906304253
 30
0.0
 10
-105.3091189914279
 20
25.09334343804253
 30
0.0
 10
-104.7565256754557
 20
25.09334343804253
 30
0.0
 10
-104.7565256754557
 20
25.09334343804253
 30
0.0
 10
-90.72534077962238
 20
25.09334343804253
 30
0.0
 10
-90.72534077962238
 20
25.09334343804253
 30
0.0
 10
-90.16723531087238
 20
25.09334343804253
 30
0.0
 10
-89.72075093587239
 20
24.64685906304253
 30
0.0
 10
-89.72075093587239
 20
24.09426574707031
 30
0.0
 10
-89.72075093587239
 20
24.09426574707031
 30
0.0
 10
-89.72075093587239
 20
21.08738640679253
 30
0.0
 10
-89.72075093587239
 20
21.08738640679253
 30
0.0
  0
SPLINE
  5
197
100
AcDbEntity
  8
ALPHA
 62
     7
100
AcDbSpline
210
0.0
220
0.0
230
1.0
 70
    11
 71
     3
 72
    26
 73
    22
 74
     0
 42
0.0000001
 43
0.0000001
 40
0.0
 40
0.0
 40
0.0
 40
0.0
 40
1.0
 40
1.0
 40
1.0
 40
2.0
 40
2.0
 40
2.0
 40
3.0
 40
3.0
 40
3.0
 40
4.0
 40
4.0
 40
4.0
 40
5.0
 40
5.0
 40
5.0
 40
6.0
 40
6.0
 40
6.0
 40
7.0
 40
7.0
 40
7.0
 40
7.0
 10
-92.73314242892794
 20
18.08050706651475
 30
0.0
 10
-92.73314242892794
 20
18.08050706651475
 30
0.0
 10
-89.72626308865017
 20
21.08738640679253
 30
0.0
 10
-89.72626308865017
 20
21.08738640679253
 30
0.0
 10
-89.72626308865017
 20
21.08738640679253
 30
0.0
 10
-84.71571621365017
 20
21.08738640679253
 30
0.0
 10
-84.71571621365017
 20
21.08738640679253
 30
0.0
 10
-83.05242411295571
 20
21.08738640679253
 30
0.0
 10
-81.70745883517794
 20
19.73828701443142
 30
0.0
 10
-81.70745883517794
 20
18.08050706651475
 30
0.0
 10
-81.70745883517794
 20
18.08050706651475
 30
0.0
 10
-81.70745883517794
 20
18.08050706651475
 30
0.0
 10
-81.70745883517794
 20
18.08050706651475
 30
0.0
 10
-81.70745883517794
 20
16.41721496582031
 30
0.0
 10
-83.05242411295571
 20
15.07362772623697
 30
0.0
 10
-84.71571621365017
 20
15.07362772623697
 30
0.0
 10
-84.71571621365017
 20
15.07362772623697
 30
0.0
 10
-89.72626308865017
 20
15.07362772623697
 30
0.0
 10
-89.72626308865017
 20
15.07362772623697
 30
0.0
 10
-89.72626308865017
 20
15.07362772623697
 30
0.0
 10
-92.73314242892794
 20
18.08050706651475
 30
0.0
 10
-92.73314242892794
 20
18.08050706651475
 30
0.0
  0
SPLINE
  5
198
100
AcDbEntity
  8
ALPHA
 62
     7
100
AcDbSpline
210
0.0
220
0.0
230
-1.0
 70
     8
 71
     3
 72
    32
 73
    28
 74
     0
 42
0.0000001
 43
0.0000001
 40
0.0
 40
0.0
 40
0.0
 40
0.0
 40
1.0
 40
1.0
 40
1.0
 40
2.0
 40
2.0
 40
2.0
 40
3.0
 40
3.0
 40
3.0
 40
4.0
 40
4.0
 40
4.0
 40
5.0
 40
5.0
 40
5.0
 40
6.0
 40
6.0
 40
6.0
 40
7.0
 40
7.0
 40
7.0
 40
8.0
 40
8.0
 40
8.0
 40
9.0
 40
9.0
 40
9.0
 40
9.0
 10
-89.72075093587239
 20
-4.024775865342881
 30
0.0
 10
-89.72075093587239
 20
-4.024775865342881
 30
0.0
 10
-89.72075093587239
 20
-7.031655205620658
 30
0.0
 10
-89.72075093587239
 20
-7.031655205620658
 30
0.0
 10
-89.72075093587239
 20
-7.589760674370658
 30
0.0
 10
-90.16723531087238
 20
-8.036245049370659
 30
0.0
 10
-90.72534077962238
 20
-8.036245049370659
 30
0.0
 10
-90.72534077962238
 20
-8.036245049370659
 30
0.0
 10
-104.7565256754557
 20
-8.036245049370659
 30
0.0
 10
-104.7565256754557
 20
-8.036245049370659
 30
0.0
 10
-105.3091189914279
 20
-8.036245049370659
 30
0.0
 10
-105.7611155192057
 20
-7.589760674370658
 30
0.0
 10
-105.7611155192057
 20
-7.031655205620658
 30
0.0
 10
-105.7611155192057
 20
-7.031655205620658
 30
0.0
 10
-105.7611155192057
 20
4.997240193684895
 30
0.0
 10
-105.7611155192057
 20
4.997240193684895
 30
0.0
 10
-105.7611155192057
 20
5.549833509657117
 30
0.0
 10
-105.3091189914279
 20
5.996317884657117
 30
0.0
 10
-104.7565256754557
 20
5.996317884657117
 30
0.0
 10
-104.7565256754557
 20
5.996317884657117
 30
0.0
 10
-90.72534077962238
 20
5.996317884657117
 30
0.0
 10
-90.72534077962238
 20
5.996317884657117
 30
0.0
 10
-90.16723531087238
 20
5.996317884657117
 30
0.0
 10
-89.72075093587239
 20
5.549833509657117
 30
0.0
 10
-89.72075093587239
 20
4.997240193684895
 30
0.0
 10
-89.72075093587239
 20
4.997240193684895
 30
0.0
 10
-89.72075093587239
 20
1.988982815212673
 30
0.0
 10
-89.72075093587239
 20
1.988982815212673
 30
0.0
  0
SPLINE
  5
199
100
AcDbEntity
  8
ALPHA
 62
     7
100
AcDbSpline
210
0.0
220
0.0
230
1.0
 70
    11
 71
     3
 72
    26
 73
    22
 74
     0
 42
0.0000001
 43
0.0000001
 40
0.0
 40
0.0
 40
0.0
 40
0.0
 40
1.0
 40
1.0
 40
1.0
 40
2.0
 40
2.0
 40
2.0
 40
3.0
 40
3.0
 40
3.0
 40
4.0
 40
4.0
 40
4.0
 40
5.0
 40
5.0
 40
5.0
 40
6.0
 40
6.0
 40
6.0
 40
7.0
 40
7.0
 40
7.0
 40
7.0
 10
-92.73314242892794
 20
-1.017896525065103
 30
0.0
 10
-92.73314242892794
 20
-1.017896525065103
 30
0.0
 10
-89.72626308865017
 20
1.988982815212673
 30
0.0
 10
-89.72626308865017
 20
1.988982815212673
 30
0.0
 10
-89.72626308865017
 20
1.988982815212673
 30
0.0
 10
-84.71571621365017
 20
1.988982815212673
 30
0.0
 10
-84.71571621365017
 20
1.988982815212673
 30
0.0
 10
-83.05242411295571
 20
1.988982815212673
 30
0.0
 10
-81.70745883517794
 20
0.6398834228515625
 30
0.0
 10
-81.70745883517794
 20
-1.017896525065103
 30
0.0
 10
-81.70745883517794
 20
-1.017896525065103
 30
0.0
 10
-81.70745883517794
 20
-1.017896525065103
 30
0.0
 10
-81.70745883517794
 20
-1.017896525065103
 30
0.0
 10
-81.70745883517794
 20
-2.679810587565103
 30
0.0
 10
-83.05242411295571
 20
-4.024775865342881
 30
0.0
 10
-84.71571621365017
 20
-4.024775865342881
 30
0.0
 10
-84.71571621365017
 20
-4.024775865342881
 30
0.0
 10
-89.72626308865017
 20
-4.024775865342881
 30
0.0
 10
-89.72626308865017
 20
-4.024775865342881
 30
0.0
 10
-89.72626308865017
 20
-4.024775865342881
 30
0.0
 10
-92.73314242892794
 20
-1.017896525065103
 30
0.0
 10
-92.73314242892794
 20
-1.017896525065103
 30
0.0
  0
SPLINE
  5
19A
100
AcDbEntity
  8
ALPHA
 62
     7
100
AcDbSpline
210
0.0
220
0.0
230
-1.0
 70
     8
 71
     3
 72
    32
 73
    28
 74
     0
 42
0.0000001
 43
0.0000001
 40
0.0
 40
0.0
 40
0.0
 40
0.0
 40
1.0
 40
1.0
 40
1.0
 40
2.0
 40
2.0
 40
2.0
 40
3.0
 40
3.0
 40
3.0
 40
4.0
 40
4.0
 40
4.0
 40
5.0
 40
5.0
 40
5.0
 40
6.0
 40
6.0
 40
6.0
 40
7.0
 40
7.0
 40
7.0
 40
8.0
 40
8.0
 40
8.0
 40
9.0
 40
9.0
 40
9.0
 40
9.0
 10
-89.72075093587239
 20
-23.12300720214843
 30
0.0
 10
-89.72075093587239
 20
-23.12300720214843
 30
0.0
 10
-89.72075093587239
 20
-26.12988654242621
 30
0.0
 10
-89.72075093587239
 20
-26.12988654242621
 30
0.0
 10
-89.72075093587239
 20
-26.68661397298176
 30
0.0
 10
-90.16723531087238
 20
-27.13309834798177
 30
0.0
 10
-90.72534077962238
 20
-27.13309834798177
 30
0.0
 10
-90.72534077962238
 20
-27.13309834798177
 30
0.0
 10
-104.7565256754557
 20
-27.13309834798177
 30
0.0
 10
-104.7565256754557
 20
-27.13309834798177
 30
0.0
 10
-105.3091189914279
 20
-27.13309834798177
 30
0.0
 10
-105.7611155192057
 20
-26.68661397298176
 30
0.0
 10
-105.7611155192057
 20
-26.12988654242621
 30
0.0
 10
-105.7611155192057
 20
-26.12988654242621
 30
0.0
 10
-105.7611155192057
 20
-14.10099114312066
 30
0.0
 10
-105.7611155192057
 20
-14.10099114312066
 30
0.0
 10
-105.7611155192057
 20
-13.54839782714843
 30
0.0
 10
-105.3091189914279
 20
-13.10191345214843
 30
0.0
 10
-104.7565256754557
 20
-13.10191345214843
 30
0.0
 10
-104.7565256754557
 20
-13.10191345214843
 30
0.0
 10
-90.72534077962238
 20
-13.10191345214843
 30
0.0
 10
-90.72534077962238
 20
-13.10191345214843
 30
0.0
 10
-90.16723531087238
 20
-13.10191345214843
 30
0.0
 10
-89.72075093587239
 20
-13.54839782714843
 30
0.0
 10
-89.72075093587239
 20
-14.10099114312066
 30
0.0
 10
-89.72075093587239
 20
-14.10099114312066
 30
0.0
 10
-89.72075093587239
 20
-17.10787048339843
 30
0.0
 10
-89.72075093587239
 20
-17.10787048339843
 30
0.0
  0
SPLINE
  5
19B
100
AcDbEntity
  8
ALPHA
 62
     7
100
AcDbSpline
210
0.0
220
0.0
230
1.0
 70
    11
 71
     3
 72
    26
 73
    22
 74
     0
 42
0.0000001
 43
0.0000001
 40
0.0
 40
0.0
 40
0.0
 40
0.0
 40
1.0
 40
1.0
 40
1.0
 40
2.0
 40
2.0
 40
2.0
 40
3.0
 40
3.0
 40
3.0
 40
4.0
 40
4.0
 40
4.0
 40
5.0
 40
5.0
 40
5.0
 40
6.0
 40
6.0
 40
6.0
 40
7.0
 40
7.0
 40
7.0
 40
7.0
 10
-92.73314242892794
 20
-20.11474982367621
 30
0.0
 10
-92.73314242892794
 20
-20.11474982367621
 30
0.0
 10
-89.72626308865017
 20
-17.10787048339843
 30
0.0
 10
-89.72626308865017
 20
-17.10787048339843
 30
0.0
 10
-89.72626308865017
 20
-17.10787048339843
 30
0.0
 10
-84.71571621365017
 20
-17.10787048339843
 30
0.0
 10
-84.71571621365017
 20
-17.10787048339843
 30
0.0
 10
-83.05242411295571
 20
-17.10787048339843
 30
0.0
 10
-81.70745883517794
 20
-18.45696987575954
 30
0.0
 10
-81.70745883517794
 20
-20.11474982367621
 30
0.0
 10
-81.70745883517794
 20
-20.11474982367621
 30
0.0
 10
-81.70745883517794
 20
-20.11474982367621
 30
0.0
 10
-81.70745883517794
 20
-20.11474982367621
 30
0.0
 10
-81.70745883517794
 20
-21.77804192437065
 30
0.0
 10
-83.05242411295571
 20
-23.12300720214843
 30
0.0
 10
-84.71571621365017
 20
-23.12300720214843
 30
0.0
 10
-84.71571621365017
 20
-23.12300720214843
 30
0.0
 10
-89.72626308865017
 20
-23.12300720214843
 30
0.0
 10
-89.72626308865017
 20
-23.12300720214843
 30
0.0
 10
-89.72626308865017
 20
-23.12300720214843
 30
0.0
 10
-92.73314242892794
 20
-20.11474982367621
 30
0.0
 10
-92.73314242892794
 20
-20.11474982367621
 30
0.0
  0
SPLINE
  5
19C
100
AcDbEntity
  8
ALPHA
 62
     7
100
AcDbSpline
210
0.0
220
0.0
230
-1.0
 70
     8
 71
     3
 72
    32
 73
    28
 74
     0
 42
0.0000001
 43
0.0000001
 40
0.0
 40
0.0
 40
0.0
 40
0.0
 40
1.0
 40
1.0
 40
1.0
 40
2.0
 40
2.0
 40
2.0
 40
3.0
 40
3.0
 40
3.0
 40
4.0
 40
4.0
 40
4.0
 40
5.0
 40
5.0
 40
5.0
 40
6.0
 40
6.0
 40
6.0
 40
7.0
 40
7.0
 40
7.0
 40
8.0
 40
8.0
 40
8.0
 40
9.0
 40
9.0
 40
9.0
 40
9.0
 10
-89.72075093587239
 20
-42.21986050075954
 30
0.0
 10
-89.72075093587239
 20
-42.21986050075954
 30
0.0
 10
-89.72075093587239
 20
-45.22811787923177
 30
0.0
 10
-89.72075093587239
 20
-45.22811787923177
 30
0.0
 10
-89.72075093587239
 20
-45.78484530978732
 30
0.0
 10
-90.16723531087238
 20
-46.23132968478731
 30
0.0
 10
-90.72534077962238
 20
-46.23132968478731
 30
0.0
 10
-90.72534077962238
 20
-46.23132968478731
 30
0.0
 10
-104.7565256754557
 20
-46.23132968478731
 30
0.0
 10
-104.7565256754557
 20
-46.23132968478731
 30
0.0
 10
-105.3091189914279
 20
-46.23132968478731
 30
0.0
 10
-105.7611155192057
 20
-45.78484530978732
 30
0.0
 10
-105.7611155192057
 20
-45.22811787923177
 30
0.0
 10
-105.7611155192057
 20
-45.22811787923177
 30
0.0
 10
-105.7611155192057
 20
-33.19922247992621
 30
0.0
 10
-105.7611155192057
 20
-33.19922247992621
 30
0.0
 10
-105.7611155192057
 20
-32.64662916395399
 30
0.0
 10
-105.3091189914279
 20
-32.19876675075954
 30
0.0
 10
-104.7565256754557
 20
-32.19876675075954
 30
0.0
 10
-104.7565256754557
 20
-32.19876675075954
 30
0.0
 10
-90.72534077962238
 20
-32.19876675075954
 30
0.0
 10
-90.72534077962238
 20
-32.19876675075954
 30
0.0
 10
-90.16723531087238
 20
-32.19876675075954
 30
0.0
 10
-89.72075093587239
 20
-32.64662916395399
 30
0.0
 10
-89.72075093587239
 20
-33.19922247992621
 30
0.0
 10
-89.72075093587239
 20
-33.19922247992621
 30
0.0
 10
-89.72075093587239
 20
-36.20610182020399
 30
0.0
 10
-89.72075093587239
 20
-36.20610182020399
 30
0.0
  0
SPLINE
  5
19D
100
AcDbEntity
  8
ALPHA
 62
     7
100
AcDbSpline
210
0.0
220
0.0
230
1.0
 70
    11
 71
     3
 72
    26
 73
    22
 74
     0
 42
0.0000001
 43
0.0000001
 40
0.0
 40
0.0
 40
0.0
 40
0.0
 40
1.0
 40
1.0
 40
1.0
 40
2.0
 40
2.0
 40
2.0
 40
3.0
 40
3.0
 40
3.0
 40
4.0
 40
4.0
 40
4.0
 40
5.0
 40
5.0
 40
5.0
 40
6.0
 40
6.0
 40
6.0
 40
7.0
 40
7.0
 40
7.0
 40
7.0
 10
-92.73314242892794
 20
-39.21298116048177
 30
0.0
 10
-92.73314242892794
 20
-39.21298116048177
 30
0.0
 10
-89.72626308865017
 20
-36.20610182020399
 30
0.0
 10
-89.72626308865017
 20
-36.20610182020399
 30
0.0
 10
-89.72626308865017
 20
-36.20610182020399
 30
0.0
 10
-84.71571621365017
 20
-36.20610182020399
 30
0.0
 10
-84.71571621365017
 20
-36.20610182020399
 30
0.0
 10
-83.05242411295571
 20
-36.20610182020399
 30
0.0
 10
-81.70745883517794
 20
-37.5552012125651
 30
0.0
 10
-81.70745883517794
 20
-39.21298116048177
 30
0.0
 10
-81.70745883517794
 20
-39.21298116048177
 30
0.0
 10
-81.70745883517794
 20
-39.21298116048177
 30
0.0
 10
-81.70745883517794
 20
-39.21298116048177
 30
0.0
 10
-81.70745883517794
 20
-40.87489522298176
 30
0.0
 10
-83.05242411295571
 20
-42.21986050075954
 30
0.0
 10
-84.71571621365017
 20
-42.21986050075954
 30
0.0
 10
-84.71571621365017
 20
-42.21986050075954
 30
0.0
 10
-89.72626308865017
 20
-42.21986050075954
 30
0.0
 10
-89.72626308865017
 20
-42.21986050075954
 30
0.0
 10
-89.72626308865017
 20
-42.21986050075954
 30
0.0
 10
-92.73314242892794
 20
-39.21298116048177
 30
0.0
 10
-92.73314242892794
 20
-39.21298116048177
 30
0.0
  0
SPLINE
  5
19E
100
AcDbEntity
  8
ALPHA
 62
     7
100
AcDbSpline
210
0.0
220
0.0
230
-1.0
 70
     8
 71
     3
 72
    32
 73
    28
 74
     0
 42
0.0000001
 43
0.0000001
 40
0.0
 40
0.0
 40
0.0
 40
0.0
 40
1.0
 40
1.0
 40
1.0
 40
2.0
 40
2.0
 40
2.0
 40
3.0
 40
3.0
 40
3.0
 40
4.0
 40
4.0
 40
4.0
 40
5.0
 40
5.0
 40
5.0
 40
6.0
 40
6.0
 40
6.0
 40
7.0
 40
7.0
 40
7.0
 40
8.0
 40
8.0
 40
8.0
 40
9.0
 40
9.0
 40
9.0
 40
9.0
 10
-89.72075093587239
 20
-61.3180918375651
 30
0.0
 10
-89.72075093587239
 20
-61.3180918375651
 30
0.0
 10
-89.72075093587239
 20
-64.32497117784286
 30
0.0
 10
-89.72075093587239
 20
-64.32497117784286
 30
0.0
 10
-89.72075093587239
 20
-64.88169860839843
 30
0.0
 10
-90.16723531087238
 20
-65.32956102159288
 30
0.0
 10
-90.72534077962238
 20
-65.32956102159288
 30
0.0
 10
-90.72534077962238
 20
-65.32956102159288
 30
0.0
 10
-104.7565256754557
 20
-65.32956102159288
 30
0.0
 10
-104.7565256754557
 20
-65.32956102159288
 30
0.0
 10
-105.3091189914279
 20
-65.32956102159288
 30
0.0
 10
-105.7611155192057
 20
-64.88169860839843
 30
0.0
 10
-105.7611155192057
 20
-64.32497117784286
 30
0.0
 10
-105.7611155192057
 20
-64.32497117784286
 30
0.0
 10
-105.7611155192057
 20
-52.29607577853732
 30
0.0
 10
-105.7611155192057
 20
-52.29607577853732
 30
0.0
 10
-105.7611155192057
 20
-51.7434824625651
 30
0.0
 10
-105.3091189914279
 20
-51.2969980875651
 30
0.0
 10
-104.7565256754557
 20
-51.2969980875651
 30
0.0
 10
-104.7565256754557
 20
-51.2969980875651
 30
0.0
 10
-90.72534077962238
 20
-51.2969980875651
 30
0.0
 10
-90.72534077962238
 20
-51.2969980875651
 30
0.0
 10
-90.16723531087238
 20
-51.2969980875651
 30
0.0
 10
-89.72075093587239
 20
-51.7434824625651
 30
0.0
 10
-89.72075093587239
 20
-52.29607577853732
 30
0.0
 10
-89.72075093587239
 20
-52.29607577853732
 30
0.0
 10
-89.72075093587239
 20
-55.3029551188151
 30
0.0
 10
-89.72075093587239
 20
-55.3029551188151
 30
0.0
  0
SPLINE
  5
19F
100
AcDbEntity
  8
ALPHA
 62
     7
100
AcDbSpline
210
0.0
220
0.0
230
1.0
 70
    11
 71
     3
 72
    26
 73
    22
 74
     0
 42
0.0000001
 43
0.0000001
 40
0.0
 40
0.0
 40
0.0
 40
0.0
 40
1.0
 40
1.0
 40
1.0
 40
2.0
 40
2.0
 40
2.0
 40
3.0
 40
3.0
 40
3.0
 40
4.0
 40
4.0
 40
4.0
 40
5.0
 40
5.0
 40
5.0
 40
6.0
 40
6.0
 40
6.0
 40
7.0
 40
7.0
 40
7.0
 40
7.0
 10
-92.73314242892794
 20
-58.31121249728732
 30
0.0
 10
-92.73314242892794
 20
-58.31121249728732
 30
0.0
 10
-89.72626308865017
 20
-55.3029551188151
 30
0.0
 10
-89.72626308865017
 20
-55.3029551188151
 30
0.0
 10
-89.72626308865017
 20
-55.3029551188151
 30
0.0
 10
-84.71571621365017
 20
-55.3029551188151
 30
0.0
 10
-84.71571621365017
 20
-55.3029551188151
 30
0.0
 10
-83.05242411295571
 20
-55.3029551188151
 30
0.0
 10
-81.70745883517794
 20
-56.65343254937066
 30
0.0
 10
-81.70745883517794
 20
-58.31121249728732
 30
0.0
 10
-81.70745883517794
 20
-58.31121249728732
 30
0.0
 10
-81.70745883517794
 20
-58.31121249728732
 30
0.0
 10
-81.70745883517794
 20
-58.31121249728732
 30
0.0
 10
-81.70745883517794
 20
-59.97312655978731
 30
0.0
 10
-83.05242411295571
 20
-61.3180918375651
 30
0.0
 10
-84.71571621365017
 20
-61.3180918375651
 30
0.0
 10
-84.71571621365017
 20
-61.3180918375651
 30
0.0
 10
-89.72626308865017
 20
-61.3180918375651
 30
0.0
 10
-89.72626308865017
 20
-61.3180918375651
 30
0.0
 10
-89.72626308865017
 20
-61.3180918375651
 30
0.0
 10
-92.73314242892794
 20
-58.31121249728732
 30
0.0
 10
-92.73314242892794
 20
-58.31121249728732
 30
0.0
  0
SPLINE
  5
1A0
100
AcDbEntity
  8
ALPHA
 62
     7
100
AcDbSpline
210
0.0
220
0.0
230
-1.0
 70
     8
 71
     3
 72
    32
 73
    28
 74
     0
 42
0.0000001
 43
0.0000001
 40
0.0
 40
0.0
 40
0.0
 40
0.0
 40
1.0
 40
1.0
 40
1.0
 40
2.0
 40
2.0
 40
2.0
 40
3.0
 40
3.0
 40
3.0
 40
4.0
 40
4.0
 40
4.0
 40
5.0
 40
5.0
 40
5.0
 40
6.0
 40
6.0
 40
6.0
 40
7.0
 40
7.0
 40
7.0
 40
8.0
 40
8.0
 40
8.0
 40
9.0
 40
9.0
 40
9.0
 40
9.0
 10
-89.72075093587239
 20
-80.41494513617621
 30
0.0
 10
-89.72075093587239
 20
-80.41494513617621
 30
0.0
 10
-89.72075093587239
 20
-83.42320251464842
 30
0.0
 10
-89.72075093587239
 20
-83.42320251464842
 30
0.0
 10
-89.72075093587239
 20
-83.97992994520398
 30
0.0
 10
-90.16723531087238
 20
-84.42641432020399
 30
0.0
 10
-90.72534077962238
 20
-84.42641432020399
 30
0.0
 10
-90.72534077962238
 20
-84.42641432020399
 30
0.0
 10
-104.7565256754557
 20
-84.42641432020399
 30
0.0
 10
-104.7565256754557
 20
-84.42641432020399
 30
0.0
 10
-105.3091189914279
 20
-84.42641432020399
 30
0.0
 10
-105.7611155192057
 20
-83.97992994520398
 30
0.0
 10
-105.7611155192057
 20
-83.42320251464842
 30
0.0
 10
-105.7611155192057
 20
-83.42320251464842
 30
0.0
 10
-105.7611155192057
 20
-71.39430711534287
 30
0.0
 10
-105.7611155192057
 20
-71.39430711534287
 30
0.0
 10
-105.7611155192057
 20
-70.84171379937065
 30
0.0
 10
-105.3091189914279
 20
-70.39522942437065
 30
0.0
 10
-104.7565256754557
 20
-70.39522942437065
 30
0.0
 10
-104.7565256754557
 20
-70.39522942437065
 30
0.0
 10
-90.72534077962238
 20
-70.39522942437065
 30
0.0
 10
-90.72534077962238
 20
-70.39522942437065
 30
0.0
 10
-90.16723531087238
 20
-70.39522942437065
 30
0.0
 10
-89.72075093587239
 20
-70.84171379937065
 30
0.0
 10
-89.72075093587239
 20
-71.39430711534287
 30
0.0
 10
-89.72075093587239
 20
-71.39430711534287
 30
0.0
 10
-89.72075093587239
 20
-74.40118645562065
 30
0.0
 10
-89.72075093587239
 20
-74.40118645562065
 30
0.0
  0
SPLINE
  5
1A1
100
AcDbEntity
  8
ALPHA
 62
     7
100
AcDbSpline
210
0.0
220
0.0
230
1.0
 70
    11
 71
     3
 72
    26
 73
    22
 74
     0
 42
0.0000001
 43
0.0000001
 40
0.0
 40
0.0
 40
0.0
 40
0.0
 40
1.0
 40
1.0
 40
1.0
 40
2.0
 40
2.0
 40
2.0
 40
3.0
 40
3.0
 40
3.0
 40
4.0
 40
4.0
 40
4.0
 40
5.0
 40
5.0
 40
5.0
 40
6.0
 40
6.0
 40
6.0
 40
7.0
 40
7.0
 40
7.0
 40
7.0
 10
-92.73314242892794
 20
-77.40806579589843
 30
0.0
 10
-92.73314242892794
 20
-77.40806579589843
 30
0.0
 10
-89.72626308865017
 20
-74.40118645562065
 30
0.0
 10
-89.72626308865017
 20
-74.40118645562065
 30
0.0
 10
-89.72626308865017
 20
-74.40118645562065
 30
0.0
 10
-84.71571621365017
 20
-74.40118645562065
 30
0.0
 10
-84.71571621365017
 20
-74.40118645562065
 30
0.0
 10
-83.05242411295571
 20
-74.40118645562065
 30
0.0
 10
-81.70745883517794
 20
-75.75028584798175
 30
0.0
 10
-81.70745883517794
 20
-77.40806579589843
 30
0.0
 10
-81.70745883517794
 20
-77.40806579589843
 30
0.0
 10
-81.70745883517794
 20
-77.40806579589843
 30
0.0
 10
-81.70745883517794
 20
-77.40806579589843
 30
0.0
 10
-81.70745883517794
 20
-79.07135789659287
 30
0.0
 10
-83.05242411295571
 20
-80.41494513617621
 30
0.0
 10
-84.71571621365017
 20
-80.41494513617621
 30
0.0
 10
-84.71571621365017
 20
-80.41494513617621
 30
0.0
 10
-89.72626308865017
 20
-80.41494513617621
 30
0.0
 10
-89.72626308865017
 20
-80.41494513617621
 30
0.0
 10
-89.72626308865017
 20
-80.41494513617621
 30
0.0
 10
-92.73314242892794
 20
-77.40806579589843
 30
0.0
 10
-92.73314242892794
 20
-77.40806579589843
 30
0.0
  0
SPLINE
  5
1A2
100
AcDbEntity
  8
ALPHA
 62
     7
100
AcDbSpline
210
0.0
220
0.0
230
-1.0
 70
     8
 71
     3
 72
    32
 73
    28
 74
     0
 42
0.0000001
 43
0.0000001
 40
0.0
 40
0.0
 40
0.0
 40
0.0
 40
1.0
 40
1.0
 40
1.0
 40
2.0
 40
2.0
 40
2.0
 40
3.0
 40
3.0
 40
3.0
 40
4.0
 40
4.0
 40
4.0
 40
5.0
 40
5.0
 40
5.0
 40
6.0
 40
6.0
 40
6.0
 40
7.0
 40
7.0
 40
7.0
 40
8.0
 40
8.0
 40
8.0
 40
9.0
 40
9.0
 40
9.0
 40
9.0
 10
89.68311326768661
 20
15.07362772623697
 30
0.0
 10
89.68311326768661
 20
15.07362772623697
 30
0.0
 10
89.68311326768661
 20
12.06537034776475
 30
0.0
 10
89.68311326768661
 20
12.06537034776475
 30
0.0
 10
89.68311326768661
 20
11.5086429172092
 30
0.0
 10
90.12959764268662
 20
11.0621585422092
 30
0.0
 10
90.68219095865885
 20
11.0621585422092
 30
0.0
 10
90.68219095865885
 20
11.0621585422092
 30
0.0
 10
104.7188880072699
 20
11.0621585422092
 30
0.0
 10
104.7188880072699
 20
11.0621585422092
 30
0.0
 10
105.2714813232421
 20
11.0621585422092
 30
0.0
 10
105.7220998128254
 20
11.5086429172092
 30
0.0
 10
105.7220998128254
 20
12.06537034776475
 30
0.0
 10
105.7220998128254
 20
12.06537034776475
 30
0.0
 10
105.7220998128254
 20
24.09426574707031
 30
0.0
 10
105.7220998128254
 20
24.09426574707031
 30
0.0
 10
105.7220998128254
 20
24.64685906304253
 30
0.0
 10
105.2714813232421
 20
25.09334343804253
 30
0.0
 10
104.7188880072699
 20
25.09334343804253
 30
0.0
 10
104.7188880072699
 20
25.09334343804253
 30
0.0
 10
90.68219095865885
 20
25.09334343804253
 30
0.0
 10
90.68219095865885
 20
25.09334343804253
 30
0.0
 10
90.12959764268662
 20
25.09334343804253
 30
0.0
 10
89.68311326768661
 20
24.64685906304253
 30
0.0
 10
89.68311326768661
 20
24.09426574707031
 30
0.0
 10
89.68311326768661
 20
24.09426574707031
 30
0.0
 10
89.68311326768661
 20
21.08738640679253
 30
0.0
 10
89.68311326768661
 20
21.08738640679253
 30
0.0
  0
SPLINE
  5
1A3
100
AcDbEntity
  8
ALPHA
 62
     7
100
AcDbSpline
210
0.0
220
0.0
230
1.0
 70
    11
 71
     3
 72
    26
 73
    22
 74
     0
 42
0.0000001
 43
0.0000001
 40
0.0
 40
0.0
 40
0.0
 40
0.0
 40
1.0
 40
1.0
 40
1.0
 40
2.0
 40
2.0
 40
2.0
 40
3.0
 40
3.0
 40
3.0
 40
4.0
 40
4.0
 40
4.0
 40
5.0
 40
5.0
 40
5.0
 40
6.0
 40
6.0
 40
6.0
 40
7.0
 40
7.0
 40
7.0
 40
7.0
 10
92.69412672254773
 20
18.08050706651475
 30
0.0
 10
92.69412672254773
 20
18.08050706651475
 30
0.0
 10
89.68724738226995
 20
21.08738640679253
 30
0.0
 10
89.68724738226995
 20
21.08738640679253
 30
0.0
 10
89.68724738226995
 20
21.08738640679253
 30
0.0
 10
84.67256639268661
 20
21.08738640679253
 30
0.0
 10
84.67256639268661
 20
21.08738640679253
 30
0.0
 10
83.01478644476995
 20
21.08738640679253
 30
0.0
 10
81.66568705240884
 20
19.73828701443142
 30
0.0
 10
81.66568705240884
 20
18.08050706651475
 30
0.0
 10
81.66568705240884
 20
18.08050706651475
 30
0.0
 10
81.66568705240884
 20
18.08050706651475
 30
0.0
 10
81.66568705240884
 20
18.08050706651475
 30
0.0
 10
81.66568705240884
 20
16.41721496582031
 30
0.0
 10
83.01478644476995
 20
15.07362772623697
 30
0.0
 10
84.67256639268661
 20
15.07362772623697
 30
0.0
 10
84.67256639268661
 20
15.07362772623697
 30
0.0
 10
89.68724738226995
 20
15.07362772623697
 30
0.0
 10
89.68724738226995
 20
15.07362772623697
 30
0.0
 10
89.68724738226995
 20
15.07362772623697
 30
0.0
 10
92.69412672254773
 20
18.08050706651475
 30
0.0
 10
92.69412672254773
 20
18.08050706651475
 30
0.0
  0
SPLINE
  5
1A4
100
AcDbEntity
  8
ALPHA
 62
     7
100
AcDbSpline
210
0.0
220
0.0
230
-1.0
 70
     8
 71
     3
 72
    32
 73
    28
 74
     0
 42
0.0000001
 43
0.0000001
 40
0.0
 40
0.0
 40
0.0
 40
0.0
 40
1.0
 40
1.0
 40
1.0
 40
2.0
 40
2.0
 40
2.0
 40
3.0
 40
3.0
 40
3.0
 40
4.0
 40
4.0
 40
4.0
 40
5.0
 40
5.0
 40
5.0
 40
6.0
 40
6.0
 40
6.0
 40
7.0
 40
7.0
 40
7.0
 40
8.0
 40
8.0
 40
8.0
 40
9.0
 40
9.0
 40
9.0
 40
9.0
 10
89.68311326768661
 20
-4.024775865342881
 30
0.0
 10
89.68311326768661
 20
-4.024775865342881
 30
0.0
 10
89.68311326768661
 20
-7.031655205620658
 30
0.0
 10
89.68311326768661
 20
-7.031655205620658
 30
0.0
 10
89.68311326768661
 20
-7.589760674370658
 30
0.0
 10
90.12959764268662
 20
-8.036245049370659
 30
0.0
 10
90.68219095865885
 20
-8.036245049370659
 30
0.0
 10
90.68219095865885
 20
-8.036245049370659
 30
0.0
 10
104.7188880072699
 20
-8.036245049370659
 30
0.0
 10
104.7188880072699
 20
-8.036245049370659
 30
0.0
 10
105.2714813232421
 20
-8.036245049370659
 30
0.0
 10
105.7220998128254
 20
-7.589760674370658
 30
0.0
 10
105.7220998128254
 20
-7.031655205620658
 30
0.0
 10
105.7220998128254
 20
-7.031655205620658
 30
0.0
 10
105.7220998128254
 20
4.997240193684895
 30
0.0
 10
105.7220998128254
 20
4.997240193684895
 30
0.0
 10
105.7220998128254
 20
5.549833509657117
 30
0.0
 10
105.2714813232421
 20
5.996317884657117
 30
0.0
 10
104.7188880072699
 20
5.996317884657117
 30
0.0
 10
104.7188880072699
 20
5.996317884657117
 30
0.0
 10
90.68219095865885
 20
5.996317884657117
 30
0.0
 10
90.68219095865885
 20
5.996317884657117
 30
0.0
 10
90.12959764268662
 20
5.996317884657117
 30
0.0
 10
89.68311326768661
 20
5.549833509657117
 30
0.0
 10
89.68311326768661
 20
4.997240193684895
 30
0.0
 10
89.68311326768661
 20
4.997240193684895
 30
0.0
 10
89.68311326768661
 20
1.988982815212673
 30
0.0
 10
89.68311326768661
 20
1.988982815212673
 30
0.0
  0
SPLINE
  5
1A5
100
AcDbEntity
  8
ALPHA
 62
     7
100
AcDbSpline
210
0.0
220
0.0
230
1.0
 70
    11
 71
     3
 72
    26
 73
    22
 74
     0
 42
0.0000001
 43
0.0000001
 40
0.0
 40
0.0
 40
0.0
 40
0.0
 40
1.0
 40
1.0
 40
1.0
 40
2.0
 40
2.0
 40
2.0
 40
3.0
 40
3.0
 40
3.0
 40
4.0
 40
4.0
 40
4.0
 40
5.0
 40
5.0
 40
5.0
 40
6.0
 40
6.0
 40
6.0
 40
7.0
 40
7.0
 40
7.0
 40
7.0
 10
92.69412672254773
 20
-1.017896525065103
 30
0.0
 10
92.69412672254773
 20
-1.017896525065103
 30
0.0
 10
89.68724738226995
 20
1.988982815212673
 30
0.0
 10
89.68724738226995
 20
1.988982815212673
 30
0.0
 10
89.68724738226995
 20
1.988982815212673
 30
0.0
 10
84.67256639268661
 20
1.988982815212673
 30
0.0
 10
84.67256639268661
 20
1.988982815212673
 30
0.0
 10
83.01478644476995
 20
1.988982815212673
 30
0.0
 10
81.66568705240884
 20
0.6398834228515625
 30
0.0
 10
81.66568705240884
 20
-1.017896525065103
 30
0.0
 10
81.66568705240884
 20
-1.017896525065103
 30
0.0
 10
81.66568705240884
 20
-1.017896525065103
 30
0.0
 10
81.66568705240884
 20
-1.017896525065103
 30
0.0
 10
81.66568705240884
 20
-2.679810587565103
 30
0.0
 10
83.01478644476995
 20
-4.024775865342881
 30
0.0
 10
84.67256639268661
 20
-4.024775865342881
 30
0.0
 10
84.67256639268661
 20
-4.024775865342881
 30
0.0
 10
89.68724738226995
 20
-4.024775865342881
 30
0.0
 10
89.68724738226995
 20
-4.024775865342881
 30
0.0
 10
89.68724738226995
 20
-4.024775865342881
 30
0.0
 10
92.69412672254773
 20
-1.017896525065103
 30
0.0
 10
92.69412672254773
 20
-1.017896525065103
 30
0.0
  0
SPLINE
  5
1A6
100
AcDbEntity
  8
ALPHA
 62
     7
100
AcDbSpline
210
0.0
220
0.0
230
-1.0
 70
     8
 71
     3
 72
    32
 73
    28
 74
     0
 42
0.0000001
 43
0.0000001
 40
0.0
 40
0.0
 40
0.0
 40
0.0
 40
1.0
 40
1.0
 40
1.0
 40
2.0
 40
2.0
 40
2.0
 40
3.0
 40
3.0
 40
3.0
 40
4.0
 40
4.0
 40
4.0
 40
5.0
 40
5.0
 40
5.0
 40
6.0
 40
6.0
 40
6.0
 40
7.0
 40
7.0
 40
7.0
 40
8.0
 40
8.0
 40
8.0
 40
9.0
 40
9.0
 40
9.0
 40
9.0
 10
89.68311326768661
 20
-23.12300720214843
 30
0.0
 10
89.68311326768661
 20
-23.12300720214843
 30
0.0
 10
89.68311326768661
 20
-26.12988654242621
 30
0.0
 10
89.68311326768661
 20
-26.12988654242621
 30
0.0
 10
89.68311326768661
 20
-26.68661397298176
 30
0.0
 10
90.12959764268662
 20
-27.13309834798177
 30
0.0
 10
90.68219095865885
 20
-27.13309834798177
 30
0.0
 10
90.68219095865885
 20
-27.13309834798177
 30
0.0
 10
104.7188880072699
 20
-27.13309834798177
 30
0.0
 10
104.7188880072699
 20
-27.13309834798177
 30
0.0
 10
105.2714813232421
 20
-27.13309834798177
 30
0.0
 10
105.7220998128254
 20
-26.68661397298176
 30
0.0
 10
105.7220998128254
 20
-26.12988654242621
 30
0.0
 10
105.7220998128254
 20
-26.12988654242621
 30
0.0
 10
105.7220998128254
 20
-14.10099114312066
 30
0.0
 10
105.7220998128254
 20
-14.10099114312066
 30
0.0
 10
105.7220998128254
 20
-13.54839782714843
 30
0.0
 10
105.2714813232421
 20
-13.10191345214843
 30
0.0
 10
104.7188880072699
 20
-13.10191345214843
 30
0.0
 10
104.7188880072699
 20
-13.10191345214843
 30
0.0
 10
90.68219095865885
 20
-13.10191345214843
 30
0.0
 10
90.68219095865885
 20
-13.10191345214843
 30
0.0
 10
90.12959764268662
 20
-13.10191345214843
 30
0.0
 10
89.68311326768661
 20
-13.54839782714843
 30
0.0
 10
89.68311326768661
 20
-14.10099114312066
 30
0.0
 10
89.68311326768661
 20
-14.10099114312066
 30
0.0
 10
89.68311326768661
 20
-17.10787048339843
 30
0.0
 10
89.68311326768661
 20
-17.10787048339843
 30
0.0
  0
SPLINE
  5
1A7
100
AcDbEntity
  8
ALPHA
 62
     7
100
AcDbSpline
210
0.0
220
0.0
230
1.0
 70
    11
 71
     3
 72
    26
 73
    22
 74
     0
 42
0.0000001
 43
0.0000001
 40
0.0
 40
0.0
 40
0.0
 40
0.0
 40
1.0
 40
1.0
 40
1.0
 40
2.0
 40
2.0
 40
2.0
 40
3.0
 40
3.0
 40
3.0
 40
4.0
 40
4.0
 40
4.0
 40
5.0
 40
5.0
 40
5.0
 40
6.0
 40
6.0
 40
6.0
 40
7.0
 40
7.0
 40
7.0
 40
7.0
 10
92.69412672254773
 20
-20.11474982367621
 30
0.0
 10
92.69412672254773
 20
-20.11474982367621
 30
0.0
 10
89.68724738226995
 20
-17.10787048339843
 30
0.0
 10
89.68724738226995
 20
-17.10787048339843
 30
0.0
 10
89.68724738226995
 20
-17.10787048339843
 30
0.0
 10
84.67256639268661
 20
-17.10787048339843
 30
0.0
 10
84.67256639268661
 20
-17.10787048339843
 30
0.0
 10
83.01478644476995
 20
-17.10787048339843
 30
0.0
 10
81.66568705240884
 20
-18.45696987575954
 30
0.0
 10
81.66568705240884
 20
-20.11474982367621
 30
0.0
 10
81.66568705240884
 20
-20.11474982367621
 30
0.0
 10
81.66568705240884
 20
-20.11474982367621
 30
0.0
 10
81.66568705240884
 20
-20.11474982367621
 30
0.0
 10
81.66568705240884
 20
-21.77804192437065
 30
0.0
 10
83.01478644476995
 20
-23.12300720214843
 30
0.0
 10
84.67256639268661
 20
-23.12300720214843
 30
0.0
 10
84.67256639268661
 20
-23.12300720214843
 30
0.0
 10
89.68724738226995
 20
-23.12300720214843
 30
0.0
 10
89.68724738226995
 20
-23.12300720214843
 30
0.0
 10
89.68724738226995
 20
-23.12300720214843
 30
0.0
 10
92.69412672254773
 20
-20.11474982367621
 30
0.0
 10
92.69412672254773
 20
-20.11474982367621
 30
0.0
  0
SPLINE
  5
1A8
100
AcDbEntity
  8
ALPHA
 62
     7
100
AcDbSpline
210
0.0
220
0.0
230
-1.0
 70
     8
 71
     3
 72
    32
 73
    28
 74
     0
 42
0.0000001
 43
0.0000001
 40
0.0
 40
0.0
 40
0.0
 40
0.0
 40
1.0
 40
1.0
 40
1.0
 40
2.0
 40
2.0
 40
2.0
 40
3.0
 40
3.0
 40
3.0
 40
4.0
 40
4.0
 40
4.0
 40
5.0
 40
5.0
 40
5.0
 40
6.0
 40
6.0
 40
6.0
 40
7.0
 40
7.0
 40
7.0
 40
8.0
 40
8.0
 40
8.0
 40
9.0
 40
9.0
 40
9.0
 40
9.0
 10
89.68311326768661
 20
-42.21986050075954
 30
0.0
 10
89.68311326768661
 20
-42.21986050075954
 30
0.0
 10
89.68311326768661
 20
-45.22811787923177
 30
0.0
 10
89.68311326768661
 20
-45.22811787923177
 30
0.0
 10
89.68311326768661
 20
-45.78484530978732
 30
0.0
 10
90.12959764268662
 20
-46.23132968478731
 30
0.0
 10
90.68219095865885
 20
-46.23132968478731
 30
0.0
 10
90.68219095865885
 20
-46.23132968478731
 30
0.0
 10
104.7188880072699
 20
-46.23132968478731
 30
0.0
 10
104.7188880072699
 20
-46.23132968478731
 30
0.0
 10
105.2714813232421
 20
-46.23132968478731
 30
0.0
 10
105.7220998128254
 20
-45.78484530978732
 30
0.0
 10
105.7220998128254
 20
-45.22811787923177
 30
0.0
 10
105.7220998128254
 20
-45.22811787923177
 30
0.0
 10
105.7220998128254
 20
-33.19922247992621
 30
0.0
 10
105.7220998128254
 20
-33.19922247992621
 30
0.0
 10
105.7220998128254
 20
-32.64662916395399
 30
0.0
 10
105.2714813232421
 20
-32.19876675075954
 30
0.0
 10
104.7188880072699
 20
-32.19876675075954
 30
0.0
 10
104.7188880072699
 20
-32.19876675075954
 30
0.0
 10
90.68219095865885
 20
-32.19876675075954
 30
0.0
 10
90.68219095865885
 20
-32.19876675075954
 30
0.0
 10
90.12959764268662
 20
-32.19876675075954
 30
0.0
 10
89.68311326768661
 20
-32.64662916395399
 30
0.0
 10
89.68311326768661
 20
-33.19922247992621
 30
0.0
 10
89.68311326768661
 20
-33.19922247992621
 30
0.0
 10
89.68311326768661
 20
-36.20610182020399
 30
0.0
 10
89.68311326768661
 20
-36.20610182020399
 30
0.0
  0
SPLINE
  5
1A9
100
AcDbEntity
  8
ALPHA
 62
     7
100
AcDbSpline
210
0.0
220
0.0
230
1.0
 70
    11
 71
     3
 72
    26
 73
    22
 74
     0
 42
0.0000001
 43
0.0000001
 40
0.0
 40
0.0
 40
0.0
 40
0.0
 40
1.0
 40
1.0
 40
1.0
 40
2.0
 40
2.0
 40
2.0
 40
3.0
 40
3.0
 40
3.0
 40
4.0
 40
4.0
 40
4.0
 40
5.0
 40
5.0
 40
5.0
 40
6.0
 40
6.0
 40
6.0
 40
7.0
 40
7.0
 40
7.0
 40
7.0
 10
92.69412672254773
 20
-39.21298116048177
 30
0.0
 10
92.69412672254773
 20
-39.21298116048177
 30
0.0
 10
89.68724738226995
 20
-36.20610182020399
 30
0.0
 10
89.68724738226995
 20
-36.20610182020399
 30
0.0
 10
89.68724738226995
 20
-36.20610182020399
 30
0.0
 10
84.67256639268661
 20
-36.20610182020399
 30
0.0
 10
84.67256639268661
 20
-36.20610182020399
 30
0.0
 10
83.01478644476995
 20
-36.20610182020399
 30
0.0
 10
81.66568705240884
 20
-37.5552012125651
 30
0.0
 10
81.66568705240884
 20
-39.21298116048177
 30
0.0
 10
81.66568705240884
 20
-39.21298116048177
 30
0.0
 10
81.66568705240884
 20
-39.21298116048177
 30
0.0
 10
81.66568705240884
 20
-39.21298116048177
 30
0.0
 10
81.66568705240884
 20
-40.87489522298176
 30
0.0
 10
83.01478644476995
 20
-42.21986050075954
 30
0.0
 10
84.67256639268661
 20
-42.21986050075954
 30
0.0
 10
84.67256639268661
 20
-42.21986050075954
 30
0.0
 10
89.68724738226995
 20
-42.21986050075954
 30
0.0
 10
89.68724738226995
 20
-42.21986050075954
 30
0.0
 10
89.68724738226995
 20
-42.21986050075954
 30
0.0
 10
92.69412672254773
 20
-39.21298116048177
 30
0.0
 10
92.69412672254773
 20
-39.21298116048177
 30
0.0
  0
SPLINE
  5
1AA
100
AcDbEntity
  8
ALPHA
 62
     7
100
AcDbSpline
210
0.0
220
0.0
230
-1.0
 70
     8
 71
     3
 72
    32
 73
    28
 74
     0
 42
0.0000001
 43
0.0000001
 40
0.0
 40
0.0
 40
0.0
 40
0.0
 40
1.0
 40
1.0
 40
1.0
 40
2.0
 40
2.0
 40
2.0
 40
3.0
 40
3.0
 40
3.0
 40
4.0
 40
4.0
 40
4.0
 40
5.0
 40
5.0
 40
5.0
 40
6.0
 40
6.0
 40
6.0
 40
7.0
 40
7.0
 40
7.0
 40
8.0
 40
8.0
 40
8.0
 40
9.0
 40
9.0
 40
9.0
 40
9.0
 10
89.68311326768661
 20
-61.3180918375651
 30
0.0
 10
89.68311326768661
 20
-61.3180918375651
 30
0.0
 10
89.68311326768661
 20
-64.32497117784286
 30
0.0
 10
89.68311326768661
 20
-64.32497117784286
 30
0.0
 10
89.68311326768661
 20
-64.88169860839843
 30
0.0
 10
90.12959764268662
 20
-65.32956102159288
 30
0.0
 10
90.68219095865885
 20
-65.32956102159288
 30
0.0
 10
90.68219095865885
 20
-65.32956102159288
 30
0.0
 10
104.7188880072699
 20
-65.32956102159288
 30
0.0
 10
104.7188880072699
 20
-65.32956102159288
 30
0.0
 10
105.2714813232421
 20
-65.32956102159288
 30
0.0
 10
105.7220998128254
 20
-64.88169860839843
 30
0.0
 10
105.7220998128254
 20
-64.32497117784286
 30
0.0
 10
105.7220998128254
 20
-64.32497117784286
 30
0.0
 10
105.7220998128254
 20
-52.29607577853732
 30
0.0
 10
105.7220998128254
 20
-52.29607577853732
 30
0.0
 10
105.7220998128254
 20
-51.7434824625651
 30
0.0
 10
105.2714813232421
 20
-51.2969980875651
 30
0.0
 10
104.7188880072699
 20
-51.2969980875651
 30
0.0
 10
104.7188880072699
 20
-51.2969980875651
 30
0.0
 10
90.68219095865885
 20
-51.2969980875651
 30
0.0
 10
90.68219095865885
 20
-51.2969980875651
 30
0.0
 10
90.12959764268662
 20
-51.2969980875651
 30
0.0
 10
89.68311326768661
 20
-51.7434824625651
 30
0.0
 10
89.68311326768661
 20
-52.29607577853732
 30
0.0
 10
89.68311326768661
 20
-52.29607577853732
 30
0.0
 10
89.68311326768661
 20
-55.3029551188151
 30
0.0
 10
89.68311326768661
 20
-55.3029551188151
 30
0.0
  0
SPLINE
  5
1AB
100
AcDbEntity
  8
ALPHA
 62
     7
100
AcDbSpline
210
0.0
220
0.0
230
1.0
 70
    11
 71
     3
 72
    26
 73
    22
 74
     0
 42
0.0000001
 43
0.0000001
 40
0.0
 40
0.0
 40
0.0
 40
0.0
 40
1.0
 40
1.0
 40
1.0
 40
2.0
 40
2.0
 40
2.0
 40
3.0
 40
3.0
 40
3.0
 40
4.0
 40
4.0
 40
4.0
 40
5.0
 40
5.0
 40
5.0
 40
6.0
 40
6.0
 40
6.0
 40
7.0
 40
7.0
 40
7.0
 40
7.0
 10
92.69412672254773
 20
-58.31121249728732
 30
0.0
 10
92.69412672254773
 20
-58.31121249728732
 30
0.0
 10
89.68724738226995
 20
-55.3029551188151
 30
0.0
 10
89.68724738226995
 20
-55.3029551188151
 30
0.0
 10
89.68724738226995
 20
-55.3029551188151
 30
0.0
 10
84.67256639268661
 20
-55.3029551188151
 30
0.0
 10
84.67256639268661
 20
-55.3029551188151
 30
0.0
 10
83.01478644476995
 20
-55.3029551188151
 30
0.0
 10
81.66568705240884
 20
-56.65343254937066
 30
0.0
 10
81.66568705240884
 20
-58.31121249728732
 30
0.0
 10
81.66568705240884
 20
-58.31121249728732
 30
0.0
 10
81.66568705240884
 20
-58.31121249728732
 30
0.0
 10
81.66568705240884
 20
-58.31121249728732
 30
0.0
 10
81.66568705240884
 20
-59.97312655978731
 30
0.0
 10
83.01478644476995
 20
-61.3180918375651
 30
0.0
 10
84.67256639268661
 20
-61.3180918375651
 30
0.0
 10
84.67256639268661
 20
-61.3180918375651
 30
0.0
 10
89.68724738226995
 20
-61.3180918375651
 30
0.0
 10
89.68724738226995
 20
-61.3180918375651
 30
0.0
 10
89.68724738226995
 20
-61.3180918375651
 30
0.0
 10
92.69412672254773
 20
-58.31121249728732
 30
0.0
 10
92.69412672254773
 20
-58.31121249728732
 30
0.0
  0
SPLINE
  5
1AC
100
AcDbEntity
  8
ALPHA
 62
     7
100
AcDbSpline
210
0.0
220
0.0
230
-1.0
 70
     8
 71
     3
 72
    32
 73
    28
 74
     0
 42
0.0000001
 43
0.0000001
 40
0.0
 40
0.0
 40
0.0
 40
0.0
 40
1.0
 40
1.0
 40
1.0
 40
2.0
 40
2.0
 40
2.0
 40
3.0
 40
3.0
 40
3.0
 40
4.0
 40
4.0
 40
4.0
 40
5.0
 40
5.0
 40
5.0
 40
6.0
 40
6.0
 40
6.0
 40
7.0
 40
7.0
 40
7.0
 40
8.0
 40
8.0
 40
8.0
 40
9.0
 40
9.0
 40
9.0
 40
9.0
 10
89.68311326768661
 20
-80.41494513617621
 30
0.0
 10
89.68311326768661
 20
-80.41494513617621
 30
0.0
 10
89.68311326768661
 20
-83.42320251464842
 30
0.0
 10
89.68311326768661
 20
-83.42320251464842
 30
0.0
 10
89.68311326768661
 20
-83.97992994520398
 30
0.0
 10
90.12959764268662
 20
-84.42641432020399
 30
0.0
 10
90.68219095865885
 20
-84.42641432020399
 30
0.0
 10
90.68219095865885
 20
-84.42641432020399
 30
0.0
 10
104.7188880072699
 20
-84.42641432020399
 30
0.0
 10
104.7188880072699
 20
-84.42641432020399
 30
0.0
 10
105.2714813232421
 20
-84.42641432020399
 30
0.0
 10
105.7220998128254
 20
-83.97992994520398
 30
0.0
 10
105.7220998128254
 20
-83.42320251464842
 30
0.0
 10
105.7220998128254
 20
-83.42320251464842
 30
0.0
 10
105.7220998128254
 20
-71.39430711534287
 30
0.0
 10
105.7220998128254
 20
-71.39430711534287
 30
0.0
 10
105.7220998128254
 20
-70.84171379937065
 30
0.0
 10
105.2714813232421
 20
-70.39522942437065
 30
0.0
 10
104.7188880072699
 20
-70.39522942437065
 30
0.0
 10
104.7188880072699
 20
-70.39522942437065
 30
0.0
 10
90.68219095865885
 20
-70.39522942437065
 30
0.0
 10
90.68219095865885
 20
-70.39522942437065
 30
0.0
 10
90.12959764268662
 20
-70.39522942437065
 30
0.0
 10
89.68311326768661
 20
-70.84171379937065
 30
0.0
 10
89.68311326768661
 20
-71.39430711534287
 30
0.0
 10
89.68311326768661
 20
-71.39430711534287
 30
0.0
 10
89.68311326768661
 20
-74.40118645562065
 30
0.0
 10
89.68311326768661
 20
-74.40118645562065
 30
0.0
  0
SPLINE
  5
1AD
100
AcDbEntity
  8
ALPHA
 62
     7
100
AcDbSpline
210
0.0
220
0.0
230
1.0
 70
    11
 71
     3
 72
    26
 73
    22
 74
     0
 42
0.0000001
 43
0.0000001
 40
0.0
 40
0.0
 40
0.0
 40
0.0
 40
1.0
 40
1.0
 40
1.0
 40
2.0
 40
2.0
 40
2.0
 40
3.0
 40
3.0
 40
3.0
 40
4.0
 40
4.0
 40
4.0
 40
5.0
 40
5.0
 40
5.0
 40
6.0
 40
6.0
 40
6.0
 40
7.0
 40
7.0
 40
7.0
 40
7.0
 10
92.69412672254773
 20
-77.40806579589843
 30
0.0
 10
92.69412672254773
 20
-77.40806579589843
 30
0.0
 10
89.68724738226995
 20
-74.40118645562065
 30
0.0
 10
89.68724738226995
 20
-74.40118645562065
 30
0.0
 10
89.68724738226995
 20
-74.40118645562065
 30
0.0
 10
84.67256639268661
 20
-74.40118645562065
 30
0.0
 10
84.67256639268661
 20
-74.40118645562065
 30
0.0
 10
83.01478644476995
 20
-74.40118645562065
 30
0.0
 10
81.66568705240884
 20
-75.75028584798175
 30
0.0
 10
81.66568705240884
 20
-77.40806579589843
 30
0.0
 10
81.66568705240884
 20
-77.40806579589843
 30
0.0
 10
81.66568705240884
 20
-77.40806579589843
 30
0.0
 10
81.66568705240884
 20
-77.40806579589843
 30
0.0
 10
81.66568705240884
 20
-79.07135789659287
 30
0.0
 10
83.01478644476995
 20
-80.41494513617621
 30
0.0
 10
84.67256639268661
 20
-80.41494513617621
 30
0.0
 10
84.67256639268661
 20
-80.41494513617621
 30
0.0
 10
89.68724738226995
 20
-80.41494513617621
 30
0.0
 10
89.68724738226995
 20
-80.41494513617621
 30
0.0
 10
89.68724738226995
 20
-80.41494513617621
 30
0.0
 10
92.69412672254773
 20
-77.40806579589843
 30
0.0
 10
92.69412672254773
 20
-77.40806579589843
 30
0.0
  0
SPLINE
  5
1AE
100
AcDbEntity
  8
ALPHA
 62
     7
100
AcDbSpline
210
0.0
220
0.0
230
-1.0
 70
     8
 71
     3
 72
    32
 73
    28
 74
     0
 42
0.0000001
 43
0.0000001
 40
0.0
 40
0.0
 40
0.0
 40
0.0
 40
1.0
 40
1.0
 40
1.0
 40
2.0
 40
2.0
 40
2.0
 40
3.0
 40
3.0
 40
3.0
 40
4.0
 40
4.0
 40
4.0
 40
5.0
 40
5.0
 40
5.0
 40
6.0
 40
6.0
 40
6.0
 40
7.0
 40
7.0
 40
7.0
 40
8.0
 40
8.0
 40
8.0
 40
9.0
 40
9.0
 40
9.0
 40
9.0
 10
127.7817352294921
 20
15.07362772623697
 30
0.0
 10
127.7817352294921
 20
15.07362772623697
 30
0.0
 10
127.7817352294921
 20
12.06537034776475
 30
0.0
 10
127.7817352294921
 20
12.06537034776475
 30
0.0
 10
127.7817352294921
 20
11.5086429172092
 30
0.0
 10
127.3352508544921
 20
11.0621585422092
 30
0.0
 10
126.7771453857421
 20
11.0621585422092
 30
0.0
 10
126.7771453857421
 20
11.0621585422092
 30
0.0
 10
112.7459604899088
 20
11.0621585422092
 30
0.0
 10
112.7459604899088
 20
11.0621585422092
 30
0.0
 10
112.1933671739366
 20
11.0621585422092
 30
0.0
 10
111.7413706461588
 20
11.5086429172092
 30
0.0
 10
111.7413706461588
 20
12.06537034776475
 30
0.0
 10
111.7413706461588
 20
12.06537034776475
 30
0.0
 10
111.7413706461588
 20
24.09426574707031
 30
0.0
 10
111.7413706461588
 20
24.09426574707031
 30
0.0
 10
111.7413706461588
 20
24.64685906304253
 30
0.0
 10
112.1933671739366
 20
25.09334343804253
 30
0.0
 10
112.7459604899088
 20
25.09334343804253
 30
0.0
 10
112.7459604899088
 20
25.09334343804253
 30
0.0
 10
126.7771453857421
 20
25.09334343804253
 30
0.0
 10
126.7771453857421
 20
25.09334343804253
 30
0.0
 10
127.3352508544921
 20
25.09334343804253
 30
0.0
 10
127.7817352294921
 20
24.64685906304253
 30
0.0
 10
127.7817352294921
 20
24.09426574707031
 30
0.0
 10
127.7817352294921
 20
24.09426574707031
 30
0.0
 10
127.7817352294921
 20
21.08738640679253
 30
0.0
 10
127.7817352294921
 20
21.08738640679253
 30
0.0
  0
SPLINE
  5
1AF
100
AcDbEntity
  8
ALPHA
 62
     7
100
AcDbSpline
210
0.0
220
0.0
230
1.0
 70
    11
 71
     3
 72
    26
 73
    22
 74
     0
 42
0.0000001
 43
0.0000001
 40
0.0
 40
0.0
 40
0.0
 40
0.0
 40
1.0
 40
1.0
 40
1.0
 40
2.0
 40
2.0
 40
2.0
 40
3.0
 40
3.0
 40
3.0
 40
4.0
 40
4.0
 40
4.0
 40
5.0
 40
5.0
 40
5.0
 40
6.0
 40
6.0
 40
6.0
 40
7.0
 40
7.0
 40
7.0
 40
7.0
 10
124.7693437364366
 20
18.08050706651475
 30
0.0
 10
124.7693437364366
 20
18.08050706651475
 30
0.0
 10
127.7776011149088
 20
21.08738640679253
 30
0.0
 10
127.7776011149088
 20
21.08738640679253
 30
0.0
 10
127.7776011149088
 20
21.08738640679253
 30
0.0
 10
132.7867699517144
 20
21.08738640679253
 30
0.0
 10
132.7867699517144
 20
21.08738640679253
 30
0.0
 10
134.4500620524088
 20
21.08738640679253
 30
0.0
 10
135.7950273301866
 20
19.73828701443142
 30
0.0
 10
135.7950273301866
 20
18.08050706651475
 30
0.0
 10
135.7950273301866
 20
18.08050706651475
 30
0.0
 10
135.7950273301866
 20
18.08050706651475
 30
0.0
 10
135.7950273301866
 20
18.08050706651475
 30
0.0
 10
135.7950273301866
 20
16.41721496582031
 30
0.0
 10
134.4500620524088
 20
15.07362772623697
 30
0.0
 10
132.7867699517144
 20
15.07362772623697
 30
0.0
 10
132.7867699517144
 20
15.07362772623697
 30
0.0
 10
127.7776011149088
 20
15.07362772623697
 30
0.0
 10
127.7776011149088
 20
15.07362772623697
 30
0.0
 10
127.7776011149088
 20
15.07362772623697
 30
0.0
 10
124.7693437364366
 20
18.08050706651475
 30
0.0
 10
124.7693437364366
 20
18.08050706651475
 30
0.0
  0
SPLINE
  5
1B0
100
AcDbEntity
  8
ALPHA
 62
     7
100
AcDbSpline
210
0.0
220
0.0
230
-1.0
 70
     8
 71
     3
 72
    32
 73
    28
 74
     0
 42
0.0000001
 43
0.0000001
 40
0.0
 40
0.0
 40
0.0
 40
0.0
 40
1.0
 40
1.0
 40
1.0
 40
2.0
 40
2.0
 40
2.0
 40
3.0
 40
3.0
 40
3.0
 40
4.0
 40
4.0
 40
4.0
 40
5.0
 40
5.0
 40
5.0
 40
6.0
 40
6.0
 40
6.0
 40
7.0
 40
7.0
 40
7.0
 40
8.0
 40
8.0
 40
8.0
 40
9.0
 40
9.0
 40
9.0
 40
9.0
 10
127.7817352294921
 20
-4.024775865342881
 30
0.0
 10
127.7817352294921
 20
-4.024775865342881
 30
0.0
 10
127.7817352294921
 20
-7.031655205620658
 30
0.0
 10
127.7817352294921
 20
-7.031655205620658
 30
0.0
 10
127.7817352294921
 20
-7.589760674370658
 30
0.0
 10
127.3352508544921
 20
-8.036245049370659
 30
0.0
 10
126.7771453857421
 20
-8.036245049370659
 30
0.0
 10
126.7771453857421
 20
-8.036245049370659
 30
0.0
 10
112.7459604899088
 20
-8.036245049370659
 30
0.0
 10
112.7459604899088
 20
-8.036245049370659
 30
0.0
 10
112.1933671739366
 20
-8.036245049370659
 30
0.0
 10
111.7413706461588
 20
-7.589760674370658
 30
0.0
 10
111.7413706461588
 20
-7.031655205620658
 30
0.0
 10
111.7413706461588
 20
-7.031655205620658
 30
0.0
 10
111.7413706461588
 20
4.997240193684895
 30
0.0
 10
111.7413706461588
 20
4.997240193684895
 30
0.0
 10
111.7413706461588
 20
5.549833509657117
 30
0.0
 10
112.1933671739366
 20
5.996317884657117
 30
0.0
 10
112.7459604899088
 20
5.996317884657117
 30
0.0
 10
112.7459604899088
 20
5.996317884657117
 30
0.0
 10
126.7771453857421
 20
5.996317884657117
 30
0.0
 10
126.7771453857421
 20
5.996317884657117
 30
0.0
 10
127.3352508544921
 20
5.996317884657117
 30
0.0
 10
127.7817352294921
 20
5.549833509657117
 30
0.0
 10
127.7817352294921
 20
4.997240193684895
 30
0.0
 10
127.7817352294921
 20
4.997240193684895
 30
0.0
 10
127.7817352294921
 20
1.988982815212673
 30
0.0
 10
127.7817352294921
 20
1.988982815212673
 30
0.0
  0
SPLINE
  5
1B1
100
AcDbEntity
  8
ALPHA
 62
     7
100
AcDbSpline
210
0.0
220
0.0
230
1.0
 70
    11
 71
     3
 72
    26
 73
    22
 74
     0
 42
0.0000001
 43
0.0000001
 40
0.0
 40
0.0
 40
0.0
 40
0.0
 40
1.0
 40
1.0
 40
1.0
 40
2.0
 40
2.0
 40
2.0
 40
3.0
 40
3.0
 40
3.0
 40
4.0
 40
4.0
 40
4.0
 40
5.0
 40
5.0
 40
5.0
 40
6.0
 40
6.0
 40
6.0
 40
7.0
 40
7.0
 40
7.0
 40
7.0
 10
124.7693437364366
 20
-1.017896525065103
 30
0.0
 10
124.7693437364366
 20
-1.017896525065103
 30
0.0
 10
127.7776011149088
 20
1.988982815212673
 30
0.0
 10
127.7776011149088
 20
1.988982815212673
 30
0.0
 10
127.7776011149088
 20
1.988982815212673
 30
0.0
 10
132.7867699517144
 20
1.988982815212673
 30
0.0
 10
132.7867699517144
 20
1.988982815212673
 30
0.0
 10
134.4500620524088
 20
1.988982815212673
 30
0.0
 10
135.7950273301866
 20
0.6398834228515625
 30
0.0
 10
135.7950273301866
 20
-1.017896525065103
 30
0.0
 10
135.7950273301866
 20
-1.017896525065103
 30
0.0
 10
135.7950273301866
 20
-1.017896525065103
 30
0.0
 10
135.7950273301866
 20
-1.017896525065103
 30
0.0
 10
135.7950273301866
 20
-2.679810587565103
 30
0.0
 10
134.4500620524088
 20
-4.024775865342881
 30
0.0
 10
132.7867699517144
 20
-4.024775865342881
 30
0.0
 10
132.7867699517144
 20
-4.024775865342881
 30
0.0
 10
127.7776011149088
 20
-4.024775865342881
 30
0.0
 10
127.7776011149088
 20
-4.024775865342881
 30
0.0
 10
127.7776011149088
 20
-4.024775865342881
 30
0.0
 10
124.7693437364366
 20
-1.017896525065103
 30
0.0
 10
124.7693437364366
 20
-1.017896525065103
 30
0.0
  0
SPLINE
  5
1B2
100
AcDbEntity
  8
ALPHA
 62
     7
100
AcDbSpline
210
0.0
220
0.0
230
-1.0
 70
     8
 71
     3
 72
    32
 73
    28
 74
     0
 42
0.0000001
 43
0.0000001
 40
0.0
 40
0.0
 40
0.0
 40
0.0
 40
1.0
 40
1.0
 40
1.0
 40
2.0
 40
2.0
 40
2.0
 40
3.0
 40
3.0
 40
3.0
 40
4.0
 40
4.0
 40
4.0
 40
5.0
 40
5.0
 40
5.0
 40
6.0
 40
6.0
 40
6.0
 40
7.0
 40
7.0
 40
7.0
 40
8.0
 40
8.0
 40
8.0
 40
9.0
 40
9.0
 40
9.0
 40
9.0
 10
127.7817352294921
 20
-23.12300720214843
 30
0.0
 10
127.7817352294921
 20
-23.12300720214843
 30
0.0
 10
127.7817352294921
 20
-26.12988654242621
 30
0.0
 10
127.7817352294921
 20
-26.12988654242621
 30
0.0
 10
127.7817352294921
 20
-26.68661397298176
 30
0.0
 10
127.3352508544921
 20
-27.13309834798177
 30
0.0
 10
126.7771453857421
 20
-27.13309834798177
 30
0.0
 10
126.7771453857421
 20
-27.13309834798177
 30
0.0
 10
112.7459604899088
 20
-27.13309834798177
 30
0.0
 10
112.7459604899088
 20
-27.13309834798177
 30
0.0
 10
112.1933671739366
 20
-27.13309834798177
 30
0.0
 10
111.7413706461588
 20
-26.68661397298176
 30
0.0
 10
111.7413706461588
 20
-26.12988654242621
 30
0.0
 10
111.7413706461588
 20
-26.12988654242621
 30
0.0
 10
111.7413706461588
 20
-14.10099114312066
 30
0.0
 10
111.7413706461588
 20
-14.10099114312066
 30
0.0
 10
111.7413706461588
 20
-13.54839782714843
 30
0.0
 10
112.1933671739366
 20
-13.10191345214843
 30
0.0
 10
112.7459604899088
 20
-13.10191345214843
 30
0.0
 10
112.7459604899088
 20
-13.10191345214843
 30
0.0
 10
126.7771453857421
 20
-13.10191345214843
 30
0.0
 10
126.7771453857421
 20
-13.10191345214843
 30
0.0
 10
127.3352508544921
 20
-13.10191345214843
 30
0.0
 10
127.7817352294921
 20
-13.54839782714843
 30
0.0
 10
127.7817352294921
 20
-14.10099114312066
 30
0.0
 10
127.7817352294921
 20
-14.10099114312066
 30
0.0
 10
127.7817352294921
 20
-17.10787048339843
 30
0.0
 10
127.7817352294921
 20
-17.10787048339843
 30
0.0
  0
SPLINE
  5
1B3
100
AcDbEntity
  8
ALPHA
 62
     7
100
AcDbSpline
210
0.0
220
0.0
230
1.0
 70
    11
 71
     3
 72
    26
 73
    22
 74
     0
 42
0.0000001
 43
0.0000001
 40
0.0
 40
0.0
 40
0.0
 40
0.0
 40
1.0
 40
1.0
 40
1.0
 40
2.0
 40
2.0
 40
2.0
 40
3.0
 40
3.0
 40
3.0
 40
4.0
 40
4.0
 40
4.0
 40
5.0
 40
5.0
 40
5.0
 40
6.0
 40
6.0
 40
6.0
 40
7.0
 40
7.0
 40
7.0
 40
7.0
 10
124.7693437364366
 20
-20.11474982367621
 30
0.0
 10
124.7693437364366
 20
-20.11474982367621
 30
0.0
 10
127.7776011149088
 20
-17.10787048339843
 30
0.0
 10
127.7776011149088
 20
-17.10787048339843
 30
0.0
 10
127.7776011149088
 20
-17.10787048339843
 30
0.0
 10
132.7867699517144
 20
-17.10787048339843
 30
0.0
 10
132.7867699517144
 20
-17.10787048339843
 30
0.0
 10
134.4500620524088
 20
-17.10787048339843
 30
0.0
 10
135.7950273301866
 20
-18.45696987575954
 30
0.0
 10
135.7950273301866
 20
-20.11474982367621
 30
0.0
 10
135.7950273301866
 20
-20.11474982367621
 30
0.0
 10
135.7950273301866
 20
-20.11474982367621
 30
0.0
 10
135.7950273301866
 20
-20.11474982367621
 30
0.0
 10
135.7950273301866
 20
-21.77804192437065
 30
0.0
 10
134.4500620524088
 20
-23.12300720214843
 30
0.0
 10
132.7867699517144
 20
-23.12300720214843
 30
0.0
 10
132.7867699517144
 20
-23.12300720214843
 30
0.0
 10
127.7776011149088
 20
-23.12300720214843
 30
0.0
 10
127.7776011149088
 20
-23.12300720214843
 30
0.0
 10
127.7776011149088
 20
-23.12300720214843
 30
0.0
 10
124.7693437364366
 20
-20.11474982367621
 30
0.0
 10
124.7693437364366
 20
-20.11474982367621
 30
0.0
  0
SPLINE
  5
1B4
100
AcDbEntity
  8
ALPHA
 62
     7
100
AcDbSpline
210
0.0
220
0.0
230
-1.0
 70
     8
 71
     3
 72
    32
 73
    28
 74
     0
 42
0.0000001
 43
0.0000001
 40
0.0
 40
0.0
 40
0.0
 40
0.0
 40
1.0
 40
1.0
 40
1.0
 40
2.0
 40
2.0
 40
2.0
 40
3.0
 40
3.0
 40
3.0
 40
4.0
 40
4.0
 40
4.0
 40
5.0
 40
5.0
 40
5.0
 40
6.0
 40
6.0
 40
6.0
 40
7.0
 40
7.0
 40
7.0
 40
8.0
 40
8.0
 40
8.0
 40
9.0
 40
9.0
 40
9.0
 40
9.0
 10
127.7817352294921
 20
-42.21986050075954
 30
0.0
 10
127.7817352294921
 20
-42.21986050075954
 30
0.0
 10
127.7817352294921
 20
-45.22811787923177
 30
0.0
 10
127.7817352294921
 20
-45.22811787923177
 30
0.0
 10
127.7817352294921
 20
-45.78484530978732
 30
0.0
 10
127.3352508544921
 20
-46.23132968478731
 30
0.0
 10
126.7771453857421
 20
-46.23132968478731
 30
0.0
 10
126.7771453857421
 20
-46.23132968478731
 30
0.0
 10
112.7459604899088
 20
-46.23132968478731
 30
0.0
 10
112.7459604899088
 20
-46.23132968478731
 30
0.0
 10
112.1933671739366
 20
-46.23132968478731
 30
0.0
 10
111.7413706461588
 20
-45.78484530978732
 30
0.0
 10
111.7413706461588
 20
-45.22811787923177
 30
0.0
 10
111.7413706461588
 20
-45.22811787923177
 30
0.0
 10
111.7413706461588
 20
-33.19922247992621
 30
0.0
 10
111.7413706461588
 20
-33.19922247992621
 30
0.0
 10
111.7413706461588
 20
-32.64662916395399
 30
0.0
 10
112.1933671739366
 20
-32.19876675075954
 30
0.0
 10
112.7459604899088
 20
-32.19876675075954
 30
0.0
 10
112.7459604899088
 20
-32.19876675075954
 30
0.0
 10
126.7771453857421
 20
-32.19876675075954
 30
0.0
 10
126.7771453857421
 20
-32.19876675075954
 30
0.0
 10
127.3352508544921
 20
-32.19876675075954
 30
0.0
 10
127.7817352294921
 20
-32.64662916395399
 30
0.0
 10
127.7817352294921
 20
-33.19922247992621
 30
0.0
 10
127.7817352294921
 20
-33.19922247992621
 30
0.0
 10
127.7817352294921
 20
-36.20610182020399
 30
0.0
 10
127.7817352294921
 20
-36.20610182020399
 30
0.0
  0
SPLINE
  5
1B5
100
AcDbEntity
  8
ALPHA
 62
     7
100
AcDbSpline
210
0.0
220
0.0
230
1.0
 70
    11
 71
     3
 72
    26
 73
    22
 74
     0
 42
0.0000001
 43
0.0000001
 40
0.0
 40
0.0
 40
0.0
 40
0.0
 40
1.0
 40
1.0
 40
1.0
 40
2.0
 40
2.0
 40
2.0
 40
3.0
 40
3.0
 40
3.0
 40
4.0
 40
4.0
 40
4.0
 40
5.0
 40
5.0
 40
5.0
 40
6.0
 40
6.0
 40
6.0
 40
7.0
 40
7.0
 40
7.0
 40
7.0
 10
124.7693437364366
 20
-39.21298116048177
 30
0.0
 10
124.7693437364366
 20
-39.21298116048177
 30
0.0
 10
127.7776011149088
 20
-36.20610182020399
 30
0.0
 10
127.7776011149088
 20
-36.20610182020399
 30
0.0
 10
127.7776011149088
 20
-36.20610182020399
 30
0.0
 10
132.7867699517144
 20
-36.20610182020399
 30
0.0
 10
132.7867699517144
 20
-36.20610182020399
 30
0.0
 10
134.4500620524088
 20
-36.20610182020399
 30
0.0
 10
135.7950273301866
 20
-37.5552012125651
 30
0.0
 10
135.7950273301866
 20
-39.21298116048177
 30
0.0
 10
135.7950273301866
 20
-39.21298116048177
 30
0.0
 10
135.7950273301866
 20
-39.21298116048177
 30
0.0
 10
135.7950273301866
 20
-39.21298116048177
 30
0.0
 10
135.7950273301866
 20
-40.87489522298176
 30
0.0
 10
134.4500620524088
 20
-42.21986050075954
 30
0.0
 10
132.7867699517144
 20
-42.21986050075954
 30
0.0
 10
132.7867699517144
 20
-42.21986050075954
 30
0.0
 10
127.7776011149088
 20
-42.21986050075954
 30
0.0
 10
127.7776011149088
 20
-42.21986050075954
 30
0.0
 10
127.7776011149088
 20
-42.21986050075954
 30
0.0
 10
124.7693437364366
 20
-39.21298116048177
 30
0.0
 10
124.7693437364366
 20
-39.21298116048177
 30
0.0
  0
SPLINE
  5
1B6
100
AcDbEntity
  8
ALPHA
 62
     7
100
AcDbSpline
210
0.0
220
0.0
230
-1.0
 70
     8
 71
     3
 72
    32
 73
    28
 74
     0
 42
0.0000001
 43
0.0000001
 40
0.0
 40
0.0
 40
0.0
 40
0.0
 40
1.0
 40
1.0
 40
1.0
 40
2.0
 40
2.0
 40
2.0
 40
3.0
 40
3.0
 40
3.0
 40
4.0
 40
4.0
 40
4.0
 40
5.0
 40
5.0
 40
5.0
 40
6.0
 40
6.0
 40
6.0
 40
7.0
 40
7.0
 40
7.0
 40
8.0
 40
8.0
 40
8.0
 40
9.0
 40
9.0
 40
9.0
 40
9.0
 10
127.7817352294921
 20
-61.3180918375651
 30
0.0
 10
127.7817352294921
 20
-61.3180918375651
 30
0.0
 10
127.7817352294921
 20
-64.32497117784286
 30
0.0
 10
127.7817352294921
 20
-64.32497117784286
 30
0.0
 10
127.7817352294921
 20
-64.88169860839843
 30
0.0
 10
127.3352508544921
 20
-65.32956102159288
 30
0.0
 10
126.7771453857421
 20
-65.32956102159288
 30
0.0
 10
126.7771453857421
 20
-65.32956102159288
 30
0.0
 10
112.7459604899088
 20
-65.32956102159288
 30
0.0
 10
112.7459604899088
 20
-65.32956102159288
 30
0.0
 10
112.1933671739366
 20
-65.32956102159288
 30
0.0
 10
111.7413706461588
 20
-64.88169860839843
 30
0.0
 10
111.7413706461588
 20
-64.32497117784286
 30
0.0
 10
111.7413706461588
 20
-64.32497117784286
 30
0.0
 10
111.7413706461588
 20
-52.29607577853732
 30
0.0
 10
111.7413706461588
 20
-52.29607577853732
 30
0.0
 10
111.7413706461588
 20
-51.7434824625651
 30
0.0
 10
112.1933671739366
 20
-51.2969980875651
 30
0.0
 10
112.7459604899088
 20
-51.2969980875651
 30
0.0
 10
112.7459604899088
 20
-51.2969980875651
 30
0.0
 10
126.7771453857421
 20
-51.2969980875651
 30
0.0
 10
126.7771453857421
 20
-51.2969980875651
 30
0.0
 10
127.3352508544921
 20
-51.2969980875651
 30
0.0
 10
127.7817352294921
 20
-51.7434824625651
 30
0.0
 10
127.7817352294921
 20
-52.29607577853732
 30
0.0
 10
127.7817352294921
 20
-52.29607577853732
 30
0.0
 10
127.7817352294921
 20
-55.3029551188151
 30
0.0
 10
127.7817352294921
 20
-55.3029551188151
 30
0.0
  0
SPLINE
  5
1B7
100
AcDbEntity
  8
ALPHA
 62
     7
100
AcDbSpline
210
0.0
220
0.0
230
1.0
 70
    11
 71
     3
 72
    26
 73
    22
 74
     0
 42
0.0000001
 43
0.0000001
 40
0.0
 40
0.0
 40
0.0
 40
0.0
 40
1.0
 40
1.0
 40
1.0
 40
2.0
 40
2.0
 40
2.0
 40
3.0
 40
3.0
 40
3.0
 40
4.0
 40
4.0
 40
4.0
 40
5.0
 40
5.0
 40
5.0
 40
6.0
 40
6.0
 40
6.0
 40
7.0
 40
7.0
 40
7.0
 40
7.0
 10
124.7693437364366
 20
-58.31121249728732
 30
0.0
 10
124.7693437364366
 20
-58.31121249728732
 30
0.0
 10
127.7776011149088
 20
-55.3029551188151
 30
0.0
 10
127.7776011149088
 20
-55.3029551188151
 30
0.0
 10
127.7776011149088
 20
-55.3029551188151
 30
0.0
 10
132.7867699517144
 20
-55.3029551188151
 30
0.0
 10
132.7867699517144
 20
-55.3029551188151
 30
0.0
 10
134.4500620524088
 20
-55.3029551188151
 30
0.0
 10
135.7950273301866
 20
-56.65343254937066
 30
0.0
 10
135.7950273301866
 20
-58.31121249728732
 30
0.0
 10
135.7950273301866
 20
-58.31121249728732
 30
0.0
 10
135.7950273301866
 20
-58.31121249728732
 30
0.0
 10
135.7950273301866
 20
-58.31121249728732
 30
0.0
 10
135.7950273301866
 20
-59.97312655978731
 30
0.0
 10
134.4500620524088
 20
-61.3180918375651
 30
0.0
 10
132.7867699517144
 20
-61.3180918375651
 30
0.0
 10
132.7867699517144
 20
-61.3180918375651
 30
0.0
 10
127.7776011149088
 20
-61.3180918375651
 30
0.0
 10
127.7776011149088
 20
-61.3180918375651
 30
0.0
 10
127.7776011149088
 20
-61.3180918375651
 30
0.0
 10
124.7693437364366
 20
-58.31121249728732
 30
0.0
 10
124.7693437364366
 20
-58.31121249728732
 30
0.0
  0
SPLINE
  5
1B8
100
AcDbEntity
  8
ALPHA
 62
     7
100
AcDbSpline
210
0.0
220
0.0
230
-1.0
 70
     8
 71
     3
 72
    32
 73
    28
 74
     0
 42
0.0000001
 43
0.0000001
 40
0.0
 40
0.0
 40
0.0
 40
0.0
 40
1.0
 40
1.0
 40
1.0
 40
2.0
 40
2.0
 40
2.0
 40
3.0
 40
3.0
 40
3.0
 40
4.0
 40
4.0
 40
4.0
 40
5.0
 40
5.0
 40
5.0
 40
6.0
 40
6.0
 40
6.0
 40
7.0
 40
7.0
 40
7.0
 40
8.0
 40
8.0
 40
8.0
 40
9.0
 40
9.0
 40
9.0
 40
9.0
 10
127.7817352294921
 20
-80.41494513617621
 30
0.0
 10
127.7817352294921
 20
-80.41494513617621
 30
0.0
 10
127.7817352294921
 20
-83.42320251464842
 30
0.0
 10
127.7817352294921
 20
-83.42320251464842
 30
0.0
 10
127.7817352294921
 20
-83.97992994520398
 30
0.0
 10
127.3352508544921
 20
-84.42641432020399
 30
0.0
 10
126.7771453857421
 20
-84.42641432020399
 30
0.0
 10
126.7771453857421
 20
-84.42641432020399
 30
0.0
 10
112.7459604899088
 20
-84.42641432020399
 30
0.0
 10
112.7459604899088
 20
-84.42641432020399
 30
0.0
 10
112.1933671739366
 20
-84.42641432020399
 30
0.0
 10
111.7413706461588
 20
-83.97992994520398
 30
0.0
 10
111.7413706461588
 20
-83.42320251464842
 30
0.0
 10
111.7413706461588
 20
-83.42320251464842
 30
0.0
 10
111.7413706461588
 20
-71.39430711534287
 30
0.0
 10
111.7413706461588
 20
-71.39430711534287
 30
0.0
 10
111.7413706461588
 20
-70.84171379937065
 30
0.0
 10
112.1933671739366
 20
-70.39522942437065
 30
0.0
 10
112.7459604899088
 20
-70.39522942437065
 30
0.0
 10
112.7459604899088
 20
-70.39522942437065
 30
0.0
 10
126.7771453857421
 20
-70.39522942437065
 30
0.0
 10
126.7771453857421
 20
-70.39522942437065
 30
0.0
 10
127.3352508544921
 20
-70.39522942437065
 30
0.0
 10
127.7817352294921
 20
-70.84171379937065
 30
0.0
 10
127.7817352294921
 20
-71.39430711534287
 30
0.0
 10
127.7817352294921
 20
-71.39430711534287
 30
0.0
 10
127.7817352294921
 20
-74.40118645562065
 30
0.0
 10
127.7817352294921
 20
-74.40118645562065
 30
0.0
  0
SPLINE
  5
1B9
100
AcDbEntity
  8
ALPHA
 62
     7
100
AcDbSpline
210
0.0
220
0.0
230
1.0
 70
    11
 71
     3
 72
    26
 73
    22
 74
     0
 42
0.0000001
 43
0.0000001
 40
0.0
 40
0.0
 40
0.0
 40
0.0
 40
1.0
 40
1.0
 40
1.0
 40
2.0
 40
2.0
 40
2.0
 40
3.0
 40
3.0
 40
3.0
 40
4.0
 40
4.0
 40
4.0
 40
5.0
 40
5.0
 40
5.0
 40
6.0
 40
6.0
 40
6.0
 40
7.0
 40
7.0
 40
7.0
 40
7.0
 10
124.7693437364366
 20
-77.40806579589843
 30
0.0
 10
124.7693437364366
 20
-77.40806579589843
 30
0.0
 10
127.7776011149088
 20
-74.40118645562065
 30
0.0
 10
127.7776011149088
 20
-74.40118645562065
 30
0.0
 10
127.7776011149088
 20
-74.40118645562065
 30
0.0
 10
132.7867699517144
 20
-74.40118645562065
 30
0.0
 10
132.7867699517144
 20
-74.40118645562065
 30
0.0
 10
134.4500620524088
 20
-74.40118645562065
 30
0.0
 10
135.7950273301866
 20
-75.75028584798175
 30
0.0
 10
135.7950273301866
 20
-77.40806579589843
 30
0.0
 10
135.7950273301866
 20
-77.40806579589843
 30
0.0
 10
135.7950273301866
 20
-77.40806579589843
 30
0.0
 10
135.7950273301866
 20
-77.40806579589843
 30
0.0
 10
135.7950273301866
 20
-79.07135789659287
 30
0.0
 10
134.4500620524088
 20
-80.41494513617621
 30
0.0
 10
132.7867699517144
 20
-80.41494513617621
 30
0.0
 10
132.7867699517144
 20
-80.41494513617621
 30
0.0
 10
127.7776011149088
 20
-80.41494513617621
 30
0.0
 10
127.7776011149088
 20
-80.41494513617621
 30
0.0
 10
127.7776011149088
 20
-80.41494513617621
 30
0.0
 10
124.7693437364366
 20
-77.40806579589843
 30
0.0
 10
124.7693437364366
 20
-77.40806579589843
 30
0.0
  0
POLYLINE
  5
1BA
100
AcDbEntity
  8
ALPHA
 62
     7
100
AcDb2dPolyline
 66
     1
 10
0.0
 20
0.0
 30
0.0
 70
     1
  0
VERTEX
  5
1BB
100
AcDbEntity
  8
ALPHA
 62
     7
100
AcDbVertex
100
AcDb2dVertex
 10
-53.427531
 20
-72.416811
 30
0.0
  0
VERTEX
  5
1BC
100
AcDbEntity
  8
ALPHA
 62
     7
100
AcDbVertex
100
AcDb2dVertex
 10
-53.427531
 20
-63.394795
 30
0.0
  0
VERTEX
  5
1BD
100
AcDbEntity
  8
ALPHA
 62
     7
100
AcDbVertex
100
AcDb2dVertex
 10
-68.468646
 20
-63.394795
 30
0.0
  0
VERTEX
  5
1BE
100
AcDbEntity
  8
ALPHA
 62
     7
100
AcDbVertex
100
AcDb2dVertex
 10
-68.468646
 20
-72.416811
 30
0.0
  0
SEQEND
  5
1BF
100
AcDbEntity
  8
ALPHA
 62
     7
  0
POLYLINE
  5
1C0
100
AcDbEntity
  8
ALPHA
 62
     7
100
AcDb2dPolyline
 66
     1
 10
0.0
 20
0.0
 30
0.0
 70
     1
  0
VERTEX
  5
1C1
100
AcDbEntity
  8
ALPHA
 62
     7
100
AcDbVertex
100
AcDb2dVertex
 10
-53.427531
 20
-34.221727
 30
0.0
  0
VERTEX
  5
1C2
100
AcDbEntity
  8
ALPHA
 62
     7
100
AcDbVertex
100
AcDb2dVertex
 10
-53.427531
 20
-25.199711
 30
0.0
  0
VERTEX
  5
1C3
100
AcDbEntity
  8
ALPHA
 62
     7
100
AcDbVertex
100
AcDb2dVertex
 10
-68.468646
 20
-25.199711
 30
0.0
  0
VERTEX
  5
1C4
100
AcDbEntity
  8
ALPHA
 62
     7
100
AcDbVertex
100
AcDb2dVertex
 10
-68.468646
 20
-34.221727
 30
0.0
  0
SEQEND
  5
1C5
100
AcDbEntity
  8
ALPHA
 62
     7
  0
POLYLINE
  5
1C6
100
AcDbEntity
  8
ALPHA
 62
     7
100
AcDb2dPolyline
 66
     1
 10
0.0
 20
0.0
 30
0.0
 70
     1
  0
VERTEX
  5
1C7
100
AcDbEntity
  8
ALPHA
 62
     7
100
AcDbVertex
100
AcDb2dVertex
 10
-34.330678
 20
-52.789413
 30
0.0
  0
VERTEX
  5
1C8
100
AcDbEntity
  8
ALPHA
 62
     7
100
AcDbVertex
100
AcDb2dVertex
 10
-34.330678
 20
-43.767397
 30
0.0
  0
VERTEX
  5
1C9
100
AcDbEntity
  8
ALPHA
 62
     7
100
AcDbVertex
100
AcDb2dVertex
 10
-49.370587
 20
-43.767397
 30
0.0
  0
VERTEX
  5
1CA
100
AcDbEntity
  8
ALPHA
 62
     7
100
AcDbVertex
100
AcDb2dVertex
 10
-49.370587
 20
-52.789413
 30
0.0
  0
SEQEND
  5
1CB
100
AcDbEntity
  8
ALPHA
 62
     7
  0
POLYLINE
  5
1CC
100
AcDbEntity
  8
ALPHA
 62
     7
100
AcDb2dPolyline
 66
     1
 10
0.0
 20
0.0
 30
0.0
 70
     1
  0
VERTEX
  5
1CD
100
AcDbEntity
  8
ALPHA
 62
     7
100
AcDbVertex
100
AcDb2dVertex
 10
-14.528269
 20
-34.221727
 30
0.0
  0
VERTEX
  5
1CE
100
AcDbEntity
  8
ALPHA
 62
     7
100
AcDbVertex
100
AcDb2dVertex
 10
-14.528269
 20
-25.199711
 30
0.0
  0
VERTEX
  5
1CF
100
AcDbEntity
  8
ALPHA
 62
     7
100
AcDbVertex
100
AcDb2dVertex
 10
-29.564044
 20
-25.199711
 30
0.0
  0
VERTEX
  5
1D0
100
AcDbEntity
  8
ALPHA
 62
     7
100
AcDbVertex
100
AcDb2dVertex
 10
-29.564044
 20
-34.221727
 30
0.0
  0
SEQEND
  5
1D1
100
AcDbEntity
  8
ALPHA
 62
     7
  0
POLYLINE
  5
1D2
100
AcDbEntity
  8
ALPHA
 62
     7
100
AcDb2dPolyline
 66
     1
 10
0.0
 20
0.0
 30
0.0
 70
     1
  0
VERTEX
  5
1D3
100
AcDbEntity
  8
ALPHA
 62
     7
100
AcDbVertex
100
AcDb2dVertex
 10
1.03805
 20
3.265046
 30
0.0
  0
VERTEX
  5
1D4
100
AcDbEntity
  8
ALPHA
 62
     7
100
AcDbVertex
100
AcDb2dVertex
 10
1.03805
 20
12.287234
 30
0.0
  0
VERTEX
  5
1D5
100
AcDbEntity
  8
ALPHA
 62
     7
100
AcDbVertex
100
AcDb2dVertex
 10
-14.003237
 20
12.287234
 30
0.0
  0
VERTEX
  5
1D6
100
AcDbEntity
  8
ALPHA
 62
     7
100
AcDbVertex
100
AcDb2dVertex
 10
-14.003237
 20
3.265046
 30
0.0
  0
SEQEND
  5
1D7
100
AcDbEntity
  8
ALPHA
 62
     7
  0
POLYLINE
  5
1D8
100
AcDbEntity
  8
ALPHA
 62
     7
100
AcDb2dPolyline
 66
     1
 10
0.0
 20
0.0
 30
0.0
 70
     1
  0
VERTEX
  5
1D9
100
AcDbEntity
  8
ALPHA
 62
     7
100
AcDbVertex
100
AcDb2dVertex
 10
22.254326
 20
3.265046
 30
0.0
  0
VERTEX
  5
1DA
100
AcDbEntity
  8
ALPHA
 62
     7
100
AcDbVertex
100
AcDb2dVertex
 10
22.254326
 20
12.287234
 30
0.0
  0
VERTEX
  5
1DB
100
AcDbEntity
  8
ALPHA
 62
     7
100
AcDbVertex
100
AcDb2dVertex
 10
7.218552
 20
12.287234
 30
0.0
  0
VERTEX
  5
1DC
100
AcDbEntity
  8
ALPHA
 62
     7
100
AcDbVertex
100
AcDb2dVertex
 10
7.218552
 20
3.265046
 30
0.0
  0
SEQEND
  5
1DD
100
AcDbEntity
  8
ALPHA
 62
     7
  0
POLYLINE
  5
1DE
100
AcDbEntity
  8
ALPHA
 62
     7
100
AcDb2dPolyline
 66
     1
 10
0.0
 20
0.0
 30
0.0
 70
     1
  0
VERTEX
  5
1DF
100
AcDbEntity
  8
ALPHA
 62
     7
100
AcDbVertex
100
AcDb2dVertex
 10
43.474737
 20
3.265046
 30
0.0
  0
VERTEX
  5
1E0
100
AcDbEntity
  8
ALPHA
 62
     7
100
AcDbVertex
100
AcDb2dVertex
 10
43.474737
 20
12.287234
 30
0.0
  0
VERTEX
  5
1E1
100
AcDbEntity
  8
ALPHA
 62
     7
100
AcDbVertex
100
AcDb2dVertex
 10
28.438962
 20
12.287234
 30
0.0
  0
VERTEX
  5
1E2
100
AcDbEntity
  8
ALPHA
 62
     7
100
AcDbVertex
100
AcDb2dVertex
 10
28.438962
 20
3.265046
 30
0.0
  0
SEQEND
  5
1E3
100
AcDbEntity
  8
ALPHA
 62
     7
  0
POLYLINE
  5
1E4
100
AcDbEntity
  8
ALPHA
 62
     7
100
AcDb2dPolyline
 66
     1
 10
0.0
 20
0.0
 30
0.0
 70
     1
  0
VERTEX
  5
1E5
100
AcDbEntity
  8
ALPHA
 62
     7
100
AcDbVertex
100
AcDb2dVertex
 10
64.695147
 20
3.265046
 30
0.0
  0
VERTEX
  5
1E6
100
AcDbEntity
  8
ALPHA
 62
     7
100
AcDbVertex
100
AcDb2dVertex
 10
64.695147
 20
12.287234
 30
0.0
  0
VERTEX
  5
1E7
100
AcDbEntity
  8
ALPHA
 62
     7
100
AcDbVertex
100
AcDb2dVertex
 10
49.659372
 20
12.287234
 30
0.0
  0
VERTEX
  5
1E8
100
AcDbEntity
  8
ALPHA
 62
     7
100
AcDbVertex
100
AcDb2dVertex
 10
49.659372
 20
3.265046
 30
0.0
  0
SEQEND
  5
1E9
100
AcDbEntity
  8
ALPHA
 62
     7
  0
POLYLINE
  5
1EA
100
AcDbEntity
  8
ALPHA
 62
     7
100
AcDb2dPolyline
 66
     1
 10
0.0
 20
0.0
 30
0.0
 70
     1
  0
VERTEX
  5
1EB
100
AcDbEntity
  8
ALPHA
 62
     7
100
AcDbVertex
100
AcDb2dVertex
 10
22.254326
 20
-73.125123
 30
0.0
  0
VERTEX
  5
1EC
100
AcDbEntity
  8
ALPHA
 62
     7
100
AcDbVertex
100
AcDb2dVertex
 10
22.254326
 20
-64.104485
 30
0.0
  0
VERTEX
  5
1ED
100
AcDbEntity
  8
ALPHA
 62
     7
100
AcDbVertex
100
AcDb2dVertex
 10
7.218552
 20
-64.104485
 30
0.0
  0
VERTEX
  5
1EE
100
AcDbEntity
  8
ALPHA
 62
     7
100
AcDbVertex
100
AcDb2dVertex
 10
7.218552
 20
-73.125123
 30
0.0
  0
SEQEND
  5
1EF
100
AcDbEntity
  8
ALPHA
 62
     7
  0
POLYLINE
  5
1F0
100
AcDbEntity
  8
ALPHA
 62
     7
100
AcDb2dPolyline
 66
     1
 10
0.0
 20
0.0
 30
0.0
 70
     1
  0
VERTEX
  5
1F1
100
AcDbEntity
  8
ALPHA
 62
     7
100
AcDbVertex
100
AcDb2dVertex
 10
43.474737
 20
-73.125123
 30
0.0
  0
VERTEX
  5
1F2
100
AcDbEntity
  8
ALPHA
 62
     7
100
AcDbVertex
100
AcDb2dVertex
 10
43.474737
 20
-64.104485
 30
0.0
  0
VERTEX
  5
1F3
100
AcDbEntity
  8
ALPHA
 62
     7
100
AcDbVertex
100
AcDb2dVertex
 10
28.438962
 20
-64.104485
 30
0.0
  0
VERTEX
  5
1F4
100
AcDbEntity
  8
ALPHA
 62
     7
100
AcDbVertex
100
AcDb2dVertex
 10
28.438962
 20
-73.125123
 30
0.0
  0
SEQEND
  5
1F5
100
AcDbEntity
  8
ALPHA
 62
     7
  0
POLYLINE
  5
1F6
100
AcDbEntity
  8
ALPHA
 62
     7
100
AcDb2dPolyline
 66
     1
 10
0.0
 20
0.0
 30
0.0
 70
     1
  0
VERTEX
  5
1F7
100
AcDbEntity
  8
ALPHA
 62
     7
100
AcDbVertex
100
AcDb2dVertex
 10
64.695147
 20
-73.125123
 30
0.0
  0
VERTEX
  5
1F8
100
AcDbEntity
  8
ALPHA
 62
     7
100
AcDbVertex
100
AcDb2dVertex
 10
64.695147
 20
-64.104485
 30
0.0
  0
VERTEX
  5
1F9
100
AcDbEntity
  8
ALPHA
 62
     7
100
AcDbVertex
100
AcDb2dVertex
 10
49.659372
 20
-64.104485
 30
0.0
  0
VERTEX
  5
1FA
100
AcDbEntity
  8
ALPHA
 62
     7
100
AcDbVertex
100
AcDb2dVertex
 10
49.659372
 20
-73.125123
 30
0.0
  0
SEQEND
  5
1FB
100
AcDbEntity
  8
ALPHA
 62
     7
  0
POLYLINE
  5
1FC
100
AcDbEntity
  8
ALPHA
 62
     7
100
AcDb2dPolyline
 66
     1
 10
0.0
 20
0.0
 30
0.0
 70
     1
  0
VERTEX
  5
1FD
100
AcDbEntity
  8
ALPHA
 62
     7
100
AcDbVertex
100
AcDb2dVertex
 10
22.254326
 20
-55.442137
 30
0.0
  0
VERTEX
  5
1FE
100
AcDbEntity
  8
ALPHA
 62
     7
100
AcDbVertex
100
AcDb2dVertex
 10
22.254326
 20
-46.420121
 30
0.0
  0
VERTEX
  5
1FF
100
AcDbEntity
  8
ALPHA
 62
     7
100
AcDbVertex
100
AcDb2dVertex
 10
7.218552
 20
-46.420121
 30
0.0
  0
VERTEX
  5
200
100
AcDbEntity
  8
ALPHA
 62
     7
100
AcDbVertex
100
AcDb2dVertex
 10
7.218552
 20
-55.442137
 30
0.0
  0
SEQEND
  5
201
100
AcDbEntity
  8
ALPHA
 62
     7
  0
POLYLINE
  5
202
100
AcDbEntity
  8
ALPHA
 62
     7
100
AcDb2dPolyline
 66
     1
 10
0.0
 20
0.0
 30
0.0
 70
     1
  0
VERTEX
  5
203
100
AcDbEntity
  8
ALPHA
 62
     7
100
AcDbVertex
100
AcDb2dVertex
 10
43.474737
 20
-55.442137
 30
0.0
  0
VERTEX
  5
204
100
AcDbEntity
  8
ALPHA
 62
     7
100
AcDbVertex
100
AcDb2dVertex
 10
43.474737
 20
-46.420121
 30
0.0
  0
VERTEX
  5
205
100
AcDbEntity
  8
ALPHA
 62
     7
100
AcDbVertex
100
AcDb2dVertex
 10
28.438962
 20
-46.420121
 30
0.0
  0
VERTEX
  5
206
100
AcDbEntity
  8
ALPHA
 62
     7
100
AcDbVertex
100
AcDb2dVertex
 10
28.438962
 20
-55.442137
 30
0.0
  0
SEQEND
  5
207
100
AcDbEntity
  8
ALPHA
 62
     7
  0
POLYLINE
  5
208
100
AcDbEntity
  8
ALPHA
 62
     7
100
AcDb2dPolyline
 66
     1
 10
0.0
 20
0.0
 30
0.0
 70
     1
  0
VERTEX
  5
209
100
AcDbEntity
  8
ALPHA
 62
     7
100
AcDbVertex
100
AcDb2dVertex
 10
64.695147
 20
-55.442137
 30
0.0
  0
VERTEX
  5
20A
100
AcDbEntity
  8
ALPHA
 62
     7
100
AcDbVertex
100
AcDb2dVertex
 10
64.695147
 20
-46.420121
 30
0.0
  0
VERTEX
  5
20B
100
AcDbEntity
  8
ALPHA
 62
     7
100
AcDbVertex
100
AcDb2dVertex
 10
49.659372
 20
-46.420121
 30
0.0
  0
VERTEX
  5
20C
100
AcDbEntity
  8
ALPHA
 62
     7
100
AcDbVertex
100
AcDb2dVertex
 10
49.659372
 20
-55.442137
 30
0.0
  0
SEQEND
  5
20D
100
AcDbEntity
  8
ALPHA
 62
     7
  0
POLYLINE
  5
20E
100
AcDbEntity
  8
ALPHA
 62
     7
100
AcDb2dPolyline
 66
     1
 10
0.0
 20
0.0
 30
0.0
 70
     1
  0
VERTEX
  5
20F
100
AcDbEntity
  8
ALPHA
 62
     7
100
AcDbVertex
100
AcDb2dVertex
 10
22.254326
 20
-35.98975
 30
0.0
  0
VERTEX
  5
210
100
AcDbEntity
  8
ALPHA
 62
     7
100
AcDbVertex
100
AcDb2dVertex
 10
22.254326
 20
-26.967734
 30
0.0
  0
VERTEX
  5
211
100
AcDbEntity
  8
ALPHA
 62
     7
100
AcDbVertex
100
AcDb2dVertex
 10
7.218552
 20
-26.967734
 30
0.0
  0
VERTEX
  5
212
100
AcDbEntity
  8
ALPHA
 62
     7
100
AcDbVertex
100
AcDb2dVertex
 10
7.218552
 20
-35.98975
 30
0.0
  0
SEQEND
  5
213
100
AcDbEntity
  8
ALPHA
 62
     7
  0
POLYLINE
  5
214
100
AcDbEntity
  8
ALPHA
 62
     7
100
AcDb2dPolyline
 66
     1
 10
0.0
 20
0.0
 30
0.0
 70
     1
  0
VERTEX
  5
215
100
AcDbEntity
  8
ALPHA
 62
     7
100
AcDbVertex
100
AcDb2dVertex
 10
43.474737
 20
-35.98975
 30
0.0
  0
VERTEX
  5
216
100
AcDbEntity
  8
ALPHA
 62
     7
100
AcDbVertex
100
AcDb2dVertex
 10
43.474737
 20
-26.967734
 30
0.0
  0
VERTEX
  5
217
100
AcDbEntity
  8
ALPHA
 62
     7
100
AcDbVertex
100
AcDb2dVertex
 10
28.438962
 20
-26.967734
 30
0.0
  0
VERTEX
  5
218
100
AcDbEntity
  8
ALPHA
 62
     7
100
AcDbVertex
100
AcDb2dVertex
 10
28.438962
 20
-35.98975
 30
0.0
  0
SEQEND
  5
219
100
AcDbEntity
  8
ALPHA
 62
     7
  0
POLYLINE
  5
21A
100
AcDbEntity
  8
ALPHA
 62
     7
100
AcDb2dPolyline
 66
     1
 10
0.0
 20
0.0
 30
0.0
 70
     1
  0
VERTEX
  5
21B
100
AcDbEntity
  8
ALPHA
 62
     7
100
AcDbVertex
100
AcDb2dVertex
 10
64.695147
 20
-35.98975
 30
0.0
  0
VERTEX
  5
21C
100
AcDbEntity
  8
ALPHA
 62
     7
100
AcDbVertex
100
AcDb2dVertex
 10
64.695147
 20
-26.967734
 30
0.0
  0
VERTEX
  5
21D
100
AcDbEntity
  8
ALPHA
 62
     7
100
AcDbVertex
100
AcDb2dVertex
 10
49.659372
 20
-26.967734
 30
0.0
  0
VERTEX
  5
21E
100
AcDbEntity
  8
ALPHA
 62
     7
100
AcDbVertex
100
AcDb2dVertex
 10
49.659372
 20
-35.98975
 30
0.0
  0
SEQEND
  5
21F
100
AcDbEntity
  8
ALPHA
 62
     7
  0
POLYLINE
  5
220
100
AcDbEntity
  8
ALPHA
 62
     7
100
AcDb2dPolyline
 66
     1
 10
0.0
 20
0.0
 30
0.0
 70
     1
  0
VERTEX
  5
221
100
AcDbEntity
  8
ALPHA
 62
     7
100
AcDbVertex
100
AcDb2dVertex
 10
22.254326
 20
-16.362352
 30
0.0
  0
VERTEX
  5
222
100
AcDbEntity
  8
ALPHA
 62
     7
100
AcDbVertex
100
AcDb2dVertex
 10
22.254326
 20
-7.340336
 30
0.0
  0
VERTEX
  5
223
100
AcDbEntity
  8
ALPHA
 62
     7
100
AcDbVertex
100
AcDb2dVertex
 10
7.218552
 20
-7.340336
 30
0.0
  0
VERTEX
  5
224
100
AcDbEntity
  8
ALPHA
 62
     7
100
AcDbVertex
100
AcDb2dVertex
 10
7.218552
 20
-16.362352
 30
0.0
  0
SEQEND
  5
225
100
AcDbEntity
  8
ALPHA
 62
     7
  0
POLYLINE
  5
226
100
AcDbEntity
  8
ALPHA
 62
     7
100
AcDb2dPolyline
 66
     1
 10
0.0
 20
0.0
 30
0.0
 70
     1
  0
VERTEX
  5
227
100
AcDbEntity
  8
ALPHA
 62
     7
100
AcDbVertex
100
AcDb2dVertex
 10
43.474737
 20
-16.362352
 30
0.0
  0
VERTEX
  5
228
100
AcDbEntity
  8
ALPHA
 62
     7
100
AcDbVertex
100
AcDb2dVertex
 10
43.474737
 20
-7.340336
 30
0.0
  0
VERTEX
  5
229
100
AcDbEntity
  8
ALPHA
 62
     7
100
AcDbVertex
100
AcDb2dVertex
 10
28.438962
 20
-7.340336
 30
0.0
  0
VERTEX
  5
22A
100
AcDbEntity
  8
ALPHA
 62
     7
100
AcDbVertex
100
AcDb2dVertex
 10
28.438962
 20
-16.362352
 30
0.0
  0
SEQEND
  5
22B
100
AcDbEntity
  8
ALPHA
 62
     7
  0
POLYLINE
  5
22C
100
AcDbEntity
  8
ALPHA
 62
     7
100
AcDb2dPolyline
 66
     1
 10
0.0
 20
0.0
 30
0.0
 70
     1
  0
VERTEX
  5
22D
100
AcDbEntity
  8
ALPHA
 62
     7
100
AcDbVertex
100
AcDb2dVertex
 10
64.695147
 20
-16.362352
 30
0.0
  0
VERTEX
  5
22E
100
AcDbEntity
  8
ALPHA
 62
     7
100
AcDbVertex
100
AcDb2dVertex
 10
64.695147
 20
-7.340336
 30
0.0
  0
VERTEX
  5
22F
100
AcDbEntity
  8
ALPHA
 62
     7
100
AcDbVertex
100
AcDb2dVertex
 10
49.659372
 20
-7.340336
 30
0.0
  0
VERTEX
  5
230
100
AcDbEntity
  8
ALPHA
 62
     7
100
AcDbVertex
100
AcDb2dVertex
 10
49.659372
 20
-16.362352
 30
0.0
  0
SEQEND
  5
231
100
AcDbEntity
  8
ALPHA
 62
     7
  0
ENDBLK
  5
233
100
AcDbEntity
  8
ALPHA
100
AcDbBlockEnd
  0
BLOCK
  5
910
100
AcDbEntity
  8
0
100
AcDbBlockBegin
  2
*D11
 70
     1
 10
0.0
 20
0.0
 30
0.0
  3
*D11
  1

  0
LINE
  5
911
100
AcDbEntity
  8
0
  6
BYBLOCK
 62
     0
100
AcDbLine
 10
30.418411
 20
70.916616
 30
0.0
 11
30.418411
 21
60.309718
 31
0.0
  0
LINE
  5
912
100
AcDbEntity
  8
0
  6
BYBLOCK
 62
     0
100
AcDbLine
 10
80.41846
 20
70.874008
 30
0.0
 11
80.41846
 21
60.309718
 31
0.0
  0
LINE
  5
913
100
AcDbEntity
  8
0
  6
BYBLOCK
 62
     0
100
AcDbLine
 10
33.418411
 20
60.489718
 30
0.0
 11
77.41846
 21
60.489718
 31
0.0
  0
SOLID
  5
914
100
AcDbEntity
  8
0
  6
BYBLOCK
 62
     0
100
AcDbTrace
 10
33.418411
 20
60.989718
 30
0.0
 11
33.418411
 21
59.989718
 31
0.0
 12
30.418411
 22
60.489718
 32
0.0
 13
30.418411
 23
60.489718
 33
0.0
  0
SOLID
  5
915
100
AcDbEntity
  8
0
  6
BYBLOCK
 62
     0
100
AcDbTrace
 10
77.41846
 20
60.989718
 30
0.0
 11
77.41846
 21
59.989718
 31
0.0
 12
80.41846
 22
60.489718
 32
0.0
 13
80.41846
 23
60.489718
 33
0.0
  0
MTEXT
  5
916
100
AcDbEntity
  8
0
  6
BYBLOCK
 62
     0
100
AcDbMText
 10
55.418435
 20
62.739718
 30
0.0
 40
2.5
 41
0.0
 71
     5
 72
     1
  1
\A1;50
  0
POINT
  5
917
100
AcDbEntity
  8
DEFPOINTS
  6
BYBLOCK
 62
     0
100
AcDbPoint
 10
30.418411
 20
70.979116
 30
0.0
  0
POINT
  5
918
100
AcDbEntity
  8
DEFPOINTS
  6
BYBLOCK
 62
     0
100
AcDbPoint
 10
80.41846
 20
70.936508
 30
0.0
  0
POINT
  5
919
100
AcDbEntity
  8
DEFPOINTS
  6
BYBLOCK
 62
     0
100
AcDbPoint
 10
80.41846
 20
60.489718
 30
0.0
  0
ENDBLK
  5
91A
100
AcDbEntity
  8
0
100
AcDbBlockEnd
  0
BLOCK
  5
926
100
AcDbEntity
  8
0
100
AcDbBlockBegin
  2
*D12
 70
     1
 10
0.0
 20
0.0
 30
0.0
  3
*D12
  1

  0
LINE
  5
927
100
AcDbEntity
  8
0
  6
BYBLOCK
 62
     0
100
AcDbLine
 10
79.730618
 20
70.137174
 30
0.0
 11
91.143647
 21
70.137174
 31
0.0
  0
LINE
  5
928
100
AcDbEntity
  8
0
  6
BYBLOCK
 62
     0
100
AcDbLine
 10
79.668927
 20
140.137208
 30
0.0
 11
91.143647
 21
140.137208
 31
0.0
  0
LINE
  5
929
100
AcDbEntity
  8
0
  6
BYBLOCK
 62
     0
100
AcDbLine
 10
90.963647
 20
73.137174
 30
0.0
 11
90.963647
 21
137.137208
 31
0.0
  0
SOLID
  5
92A
100
AcDbEntity
  8
0
  6
BYBLOCK
 62
     0
100
AcDbTrace
 10
90.463647
 20
73.137174
 30
0.0
 11
91.463647
 21
73.137174
 31
0.0
 12
90.963647
 22
70.137174
 32
0.0
 13
90.963647
 23
70.137174
 33
0.0
  0
SOLID
  5
92B
100
AcDbEntity
  8
0
  6
BYBLOCK
 62
     0
100
AcDbTrace
 10
90.463647
 20
137.137208
 30
0.0
 11
91.463647
 21
137.137208
 31
0.0
 12
90.963647
 22
140.137208
 32
0.0
 13
90.963647
 23
140.137208
 33
0.0
  0
MTEXT
  5
92C
100
AcDbEntity
  8
0
  6
BYBLOCK
 62
     0
100
AcDbMText
 10
88.713647
 20
105.137191
 30
0.0
 40
2.5
 41
0.0
 71
     5
 72
     1
  1
\A1;70
 11
0.0
 21
1.0
 31
0.0
  0
POINT
  5
92D
100
AcDbEntity
  8
DEFPOINTS
  6
BYBLOCK
 62
     0
100
AcDbPoint
 10
79.668118
 20
70.137174
 30
0.0
  0
POINT
  5
92E
100
AcDbEntity
  8
DEFPOINTS
  6
BYBLOCK
 62
     0
100
AcDbPoint
 10
79.606427
 20
140.137208
 30
0.0
  0
POINT
  5
92F
100
AcDbEntity
  8
DEFPOINTS
  6
BYBLOCK
 62
     0
100
AcDbPoint
 10
90.963647
 20
140.137208
 30
0.0
  0
ENDBLK
  5
930
100
AcDbEntity
  8
0
100
AcDbBlockEnd
  0
ENDSEC
  0
SECTION
  2
ENTITIES
  0
INSERT
  5
CC
100
AcDbEntity
  8
0
100
AcDbBlockReference
  2
SCH_IS
 10
-68.718396
 20
-140.042541
 30
0.0
  0
INSERT
  5
EC
100
AcDbEntity
  8
COTATION1
100
AcDbBlockReference
  2
SCH_IS
 10
0.0
 20
0.0
 30
0.0
  0
CIRCLE
  5
7C9
100
AcDbEntity
  8
ALPHA
 62
     7
100
AcDbCircle
 10
55.418435
 20
83.422668
 30
0.0
 40
1.39268
  0
CIRCLE
  5
7CA
100
AcDbEntity
  8
ALPHA
 62
     7
100
AcDbCircle
 10
55.418435
 20
122.110574
 30
0.0
 40
1.39268
  0
POLYLINE
  5
7CB
100
AcDbEntity
  8
ALPHA
 62
     7
100
AcDb2dPolyline
 66
     1
 10
0.0
 20
0.0
 30
0.0
 70
     1
  0
VERTEX
  5
7CC
100
AcDbEntity
  8
ALPHA
 62
     7
100
AcDbVertex
100
AcDb2dVertex
 10
57.971768
 20
87.422424
 30
0.0
  0
VERTEX
  5
7CD
100
AcDbEntity
  8
ALPHA
 62
     7
100
AcDbVertex
100
AcDb2dVertex
 10
52.865103
 20
87.422424
 30
0.0
  0
VERTEX
  5
7CE
100
AcDbEntity
  8
ALPHA
 62
     7
100
AcDbVertex
100
AcDb2dVertex
 10
52.865103
 20
83.422668
 30
0.0
  0
VERTEX
  5
7CF
100
AcDbEntity
  8
ALPHA
 62
     7
100
AcDbVertex
100
AcDb2dVertex
 10
57.971768
 20
83.422668
 30
0.0
  0
SEQEND
  5
7D0
100
AcDbEntity
  8
ALPHA
 62
     7
  0
POLYLINE
  5
7D1
100
AcDbEntity
  8
ALPHA
 62
     7
100
AcDb2dPolyline
 66
     1
 10
0.0
 20
0.0
 30
0.0
 70
     1
  0
VERTEX
  5
7D2
100
AcDbEntity
  8
ALPHA
 62
     7
100
AcDbVertex
100
AcDb2dVertex
 10
57.120657
 20
90.362641
 30
0.0
  0
VERTEX
  5
7D3
100
AcDbEntity
  8
ALPHA
 62
     7
100
AcDbVertex
100
AcDb2dVertex
 10
53.716214
 20
90.362641
 30
0.0
  0
VERTEX
  5
7D4
100
AcDbEntity
  8
ALPHA
 62
     7
100
AcDbVertex
100
AcDb2dVertex
 10
53.716214
 20
87.422424
 30
0.0
  0
VERTEX
  5
7D5
100
AcDbEntity
  8
ALPHA
 62
     7
100
AcDbVertex
100
AcDb2dVertex
 10
57.120657
 20
87.422424
 30
0.0
  0
SEQEND
  5
7D6
100
AcDbEntity
  8
ALPHA
 62
     7
  0
POLYLINE
  5
7D7
100
AcDbEntity
  8
ALPHA
 62
     7
100
AcDb2dPolyline
 66
     1
 10
0.0
 20
0.0
 30
0.0
 70
     1
  0
VERTEX
  5
7D8
100
AcDbEntity
  8
ALPHA
 62
     7
100
AcDbVertex
100
AcDb2dVertex
 10
57.971768
 20
118.11099
 30
0.0
  0
VERTEX
  5
7D9
100
AcDbEntity
  8
ALPHA
 62
     7
100
AcDbVertex
100
AcDb2dVertex
 10
52.865103
 20
118.11099
 30
0.0
  0
VERTEX
  5
7DA
100
AcDbEntity
  8
ALPHA
 62
     7
100
AcDbVertex
100
AcDb2dVertex
 10
52.865103
 20
122.110574
 30
0.0
  0
VERTEX
  5
7DB
100
AcDbEntity
  8
ALPHA
 62
     7
100
AcDbVertex
100
AcDb2dVertex
 10
57.971768
 20
122.110574
 30
0.0
  0
SEQEND
  5
7DC
100
AcDbEntity
  8
ALPHA
 62
     7
  0
POLYLINE
  5
7DD
100
AcDbEntity
  8
ALPHA
 62
     7
100
AcDb2dPolyline
 66
     1
 10
0.0
 20
0.0
 30
0.0
 70
     1
  0
VERTEX
  5
7DE
100
AcDbEntity
  8
ALPHA
 62
     7
100
AcDbVertex
100
AcDb2dVertex
 10
57.120657
 20
115.170773
 30
0.0
  0
VERTEX
  5
7DF
100
AcDbEntity
  8
ALPHA
 62
     7
100
AcDbVertex
100
AcDb2dVertex
 10
53.716214
 20
115.170773
 30
0.0
  0
VERTEX
  5
7E0
100
AcDbEntity
  8
ALPHA
 62
     7
100
AcDbVertex
100
AcDb2dVertex
 10
53.716214
 20
118.11099
 30
0.0
  0
VERTEX
  5
7E1
100
AcDbEntity
  8
ALPHA
 62
     7
100
AcDbVertex
100
AcDb2dVertex
 10
57.120657
 20
118.11099
 30
0.0
  0
SEQEND
  5
7E2
100
AcDbEntity
  8
ALPHA
 62
     7
  0
POLYLINE
  5
7E3
100
AcDbEntity
  8
ALPHA
 62
     7
100
AcDb2dPolyline
 66
     1
 10
0.0
 20
0.0
 30
0.0
 70
     1
  0
VERTEX
  5
7E4
100
AcDbEntity
  8
ALPHA
 62
     7
100
AcDbVertex
100
AcDb2dVertex
 10
60.5251
 20
80.637308
 30
0.0
  0
VERTEX
  5
7E5
100
AcDbEntity
  8
ALPHA
 62
     7
100
AcDbVertex
100
AcDb2dVertex
 10
50.156913
 20
80.637308
 30
0.0
  0
VERTEX
  5
7E6
100
AcDbEntity
  8
ALPHA
 62
     7
100
AcDbVertex
100
AcDb2dVertex
 10
50.156913
 20
124.896106
 30
0.0
  0
VERTEX
  5
7E7
100
AcDbEntity
  8
ALPHA
 62
     7
100
AcDbVertex
100
AcDb2dVertex
 10
60.5251
 20
124.896106
 30
0.0
  0
SEQEND
  5
7E8
100
AcDbEntity
  8
ALPHA
 62
     7
  0
LINE
  5
7E9
100
AcDbEntity
  8
ALPHA
 62
     7
100
AcDbLine
 10
32.553337
 20
133.570511
 30
0.0
 11
78.283534
 21
133.570511
 31
0.0
  0
POLYLINE
  5
7EA
100
AcDbEntity
  8
ALPHA
 62
     7
100
AcDb2dPolyline
 66
     1
 10
0.0
 20
0.0
 30
0.0
 70
     1
  0
VERTEX
  5
7EB
100
AcDbEntity
  8
ALPHA
 62
     7
100
AcDbVertex
100
AcDb2dVertex
 10
30.418411
 20
72.597317
 30
0.0
  0
VERTEX
  5
7EC
100
AcDbEntity
  8
ALPHA
 62
     7
100
AcDbVertex
100
AcDb2dVertex
 10
80.41846
 20
72.597317
 30
0.0
  0
VERTEX
  5
7ED
100
AcDbEntity
  8
ALPHA
 62
     7
100
AcDbVertex
100
AcDb2dVertex
 10
80.41846
 20
137.677065
 30
0.0
  0
VERTEX
  5
7EE
100
AcDbEntity
  8
ALPHA
 62
     7
100
AcDbVertex
100
AcDb2dVertex
 10
30.418411
 20
137.677065
 30
0.0
  0
SEQEND
  5
7EF
100
AcDbEntity
  8
ALPHA
 62
     7
  0
LINE
  5
7F0
100
AcDbEntity
  8
ALPHA
 62
     7
100
AcDbLine
 10
32.553337
 20
76.703871
 30
0.0
 11
78.283534
 21
76.703871
 31
0.0
  0
POLYLINE
  5
7F1
100
AcDbEntity
  8
ALPHA
 62
     7
100
AcDb2dPolyline
 66
     1
 10
0.0
 20
0.0
 30
0.0
  0
VERTEX
  5
7F2
100
AcDbEntity
  8
ALPHA
 62
     7
100
AcDbVertex
100
AcDb2dVertex
 10
53.716214
 20
87.755737
 30
0.0
  0
VERTEX
  5
7F3
100
AcDbEntity
  8
ALPHA
 62
     7
100
AcDbVertex
100
AcDb2dVertex
 10
52.78776
 20
87.755737
 30
0.0
  0
VERTEX
  5
7F4
100
AcDbEntity
  8
ALPHA
 62
     7
100
AcDbVertex
100
AcDb2dVertex
 10
52.78776
 20
117.158766
 30
0.0
  0
VERTEX
  5
7F5
100
AcDbEntity
  8
ALPHA
 62
     7
100
AcDbVertex
100
AcDb2dVertex
 10
53.716214
 20
117.158766
 30
0.0
  0
SEQEND
  5
7F6
100
AcDbEntity
  8
ALPHA
 62
     7
  0
LINE
  5
7F7
100
AcDbEntity
  8
ALPHA
 62
     7
100
AcDbLine
 10
51.394908
 20
124.896106
 30
0.0
 11
51.394908
 21
80.637308
 31
0.0
  0
POLYLINE
  5
7F8
100
AcDbEntity
  8
ALPHA
 62
     7
100
AcDb2dPolyline
 66
     1
 10
0.0
 20
0.0
 30
0.0
  0
VERTEX
  5
7F9
100
AcDbEntity
  8
ALPHA
 62
     7
100
AcDbVertex
100
AcDb2dVertex
 10
42.836085
 20
117.158766
 30
0.0
  0
VERTEX
  5
7FA
100
AcDbEntity
  8
ALPHA
 62
     7
100
AcDbVertex
100
AcDb2dVertex
 10
43.764538
 20
117.158766
 30
0.0
  0
VERTEX
  5
7FB
100
AcDbEntity
  8
ALPHA
 62
     7
100
AcDbVertex
100
AcDb2dVertex
 10
43.764538
 20
87.755737
 30
0.0
  0
VERTEX
  5
7FC
100
AcDbEntity
  8
ALPHA
 62
     7
100
AcDbVertex
100
AcDb2dVertex
 10
42.836085
 20
87.755737
 30
0.0
  0
SEQEND
  5
7FD
100
AcDbEntity
  8
ALPHA
 62
     7
  0
POLYLINE
  5
7FE
100
AcDbEntity
  8
ALPHA
 62
     7
100
AcDb2dPolyline
 66
     1
 10
0.0
 20
0.0
 30
0.0
  0
VERTEX
  5
7FF
100
AcDbEntity
  8
ALPHA
 62
     7
100
AcDbVertex
100
AcDb2dVertex
 10
39.431642
 20
87.755737
 30
0.0
  0
VERTEX
  5
800
100
AcDbEntity
  8
ALPHA
 62
     7
100
AcDbVertex
100
AcDb2dVertex
 10
38.503189
 20
87.755737
 30
0.0
  0
VERTEX
  5
801
100
AcDbEntity
  8
ALPHA
 62
     7
100
AcDbVertex
100
AcDb2dVertex
 10
38.503189
 20
117.158766
 30
0.0
  0
VERTEX
  5
802
100
AcDbEntity
  8
ALPHA
 62
     7
100
AcDbVertex
100
AcDb2dVertex
 10
39.431642
 20
117.158766
 30
0.0
  0
SEQEND
  5
803
100
AcDbEntity
  8
ALPHA
 62
     7
  0
LINE
  5
804
100
AcDbEntity
  8
ALPHA
 62
     7
100
AcDbLine
 10
37.110337
 20
124.896106
 30
0.0
 11
37.110337
 21
80.637308
 31
0.0
  0
LINE
  5
805
100
AcDbEntity
  8
ALPHA
 62
     7
100
AcDbLine
 10
45.002534
 20
124.896106
 30
0.0
 11
45.002534
 21
80.637308
 31
0.0
  0
POLYLINE
  5
806
100
AcDbEntity
  8
ALPHA
 62
     7
100
AcDb2dPolyline
 66
     1
 10
0.0
 20
0.0
 30
0.0
 70
     1
  0
VERTEX
  5
807
100
AcDbEntity
  8
ALPHA
 62
     7
100
AcDbVertex
100
AcDb2dVertex
 10
46.240529
 20
80.637308
 30
0.0
  0
VERTEX
  5
808
100
AcDbEntity
  8
ALPHA
 62
     7
100
AcDbVertex
100
AcDb2dVertex
 10
35.872341
 20
80.637308
 30
0.0
  0
VERTEX
  5
809
100
AcDbEntity
  8
ALPHA
 62
     7
100
AcDbVertex
100
AcDb2dVertex
 10
35.872341
 20
124.896106
 30
0.0
  0
VERTEX
  5
80A
100
AcDbEntity
  8
ALPHA
 62
     7
100
AcDbVertex
100
AcDb2dVertex
 10
46.240529
 20
124.896106
 30
0.0
  0
SEQEND
  5
80B
100
AcDbEntity
  8
ALPHA
 62
     7
  0
LINE
  5
80C
100
AcDbEntity
  8
ALPHA
 62
     7
100
AcDbLine
 10
32.553337
 20
72.597317
 30
0.0
 11
32.553337
 21
137.677065
 31
0.0
  0
CIRCLE
  5
80D
100
AcDbEntity
  8
ALPHA
 62
     7
100
AcDbCircle
 10
39.741098
 20
103.981964
 30
0.0
 40
0.464313
  0
CIRCLE
  5
80E
100
AcDbEntity
  8
ALPHA
 62
     7
100
AcDbCircle
 10
39.741098
 20
101.478758
 30
0.0
 40
0.464313
  0
CIRCLE
  5
80F
100
AcDbEntity
  8
ALPHA
 62
     7
100
AcDbCircle
 10
39.741098
 20
98.975724
 30
0.0
 40
0.464313
  0
CIRCLE
  5
810
100
AcDbEntity
  8
ALPHA
 62
     7
100
AcDbCircle
 10
39.741098
 20
96.472517
 30
0.0
 40
0.464313
  0
CIRCLE
  5
811
100
AcDbEntity
  8
ALPHA
 62
     7
100
AcDbCircle
 10
39.741098
 20
93.969311
 30
0.0
 40
0.464313
  0
CIRCLE
  5
812
100
AcDbEntity
  8
ALPHA
 62
     7
100
AcDbCircle
 10
39.741098
 20
91.466277
 30
0.0
 40
0.464313
  0
CIRCLE
  5
813
100
AcDbEntity
  8
ALPHA
 62
     7
100
AcDbCircle
 10
41.133864
 20
83.422668
 30
0.0
 40
1.39268
  0
POLYLINE
  5
814
100
AcDbEntity
  8
ALPHA
 62
     7
100
AcDb2dPolyline
 66
     1
 10
0.0
 20
0.0
 30
0.0
 70
     1
  0
VERTEX
  5
815
100
AcDbEntity
  8
ALPHA
 62
     7
100
AcDbVertex
100
AcDb2dVertex
 10
43.687196
 20
87.422424
 30
0.0
  0
VERTEX
  5
816
100
AcDbEntity
  8
ALPHA
 62
     7
100
AcDbVertex
100
AcDb2dVertex
 10
38.580531
 20
87.422424
 30
0.0
  0
VERTEX
  5
817
100
AcDbEntity
  8
ALPHA
 62
     7
100
AcDbVertex
100
AcDb2dVertex
 10
38.580531
 20
83.422668
 30
0.0
  0
VERTEX
  5
818
100
AcDbEntity
  8
ALPHA
 62
     7
100
AcDbVertex
100
AcDb2dVertex
 10
43.687196
 20
83.422668
 30
0.0
  0
SEQEND
  5
819
100
AcDbEntity
  8
ALPHA
 62
     7
  0
POLYLINE
  5
81A
100
AcDbEntity
  8
ALPHA
 62
     7
100
AcDb2dPolyline
 66
     1
 10
0.0
 20
0.0
 30
0.0
 70
     1
  0
VERTEX
  5
81B
100
AcDbEntity
  8
ALPHA
 62
     7
100
AcDbVertex
100
AcDb2dVertex
 10
42.836085
 20
90.362641
 30
0.0
  0
VERTEX
  5
81C
100
AcDbEntity
  8
ALPHA
 62
     7
100
AcDbVertex
100
AcDb2dVertex
 10
39.431642
 20
90.362641
 30
0.0
  0
VERTEX
  5
81D
100
AcDbEntity
  8
ALPHA
 62
     7
100
AcDbVertex
100
AcDb2dVertex
 10
39.431642
 20
87.422424
 30
0.0
  0
VERTEX
  5
81E
100
AcDbEntity
  8
ALPHA
 62
     7
100
AcDbVertex
100
AcDb2dVertex
 10
42.836085
 20
87.422424
 30
0.0
  0
SEQEND
  5
81F
100
AcDbEntity
  8
ALPHA
 62
     7
  0
POLYLINE
  5
820
100
AcDbEntity
  8
ALPHA
 62
     7
100
AcDb2dPolyline
 66
     1
 10
0.0
 20
0.0
 30
0.0
  0
VERTEX
  5
821
100
AcDbEntity
  8
ALPHA
 62
     7
100
AcDbVertex
100
AcDb2dVertex
 10
39.199442
 20
80.637308
 30
0.0
  0
VERTEX
  5
822
100
AcDbEntity
  8
ALPHA
 62
     7
100
AcDbVertex
100
AcDb2dVertex
 10
39.199442
 20
83.422668
 30
0.0
  0
VERTEX
  5
823
100
AcDbEntity
  8
ALPHA
 62
     7
100
AcDbVertex
100
AcDb2dVertex
 10
37.110337
 20
83.422668
 30
0.0
  0
SEQEND
  5
824
100
AcDbEntity
  8
ALPHA
 62
     7
  0
SPLINE
  5
825
100
AcDbEntity
  8
ALPHA
 62
     7
100
AcDbSpline
210
0.0
220
0.0
230
1.0
 70
     8
 71
     3
 72
    20
 73
    16
 74
     0
 42
0.0000001
 43
0.0000001
 40
0.0
 40
0.0
 40
0.0
 40
0.0
 40
1.0
 40
1.0
 40
1.0
 40
2.0
 40
2.0
 40
2.0
 40
3.0
 40
3.0
 40
3.0
 40
4.0
 40
4.0
 40
4.0
 40
5.0
 40
5.0
 40
5.0
 40
5.0
 10
33.77255579944716
 20
72.59731672672604
 30
0.0
 10
33.77255579944716
 20
72.59731672672604
 30
0.0
 10
33.77255579944716
 20
70.88717132742047
 30
0.0
 10
33.77255579944716
 20
70.88717132742047
 30
0.0
 10
33.77255579944716
 20
70.47289859521561
 30
0.0
 10
33.43665898955132
 20
70.13717404009408
 30
0.0
 10
33.02255851212076
 20
70.13717404009408
 30
0.0
 10
33.02255851212076
 20
70.13717404009408
 30
0.0
 10
31.16840812149575
 20
70.13717404009408
 30
0.0
 10
31.16840812149575
 20
70.13717404009408
 30
0.0
 10
30.75413538929089
 20
70.13717404009408
 30
0.0
 10
30.41841083416938
 20
70.47289859521561
 30
0.0
 10
30.41841083416938
 20
70.88717132742047
 30
0.0
 10
30.41841083416938
 20
70.88717132742047
 30
0.0
 10
30.41841083416938
 20
72.59731672672604
 30
0.0
 10
30.41841083416938
 20
72.59731672672604
 30
0.0
  0
LINE
  5
826
100
AcDbEntity
  8
ALPHA
 62
     7
100
AcDbLine
 10
37.110337
 20
93.412411
 30
0.0
 11
38.503189
 21
93.412411
 31
0.0
  0
LINE
  5
827
100
AcDbEntity
  8
ALPHA
 62
     7
100
AcDbLine
 10
37.110337
 20
96.507313
 30
0.0
 11
38.503189
 21
96.507313
 31
0.0
  0
POLYLINE
  5
828
100
AcDbEntity
  8
ALPHA
 62
     7
100
AcDb2dPolyline
 66
     1
 10
0.0
 20
0.0
 30
0.0
  0
VERTEX
  5
829
100
AcDbEntity
  8
ALPHA
 62
     7
100
AcDbVertex
100
AcDb2dVertex
 10
53.484014
 20
80.637308
 30
0.0
  0
VERTEX
  5
82A
100
AcDbEntity
  8
ALPHA
 62
     7
100
AcDbVertex
100
AcDb2dVertex
 10
53.484014
 20
83.422668
 30
0.0
  0
VERTEX
  5
82B
100
AcDbEntity
  8
ALPHA
 62
     7
100
AcDbVertex
100
AcDb2dVertex
 10
51.394908
 20
83.422668
 30
0.0
  0
SEQEND
  5
82C
100
AcDbEntity
  8
ALPHA
 62
     7
  0
POLYLINE
  5
82D
100
AcDbEntity
  8
ALPHA
 62
     7
100
AcDb2dPolyline
 66
     1
 10
0.0
 20
0.0
 30
0.0
  0
VERTEX
  5
82E
100
AcDbEntity
  8
ALPHA
 62
     7
100
AcDbVertex
100
AcDb2dVertex
 10
45.002534
 20
83.422668
 30
0.0
  0
VERTEX
  5
82F
100
AcDbEntity
  8
ALPHA
 62
     7
100
AcDbVertex
100
AcDb2dVertex
 10
42.913428
 20
83.422668
 30
0.0
  0
VERTEX
  5
830
100
AcDbEntity
  8
ALPHA
 62
     7
100
AcDbVertex
100
AcDb2dVertex
 10
42.913428
 20
80.637308
 30
0.0
  0
SEQEND
  5
831
100
AcDbEntity
  8
ALPHA
 62
     7
  0
CIRCLE
  5
832
100
AcDbEntity
  8
ALPHA
 62
     7
100
AcDbCircle
 10
42.371773
 20
93.969311
 30
0.0
 40
0.464313
  0
CIRCLE
  5
833
100
AcDbEntity
  8
ALPHA
 62
     7
100
AcDbCircle
 10
42.371859
 20
91.466277
 30
0.0
 40
0.928453
  0
CIRCLE
  5
834
100
AcDbEntity
  8
ALPHA
 62
     7
100
AcDbCircle
 10
42.371773
 20
96.472517
 30
0.0
 40
0.464313
  0
CIRCLE
  5
835
100
AcDbEntity
  8
ALPHA
 62
     7
100
AcDbCircle
 10
42.371773
 20
98.975724
 30
0.0
 40
0.464313
  0
CIRCLE
  5
836
100
AcDbEntity
  8
ALPHA
 62
     7
100
AcDbCircle
 10
42.371773
 20
101.478758
 30
0.0
 40
0.464313
  0
CIRCLE
  5
837
100
AcDbEntity
  8
ALPHA
 62
     7
100
AcDbCircle
 10
42.371773
 20
103.981964
 30
0.0
 40
0.464313
  0
LINE
  5
838
100
AcDbEntity
  8
ALPHA
 62
     7
100
AcDbLine
 10
43.764538
 20
96.507313
 30
0.0
 11
45.002534
 21
96.507313
 31
0.0
  0
CIRCLE
  5
839
100
AcDbEntity
  8
ALPHA
 62
     7
100
AcDbCircle
 10
54.025669
 20
93.969311
 30
0.0
 40
0.464313
  0
LINE
  5
83A
100
AcDbEntity
  8
ALPHA
 62
     7
100
AcDbLine
 10
51.394908
 20
93.412411
 30
0.0
 11
52.78776
 21
93.412411
 31
0.0
  0
CIRCLE
  5
83B
100
AcDbEntity
  8
ALPHA
 62
     7
100
AcDbCircle
 10
54.025669
 20
91.466277
 30
0.0
 40
0.464313
  0
LINE
  5
83C
100
AcDbEntity
  8
ALPHA
 62
     7
100
AcDbLine
 10
51.394908
 20
96.507313
 30
0.0
 11
52.78776
 21
96.507313
 31
0.0
  0
CIRCLE
  5
83D
100
AcDbEntity
  8
ALPHA
 62
     7
100
AcDbCircle
 10
54.025669
 20
96.472517
 30
0.0
 40
0.464313
  0
CIRCLE
  5
83E
100
AcDbEntity
  8
ALPHA
 62
     7
100
AcDbCircle
 10
54.025669
 20
98.975724
 30
0.0
 40
0.464313
  0
CIRCLE
  5
83F
100
AcDbEntity
  8
ALPHA
 62
     7
100
AcDbCircle
 10
54.025669
 20
101.478758
 30
0.0
 40
0.464313
  0
CIRCLE
  5
840
100
AcDbEntity
  8
ALPHA
 62
     7
100
AcDbCircle
 10
54.025669
 20
103.981964
 30
0.0
 40
0.464313
  0
CIRCLE
  5
841
100
AcDbEntity
  8
ALPHA
 62
     7
100
AcDbCircle
 10
39.741098
 20
113.994445
 30
0.0
 40
0.464313
  0
CIRCLE
  5
842
100
AcDbEntity
  8
ALPHA
 62
     7
100
AcDbCircle
 10
39.741098
 20
111.491239
 30
0.0
 40
0.464313
  0
CIRCLE
  5
843
100
AcDbEntity
  8
ALPHA
 62
     7
100
AcDbCircle
 10
39.741098
 20
108.988205
 30
0.0
 40
0.464313
  0
CIRCLE
  5
844
100
AcDbEntity
  8
ALPHA
 62
     7
100
AcDbCircle
 10
39.741098
 20
106.485171
 30
0.0
 40
0.464313
  0
CIRCLE
  5
845
100
AcDbEntity
  8
ALPHA
 62
     7
100
AcDbCircle
 10
41.133864
 20
122.110574
 30
0.0
 40
1.39268
  0
POLYLINE
  5
846
100
AcDbEntity
  8
ALPHA
 62
     7
100
AcDb2dPolyline
 66
     1
 10
0.0
 20
0.0
 30
0.0
 70
     1
  0
VERTEX
  5
847
100
AcDbEntity
  8
ALPHA
 62
     7
100
AcDbVertex
100
AcDb2dVertex
 10
43.687196
 20
118.11099
 30
0.0
  0
VERTEX
  5
848
100
AcDbEntity
  8
ALPHA
 62
     7
100
AcDbVertex
100
AcDb2dVertex
 10
38.580531
 20
118.11099
 30
0.0
  0
VERTEX
  5
849
100
AcDbEntity
  8
ALPHA
 62
     7
100
AcDbVertex
100
AcDb2dVertex
 10
38.580531
 20
122.110574
 30
0.0
  0
VERTEX
  5
84A
100
AcDbEntity
  8
ALPHA
 62
     7
100
AcDbVertex
100
AcDb2dVertex
 10
43.687196
 20
122.110574
 30
0.0
  0
SEQEND
  5
84B
100
AcDbEntity
  8
ALPHA
 62
     7
  0
POLYLINE
  5
84C
100
AcDbEntity
  8
ALPHA
 62
     7
100
AcDb2dPolyline
 66
     1
 10
0.0
 20
0.0
 30
0.0
 70
     1
  0
VERTEX
  5
84D
100
AcDbEntity
  8
ALPHA
 62
     7
100
AcDbVertex
100
AcDb2dVertex
 10
42.836085
 20
115.170773
 30
0.0
  0
VERTEX
  5
84E
100
AcDbEntity
  8
ALPHA
 62
     7
100
AcDbVertex
100
AcDb2dVertex
 10
39.431642
 20
115.170773
 30
0.0
  0
VERTEX
  5
84F
100
AcDbEntity
  8
ALPHA
 62
     7
100
AcDbVertex
100
AcDb2dVertex
 10
39.431642
 20
118.11099
 30
0.0
  0
VERTEX
  5
850
100
AcDbEntity
  8
ALPHA
 62
     7
100
AcDbVertex
100
AcDb2dVertex
 10
42.836085
 20
118.11099
 30
0.0
  0
SEQEND
  5
851
100
AcDbEntity
  8
ALPHA
 62
     7
  0
LINE
  5
852
100
AcDbEntity
  8
ALPHA
 62
     7
100
AcDbLine
 10
37.110337
 20
108.988205
 30
0.0
 11
38.503189
 21
108.988205
 31
0.0
  0
LINE
  5
853
100
AcDbEntity
  8
ALPHA
 62
     7
100
AcDbLine
 10
37.110337
 20
112.237963
 30
0.0
 11
38.503189
 21
112.237963
 31
0.0
  0
POLYLINE
  5
854
100
AcDbEntity
  8
ALPHA
 62
     7
100
AcDb2dPolyline
 66
     1
 10
0.0
 20
0.0
 30
0.0
  0
VERTEX
  5
855
100
AcDbEntity
  8
ALPHA
 62
     7
100
AcDbVertex
100
AcDb2dVertex
 10
39.199442
 20
124.896106
 30
0.0
  0
VERTEX
  5
856
100
AcDbEntity
  8
ALPHA
 62
     7
100
AcDbVertex
100
AcDb2dVertex
 10
39.199442
 20
122.110574
 30
0.0
  0
VERTEX
  5
857
100
AcDbEntity
  8
ALPHA
 62
     7
100
AcDbVertex
100
AcDb2dVertex
 10
37.110337
 20
122.110574
 30
0.0
  0
SEQEND
  5
858
100
AcDbEntity
  8
ALPHA
 62
     7
  0
SPLINE
  5
859
100
AcDbEntity
  8
ALPHA
 62
     7
100
AcDbSpline
210
0.0
220
0.0
230
-1.0
 70
     8
 71
     3
 72
    20
 73
    16
 74
     0
 42
0.0000001
 43
0.0000001
 40
0.0
 40
0.0
 40
0.0
 40
0.0
 40
1.0
 40
1.0
 40
1.0
 40
2.0
 40
2.0
 40
2.0
 40
3.0
 40
3.0
 40
3.0
 40
4.0
 40
4.0
 40
4.0
 40
5.0
 40
5.0
 40
5.0
 40
5.0
 10
30.41841083416938
 20
137.6770652618822
 30
0.0
 10
30.41841083416938
 20
137.6770652618822
 30
0.0
 10
30.41841083416938
 20
139.3872106611878
 30
0.0
 10
30.41841083416938
 20
139.3872106611878
 30
0.0
 10
30.41841083416938
 20
139.8014833933926
 30
0.0
 10
30.75413538929089
 20
140.1372079485142
 30
0.0
 10
31.16840812149575
 20
140.1372079485142
 30
0.0
 10
31.16840812149575
 20
140.1372079485142
 30
0.0
 10
33.02255851212076
 20
140.1372079485142
 30
0.0
 10
33.02255851212076
 20
140.1372079485142
 30
0.0
 10
33.43665898955132
 20
140.1372079485142
 30
0.0
 10
33.77255579944716
 20
139.8014833933926
 30
0.0
 10
33.77255579944716
 20
139.3872106611878
 30
0.0
 10
33.77255579944716
 20
139.3872106611878
 30
0.0
 10
33.77255579944716
 20
137.6770652618822
 30
0.0
 10
33.77255579944716
 20
137.6770652618822
 30
0.0
  0
CIRCLE
  5
85A
100
AcDbEntity
  8
ALPHA
 62
     7
100
AcDbCircle
 10
42.371773
 20
106.485171
 30
0.0
 40
0.464313
  0
CIRCLE
  5
85B
100
AcDbEntity
  8
ALPHA
 62
     7
100
AcDbCircle
 10
42.371773
 20
108.988205
 30
0.0
 40
0.464313
  0
CIRCLE
  5
85C
100
AcDbEntity
  8
ALPHA
 62
     7
100
AcDbCircle
 10
42.371773
 20
111.491239
 30
0.0
 40
0.464313
  0
CIRCLE
  5
85D
100
AcDbEntity
  8
ALPHA
 62
     7
100
AcDbCircle
 10
42.371859
 20
113.994445
 30
0.0
 40
0.464227
  0
LINE
  5
85E
100
AcDbEntity
  8
ALPHA
 62
     7
100
AcDbLine
 10
43.764538
 20
108.988205
 30
0.0
 11
45.002534
 21
108.988205
 31
0.0
  0
POLYLINE
  5
85F
100
AcDbEntity
  8
ALPHA
 62
     7
100
AcDb2dPolyline
 66
     1
 10
0.0
 20
0.0
 30
0.0
  0
VERTEX
  5
860
100
AcDbEntity
  8
ALPHA
 62
     7
100
AcDbVertex
100
AcDb2dVertex
 10
45.002534
 20
122.110574
 30
0.0
  0
VERTEX
  5
861
100
AcDbEntity
  8
ALPHA
 62
     7
100
AcDbVertex
100
AcDb2dVertex
 10
42.913428
 20
122.110574
 30
0.0
  0
VERTEX
  5
862
100
AcDbEntity
  8
ALPHA
 62
     7
100
AcDbVertex
100
AcDb2dVertex
 10
42.913428
 20
124.896106
 30
0.0
  0
SEQEND
  5
863
100
AcDbEntity
  8
ALPHA
 62
     7
  0
LINE
  5
864
100
AcDbEntity
  8
ALPHA
 62
     7
100
AcDbLine
 10
51.394908
 20
108.988205
 30
0.0
 11
52.78776
 21
108.988205
 31
0.0
  0
LINE
  5
865
100
AcDbEntity
  8
ALPHA
 62
     7
100
AcDbLine
 10
51.394908
 20
112.237963
 30
0.0
 11
52.78776
 21
112.237963
 31
0.0
  0
CIRCLE
  5
866
100
AcDbEntity
  8
ALPHA
 62
     7
100
AcDbCircle
 10
54.025669
 20
106.485171
 30
0.0
 40
0.464313
  0
CIRCLE
  5
867
100
AcDbEntity
  8
ALPHA
 62
     7
100
AcDbCircle
 10
54.025669
 20
108.988205
 30
0.0
 40
0.464313
  0
CIRCLE
  5
868
100
AcDbEntity
  8
ALPHA
 62
     7
100
AcDbCircle
 10
54.025669
 20
111.491239
 30
0.0
 40
0.464313
  0
CIRCLE
  5
869
100
AcDbEntity
  8
ALPHA
 62
     7
100
AcDbCircle
 10
54.025669
 20
113.994445
 30
0.0
 40
0.464313
  0
POLYLINE
  5
86A
100
AcDbEntity
  8
ALPHA
 62
     7
100
AcDb2dPolyline
 66
     1
 10
0.0
 20
0.0
 30
0.0
  0
VERTEX
  5
86B
100
AcDbEntity
  8
ALPHA
 62
     7
100
AcDbVertex
100
AcDb2dVertex
 10
53.484014
 20
124.896106
 30
0.0
  0
VERTEX
  5
86C
100
AcDbEntity
  8
ALPHA
 62
     7
100
AcDbVertex
100
AcDb2dVertex
 10
53.484014
 20
122.110574
 30
0.0
  0
VERTEX
  5
86D
100
AcDbEntity
  8
ALPHA
 62
     7
100
AcDbVertex
100
AcDb2dVertex
 10
51.394908
 20
122.110574
 30
0.0
  0
SEQEND
  5
86E
100
AcDbEntity
  8
ALPHA
 62
     7
  0
POLYLINE
  5
86F
100
AcDbEntity
  8
ALPHA
 62
     7
100
AcDb2dPolyline
 66
     1
 10
0.0
 20
0.0
 30
0.0
  0
VERTEX
  5
870
100
AcDbEntity
  8
ALPHA
 62
     7
100
AcDbVertex
100
AcDb2dVertex
 10
57.120657
 20
117.158766
 30
0.0
  0
VERTEX
  5
871
100
AcDbEntity
  8
ALPHA
 62
     7
100
AcDbVertex
100
AcDb2dVertex
 10
58.04911
 20
117.158766
 30
0.0
  0
VERTEX
  5
872
100
AcDbEntity
  8
ALPHA
 62
     7
100
AcDbVertex
100
AcDb2dVertex
 10
58.04911
 20
87.755737
 30
0.0
  0
VERTEX
  5
873
100
AcDbEntity
  8
ALPHA
 62
     7
100
AcDbVertex
100
AcDb2dVertex
 10
57.120657
 20
87.755737
 30
0.0
  0
SEQEND
  5
874
100
AcDbEntity
  8
ALPHA
 62
     7
  0
LINE
  5
875
100
AcDbEntity
  8
ALPHA
 62
     7
100
AcDbLine
 10
59.287105
 20
124.896106
 30
0.0
 11
59.287105
 21
80.637308
 31
0.0
  0
POLYLINE
  5
876
100
AcDbEntity
  8
ALPHA
 62
     7
100
AcDb2dPolyline
 66
     1
 10
0.0
 20
0.0
 30
0.0
  0
VERTEX
  5
877
100
AcDbEntity
  8
ALPHA
 62
     7
100
AcDbVertex
100
AcDb2dVertex
 10
71.405229
 20
117.158766
 30
0.0
  0
VERTEX
  5
878
100
AcDbEntity
  8
ALPHA
 62
     7
100
AcDbVertex
100
AcDb2dVertex
 10
72.333682
 20
117.158766
 30
0.0
  0
VERTEX
  5
879
100
AcDbEntity
  8
ALPHA
 62
     7
100
AcDbVertex
100
AcDb2dVertex
 10
72.333682
 20
87.755737
 30
0.0
  0
VERTEX
  5
87A
100
AcDbEntity
  8
ALPHA
 62
     7
100
AcDbVertex
100
AcDb2dVertex
 10
71.405229
 20
87.755737
 30
0.0
  0
SEQEND
  5
87B
100
AcDbEntity
  8
ALPHA
 62
     7
  0
POLYLINE
  5
87C
100
AcDbEntity
  8
ALPHA
 62
     7
100
AcDb2dPolyline
 66
     1
 10
0.0
 20
0.0
 30
0.0
  0
VERTEX
  5
87D
100
AcDbEntity
  8
ALPHA
 62
     7
100
AcDbVertex
100
AcDb2dVertex
 10
68.000785
 20
87.755737
 30
0.0
  0
VERTEX
  5
87E
100
AcDbEntity
  8
ALPHA
 62
     7
100
AcDbVertex
100
AcDb2dVertex
 10
67.072332
 20
87.755737
 30
0.0
  0
VERTEX
  5
87F
100
AcDbEntity
  8
ALPHA
 62
     7
100
AcDbVertex
100
AcDb2dVertex
 10
67.072332
 20
117.158766
 30
0.0
  0
VERTEX
  5
880
100
AcDbEntity
  8
ALPHA
 62
     7
100
AcDbVertex
100
AcDb2dVertex
 10
68.000785
 20
117.158766
 30
0.0
  0
SEQEND
  5
881
100
AcDbEntity
  8
ALPHA
 62
     7
  0
LINE
  5
882
100
AcDbEntity
  8
ALPHA
 62
     7
100
AcDbLine
 10
65.67948
 20
124.896106
 30
0.0
 11
65.67948
 21
80.637308
 31
0.0
  0
LINE
  5
883
100
AcDbEntity
  8
ALPHA
 62
     7
100
AcDbLine
 10
73.571677
 20
124.896106
 30
0.0
 11
73.571677
 21
80.637308
 31
0.0
  0
POLYLINE
  5
884
100
AcDbEntity
  8
ALPHA
 62
     7
100
AcDb2dPolyline
 66
     1
 10
0.0
 20
0.0
 30
0.0
 70
     1
  0
VERTEX
  5
885
100
AcDbEntity
  8
ALPHA
 62
     7
100
AcDbVertex
100
AcDb2dVertex
 10
74.809672
 20
80.637308
 30
0.0
  0
VERTEX
  5
886
100
AcDbEntity
  8
ALPHA
 62
     7
100
AcDbVertex
100
AcDb2dVertex
 10
64.441485
 20
80.637308
 30
0.0
  0
VERTEX
  5
887
100
AcDbEntity
  8
ALPHA
 62
     7
100
AcDbVertex
100
AcDb2dVertex
 10
64.441485
 20
124.896106
 30
0.0
  0
VERTEX
  5
888
100
AcDbEntity
  8
ALPHA
 62
     7
100
AcDbVertex
100
AcDb2dVertex
 10
74.809672
 20
124.896106
 30
0.0
  0
SEQEND
  5
889
100
AcDbEntity
  8
ALPHA
 62
     7
  0
LINE
  5
88A
100
AcDbEntity
  8
ALPHA
 62
     7
100
AcDbLine
 10
78.283534
 20
72.597317
 30
0.0
 11
78.283534
 21
137.677065
 31
0.0
  0
CIRCLE
  5
88B
100
AcDbEntity
  8
ALPHA
 62
     7
100
AcDbCircle
 10
70.940916
 20
103.981964
 30
0.0
 40
0.464313
  0
CIRCLE
  5
88C
100
AcDbEntity
  8
ALPHA
 62
     7
100
AcDbCircle
 10
70.940916
 20
101.478758
 30
0.0
 40
0.464313
  0
CIRCLE
  5
88D
100
AcDbEntity
  8
ALPHA
 62
     7
100
AcDbCircle
 10
70.940916
 20
98.975724
 30
0.0
 40
0.464313
  0
CIRCLE
  5
88E
100
AcDbEntity
  8
ALPHA
 62
     7
100
AcDbCircle
 10
70.940916
 20
96.472517
 30
0.0
 40
0.464313
  0
CIRCLE
  5
88F
100
AcDbEntity
  8
ALPHA
 62
     7
100
AcDbCircle
 10
70.940916
 20
93.969311
 30
0.0
 40
0.464313
  0
CIRCLE
  5
890
100
AcDbEntity
  8
ALPHA
 62
     7
100
AcDbCircle
 10
70.941002
 20
91.466277
 30
0.0
 40
0.928453
  0
CIRCLE
  5
891
100
AcDbEntity
  8
ALPHA
 62
     7
100
AcDbCircle
 10
69.703007
 20
83.422668
 30
0.0
 40
1.39268
  0
POLYLINE
  5
892
100
AcDbEntity
  8
ALPHA
 62
     7
100
AcDb2dPolyline
 66
     1
 10
0.0
 20
0.0
 30
0.0
 70
     1
  0
VERTEX
  5
893
100
AcDbEntity
  8
ALPHA
 62
     7
100
AcDbVertex
100
AcDb2dVertex
 10
72.256339
 20
87.422424
 30
0.0
  0
VERTEX
  5
894
100
AcDbEntity
  8
ALPHA
 62
     7
100
AcDbVertex
100
AcDb2dVertex
 10
67.149674
 20
87.422424
 30
0.0
  0
VERTEX
  5
895
100
AcDbEntity
  8
ALPHA
 62
     7
100
AcDbVertex
100
AcDb2dVertex
 10
67.149674
 20
83.422668
 30
0.0
  0
VERTEX
  5
896
100
AcDbEntity
  8
ALPHA
 62
     7
100
AcDbVertex
100
AcDb2dVertex
 10
72.256339
 20
83.422668
 30
0.0
  0
SEQEND
  5
897
100
AcDbEntity
  8
ALPHA
 62
     7
  0
POLYLINE
  5
898
100
AcDbEntity
  8
ALPHA
 62
     7
100
AcDb2dPolyline
 66
     1
 10
0.0
 20
0.0
 30
0.0
 70
     1
  0
VERTEX
  5
899
100
AcDbEntity
  8
ALPHA
 62
     7
100
AcDbVertex
100
AcDb2dVertex
 10
71.405229
 20
90.362641
 30
0.0
  0
VERTEX
  5
89A
100
AcDbEntity
  8
ALPHA
 62
     7
100
AcDbVertex
100
AcDb2dVertex
 10
68.000785
 20
90.362641
 30
0.0
  0
VERTEX
  5
89B
100
AcDbEntity
  8
ALPHA
 62
     7
100
AcDbVertex
100
AcDb2dVertex
 10
68.000785
 20
87.422424
 30
0.0
  0
VERTEX
  5
89C
100
AcDbEntity
  8
ALPHA
 62
     7
100
AcDbVertex
100
AcDb2dVertex
 10
71.405229
 20
87.422424
 30
0.0
  0
SEQEND
  5
89D
100
AcDbEntity
  8
ALPHA
 62
     7
  0
POLYLINE
  5
89E
100
AcDbEntity
  8
ALPHA
 62
     7
100
AcDb2dPolyline
 66
     1
 10
0.0
 20
0.0
 30
0.0
  0
VERTEX
  5
89F
100
AcDbEntity
  8
ALPHA
 62
     7
100
AcDbVertex
100
AcDb2dVertex
 10
59.287105
 20
83.422668
 30
0.0
  0
VERTEX
  5
8A0
100
AcDbEntity
  8
ALPHA
 62
     7
100
AcDbVertex
100
AcDb2dVertex
 10
57.197999
 20
83.422668
 30
0.0
  0
VERTEX
  5
8A1
100
AcDbEntity
  8
ALPHA
 62
     7
100
AcDbVertex
100
AcDb2dVertex
 10
57.197999
 20
80.637308
 30
0.0
  0
SEQEND
  5
8A2
100
AcDbEntity
  8
ALPHA
 62
     7
  0
POLYLINE
  5
8A3
100
AcDbEntity
  8
ALPHA
 62
     7
100
AcDb2dPolyline
 66
     1
 10
0.0
 20
0.0
 30
0.0
  0
VERTEX
  5
8A4
100
AcDbEntity
  8
ALPHA
 62
     7
100
AcDbVertex
100
AcDb2dVertex
 10
67.768586
 20
80.637308
 30
0.0
  0
VERTEX
  5
8A5
100
AcDbEntity
  8
ALPHA
 62
     7
100
AcDbVertex
100
AcDb2dVertex
 10
67.768586
 20
83.422668
 30
0.0
  0
VERTEX
  5
8A6
100
AcDbEntity
  8
ALPHA
 62
     7
100
AcDbVertex
100
AcDb2dVertex
 10
65.67948
 20
83.422668
 30
0.0
  0
SEQEND
  5
8A7
100
AcDbEntity
  8
ALPHA
 62
     7
  0
CIRCLE
  5
8A8
100
AcDbEntity
  8
ALPHA
 62
     7
100
AcDbCircle
 10
56.656344
 20
93.969311
 30
0.0
 40
0.464313
  0
CIRCLE
  5
8A9
100
AcDbEntity
  8
ALPHA
 62
     7
100
AcDbCircle
 10
56.65643
 20
91.466277
 30
0.0
 40
0.928453
  0
CIRCLE
  5
8AA
100
AcDbEntity
  8
ALPHA
 62
     7
100
AcDbCircle
 10
56.656344
 20
96.472517
 30
0.0
 40
0.464313
  0
CIRCLE
  5
8AB
100
AcDbEntity
  8
ALPHA
 62
     7
100
AcDbCircle
 10
56.656344
 20
98.975724
 30
0.0
 40
0.464313
  0
LINE
  5
8AC
100
AcDbEntity
  8
ALPHA
 62
     7
100
AcDbLine
 10
58.04911
 20
96.507313
 30
0.0
 11
59.287105
 21
96.507313
 31
0.0
  0
CIRCLE
  5
8AD
100
AcDbEntity
  8
ALPHA
 62
     7
100
AcDbCircle
 10
56.656344
 20
101.478758
 30
0.0
 40
0.464313
  0
CIRCLE
  5
8AE
100
AcDbEntity
  8
ALPHA
 62
     7
100
AcDbCircle
 10
56.656344
 20
103.981964
 30
0.0
 40
0.464313
  0
CIRCLE
  5
8AF
100
AcDbEntity
  8
ALPHA
 62
     7
100
AcDbCircle
 10
68.310241
 20
93.969311
 30
0.0
 40
0.464313
  0
LINE
  5
8B0
100
AcDbEntity
  8
ALPHA
 62
     7
100
AcDbLine
 10
65.67948
 20
93.412411
 30
0.0
 11
67.072332
 21
93.412411
 31
0.0
  0
CIRCLE
  5
8B1
100
AcDbEntity
  8
ALPHA
 62
     7
100
AcDbCircle
 10
68.310241
 20
91.466277
 30
0.0
 40
0.464313
  0
LINE
  5
8B2
100
AcDbEntity
  8
ALPHA
 62
     7
100
AcDbLine
 10
65.67948
 20
96.507313
 30
0.0
 11
67.072332
 21
96.507313
 31
0.0
  0
CIRCLE
  5
8B3
100
AcDbEntity
  8
ALPHA
 62
     7
100
AcDbCircle
 10
68.310241
 20
96.472517
 30
0.0
 40
0.464313
  0
CIRCLE
  5
8B4
100
AcDbEntity
  8
ALPHA
 62
     7
100
AcDbCircle
 10
68.310241
 20
98.975724
 30
0.0
 40
0.464313
  0
CIRCLE
  5
8B5
100
AcDbEntity
  8
ALPHA
 62
     7
100
AcDbCircle
 10
68.310241
 20
101.478758
 30
0.0
 40
0.464313
  0
CIRCLE
  5
8B6
100
AcDbEntity
  8
ALPHA
 62
     7
100
AcDbCircle
 10
68.310241
 20
103.981964
 30
0.0
 40
0.464313
  0
POLYLINE
  5
8B7
100
AcDbEntity
  8
ALPHA
 62
     7
100
AcDb2dPolyline
 66
     1
 10
0.0
 20
0.0
 30
0.0
  0
VERTEX
  5
8B8
100
AcDbEntity
  8
ALPHA
 62
     7
100
AcDbVertex
100
AcDb2dVertex
 10
73.571677
 20
83.422668
 30
0.0
  0
VERTEX
  5
8B9
100
AcDbEntity
  8
ALPHA
 62
     7
100
AcDbVertex
100
AcDb2dVertex
 10
71.482571
 20
83.422668
 30
0.0
  0
VERTEX
  5
8BA
100
AcDbEntity
  8
ALPHA
 62
     7
100
AcDbVertex
100
AcDb2dVertex
 10
71.482571
 20
80.637308
 30
0.0
  0
SEQEND
  5
8BB
100
AcDbEntity
  8
ALPHA
 62
     7
  0
SPLINE
  5
8BC
100
AcDbEntity
  8
ALPHA
 62
     7
100
AcDbSpline
210
0.0
220
0.0
230
1.0
 70
     8
 71
     3
 72
    20
 73
    16
 74
     0
 42
0.0000001
 43
0.0000001
 40
0.0
 40
0.0
 40
0.0
 40
0.0
 40
1.0
 40
1.0
 40
1.0
 40
2.0
 40
2.0
 40
2.0
 40
3.0
 40
3.0
 40
3.0
 40
4.0
 40
4.0
 40
4.0
 40
5.0
 40
5.0
 40
5.0
 40
5.0
 10
80.41845966229436
 20
72.59731672672604
 30
0.0
 10
80.41845966229436
 20
72.59731672672604
 30
0.0
 10
80.41845966229436
 20
70.88717132742047
 30
0.0
 10
80.41845966229436
 20
70.88717132742047
 30
0.0
 10
80.41845966229436
 20
70.47289859521561
 30
0.0
 10
80.08256285239855
 20
70.13717404009408
 30
0.0
 10
79.66811786541936
 20
70.13717404009408
 30
0.0
 10
79.66811786541936
 20
70.13717404009408
 30
0.0
 10
77.81396747479437
 20
70.13717404009408
 30
0.0
 10
77.81396747479437
 20
70.13717404009408
 30
0.0
 10
77.3998669973638
 20
70.13717404009408
 30
0.0
 10
77.06431469701659
 20
70.47289859521561
 30
0.0
 10
77.06431469701659
 20
70.88717132742047
 30
0.0
 10
77.06431469701659
 20
70.88717132742047
 30
0.0
 10
77.06431469701659
 20
72.59731672672604
 30
0.0
 10
77.06431469701659
 20
72.59731672672604
 30
0.0
  0
LINE
  5
8BD
100
AcDbEntity
  8
ALPHA
 62
     7
100
AcDbLine
 10
72.333682
 20
96.507313
 30
0.0
 11
73.571677
 21
96.507313
 31
0.0
  0
CIRCLE
  5
8BE
100
AcDbEntity
  8
ALPHA
 62
     7
100
AcDbCircle
 10
70.941002
 20
113.994445
 30
0.0
 40
0.464227
  0
CIRCLE
  5
8BF
100
AcDbEntity
  8
ALPHA
 62
     7
100
AcDbCircle
 10
70.940916
 20
111.491239
 30
0.0
 40
0.464313
  0
CIRCLE
  5
8C0
100
AcDbEntity
  8
ALPHA
 62
     7
100
AcDbCircle
 10
70.940916
 20
108.988205
 30
0.0
 40
0.464313
  0
CIRCLE
  5
8C1
100
AcDbEntity
  8
ALPHA
 62
     7
100
AcDbCircle
 10
70.940916
 20
106.485171
 30
0.0
 40
0.464313
  0
CIRCLE
  5
8C2
100
AcDbEntity
  8
ALPHA
 62
     7
100
AcDbCircle
 10
69.703007
 20
122.110574
 30
0.0
 40
1.39268
  0
POLYLINE
  5
8C3
100
AcDbEntity
  8
ALPHA
 62
     7
100
AcDb2dPolyline
 66
     1
 10
0.0
 20
0.0
 30
0.0
 70
     1
  0
VERTEX
  5
8C4
100
AcDbEntity
  8
ALPHA
 62
     7
100
AcDbVertex
100
AcDb2dVertex
 10
72.256339
 20
118.11099
 30
0.0
  0
VERTEX
  5
8C5
100
AcDbEntity
  8
ALPHA
 62
     7
100
AcDbVertex
100
AcDb2dVertex
 10
67.149674
 20
118.11099
 30
0.0
  0
VERTEX
  5
8C6
100
AcDbEntity
  8
ALPHA
 62
     7
100
AcDbVertex
100
AcDb2dVertex
 10
67.149674
 20
122.110574
 30
0.0
  0
VERTEX
  5
8C7
100
AcDbEntity
  8
ALPHA
 62
     7
100
AcDbVertex
100
AcDb2dVertex
 10
72.256339
 20
122.110574
 30
0.0
  0
SEQEND
  5
8C8
100
AcDbEntity
  8
ALPHA
 62
     7
  0
POLYLINE
  5
8C9
100
AcDbEntity
  8
ALPHA
 62
     7
100
AcDb2dPolyline
 66
     1
 10
0.0
 20
0.0
 30
0.0
 70
     1
  0
VERTEX
  5
8CA
100
AcDbEntity
  8
ALPHA
 62
     7
100
AcDbVertex
100
AcDb2dVertex
 10
71.405229
 20
115.170773
 30
0.0
  0
VERTEX
  5
8CB
100
AcDbEntity
  8
ALPHA
 62
     7
100
AcDbVertex
100
AcDb2dVertex
 10
68.000785
 20
115.170773
 30
0.0
  0
VERTEX
  5
8CC
100
AcDbEntity
  8
ALPHA
 62
     7
100
AcDbVertex
100
AcDb2dVertex
 10
68.000785
 20
118.11099
 30
0.0
  0
VERTEX
  5
8CD
100
AcDbEntity
  8
ALPHA
 62
     7
100
AcDbVertex
100
AcDb2dVertex
 10
71.405229
 20
118.11099
 30
0.0
  0
SEQEND
  5
8CE
100
AcDbEntity
  8
ALPHA
 62
     7
  0
CIRCLE
  5
8CF
100
AcDbEntity
  8
ALPHA
 62
     7
100
AcDbCircle
 10
56.656344
 20
106.485171
 30
0.0
 40
0.464313
  0
CIRCLE
  5
8D0
100
AcDbEntity
  8
ALPHA
 62
     7
100
AcDbCircle
 10
56.656344
 20
108.988205
 30
0.0
 40
0.464313
  0
LINE
  5
8D1
100
AcDbEntity
  8
ALPHA
 62
     7
100
AcDbLine
 10
58.04911
 20
108.988205
 30
0.0
 11
59.287105
 21
108.988205
 31
0.0
  0
CIRCLE
  5
8D2
100
AcDbEntity
  8
ALPHA
 62
     7
100
AcDbCircle
 10
56.656344
 20
111.491239
 30
0.0
 40
0.464313
  0
CIRCLE
  5
8D3
100
AcDbEntity
  8
ALPHA
 62
     7
100
AcDbCircle
 10
56.65643
 20
113.994445
 30
0.0
 40
0.464227
  0
POLYLINE
  5
8D4
100
AcDbEntity
  8
ALPHA
 62
     7
100
AcDb2dPolyline
 66
     1
 10
0.0
 20
0.0
 30
0.0
  0
VERTEX
  5
8D5
100
AcDbEntity
  8
ALPHA
 62
     7
100
AcDbVertex
100
AcDb2dVertex
 10
59.287105
 20
122.110574
 30
0.0
  0
VERTEX
  5
8D6
100
AcDbEntity
  8
ALPHA
 62
     7
100
AcDbVertex
100
AcDb2dVertex
 10
57.197999
 20
122.110574
 30
0.0
  0
VERTEX
  5
8D7
100
AcDbEntity
  8
ALPHA
 62
     7
100
AcDbVertex
100
AcDb2dVertex
 10
57.197999
 20
124.896106
 30
0.0
  0
SEQEND
  5
8D8
100
AcDbEntity
  8
ALPHA
 62
     7
  0
LINE
  5
8D9
100
AcDbEntity
  8
ALPHA
 62
     7
100
AcDbLine
 10
65.67948
 20
108.988205
 30
0.0
 11
67.072332
 21
108.988205
 31
0.0
  0
LINE
  5
8DA
100
AcDbEntity
  8
ALPHA
 62
     7
100
AcDbLine
 10
65.67948
 20
112.237963
 30
0.0
 11
67.072332
 21
112.237963
 31
0.0
  0
CIRCLE
  5
8DB
100
AcDbEntity
  8
ALPHA
 62
     7
100
AcDbCircle
 10
68.310241
 20
106.485171
 30
0.0
 40
0.464313
  0
CIRCLE
  5
8DC
100
AcDbEntity
  8
ALPHA
 62
     7
100
AcDbCircle
 10
68.310241
 20
108.988205
 30
0.0
 40
0.464313
  0
CIRCLE
  5
8DD
100
AcDbEntity
  8
ALPHA
 62
     7
100
AcDbCircle
 10
68.310241
 20
111.491239
 30
0.0
 40
0.464313
  0
CIRCLE
  5
8DE
100
AcDbEntity
  8
ALPHA
 62
     7
100
AcDbCircle
 10
68.310241
 20
113.994445
 30
0.0
 40
0.464313
  0
POLYLINE
  5
8DF
100
AcDbEntity
  8
ALPHA
 62
     7
100
AcDb2dPolyline
 66
     1
 10
0.0
 20
0.0
 30
0.0
  0
VERTEX
  5
8E0
100
AcDbEntity
  8
ALPHA
 62
     7
100
AcDbVertex
100
AcDb2dVertex
 10
67.768586
 20
124.896106
 30
0.0
  0
VERTEX
  5
8E1
100
AcDbEntity
  8
ALPHA
 62
     7
100
AcDbVertex
100
AcDb2dVertex
 10
67.768586
 20
122.110574
 30
0.0
  0
VERTEX
  5
8E2
100
AcDbEntity
  8
ALPHA
 62
     7
100
AcDbVertex
100
AcDb2dVertex
 10
65.67948
 20
122.110574
 30
0.0
  0
SEQEND
  5
8E3
100
AcDbEntity
  8
ALPHA
 62
     7
  0
LINE
  5
8E4
100
AcDbEntity
  8
ALPHA
 62
     7
100
AcDbLine
 10
72.333682
 20
108.988205
 30
0.0
 11
73.571677
 21
108.988205
 31
0.0
  0
POLYLINE
  5
8E5
100
AcDbEntity
  8
ALPHA
 62
     7
100
AcDb2dPolyline
 66
     1
 10
0.0
 20
0.0
 30
0.0
  0
VERTEX
  5
8E6
100
AcDbEntity
  8
ALPHA
 62
     7
100
AcDbVertex
100
AcDb2dVertex
 10
73.571677
 20
122.110574
 30
0.0
  0
VERTEX
  5
8E7
100
AcDbEntity
  8
ALPHA
 62
     7
100
AcDbVertex
100
AcDb2dVertex
 10
71.482571
 20
122.110574
 30
0.0
  0
VERTEX
  5
8E8
100
AcDbEntity
  8
ALPHA
 62
     7
100
AcDbVertex
100
AcDb2dVertex
 10
71.482571
 20
124.896106
 30
0.0
  0
SEQEND
  5
8E9
100
AcDbEntity
  8
ALPHA
 62
     7
  0
SPLINE
  5
8EA
100
AcDbEntity
  8
ALPHA
 62
     7
100
AcDbSpline
210
0.0
220
0.0
230
-1.0
 70
     8
 71
     3
 72
    20
 73
    16
 74
     0
 42
0.0000001
 43
0.0000001
 40
0.0
 40
0.0
 40
0.0
 40
0.0
 40
1.0
 40
1.0
 40
1.0
 40
2.0
 40
2.0
 40
2.0
 40
3.0
 40
3.0
 40
3.0
 40
4.0
 40
4.0
 40
4.0
 40
5.0
 40
5.0
 40
5.0
 40
5.0
 10
77.06431469701659
 20
137.6770652618822
 30
0.0
 10
77.06431469701659
 20
137.6770652618822
 30
0.0
 10
77.06431469701659
 20
139.3872106611878
 30
0.0
 10
77.06431469701659
 20
139.3872106611878
 30
0.0
 10
77.06431469701659
 20
139.8014833933926
 30
0.0
 10
77.3998669973638
 20
140.1372079485142
 30
0.0
 10
77.81396747479437
 20
140.1372079485142
 30
0.0
 10
77.81396747479437
 20
140.1372079485142
 30
0.0
 10
79.66811786541936
 20
140.1372079485142
 30
0.0
 10
79.66811786541936
 20
140.1372079485142
 30
0.0
 10
80.08256285239855
 20
140.1372079485142
 30
0.0
 10
80.41845966229436
 20
139.8014833933926
 30
0.0
 10
80.41845966229436
 20
139.3872106611878
 30
0.0
 10
80.41845966229436
 20
139.3872106611878
 30
0.0
 10
80.41845966229436
 20
137.6770652618822
 30
0.0
 10
80.41845966229436
 20
137.6770652618822
 30
0.0
  0
DIMENSION
  5
8F7
100
AcDbEntity
  8
COTATION1
100
AcDbDimension
  2
*D11
 10
80.41846
 20
60.489718
 30
0.0
 11
55.418435
 21
62.739718
 31
0.0
 70
    32
  3
SC_STAND
100
AcDbAlignedDimension
 13
30.418411
 23
70.979116
 33
0.0
 14
80.41846
 24
70.936508
 34
0.0
100
AcDbRotatedDimension
  0
DIMENSION
  5
904
100
AcDbEntity
  8
COTATION1
100
AcDbDimension
  2
*D12
 10
90.963647
 20
140.137208
 30
0.0
 11
88.713647
 21
105.137191
 31
0.0
 70
    32
  3
SC_STAND
100
AcDbAlignedDimension
 13
79.668118
 23
70.137174
 33
0.0
 14
79.606427
 24
140.137208
 34
0.0
 50
90.0
100
AcDbRotatedDimension
  0
ENDSEC
  0
SECTION
  2
OBJECTS
  0
DICTIONARY
  5
F8
100
AcDbDictionary
  3
ACAD_GROUP
350
F9
  3
ACAD_MLINESTYLE
350
106
  3
ACDBVARIABLEDICTIONARY
350
143
  0
DICTIONARY
  5
F9
102
{ACAD_REACTORS
330
F8
102
}
100
AcDbDictionary
  0
DICTIONARY
  5
106
102
{ACAD_REACTORS
330
F8
102
}
100
AcDbDictionary
  3
STANDARD
350
107
  0
DICTIONARY
  5
143
102
{ACAD_REACTORS
330
F8
102
}
100
AcDbDictionary
  3
DIMADEC
350
144
  0
MLINESTYLE
  5
107
102
{ACAD_REACTORS
330
106
102
}
100
AcDbMlineStyle
  2
STANDARD
 70
     0
  3

 62
   256
 51
90.0
 52
90.0
 71
     2
 49
0.5
 62
   256
  6
BYLAYER
 49
-0.5
 62
   256
  6
BYLAYER
  0
DICTIONARYVAR
  5
144
102
{ACAD_REACTORS
330
143
102
}
100
DictionaryVariables
280
     0
  1
0
  0
ENDSEC
  0
EOF
