  0
SECTION
  2
HEADER
  9
$ACADVER
  1
AC1014
  9
$ACADMAINTVER
 70
     0
  9
$DWGCODEPAGE
  3
ANSI_1252
  9
$INSBASE
 10
115.112814
 20
99.775602
 30
0.0
  9
$EXTMIN
 10
96.85619
 20
70.198425
 30
0.0
  9
$EXTMAX
 10
138.938332
 20
122.790413
 30
0.0
  9
$LIMMIN
 10
0.0
 20
0.0
  9
$LIMMAX
 10
210.0
 20
297.0
  9
$ORTHOMODE
 70
     1
  9
$REGENMODE
 70
     1
  9
$FILLMODE
 70
     1
  9
$QTEXTMODE
 70
     0
  9
$MIRRTEXT
 70
     1
  9
$DRAGMODE
 70
     2
  9
$LTSCALE
 40
7.0
  9
$OSMODE
 70
     0
  9
$ATTMODE
 70
     1
  9
$TEXTSIZE
 40
0.2
  9
$TRACEWID
 40
0.05
  9
$TEXTSTYLE
  7
STANDARD
  9
$CLAYER
  8
COTATION1
  9
$CELTYPE
  6
BYLAYER
  9
$CECOLOR
 62
   256
  9
$CELTSCALE
 40
1.0
  9
$DELOBJ
 70
     1
  9
$DISPSILH
 70
     0
  9
$DIMSCALE
 40
1.0
  9
$DIMASZ
 40
3.0
  9
$DIMEXO
 40
0.0625
  9
$DIMDLI
 40
0.38
  9
$DIMRND
 40
0.01
  9
$DIMDLE
 40
0.0
  9
$DIMEXE
 40
0.18
  9
$DIMTP
 40
0.0
  9
$DIMTM
 40
0.0
  9
$DIMTXT
 40
2.5
  9
$DIMCEN
 40
0.09
  9
$DIMTSZ
 40
0.0
  9
$DIMTOL
 70
     0
  9
$DIMLIM
 70
     0
  9
$DIMTIH
 70
     0
  9
$DIMTOH
 70
     0
  9
$DIMSE1
 70
     0
  9
$DIMSE2
 70
     0
  9
$DIMTAD
 70
     1
  9
$DIMZIN
 70
    12
  9
$DIMBLK
  1

  9
$DIMASO
 70
     1
  9
$DIMSHO
 70
     1
  9
$DIMPOST
  1

  9
$DIMAPOST
  1

  9
$DIMALT
 70
     0
  9
$DIMALTD
 70
     2
  9
$DIMALTF
 40
25.4
  9
$DIMLFAC
 40
1.0
  9
$DIMTOFL
 70
     1
  9
$DIMTVP
 40
0.0
  9
$DIMTIX
 70
     0
  9
$DIMSOXD
 70
     0
  9
$DIMSAH
 70
     0
  9
$DIMBLK1
  1

  9
$DIMBLK2
  1

  9
$DIMSTYLE
  2
SC_STAND
  9
$DIMCLRD
 70
     0
  9
$DIMCLRE
 70
     0
  9
$DIMCLRT
 70
     0
  9
$DIMTFAC
 40
1.0
  9
$DIMGAP
 40
1.0
  9
$DIMJUST
 70
     0
  9
$DIMSD1
 70
     0
  9
$DIMSD2
 70
     0
  9
$DIMTOLJ
 70
     1
  9
$DIMTZIN
 70
    12
  9
$DIMALTZ
 70
    12
  9
$DIMALTTZ
 70
    12
  9
$DIMFIT
 70
     5
  9
$DIMUPT
 70
     0
  9
$DIMUNIT
 70
     2
  9
$DIMDEC
 70
     4
  9
$DIMTDEC
 70
     4
  9
$DIMALTU
 70
     2
  9
$DIMALTTD
 70
     2
  9
$DIMTXSTY
  7
STANDARD
  9
$DIMAUNIT
 70
     0
  9
$LUNITS
 70
     2
  9
$LUPREC
 70
     4
  9
$SKETCHINC
 40
0.1
  9
$FILLETRAD
 40
0.0
  9
$AUNITS
 70
     0
  9
$AUPREC
 70
     0
  9
$MENU
  1
acad
  9
$ELEVATION
 40
0.0
  9
$PELEVATION
 40
0.0
  9
$THICKNESS
 40
0.0
  9
$LIMCHECK
 70
     0
  9
$BLIPMODE
 70
     1
  9
$CHAMFERA
 40
0.0
  9
$CHAMFERB
 40
0.0
  9
$CHAMFERC
 40
0.0
  9
$CHAMFERD
 40
0.0
  9
$SKPOLY
 70
     0
  9
$TDCREATE
 40
2451086.435639236
  9
$TDUPDATE
 40
2451387.898021550
  9
$TDINDWG
 40
0.0000500000
  9
$TDUSRTIMER
 40
0.0000500000
  9
$USRTIMER
 70
     1
  9
$ANGBASE
 50
0.0
  9
$ANGDIR
 70
     0
  9
$PDMODE
 70
     0
  9
$PDSIZE
 40
0.0
  9
$PLINEWID
 40
0.0
  9
$COORDS
 70
     1
  9
$SPLFRAME
 70
     0
  9
$SPLINETYPE
 70
     6
  9
$SPLINESEGS
 70
     8
  9
$ATTDIA
 70
     0
  9
$ATTREQ
 70
     1
  9
$HANDLING
 70
     1
  9
$HANDSEED
  5
302
  9
$SURFTAB1
 70
     6
  9
$SURFTAB2
 70
     6
  9
$SURFTYPE
 70
     6
  9
$SURFU
 70
     6
  9
$SURFV
 70
     6
  9
$UCSNAME
  2

  9
$UCSORG
 10
0.0
 20
0.0
 30
0.0
  9
$UCSXDIR
 10
1.0
 20
0.0
 30
0.0
  9
$UCSYDIR
 10
0.0
 20
1.0
 30
0.0
  9
$PUCSNAME
  2

  9
$PUCSORG
 10
0.0
 20
0.0
 30
0.0
  9
$PUCSXDIR
 10
1.0
 20
0.0
 30
0.0
  9
$PUCSYDIR
 10
0.0
 20
1.0
 30
0.0
  9
$USERI1
 70
     0
  9
$USERI2
 70
     0
  9
$USERI3
 70
     0
  9
$USERI4
 70
     0
  9
$USERI5
 70
     0
  9
$USERR1
 40
0.0
  9
$USERR2
 40
0.0
  9
$USERR3
 40
0.0
  9
$USERR4
 40
0.0
  9
$USERR5
 40
0.0
  9
$WORLDVIEW
 70
     1
  9
$SHADEDGE
 70
     3
  9
$SHADEDIF
 70
    70
  9
$TILEMODE
 70
     1
  9
$MAXACTVP
 70
    16
  9
$PINSBASE
 10
0.0
 20
0.0
 30
0.0
  9
$PLIMCHECK
 70
     0
  9
$PEXTMIN
 10
1.000000E+20
 20
1.000000E+20
 30
1.000000E+20
  9
$PEXTMAX
 10
-1.000000E+20
 20
-1.000000E+20
 30
-1.000000E+20
  9
$PLIMMIN
 10
0.0
 20
0.0
  9
$PLIMMAX
 10
12.0
 20
9.0
  9
$UNITMODE
 70
     0
  9
$VISRETAIN
 70
     0
  9
$PLINEGEN
 70
     0
  9
$PSLTSCALE
 70
     1
  9
$TREEDEPTH
 70
  3020
  9
$PICKSTYLE
 70
     1
  9
$CMLSTYLE
  2
STANDARD
  9
$CMLJUST
 70
     0
  9
$CMLSCALE
 40
1.0
  9
$PROXYGRAPHICS
 70
     1
  9
$MEASUREMENT
 70
     0
  0
ENDSEC
  0
SECTION
  2
CLASSES
  0
CLASS
  1
DICTIONARYVAR
  2
AcDbDictionaryVar
  3
"AutoCAD"
 90
        0
280
     0
281
     0
  0
CLASS
  1
LWPOLYLINE
  2
AcDbPolyline
  3
"AutoCAD"
 90
        0
280
     0
281
     1
  0
ENDSEC
  0
SECTION
  2
TABLES
  0
TABLE
  2
VPORT
  5
2D6
100
AcDbSymbolTable
 70
     1
  0
VPORT
  5
2FD
100
AcDbSymbolTableRecord
100
AcDbViewportTableRecord
  2
*ACTIVE
 70
     0
 10
0.0
 20
0.0
 11
1.0
 21
1.0
 12
225.654671
 22
135.037441
 13
0.0
 23
0.0
 14
1.0
 24
1.0
 15
0.0
 25
0.0
 16
0.0
 26
0.0
 36
1.0
 17
0.0
 27
0.0
 37
0.0
 40
270.074882
 41
1.671053
 42
50.0
 43
0.0
 44
0.0
 50
0.0
 51
0.0
 71
     0
 72
   100
 73
     1
 74
     1
 75
     0
 76
     0
 77
     0
 78
     0
  0
ENDTAB
  0
TABLE
  2
LTYPE
  5
2D3
100
AcDbSymbolTable
 70
     2
  0
LTYPE
  5
2DF
100
AcDbSymbolTableRecord
100
AcDbLinetypeTableRecord
  2
BYBLOCK
 70
     0
  3

 72
    65
 73
     0
 40
0.0
  0
LTYPE
  5
2E0
100
AcDbSymbolTableRecord
100
AcDbLinetypeTableRecord
  2
BYLAYER
 70
     0
  3

 72
    65
 73
     0
 40
0.0
  0
LTYPE
  5
2E1
100
AcDbSymbolTableRecord
100
AcDbLinetypeTableRecord
  2
CONTINUOUS
 70
     0
  3
Solid line
 72
    65
 73
     0
 40
0.0
  0
LTYPE
  5
2ED
100
AcDbSymbolTableRecord
100
AcDbLinetypeTableRecord
  2
AXES2
 70
     0
  3
___ _ ___ _ ___ _ ___ _ ___ _ ___ _ ___ _ ___ _
 72
    65
 73
     4
 40
1.125
 49
0.75
 74
     0
 49
-0.125
 74
     0
 49
0.125
 74
     0
 49
-0.125
 74
     0
  0
ENDTAB
  0
TABLE
  2
LAYER
  5
2D0
100
AcDbSymbolTable
 70
     5
  0
LAYER
  5
2DC
100
AcDbSymbolTableRecord
100
AcDbLayerTableRecord
  2
0
 70
     0
 62
     7
  6
CONTINUOUS
  0
LAYER
  5
2F0
100
AcDbSymbolTableRecord
100
AcDbLayerTableRecord
  2
AXE
 70
     0
 62
    80
  6
AXES2
  0
LAYER
  5
2F1
100
AcDbSymbolTableRecord
100
AcDbLayerTableRecord
  2
COTATION1
 70
     0
 62
     2
  6
CONTINUOUS
  0
LAYER
  5
2F2
100
AcDbSymbolTableRecord
100
AcDbLayerTableRecord
  2
ALPHA
 70
     0
 62
   255
  6
CONTINUOUS
  0
LAYER
  5
2F3
100
AcDbSymbolTableRecord
100
AcDbLayerTableRecord
  2
DEFPOINTS
 70
     0
 62
     7
  6
CONTINUOUS
  0
ENDTAB
  0
TABLE
  2
STYLE
  5
2D1
100
AcDbSymbolTable
 70
     2
  0
STYLE
  5
2DD
100
AcDbSymbolTableRecord
100
AcDbTextStyleTableRecord
  2
STANDARD
 70
     0
 40
0.0
 41
1.0
 50
0.0
 71
     0
 42
0.2
  3
txt
  4

  0
STYLE
  5
2EC
100
AcDbSymbolTableRecord
100
AcDbTextStyleTableRecord
  2
ROMANS
 70
     0
 40
0.0
 41
1.0
 50
0.0
 71
     0
 42
2.9
  3
romans.shx
  4

  0
ENDTAB
  0
TABLE
  2
VIEW
  5
2D4
100
AcDbSymbolTable
 70
     0
  0
ENDTAB
  0
TABLE
  2
UCS
  5
2D5
100
AcDbSymbolTable
 70
     0
  0
ENDTAB
  0
TABLE
  2
APPID
  5
2D7
100
AcDbSymbolTable
 70
     1
  0
APPID
  5
2DE
100
AcDbSymbolTableRecord
100
AcDbRegAppTableRecord
  2
ACAD
 70
     0
  0
ENDTAB
  0
TABLE
  2
DIMSTYLE
  5
2D8
100
AcDbSymbolTable
 70
     1
  0
DIMSTYLE
105
2EF
102
{ACAD_REACTORS
330
1F
330
2D
102
}
100
AcDbSymbolTableRecord
100
AcDbDimStyleTableRecord
  2
SC_STAND
 70
     0
  3

  4

  5

  6

  7

 40
1.0
 41
3.0
 42
0.0625
 43
0.38
 44
0.18
 45
0.01
 46
0.0
 47
0.0
 48
0.0
140
2.5
141
0.09
142
0.0
143
25.4
144
1.0
145
0.0
146
1.0
147
1.0
 71
     0
 72
     0
 73
     0
 74
     0
 75
     0
 76
     0
 77
     1
 78
    12
170
     0
171
     2
172
     1
173
     0
174
     0
175
     0
176
     0
177
     0
178
     0
270
     2
271
     4
272
     4
273
     2
274
     2
340
2DD
275
     0
280
     0
281
     0
282
     0
283
     1
284
    12
285
    12
286
    12
287
     5
288
     0
  0
ENDTAB
  0
TABLE
  2
BLOCK_RECORD
  5
2CF
100
AcDbSymbolTable
 70
     2
  0
BLOCK_RECORD
  5
2E5
100
AcDbSymbolTableRecord
100
AcDbBlockTableRecord
  2
*MODEL_SPACE
  0
BLOCK_RECORD
  5
2E2
100
AcDbSymbolTableRecord
100
AcDbBlockTableRecord
  2
*PAPER_SPACE
  0
BLOCK_RECORD
  5
2EA
100
AcDbSymbolTableRecord
100
AcDbBlockTableRecord
  2
*D0
  0
BLOCK_RECORD
  5
2EB
100
AcDbSymbolTableRecord
100
AcDbBlockTableRecord
  2
*D1
  0
ENDTAB
  0
ENDSEC
  0
SECTION
  2
BLOCKS
  0
BLOCK
  5
2F6
100
AcDbEntity
  8
0
100
AcDbBlockBegin
  2
*MODEL_SPACE
 70
     0
 10
0.0
 20
0.0
 30
0.0
  3
*MODEL_SPACE
  1

  0
ENDBLK
  5
2F7
100
AcDbEntity
  8
0
100
AcDbBlockEnd
  0
BLOCK
  5
2F4
100
AcDbEntity
 67
     1
  8
0
100
AcDbBlockBegin
  2
*PAPER_SPACE
 70
     0
 10
0.0
 20
0.0
 30
0.0
  3
*PAPER_SPACE
  1

  0
ENDBLK
  5
2F5
100
AcDbEntity
 67
     1
  8
0
100
AcDbBlockEnd
  0
BLOCK
  5
38
100
AcDbEntity
  8
0
100
AcDbBlockBegin
  2
*D0
 70
     1
 10
0.0
 20
0.0
 30
0.0
  3
*D0
  1
AVE_GLOBAL
  0
LINE
  5
2F
100
AcDbEntity
  8
0
  6
BYBLOCK
 62
     0
100
AcDbLine
 10
96.85619
 20
82.177913
 30
0.0
 11
96.85619
 21
70.518425
 31
0.0
  0
LINE
  5
30
100
AcDbEntity
  8
0
  6
BYBLOCK
 62
     0
100
AcDbLine
 10
129.05619
 20
85.477913
 30
0.0
 11
129.05619
 21
70.518425
 31
0.0
  0
LINE
  5
31
100
AcDbEntity
  8
0
  6
BYBLOCK
 62
     0
100
AcDbLine
 10
99.85619
 20
70.698425
 30
0.0
 11
126.05619
 21
70.698425
 31
0.0
  0
SOLID
  5
32
100
AcDbEntity
  8
0
  6
BYBLOCK
 62
     0
100
AcDbTrace
 10
99.85619
 20
71.198425
 30
0.0
 11
99.85619
 21
70.198425
 31
0.0
 12
96.85619
 22
70.698425
 32
0.0
 13
96.85619
 23
70.698425
 33
0.0
  0
SOLID
  5
33
100
AcDbEntity
  8
0
  6
BYBLOCK
 62
     0
100
AcDbTrace
 10
126.05619
 20
71.198425
 30
0.0
 11
126.05619
 21
70.198425
 31
0.0
 12
129.05619
 22
70.698425
 32
0.0
 13
129.05619
 23
70.698425
 33
0.0
  0
TEXT
  5
34
100
AcDbEntity
  8
0
  6
BYBLOCK
 62
     0
100
AcDbText
 10
108.789524
 20
71.698425
 30
0.0
 40
2.5
  1
32.2
  7
ROMANS
100
AcDbText
  0
POINT
  5
35
100
AcDbEntity
  8
DEFPOINTS
  6
BYBLOCK
 62
     0
100
AcDbPoint
 10
96.85619
 20
82.240413
 30
0.0
  0
POINT
  5
36
100
AcDbEntity
  8
DEFPOINTS
  6
BYBLOCK
 62
     0
100
AcDbPoint
 10
129.05619
 20
85.540413
 30
0.0
  0
POINT
  5
37
100
AcDbEntity
  8
DEFPOINTS
  6
BYBLOCK
 62
     0
100
AcDbPoint
 10
129.05619
 20
70.698425
 30
0.0
  0
ENDBLK
  5
39
100
AcDbEntity
  8
0
100
AcDbBlockEnd
  0
BLOCK
  5
2B
100
AcDbEntity
  8
0
100
AcDbBlockBegin
  2
*D1
 70
     1
 10
0.0
 20
0.0
 30
0.0
  3
*D1
  1
AVE_GLOBAL
  0
LINE
  5
21
100
AcDbEntity
  8
0
  6
BYBLOCK
 62
     0
100
AcDbLine
 10
124.997474
 20
84.040413
 30
0.0
 11
138.618332
 21
84.040413
 31
0.0
  0
LINE
  5
22
100
AcDbEntity
  8
0
  6
BYBLOCK
 62
     0
100
AcDbLine
 10
124.997474
 20
116.040413
 30
0.0
 11
138.618332
 21
116.040413
 31
0.0
  0
LINE
  5
23
100
AcDbEntity
  8
0
  6
BYBLOCK
 62
     0
100
AcDbLine
 10
138.438332
 20
87.040413
 30
0.0
 11
138.438332
 21
113.040413
 31
0.0
  0
SOLID
  5
24
100
AcDbEntity
  8
0
  6
BYBLOCK
 62
     0
100
AcDbTrace
 10
137.938332
 20
87.040413
 30
0.0
 11
138.938332
 21
87.040413
 31
0.0
 12
138.438332
 22
84.040413
 32
0.0
 13
138.438332
 23
84.040413
 33
0.0
  0
SOLID
  5
25
100
AcDbEntity
  8
0
  6
BYBLOCK
 62
     0
100
AcDbTrace
 10
137.938332
 20
113.040413
 30
0.0
 11
138.938332
 21
113.040413
 31
0.0
 12
138.438332
 22
116.040413
 32
0.0
 13
138.438332
 23
116.040413
 33
0.0
  0
TEXT
  5
26
100
AcDbEntity
  8
0
  6
BYBLOCK
 62
     0
100
AcDbText
 10
137.438332
 20
97.65946
 30
0.0
 40
2.5
  1
32
 50
90.0
  7
ROMANS
100
AcDbText
  0
POINT
  5
27
100
AcDbEntity
  8
DEFPOINTS
  6
BYBLOCK
 62
     0
100
AcDbPoint
 10
124.934974
 20
84.040413
 30
0.0
  0
POINT
  5
29
100
AcDbEntity
  8
DEFPOINTS
  6
BYBLOCK
 62
     0
100
AcDbPoint
 10
124.934974
 20
116.040413
 30
0.0
  0
POINT
  5
2A
100
AcDbEntity
  8
DEFPOINTS
  6
BYBLOCK
 62
     0
100
AcDbPoint
 10
138.438332
 20
116.040413
 30
0.0
  0
ENDBLK
  5
2C
100
AcDbEntity
  8
0
100
AcDbBlockEnd
  0
ENDSEC
  0
SECTION
  2
ENTITIES
  0
DIMENSION
  5
1F
100
AcDbEntity
  8
COTATION1
100
AcDbDimension
  2
*D1
 10
138.438332
 20
116.040413
 30
0.0
 11
136.188332
 21
100.040413
 31
0.0
  3
SC_STAND
100
AcDbAlignedDimension
 13
124.934974
 23
84.040413
 33
0.0
 14
124.934974
 24
116.040413
 34
0.0
 50
90.0
100
AcDbRotatedDimension
  0
DIMENSION
  5
2D
100
AcDbEntity
  8
COTATION1
100
AcDbDimension
  2
*D0
 10
129.05619
 20
70.698425
 30
0.0
 11
112.95619
 21
72.948425
 31
0.0
  3
SC_STAND
100
AcDbAlignedDimension
 13
96.85619
 23
82.240413
 33
0.0
 14
129.05619
 24
85.540413
 34
0.0
100
AcDbRotatedDimension
  0
LINE
  5
3A
100
AcDbEntity
  8
AXE
100
AcDbLine
 10
99.62619
 20
86.024387
 30
0.0
 11
99.62619
 21
82.841062
 31
0.0
  0
LWPOLYLINE
  5
3D
100
AcDbEntity
  8
AXE
100
AcDbPolyline
 90
        7
 70
     0
 43
0.0
 10
99.62619
 20
87.323403
 10
99.62619
 20
87.062931
 10
99.62619
 20
86.810375
 10
99.62619
 20
86.573409
 10
99.62619
 20
86.359232
 10
99.62619
 20
86.174353
 10
99.62619
 20
86.024388
  0
LINE
  5
46
100
AcDbEntity
  8
AXE
100
AcDbLine
 10
99.62619
 20
115.990352
 30
0.0
 11
99.62619
 21
87.323403
 31
0.0
  0
LWPOLYLINE
  5
47
100
AcDbEntity
  8
AXE
100
AcDbPolyline
 90
        9
 70
     0
 43
0.0
 10
99.62619
 20
117.990413
 10
99.62619
 20
117.952324
 10
99.62619
 20
117.839505
 10
99.62619
 20
117.656256
 10
99.62619
 20
117.404627
 10
99.62619
 20
117.103004
 10
99.62619
 20
116.759004
 10
99.62619
 20
116.385728
 10
99.62619
 20
115.990352
  0
LWPOLYLINE
  5
52
100
AcDbEntity
  8
AXE
100
AcDbPolyline
 90
        7
 70
     0
 43
0.0
 10
99.62619
 20
118.02371
 10
99.62619
 20
118.013634
 10
99.62619
 20
118.005358
 10
99.62619
 20
117.998892
 10
99.62619
 20
117.994242
 10
99.62619
 20
117.991416
 10
99.62619
 20
117.990413
  0
LINE
  5
5B
100
AcDbEntity
  8
AXE
100
AcDbLine
 10
99.62619
 20
118.69009
 30
0.0
 11
99.62619
 21
118.023709
 31
0.0
  0
LWPOLYLINE
  5
5C
100
AcDbEntity
  8
AXE
100
AcDbPolyline
 90
        7
 70
     0
 43
0.0
 10
99.62619
 20
118.69009
 10
99.62619
 20
118.708441
 10
99.62619
 20
118.719557
 10
99.62619
 20
118.723384
 10
99.62619
 20
118.719903
 10
99.62619
 20
118.709132
 10
99.62619
 20
118.69009
  0
LINE
  5
65
100
AcDbEntity
  8
AXE
100
AcDbLine
 10
99.62619
 20
118.023709
 30
0.0
 11
99.62619
 21
118.69009
 31
0.0
  0
LWPOLYLINE
  5
66
100
AcDbEntity
  8
AXE
100
AcDbPolyline
 90
        7
 70
     0
 43
0.0
 10
99.62619
 20
117.990413
 10
99.62619
 20
117.991327
 10
99.62619
 20
117.994067
 10
99.62619
 20
117.99863
 10
99.62619
 20
118.005011
 10
99.62619
 20
118.013202
 10
99.62619
 20
118.02371
  0
LWPOLYLINE
  5
6F
100
AcDbEntity
  8
AXE
100
AcDbPolyline
 90
        9
 70
     0
 43
0.0
 10
99.62619
 20
115.990352
 10
99.62619
 20
116.378822
 10
99.62619
 20
116.752498
 10
99.62619
 20
117.097146
 10
99.62619
 20
117.404584
 10
99.62619
 20
117.652348
 10
99.62619
 20
117.83681
 10
99.62619
 20
117.950944
 10
99.62619
 20
117.990413
  0
LINE
  5
7A
100
AcDbEntity
  8
AXE
100
AcDbLine
 10
99.62619
 20
87.323403
 30
0.0
 11
99.62619
 21
115.990352
 31
0.0
  0
LWPOLYLINE
  5
7B
100
AcDbEntity
  8
AXE
100
AcDbPolyline
 90
        7
 70
     0
 43
0.0
 10
99.62619
 20
86.024388
 10
99.62619
 20
86.174353
 10
99.62619
 20
86.359233
 10
99.62619
 20
86.57341
 10
99.62619
 20
86.810376
 10
99.62619
 20
87.062932
 10
99.62619
 20
87.323404
  0
LINE
  5
84
100
AcDbEntity
  8
AXE
100
AcDbLine
 10
99.62619
 20
82.841062
 30
0.0
 11
99.62619
 21
86.024387
 31
0.0
  0
LINE
  5
85
100
AcDbEntity
  8
ALPHA
100
AcDbLine
 10
108.65619
 20
88.240413
 30
0.0
 11
108.673803
 21
88.240413
 31
0.0
  0
ARC
  5
87
100
AcDbEntity
  8
ALPHA
100
AcDbCircle
 10
106.95619
 20
94.033975
 30
0.0
 40
0.5
100
AcDbArc
 50
52.0
 51
146.583573
  0
ARC
  5
88
100
AcDbEntity
  8
ALPHA
100
AcDbCircle
 10
108.75619
 20
89.824928
 30
0.0
 40
0.5
100
AcDbArc
 50
258.407956
 51
0.0
  0
LINE
  5
89
100
AcDbEntity
  8
ALPHA
100
AcDbLine
 10
108.65619
 20
88.247529
 30
0.0
 11
109.25619
 21
88.005113
 31
0.0
  0
LINE
  5
8A
100
AcDbEntity
  8
ALPHA
100
AcDbLine
 10
128.579489
 20
114.713918
 30
0.0
 11
128.579489
 21
112.540413
 31
0.0
  0
LINE
  5
8B
100
AcDbEntity
  8
ALPHA
100
AcDbLine
 10
124.934974
 20
116.040413
 30
0.0
 11
124.05619
 21
116.040413
 31
0.0
  0
LINE
  5
8C
100
AcDbEntity
  8
ALPHA
100
AcDbLine
 10
124.05619
 20
116.040413
 30
0.0
 11
124.05619
 21
113.930712
 31
0.0
  0
ARC
  5
8D
100
AcDbEntity
  8
ALPHA
100
AcDbCircle
 10
123.75619
 20
113.930712
 30
0.0
 40
0.3
100
AcDbArc
 50
260.0
 51
0.0
  0
LINE
  5
8E
100
AcDbEntity
  8
ALPHA
100
AcDbLine
 10
115.932934
 20
115.005535
 30
0.0
 11
123.704096
 21
113.635269
 31
0.0
  0
LINE
  5
8F
100
AcDbEntity
  8
ALPHA
100
AcDbLine
 10
115.932934
 20
115.005535
 30
0.0
 11
107.85619
 21
112.340413
 31
0.0
  0
LINE
  5
90
100
AcDbEntity
  8
ALPHA
100
AcDbLine
 10
107.85619
 20
112.340413
 30
0.0
 11
105.45619
 21
112.340413
 31
0.0
  0
LINE
  5
91
100
AcDbEntity
  8
ALPHA
100
AcDbLine
 10
105.45619
 20
112.140413
 30
0.0
 11
105.45619
 21
112.340413
 31
0.0
  0
LINE
  5
92
100
AcDbEntity
  8
ALPHA
100
AcDbLine
 10
105.45619
 20
103.840413
 30
0.0
 11
105.45619
 21
112.140413
 31
0.0
  0
LINE
  5
93
100
AcDbEntity
  8
ALPHA
100
AcDbLine
 10
105.45619
 20
103.840413
 30
0.0
 11
105.95619
 21
103.840413
 31
0.0
  0
LINE
  5
94
100
AcDbEntity
  8
ALPHA
100
AcDbLine
 10
105.95619
 20
96.240413
 30
0.0
 11
105.95619
 21
103.840413
 31
0.0
  0
LINE
  5
95
100
AcDbEntity
  8
ALPHA
100
AcDbLine
 10
105.45619
 20
96.240413
 30
0.0
 11
105.95619
 21
96.240413
 31
0.0
  0
LINE
  5
96
100
AcDbEntity
  8
ALPHA
100
AcDbLine
 10
105.45619
 20
96.240413
 30
0.0
 11
105.45619
 21
95.840413
 31
0.0
  0
LINE
  5
97
100
AcDbEntity
  8
ALPHA
100
AcDbLine
 10
105.45619
 20
95.840413
 30
0.0
 11
108.871852
 21
93.171806
 31
0.0
  0
ARC
  5
98
100
AcDbEntity
  8
ALPHA
100
AcDbCircle
 10
108.25619
 20
92.383795
 30
0.0
 40
1.0
100
AcDbArc
 50
0.0
 51
52.0
  0
LINE
  5
99
100
AcDbEntity
  8
ALPHA
100
AcDbLine
 10
109.25619
 20
92.383795
 30
0.0
 11
109.25619
 21
88.005113
 31
0.0
  0
LINE
  5
9A
100
AcDbEntity
  8
ALPHA
100
AcDbLine
 10
109.25619
 20
88.005113
 30
0.0
 11
116.333109
 21
85.145853
 31
0.0
  0
LINE
  5
9B
100
AcDbEntity
  8
ALPHA
100
AcDbLine
 10
123.704096
 20
86.445557
 30
0.0
 11
116.333109
 21
85.145853
 31
0.0
  0
ARC
  5
9C
100
AcDbEntity
  8
ALPHA
100
AcDbCircle
 10
123.75619
 20
86.150114
 30
0.0
 40
0.3
100
AcDbArc
 50
0.0
 51
100.0
  0
LINE
  5
9D
100
AcDbEntity
  8
ALPHA
100
AcDbLine
 10
124.05619
 20
84.040413
 30
0.0
 11
124.05619
 21
86.150114
 31
0.0
  0
LINE
  5
9E
100
AcDbEntity
  8
ALPHA
100
AcDbLine
 10
124.05619
 20
84.040413
 30
0.0
 11
124.934974
 21
84.040413
 31
0.0
  0
LINE
  5
9F
100
AcDbEntity
  8
ALPHA
100
AcDbLine
 10
129.05619
 20
85.540413
 30
0.0
 11
124.934974
 21
84.040413
 31
0.0
  0
LINE
  5
A0
100
AcDbEntity
  8
ALPHA
100
AcDbLine
 10
129.05619
 20
85.540413
 30
0.0
 11
129.05619
 21
112.140413
 31
0.0
  0
LINE
  5
A1
100
AcDbEntity
  8
ALPHA
100
AcDbLine
 10
128.579489
 20
112.540413
 30
0.0
 11
128.05619
 21
112.540413
 31
0.0
  0
LINE
  5
A2
100
AcDbEntity
  8
ALPHA
100
AcDbLine
 10
127.76462
 20
111.040413
 30
0.0
 11
128.05619
 21
112.540413
 31
0.0
  0
LINE
  5
A3
100
AcDbEntity
  8
ALPHA
100
AcDbLine
 10
125.05619
 20
111.040413
 30
0.0
 11
127.76462
 21
111.040413
 31
0.0
  0
LINE
  5
A4
100
AcDbEntity
  8
ALPHA
100
AcDbLine
 10
125.05619
 20
115.996294
 30
0.0
 11
125.05619
 21
111.040413
 31
0.0
  0
LINE
  5
A5
100
AcDbEntity
  8
ALPHA
100
AcDbLine
 10
124.934974
 20
116.040413
 30
0.0
 11
125.05619
 21
115.996294
 31
0.0
  0
LINE
  5
A6
100
AcDbEntity
  8
ALPHA
100
AcDbLine
 10
119.069168
 20
84.040413
 30
0.0
 11
116.333109
 21
85.145853
 31
0.0
  0
LINE
  5
A7
100
AcDbEntity
  8
ALPHA
100
AcDbLine
 10
119.069168
 20
84.040413
 30
0.0
 11
124.05619
 21
84.040413
 31
0.0
  0
LINE
  5
A8
100
AcDbEntity
  8
ALPHA
100
AcDbLine
 10
124.05619
 20
116.040413
 30
0.0
 11
119.069168
 21
116.040413
 31
0.0
  0
LINE
  5
A9
100
AcDbEntity
  8
ALPHA
100
AcDbLine
 10
107.85619
 20
112.340413
 30
0.0
 11
107.85619
 21
115.540413
 31
0.0
  0
LINE
  5
AA
100
AcDbEntity
  8
ALPHA
100
AcDbLine
 10
108.35619
 20
116.040413
 30
0.0
 11
119.069168
 21
116.040413
 31
0.0
  0
LINE
  5
AB
100
AcDbEntity
  8
ALPHA
100
AcDbLine
 10
108.35619
 20
116.040413
 30
0.0
 11
107.85619
 21
115.540413
 31
0.0
  0
LINE
  5
AC
100
AcDbEntity
  8
ALPHA
100
AcDbLine
 10
128.579489
 20
114.713918
 30
0.0
 11
125.05619
 21
115.996294
 31
0.0
  0
LINE
  5
AD
100
AcDbEntity
  8
ALPHA
100
AcDbLine
 10
119.069168
 20
116.040413
 30
0.0
 11
115.932934
 21
115.005535
 31
0.0
  0
LINE
  5
AE
100
AcDbEntity
  8
ALPHA
100
AcDbLine
 10
129.05619
 20
112.140413
 30
0.0
 11
128.579489
 21
112.540413
 31
0.0
  0
LINE
  5
AF
100
AcDbEntity
  8
ALPHA
100
AcDbLine
 10
129.05619
 20
114.540413
 30
0.0
 11
129.05619
 21
112.140413
 31
0.0
  0
LINE
  5
B0
100
AcDbEntity
  8
ALPHA
100
AcDbLine
 10
129.05619
 20
114.540413
 30
0.0
 11
128.579489
 21
114.713918
 31
0.0
  0
LINE
  5
B1
100
AcDbEntity
  8
ALPHA
100
AcDbLine
 10
106.45619
 20
112.715835
 30
0.0
 11
106.45619
 21
112.840413
 31
0.0
  0
LINE
  5
B2
100
AcDbEntity
  8
ALPHA
100
AcDbLine
 10
112.793232
 20
116.040413
 30
0.0
 11
114.659257
 21
116.540413
 31
0.0
  0
LINE
  5
B3
100
AcDbEntity
  8
ALPHA
100
AcDbLine
 10
107.75619
 20
114.690742
 30
0.0
 11
107.85619
 21
114.717537
 31
0.0
  0
LINE
  5
B4
100
AcDbEntity
  8
ALPHA
100
AcDbLine
 10
114.659257
 20
116.540413
 30
0.0
 11
118.15619
 21
116.540413
 31
0.0
  0
LINE
  5
B5
100
AcDbEntity
  8
ALPHA
100
AcDbLine
 10
118.45619
 20
116.240413
 30
0.0
 11
118.45619
 21
116.040413
 31
0.0
  0
LINE
  5
B6
100
AcDbEntity
  8
ALPHA
100
AcDbLine
 10
106.95619
 20
112.822113
 30
0.0
 11
106.45619
 21
112.715835
 31
0.0
  0
LINE
  5
B7
100
AcDbEntity
  8
ALPHA
100
AcDbLine
 10
107.85619
 20
113.013414
 30
0.0
 11
107.75619
 21
112.992159
 31
0.0
  0
LINE
  5
B8
100
AcDbEntity
  8
ALPHA
100
AcDbLine
 10
106.45619
 20
112.715835
 30
0.0
 11
105.45619
 21
112.503278
 31
0.0
  0
ARC
  5
B9
100
AcDbEntity
  8
ALPHA
100
AcDbCircle
 10
118.15619
 20
116.240413
 30
0.0
 40
0.3
100
AcDbArc
 50
0.0
 51
90.0
  0
LINE
  5
BA
100
AcDbEntity
  8
ALPHA
100
AcDbLine
 10
102.068702
 20
82.540413
 30
0.0
 11
108.65619
 21
83.701965
 31
0.0
  0
LINE
  5
BB
100
AcDbEntity
  8
ALPHA
100
AcDbLine
 10
100.47619
 20
121.206438
 30
0.0
 11
102.77619
 21
121.206438
 31
0.0
  0
LINE
  5
BC
100
AcDbEntity
  8
ALPHA
100
AcDbLine
 10
98.85619
 20
117.587779
 30
0.0
 11
97.75619
 21
117.587779
 31
0.0
  0
LWPOLYLINE
  5
BD
100
AcDbEntity
  8
ALPHA
100
AcDbPolyline
 90
        6
 70
     0
 43
0.0
 10
102.068702
 20
82.540413
 10
102.095682
 20
82.232026
 10
102.120055
 20
81.953447
 10
102.13943
 20
81.731989
 10
102.151891
 20
81.589561
 10
102.15619
 20
81.540413
  0
LWPOLYLINE
  5
C5
100
AcDbEntity
  8
ALPHA
100
AcDbPolyline
 90
        7
 70
     0
 43
0.0
 10
97.661369
 20
120.476197
 10
97.931949
 20
120.48752
 10
98.185209
 20
120.479615
 10
98.406297
 20
120.452521
 10
98.579615
 20
120.407461
 10
98.691944
 20
120.347236
 10
98.73501
 20
120.275515
  0
LINE
  5
CE
100
AcDbEntity
  8
ALPHA
100
AcDbLine
 10
100.47619
 20
82.540413
 30
0.0
 11
102.068702
 21
82.540413
 31
0.0
  0
LINE
  5
CF
100
AcDbEntity
  8
ALPHA
100
AcDbLine
 10
97.58576
 20
121.340413
 30
0.0
 11
97.661369
 21
120.476197
 31
0.0
  0
LWPOLYLINE
  5
D0
100
AcDbEntity
  8
ALPHA
100
AcDbPolyline
 90
        7
 70
     0
 43
0.0
 10
97.75619
 20
118.842386
 10
98.04053
 20
118.8548
 10
98.30537
 20
118.866364
 10
98.533725
 20
118.876334
 10
98.708824
 20
118.883979
 10
98.81863
 20
118.888773
 10
98.85619
 20
118.890413
  0
LWPOLYLINE
  5
D9
100
AcDbEntity
  8
ALPHA
100
AcDbPolyline
 90
        4
 70
     0
 43
0.0
 10
97.661369
 20
120.476197
 10
97.645446
 20
120.475193
 10
97.629462
 20
120.474589
 10
97.613409
 20
120.474387
  0
LINE
  5
DF
100
AcDbEntity
  8
ALPHA
100
AcDbLine
 10
97.75619
 20
118.842386
 30
0.0
 11
97.613409
 21
120.474387
 31
0.0
  0
LINE
  5
E0
100
AcDbEntity
  8
ALPHA
100
AcDbLine
 10
97.75619
 20
117.587779
 30
0.0
 11
97.75619
 21
118.842386
 31
0.0
  0
LINE
  5
E1
100
AcDbEntity
  8
ALPHA
100
AcDbLine
 10
98.841444
 20
115.922225
 30
0.0
 11
98.87619
 21
115.904503
 31
0.0
  0
LWPOLYLINE
  5
E2
100
AcDbEntity
  8
ALPHA
100
AcDbPolyline
 90
        7
 70
     0
 43
0.0
 10
97.75619
 20
117.587779
 10
97.798789
 20
117.197819
 10
97.925231
 20
116.824456
 10
98.130001
 20
116.485983
 10
98.38633
 20
116.212933
 10
98.654887
 20
116.017373
 10
98.841444
 20
115.922225
  0
LINE
  5
EB
100
AcDbEntity
  8
ALPHA
100
AcDbLine
 10
98.859175
 20
117.567745
 30
0.0
 11
98.87619
 21
117.453513
 31
0.0
  0
LINE
  5
EC
100
AcDbEntity
  8
ALPHA
100
AcDbLine
 10
98.85619
 20
117.587779
 30
0.0
 11
98.859175
 21
117.567745
 31
0.0
  0
LINE
  5
ED
100
AcDbEntity
  8
ALPHA
100
AcDbLine
 10
98.85619
 20
86.740413
 30
0.0
 11
96.85619
 21
86.740413
 31
0.0
  0
LINE
  5
EE
100
AcDbEntity
  8
ALPHA
100
AcDbLine
 10
98.85619
 20
85.041828
 30
0.0
 11
96.85619
 21
85.041828
 31
0.0
  0
LINE
  5
EF
100
AcDbEntity
  8
ALPHA
100
AcDbLine
 10
98.85619
 20
85.86098
 30
0.0
 11
96.85619
 21
85.86098
 31
0.0
  0
LINE
  5
F0
100
AcDbEntity
  8
ALPHA
100
AcDbLine
 10
103.42978
 20
118.963063
 30
0.0
 11
100.47619
 21
118.963063
 31
0.0
  0
LINE
  5
F1
100
AcDbEntity
  8
ALPHA
100
AcDbLine
 10
105.679489
 20
115.917114
 30
0.0
 11
105.679489
 21
118.137863
 31
0.0
  0
LINE
  5
F2
100
AcDbEntity
  8
ALPHA
100
AcDbLine
 10
105.80619
 20
115.790413
 30
0.0
 11
105.679489
 21
115.917114
 31
0.0
  0
LINE
  5
F3
100
AcDbEntity
  8
ALPHA
100
AcDbLine
 10
105.45619
 20
115.917114
 30
0.0
 11
105.679489
 21
115.917114
 31
0.0
  0
LINE
  5
F4
100
AcDbEntity
  8
ALPHA
100
AcDbLine
 10
97.613409
 20
120.474387
 30
0.0
 11
96.85619
 21
120.474387
 31
0.0
  0
LINE
  5
F5
100
AcDbEntity
  8
ALPHA
100
AcDbLine
 10
102.77619
 20
119.829088
 30
0.0
 11
100.47619
 21
119.829088
 31
0.0
  0
LINE
  5
F6
100
AcDbEntity
  8
ALPHA
100
AcDbLine
 10
104.979489
 20
115.640413
 30
0.0
 11
104.979489
 21
118.068338
 31
0.0
  0
LINE
  5
F7
100
AcDbEntity
  8
ALPHA
100
AcDbLine
 10
104.979489
 20
112.540413
 30
0.0
 11
104.979489
 21
113.190413
 31
0.0
  0
LINE
  5
F8
100
AcDbEntity
  8
ALPHA
100
AcDbLine
 10
100.47619
 20
121.714606
 30
0.0
 11
102.77619
 21
121.714606
 31
0.0
  0
LINE
  5
F9
100
AcDbEntity
  8
ALPHA
100
AcDbLine
 10
100.47619
 20
115.690413
 30
0.0
 11
100.37619
 21
115.690413
 31
0.0
  0
LINE
  5
FA
100
AcDbEntity
  8
ALPHA
100
AcDbLine
 10
98.87619
 20
86.177046
 30
0.0
 11
98.85619
 21
86.067689
 31
0.0
  0
LINE
  5
FB
100
AcDbEntity
  8
ALPHA
100
AcDbLine
 10
100.47619
 20
86.673907
 30
0.0
 11
100.37619
 21
86.673907
 31
0.0
  0
LINE
  5
FC
100
AcDbEntity
  8
ALPHA
100
AcDbLine
 10
100.37619
 20
87.323426
 30
0.0
 11
100.47619
 21
87.323426
 31
0.0
  0
LINE
  5
FD
100
AcDbEntity
  8
ALPHA
100
AcDbLine
 10
98.85619
 20
87.323426
 30
0.0
 11
98.87619
 21
87.323426
 31
0.0
  0
ARC
  5
FE
100
AcDbEntity
  8
ALPHA
100
AcDbCircle
 10
103.07619
 20
119.540869
 30
0.0
 40
0.3
100
AcDbArc
 50
196.888772
 51
213.750303
  0
ARC
  5
FF
100
AcDbEntity
  8
ALPHA
100
AcDbCircle
 10
103.07619
 20
119.540869
 30
0.0
 40
0.3
100
AcDbArc
 50
213.750303
 51
242.602839
  0
ARC
  5
100
100
AcDbEntity
  8
ALPHA
100
AcDbCircle
 10
103.07619
 20
119.540869
 30
0.0
 40
0.3
100
AcDbArc
 50
242.602839
 51
247.500605
  0
LINE
  5
101
100
AcDbEntity
  8
ALPHA
100
AcDbLine
 10
98.641843
 20
121.340413
 30
0.0
 11
98.73501
 21
120.275515
 31
0.0
  0
LINE
  5
102
100
AcDbEntity
  8
ALPHA
100
AcDbLine
 10
97.58576
 20
121.340413
 30
0.0
 11
98.641843
 21
121.340413
 31
0.0
  0
LINE
  5
103
100
AcDbEntity
  8
ALPHA
100
AcDbLine
 10
98.85619
 20
118.890413
 30
0.0
 11
98.73501
 21
120.275515
 31
0.0
  0
LINE
  5
104
100
AcDbEntity
  8
ALPHA
100
AcDbLine
 10
98.85619
 20
117.990413
 30
0.0
 11
98.85619
 21
118.890413
 31
0.0
  0
LINE
  5
105
100
AcDbEntity
  8
ALPHA
100
AcDbLine
 10
98.85619
 20
117.587779
 30
0.0
 11
98.85619
 21
117.990413
 31
0.0
  0
LINE
  5
106
100
AcDbEntity
  8
ALPHA
100
AcDbLine
 10
96.85619
 20
121.340413
 30
0.0
 11
96.85619
 21
120.474387
 31
0.0
  0
LINE
  5
107
100
AcDbEntity
  8
ALPHA
100
AcDbLine
 10
97.58576
 20
121.340413
 30
0.0
 11
96.85619
 21
121.340413
 31
0.0
  0
LINE
  5
108
100
AcDbEntity
  8
ALPHA
100
AcDbLine
 10
98.85619
 20
107.740413
 30
0.0
 11
98.87619
 21
107.720413
 31
0.0
  0
LINE
  5
109
100
AcDbEntity
  8
ALPHA
100
AcDbLine
 10
98.872567
 20
87.040413
 30
0.0
 11
98.85619
 21
87.040413
 31
0.0
  0
LINE
  5
10A
100
AcDbEntity
  8
ALPHA
100
AcDbLine
 10
98.85619
 20
87.323426
 30
0.0
 11
98.85619
 21
92.540413
 31
0.0
  0
LINE
  5
10B
100
AcDbEntity
  8
ALPHA
100
AcDbLine
 10
98.85619
 20
87.22696
 30
0.0
 11
98.85619
 21
87.040413
 31
0.0
  0
LINE
  5
10C
100
AcDbEntity
  8
ALPHA
100
AcDbLine
 10
98.85619
 20
87.323426
 30
0.0
 11
98.85619
 21
87.22696
 31
0.0
  0
LINE
  5
10D
100
AcDbEntity
  8
ALPHA
100
AcDbLine
 10
98.85619
 20
82.841062
 30
0.0
 11
98.85619
 21
85.041828
 31
0.0
  0
LINE
  5
10E
100
AcDbEntity
  8
ALPHA
100
AcDbLine
 10
98.85619
 20
82.240413
 30
0.0
 11
98.85619
 21
82.841062
 31
0.0
  0
LINE
  5
10F
100
AcDbEntity
  8
ALPHA
100
AcDbLine
 10
98.85619
 20
85.86098
 30
0.0
 11
98.85619
 21
86.740413
 31
0.0
  0
LINE
  5
110
100
AcDbEntity
  8
ALPHA
100
AcDbLine
 10
98.85619
 20
92.540413
 30
0.0
 11
98.87619
 21
92.560413
 31
0.0
  0
LINE
  5
111
100
AcDbEntity
  8
ALPHA
100
AcDbLine
 10
106.15619
 20
117.940413
 30
0.0
 11
105.679489
 21
118.137863
 31
0.0
  0
LINE
  5
112
100
AcDbEntity
  8
ALPHA
100
AcDbLine
 10
106.15619
 20
116.140413
 30
0.0
 11
106.15619
 21
117.940413
 31
0.0
  0
LINE
  5
113
100
AcDbEntity
  8
ALPHA
100
AcDbLine
 10
105.35771
 20
112.223048
 30
0.0
 11
104.979489
 21
112.540413
 31
0.0
  0
LINE
  5
114
100
AcDbEntity
  8
ALPHA
100
AcDbLine
 10
105.45619
 20
112.140413
 30
0.0
 11
105.35771
 21
112.223048
 31
0.0
  0
LINE
  5
115
100
AcDbEntity
  8
ALPHA
100
AcDbLine
 10
105.45619
 20
115.640413
 30
0.0
 11
105.45619
 21
117.793114
 31
0.0
  0
LINE
  5
116
100
AcDbEntity
  8
ALPHA
100
AcDbLine
 10
105.45619
 20
112.340413
 30
0.0
 11
105.45619
 21
112.840413
 31
0.0
  0
LINE
  5
117
100
AcDbEntity
  8
ALPHA
100
AcDbLine
 10
104.979489
 20
118.068338
 30
0.0
 11
105.45619
 21
117.793114
 31
0.0
  0
LINE
  5
118
100
AcDbEntity
  8
ALPHA
100
AcDbLine
 10
104.979489
 20
118.068338
 30
0.0
 11
103.42978
 21
118.963063
 31
0.0
  0
LINE
  5
119
100
AcDbEntity
  8
ALPHA
100
AcDbLine
 10
103.46748
 20
119.05408
 30
0.0
 11
105.679489
 21
118.137863
 31
0.0
  0
LINE
  5
11A
100
AcDbEntity
  8
ALPHA
100
AcDbLine
 10
102.961388
 20
119.263704
 30
0.0
 11
103.46748
 21
119.05408
 31
0.0
  0
LINE
  5
11B
100
AcDbEntity
  8
ALPHA
100
AcDbLine
 10
104.103537
 20
110.540413
 30
0.0
 11
100.47619
 21
110.540413
 31
0.0
  0
LINE
  5
11C
100
AcDbEntity
  8
ALPHA
100
AcDbLine
 10
102.77619
 20
121.206438
 30
0.0
 11
102.77619
 21
119.829088
 31
0.0
  0
ARC
  5
11D
100
AcDbEntity
  8
ALPHA
100
AcDbCircle
 10
99.55619
 20
117.590413
 30
0.0
 40
0.7
100
AcDbArc
 50
180.0
 51
192.597822
  0
ARC
  5
11E
100
AcDbEntity
  8
ALPHA
100
AcDbCircle
 10
99.55619
 20
117.590413
 30
0.0
 40
0.7
100
AcDbArc
 50
192.597822
 51
195.005433
  0
ARC
  5
11F
100
AcDbEntity
  8
ALPHA
100
AcDbCircle
 10
99.55619
 20
117.590413
 30
0.0
 40
0.7
100
AcDbArc
 50
180.0
 51
192.577603
  0
LINE
  5
120
100
AcDbEntity
  8
ALPHA
100
AcDbLine
 10
96.85619
 20
113.840413
 30
0.0
 11
97.15619
 21
113.540413
 31
0.0
  0
LINE
  5
121
100
AcDbEntity
  8
ALPHA
100
AcDbLine
 10
96.85619
 20
113.840413
 30
0.0
 11
96.85619
 21
120.474387
 31
0.0
  0
LINE
  5
122
100
AcDbEntity
  8
ALPHA
100
AcDbLine
 10
98.85619
 20
87.040413
 30
0.0
 11
96.85619
 21
87.040413
 31
0.0
  0
LINE
  5
123
100
AcDbEntity
  8
ALPHA
100
AcDbLine
 10
96.85619
 20
85.86098
 30
0.0
 11
96.85619
 21
85.041828
 31
0.0
  0
LINE
  5
124
100
AcDbEntity
  8
ALPHA
100
AcDbLine
 10
98.85619
 20
85.86098
 30
0.0
 11
98.85619
 21
85.041828
 31
0.0
  0
LINE
  5
125
100
AcDbEntity
  8
ALPHA
100
AcDbLine
 10
98.85619
 20
82.240413
 30
0.0
 11
96.85619
 21
82.240413
 31
0.0
  0
LINE
  5
126
100
AcDbEntity
  8
ALPHA
100
AcDbLine
 10
96.85619
 20
82.240413
 30
0.0
 11
96.85619
 21
85.041828
 31
0.0
  0
LINE
  5
127
100
AcDbEntity
  8
ALPHA
100
AcDbLine
 10
96.85619
 20
85.86098
 30
0.0
 11
96.85619
 21
86.740413
 31
0.0
  0
LINE
  5
128
100
AcDbEntity
  8
ALPHA
100
AcDbLine
 10
100.47619
 20
93.040413
 30
0.0
 11
100.37619
 21
93.040413
 31
0.0
  0
LINE
  5
129
100
AcDbEntity
  8
ALPHA
100
AcDbLine
 10
100.37619
 20
83.119436
 30
0.0
 11
100.47619
 21
83.119436
 31
0.0
  0
LINE
  5
12A
100
AcDbEntity
  8
ALPHA
100
AcDbLine
 10
105.80619
 20
115.790413
 30
0.0
 11
105.65619
 21
115.640413
 31
0.0
  0
LINE
  5
12B
100
AcDbEntity
  8
ALPHA
100
AcDbLine
 10
106.15619
 20
116.140413
 30
0.0
 11
105.80619
 21
115.790413
 31
0.0
  0
LINE
  5
12C
100
AcDbEntity
  8
ALPHA
100
AcDbLine
 10
102.77619
 20
121.712215
 30
0.0
 11
102.77619
 21
121.340413
 31
0.0
  0
LINE
  5
12D
100
AcDbEntity
  8
ALPHA
100
AcDbLine
 10
100.47619
 20
116.890413
 30
0.0
 11
100.37619
 21
116.890413
 31
0.0
  0
LINE
  5
12E
100
AcDbEntity
  8
ALPHA
100
AcDbLine
 10
98.85619
 20
113.540413
 30
0.0
 11
97.15619
 21
113.540413
 31
0.0
  0
LINE
  5
12F
100
AcDbEntity
  8
ALPHA
100
AcDbLine
 10
100.47619
 20
107.040413
 30
0.0
 11
100.37619
 21
107.040413
 31
0.0
  0
LINE
  5
130
100
AcDbEntity
  8
ALPHA
100
AcDbLine
 10
98.85619
 20
107.740413
 30
0.0
 11
98.85619
 21
113.540413
 31
0.0
  0
LINE
  5
131
100
AcDbEntity
  8
ALPHA
100
AcDbLine
 10
108.65619
 20
83.701965
 30
0.0
 11
108.65619
 21
82.686538
 31
0.0
  0
LINE
  5
132
100
AcDbEntity
  8
ALPHA
100
AcDbLine
 10
102.15619
 20
81.540413
 30
0.0
 11
108.65619
 21
82.686538
 31
0.0
  0
LINE
  5
133
100
AcDbEntity
  8
ALPHA
100
AcDbLine
 10
100.47619
 20
81.540413
 30
0.0
 11
102.15619
 21
81.540413
 31
0.0
  0
LINE
  5
134
100
AcDbEntity
  8
ALPHA
100
AcDbLine
 10
100.47619
 20
81.540413
 30
0.0
 11
100.47619
 21
82.540413
 31
0.0
  0
LINE
  5
135
100
AcDbEntity
  8
ALPHA
100
AcDbLine
 10
108.65619
 20
83.701965
 30
0.0
 11
108.65619
 21
92.684967
 31
0.0
  0
LINE
  5
136
100
AcDbEntity
  8
ALPHA
100
AcDbLine
 10
108.65619
 20
92.684967
 30
0.0
 11
105.45619
 21
95.140413
 31
0.0
  0
LINE
  5
137
100
AcDbEntity
  8
ALPHA
100
AcDbLine
 10
104.577876
 20
112.540413
 30
0.0
 11
104.979489
 21
112.540413
 31
0.0
  0
LINE
  5
138
100
AcDbEntity
  8
ALPHA
100
AcDbLine
 10
104.45619
 20
112.540413
 30
0.0
 11
104.577876
 21
112.540413
 31
0.0
  0
LINE
  5
139
100
AcDbEntity
  8
ALPHA
100
AcDbLine
 10
104.256237
 20
111.406418
 30
0.0
 11
104.45619
 21
112.540413
 31
0.0
  0
LINE
  5
13A
100
AcDbEntity
  8
ALPHA
100
AcDbLine
 10
104.218467
 20
111.192215
 30
0.0
 11
104.256237
 21
111.406418
 31
0.0
  0
LINE
  5
13B
100
AcDbEntity
  8
ALPHA
100
AcDbLine
 10
104.213863
 20
111.166106
 30
0.0
 11
104.218467
 21
111.192215
 31
0.0
  0
LINE
  5
13C
100
AcDbEntity
  8
ALPHA
100
AcDbLine
 10
104.103537
 20
110.540413
 30
0.0
 11
104.213863
 21
111.166106
 31
0.0
  0
LINE
  5
13D
100
AcDbEntity
  8
ALPHA
100
AcDbLine
 10
100.47619
 20
121.206438
 30
0.0
 11
100.47619
 21
119.829088
 31
0.0
  0
LINE
  5
13E
100
AcDbEntity
  8
ALPHA
100
AcDbLine
 10
100.47619
 20
121.712215
 30
0.0
 11
100.47619
 21
122.790279
 31
0.0
  0
LINE
  5
13F
100
AcDbEntity
  8
ALPHA
100
AcDbLine
 10
100.47619
 20
118.963063
 30
0.0
 11
100.47619
 21
119.829088
 31
0.0
  0
LINE
  5
140
100
AcDbEntity
  8
ALPHA
100
AcDbLine
 10
102.77619
 20
119.829088
 30
0.0
 11
102.77619
 21
119.513618
 31
0.0
  0
ARC
  5
141
100
AcDbEntity
  8
ALPHA
100
AcDbCircle
 10
103.07619
 20
119.513618
 30
0.0
 40
0.3
100
AcDbArc
 50
180.0
 51
240.0
  0
LINE
  5
142
100
AcDbEntity
  8
ALPHA
100
AcDbLine
 10
100.47619
 20
82.540413
 30
0.0
 11
100.47619
 21
110.540413
 31
0.0
  0
LINE
  5
143
100
AcDbEntity
  8
ALPHA
100
AcDbLine
 10
102.92619
 20
119.25381
 30
0.0
 11
103.42978
 21
118.963063
 31
0.0
  0
LINE
  5
144
100
AcDbEntity
  8
ALPHA
100
AcDbLine
 10
100.47619
 20
110.540413
 30
0.0
 11
100.47619
 21
118.963063
 31
0.0
  0
LINE
  5
145
100
AcDbEntity
  8
ALPHA
100
AcDbLine
 10
100.47619
 20
121.340413
 30
0.0
 11
102.77619
 21
121.340413
 31
0.0
  0
LINE
  5
146
100
AcDbEntity
  8
ALPHA
100
AcDbLine
 10
100.47619
 20
121.206438
 30
0.0
 11
100.47619
 21
121.340413
 31
0.0
  0
LINE
  5
147
100
AcDbEntity
  8
ALPHA
100
AcDbLine
 10
102.77619
 20
122.790413
 30
0.0
 11
100.47619
 21
122.790413
 31
0.0
  0
LINE
  5
148
100
AcDbEntity
  8
ALPHA
100
AcDbLine
 10
102.77619
 20
122.790279
 30
0.0
 11
102.77619
 21
121.712215
 31
0.0
  0
LINE
  5
149
100
AcDbEntity
  8
ALPHA
100
AcDbLine
 10
96.85619
 20
87.040413
 30
0.0
 11
98.85619
 21
87.040413
 31
0.0
  0
LINE
  5
14A
100
AcDbEntity
  8
ALPHA
100
AcDbLine
 10
96.85619
 20
87.040413
 30
0.0
 11
96.85619
 21
86.740413
 31
0.0
  0
LINE
  5
14B
100
AcDbEntity
  8
ALPHA
100
AcDbLine
 10
98.85619
 20
87.040413
 30
0.0
 11
98.85619
 21
86.740413
 31
0.0
  0
LINE
  5
14C
100
AcDbEntity
  8
ALPHA
100
AcDbLine
 10
98.85619
 20
117.990413
 30
0.0
 11
98.85619
 21
117.587779
 31
0.0
  0
LINE
  5
14D
100
AcDbEntity
  8
ALPHA
100
AcDbLine
 10
98.85619
 20
118.890413
 30
0.0
 11
98.85619
 21
117.990413
 31
0.0
  0
LINE
  5
14E
100
AcDbEntity
  8
ALPHA
100
AcDbLine
 10
105.45619
 20
103.840413
 30
0.0
 11
105.45619
 21
112.140413
 31
0.0
  0
LINE
  5
14F
100
AcDbEntity
  8
ALPHA
100
AcDbLine
 10
105.45619
 20
96.240413
 30
0.0
 11
105.45619
 21
103.840413
 31
0.0
  0
LINE
  5
150
100
AcDbEntity
  8
ALPHA
100
AcDbLine
 10
105.45619
 20
95.840413
 30
0.0
 11
105.45619
 21
96.240413
 31
0.0
  0
LINE
  5
151
100
AcDbEntity
  8
ALPHA
100
AcDbLine
 10
105.45619
 20
95.140413
 30
0.0
 11
105.45619
 21
95.840413
 31
0.0
  0
LINE
  5
152
100
AcDbEntity
  8
ALPHA
100
AcDbLine
 10
98.85853
 20
82.845976
 30
0.0
 11
98.87619
 21
82.909439
 31
0.0
  0
LINE
  5
153
100
AcDbEntity
  8
ALPHA
100
AcDbLine
 10
98.85619
 20
82.837569
 30
0.0
 11
98.85853
 21
82.845976
 31
0.0
  0
LINE
  5
154
100
AcDbEntity
  8
ALPHA
100
AcDbLine
 10
100.47619
 20
121.340413
 30
0.0
 11
100.47619
 21
121.712215
 31
0.0
  0
LINE
  5
155
100
AcDbEntity
  8
ALPHA
100
AcDbLine
 10
100.47619
 20
121.340413
 30
0.0
 11
102.77619
 21
121.340413
 31
0.0
  0
LINE
  5
156
100
AcDbEntity
  8
ALPHA
100
AcDbLine
 10
102.77619
 20
121.340413
 30
0.0
 11
102.77619
 21
121.206438
 31
0.0
  0
LINE
  5
157
100
AcDbEntity
  8
ALPHA
100
AcDbLine
 10
105.95619
 20
102.040413
 30
0.0
 11
105.45619
 21
102.040413
 31
0.0
  0
LINE
  5
158
100
AcDbEntity
  8
ALPHA
100
AcDbLine
 10
105.45619
 20
98.040413
 30
0.0
 11
105.95619
 21
98.040413
 31
0.0
  0
LINE
  5
159
100
AcDbEntity
  8
ALPHA
100
AcDbLine
 10
106.65619
 20
112.840413
 30
0.0
 11
106.65619
 21
115.640413
 31
0.0
  0
LINE
  5
15A
100
AcDbEntity
  8
ALPHA
100
AcDbLine
 10
104.577876
 20
112.540413
 30
0.0
 11
104.68063
 21
113.069034
 31
0.0
  0
LINE
  5
15B
100
AcDbEntity
  8
ALPHA
100
AcDbLine
 10
101.85619
 20
114.640413
 30
0.0
 11
103.588241
 21
115.640413
 31
0.0
  0
LINE
  5
15C
100
AcDbEntity
  8
ALPHA
100
AcDbLine
 10
101.85619
 20
114.640413
 30
0.0
 11
101.85619
 21
113.340413
 31
0.0
  0
LINE
  5
15D
100
AcDbEntity
  8
ALPHA
100
AcDbLine
 10
101.85619
 20
113.340413
 30
0.0
 11
103.965314
 21
111.136698
 31
0.0
  0
ARC
  5
15E
100
AcDbEntity
  8
ALPHA
100
AcDbCircle
 10
104.07368
 20
111.240413
 30
0.0
 40
0.15
100
AcDbArc
 50
223.743561
 51
331.0
  0
ARC
  5
15F
100
AcDbEntity
  8
ALPHA
100
AcDbCircle
 10
104.827874
 20
113.040413
 30
0.0
 40
0.15
100
AcDbArc
 50
90.0
 51
169.0
  0
LINE
  5
160
100
AcDbEntity
  8
ALPHA
100
AcDbLine
 10
105.027874
 20
113.190413
 30
0.0
 11
104.827874
 21
113.190413
 31
0.0
  0
ARC
  5
161
100
AcDbEntity
  8
ALPHA
100
AcDbCircle
 10
105.027874
 20
113.040413
 30
0.0
 40
0.15
100
AcDbArc
 50
0.0
 51
90.0
  0
LINE
  5
162
100
AcDbEntity
  8
ALPHA
100
AcDbLine
 10
105.177874
 20
112.990413
 30
0.0
 11
105.177874
 21
113.040413
 31
0.0
  0
ARC
  5
163
100
AcDbEntity
  8
ALPHA
100
AcDbCircle
 10
105.327874
 20
112.990413
 30
0.0
 40
0.15
100
AcDbArc
 50
180.0
 51
270.0
  0
LINE
  5
164
100
AcDbEntity
  8
ALPHA
100
AcDbLine
 10
107.75619
 20
115.640413
 30
0.0
 11
107.75619
 21
112.840413
 31
0.0
  0
LINE
  5
165
100
AcDbEntity
  8
ALPHA
100
AcDbLine
 10
107.75619
 20
112.840413
 30
0.0
 11
107.75619
 21
112.340413
 31
0.0
  0
LINE
  5
166
100
AcDbEntity
  8
ALPHA
100
AcDbLine
 10
106.65619
 20
115.640413
 30
0.0
 11
103.588241
 21
115.640413
 31
0.0
  0
LINE
  5
167
100
AcDbEntity
  8
ALPHA
100
AcDbLine
 10
106.65619
 20
112.840413
 30
0.0
 11
105.327874
 21
112.840413
 31
0.0
  0
LINE
  5
168
100
AcDbEntity
  8
ALPHA
100
AcDbLine
 10
107.75619
 20
115.640413
 30
0.0
 11
107.75619
 21
112.840413
 31
0.0
  0
LINE
  5
169
100
AcDbEntity
  8
ALPHA
100
AcDbLine
 10
106.95619
 20
115.640413
 30
0.0
 11
106.65619
 21
115.640413
 31
0.0
  0
LINE
  5
16A
100
AcDbEntity
  8
ALPHA
100
AcDbLine
 10
107.75619
 20
115.640413
 30
0.0
 11
106.95619
 21
115.640413
 31
0.0
  0
LINE
  5
16B
100
AcDbEntity
  8
ALPHA
100
AcDbLine
 10
106.95619
 20
112.840413
 30
0.0
 11
106.65619
 21
112.840413
 31
0.0
  0
LINE
  5
16C
100
AcDbEntity
  8
ALPHA
100
AcDbLine
 10
107.75619
 20
112.840413
 30
0.0
 11
106.95619
 21
112.840413
 31
0.0
  0
LINE
  5
16D
100
AcDbEntity
  8
ALPHA
100
AcDbLine
 10
106.95619
 20
112.840413
 30
0.0
 11
106.95619
 21
112.340413
 31
0.0
  0
LWPOLYLINE
  5
16E
100
AcDbEntity
  8
ALPHA
100
AcDbPolyline
 90
        6
 70
     0
 43
0.0
 10
98.89333
 20
118.129522
 10
98.912898
 20
118.250327
 10
99.019428
 20
118.454763
 10
99.185352
 20
118.617003
 10
99.394428
 20
118.721168
 10
99.62619
 20
118.757061
  0
LINE
  5
176
100
AcDbEntity
  8
ALPHA
100
AcDbLine
 10
98.880455
 20
118.050035
 30
0.0
 11
98.89333
 21
118.129522
 31
0.0
  0
LINE
  5
177
100
AcDbEntity
  8
ALPHA
100
AcDbLine
 10
98.87619
 20
118.023709
 30
0.0
 11
98.880455
 21
118.050035
 31
0.0
  0
LWPOLYLINE
  5
178
100
AcDbEntity
  8
ALPHA
100
AcDbPolyline
 90
        6
 70
     0
 43
0.0
 10
98.907298
 20
118.882135
 10
98.912898
 20
118.916709
 10
99.019428
 20
119.121144
 10
99.185352
 20
119.283384
 10
99.394428
 20
119.387549
 10
99.62619
 20
119.423442
  0
LINE
  5
180
100
AcDbEntity
  8
ALPHA
100
AcDbLine
 10
98.88086
 20
118.718919
 30
0.0
 11
98.907298
 21
118.882135
 31
0.0
  0
LINE
  5
181
100
AcDbEntity
  8
ALPHA
100
AcDbLine
 10
98.87619
 20
118.69009
 30
0.0
 11
98.88086
 21
118.718919
 31
0.0
  0
LWPOLYLINE
  5
182
100
AcDbEntity
  8
ALPHA
100
AcDbPolyline
 90
        6
 70
     0
 43
0.0
 10
99.62619
 20
115.990329
 10
99.857953
 20
115.99033
 10
100.067029
 20
115.990334
 10
100.232953
 20
115.990339
 10
100.339483
 20
115.990345
 10
100.37619
 20
115.990352
  0
LWPOLYLINE
  5
18A
100
AcDbEntity
  8
ALPHA
100
AcDbPolyline
 90
        6
 70
     0
 43
0.0
 10
98.87619
 20
115.990352
 10
98.912898
 20
115.990345
 10
99.019428
 20
115.990339
 10
99.185352
 20
115.990334
 10
99.394428
 20
115.99033
 10
99.62619
 20
115.990329
  0
LWPOLYLINE
  5
192
100
AcDbEntity
  8
ALPHA
100
AcDbPolyline
 90
        6
 70
     0
 43
0.0
 10
99.62619
 20
119.423442
 10
99.857953
 20
119.387549
 10
100.067029
 20
119.283384
 10
100.232953
 20
119.121144
 10
100.339483
 20
118.916709
 10
100.37619
 20
118.69009
  0
LWPOLYLINE
  5
19A
100
AcDbEntity
  8
ALPHA
100
AcDbPolyline
 90
        6
 70
     0
 43
0.0
 10
98.87619
 20
87.323403
 10
98.912898
 20
87.323396
 10
99.019428
 20
87.323389
 10
99.185352
 20
87.323384
 10
99.394428
 20
87.323381
 10
99.62619
 20
87.32338
  0
LINE
  5
1A2
100
AcDbEntity
  8
ALPHA
100
AcDbLine
 10
100.371926
 20
118.050035
 30
0.0
 11
100.37619
 21
118.023709
 31
0.0
  0
LINE
  5
1A3
100
AcDbEntity
  8
ALPHA
100
AcDbLine
 10
100.359051
 20
118.129522
 30
0.0
 11
100.371926
 21
118.050035
 31
0.0
  0
LWPOLYLINE
  5
1A4
100
AcDbEntity
  8
ALPHA
100
AcDbPolyline
 90
        6
 70
     0
 43
0.0
 10
99.62619
 20
118.757061
 10
99.857953
 20
118.721168
 10
100.067029
 20
118.617003
 10
100.232953
 20
118.454763
 10
100.339483
 20
118.250327
 10
100.359051
 20
118.129522
  0
LWPOLYLINE
  5
1AC
100
AcDbEntity
  8
ALPHA
100
AcDbPolyline
 90
        6
 70
     0
 43
0.0
 10
98.904461
 20
85.869808
 10
98.912898
 20
85.823672
 10
99.019428
 20
85.642603
 10
99.185352
 20
85.498906
 10
99.394428
 20
85.406647
 10
99.62619
 20
85.374857
  0
LINE
  5
1B4
100
AcDbEntity
  8
ALPHA
100
AcDbLine
 10
98.87619
 20
86.024387
 30
0.0
 11
98.904461
 21
85.869808
 31
0.0
  0
LWPOLYLINE
  5
1B5
100
AcDbEntity
  8
ALPHA
100
AcDbPolyline
 90
        6
 70
     0
 43
0.0
 10
99.62619
 20
87.32338
 10
99.857953
 20
87.323381
 10
100.067029
 20
87.323384
 10
100.232953
 20
87.323389
 10
100.339483
 20
87.323396
 10
100.37619
 20
87.323403
  0
LWPOLYLINE
  5
1BD
100
AcDbEntity
  8
ALPHA
100
AcDbPolyline
 90
        6
 70
     0
 43
0.0
 10
99.62619
 20
85.374857
 10
99.857953
 20
85.406647
 10
100.067029
 20
85.498906
 10
100.232953
 20
85.642603
 10
100.339483
 20
85.823672
 10
100.37619
 20
86.024387
  0
LINE
  5
1C5
100
AcDbEntity
  8
ALPHA
100
AcDbLine
 10
100.37619
 20
117.990413
 30
0.0
 11
100.37619
 21
118.023709
 31
0.0
  0
LINE
  5
1C6
100
AcDbEntity
  8
ALPHA
100
AcDbLine
 10
98.87619
 20
117.990413
 30
0.0
 11
98.87619
 21
118.023709
 31
0.0
  0
ARC
  5
1C7
100
AcDbEntity
  8
AXE
100
AcDbCircle
 10
99.62619
 20
117.990413
 30
0.0
 40
0.75
100
AcDbArc
 50
72.764491
 51
90.0
  0
ARC
  5
1C8
100
AcDbEntity
  8
AXE
100
AcDbCircle
 10
99.62619
 20
117.990413
 30
0.0
 40
0.75
100
AcDbArc
 50
67.098929
 51
72.764491
  0
ARC
  5
1C9
100
AcDbEntity
  8
ALPHA
100
AcDbCircle
 10
99.62619
 20
117.990413
 30
0.0
 40
0.75
100
AcDbArc
 50
55.522078
 51
67.098929
  0
ARC
  5
1CA
100
AcDbEntity
  8
ALPHA
100
AcDbCircle
 10
99.62619
 20
117.990413
 30
0.0
 40
0.75
100
AcDbArc
 50
48.777542
 51
55.522078
  0
ARC
  5
1CB
100
AcDbEntity
  8
ALPHA
100
AcDbCircle
 10
99.62619
 20
117.990413
 30
0.0
 40
0.75
100
AcDbArc
 50
38.268355
 51
48.777542
  0
ARC
  5
1CC
100
AcDbEntity
  8
ALPHA
100
AcDbCircle
 10
99.62619
 20
117.990413
 30
0.0
 40
0.75
100
AcDbArc
 50
31.109637
 51
38.268355
  0
ARC
  5
1CD
100
AcDbEntity
  8
ALPHA
100
AcDbCircle
 10
99.62619
 20
117.990413
 30
0.0
 40
0.75
100
AcDbArc
 50
20.996429
 51
31.109637
  0
ARC
  5
1CE
100
AcDbEntity
  8
ALPHA
100
AcDbCircle
 10
99.62619
 20
117.990413
 30
0.0
 40
0.75
100
AcDbArc
 50
13.658673
 51
20.996429
  0
ARC
  5
1CF
100
AcDbEntity
  8
ALPHA
100
AcDbCircle
 10
99.62619
 20
117.990413
 30
0.0
 40
0.75
100
AcDbArc
 50
0.0
 51
13.658673
  0
LINE
  5
1D0
100
AcDbEntity
  8
ALPHA
100
AcDbLine
 10
98.87619
 20
118.023709
 30
0.0
 11
98.87619
 21
118.69009
 31
0.0
  0
LINE
  5
1D1
100
AcDbEntity
  8
ALPHA
100
AcDbLine
 10
100.37619
 20
118.023709
 30
0.0
 11
100.37619
 21
118.69009
 31
0.0
  0
LINE
  5
1D2
100
AcDbEntity
  8
ALPHA
100
AcDbLine
 10
100.37619
 20
117.990413
 30
0.0
 11
100.37619
 21
115.990352
 31
0.0
  0
LINE
  5
1D3
100
AcDbEntity
  8
ALPHA
100
AcDbLine
 10
98.87619
 20
118.69009
 30
0.0
 11
98.87619
 21
118.719675
 31
0.0
  0
LINE
  5
1D4
100
AcDbEntity
  8
ALPHA
100
AcDbLine
 10
98.87619
 20
118.719675
 30
0.0
 11
98.87619
 21
118.723387
 31
0.0
  0
ARC
  5
1D5
100
AcDbEntity
  8
ALPHA
100
AcDbCircle
 10
99.62619
 20
118.723387
 30
0.0
 40
0.75
100
AcDbArc
 50
171.818182
 51
180.0
  0
ARC
  5
1D6
100
AcDbEntity
  8
ALPHA
100
AcDbCircle
 10
99.62619
 20
118.723387
 30
0.0
 40
0.75
100
AcDbArc
 50
167.980663
 51
171.818182
  0
ARC
  5
1D7
100
AcDbEntity
  8
ALPHA
100
AcDbCircle
 10
99.62619
 20
118.723387
 30
0.0
 40
0.75
100
AcDbArc
 50
90.0
 51
167.980663
  0
ARC
  5
1D8
100
AcDbEntity
  8
ALPHA
100
AcDbCircle
 10
99.62619
 20
117.990413
 30
0.0
 40
0.75
100
AcDbArc
 50
166.341327
 51
180.0
  0
ARC
  5
1D9
100
AcDbEntity
  8
ALPHA
100
AcDbCircle
 10
99.62619
 20
117.990413
 30
0.0
 40
0.75
100
AcDbArc
 50
159.003571
 51
166.341327
  0
ARC
  5
1DA
100
AcDbEntity
  8
ALPHA
100
AcDbCircle
 10
99.62619
 20
117.990413
 30
0.0
 40
0.75
100
AcDbArc
 50
148.890363
 51
159.003571
  0
ARC
  5
1DB
100
AcDbEntity
  8
ALPHA
100
AcDbCircle
 10
99.62619
 20
117.990413
 30
0.0
 40
0.75
100
AcDbArc
 50
141.731645
 51
148.890363
  0
ARC
  5
1DC
100
AcDbEntity
  8
ALPHA
100
AcDbCircle
 10
99.62619
 20
117.990413
 30
0.0
 40
0.75
100
AcDbArc
 50
131.222458
 51
141.731645
  0
ARC
  5
1DD
100
AcDbEntity
  8
ALPHA
100
AcDbCircle
 10
99.62619
 20
117.990413
 30
0.0
 40
0.75
100
AcDbArc
 50
124.477922
 51
131.222458
  0
ARC
  5
1DE
100
AcDbEntity
  8
AXE
100
AcDbCircle
 10
99.62619
 20
117.990413
 30
0.0
 40
0.75
100
AcDbArc
 50
112.901071
 51
124.477922
  0
ARC
  5
1DF
100
AcDbEntity
  8
AXE
100
AcDbCircle
 10
99.62619
 20
117.990413
 30
0.0
 40
0.75
100
AcDbArc
 50
107.235509
 51
112.901071
  0
ARC
  5
1E0
100
AcDbEntity
  8
AXE
100
AcDbCircle
 10
99.62619
 20
117.990413
 30
0.0
 40
0.75
100
AcDbArc
 50
90.0
 51
107.235509
  0
ARC
  5
1E1
100
AcDbEntity
  8
AXE
100
AcDbCircle
 10
99.62619
 20
117.990413
 30
0.0
 40
0.75
100
AcDbArc
 50
90.0
 51
107.214246
  0
ARC
  5
1E2
100
AcDbEntity
  8
AXE
100
AcDbCircle
 10
99.62619
 20
117.990413
 30
0.0
 40
0.75
100
AcDbArc
 50
107.214246
 51
112.917115
  0
ARC
  5
1E3
100
AcDbEntity
  8
AXE
100
AcDbCircle
 10
99.62619
 20
117.990413
 30
0.0
 40
0.75
100
AcDbArc
 50
112.917115
 51
124.441854
  0
ARC
  5
1E4
100
AcDbEntity
  8
ALPHA
100
AcDbCircle
 10
99.62619
 20
117.990413
 30
0.0
 40
0.75
100
AcDbArc
 50
124.441854
 51
131.250277
  0
ARC
  5
1E5
100
AcDbEntity
  8
ALPHA
100
AcDbCircle
 10
99.62619
 20
117.990413
 30
0.0
 40
0.75
100
AcDbArc
 50
131.250277
 51
141.686524
  0
ARC
  5
1E6
100
AcDbEntity
  8
ALPHA
100
AcDbCircle
 10
99.62619
 20
117.990413
 30
0.0
 40
0.75
100
AcDbArc
 50
141.686524
 51
148.927829
  0
ARC
  5
1E7
100
AcDbEntity
  8
ALPHA
100
AcDbCircle
 10
99.62619
 20
117.990413
 30
0.0
 40
0.75
100
AcDbArc
 50
148.927829
 51
158.954457
  0
ARC
  5
1E8
100
AcDbEntity
  8
ALPHA
100
AcDbCircle
 10
99.62619
 20
117.990413
 30
0.0
 40
0.75
100
AcDbArc
 50
158.954457
 51
166.385959
  0
ARC
  5
1E9
100
AcDbEntity
  8
ALPHA
100
AcDbCircle
 10
99.62619
 20
117.990413
 30
0.0
 40
0.75
100
AcDbArc
 50
166.385959
 51
180.0
  0
LINE
  5
1EA
100
AcDbEntity
  8
ALPHA
100
AcDbLine
 10
98.87619
 20
117.592864
 30
0.0
 11
98.87619
 21
117.990413
 31
0.0
  0
LINE
  5
1EB
100
AcDbEntity
  8
ALPHA
100
AcDbLine
 10
98.87619
 20
117.55406
 30
0.0
 11
98.87619
 21
117.592864
 31
0.0
  0
LINE
  5
1EC
100
AcDbEntity
  8
ALPHA
100
AcDbLine
 10
98.87619
 20
115.990352
 30
0.0
 11
98.87619
 21
117.55406
 31
0.0
  0
LINE
  5
1ED
100
AcDbEntity
  8
ALPHA
100
AcDbLine
 10
100.37619
 20
118.69009
 30
0.0
 11
100.37619
 21
118.719675
 31
0.0
  0
LINE
  5
1EE
100
AcDbEntity
  8
ALPHA
100
AcDbLine
 10
100.37619
 20
118.719675
 30
0.0
 11
100.37619
 21
118.723387
 31
0.0
  0
LINE
  5
1EF
100
AcDbEntity
  8
ALPHA
100
AcDbLine
 10
100.37619
 20
87.323403
 30
0.0
 11
100.37619
 21
115.990352
 31
0.0
  0
LINE
  5
1F0
100
AcDbEntity
  8
ALPHA
100
AcDbLine
 10
98.87619
 20
87.323403
 30
0.0
 11
98.87619
 21
115.990352
 31
0.0
  0
ARC
  5
1F1
100
AcDbEntity
  8
ALPHA
100
AcDbCircle
 10
99.62619
 20
118.723387
 30
0.0
 40
0.75
100
AcDbArc
 50
0.0
 51
90.0
  0
LINE
  5
1F2
100
AcDbEntity
  8
ALPHA
100
AcDbLine
 10
100.37619
 20
87.323403
 30
0.0
 11
100.37619
 21
86.024387
 31
0.0
  0
LINE
  5
1F3
100
AcDbEntity
  8
ALPHA
100
AcDbLine
 10
98.87619
 20
87.040046
 30
0.0
 11
98.87619
 21
87.323403
 31
0.0
  0
LINE
  5
1F4
100
AcDbEntity
  8
ALPHA
100
AcDbLine
 10
98.87619
 20
87.011536
 30
0.0
 11
98.87619
 21
87.040046
 31
0.0
  0
LINE
  5
1F5
100
AcDbEntity
  8
ALPHA
100
AcDbLine
 10
98.87619
 20
86.7395
 30
0.0
 11
98.87619
 21
87.011536
 31
0.0
  0
LINE
  5
1F6
100
AcDbEntity
  8
ALPHA
100
AcDbLine
 10
98.87619
 20
86.713302
 30
0.0
 11
98.87619
 21
86.7395
 31
0.0
  0
LINE
  5
1F7
100
AcDbEntity
  8
ALPHA
100
AcDbLine
 10
98.87619
 20
86.062846
 30
0.0
 11
98.87619
 21
86.713302
 31
0.0
  0
LINE
  5
1F8
100
AcDbEntity
  8
ALPHA
100
AcDbLine
 10
98.87619
 20
86.024387
 30
0.0
 11
98.87619
 21
86.062846
 31
0.0
  0
LINE
  5
1F9
100
AcDbEntity
  8
ALPHA
100
AcDbLine
 10
100.37619
 20
82.841062
 30
0.0
 11
100.37619
 21
86.024387
 31
0.0
  0
LWPOLYLINE
  5
1FA
100
AcDbEntity
  8
ALPHA
100
AcDbPolyline
 90
        6
 70
     0
 43
0.0
 10
98.87619
 20
82.841062
 10
98.912898
 20
82.640346
 10
99.019428
 20
82.459277
 10
99.185352
 20
82.31558
 10
99.394428
 20
82.223321
 10
99.62619
 20
82.191531
  0
LINE
  5
202
100
AcDbEntity
  8
ALPHA
100
AcDbLine
 10
98.87619
 20
85.86098
 30
0.0
 11
98.87619
 21
86.024387
 31
0.0
  0
LINE
  5
203
100
AcDbEntity
  8
ALPHA
100
AcDbLine
 10
98.87619
 20
85.290428
 30
0.0
 11
98.87619
 21
85.86098
 31
0.0
  0
LINE
  5
204
100
AcDbEntity
  8
ALPHA
100
AcDbLine
 10
98.87619
 20
85.041828
 30
0.0
 11
98.87619
 21
85.290428
 31
0.0
  0
LINE
  5
205
100
AcDbEntity
  8
ALPHA
100
AcDbLine
 10
98.87619
 20
82.841062
 30
0.0
 11
98.87619
 21
85.041828
 31
0.0
  0
ARC
  5
206
100
AcDbEntity
  8
ALPHA
100
AcDbCircle
 10
99.62619
 20
117.990413
 30
0.0
 40
0.75
100
AcDbArc
 50
0.0
 51
13.614041
  0
ARC
  5
207
100
AcDbEntity
  8
ALPHA
100
AcDbCircle
 10
99.62619
 20
117.990413
 30
0.0
 40
0.75
100
AcDbArc
 50
13.614041
 51
21.045543
  0
ARC
  5
208
100
AcDbEntity
  8
ALPHA
100
AcDbCircle
 10
99.62619
 20
117.990413
 30
0.0
 40
0.75
100
AcDbArc
 50
21.045543
 51
31.072171
  0
ARC
  5
209
100
AcDbEntity
  8
ALPHA
100
AcDbCircle
 10
99.62619
 20
117.990413
 30
0.0
 40
0.75
100
AcDbArc
 50
31.072171
 51
38.313476
  0
ARC
  5
20A
100
AcDbEntity
  8
ALPHA
100
AcDbCircle
 10
99.62619
 20
117.990413
 30
0.0
 40
0.75
100
AcDbArc
 50
38.313476
 51
48.749723
  0
ARC
  5
20B
100
AcDbEntity
  8
ALPHA
100
AcDbCircle
 10
99.62619
 20
117.990413
 30
0.0
 40
0.75
100
AcDbArc
 50
48.749723
 51
55.558146
  0
ARC
  5
20C
100
AcDbEntity
  8
ALPHA
100
AcDbCircle
 10
99.62619
 20
117.990413
 30
0.0
 40
0.75
100
AcDbArc
 50
55.558146
 51
67.082885
  0
ARC
  5
20D
100
AcDbEntity
  8
AXE
100
AcDbCircle
 10
99.62619
 20
117.990413
 30
0.0
 40
0.75
100
AcDbArc
 50
67.082885
 51
72.785754
  0
ARC
  5
20E
100
AcDbEntity
  8
AXE
100
AcDbCircle
 10
99.62619
 20
117.990413
 30
0.0
 40
0.75
100
AcDbArc
 50
72.785754
 51
90.0
  0
LWPOLYLINE
  5
20F
100
AcDbEntity
  8
ALPHA
100
AcDbPolyline
 90
        6
 70
     0
 43
0.0
 10
99.62619
 20
82.191531
 10
99.857953
 20
82.223321
 10
100.067029
 20
82.31558
 10
100.232953
 20
82.459277
 10
100.339483
 20
82.640346
 10
100.37619
 20
82.841062
  0
ENDSEC
  0
SECTION
  2
OBJECTS
  0
DICTIONARY
  5
2DA
100
AcDbDictionary
  3
ACAD_GROUP
350
2DB
  3
ACAD_MLINESTYLE
350
2E8
  3
ACDBVARIABLEDICTIONARY
350
2F8
  0
DICTIONARY
  5
2DB
102
{ACAD_REACTORS
330
2DA
102
}
100
AcDbDictionary
  0
DICTIONARY
  5
2E8
102
{ACAD_REACTORS
330
2DA
102
}
100
AcDbDictionary
  3
STANDARD
350
2E9
  0
DICTIONARY
  5
2F8
102
{ACAD_REACTORS
330
2DA
102
}
100
AcDbDictionary
  3
DIMADEC
350
2F9
  0
MLINESTYLE
  5
2E9
102
{ACAD_REACTORS
330
2E8
102
}
100
AcDbMlineStyle
  2
STANDARD
 70
     0
  3

 62
   256
 51
90.0
 52
90.0
 71
     2
 49
0.5
 62
   256
  6
BYLAYER
 49
-0.5
 62
   256
  6
BYLAYER
  0
DICTIONARYVAR
  5
2F9
102
{ACAD_REACTORS
330
2F8
102
}
100
DictionaryVariables
280
     0
  1
0
  0
ENDSEC
  0
EOF
