  0
SECTION
  2
HEADER
  9
$ACADVER
  1
AC1012
  9
$DWGCODEPAGE
  3
ANSI_1252
  9
$INSBASE
 10
0.0
 20
0.0
 30
0.0
  9
$EXTMIN
 10
17.178246
 20
39.970231
 30
-0.001526
  9
$EXTMAX
 10
125.982642
 20
527.493119
 30
0.0
  9
$LIMMIN
 10
21.500324
 20
168.366123
  9
$LIMMAX
 10
144.764979
 20
237.902791
  9
$ORTHOMODE
 70
     1
  9
$REGENMODE
 70
     1
  9
$FILLMODE
 70
     1
  9
$QTEXTMODE
 70
     0
  9
$MIRRTEXT
 70
     1
  9
$DRAGMODE
 70
     2
  9
$LTSCALE
 40
10.0
  9
$OSMODE
 70
    39
  9
$ATTMODE
 70
     1
  9
$TEXTSIZE
 40
0.2
  9
$TRACEWID
 40
0.05
  9
$TEXTSTYLE
  7
STANDARD
  9
$CLAYER
  8
0
  9
$CELTYPE
  6
CONTINUOUS
  9
$CECOLOR
 62
   256
  9
$CELTSCALE
 40
1.0
  9
$DELOBJ
 70
     1
  9
$DISPSILH
 70
     0
  9
$DIMSCALE
 40
1.0
  9
$DIMASZ
 40
0.18
  9
$DIMEXO
 40
0.0625
  9
$DIMDLI
 40
0.38
  9
$DIMRND
 40
0.0
  9
$DIMDLE
 40
0.0
  9
$DIMEXE
 40
0.18
  9
$DIMTP
 40
0.0
  9
$DIMTM
 40
0.0
  9
$DIMTXT
 40
0.18
  9
$DIMCEN
 40
0.09
  9
$DIMTSZ
 40
0.0
  9
$DIMTOL
 70
     0
  9
$DIMLIM
 70
     0
  9
$DIMTIH
 70
     1
  9
$DIMTOH
 70
     1
  9
$DIMSE1
 70
     0
  9
$DIMSE2
 70
     0
  9
$DIMTAD
 70
     0
  9
$DIMZIN
 70
     0
  9
$DIMBLK
  1

  9
$DIMASO
 70
     1
  9
$DIMSHO
 70
     1
  9
$DIMPOST
  1

  9
$DIMAPOST
  1

  9
$DIMALT
 70
     0
  9
$DIMALTD
 70
     2
  9
$DIMALTF
 40
25.4
  9
$DIMLFAC
 40
1.0
  9
$DIMTOFL
 70
     0
  9
$DIMTVP
 40
0.0
  9
$DIMTIX
 70
     0
  9
$DIMSOXD
 70
     0
  9
$DIMSAH
 70
     0
  9
$DIMBLK1
  1

  9
$DIMBLK2
  1

  9
$DIMSTYLE
  2
STANDARD
  9
$DIMCLRD
 70
     0
  9
$DIMCLRE
 70
     0
  9
$DIMCLRT
 70
     0
  9
$DIMTFAC
 40
1.0
  9
$DIMGAP
 40
0.09
  9
$DIMJUST
 70
     0
  9
$DIMSD1
 70
     0
  9
$DIMSD2
 70
     0
  9
$DIMTOLJ
 70
     1
  9
$DIMTZIN
 70
     0
  9
$DIMALTZ
 70
     0
  9
$DIMALTTZ
 70
     0
  9
$DIMFIT
 70
     3
  9
$DIMUPT
 70
     0
  9
$DIMUNIT
 70
     2
  9
$DIMDEC
 70
     4
  9
$DIMTDEC
 70
     4
  9
$DIMALTU
 70
     2
  9
$DIMALTTD
 70
     2
  9
$DIMTXSTY
  7
STANDARD
  9
$DIMAUNIT
 70
     0
  9
$LUNITS
 70
     2
  9
$LUPREC
 70
     4
  9
$SKETCHINC
 40
0.1
  9
$FILLETRAD
 40
0.0
  9
$AUNITS
 70
     0
  9
$AUPREC
 70
     0
  9
$MENU
  1
acad
  9
$ELEVATION
 40
0.0
  9
$PELEVATION
 40
0.0
  9
$THICKNESS
 40
0.0
  9
$LIMCHECK
 70
     0
  9
$BLIPMODE
 70
     0
  9
$CHAMFERA
 40
0.0
  9
$CHAMFERB
 40
0.0
  9
$CHAMFERC
 40
0.0
  9
$CHAMFERD
 40
0.0
  9
$SKPOLY
 70
     0
  9
$TDCREATE
 40
2453627.679171909
  9
$TDUPDATE
 40
2453689.696803634
  9
$TDINDWG
 40
0.1245346528
  9
$TDUSRTIMER
 40
0.1245341088
  9
$USRTIMER
 70
     1
  9
$ANGBASE
 50
0.0
  9
$ANGDIR
 70
     0
  9
$PDMODE
 70
     0
  9
$PDSIZE
 40
0.0
  9
$PLINEWID
 40
0.0
  9
$COORDS
 70
     0
  9
$SPLFRAME
 70
     0
  9
$SPLINETYPE
 70
     6
  9
$SPLINESEGS
 70
     8
  9
$ATTDIA
 70
     0
  9
$ATTREQ
 70
     1
  9
$HANDLING
 70
     1
  9
$HANDSEED
  5
131C
  9
$SURFTAB1
 70
     6
  9
$SURFTAB2
 70
     6
  9
$SURFTYPE
 70
     6
  9
$SURFU
 70
     6
  9
$SURFV
 70
     6
  9
$UCSNAME
  2

  9
$UCSORG
 10
0.0
 20
0.0
 30
0.0
  9
$UCSXDIR
 10
1.0
 20
0.0
 30
0.0
  9
$UCSYDIR
 10
0.0
 20
1.0
 30
0.0
  9
$PUCSNAME
  2

  9
$PUCSORG
 10
0.0
 20
0.0
 30
0.0
  9
$PUCSXDIR
 10
1.0
 20
0.0
 30
0.0
  9
$PUCSYDIR
 10
0.0
 20
1.0
 30
0.0
  9
$USERI1
 70
     0
  9
$USERI2
 70
     0
  9
$USERI3
 70
     0
  9
$USERI4
 70
     0
  9
$USERI5
 70
     0
  9
$USERR1
 40
0.0
  9
$USERR2
 40
0.0
  9
$USERR3
 40
0.0
  9
$USERR4
 40
0.0
  9
$USERR5
 40
0.0
  9
$WORLDVIEW
 70
     1
  9
$SHADEDGE
 70
     3
  9
$SHADEDIF
 70
    70
  9
$TILEMODE
 70
     1
  9
$MAXACTVP
 70
    16
  9
$PINSBASE
 10
0.0
 20
0.0
 30
0.0
  9
$PLIMCHECK
 70
     0
  9
$PEXTMIN
 10
1.000000E+20
 20
1.000000E+20
 30
1.000000E+20
  9
$PEXTMAX
 10
-1.000000E+20
 20
-1.000000E+20
 30
-1.000000E+20
  9
$PLIMMIN
 10
0.0
 20
0.0
  9
$PLIMMAX
 10
12.0
 20
9.0
  9
$UNITMODE
 70
     0
  9
$VISRETAIN
 70
     0
  9
$PLINEGEN
 70
     1
  9
$PSLTSCALE
 70
     0
  9
$TREEDEPTH
 70
  3020
  9
$PICKSTYLE
 70
     1
  9
$CMLSTYLE
  2
STANDARD
  9
$CMLJUST
 70
     0
  9
$CMLSCALE
 40
1.0
  9
$SAVEIMAGES
 70
     0
  0
ENDSEC
  0
SECTION
  2
CLASSES
  0
CLASS
  1
LWPOLYLINE
  2
AcDbPolyline
  3
"AutoCAD"
 90
    32768
280
     0
281
     1
  0
CLASS
  1
IMAGE
  2
AcDbRasterImage
  3
ISM
 90
    32895
280
     0
281
     1
  0
CLASS
  1
OLE2FRAME
  2
AcDbOle2Frame
  3
""
 90
    32768
280
     0
281
     1
  0
CLASS
  1
HATCH
  2
AcDbHatch
  3
"ACAD_SEDONA"
 90
    32768
280
     0
281
     1
  0
CLASS
  1
DICTIONARYVAR
  2
AcDbDictionaryVar
  3
"AutoCAD"
 90
    32768
280
     0
281
     0
  0
CLASS
  1
RASTERVARIABLES
  2
AcDbRasterVariables
  3
ISM
 90
    32768
280
     0
281
     0
  0
CLASS
  1
IMAGEDEF
  2
AcDbRasterImageDef
  3
ISM
 90
    32768
280
     0
281
     0
  0
CLASS
  1
IMAGEDEF_REACTOR
  2
AcDbRasterImageDefReactor
  3
ISM
 90
    32769
280
     0
281
     0
  0
CLASS
  1
SPATIAL_FILTER
  2
AcDbSpatialFilter
  3
"Acad"
 90
    32768
280
     0
281
     0
  0
CLASS
  1
XRECORD
  2
AcDbXrecord
  3
"<Built In>"
 90
    32768
280
     0
281
     0
  0
CLASS
  1
SORTENTSTABLE
  2
AcDbSortentsTable
  3
"AutoCAD"
 90
    32768
280
     0
281
     0
  0
CLASS
  1
LAYER_INDEX
  2
AcDbLayerIndex
  3
"Acad"
 90
    32768
280
     0
281
     0
  0
CLASS
  1
SPATIAL_INDEX
  2
AcDbSpatialIndex
  3
"Acad"
 90
    32768
280
     0
281
     0
  0
CLASS
  1
OBJECT_PTR
  2
CAseDLPNTableRecord
  3
"ASE-LPNTableRecord"
 90
    32769
280
     0
281
     0
  0
CLASS
  1
LAYOUT
  2
AcDbLayout
  3
AutoCAD 2000
 90
    32768
280
     0
281
     0
  0
CLASS
  1
PLOTSETTINGS
  2
AcDbPlotSettings
  3
AutoCAD 2000
 90
    32768
280
     0
281
     0
  0
CLASS
  1
ACDBDICTIONARYWDFLT
  2
AcDbDictionaryWithDefault
  3
AutoCAD 2000
 90
    32768
280
     0
281
     0
  0
CLASS
  1
ACDBPLACEHOLDER
  2
AcDbPlaceHolder
  3
AutoCAD 2000
 90
    32768
280
     0
281
     0
  0
CLASS
  1
VBA_PROJECT
  2
AcDbVbaProject
  3
acad
 90
    32768
280
     0
281
     0
  0
CLASS
  1
WIPEOUT
  2
AcDbWipeout
  3
"WipeOut|Product Desc: Object Enabler for WipeOut entity^I^I^I^I^I^I|Company: Autodesk, Inc.^I^I^I^I^I^I|WEB Address: www.autodesk.com"
 90
    32895
280
     0
281
     1
  0
CLASS
  1
WIPEOUTVARIABLES
  2
AcDbWipeoutVariables
  3
"WipeOut|Product Desc:     WipeOut Dbx Application|Company:          Autodesk, Inc.|WEB Address:      www.autodesk.com"
 90
    32768
280
     0
281
     0
  0
CLASS
  1
RTEXT
  2
RText
  3
RText|AutoCAD Express Tool|expresstools@autodesk.com
 90
    32768
280
     0
281
     1
  0
CLASS
  1
ARCALIGNEDTEXT
  2
AcDbArcAlignedText
  3
ATEXT|AutoCAD Express Tool|expresstools@autodesk.com
 90
    32768
280
     0
281
     1
  0
CLASS
  1
TABLESTYLE
  2
AcDbTableStyle
  3
ObjectDBX Classes
 90
    34815
280
     0
281
     0
  0
CLASS
  1
ACAD_PROXY_OBJECT_WRAPPER
  2
AcDbProxyObjectWrapper
  3
AutoCAD 2000
 90
    32768
280
     0
281
     0
  0
CLASS
  1
LONG_TRANSACTION
  2
AcDbLongTransaction
  3
AutoCAD 2000
 90
    32768
280
     0
281
     0
  0
CLASS
  1
LWPOLYLINE
  2
AcDbPolyline
  3
"AutoCAD"
 90
    32768
280
     0
281
     1
  0
CLASS
  1
HATCH
  2
AcDbHatch
  3
"ACAD_SEDONA"
 90
    32768
280
     0
281
     1
  0
CLASS
  1
XRECORD
  2
AcDbXrecord
  3
"<Built In>"
 90
    32768
280
     0
281
     0
  0
ENDSEC
  0
SECTION
  2
TABLES
  0
TABLE
  2
VPORT
  5
7
100
AcDbSymbolTable
 70
     2
  0
VPORT
  5
131B
100
AcDbSymbolTableRecord
100
AcDbViewportTableRecord
  2
*ACTIVE
 70
     0
 10
0.0
 20
0.0
 11
1.0
 21
1.0
 12
71.580444
 22
283.731675
 13
0.0
 23
0.0
 14
1.0
 24
1.0
 15
0.0
 25
0.0
 16
0.0
 26
0.0
 36
1.0
 17
0.0
 27
0.0
 37
0.0
 40
492.59245
 41
1.673611
 42
50.0
 43
0.0
 44
0.0
 50
0.0
 51
0.0
 71
     0
 72
   100
 73
     1
 74
     2
 75
     0
 76
     0
 77
     0
 78
     0
  0
ENDTAB
  0
TABLE
  2
LTYPE
  5
4
100
AcDbSymbolTable
 70
     2
  0
LTYPE
  5
11
102
{ACAD_XDICTIONARY
360
12DC
102
}
100
AcDbSymbolTableRecord
100
AcDbLinetypeTableRecord
  2
BYBLOCK
 70
     0
  3

 72
    65
 73
     0
 40
0.0
  0
LTYPE
  5
12
102
{ACAD_XDICTIONARY
360
12DE
102
}
100
AcDbSymbolTableRecord
100
AcDbLinetypeTableRecord
  2
BYLAYER
 70
     0
  3

 72
    65
 73
     0
 40
0.0
  0
LTYPE
  5
13
102
{ACAD_XDICTIONARY
360
12E0
102
}
100
AcDbSymbolTableRecord
100
AcDbLinetypeTableRecord
  2
CONTINUOUS
 70
     0
  3
Solid line
 72
    65
 73
     0
 40
0.0
  0
LTYPE
  5
FA
100
AcDbSymbolTableRecord
100
AcDbLinetypeTableRecord
  2
AXES2
 70
     0
  3
___ _ ___ _ ___ _ ___ _ ___ _ ___ _ ___ _ ___ _
 72
    65
 73
     4
 40
1.125
 49
0.75
 74
     0
 49
-0.125
 74
     0
 49
0.125
 74
     0
 49
-0.125
 74
     0
  0
ENDTAB
  0
TABLE
  2
LAYER
  5
2
100
AcDbSymbolTable
 70
     5
  0
LAYER
  5
14
100
AcDbSymbolTableRecord
100
AcDbLayerTableRecord
  2
0
 70
     0
 62
     7
  6
CONTINUOUS
  0
LAYER
  5
FC
100
AcDbSymbolTableRecord
100
AcDbLayerTableRecord
  2
COTATION1
 70
     0
 62
     2
  6
CONTINUOUS
  0
LAYER
  5
FD
100
AcDbSymbolTableRecord
100
AcDbLayerTableRecord
  2
AXE
 70
     0
 62
    80
  6
AXES2
  0
LAYER
  5
FE
102
{ACAD_XDICTIONARY
360
1312
102
}
100
AcDbSymbolTableRecord
100
AcDbLayerTableRecord
  2
DEFPOINTS
 70
     0
 62
     7
  6
CONTINUOUS
  0
LAYER
  5
FF
100
AcDbSymbolTableRecord
100
AcDbLayerTableRecord
  2
ALPHA
 70
     0
 62
   254
  6
CONTINUOUS
  0
ENDTAB
  0
TABLE
  2
STYLE
  5
3
100
AcDbSymbolTable
 70
     2
  0
STYLE
  5
17
102
{ACAD_XDICTIONARY
360
12E2
102
}
100
AcDbSymbolTableRecord
100
AcDbTextStyleTableRecord
  2
STANDARD
 70
     0
 40
0.0
 41
1.0
 50
0.0
 71
     0
 42
0.0
  3
txt
  4

  0
STYLE
  5
101
100
AcDbSymbolTableRecord
100
AcDbTextStyleTableRecord
  2
ROMANS
 70
     0
 40
0.0
 41
1.0
 50
0.0
 71
     0
 42
6.0
  3
romans
  4

  0
ENDTAB
  0
TABLE
  2
VIEW
  5
5
100
AcDbSymbolTable
 70
     0
  0
ENDTAB
  0
TABLE
  2
UCS
  5
6
100
AcDbSymbolTable
 70
     0
  0
ENDTAB
  0
TABLE
  2
APPID
  5
8
100
AcDbSymbolTable
 70
     1
  0
APPID
  5
16
100
AcDbSymbolTableRecord
100
AcDbRegAppTableRecord
  2
ACAD
 70
     0
  0
ENDTAB
  0
TABLE
  2
DIMSTYLE
  5
9
100
AcDbSymbolTable
 70
     2
  0
DIMSTYLE
105
18
102
{ACAD_XDICTIONARY
360
12DA
102
}
100
AcDbSymbolTableRecord
100
AcDbDimStyleTableRecord
  2
STANDARD
 70
     0
  3

  4

  5

  6

  7

 40
1.0
 41
0.18
 42
0.0625
 43
0.38
 44
0.18
 45
0.0
 46
0.0
 47
0.0
 48
0.0
140
0.18
141
0.09
142
0.0
143
25.4
144
1.0
145
0.0
146
1.0
147
0.09
 71
     0
 72
     0
 73
     1
 74
     1
 75
     0
 76
     0
 77
     0
 78
     0
170
     0
171
     2
172
     0
173
     0
174
     0
175
     0
176
     0
177
     0
178
     0
270
     2
271
     4
272
     4
273
     2
274
     2
340
17
275
     0
280
     0
281
     0
282
     0
283
     1
284
     0
285
     0
286
     0
287
     3
288
     0
  0
DIMSTYLE
105
102
102
{ACAD_XDICTIONARY
360
1314
102
}
102
{ACAD_REACTORS
330
EEA
330
1203
102
}
100
AcDbSymbolTableRecord
100
AcDbDimStyleTableRecord
  2
SC_DEFAUT
 70
     0
  3

  4

  5
OPEN30
  6

  7

 40
1.0
 41
5.0
 42
2.0
 43
0.38
 44
2.5
 45
0.0
 46
0.0
 47
0.0
 48
0.0
140
2.5
141
0.0
142
0.0
143
25.4
144
1.0
145
0.0
146
1.0
147
2.0
 71
     0
 72
     0
 73
     1
 74
     1
 75
     0
 76
     0
 77
     1
 78
    12
170
     0
171
     2
172
     0
173
     0
174
     0
175
     0
176
     0
177
     0
178
     0
270
     2
271
     1
272
     1
273
     2
274
     2
340
101
275
     0
280
     0
281
     0
282
     0
283
     1
284
    12
285
    12
286
    12
287
     5
288
     0
  0
ENDTAB
  0
TABLE
  2
BLOCK_RECORD
  5
1
100
AcDbSymbolTable
 70
     3
  0
BLOCK_RECORD
  5
A
102
{ACAD_XDICTIONARY
360
1B0
102
}
100
AcDbSymbolTableRecord
100
AcDbBlockTableRecord
  2
*MODEL_SPACE
  0
BLOCK_RECORD
  5
B
102
{ACAD_XDICTIONARY
360
1308
102
}
100
AcDbSymbolTableRecord
100
AcDbBlockTableRecord
  2
*PAPER_SPACE
  0
BLOCK_RECORD
  5
CF
100
AcDbSymbolTableRecord
100
AcDbBlockTableRecord
  2
_OPEN30
  0
BLOCK_RECORD
  5
F2F
100
AcDbSymbolTableRecord
100
AcDbBlockTableRecord
  2
*D1
  0
BLOCK_RECORD
  5
123C
100
AcDbSymbolTableRecord
100
AcDbBlockTableRecord
  2
*D2
  0
ENDTAB
  0
ENDSEC
  0
SECTION
  2
BLOCKS
  0
BLOCK
  5
D
100
AcDbEntity
  8
0
100
AcDbBlockBegin
  2
*MODEL_SPACE
 70
     0
 10
0.0
 20
0.0
 30
0.0
  3
*MODEL_SPACE
  1

  0
ENDBLK
  5
E
100
AcDbEntity
  8
0
100
AcDbBlockEnd
  0
BLOCK
  5
F
100
AcDbEntity
 67
     1
  8
0
100
AcDbBlockBegin
  2
*PAPER_SPACE
 70
     0
 10
0.0
 20
0.0
 30
0.0
  3
*PAPER_SPACE
  1

  0
ENDBLK
  5
10
100
AcDbEntity
 67
     1
  8
0
100
AcDbBlockEnd
  0
BLOCK
  5
D0
100
AcDbEntity
  8
0
100
AcDbBlockBegin
  2
_OPEN30
 70
     0
 10
0.0
 20
0.0
 30
0.0
  3
_OPEN30
  1

  0
LINE
  5
D1
100
AcDbEntity
  8
COTATION1
 62
     0
100
AcDbLine
 10
-1.0
 20
0.267949
 30
0.0
 11
0.0
 21
0.0
 31
0.0
1001
ACAD
1000
RTLwPs
1070
   158
  0
LINE
  5
D2
100
AcDbEntity
  8
COTATION1
 62
     0
100
AcDbLine
 10
0.0
 20
0.0
 30
0.0
 11
-1.0
 21
-0.267949
 31
0.0
1001
ACAD
1000
RTLwPs
1070
   158
  0
LINE
  5
D3
100
AcDbEntity
  8
COTATION1
 62
     0
100
AcDbLine
 10
0.0
 20
0.0
 30
0.0
 11
-1.0
 21
0.0
 31
0.0
1001
ACAD
1000
RTLwPs
1070
   158
  0
ENDBLK
  5
D4
100
AcDbEntity
  8
0
100
AcDbBlockEnd
  0
BLOCK
  5
F39
100
AcDbEntity
  8
0
100
AcDbBlockBegin
  2
*D1
 70
     1
 10
0.0
 20
0.0
 30
0.0
  3
*D1
  1

1001
ACAD
1000
RTLwPs
1070
   128
  0
LINE
  5
12C6
100
AcDbEntity
  8
COTATION1
 62
     0
100
AcDbLine
 10
17.182172
 20
250.850192
 30
0.0
 11
17.182172
 21
39.985107
 31
0.0
1001
ACAD
1000
RTLwPs
1070
   158
  0
LINE
  5
12C7
100
AcDbEntity
  8
COTATION1
 62
     0
100
AcDbLine
 10
107.193692
 20
104.409342
 30
0.0
 11
107.193692
 21
39.985107
 31
0.0
1001
ACAD
1000
RTLwPs
1070
   158
  0
LINE
  5
12C8
100
AcDbEntity
  8
COTATION1
 62
     0
100
AcDbLine
 10
22.182172
 20
42.485107
 30
0.0
 11
102.193692
 21
42.485107
 31
0.0
1001
ACAD
1000
RTLwPs
1070
   158
  0
INSERT
  5
12C9
100
AcDbEntity
  8
COTATION1
 62
     0
100
AcDbBlockReference
  2
_OPEN30
 10
17.182172
 20
42.485107
 30
0.0
 41
5.0
 42
5.0
 43
5.0
 50
180.0
1001
ACAD
1000
RTLwPs
1070
   158
  0
INSERT
  5
12CA
100
AcDbEntity
  8
COTATION1
 62
     0
100
AcDbBlockReference
  2
_OPEN30
 10
107.193692
 20
42.485107
 30
0.0
 41
5.0
 42
5.0
 43
5.0
1001
ACAD
1000
RTLwPs
1070
   158
  0
MTEXT
  5
12CB
100
AcDbEntity
  8
COTATION1
 62
     0
100
AcDbMText
 10
62.187932
 20
45.735107
 30
0.0
 40
2.5
 41
0.0
 71
     5
 72
     1
  1
\A1;90
  7
ROMANS
1001
ACAD
1000
MTEXTBEGIN
1070
    73
1070
     1
1070
    44
1040
1.0
1070
    74
1070
     0
1000
MTEXTEND
  0
POINT
  5
12CC
100
AcDbEntity
  8
DEFPOINTS
 62
     0
100
AcDbPoint
 10
17.182172
 20
252.850192
 30
0.0
1001
ACAD
1000
RTLwPs
1070
   128
  0
POINT
  5
12CD
100
AcDbEntity
  8
DEFPOINTS
 62
     0
100
AcDbPoint
 10
107.193692
 20
106.409342
 30
0.0
1001
ACAD
1000
RTLwPs
1070
   128
  0
POINT
  5
12CE
100
AcDbEntity
  8
DEFPOINTS
 62
     0
100
AcDbPoint
 10
107.193692
 20
42.485107
 30
0.0
1001
ACAD
1000
RTLwPs
1070
   128
  0
ENDBLK
  5
F3A
100
AcDbEntity
  8
0
100
AcDbBlockEnd
1001
ACAD
1000
RTLwPs
1070
   128
  0
BLOCK
  5
1246
100
AcDbEntity
  8
0
100
AcDbBlockBegin
  2
*D2
 70
     1
 10
0.0
 20
0.0
 30
0.0
  3
*D2
  1

1001
ACAD
1000
RTLwPs
1070
   128
  0
LINE
  5
126D
100
AcDbEntity
  8
COTATION1
 62
     0
100
AcDbLine
 10
37.20438
 20
86.669924
 30
0.0
 11
37.20438
 21
49.985107
 31
0.0
1001
ACAD
1000
RTLwPs
1070
   158
  0
LINE
  5
126E
100
AcDbEntity
  8
COTATION1
 62
     0
100
AcDbLine
 10
107.193692
 20
104.409342
 30
0.0
 11
107.193692
 21
49.985107
 31
0.0
1001
ACAD
1000
RTLwPs
1070
   158
  0
LINE
  5
126F
100
AcDbEntity
  8
COTATION1
 62
     0
100
AcDbLine
 10
42.20438
 20
52.485107
 30
0.0
 11
102.193692
 21
52.485107
 31
0.0
1001
ACAD
1000
RTLwPs
1070
   158
  0
INSERT
  5
1270
100
AcDbEntity
  8
COTATION1
 62
     0
100
AcDbBlockReference
  2
_OPEN30
 10
37.20438
 20
52.485107
 30
0.0
 41
5.0
 42
5.0
 43
5.0
 50
180.0
1001
ACAD
1000
RTLwPs
1070
   158
  0
INSERT
  5
1271
100
AcDbEntity
  8
COTATION1
 62
     0
100
AcDbBlockReference
  2
_OPEN30
 10
107.193692
 20
52.485107
 30
0.0
 41
5.0
 42
5.0
 43
5.0
1001
ACAD
1000
RTLwPs
1070
   158
  0
MTEXT
  5
1272
100
AcDbEntity
  8
COTATION1
 62
     0
100
AcDbMText
 10
72.199036
 20
55.735107
 30
0.0
 40
2.5
 41
0.0
 71
     5
 72
     1
  1
\A1;70
  7
ROMANS
1001
ACAD
1000
MTEXTBEGIN
1070
    73
1070
     1
1070
    44
1040
1.0
1070
    74
1070
     0
1000
MTEXTEND
  0
POINT
  5
1273
100
AcDbEntity
  8
DEFPOINTS
 62
     0
100
AcDbPoint
 10
37.20438
 20
88.669924
 30
0.0
1001
ACAD
1000
RTLwPs
1070
   128
  0
POINT
  5
1274
100
AcDbEntity
  8
DEFPOINTS
 62
     0
100
AcDbPoint
 10
107.193692
 20
106.409342
 30
0.0
1001
ACAD
1000
RTLwPs
1070
   128
  0
POINT
  5
1275
100
AcDbEntity
  8
DEFPOINTS
 62
     0
100
AcDbPoint
 10
107.193692
 20
52.485107
 30
0.0
1001
ACAD
1000
RTLwPs
1070
   128
  0
ENDBLK
  5
1247
100
AcDbEntity
  8
0
100
AcDbBlockEnd
1001
ACAD
1000
RTLwPs
1070
   128
  0
ENDSEC
  0
SECTION
  2
ENTITIES
  0
SPLINE
  5
E76
100
AcDbEntity
  8
ALPHA
100
AcDbSpline
210
-1.0
220
0.0
230
0.0
 70
    24
 71
     3
 72
     8
 73
     4
 74
     0
 42
0.0000001
 43
0.0000001
 40
0.0
 40
0.0
 40
0.0
 40
0.0
 40
1.0
 40
1.0
 40
1.0
 40
1.0
 10
25.14290282258156
 20
233.9301937534383
 30
0.0
 10
25.14290282258156
 20
233.9301937534383
 30
0.0
 10
25.14290282258156
 20
271.7826332828573
 30
0.0
 10
25.14290282258156
 20
271.7826332828573
 30
0.0
  0
SPLINE
  5
E77
100
AcDbEntity
  8
ALPHA
100
AcDbSpline
210
0.0
220
1.0
230
0.0
 70
    24
 71
     3
 72
     8
 73
     4
 74
     0
 42
0.0000001
 43
0.0000001
 40
1.0
 40
1.0
 40
1.0
 40
1.0
 40
2.0
 40
2.0
 40
2.0
 40
2.0
 10
25.14290282258156
 20
271.7826332828573
 30
0.0
 10
25.14290282258156
 20
271.7826332828573
 30
0.0
 10
22.76854775056011
 20
271.7826332828573
 30
0.0
 10
22.76854775056011
 20
271.7826332828573
 30
0.0
  0
SPLINE
  5
E78
100
AcDbEntity
  8
ALPHA
100
AcDbSpline
210
0.0
220
0.0
230
-1.0
 70
     8
 71
     3
 72
    11
 73
     7
 74
     0
 42
0.0000001
 43
0.0000001
 40
2.0
 40
2.0
 40
2.0
 40
2.0
 40
3.0
 40
3.0
 40
3.0
 40
4.0
 40
4.0
 40
4.0
 40
4.0
 10
22.76854775056011
 20
271.7826332828573
 30
0.0
 10
19.68098621186385
 20
271.7826332828573
 30
0.0
 10
17.18213873871929
 20
262.6609400608113
 30
0.0
 10
17.18213873871929
 20
252.7877927066856
 30
0.0
 10
17.18213873871929
 20
242.9146453525595
 30
0.0
 10
19.68098621186385
 20
233.9301937534383
 30
0.0
 10
22.76854775056011
 20
233.9301937534383
 30
0.0
  0
SPLINE
  5
E79
100
AcDbEntity
  8
ALPHA
100
AcDbSpline
210
0.0
220
1.0
230
0.0
 70
    24
 71
     3
 72
     8
 73
     4
 74
     0
 42
0.0000001
 43
0.0000001
 40
4.0
 40
4.0
 40
4.0
 40
4.0
 40
5.0
 40
5.0
 40
5.0
 40
5.0
 10
22.76854775056011
 20
233.9301937534383
 30
0.0
 10
22.76854775056011
 20
233.9301937534383
 30
0.0
 10
25.14290282258156
 20
233.9301937534383
 30
0.0
 10
25.14290282258156
 20
233.9301937534383
 30
0.0
  0
POLYLINE
  5
E94
100
AcDbEntity
  8
ALPHA
100
AcDb2dPolyline
 66
     1
 10
0.0
 20
0.0
 30
0.0
  0
VERTEX
  5
E95
100
AcDbEntity
  8
ALPHA
100
AcDbVertex
100
AcDb2dVertex
 10
25.142902
 20
268.989805
 30
0.0
  0
VERTEX
  5
E96
100
AcDbEntity
  8
ALPHA
100
AcDbVertex
100
AcDb2dVertex
 10
34.969516
 20
268.989805
 30
0.0
  0
VERTEX
  5
E97
100
AcDbEntity
  8
ALPHA
100
AcDbVertex
100
AcDb2dVertex
 10
34.969516
 20
236.723772
 30
0.0
  0
VERTEX
  5
E98
100
AcDbEntity
  8
ALPHA
100
AcDbVertex
100
AcDb2dVertex
 10
25.142902
 20
236.723772
 30
0.0
  0
SEQEND
  5
E99
100
AcDbEntity
  8
ALPHA
  0
POLYLINE
  5
EC5
100
AcDbEntity
  8
ALPHA
100
AcDb2dPolyline
 66
     1
 10
0.0
 20
0.0
 30
0.0
  0
VERTEX
  5
EC6
100
AcDbEntity
  8
ALPHA
100
AcDbVertex
100
AcDb2dVertex
 10
39.438492
 20
249.630448
 30
0.0
  0
VERTEX
  5
EC7
100
AcDbEntity
  8
ALPHA
100
AcDbVertex
100
AcDb2dVertex
 10
39.438492
 20
239.379359
 30
0.0
  0
VERTEX
  5
EC8
100
AcDbEntity
  8
ALPHA
100
AcDbVertex
100
AcDb2dVertex
 10
34.969516
 20
239.379359
 30
0.0
  0
SEQEND
  5
EC9
100
AcDbEntity
  8
ALPHA
  0
POLYLINE
  5
ECA
100
AcDbEntity
  8
ALPHA
100
AcDb2dPolyline
 66
     1
 10
0.0
 20
0.0
 30
0.0
  0
VERTEX
  5
ECB
100
AcDbEntity
  8
ALPHA
100
AcDbVertex
100
AcDb2dVertex
 10
34.969516
 20
266.196226
 30
0.0
  0
VERTEX
  5
ECC
100
AcDbEntity
  8
ALPHA
100
AcDbVertex
100
AcDb2dVertex
 10
37.400269
 20
266.196226
 30
0.0
  0
SEQEND
  5
ECD
100
AcDbEntity
  8
ALPHA
  0
DIMENSION
  5
EEA
100
AcDbEntity
  8
COTATION1
100
AcDbDimension
  2
*D1
 10
107.193692
 20
42.485107
 30
0.0
 11
62.187932
 21
45.735107
 31
0.0
 70
    32
  3
SC_DEFAUT
100
AcDbAlignedDimension
 13
17.182172
 23
252.850192
 33
0.0
 14
107.193692
 24
106.409342
 34
0.0
100
AcDbRotatedDimension
  0
SPLINE
  5
11A3
100
AcDbEntity
  8
ALPHA
100
AcDbSpline
210
0.0
220
1.0
230
0.0
 70
    24
 71
     3
 72
     8
 73
     4
 74
     0
 42
0.0000001
 43
0.0000001
 40
0.4999883674373291
 40
0.4999883674373291
 40
0.4999883674373291
 40
0.4999883674373291
 40
1.0
 40
1.0
 40
1.0
 40
1.0
 10
69.81186792783558
 20
517.4818378367724
 30
0.0
 10
74.19957718905556
 20
517.4818378367724
 30
0.0
 10
78.58738853325644
 20
517.4818378367724
 30
0.0
 10
78.58738853325644
 20
517.4818378367724
 30
0.0
  0
SPLINE
  5
11A4
100
AcDbEntity
  8
ALPHA
100
AcDbSpline
210
0.0
220
0.0
230
1.0
 70
     8
 71
     3
 72
     8
 73
     4
 74
     0
 42
0.0000001
 43
0.0000001
 40
1.0
 40
1.0
 40
1.0
 40
1.0
 40
2.0
 40
2.0
 40
2.0
 40
2.0
 10
78.58738853325644
 20
517.4818378367724
 30
0.0
 10
80.28753475823203
 20
517.4818378367724
 30
0.0
 10
81.94793340935508
 20
515.8124397349658
 30
0.0
 10
81.94793340935508
 20
514.9612416911424
 30
0.0
  0
SPLINE
  5
11A5
100
AcDbEntity
  8
ALPHA
100
AcDbSpline
210
-1.0
220
0.0
230
0.0
 70
    24
 71
     3
 72
     8
 73
     4
 74
     0
 42
0.0000001
 43
0.0000001
 40
2.0
 40
2.0
 40
2.0
 40
2.0
 40
3.0
 40
3.0
 40
3.0
 40
3.0
 10
81.94793340935508
 20
514.9612416911424
 30
0.0
 10
81.94793340935508
 20
514.9612416911424
 30
0.0
 10
81.94793340935508
 20
514.2645342173875
 30
0.0
 10
81.94793340935508
 20
514.2645342173875
 30
0.0
  0
SPLINE
  5
11A6
100
AcDbEntity
  8
ALPHA
100
AcDbSpline
210
0.0
220
0.0
230
1.0
 70
     8
 71
     3
 72
     8
 73
     4
 74
     0
 42
0.0000001
 43
0.0000001
 40
3.0
 40
3.0
 40
3.0
 40
3.0
 40
4.0
 40
4.0
 40
4.0
 40
4.0
 10
81.94793340935508
 20
514.2645342173875
 30
0.0
 10
81.94793340935508
 20
513.411836265117
 30
0.0
 10
80.28753475823203
 20
512.4413954997364
 30
0.0
 10
78.58738853325644
 20
512.4413954997364
 30
0.0
  0
SPLINE
  5
11A7
100
AcDbEntity
  8
ALPHA
100
AcDbSpline
210
0.0
220
1.0
230
0.0
 70
    24
 71
     3
 72
     8
 73
     4
 74
     0
 42
0.0000001
 43
0.0000001
 40
4.0
 40
4.0
 40
4.0
 40
4.0
 40
4.500011632562675
 40
4.500011632562675
 40
4.500011632562675
 40
4.500011632562675
 10
78.58738853325644
 20
512.4413954997364
 30
0.0
 10
78.58738853325644
 20
512.4413954997364
 30
0.0
 10
74.1995771890555
 20
512.4413954997364
 30
0.0
 10
69.81186792783546
 20
512.4413954997364
 30
0.0
  0
SPLINE
  5
11A8
100
AcDbEntity
  8
ALPHA
100
AcDbSpline
210
0.0
220
1.0
230
0.0
 70
    24
 71
     3
 72
     8
 73
     4
 74
     0
 42
0.0000001
 43
0.0000001
 40
0.4863163700872894
 40
0.4863163700872894
 40
0.4863163700872894
 40
0.4863163700872894
 40
1.0
 40
1.0
 40
1.0
 40
1.0
 10
69.81186792785365
 20
499.1709555125537
 30
0.0
 10
74.69785438862942
 20
499.1709555125537
 30
0.0
 10
79.72131931938918
 20
499.1709555125537
 30
0.0
 10
79.72131931938918
 20
499.1709555125537
 30
0.0
  0
SPLINE
  5
11A9
100
AcDbEntity
  8
ALPHA
100
AcDbSpline
210
0.0
220
0.0
230
1.0
 70
     8
 71
     3
 72
    11
 73
     7
 74
     0
 42
0.0000001
 43
0.0000001
 40
1.0
 40
1.0
 40
1.0
 40
1.0
 40
2.0
 40
2.0
 40
2.0
 40
3.0
 40
3.0
 40
3.0
 40
3.0
 10
79.72131931938918
 20
499.1709555125537
 30
0.0
 10
81.61345382561478
 20
499.1709555125537
 30
0.0
 10
83.14636025872028
 20
498.0205257335009
 30
0.0
 10
83.14636025872028
 20
496.6016123423874
 30
0.0
 10
83.14636025872028
 20
495.184948813945
 30
0.0
 10
81.61345382561478
 20
494.0315192179978
 30
0.0
 10
79.72131931938918
 20
494.0315192179978
 30
0.0
  0
SPLINE
  5
11AA
100
AcDbEntity
  8
ALPHA
100
AcDbSpline
210
0.0
220
1.0
230
0.0
 70
    24
 71
     3
 72
     8
 73
     4
 74
     0
 42
0.0000001
 43
0.0000001
 40
3.0
 40
3.0
 40
3.0
 40
3.0
 40
3.513683629912713
 40
3.513683629912713
 40
3.513683629912713
 40
3.513683629912713
 10
79.72131931938918
 20
494.0315192179978
 30
0.0
 10
79.72131931938918
 20
494.0315192179978
 30
0.0
 10
74.69785438862936
 20
494.0315192179978
 30
0.0
 10
69.81186792785365
 20
494.0315192179978
 30
0.0
  0
SPLINE
  5
11AB
100
AcDbEntity
  8
ALPHA
100
AcDbSpline
210
0.0
220
1.0
230
0.0
 70
    24
 71
     3
 72
     8
 73
     4
 74
     0
 42
0.0000001
 43
0.0000001
 40
0.4993281948299152
 40
0.4993281948299152
 40
0.4993281948299152
 40
0.4993281948299152
 40
1.0
 40
1.0
 40
1.0
 40
1.0
 10
69.81186792783546
 20
442.4099201426806
 30
0.0
 10
76.1291355132405
 20
442.4099201426806
 30
0.0
 10
82.45490246453078
 20
442.4099201426806
 30
0.0
 10
82.45490246453078
 20
442.4099201426806
 30
0.0
  0
SPLINE
  5
11AC
100
AcDbEntity
  8
ALPHA
100
AcDbSpline
210
0.0
220
0.0
230
1.0
 70
     8
 71
     3
 72
    11
 73
     7
 74
     0
 42
0.0000001
 43
0.0000001
 40
1.0
 40
1.0
 40
1.0
 40
1.0
 40
2.0
 40
2.0
 40
2.0
 40
3.0
 40
3.0
 40
3.0
 40
3.0
 10
82.45490246453078
 20
442.4099201426806
 30
0.0
 10
85.70520406975544
 20
442.4099201426806
 30
0.0
 10
88.34204312004846
 20
440.8267667765919
 30
0.0
 10
88.34204312004846
 20
438.87763574937
 30
0.0
 10
88.34204312004846
 20
436.9285047221483
 30
0.0
 10
85.70520406975544
 20
435.3431014933885
 30
0.0
 10
82.45490246453078
 20
435.3431014933885
 30
0.0
  0
SPLINE
  5
11AD
100
AcDbEntity
  8
ALPHA
100
AcDbSpline
210
0.0
220
1.0
230
0.0
 70
    24
 71
     3
 72
     8
 73
     4
 74
     0
 42
0.0000001
 43
0.0000001
 40
3.0
 40
3.0
 40
3.0
 40
3.0
 40
3.500671805170084
 40
3.500671805170084
 40
3.500671805170084
 40
3.500671805170084
 10
82.45490246453078
 20
435.3431014933885
 30
0.0
 10
82.45490246453078
 20
435.3431014933885
 30
0.0
 10
76.1291355132405
 20
435.3431014933885
 30
0.0
 10
69.81186792783546
 20
435.3431014933885
 30
0.0
  0
SPLINE
  5
11AE
100
AcDbEntity
  8
ALPHA
100
AcDbSpline
210
0.0
220
1.0
230
0.0
 70
    24
 71
     3
 72
     8
 73
     4
 74
     0
 42
0.0000001
 43
0.0000001
 40
0.4877964700763983
 40
0.4877964700763983
 40
0.4877964700763983
 40
0.4877964700763983
 40
1.0
 40
1.0
 40
1.0
 40
1.0
 10
69.81186792784393
 20
480.7018328471485
 30
0.0
 10
74.89240546552093
 20
480.7018328471485
 30
0.0
 10
80.10004620232383
 20
480.7018328471485
 30
0.0
 10
80.10004620232383
 20
480.7018328471485
 30
0.0
  0
SPLINE
  5
11AF
100
AcDbEntity
  8
ALPHA
100
AcDbSpline
210
0.0
220
0.0
230
1.0
 70
     8
 71
     3
 72
    11
 73
     7
 74
     0
 42
0.0000001
 43
0.0000001
 40
1.0
 40
1.0
 40
1.0
 40
1.0
 40
2.0
 40
2.0
 40
2.0
 40
3.0
 40
3.0
 40
3.0
 40
3.0
 10
80.10004620232383
 20
480.7018328471485
 30
0.0
 10
82.19991802849568
 20
480.7018328471485
 30
0.0
 10
83.90606388726036
 20
478.8404464640918
 30
0.0
 10
83.90606388726036
 20
477.5790234599412
 30
0.0
 10
83.90606388726036
 20
476.3198503184617
 30
0.0
 10
82.19991802849568
 20
475.2954128489793
 30
0.0
 10
80.10004620232383
 20
475.2954128489793
 30
0.0
  0
SPLINE
  5
11B0
100
AcDbEntity
  8
ALPHA
100
AcDbSpline
210
0.0
220
1.0
230
0.0
 70
    24
 71
     3
 72
     8
 73
     4
 74
     0
 42
0.0000001
 43
0.0000001
 40
3.0
 40
3.0
 40
3.0
 40
3.0
 40
3.512203529923598
 40
3.512203529923598
 40
3.512203529923598
 40
3.512203529923598
 10
80.10004620232383
 20
475.2954128489793
 30
0.0
 10
80.10004620232383
 20
475.2954128489793
 30
0.0
 10
74.892405465521
 20
475.2954128489793
 30
0.0
 10
69.81186792784405
 20
475.2954128489793
 30
0.0
  0
SPLINE
  5
11B1
100
AcDbEntity
  8
ALPHA
100
AcDbSpline
210
0.0
220
1.0
230
0.0
 70
    24
 71
     3
 72
     8
 73
     4
 74
     0
 42
0.0000001
 43
0.0000001
 40
0.4873881452841748
 40
0.4873881452841748
 40
0.4873881452841748
 40
0.4873881452841748
 40
1.0
 40
1.0
 40
1.0
 40
1.0
 10
69.81186792784797
 20
461.9484775309861
 30
0.0
 10
75.75241869944625
 20
461.9484775309861
 30
0.0
 10
81.84668958916461
 20
461.9484775309861
 30
0.0
 10
81.84668958916461
 20
461.9484775309861
 30
0.0
  0
SPLINE
  5
11B2
100
AcDbEntity
  8
ALPHA
100
AcDbSpline
210
0.0
220
0.0
230
1.0
 70
     8
 71
     3
 72
    11
 73
     7
 74
     0
 42
0.0000001
 43
0.0000001
 40
1.0
 40
1.0
 40
1.0
 40
1.0
 40
2.0
 40
2.0
 40
2.0
 40
3.0
 40
3.0
 40
3.0
 40
3.0
 10
81.84668958916461
 20
461.9484775309861
 30
0.0
 10
84.80150923027782
 20
461.9484775309861
 30
0.0
 10
87.2006127916793
 20
460.5093153758348
 30
0.0
 10
87.2006127916793
 20
458.7349236827196
 30
0.0
 10
87.2006127916793
 20
456.9642817607223
 30
0.0
 10
84.80150923027782
 20
455.5221197886765
 30
0.0
 10
81.84668958916461
 20
455.5221197886765
 30
0.0
  0
SPLINE
  5
11B3
100
AcDbEntity
  8
ALPHA
100
AcDbSpline
210
0.0
220
1.0
230
0.0
 70
    24
 71
     3
 72
     8
 73
     4
 74
     0
 42
0.0000001
 43
0.0000001
 40
3.0
 40
3.0
 40
3.0
 40
3.0
 40
3.512611854715824
 40
3.512611854715824
 40
3.512611854715824
 40
3.512611854715824
 10
81.84668958916461
 20
455.5221197886765
 30
0.0
 10
81.84668958916461
 20
455.5221197886765
 30
0.0
 10
75.75241869944631
 20
455.5221197886765
 30
0.0
 10
69.81186792784803
 20
455.5221197886765
 30
0.0
  0
POLYLINE
  5
11B4
100
AcDbEntity
  8
ALPHA
100
AcDb2dPolyline
 66
     1
 10
0.0
 20
0.0
 30
0.0
 70
     1
  0
VERTEX
  5
11B5
100
AcDbEntity
  8
ALPHA
100
AcDbVertex
100
AcDb2dVertex
 10
59.756107
 20
323.034326
 30
0.0
  0
VERTEX
  5
11B6
100
AcDbEntity
  8
ALPHA
100
AcDbVertex
100
AcDb2dVertex
 10
77.633515
 20
323.034326
 30
0.0
  0
VERTEX
  5
11B7
100
AcDbEntity
  8
ALPHA
100
AcDbVertex
100
AcDb2dVertex
 10
77.633515
 20
300.687193
 30
0.0
  0
VERTEX
  5
11B8
100
AcDbEntity
  8
ALPHA
100
AcDbVertex
100
AcDb2dVertex
 10
59.756107
 20
300.687193
 30
0.0
  0
SEQEND
  5
11B9
100
AcDbEntity
  8
ALPHA
  0
SPLINE
  5
11BA
100
AcDbEntity
  8
ALPHA
100
AcDbSpline
210
0.0
220
0.0
230
1.0
 70
    11
 71
     3
 72
    23
 73
    19
 74
     0
 42
0.0000001
 43
0.0000001
 40
0.0
 40
0.0
 40
0.0
 40
0.0
 40
1.0
 40
1.0
 40
1.0
 40
2.0
 40
2.0
 40
2.0
 40
3.0
 40
3.0
 40
3.0
 40
4.0
 40
4.0
 40
4.0
 40
5.0
 40
5.0
 40
5.0
 40
6.0
 40
6.0
 40
6.0
 40
6.0
 10
67.57662907990584
 20
316.330486671001
 30
0.0
 10
67.57662907990584
 20
316.330486671001
 30
0.0
 10
72.04635625275739
 20
316.330486671001
 30
0.0
 10
72.04635625275739
 20
316.330486671001
 30
0.0
 10
73.89649332245949
 20
316.330486671001
 30
0.0
 10
75.39865163239596
 20
315.329297782451
 30
0.0
 10
75.39865163239596
 20
314.095623084575
 30
0.0
 10
75.39865163239596
 20
312.8626983409229
 30
0.0
 10
73.89649332245949
 20
311.8607594981493
 30
0.0
 10
72.04635625275739
 20
311.8607594981493
 30
0.0
 10
72.04635625275739
 20
311.8607594981493
 30
0.0
 10
67.57662907990584
 20
311.8607594981493
 30
0.0
 10
67.57662907990584
 20
311.8607594981493
 30
0.0
 10
65.72724196442732
 20
311.8607594981493
 30
0.0
 10
64.22508365449073
 20
312.8626983409229
 30
0.0
 10
64.22508365449073
 20
314.095623084575
 30
0.0
 10
64.22508365449073
 20
315.329297782451
 30
0.0
 10
65.72724196442732
 20
316.330486671001
 30
0.0
 10
67.57662907990584
 20
316.330486671001
 30
0.0
  0
LINE
  5
11BB
100
AcDbEntity
  8
ALPHA
100
AcDbLine
 10
73.164538
 20
327.504056
 30
0.0
 11
73.164538
 21
323.034326
 31
0.0
  0
LINE
  5
11BC
100
AcDbEntity
  8
ALPHA
100
AcDbLine
 10
66.459946
 20
323.034326
 30
0.0
 11
66.459946
 21
327.504056
 31
0.0
  0
POLYLINE
  5
11BD
100
AcDbEntity
  8
ALPHA
100
AcDb2dPolyline
 66
     1
 10
0.0
 20
0.0
 30
0.0
 70
     1
  0
VERTEX
  5
11BE
100
AcDbEntity
  8
ALPHA
100
AcDbVertex
100
AcDb2dVertex
 10
64.225084
 20
300.687193
 30
0.0
  0
VERTEX
  5
11BF
100
AcDbEntity
  8
ALPHA
100
AcDbVertex
100
AcDb2dVertex
 10
75.398652
 20
300.687193
 30
0.0
  0
VERTEX
  5
11C0
100
AcDbEntity
  8
ALPHA
100
AcDbVertex
100
AcDb2dVertex
 10
75.398652
 20
77.45961
 30
0.0
  0
VERTEX
  5
11C1
100
AcDbEntity
  8
ALPHA
100
AcDbVertex
100
AcDb2dVertex
 10
64.225084
 20
77.45961
 30
0.0
  0
SEQEND
  5
11C2
100
AcDbEntity
  8
ALPHA
  0
POLYLINE
  5
11C3
100
AcDbEntity
  8
ALPHA
100
AcDb2dPolyline
 66
     1
 10
0.0
 20
0.0
 30
0.0
 70
     1
  0
VERTEX
  5
11C4
100
AcDbEntity
  8
ALPHA
100
AcDbVertex
100
AcDb2dVertex
 10
95.715514
 20
282.370327
 30
0.0
  0
VERTEX
  5
11C5
100
AcDbEntity
  8
ALPHA
100
AcDbVertex
100
AcDb2dVertex
 10
104.654969
 20
282.370327
 30
0.0
  0
VERTEX
  5
11C6
100
AcDbEntity
  8
ALPHA
100
AcDbVertex
100
AcDb2dVertex
 10
104.654969
 20
275.665739
 30
0.0
  0
VERTEX
  5
11C7
100
AcDbEntity
  8
ALPHA
100
AcDbVertex
100
AcDb2dVertex
 10
95.715514
 20
275.665739
 30
0.0
  0
SEQEND
  5
11C8
100
AcDbEntity
  8
ALPHA
  0
SPLINE
  5
11C9
100
AcDbEntity
  8
ALPHA
100
AcDbSpline
210
0.0
220
0.0
230
1.0
 70
     8
 71
     3
 72
    11
 73
     7
 74
     0
 42
0.0000001
 43
0.0000001
 40
0.0
 40
0.0
 40
0.0
 40
0.0
 40
1.0
 40
1.0
 40
1.0
 40
2.0
 40
2.0
 40
2.0
 40
2.0
 10
95.7155147610581
 20
282.3703283915818
 30
0.0
 10
96.94918945893403
 20
282.3703283915818
 30
0.0
 10
97.95037834748393
 20
280.8681700816453
 30
0.0
 10
97.95037834748393
 20
279.0187829661667
 30
0.0
 10
97.95037834748393
 20
277.1686458964648
 30
0.0
 10
96.94918945893403
 20
275.6657376323047
 30
0.0
 10
95.7155147610581
 20
275.6657376323047
 30
0.0
  0
POLYLINE
  5
11CA
100
AcDbEntity
  8
ALPHA
100
AcDb2dPolyline
 66
     1
 10
0.0
 20
0.0
 30
0.0
 70
     1
  0
VERTEX
  5
11CB
100
AcDbEntity
  8
ALPHA
100
AcDbVertex
100
AcDb2dVertex
 10
93.481401
 20
122.191378
 30
0.0
  0
VERTEX
  5
11CC
100
AcDbEntity
  8
ALPHA
100
AcDbVertex
100
AcDb2dVertex
 10
104.654969
 20
122.191378
 30
0.0
  0
VERTEX
  5
11CD
100
AcDbEntity
  8
ALPHA
100
AcDbVertex
100
AcDb2dVertex
 10
104.654969
 20
115.486786
 30
0.0
  0
VERTEX
  5
11CE
100
AcDbEntity
  8
ALPHA
100
AcDbVertex
100
AcDb2dVertex
 10
93.481401
 20
115.486786
 30
0.0
  0
SEQEND
  5
11CF
100
AcDbEntity
  8
ALPHA
  0
SPLINE
  5
11D0
100
AcDbEntity
  8
ALPHA
100
AcDbSpline
210
0.0
220
0.0
230
1.0
 70
     8
 71
     3
 72
    11
 73
     7
 74
     0
 42
0.0000001
 43
0.0000001
 40
0.0
 40
0.0
 40
0.0
 40
0.0
 40
1.0
 40
1.0
 40
1.0
 40
2.0
 40
2.0
 40
2.0
 40
2.0
 10
95.7155147610581
 20
122.1913782573046
 30
0.0
 10
96.94918945893403
 20
122.1913782573046
 30
0.0
 10
97.95037834748393
 20
120.6899699015918
 30
0.0
 10
97.95037834748393
 20
118.839082877666
 30
0.0
 10
97.95037834748393
 20
116.9881958537402
 30
0.0
 10
96.94918945893403
 20
115.4867874980273
 30
0.0
 10
95.7155147610581
 20
115.4867874980273
 30
0.0
  0
POLYLINE
  5
11D1
100
AcDbEntity
  8
ALPHA
100
AcDb2dPolyline
 66
     1
 10
0.0
 20
0.0
 30
0.0
 70
     1
  0
VERTEX
  5
11D2
100
AcDbEntity
  8
ALPHA
100
AcDbVertex
100
AcDb2dVertex
 10
95.715514
 20
201.694443
 30
0.0
  0
VERTEX
  5
11D3
100
AcDbEntity
  8
ALPHA
100
AcDbVertex
100
AcDb2dVertex
 10
104.654969
 20
201.694443
 30
0.0
  0
VERTEX
  5
11D4
100
AcDbEntity
  8
ALPHA
100
AcDbVertex
100
AcDb2dVertex
 10
104.654969
 20
194.989855
 30
0.0
  0
VERTEX
  5
11D5
100
AcDbEntity
  8
ALPHA
100
AcDbVertex
100
AcDb2dVertex
 10
95.715514
 20
194.989855
 30
0.0
  0
SEQEND
  5
11D6
100
AcDbEntity
  8
ALPHA
  0
SPLINE
  5
11D7
100
AcDbEntity
  8
ALPHA
100
AcDbSpline
210
0.0
220
0.0
230
1.0
 70
     8
 71
     3
 72
    11
 73
     7
 74
     0
 42
0.0000001
 43
0.0000001
 40
0.0
 40
0.0
 40
0.0
 40
0.0
 40
1.0
 40
1.0
 40
1.0
 40
2.0
 40
2.0
 40
2.0
 40
2.0
 10
95.7155147610581
 20
201.6944443126024
 30
0.0
 10
96.94918945893403
 20
201.6944443126024
 30
0.0
 10
97.95037834748393
 20
200.1922860026658
 30
0.0
 10
97.95037834748393
 20
198.3413989787399
 30
0.0
 10
97.95037834748393
 20
196.4920118632615
 30
0.0
 10
96.94918945893403
 20
194.9898535533251
 30
0.0
 10
95.7155147610581
 20
194.9898535533251
 30
0.0
  0
LINE
  5
11D8
100
AcDbEntity
  8
ALPHA
100
AcDbLine
 10
104.654969
 20
289.513625
 30
0.0
 11
104.654969
 21
86.993025
 31
0.0
  0
SPLINE
  5
11D9
100
AcDbEntity
  8
ALPHA
100
AcDbSpline
210
-1.0
220
0.0
230
0.0
 70
    24
 71
     3
 72
     8
 73
     4
 74
     0
 42
0.0000001
 43
0.0000001
 40
0.0
 40
0.0
 40
0.0
 40
0.0
 40
1.0
 40
1.0
 40
1.0
 40
1.0
 10
39.43849335297704
 20
130.8503497233691
 30
0.0
 10
39.43849335297704
 20
130.8503497233691
 30
0.0
 10
39.43849335297704
 20
249.630437186748
 30
0.0
 10
39.43849335297704
 20
249.630437186748
 30
0.0
  0
SPLINE
  5
11DA
100
AcDbEntity
  8
ALPHA
100
AcDbSpline
210
-0.9925156743184174
220
-0.1221173052120665
230
0.0
 70
    24
 71
     3
 72
     8
 73
     4
 74
     0
 42
0.0000001
 43
0.0000001
 40
1.0
 40
1.0
 40
1.0
 40
1.0
 40
2.0
 40
2.0
 40
2.0
 40
2.0
 10
39.43849335297704
 20
249.630437186748
 30
0.0
 10
39.43849335297704
 20
249.630437186748
 30
0.0
 10
37.2043797207749
 20
267.7883288493456
 30
0.0
 10
37.2043797207749
 20
267.7883288493456
 30
0.0
  0
SPLINE
  5
11DB
100
AcDbEntity
  8
ALPHA
100
AcDbSpline
210
-1.0
220
0.0
230
0.0
 70
    24
 71
     3
 72
     8
 73
     4
 74
     0
 42
0.0000001
 43
0.0000001
 40
2.0
 40
2.0
 40
2.0
 40
2.0
 40
3.0
 40
3.0
 40
3.0
 40
3.0
 10
37.2043797207749
 20
267.7883288493456
 30
0.0
 10
37.2043797207749
 20
267.7883288493456
 30
0.0
 10
37.2043797207749
 20
289.5136235423387
 30
0.0
 10
37.2043797207749
 20
289.5136235423387
 30
0.0
  0
SPLINE
  5
11DC
100
AcDbEntity
  8
ALPHA
100
AcDbSpline
210
0.0
220
0.0
230
-1.0
 70
     8
 71
     3
 72
     8
 73
     4
 74
     0
 42
0.0000001
 43
0.0000001
 40
3.0
 40
3.0
 40
3.0
 40
3.0
 40
4.0
 40
4.0
 40
4.0
 40
4.0
 10
37.2043797207749
 20
289.5136235423387
 30
0.0
 10
37.2043797207749
 20
295.683496940166
 30
0.0
 10
45.20789119538426
 20
300.687191520244
 30
0.0
 10
48.58178850373395
 20
300.687191520244
 30
0.0
  0
SPLINE
  5
11DD
100
AcDbEntity
  8
ALPHA
100
AcDbSpline
210
0.0
220
1.0
230
0.0
 70
    24
 71
     3
 72
     8
 73
     4
 74
     0
 42
0.0000001
 43
0.0000001
 40
4.0
 40
4.0
 40
4.0
 40
4.0
 40
5.0
 40
5.0
 40
5.0
 40
5.0
 10
48.58178850373395
 20
300.687191520244
 30
0.0
 10
48.58178850373395
 20
300.687191520244
 30
0.0
 10
93.27681036957859
 20
300.687191520244
 30
0.0
 10
93.27681036957859
 20
300.687191520244
 30
0.0
  0
SPLINE
  5
11DE
100
AcDbEntity
  8
ALPHA
100
AcDbSpline
210
0.0
220
0.0
230
1.0
 70
     8
 71
     3
 72
     8
 73
     4
 74
     0
 42
0.0000001
 43
0.0000001
 40
5.0
 40
5.0
 40
5.0
 40
5.0
 40
6.0
 40
6.0
 40
6.0
 40
6.0
 10
93.27681036957859
 20
300.687191520244
 30
0.0
 10
96.64995772370458
 20
300.687191520244
 30
0.0
 10
104.6549691067612
 20
295.683496940166
 30
0.0
 10
104.6549691067612
 20
289.5136235423387
 30
0.0
  0
SPLINE
  5
11DF
100
AcDbEntity
  8
ALPHA
100
AcDbSpline
210
-0.9751465147080496
220
-0.2215609957838777
230
0.0
 70
    24
 71
     3
 72
     8
 73
     4
 74
     0
 42
0.0000001
 43
0.0000001
 40
6.0
 40
6.0
 40
6.0
 40
6.0
 40
7.0
 40
7.0
 40
7.0
 40
7.0
 10
104.6549691067612
 20
289.5136235423387
 30
0.0
 10
104.6549691067612
 20
289.5136235423387
 30
0.0
 10
107.1936920681869
 20
278.3400555644334
 30
0.0
 10
107.1936920681869
 20
278.3400555644334
 30
0.0
  0
SPLINE
  5
11E0
100
AcDbEntity
  8
ALPHA
100
AcDbSpline
210
-1.0
220
0.0
230
0.0
 70
    24
 71
     3
 72
     8
 73
     4
 74
     0
 42
0.0000001
 43
0.0000001
 40
7.0
 40
7.0
 40
7.0
 40
7.0
 40
8.0
 40
8.0
 40
8.0
 40
8.0
 10
107.1936920681869
 20
278.3400555644334
 30
0.0
 10
107.1936920681869
 20
278.3400555644334
 30
0.0
 10
107.1936920681869
 20
106.4093415751756
 30
0.0
 10
107.1936920681869
 20
106.4093415751756
 30
0.0
  0
SPLINE
  5
11E1
100
AcDbEntity
  8
ALPHA
100
AcDbSpline
210
-0.9910585699708484
220
0.1334275492068155
230
0.0
 70
    24
 71
     3
 72
     8
 73
     4
 74
     0
 42
0.0000001
 43
0.0000001
 40
8.0
 40
8.0
 40
8.0
 40
8.0
 40
9.0
 40
9.0
 40
9.0
 40
9.0
 10
107.1936920681869
 20
106.4093415751756
 30
0.0
 10
107.1936920681869
 20
106.4093415751756
 30
0.0
 10
104.6549691067612
 20
87.55249257615236
 30
0.0
 10
104.6549691067612
 20
87.55249257615236
 30
0.0
  0
SPLINE
  5
11E2
100
AcDbEntity
  8
ALPHA
100
AcDbSpline
210
0.0
220
0.0
230
1.0
 70
     8
 71
     3
 72
     8
 73
     4
 74
     0
 42
0.0000001
 43
0.0000001
 40
9.0
 40
9.0
 40
9.0
 40
9.0
 40
10.0
 40
10.0
 40
10.0
 40
10.0
 10
104.6549691067612
 20
87.55249257615236
 30
0.0
 10
104.6549691067612
 20
81.99983150437498
 30
0.0
 10
96.64995772370458
 20
77.46110854294926
 30
0.0
 10
93.27681036957859
 20
77.46110854294926
 30
0.0
  0
SPLINE
  5
11E3
100
AcDbEntity
  8
ALPHA
100
AcDbSpline
210
0.0
220
1.0
230
0.0
 70
    24
 71
     3
 72
     8
 73
     4
 74
     0
 42
0.0000001
 43
0.0000001
 40
10.0
 40
10.0
 40
10.0
 40
10.0
 40
11.0
 40
11.0
 40
11.0
 40
11.0
 10
93.27681036957859
 20
77.46110854294926
 30
0.0
 10
93.27681036957859
 20
77.46110854294926
 30
0.0
 10
48.72053003510598
 20
77.46110854294926
 30
0.0
 10
48.72053003510598
 20
77.46110854294926
 30
0.0
  0
SPLINE
  5
11E4
100
AcDbEntity
  8
ALPHA
100
AcDbSpline
210
0.0
220
0.0
230
-1.0
 70
     8
 71
     3
 72
     8
 73
     4
 74
     0
 42
0.0000001
 43
0.0000001
 40
11.0
 40
11.0
 40
11.0
 40
11.0
 40
12.0
 40
12.0
 40
12.0
 40
12.0
 10
48.72053003510598
 20
77.46110854294926
 30
0.0
 10
45.34738268097998
 20
77.46110854294926
 30
0.0
 10
37.62210422333839
 20
81.30237407639645
 30
0.0
 10
37.62210422333839
 20
86.85503514817373
 30
0.0
  0
SPLINE
  5
11E5
100
AcDbEntity
  8
ALPHA
100
AcDbSpline
210
-0.9745199881058011
220
-0.2243006749483139
230
0.0
 70
    24
 71
     3
 72
     8
 73
     4
 74
     0
 42
0.0000001
 43
0.0000001
 40
12.0
 40
12.0
 40
12.0
 40
12.0
 40
13.0
 40
13.0
 40
13.0
 40
13.0
 10
37.62210422333839
 20
86.85503514817373
 30
0.0
 10
37.62210422333839
 20
86.85503514817373
 30
0.0
 10
37.2043797207749
 20
88.66992436936522
 30
0.0
 10
37.2043797207749
 20
88.66992436936522
 30
0.0
  0
SPLINE
  5
11E6
100
AcDbEntity
  8
ALPHA
100
AcDbSpline
210
-1.0
220
0.0
230
0.0
 70
    24
 71
     3
 72
     8
 73
     4
 74
     0
 42
0.0000001
 43
0.0000001
 40
13.0
 40
13.0
 40
13.0
 40
13.0
 40
14.0
 40
14.0
 40
14.0
 40
14.0
 10
37.2043797207749
 20
88.66992436936522
 30
0.0
 10
37.2043797207749
 20
88.66992436936522
 30
0.0
 10
37.2043797207749
 20
113.2534238200487
 30
0.0
 10
37.2043797207749
 20
113.2534238200487
 30
0.0
  0
SPLINE
  5
11E7
100
AcDbEntity
  8
ALPHA
100
AcDbSpline
210
-0.9920366642711849
220
0.1259494213631029
230
0.0
 70
    24
 71
     3
 72
     8
 73
     4
 74
     0
 42
0.0000001
 43
0.0000001
 40
14.0
 40
14.0
 40
14.0
 40
14.0
 40
15.0
 40
15.0
 40
15.0
 40
15.0
 10
37.2043797207749
 20
113.2534238200487
 30
0.0
 10
37.2043797207749
 20
113.2534238200487
 30
0.0
 10
39.43849335297704
 20
130.8503497233691
 30
0.0
 10
39.43849335297704
 20
130.8503497233691
 30
0.0
  0
SPLINE
  5
11E8
100
AcDbEntity
  8
ALPHA
100
AcDbSpline
210
0.0
220
0.0
230
1.0
 70
     8
 71
     3
 72
    26
 73
    22
 74
     0
 42
0.0000001
 43
0.0000001
 40
0.0
 40
0.0
 40
0.0
 40
0.0
 40
1.0
 40
1.0
 40
1.0
 40
2.0
 40
2.0
 40
2.0
 40
3.0
 40
3.0
 40
3.0
 40
4.0
 40
4.0
 40
4.0
 40
5.0
 40
5.0
 40
5.0
 40
6.0
 40
6.0
 40
6.0
 40
7.0
 40
7.0
 40
7.0
 40
7.0
 10
48.86152142914898
 20
300.8266830058396
 30
0.0
 10
48.86152142914898
 20
303.9142445445358
 30
0.0
 10
46.24268128022317
 20
307.3917822795213
 30
0.0
 10
44.39179425629737
 20
307.3917822795213
 30
0.0
 10
44.39179425629737
 20
307.3917822795213
 30
0.0
 10
44.11281128510597
 20
307.3917822795213
 30
0.0
 10
44.11281128510597
 20
307.3917822795213
 30
0.0
 10
39.17586263093119
 20
307.3917822795213
 30
0.0
 10
35.17335693940287
 20
311.8945074382128
 30
0.0
 10
35.17335693940287
 20
317.4486684184374
 30
0.0
 10
35.17335693940287
 20
323.0013294902149
 30
0.0
 10
39.17586263093119
 20
327.5040546489062
 30
0.0
 10
44.11281128510597
 20
327.5040546489062
 30
0.0
 10
44.11281128510597
 20
327.5040546489062
 30
0.0
 10
88.80708319672704
 20
327.5040546489062
 30
0.0
 10
88.80708319672704
 20
327.5040546489062
 30
0.0
 10
91.27743240937354
 20
327.5040546489062
 30
0.0
 10
93.27681036957859
 20
326.0018963389696
 30
0.0
 10
93.27681036957859
 20
324.1532591777144
 30
0.0
 10
93.27681036957859
 20
324.1532591777144
 30
0.0
 10
93.27681036957859
 20
300.687191520244
 30
0.0
 10
93.27681036957859
 20
300.687191520244
 30
0.0
  0
CIRCLE
  5
11E9
100
AcDbEntity
  8
ALPHA
100
AcDbCircle
 10
44.112435
 20
318.56535
 30
0.0
 40
4.469351
  0
POLYLINE
  5
11EA
100
AcDbEntity
  8
ALPHA
100
AcDb2dPolyline
 66
     1
 10
0.0
 20
0.0
 30
0.0
  0
VERTEX
  5
11EB
100
AcDbEntity
  8
ALPHA
100
AcDbVertex
100
AcDb2dVertex
 10
79.546436
 20
499.170956
 30
0.0
  0
VERTEX
  5
11EC
100
AcDbEntity
  8
ALPHA
100
AcDbVertex
100
AcDb2dVertex
 10
79.126169
 20
512.472974
 30
0.0
  0
SEQEND
  5
11ED
100
AcDbEntity
  8
ALPHA
  0
POLYLINE
  5
11EE
100
AcDbEntity
  8
ALPHA
100
AcDb2dPolyline
 66
     1
 10
0.0
 20
0.0
 30
0.0
  0
VERTEX
  5
11EF
100
AcDbEntity
  8
ALPHA
100
AcDbVertex
100
AcDb2dVertex
 10
80.810968
 20
480.630913
 30
0.0
  0
VERTEX
  5
11F0
100
AcDbEntity
  8
ALPHA
100
AcDbVertex
100
AcDb2dVertex
 10
80.810255
 20
480.658333
 30
0.0
  0
VERTEX
  5
11F1
100
AcDbEntity
  8
ALPHA
100
AcDbVertex
100
AcDb2dVertex
 10
79.829612
 20
494.032782
 30
0.0
  0
SEQEND
  5
11F2
100
AcDbEntity
  8
ALPHA
  0
POLYLINE
  5
11F3
100
AcDbEntity
  8
ALPHA
100
AcDb2dPolyline
 66
     1
 10
0.0
 20
0.0
 30
0.0
  0
VERTEX
  5
11F4
100
AcDbEntity
  8
ALPHA
100
AcDbVertex
100
AcDb2dVertex
 10
82.348469
 20
461.934528
 30
0.0
  0
VERTEX
  5
11F5
100
AcDbEntity
  8
ALPHA
100
AcDbVertex
100
AcDb2dVertex
 10
82.342409
 20
462.081971
 30
0.0
  0
VERTEX
  5
11F6
100
AcDbEntity
  8
ALPHA
100
AcDbVertex
100
AcDb2dVertex
 10
80.948242
 20
475.352409
 30
0.0
  0
VERTEX
  5
11F7
100
AcDbEntity
  8
ALPHA
100
AcDbVertex
100
AcDb2dVertex
 10
80.94824
 20
475.35252
 30
0.0
  0
SEQEND
  5
11F8
100
AcDbEntity
  8
ALPHA
  0
POLYLINE
  5
11F9
100
AcDbEntity
  8
ALPHA
100
AcDb2dPolyline
 66
     1
 10
0.0
 20
0.0
 30
0.0
  0
VERTEX
  5
11FA
100
AcDbEntity
  8
ALPHA
100
AcDbVertex
100
AcDb2dVertex
 10
83.721731
 20
442.327815
 30
0.0
  0
VERTEX
  5
11FB
100
AcDbEntity
  8
ALPHA
100
AcDbVertex
100
AcDb2dVertex
 10
82.623644
 20
455.239386
 30
0.0
  0
VERTEX
  5
11FC
100
AcDbEntity
  8
ALPHA
100
AcDbVertex
100
AcDb2dVertex
 10
82.610684
 20
455.554701
 30
0.0
  0
SEQEND
  5
11FD
100
AcDbEntity
  8
ALPHA
  0
POLYLINE
  5
11FE
100
AcDbEntity
  8
ALPHA
100
AcDb2dPolyline
 66
     1
 10
0.0
 20
0.0
 30
0.0
  0
VERTEX
  5
11FF
100
AcDbEntity
  8
ALPHA
100
AcDbVertex
100
AcDb2dVertex
 10
87.134686
 20
327.514553
 30
0.0
  0
VERTEX
  5
1200
100
AcDbEntity
  8
ALPHA
100
AcDbVertex
100
AcDb2dVertex
 10
84.020057
 20
435.265108
 30
0.0
  0
VERTEX
  5
1201
100
AcDbEntity
  8
ALPHA
100
AcDbVertex
100
AcDb2dVertex
 10
84.011753
 20
435.468274
 30
0.0
  0
SEQEND
  5
1202
100
AcDbEntity
  8
ALPHA
  0
DIMENSION
  5
1203
100
AcDbEntity
  8
COTATION1
100
AcDbDimension
  2
*D2
 10
107.193692
 20
52.485107
 30
0.0
 11
72.199036
 21
55.735107
 31
0.0
 70
    32
  3
SC_DEFAUT
100
AcDbAlignedDimension
 13
37.20438
 23
88.669924
 33
0.0
 14
107.193692
 24
106.409342
 34
0.0
100
AcDbRotatedDimension
  0
LEADER
  5
1204
100
AcDbEntity
  8
COTATION1
100
AcDbLeader
  3
SC_DEFAUT
 73
     0
 74
     0
 40
2.5
 41
15.0
 76
     2
 10
87.200613
 20
458.735549
 30
0.0
 10
108.863102
 20
454.194794
 30
0.0
 77
   256
213
0.0
223
-0.09
233
0.0
1001
ACAD
1000
DSTYLE
1002
{
1070
     5
1000
OPEN30
1002
}
1000
LEANOF
1010
0.0
1020
-0.09
1030
0.0
  0
LEADER
  5
1205
100
AcDbEntity
  8
COTATION1
100
AcDbLeader
  3
SC_DEFAUT
 73
     0
 74
     0
 40
2.5
 41
10.119048
 76
     2
 10
81.947933
 20
514.264534
 30
0.0
 10
108.863102
 20
508.883502
 30
0.0
 77
   256
213
0.0
223
-0.09
233
0.0
1001
ACAD
1000
DSTYLE
1002
{
1070
     5
1000
OPEN30
1002
}
1000
LEANOF
1010
0.0
1020
-0.09
1030
0.0
  0
MTEXT
  5
1206
102
{ACAD_REACTORS
330
1205
102
}
100
AcDbEntity
  8
COTATION1
100
AcDbMText
 10
110.863102
 20
513.473502
 30
0.0
 40
2.5
 41
0.0
 71
     1
 72
     1
  1
Ø8...10
  7
ROMANS
1001
ACAD
1000
MTEXTBEGIN
1070
    73
1070
     1
1070
    44
1040
1.0
1070
    74
1070
     0
1000
MTEXTEND
  0
LEADER
  5
1207
100
AcDbEntity
  8
COTATION1
100
AcDbLeader
  3
SC_DEFAUT
 73
     0
 74
     0
 40
2.5
 41
11.904762
 76
     2
 10
83.14636
 20
496.601635
 30
0.0
 10
108.863102
 20
490.965031
 30
0.0
 77
   256
213
0.0
223
-0.09
233
0.0
1001
ACAD
1000
DSTYLE
1002
{
1070
     5
1000
OPEN30
1002
}
1000
LEANOF
1010
0.0
1020
-0.09
1030
0.0
  0
MTEXT
  5
1208
102
{ACAD_REACTORS
330
1207
102
}
100
AcDbEntity
  8
COTATION1
100
AcDbMText
 10
110.863102
 20
495.555031
 30
0.0
 40
2.5
 41
0.0
 71
     1
 72
     1
  1
Ø11...14
  7
ROMANS
1001
ACAD
1000
MTEXTBEGIN
1070
    73
1070
     1
1070
    44
1040
1.0
1070
    74
1070
     0
1000
MTEXTEND
  0
LEADER
  5
1209
100
AcDbEntity
  8
COTATION1
100
AcDbLeader
  3
SC_DEFAUT
 73
     0
 74
     0
 40
2.5
 41
15.0
 76
     2
 10
83.886061
 20
477.82406
 30
0.0
 10
108.863102
 20
471.509148
 30
0.0
 77
   256
213
0.0
223
-0.09
233
0.0
1001
ACAD
1000
DSTYLE
1002
{
1070
     5
1000
OPEN30
1002
}
1000
LEANOF
1010
0.0
1020
-0.09
1030
0.0
  0
MTEXT
  5
120A
102
{ACAD_REACTORS
330
1209
102
}
100
AcDbEntity
  8
COTATION1
100
AcDbMText
 10
110.863102
 20
476.099148
 30
0.0
 40
2.5
 41
0.0
 71
     1
 72
     1
  1
Ø15...17
  7
ROMANS
1001
ACAD
1000
MTEXTBEGIN
1070
    73
1070
     1
1070
    44
1040
1.0
1070
    74
1070
     0
1000
MTEXTEND
  0
MTEXT
  5
120B
102
{ACAD_REACTORS
330
1204
102
}
100
AcDbEntity
  8
COTATION1
100
AcDbMText
 10
110.863102
 20
458.784794
 30
0.0
 40
2.5
 41
0.0
 71
     1
 72
     1
  1
Ø18...21
  7
ROMANS
1001
ACAD
1000
MTEXTBEGIN
1070
    73
1070
     1
1070
    44
1040
1.0
1070
    74
1070
     0
1000
MTEXTEND
  0
LEADER
  5
120C
100
AcDbEntity
  8
COTATION1
100
AcDbLeader
  3
SC_DEFAUT
 73
     0
 74
     0
 40
2.5
 41
15.0
 76
     2
 10
88.342043
 20
438.876958
 30
0.0
 10
108.863102
 20
435.37121
 30
0.0
 77
   256
213
0.0
223
-0.09
233
0.0
1001
ACAD
1000
DSTYLE
1002
{
1070
     5
1000
OPEN30
1002
}
1000
LEANOF
1010
0.0
1020
-0.09
1030
0.0
  0
MTEXT
  5
120D
102
{ACAD_REACTORS
330
120C
102
}
100
AcDbEntity
  8
COTATION1
100
AcDbMText
 10
110.863102
 20
439.96121
 30
0.0
 40
2.5
 41
0.0
 71
     1
 72
     1
  1
Ø22...26
  7
ROMANS
1001
ACAD
1000
MTEXTBEGIN
1070
    73
1070
     1
1070
    44
1040
1.0
1070
    74
1070
     0
1000
MTEXTEND
  0
LINE
  5
120E
100
AcDbEntity
  8
AXE
100
AcDbLine
 10
69.811868
 20
62.478511
 30
0.0
 11
69.811868
 21
527.478241
 31
0.0
  0
TEXT
  5
120F
100
AcDbEntity
  8
AXE
100
AcDbText
 10
62.335677
 20
62.478511
 30
0.0
 40
8.0
  1
Y
  7
ROMANS
 72
     2
 11
68.811868
 21
62.478511
 31
0.0
100
AcDbText
  0
LINE
  5
1210
100
AcDbEntity
  8
AXE
100
AcDbLine
 10
29.438493
 20
252.850192
 30
0.0
 11
122.193692
 21
252.850192
 31
0.0
  0
TEXT
  5
1211
100
AcDbEntity
  8
AXE
100
AcDbText
 10
115.717502
 20
253.850192
 30
0.0
 40
8.0
  1
Z
  7
ROMANS
 72
     2
 11
122.193692
 21
253.850192
 31
0.0
100
AcDbText
  0
SPLINE
  5
1212
100
AcDbEntity
  8
ALPHA
100
AcDbSpline
210
0.0
220
1.0
230
0.0
 70
    24
 71
     3
 72
     8
 73
     4
 74
     0
 42
0.0000001
 43
0.0000001
 40
0.4999883674373291
 40
0.4999883674373291
 40
0.4999883674373291
 40
0.4999883674373291
 40
1.0
 40
1.0
 40
1.0
 40
1.0
 10
69.81186792783541
 20
517.4818378367724
 30
0.0
 10
65.42415866661542
 20
517.4818378367724
 30
0.0
 10
61.03634732241454
 20
517.4818378367724
 30
0.0
 10
61.03634732241454
 20
517.4818378367724
 30
0.0
  0
SPLINE
  5
1213
100
AcDbEntity
  8
ALPHA
100
AcDbSpline
210
0.0
220
0.0
230
1.0
 70
     8
 71
     3
 72
     8
 73
     4
 74
     0
 42
0.0000001
 43
0.0000001
 40
1.0
 40
1.0
 40
1.0
 40
1.0
 40
2.0
 40
2.0
 40
2.0
 40
2.0
 10
61.03634732241454
 20
517.4818378367724
 30
0.0
 10
59.33620109743896
 20
517.4818378367724
 30
0.0
 10
57.67580244631592
 20
515.8124397349658
 30
0.0
 10
57.67580244631597
 20
514.9612416911424
 30
0.0
  0
SPLINE
  5
1214
100
AcDbEntity
  8
ALPHA
100
AcDbSpline
210
-1.0
220
0.0
230
0.0
 70
    24
 71
     3
 72
     8
 73
     4
 74
     0
 42
0.0000001
 43
0.0000001
 40
2.0
 40
2.0
 40
2.0
 40
2.0
 40
3.0
 40
3.0
 40
3.0
 40
3.0
 10
57.67580244631597
 20
514.9612416911424
 30
0.0
 10
57.67580244631597
 20
514.9612416911424
 30
0.0
 10
57.67580244631597
 20
514.2645342173875
 30
0.0
 10
57.67580244631597
 20
514.2645342173875
 30
0.0
  0
SPLINE
  5
1215
100
AcDbEntity
  8
ALPHA
100
AcDbSpline
210
0.0
220
0.0
230
1.0
 70
     8
 71
     3
 72
     8
 73
     4
 74
     0
 42
0.0000001
 43
0.0000001
 40
3.0
 40
3.0
 40
3.0
 40
3.0
 40
4.0
 40
4.0
 40
4.0
 40
4.0
 10
57.67580244631597
 20
514.2645342173875
 30
0.0
 10
57.67580244631597
 20
513.411836265117
 30
0.0
 10
59.33620109743902
 20
512.4413954997364
 30
0.0
 10
61.03634732241459
 20
512.4413954997364
 30
0.0
  0
SPLINE
  5
1216
100
AcDbEntity
  8
ALPHA
100
AcDbSpline
210
0.0
220
1.0
230
0.0
 70
    24
 71
     3
 72
     8
 73
     4
 74
     0
 42
0.0000001
 43
0.0000001
 40
4.0
 40
4.0
 40
4.0
 40
4.0
 40
4.500011632562675
 40
4.500011632562675
 40
4.500011632562675
 40
4.500011632562675
 10
61.03634732241459
 20
512.4413954997364
 30
0.0
 10
61.03634732241459
 20
512.4413954997364
 30
0.0
 10
65.42415866661554
 20
512.4413954997364
 30
0.0
 10
69.81186792783558
 20
512.4413954997364
 30
0.0
  0
SPLINE
  5
1217
100
AcDbEntity
  8
ALPHA
100
AcDbSpline
210
0.0
220
1.0
230
0.0
 70
    24
 71
     3
 72
     8
 73
     4
 74
     0
 42
0.0000001
 43
0.0000001
 40
0.4863163700872894
 40
0.4863163700872894
 40
0.4863163700872894
 40
0.4863163700872894
 40
1.0
 40
1.0
 40
1.0
 40
1.0
 10
69.81186792781739
 20
499.1709555125537
 30
0.0
 10
64.92588146704162
 20
499.1709555125537
 30
0.0
 10
59.90241653628186
 20
499.1709555125537
 30
0.0
 10
59.90241653628186
 20
499.1709555125537
 30
0.0
  0
SPLINE
  5
1218
100
AcDbEntity
  8
ALPHA
100
AcDbSpline
210
0.0
220
0.0
230
-1.0
 70
     8
 71
     3
 72
    11
 73
     7
 74
     0
 42
0.0000001
 43
0.0000001
 40
1.0
 40
1.0
 40
1.0
 40
1.0
 40
2.0
 40
2.0
 40
2.0
 40
3.0
 40
3.0
 40
3.0
 40
3.0
 10
59.90241653628186
 20
499.1709555125537
 30
0.0
 10
58.01028203005626
 20
499.1709555125537
 30
0.0
 10
56.47737559695077
 20
498.0205257335009
 30
0.0
 10
56.47737559695077
 20
496.6016123423874
 30
0.0
 10
56.47737559695077
 20
495.184948813945
 30
0.0
 10
58.01028203005626
 20
494.0315192179978
 30
0.0
 10
59.90241653628186
 20
494.0315192179978
 30
0.0
  0
SPLINE
  5
1219
100
AcDbEntity
  8
ALPHA
100
AcDbSpline
210
0.0
220
1.0
230
0.0
 70
    24
 71
     3
 72
     8
 73
     4
 74
     0
 42
0.0000001
 43
0.0000001
 40
3.0
 40
3.0
 40
3.0
 40
3.0
 40
3.513683629912713
 40
3.513683629912713
 40
3.513683629912713
 40
3.513683629912713
 10
59.90241653628186
 20
494.0315192179978
 30
0.0
 10
59.90241653628186
 20
494.0315192179978
 30
0.0
 10
64.92588146704168
 20
494.0315192179978
 30
0.0
 10
69.81186792781739
 20
494.0315192179978
 30
0.0
  0
SPLINE
  5
121A
100
AcDbEntity
  8
ALPHA
100
AcDbSpline
210
0.0
220
1.0
230
0.0
 70
    24
 71
     3
 72
     8
 73
     4
 74
     0
 42
0.0000001
 43
0.0000001
 40
0.4993281948299152
 40
0.4993281948299152
 40
0.4993281948299152
 40
0.4993281948299152
 40
1.0
 40
1.0
 40
1.0
 40
1.0
 10
69.81186792783558
 20
442.4099201426806
 30
0.0
 10
63.49460034243055
 20
442.4099201426806
 30
0.0
 10
57.16883339114025
 20
442.4099201426806
 30
0.0
 10
57.16883339114025
 20
442.4099201426806
 30
0.0
  0
SPLINE
  5
121B
100
AcDbEntity
  8
ALPHA
100
AcDbSpline
210
0.0
220
0.0
230
-1.0
 70
     8
 71
     3
 72
    11
 73
     7
 74
     0
 42
0.0000001
 43
0.0000001
 40
1.0
 40
1.0
 40
1.0
 40
1.0
 40
2.0
 40
2.0
 40
2.0
 40
3.0
 40
3.0
 40
3.0
 40
3.0
 10
57.16883339114025
 20
442.4099201426806
 30
0.0
 10
53.9185317859156
 20
442.4099201426806
 30
0.0
 10
51.28169273562258
 20
440.8267667765919
 30
0.0
 10
51.28169273562264
 20
438.87763574937
 30
0.0
 10
51.28169273562264
 20
436.9285047221483
 30
0.0
 10
53.91853178591566
 20
435.3431014933885
 30
0.0
 10
57.16883339114025
 20
435.3431014933885
 30
0.0
  0
SPLINE
  5
121C
100
AcDbEntity
  8
ALPHA
100
AcDbSpline
210
0.0
220
1.0
230
0.0
 70
    24
 71
     3
 72
     8
 73
     4
 74
     0
 42
0.0000001
 43
0.0000001
 40
3.0
 40
3.0
 40
3.0
 40
3.0
 40
3.500671805170084
 40
3.500671805170084
 40
3.500671805170084
 40
3.500671805170084
 10
57.16883339114025
 20
435.3431014933885
 30
0.0
 10
57.16883339114025
 20
435.3431014933885
 30
0.0
 10
63.49460034243055
 20
435.3431014933885
 30
0.0
 10
69.81186792783558
 20
435.3431014933885
 30
0.0
  0
SPLINE
  5
121D
100
AcDbEntity
  8
ALPHA
100
AcDbSpline
210
0.0
220
1.0
230
0.0
 70
    24
 71
     3
 72
     8
 73
     4
 74
     0
 42
0.0000001
 43
0.0000001
 40
0.4877964700763983
 40
0.4877964700763983
 40
0.4877964700763983
 40
0.4877964700763983
 40
1.0
 40
1.0
 40
1.0
 40
1.0
 10
69.81186792782711
 20
480.7018328471485
 30
0.0
 10
64.7313303901501
 20
480.7018328471485
 30
0.0
 10
59.52368965334722
 20
480.7018328471485
 30
0.0
 10
59.52368965334722
 20
480.7018328471485
 30
0.0
  0
SPLINE
  5
121E
100
AcDbEntity
  8
ALPHA
100
AcDbSpline
210
0.0
220
0.0
230
-1.0
 70
     8
 71
     3
 72
    11
 73
     7
 74
     0
 42
0.0000001
 43
0.0000001
 40
1.0
 40
1.0
 40
1.0
 40
1.0
 40
2.0
 40
2.0
 40
2.0
 40
3.0
 40
3.0
 40
3.0
 40
3.0
 10
59.52368965334722
 20
480.7018328471485
 30
0.0
 10
57.42381782717536
 20
480.7018328471485
 30
0.0
 10
55.71767196841069
 20
478.8404464640918
 30
0.0
 10
55.71767196841069
 20
477.5790234599412
 30
0.0
 10
55.71767196841069
 20
476.3198503184617
 30
0.0
 10
57.42381782717536
 20
475.2954128489793
 30
0.0
 10
59.52368965334722
 20
475.2954128489793
 30
0.0
  0
SPLINE
  5
121F
100
AcDbEntity
  8
ALPHA
100
AcDbSpline
210
0.0
220
1.0
230
0.0
 70
    24
 71
     3
 72
     8
 73
     4
 74
     0
 42
0.0000001
 43
0.0000001
 40
3.0
 40
3.0
 40
3.0
 40
3.0
 40
3.512203529923598
 40
3.512203529923598
 40
3.512203529923598
 40
3.512203529923598
 10
59.52368965334722
 20
475.2954128489793
 30
0.0
 10
59.52368965334722
 20
475.2954128489793
 30
0.0
 10
64.73133039015005
 20
475.2954128489793
 30
0.0
 10
69.811867927827
 20
475.2954128489793
 30
0.0
  0
SPLINE
  5
1220
100
AcDbEntity
  8
ALPHA
100
AcDbSpline
210
0.0
220
1.0
230
0.0
 70
    24
 71
     3
 72
     8
 73
     4
 74
     0
 42
0.0000001
 43
0.0000001
 40
0.4873881452841748
 40
0.4873881452841748
 40
0.4873881452841748
 40
0.4873881452841748
 40
1.0
 40
1.0
 40
1.0
 40
1.0
 10
69.81186792782307
 20
461.9484775309861
 30
0.0
 10
63.87131715622479
 20
461.9484775309861
 30
0.0
 10
57.77704626650643
 20
461.9484775309861
 30
0.0
 10
57.77704626650643
 20
461.9484775309861
 30
0.0
  0
SPLINE
  5
1221
100
AcDbEntity
  8
ALPHA
100
AcDbSpline
210
0.0
220
0.0
230
-1.0
 70
     8
 71
     3
 72
    11
 73
     7
 74
     0
 42
0.0000001
 43
0.0000001
 40
1.0
 40
1.0
 40
1.0
 40
1.0
 40
2.0
 40
2.0
 40
2.0
 40
3.0
 40
3.0
 40
3.0
 40
3.0
 10
57.77704626650643
 20
461.9484775309861
 30
0.0
 10
54.82222662539323
 20
461.9484775309861
 30
0.0
 10
52.42312306399174
 20
460.5093153758348
 30
0.0
 10
52.42312306399174
 20
458.7349236827196
 30
0.0
 10
52.42312306399174
 20
456.9642817607223
 30
0.0
 10
54.82222662539323
 20
455.5221197886765
 30
0.0
 10
57.77704626650643
 20
455.5221197886765
 30
0.0
  0
SPLINE
  5
1222
100
AcDbEntity
  8
ALPHA
100
AcDbSpline
210
0.0
220
1.0
230
0.0
 70
    24
 71
     3
 72
     8
 73
     4
 74
     0
 42
0.0000001
 43
0.0000001
 40
3.0
 40
3.0
 40
3.0
 40
3.0
 40
3.512611854715824
 40
3.512611854715824
 40
3.512611854715824
 40
3.512611854715824
 10
57.77704626650643
 20
455.5221197886765
 30
0.0
 10
57.77704626650643
 20
455.5221197886765
 30
0.0
 10
63.87131715622473
 20
455.5221197886765
 30
0.0
 10
69.81186792782302
 20
455.5221197886765
 30
0.0
  0
POLYLINE
  5
1223
100
AcDbEntity
  8
ALPHA
100
AcDb2dPolyline
 66
     1
 10
0.0
 20
0.0
 30
0.0
  0
VERTEX
  5
1224
100
AcDbEntity
  8
ALPHA
100
AcDbVertex
100
AcDb2dVertex
 10
60.077299
 20
499.170956
 30
0.0
  0
VERTEX
  5
1225
100
AcDbEntity
  8
ALPHA
100
AcDbVertex
100
AcDb2dVertex
 10
60.497567
 20
512.472974
 30
0.0
  0
SEQEND
  5
1226
100
AcDbEntity
  8
ALPHA
  0
POLYLINE
  5
1227
100
AcDbEntity
  8
ALPHA
100
AcDb2dPolyline
 66
     1
 10
0.0
 20
0.0
 30
0.0
  0
VERTEX
  5
1228
100
AcDbEntity
  8
ALPHA
100
AcDbVertex
100
AcDb2dVertex
 10
58.812768
 20
480.630913
 30
0.0
  0
VERTEX
  5
1229
100
AcDbEntity
  8
ALPHA
100
AcDbVertex
100
AcDb2dVertex
 10
58.813481
 20
480.658333
 30
0.0
  0
VERTEX
  5
122A
100
AcDbEntity
  8
ALPHA
100
AcDbVertex
100
AcDb2dVertex
 10
59.794124
 20
494.032782
 30
0.0
  0
SEQEND
  5
122B
100
AcDbEntity
  8
ALPHA
  0
POLYLINE
  5
122C
100
AcDbEntity
  8
ALPHA
100
AcDb2dPolyline
 66
     1
 10
0.0
 20
0.0
 30
0.0
  0
VERTEX
  5
122D
100
AcDbEntity
  8
ALPHA
100
AcDbVertex
100
AcDb2dVertex
 10
57.275267
 20
461.934528
 30
0.0
  0
VERTEX
  5
122E
100
AcDbEntity
  8
ALPHA
100
AcDbVertex
100
AcDb2dVertex
 10
57.281327
 20
462.081971
 30
0.0
  0
VERTEX
  5
122F
100
AcDbEntity
  8
ALPHA
100
AcDbVertex
100
AcDb2dVertex
 10
58.675493
 20
475.352409
 30
0.0
  0
VERTEX
  5
1230
100
AcDbEntity
  8
ALPHA
100
AcDbVertex
100
AcDb2dVertex
 10
58.675496
 20
475.35252
 30
0.0
  0
SEQEND
  5
1231
100
AcDbEntity
  8
ALPHA
  0
POLYLINE
  5
1232
100
AcDbEntity
  8
ALPHA
100
AcDb2dPolyline
 66
     1
 10
0.0
 20
0.0
 30
0.0
  0
VERTEX
  5
1233
100
AcDbEntity
  8
ALPHA
100
AcDbVertex
100
AcDb2dVertex
 10
55.902005
 20
442.327815
 30
0.0
  0
VERTEX
  5
1234
100
AcDbEntity
  8
ALPHA
100
AcDbVertex
100
AcDb2dVertex
 10
57.000092
 20
455.239386
 30
0.0
  0
VERTEX
  5
1235
100
AcDbEntity
  8
ALPHA
100
AcDbVertex
100
AcDb2dVertex
 10
57.013052
 20
455.554701
 30
0.0
  0
SEQEND
  5
1236
100
AcDbEntity
  8
ALPHA
  0
POLYLINE
  5
1237
100
AcDbEntity
  8
ALPHA
100
AcDb2dPolyline
 66
     1
 10
0.0
 20
0.0
 30
0.0
  0
VERTEX
  5
1238
100
AcDbEntity
  8
ALPHA
100
AcDbVertex
100
AcDb2dVertex
 10
52.48905
 20
327.514553
 30
0.0
  0
VERTEX
  5
1239
100
AcDbEntity
  8
ALPHA
100
AcDbVertex
100
AcDb2dVertex
 10
55.603679
 20
435.265108
 30
0.0
  0
VERTEX
  5
123A
100
AcDbEntity
  8
ALPHA
100
AcDbVertex
100
AcDb2dVertex
 10
55.611983
 20
435.468274
 30
0.0
  0
SEQEND
  5
123B
100
AcDbEntity
  8
ALPHA
  0
ENDSEC
  0
SECTION
  2
OBJECTS
  0
DICTIONARY
  5
19
102
{ACAD_XDICTIONARY
360
130A
102
}
100
AcDbDictionary
  3
ACAD_COLOR
350
BF
  3
ACAD_GROUP
350
1A
  3
ACAD_LAYOUT
350
1E
  3
ACAD_MATERIAL
350
BE
  3
ACAD_MLINESTYLE
350
1B
  3
ACAD_PLOTSETTINGS
350
22
  3
ACAD_PLOTSTYLENAME
350
1F
  3
ACAD_TABLESTYLE
350
C0
  3
ACAD_WIPEOUT_VARS
350
23
  3
ACDBHEADERROUNDTRIPXREC
350
12E6
  3
ACDBVARIABLEDICTIONARY
350
1D2
  0
DICTIONARY
  5
12DC
100
AcDbDictionary
  3
ACAD_XREC_ROUNDTRIP
360
12DD
  0
DICTIONARY
  5
12DE
100
AcDbDictionary
  3
ACAD_XREC_ROUNDTRIP
360
12DF
  0
DICTIONARY
  5
12E0
100
AcDbDictionary
  3
ACAD_XREC_ROUNDTRIP
360
12E1
  0
DICTIONARY
  5
1312
100
AcDbDictionary
  3
ACAD_XREC_ROUNDTRIP
360
1313
  0
DICTIONARY
  5
12E2
100
AcDbDictionary
  3
ACAD_XREC_ROUNDTRIP
360
12E3
  0
DICTIONARY
  5
12DA
100
AcDbDictionary
  3
ACAD_XREC_ROUNDTRIP
360
12DB
  0
DICTIONARY
  5
1314
100
AcDbDictionary
  3
ACAD_XREC_ROUNDTRIP
360
1315
  0
DICTIONARY
  5
1B0
100
AcDbDictionary
  3
ACAD_LAYOUTSELFREF
360
1307
  3
ACAD_SORTENTS
360
1B1
  0
DICTIONARY
  5
1308
100
AcDbDictionary
  3
ACAD_LAYOUTSELFREF
360
1309
  0
DICTIONARY
  5
130A
100
AcDbDictionary
  3
ACAD_XREC_ROUNDTRIP
360
130B
  0
DICTIONARY
  5
BF
102
{ACAD_REACTORS
330
19
102
}
100
AcDbDictionary
  0
DICTIONARY
  5
1A
102
{ACAD_REACTORS
330
19
102
}
100
AcDbDictionary
  0
DICTIONARY
  5
1E
102
{ACAD_XDICTIONARY
360
130E
102
}
102
{ACAD_REACTORS
330
19
102
}
100
AcDbDictionary
  3
LAYOUT1
350
21
  3
MODEL
350
20
  0
DICTIONARY
  5
BE
102
{ACAD_REACTORS
330
19
102
}
100
AcDbDictionary
  0
DICTIONARY
  5
1B
102
{ACAD_XDICTIONARY
360
130C
102
}
102
{ACAD_REACTORS
330
19
102
}
100
AcDbDictionary
  3
STANDARD
350
1C
  0
DICTIONARY
  5
22
102
{ACAD_REACTORS
330
19
102
}
100
AcDbDictionary
  0
ACAD_ZOMBIE_OBJECT
  5
1F
102
{ACAD_REACTORS
330
19
102
}
100
AcDbZombieObject
 90
      499
 91
      517
 93
       86
310
405010041939BDC9B585B0
350
1D
340
1D
 94
        0
  0
DICTIONARY
  5
C0
102
{ACAD_XDICTIONARY
360
1310
102
}
102
{ACAD_REACTORS
330
19
102
}
100
AcDbDictionary
  3
STANDARD
350
C1
  0
ACAD_ZOMBIE_OBJECT
  5
23
102
{ACAD_REACTORS
330
19
102
}
100
AcDbZombieObject
 90
      499
 91
      525
 93
       10
310
4040
 94
        0
1001
ACAD
1000
AcadProxyRoundTripData
1071
      521
1071
   851991
1070
     0
  0
DICTIONARY
  5
12E6
102
{ACAD_REACTORS
330
19
102
}
100
AcDbDictionary
  3
CEPSNTYPE
350
12F0
  3
DIMSTYLEDATA
350
12F4
  3
FINGERPRINTGUID
350
12F1
  3
HYPERLINKBASE
350
12E9
  3
INSUNITS
350
12EF
  3
LAYOUTDICT
350
12EB
  3
LWETCUNION
350
12EE
  3
PLOTSETDICT
350
12EC
  3
PLOTSTYLNAMDICT
350
12ED
  3
PSVPSCALE
350
12F3
  3
PUCSBASE
350
12F7
  3
PUCSORGBACK
350
12FD
  3
PUCSORGBOTTOM
350
12F9
  3
PUCSORGFRONT
350
12FC
  3
PUCSORGLEFT
350
12FA
  3
PUCSORGRIGHT
350
12FB
  3
PUCSORGTOP
350
12F8
  3
PUCSORTHOREF
350
12F5
  3
PUCSORTHOVIEW
350
12F6
  3
STYLESHEET
350
12EA
  3
TSTACKALIGN
350
12E7
  3
TSTACKSIZE
350
12E8
  3
UCSBASE
350
1300
  3
UCSORGBACK
350
1306
  3
UCSORGBOTTOM
350
1302
  3
UCSORGFRONT
350
1305
  3
UCSORGLEFT
350
1303
  3
UCSORGRIGHT
350
1304
  3
UCSORGTOP
350
1301
  3
UCSORTHOREF
350
12FE
  3
UCSORTHOVIEW
350
12FF
  3
VERSIONGUID
350
12F2
  0
DICTIONARY
  5
1D2
102
{ACAD_REACTORS
330
19
102
}
100
AcDbDictionary
  3
CTABLESTYLE
350
1D3
  3
DIMASSOC
350
1D4
  3
PROJECTNAME
350
1D5
  0
XRECORD
  5
12DD
102
{ACAD_REACTORS
330
12DC
102
}
100
AcDbXrecord
102
EXTNAMES
  1
BYBLOCK
  2
ByBlock
  0
XRECORD
  5
12DF
102
{ACAD_REACTORS
330
12DE
102
}
100
AcDbXrecord
102
EXTNAMES
  1
BYLAYER
  2
ByLayer
  0
XRECORD
  5
12E1
102
{ACAD_REACTORS
330
12E0
102
}
100
AcDbXrecord
102
EXTNAMES
  1
CONTINUOUS
  2
Continuous
  0
XRECORD
  5
1313
102
{ACAD_REACTORS
330
1312
102
}
100
AcDbXrecord
102
PLOTBIT
280
     0
  0
XRECORD
  5
12E3
102
{ACAD_REACTORS
330
12E2
102
}
100
AcDbXrecord
102
EXTNAMES
  1
STANDARD
  2
Standard
  0
XRECORD
  5
12DB
102
{ACAD_REACTORS
330
12DA
102
}
100
AcDbXrecord
102
EXTNAMES
  1
STANDARD
  2
Standard
  0
XRECORD
  5
1315
102
{ACAD_REACTORS
330
1314
102
}
100
AcDbXrecord
102
ACADR14ROUNDTRIP
1000
DSTYLE
1002
{
1070
   279
 70
     2
1070
   341
340
CF
1070
   342
340
CF
1002
}
  0
XRECORD
  5
1307
102
{ACAD_REACTORS
330
1B0
102
}
100
AcDbXrecord
340
A
  0
SORTENTSTABLE
  5
1B1
102
{ACAD_REACTORS
330
1B0
102
}
100
AcDbSortentsTable
330
A
  0
XRECORD
  5
1309
102
{ACAD_REACTORS
330
1308
102
}
100
AcDbXrecord
340
B
  0
XRECORD
  5
130B
102
{ACAD_REACTORS
330
130A
102
}
100
AcDbXrecord
102
EXTNAMES
  1
ACDBVARIABLEDICTIONARY
  2
AcDbVariableDictionary
  0
DICTIONARY
  5
130E
100
AcDbDictionary
  3
ACAD_XREC_ROUNDTRIP
360
130F
  0
ACAD_ZOMBIE_OBJECT
  5
21
102
{ACAD_XDICTIONARY
360
12D3
102
}
102
{ACAD_REACTORS
330
1E
102
}
100
AcDbZombieObject
 90
      499
 91
      515
 93
      812
310
AAAAAAAAAA5A69074C61796F757431406A800000000000000000000000000000000000000000000A1000000000000008902A6A6A10232D5E076BC5510408CB5781DAF154410232D5E076BC5510408CB5781DAF15C410232D5E076BC5710408CB5781DAF15C45
330
B
330
0
340
0
340
0
 94
        0
  0
ACAD_ZOMBIE_OBJECT
  5
20
102
{ACAD_XDICTIONARY
360
12D1
102
}
102
{ACAD_REACTORS
330
1E
102
}
100
AcDbZombieObject
 90
      499
 91
      515
 93
      420
310
A00012AAAAAAAA5A69054D6F64656CAA80000000000000000000000000000000000000000000000000000000000000002AAAAAAAA0
330
A
330
0
340
0
340
0
 94
        0
  0
DICTIONARY
  5
130C
100
AcDbDictionary
  3
ACAD_XREC_ROUNDTRIP
360
130D
  0
MLINESTYLE
  5
1C
102
{ACAD_REACTORS
330
1B
102
}
100
AcDbMlineStyle
  2
STANDARD
 70
     0
  3

 62
     0
 51
90.0
 52
90.0
 71
     2
 49
0.5
 62
   256
  6
BYLAYER
 49
-0.5
 62
   256
  6
BYLAYER
  0
ACAD_ZOMBIE_OBJECT
  5
1D
102
{ACAD_REACTORS
330
1F
102
}
100
AcDbZombieObject
 90
      499
 91
      518
 93
        0
 94
        0
  0
DICTIONARY
  5
1310
100
AcDbDictionary
  3
ACAD_XREC_ROUNDTRIP
360
1311
  0
ACAD_ZOMBIE_OBJECT
  5
C1
102
{ACAD_REACTORS
330
C0
102
}
100
AcDbZombieObject
 90
      499
 91
      525
 93
     1841
310
4214DD185B99185C9928000000000000F83F0000000000003E0FC00000000000004901028000000C1008070000C3001FDFF8000000C1003FBFF000000182007F7FE00000030400FEFFC00000060801FDFF8000000C1003FBFF000000182000000000000000C2020B0000001820100E000186003FBFF000000182007F7FE000
310
00030400FEFFC00000060801FDFF8000000C1003FBFF000000182007F7FE0000003040000000000000012404160000003040201C00030C007F7FE00000030400FEFFC00000060801FDFF8000000C1003FBFF000000182007F7FE00000030400FEFFC00000060807F
340
17
340
17
340
17
 94
        0
1001
ACAD
1000
AcadProxyRoundTripData
1071
      524
1071
   851991
1070
     0
  0
XRECORD
  5
12F0
102
{ACAD_REACTORS
330
12E6
102
}
100
AcDbXrecord
 90
        0
  0
XRECORD
  5
12F4
102
{ACAD_REACTORS
330
12E6
102
}
100
AcDbXrecord
1000
DSTYLE
1002
{
1070
   278
 70
     0
1070
   371
 70
     0
1070
   372
 70
     0
1002
}
  0
XRECORD
  5
12F1
102
{ACAD_REACTORS
330
12E6
102
}
100
AcDbXrecord
  1

  0
XRECORD
  5
12E9
102
{ACAD_REACTORS
330
12E6
102
}
100
AcDbXrecord
  1

  0
XRECORD
  5
12EF
102
{ACAD_REACTORS
330
12E6
102
}
100
AcDbXrecord
 90
        0
  0
XRECORD
  5
12EB
102
{ACAD_REACTORS
330
12E6
102
}
100
AcDbXrecord
340
1E
  0
XRECORD
  5
12EE
102
{ACAD_REACTORS
330
12E6
102
}
100
AcDbXrecord
 90
    10752
  0
XRECORD
  5
12EC
102
{ACAD_REACTORS
330
12E6
102
}
100
AcDbXrecord
340
22
  0
XRECORD
  5
12ED
102
{ACAD_REACTORS
330
12E6
102
}
100
AcDbXrecord
340
1F
  0
XRECORD
  5
12F3
102
{ACAD_REACTORS
330
12E6
102
}
100
AcDbXrecord
 40
0.0
  0
XRECORD
  5
12F7
102
{ACAD_REACTORS
330
12E6
102
}
100
AcDbXrecord
340
0
  0
XRECORD
  5
12FD
102
{ACAD_REACTORS
330
12E6
102
}
100
AcDbXrecord
 10
0.0
 20
0.0
 30
0.0
  0
XRECORD
  5
12F9
102
{ACAD_REACTORS
330
12E6
102
}
100
AcDbXrecord
 10
0.0
 20
0.0
 30
0.0
  0
XRECORD
  5
12FC
102
{ACAD_REACTORS
330
12E6
102
}
100
AcDbXrecord
 10
0.0
 20
0.0
 30
0.0
  0
XRECORD
  5
12FA
102
{ACAD_REACTORS
330
12E6
102
}
100
AcDbXrecord
 10
0.0
 20
0.0
 30
0.0
  0
XRECORD
  5
12FB
102
{ACAD_REACTORS
330
12E6
102
}
100
AcDbXrecord
 10
0.0
 20
0.0
 30
0.0
  0
XRECORD
  5
12F8
102
{ACAD_REACTORS
330
12E6
102
}
100
AcDbXrecord
 10
0.0
 20
0.0
 30
0.0
  0
XRECORD
  5
12F5
102
{ACAD_REACTORS
330
12E6
102
}
100
AcDbXrecord
340
0
  0
XRECORD
  5
12F6
102
{ACAD_REACTORS
330
12E6
102
}
100
AcDbXrecord
 70
     0
  0
XRECORD
  5
12EA
102
{ACAD_REACTORS
330
12E6
102
}
100
AcDbXrecord
  1

  0
XRECORD
  5
12E7
102
{ACAD_REACTORS
330
12E6
102
}
100
AcDbXrecord
 90
        1
  0
XRECORD
  5
12E8
102
{ACAD_REACTORS
330
12E6
102
}
100
AcDbXrecord
 90
       70
  0
XRECORD
  5
1300
102
{ACAD_REACTORS
330
12E6
102
}
100
AcDbXrecord
340
0
  0
XRECORD
  5
1306
102
{ACAD_REACTORS
330
12E6
102
}
100
AcDbXrecord
 10
0.0
 20
0.0
 30
0.0
  0
XRECORD
  5
1302
102
{ACAD_REACTORS
330
12E6
102
}
100
AcDbXrecord
 10
0.0
 20
0.0
 30
0.0
  0
XRECORD
  5
1305
102
{ACAD_REACTORS
330
12E6
102
}
100
AcDbXrecord
 10
0.0
 20
0.0
 30
0.0
  0
XRECORD
  5
1303
102
{ACAD_REACTORS
330
12E6
102
}
100
AcDbXrecord
 10
0.0
 20
0.0
 30
0.0
  0
XRECORD
  5
1304
102
{ACAD_REACTORS
330
12E6
102
}
100
AcDbXrecord
 10
0.0
 20
0.0
 30
0.0
  0
XRECORD
  5
1301
102
{ACAD_REACTORS
330
12E6
102
}
100
AcDbXrecord
 10
0.0
 20
0.0
 30
0.0
  0
XRECORD
  5
12FE
102
{ACAD_REACTORS
330
12E6
102
}
100
AcDbXrecord
340
0
  0
XRECORD
  5
12FF
102
{ACAD_REACTORS
330
12E6
102
}
100
AcDbXrecord
 70
     0
  0
XRECORD
  5
12F2
102
{ACAD_REACTORS
330
12E6
102
}
100
AcDbXrecord
  1
{0521ACA4-9A7C-4EE7-A447-C50567DFC7EC}
  0
DICTIONARYVAR
  5
1D3
102
{ACAD_REACTORS
330
1D2
102
}
100
DictionaryVariables
280
     0
  1
STANDARD
  0
DICTIONARYVAR
  5
1D4
102
{ACAD_REACTORS
330
1D2
102
}
100
DictionaryVariables
280
     0
  1
1
  0
DICTIONARYVAR
  5
1D5
102
{ACAD_REACTORS
330
1D2
102
}
100
DictionaryVariables
280
     0
  1

  0
XRECORD
  5
130F
102
{ACAD_REACTORS
330
130E
102
}
100
AcDbXrecord
102
EXTNAMES
  1
LAYOUT1
  2
Layout1
  1
MODEL
  2
Model
  0
DICTIONARY
  5
12D3
100
AcDbDictionary
  3
ACAD_XREC_ROUNDTRIP
360
12D4
  0
DICTIONARY
  5
12D1
100
AcDbDictionary
  3
ACAD_XREC_ROUNDTRIP
360
12D2
  0
XRECORD
  5
130D
102
{ACAD_REACTORS
330
130C
102
}
100
AcDbXrecord
102
EXTNAMES
  1
STANDARD
  2
Standard
  0
XRECORD
  5
1311
102
{ACAD_REACTORS
330
1310
102
}
100
AcDbXrecord
102
EXTNAMES
  1
STANDARD
  2
Standard
  0
XRECORD
  5
12D4
102
{ACAD_REACTORS
330
12D3
102
}
100
AcDbXrecord
102
SHADEPLOT
 70
     0
102
SHADEPLOTRESLEVEL
 70
     2
102
SHADEPLOTCUSTOMDPI
 70
   300
  0
XRECORD
  5
12D2
102
{ACAD_REACTORS
330
12D1
102
}
100
AcDbXrecord
102
SHADEPLOT
 70
     0
102
SHADEPLOTRESLEVEL
 70
     2
102
SHADEPLOTCUSTOMDPI
 70
   300
  0
ENDSEC
  0
EOF
