  0
SECTION
  2
HEADER
  9
$ACADVER
  1
AC1014
  9
$ACADMAINTVER
 70
     0
  9
$DWGCODEPAGE
  3
ANSI_1252
  9
$INSBASE
 10
93.894301
 20
236.06014
 30
0.0
  9
$EXTMIN
 10
8.255413
 20
105.809388
 30
0.0
  9
$EXTMAX
 10
60.355413
 20
133.861472
 30
0.0
  9
$LIMMIN
 10
0.0
 20
0.0
  9
$LIMMAX
 10
210.0
 20
297.0
  9
$ORTHOMODE
 70
     0
  9
$REGENMODE
 70
     1
  9
$FILLMODE
 70
     1
  9
$QTEXTMODE
 70
     0
  9
$MIRRTEXT
 70
     0
  9
$DRAGMODE
 70
     1
  9
$LTSCALE
 40
7.0
  9
$OSMODE
 70
  4095
  9
$ATTMODE
 70
     1
  9
$TEXTSIZE
 40
2.5
  9
$TRACEWID
 40
0.05
  9
$TEXTSTYLE
  7
STANDARD
  9
$CLAYER
  8
COTATION1
  9
$CELTYPE
  6
BYLAYER
  9
$CECOLOR
 62
   256
  9
$CELTSCALE
 40
1.0
  9
$DELOBJ
 70
     1
  9
$DISPSILH
 70
     0
  9
$DIMSCALE
 40
1.0
  9
$DIMASZ
 40
3.0
  9
$DIMEXO
 40
0.0625
  9
$DIMDLI
 40
0.38
  9
$DIMRND
 40
0.01
  9
$DIMDLE
 40
0.0
  9
$DIMEXE
 40
0.18
  9
$DIMTP
 40
0.0
  9
$DIMTM
 40
0.0
  9
$DIMTXT
 40
2.5
  9
$DIMCEN
 40
0.09
  9
$DIMTSZ
 40
0.0
  9
$DIMTOL
 70
     0
  9
$DIMLIM
 70
     0
  9
$DIMTIH
 70
     0
  9
$DIMTOH
 70
     0
  9
$DIMSE1
 70
     0
  9
$DIMSE2
 70
     0
  9
$DIMTAD
 70
     1
  9
$DIMZIN
 70
    12
  9
$DIMBLK
  1

  9
$DIMASO
 70
     1
  9
$DIMSHO
 70
     0
  9
$DIMPOST
  1

  9
$DIMAPOST
  1

  9
$DIMALT
 70
     0
  9
$DIMALTD
 70
     2
  9
$DIMALTF
 40
25.4
  9
$DIMLFAC
 40
1.0
  9
$DIMTOFL
 70
     1
  9
$DIMTVP
 40
0.0
  9
$DIMTIX
 70
     0
  9
$DIMSOXD
 70
     0
  9
$DIMSAH
 70
     0
  9
$DIMBLK1
  1

  9
$DIMBLK2
  1

  9
$DIMSTYLE
  2
SC_STAND
  9
$DIMCLRD
 70
     0
  9
$DIMCLRE
 70
     0
  9
$DIMCLRT
 70
     0
  9
$DIMTFAC
 40
1.0
  9
$DIMGAP
 40
1.0
  9
$DIMJUST
 70
     0
  9
$DIMSD1
 70
     0
  9
$DIMSD2
 70
     0
  9
$DIMTOLJ
 70
     1
  9
$DIMTZIN
 70
    12
  9
$DIMALTZ
 70
    12
  9
$DIMALTTZ
 70
    12
  9
$DIMFIT
 70
     5
  9
$DIMUPT
 70
     0
  9
$DIMUNIT
 70
     2
  9
$DIMDEC
 70
     3
  9
$DIMTDEC
 70
     3
  9
$DIMALTU
 70
     2
  9
$DIMALTTD
 70
     2
  9
$DIMTXSTY
  7
STANDARD
  9
$DIMAUNIT
 70
     0
  9
$LUNITS
 70
     2
  9
$LUPREC
 70
     3
  9
$SKETCHINC
 40
0.1
  9
$FILLETRAD
 40
0.0625
  9
$AUNITS
 70
     0
  9
$AUPREC
 70
     0
  9
$MENU
  1
ACAD
  9
$ELEVATION
 40
0.0
  9
$PELEVATION
 40
0.0
  9
$THICKNESS
 40
0.0
  9
$LIMCHECK
 70
     0
  9
$BLIPMODE
 70
     1
  9
$CHAMFERA
 40
0.0
  9
$CHAMFERB
 40
0.0
  9
$CHAMFERC
 40
0.0
  9
$CHAMFERD
 40
0.0
  9
$SKPOLY
 70
     0
  9
$TDCREATE
 40
2450953.590960648
  9
$TDUPDATE
 40
2453104.404289641
  9
$TDINDWG
 40
0.0044246296
  9
$TDUSRTIMER
 40
0.0044246296
  9
$USRTIMER
 70
     1
  9
$ANGBASE
 50
0.0
  9
$ANGDIR
 70
     0
  9
$PDMODE
 70
     0
  9
$PDSIZE
 40
0.0
  9
$PLINEWID
 40
0.0
  9
$COORDS
 70
     0
  9
$SPLFRAME
 70
     0
  9
$SPLINETYPE
 70
     6
  9
$SPLINESEGS
 70
     8
  9
$ATTDIA
 70
     0
  9
$ATTREQ
 70
     1
  9
$HANDLING
 70
     1
  9
$HANDSEED
  5
860
  9
$SURFTAB1
 70
     6
  9
$SURFTAB2
 70
     6
  9
$SURFTYPE
 70
     6
  9
$SURFU
 70
     6
  9
$SURFV
 70
     6
  9
$UCSNAME
  2

  9
$UCSORG
 10
0.0
 20
0.0
 30
0.0
  9
$UCSXDIR
 10
1.0
 20
0.0
 30
0.0
  9
$UCSYDIR
 10
0.0
 20
1.0
 30
0.0
  9
$PUCSNAME
  2

  9
$PUCSORG
 10
0.0
 20
0.0
 30
0.0
  9
$PUCSXDIR
 10
1.0
 20
0.0
 30
0.0
  9
$PUCSYDIR
 10
0.0
 20
1.0
 30
0.0
  9
$USERI1
 70
     0
  9
$USERI2
 70
     0
  9
$USERI3
 70
     0
  9
$USERI4
 70
     0
  9
$USERI5
 70
     0
  9
$USERR1
 40
0.0
  9
$USERR2
 40
0.0
  9
$USERR3
 40
0.0
  9
$USERR4
 40
0.0
  9
$USERR5
 40
0.0
  9
$WORLDVIEW
 70
     1
  9
$SHADEDGE
 70
     3
  9
$SHADEDIF
 70
    70
  9
$TILEMODE
 70
     1
  9
$MAXACTVP
 70
    32
  9
$PINSBASE
 10
0.0
 20
0.0
 30
0.0
  9
$PLIMCHECK
 70
     0
  9
$PEXTMIN
 10
-3.174999
 20
-3.175
 30
0.0
  9
$PEXTMAX
 10
203.812116
 20
370.276807
 30
0.0
  9
$PLIMMIN
 10
-3.175
 20
-3.175
  9
$PLIMMAX
 10
203.812115
 20
370.276807
  9
$UNITMODE
 70
     0
  9
$VISRETAIN
 70
     0
  9
$PLINEGEN
 70
     0
  9
$PSLTSCALE
 70
     1
  9
$TREEDEPTH
 70
  3020
  9
$PICKSTYLE
 70
     1
  9
$CMLSTYLE
  2
STANDARD
  9
$CMLJUST
 70
     0
  9
$CMLSCALE
 40
1.0
  9
$PROXYGRAPHICS
 70
     1
  9
$MEASUREMENT
 70
     0
  0
ENDSEC
  0
SECTION
  2
CLASSES
  0
CLASS
  1
DICTIONARYVAR
  2
AcDbDictionaryVar
  3
"AutoCAD"
 90
        0
280
     0
281
     0
  0
CLASS
  1
HATCH
  2
AcDbHatch
  3
"ACAD_SEDONA"
 90
        0
280
     0
281
     1
  0
ENDSEC
  0
SECTION
  2
TABLES
  0
TABLE
  2
VPORT
  5
F4
100
AcDbSymbolTable
 70
     1
  0
VPORT
  5
85C
100
AcDbSymbolTableRecord
100
AcDbViewportTableRecord
  2
*ACTIVE
 70
     0
 10
0.0
 20
0.0
 11
1.0
 21
1.0
 12
34.104323
 22
117.342535
 13
0.0
 23
0.0
 14
1.0
 24
1.0
 15
10.0
 25
10.0
 16
0.0
 26
0.0
 36
1.0
 17
0.0
 27
0.0
 37
0.0
 40
38.984624
 41
1.446134
 42
50.0
 43
0.0
 44
0.0
 50
0.0
 51
0.0
 71
     0
 72
   100
 73
     1
 74
     1
 75
     0
 76
     1
 77
     0
 78
     0
  0
ENDTAB
  0
TABLE
  2
LTYPE
  5
F1
100
AcDbSymbolTable
 70
     8
  0
LTYPE
  5
FD
100
AcDbSymbolTableRecord
100
AcDbLinetypeTableRecord
  2
BYBLOCK
 70
     0
  3

 72
    65
 73
     0
 40
0.0
  0
LTYPE
  5
FE
100
AcDbSymbolTableRecord
100
AcDbLinetypeTableRecord
  2
BYLAYER
 70
     0
  3

 72
    65
 73
     0
 40
0.0
  0
LTYPE
  5
FF
100
AcDbSymbolTableRecord
100
AcDbLinetypeTableRecord
  2
CONTINUOUS
 70
     0
  3
Solid line
 72
    65
 73
     0
 40
0.0
  0
LTYPE
  5
110
100
AcDbSymbolTableRecord
100
AcDbLinetypeTableRecord
  2
CACHE
 70
     0
  3
__ __ __ __ __ __ __ __ __ __ __ __ __ __ __ __
 72
    65
 73
     2
 40
0.375
 49
0.25
 74
     0
 49
-0.125
 74
     0
  0
LTYPE
  5
112
100
AcDbSymbolTableRecord
100
AcDbLinetypeTableRecord
  2
AXES2
 70
     0
  3
___ _ ___ _ ___ _ ___ _ ___ _ ___ _ ___ _ ___ _
 72
    65
 73
     4
 40
1.125
 49
0.75
 74
     0
 49
-0.125
 74
     0
 49
0.125
 74
     0
 49
-0.125
 74
     0
  0
LTYPE
  5
120
100
AcDbSymbolTableRecord
100
AcDbLinetypeTableRecord
  2
CACHE2
 70
     0
  3
_ _ _ _ _ _ _ _ _ _ _ _ _ _ _ _ _ _ _ _ _ _ _ _
 72
    65
 73
     2
 40
0.1875
 49
0.125
 74
     0
 49
-0.0625
 74
     0
  0
LTYPE
  5
121
100
AcDbSymbolTableRecord
100
AcDbLinetypeTableRecord
  2
CACHEX2
 70
     0
  3
____ ____ ____ ____ ____ ____ ____ ____ ____ __
 72
    65
 73
     2
 40
0.75
 49
0.5
 74
     0
 49
-0.25
 74
     0
  0
LTYPE
  5
59D
100
AcDbSymbolTableRecord
100
AcDbLinetypeTableRecord
  2
SOLID
 70
     0
  3
Solid
 72
    65
 73
     0
 40
0.0
  0
LTYPE
  5
59E
100
AcDbSymbolTableRecord
100
AcDbLinetypeTableRecord
  2
CENTERLINE
 70
     0
  3
Centerline
 72
    65
 73
     4
 40
25.4
 49
19.05
 74
     0
 49
-1.5875
 74
     0
 49
3.175
 74
     0
 49
-1.5875
 74
     0
  0
LTYPE
  5
59F
100
AcDbSymbolTableRecord
100
AcDbLinetypeTableRecord
  2
GAP
 70
     0
  3
Gap
 72
    65
 73
     3
 40
2541.524
 49
0.0
 74
     0
 49
-1.524
 74
     0
 49
2540.0
 74
     0
  0
ENDTAB
  0
TABLE
  2
LAYER
  5
EE
100
AcDbSymbolTable
 70
     9
  0
LAYER
  5
FA
100
AcDbSymbolTableRecord
100
AcDbLayerTableRecord
  2
0
 70
     0
 62
     7
  6
CONTINUOUS
  0
LAYER
  5
12C
100
AcDbSymbolTableRecord
100
AcDbLayerTableRecord
  2
ALPHA
 70
     0
 62
   255
  6
CONTINUOUS
  0
LAYER
  5
12D
100
AcDbSymbolTableRecord
100
AcDbLayerTableRecord
  2
AXE
 70
     0
 62
    80
  6
AXES2
  0
LAYER
  5
12F
100
AcDbSymbolTableRecord
100
AcDbLayerTableRecord
  2
COTATION1
 70
     0
 62
     2
  6
CONTINUOUS
  0
LAYER
  5
13B
100
AcDbSymbolTableRecord
100
AcDbLayerTableRecord
  2
ASHADE
 70
     0
 62
     7
  6
CONTINUOUS
  0
LAYER
  5
13E
100
AcDbSymbolTableRecord
100
AcDbLayerTableRecord
  2
DEFPOINTS
 70
     0
 62
     7
  6
CONTINUOUS
  0
LAYER
  5
5A0
100
AcDbSymbolTableRecord
100
AcDbLayerTableRecord
  2
LAYER1$C$L1$V_TOP
 70
     0
 62
     4
  6
SOLID
  0
LAYER
  5
5A1
100
AcDbSymbolTableRecord
100
AcDbLayerTableRecord
  2
LAYER7$C$L7$V_TOP
 70
     0
 62
     7
  6
SOLID
  0
LAYER
  5
5A2
100
AcDbSymbolTableRecord
100
AcDbLayerTableRecord
  2
LAYER9$C$L9$V_TOP
 70
     0
 62
   253
  6
SOLID
  0
ENDTAB
  0
TABLE
  2
STYLE
  5
EF
100
AcDbSymbolTable
 70
     2
  0
STYLE
  5
FB
100
AcDbSymbolTableRecord
100
AcDbTextStyleTableRecord
  2
STANDARD
 70
     0
 40
0.0
 41
1.0
 50
0.0
 71
     0
 42
2.5
  3
txt
  4

  0
STYLE
  5
386
100
AcDbSymbolTableRecord
100
AcDbTextStyleTableRecord
  2
STD
 70
     0
 40
0.0
 41
1.0
 50
0.0
 71
     0
 42
0.0
  3
txt
  4

  0
ENDTAB
  0
TABLE
  2
VIEW
  5
F2
100
AcDbSymbolTable
 70
     0
  0
ENDTAB
  0
TABLE
  2
UCS
  5
F3
100
AcDbSymbolTable
 70
     0
  0
ENDTAB
  0
TABLE
  2
APPID
  5
F5
100
AcDbSymbolTable
 70
     3
  0
APPID
  5
FC
100
AcDbSymbolTableRecord
100
AcDbRegAppTableRecord
  2
ACAD
 70
     0
  0
APPID
  5
127
100
AcDbSymbolTableRecord
100
AcDbRegAppTableRecord
  2
AVE_RENDER
 70
     0
  0
APPID
  5
128
100
AcDbSymbolTableRecord
100
AcDbRegAppTableRecord
  2
AVE_MATERIAL
 70
     0
  0
ENDTAB
  0
TABLE
  2
DIMSTYLE
  5
F6
100
AcDbSymbolTable
 70
     2
  0
DIMSTYLE
105
129
100
AcDbSymbolTableRecord
100
AcDbDimStyleTableRecord
  2
STANDARD
 70
     0
  3

  4

  5

  6

  7

 40
1.0
 41
0.18
 42
0.0625
 43
0.38
 44
0.18
 45
0.0
 46
0.0
 47
0.0
 48
0.0
140
0.18
141
0.09
142
0.0
143
25.4
144
1.0
145
0.0
146
1.0
147
0.09
 71
     0
 72
     0
 73
     1
 74
     1
 75
     0
 76
     0
 77
     0
 78
     0
170
     0
171
     2
172
     0
173
     0
174
     0
175
     0
176
     0
177
     0
178
     0
270
     2
271
     3
272
     3
273
     2
274
     2
340
FB
275
     0
280
     0
281
     0
282
     0
283
     1
284
    12
285
    12
286
    12
287
     5
288
     0
  0
DIMSTYLE
105
12A
102
{ACAD_REACTORS
330
835
102
}
100
AcDbSymbolTableRecord
100
AcDbDimStyleTableRecord
  2
SC_STAND
 70
     0
  3

  4

  5

  6

  7

 40
1.0
 41
3.0
 42
0.0625
 43
0.38
 44
0.18
 45
0.01
 46
0.0
 47
0.0
 48
0.0
140
2.5
141
0.09
142
0.0
143
25.4
144
1.0
145
0.0
146
1.0
147
1.0
 71
     0
 72
     0
 73
     0
 74
     0
 75
     0
 76
     0
 77
     1
 78
    12
170
     0
171
     2
172
     1
173
     0
174
     0
175
     0
176
     0
177
     0
178
     0
270
     2
271
     3
272
     3
273
     2
274
     2
340
FB
275
     0
280
     0
281
     0
282
     0
283
     1
284
    12
285
    12
286
    12
287
     5
288
     0
  0
ENDTAB
  0
TABLE
  2
BLOCK_RECORD
  5
ED
100
AcDbSymbolTable
 70
    12
  0
BLOCK_RECORD
  5
103
100
AcDbSymbolTableRecord
100
AcDbBlockTableRecord
  2
*MODEL_SPACE
  0
BLOCK_RECORD
  5
100
100
AcDbSymbolTableRecord
100
AcDbBlockTableRecord
  2
*PAPER_SPACE
  0
BLOCK_RECORD
  5
108
100
AcDbSymbolTableRecord
100
AcDbBlockTableRecord
  2
AVE_RENDER
  0
BLOCK_RECORD
  5
109
100
AcDbSymbolTableRecord
100
AcDbBlockTableRecord
  2
AVE_GLOBAL
  0
BLOCK_RECORD
  5
10A
100
AcDbSymbolTableRecord
100
AcDbBlockTableRecord
  2
SCH_IS
  0
BLOCK_RECORD
  5
14D
100
AcDbSymbolTableRecord
100
AcDbBlockTableRecord
  2
AI9-BLK1
  0
BLOCK_RECORD
  5
37A
100
AcDbSymbolTableRecord
100
AcDbBlockTableRecord
  2
AI9-BLK7
  0
BLOCK_RECORD
  5
37E
100
AcDbSymbolTableRecord
100
AcDbBlockTableRecord
  2
AI9-BLK8
  0
BLOCK_RECORD
  5
382
100
AcDbSymbolTableRecord
100
AcDbBlockTableRecord
  2
AI9-BLK9
  0
BLOCK_RECORD
  5
7D5
100
AcDbSymbolTableRecord
100
AcDbBlockTableRecord
  2
*D9
  0
BLOCK_RECORD
  5
7E4
100
AcDbSymbolTableRecord
100
AcDbBlockTableRecord
  2
*D10
  0
BLOCK_RECORD
  5
829
100
AcDbSymbolTableRecord
100
AcDbBlockTableRecord
  2
*D11
  0
ENDTAB
  0
ENDSEC
  0
SECTION
  2
BLOCKS
  0
BLOCK
  5
141
100
AcDbEntity
  8
0
100
AcDbBlockBegin
  2
*MODEL_SPACE
 70
     0
 10
0.0
 20
0.0
 30
0.0
  3
*MODEL_SPACE
  1

  0
ENDBLK
  5
142
100
AcDbEntity
  8
0
100
AcDbBlockEnd
  0
BLOCK
  5
13F
100
AcDbEntity
 67
     1
  8
0
100
AcDbBlockBegin
  2
*PAPER_SPACE
 70
     0
 10
0.0
 20
0.0
 30
0.0
  3
*PAPER_SPACE
  1

  0
ENDBLK
  5
140
100
AcDbEntity
 67
     1
  8
0
100
AcDbBlockEnd
  0
BLOCK
  5
8D
100
AcDbEntity
  8
0
100
AcDbBlockBegin
  2
AVE_RENDER
 70
     0
 10
0.0
 20
0.0
 30
0.0
  3
AVE_RENDER
  1
AVE_RENDER
  0
ENDBLK
  5
8E
100
AcDbEntity
  8
0
100
AcDbBlockEnd
  0
BLOCK
  5
90
100
AcDbEntity
  8
0
100
AcDbBlockBegin
  2
AVE_GLOBAL
 70
     0
 10
0.0
 20
0.0
 30
0.0
  3
AVE_GLOBAL
  1
AVE_GLOBAL
  0
ENDBLK
  5
91
100
AcDbEntity
  8
0
100
AcDbBlockEnd
  0
BLOCK
  5
C9
100
AcDbEntity
  8
0
100
AcDbBlockBegin
  2
SCH_IS
 70
     0
 10
0.0
 20
0.0
 30
0.0
  3
SCH_IS
  1

  0
INSERT
  5
C0
100
AcDbEntity
  8
ASHADE
 62
     1
100
AcDbBlockReference
  2
AVE_RENDER
 10
0.0
 20
0.0
 30
0.0
1001
AVE_RENDER
1002
{
1070
     6
1000
Pref
1070
    50
1070
    20
1070
     1
1070
     0
1000

1070
    10
1070
     1
1070
    30
1040
25.4
1070
     1
1040
0.3
1040
0.7
1040
0.0
1040
10.0
1010
-1.0
1020
-1.0
1030
-1.0
1040
0.3
1070
    49
1070
     0
1070
     0
1010
1.0
1020
1.0
1030
1.0
1040
45.0
1070
     1
1070
     0
1000
WCS
1040
0.0
1002
}
  0
INSERT
  5
C1
100
AcDbEntity
  8
ASHADE
 62
     3
100
AcDbBlockReference
  2
AVE_RENDER
 10
0.0
 20
0.0
 30
0.0
1001
AVE_RENDER
1002
{
1070
     0
1000
Full Opt
1070
     0
1070
     1
1070
     1
1070
     1
1070
     0
1070
     0
1070
     0
1070
     1
1070
     1
1040
0.0001
1040
0.0001
1002
}
  0
INSERT
  5
C2
100
AcDbEntity
  8
ASHADE
 62
     4
100
AcDbBlockReference
  2
AVE_RENDER
 10
0.0
 20
0.0
 30
0.0
1001
AVE_RENDER
1002
{
1070
     0
1000
Quick Opt
1070
     0
1070
     1
1070
     1
1070
     1
1070
     0
1070
     0
1070
     1
1002
}
  0
INSERT
  5
C3
100
AcDbEntity
  8
ASHADE
 62
     5
100
AcDbBlockReference
  2
AVE_RENDER
 10
0.0
 20
0.0
 30
0.0
1001
AVE_RENDER
1002
{
1070
     1
1000
Scanl Opt
1070
     2
1070
     0
1070
     2
1040
2.0
1040
4.0
1070
     0
1070
     1
1070
     0
1040
0.03
1002
}
  0
INSERT
  5
C4
100
AcDbEntity
  8
ASHADE
 62
     6
100
AcDbBlockReference
  2
AVE_RENDER
 10
0.0
 20
0.0
 30
0.0
1001
AVE_RENDER
1002
{
1070
     2
1000
Raytr Opt
1070
     2
1070
     0
1070
     2
1040
2.0
1040
4.0
1070
     0
1070
     1
1070
     1
1040
0.03
1070
     3
1040
0.03
1002
}
  0
INSERT
  5
C5
100
AcDbEntity
  8
ASHADE
 62
     7
100
AcDbBlockReference
  2
AVE_RENDER
 10
0.0
 20
0.0
 30
0.0
1001
AVE_RENDER
1002
{
1070
     0
1000
RFile Opt
1070
     5
1070
   640
1070
   480
1070
 10000
1070
     3
1070
    32
1070
    24
1070
     0
1070
     0
1070
     0
1070
     1
1070
     0
1070
     0
1070
     0
1002
}
  0
INSERT
  5
C6
100
AcDbEntity
  8
ASHADE
 62
     8
100
AcDbBlockReference
  2
AVE_RENDER
 10
0.0
 20
0.0
 30
0.0
1001
AVE_RENDER
1002
{
1070
     0
1000
Fog Opt
1070
     0
1070
     0
1040
0.0
1040
1.0
1040
0.0
1040
1.0
1010
0.5
1020
0.5
1030
0.5
1002
}
  0
INSERT
  5
C7
100
AcDbEntity
  8
ASHADE
 62
     9
100
AcDbBlockReference
  2
AVE_RENDER
 10
0.0
 20
0.0
 30
0.0
1001
AVE_RENDER
1002
{
1070
     0
1000
BG Opt
1070
     0
1070
     1
1010
0.0
1020
0.0
1030
0.0
1010
1.0
1020
0.0
1030
0.0
1010
0.0
1020
1.0
1030
0.0
1010
0.0
1020
0.0
1030
1.0
1040
0.5
1040
0.33
1040
0.0
1000

1070
     1
1000

1070
     1
1070
     1
1040
1.0
1040
1.0
1040
0.0
1040
0.0
1070
     0
1002
}
  0
INSERT
  5
C8
100
AcDbEntity
  8
ASHADE
 62
     1
100
AcDbBlockReference
  2
AVE_GLOBAL
 10
0.0
 20
0.0
 30
0.0
1001
AVE_MATERIAL
1002
{
1000
*GLOBAL*
1000
1
1000
Finition globale.
1002
{
1002
}
1002
{
1070
    63
1002
{
1002
{
1010
-1.0
1020
-1.0
1030
-1.0
1002
}
1040
0.1
1000

1040
0.0
1002
{
1002
}
1040
0.0
1002
{
1002
}
1040
0.0
1002
}
1002
{
1002
{
1010
-1.0
1020
-1.0
1030
-1.0
1002
}
1040
0.7
1000

1040
0.0
1002
{
1002
}
1040
0.0
1002
{
1002
}
1040
0.0
1002
}
1002
{
1002
{
1010
-1.0
1020
-1.0
1030
-1.0
1002
}
1040
0.2
1000

1040
0.0
1002
{
1002
}
1040
0.0
1002
{
1002
}
1040
0.0
1002
}
1002
{
1070
     0
1002
{
1070
     1
1002
{
1040
1.0
1040
1.0
1000

1040
0.0
1002
{
1002
}
1040
0.0
1002
{
1002
}
1040
0.0
1002
}
1002
}
1040
1.0
1040
0.0
1040
0.0
1002
}
1002
{
1040
1.0
1040
1.0
1000

1040
0.0
1002
{
1002
}
1040
0.0
1002
{
1002
}
1040
0.0
1002
}
1002
{
1040
0.5
1040
1.0
1000

1040
0.0
1002
{
1002
}
1040
0.0
1002
{
1002
}
1040
0.0
1002
}
1002
{
1070
     0
1040
0.0
1002
{
1002
}
1040
1.0
1002
{
1002
}
1040
0.0
1002
}
1002
{
1040
0.0
1002
{
1002
{
1010
0.0
1020
0.0
1030
0.0
1002
}
1040
1.0
1000

1040
0.0
1002
{
1002
}
1040
0.0
1002
{
1002
}
1040
0.0
1002
}
1002
}
1002
{
1002
{
1070
     1
1002
{
1040
0.0
1040
1.0
1000

1040
0.0
1002
{
1002
}
1040
0.0
1002
{
1002
}
1040
0.0
1002
}
1002
}
1040
0.0
1002
{
1002
}
1010
1.0
1020
0.0
1030
0.0
1010
0.0
1020
1.0
1030
0.0
1010
0.0
1020
0.0
1030
1.0
1070
     0
1002
}
1002
{
1002
{
1040
1.0
1040
1.0
1002
{
1070
     1
1002
{
1040
1.0
1040
1.0
1000

1040
0.0
1002
{
1002
}
1040
0.0
1002
{
1002
}
1040
0.0
1002
}
1002
}
1002
}
1070
     0
1040
0.0
1002
{
1002
}
1002
}
1002
{
1002
}
1002
}
1002
{
1071
        3
1070
     3
1070
     0
1002
{
1070
     2
1070
     0
1070
     0
1040
0.0
1002
}
1070
     0
1070
     2
1002
{
1002
}
1002
}
1002
{
1040
8030.0
1040
190.300003
1040
0.305
1040
228.0
1040
545.0
1040
14.0
1040
17.4
1040
0.456
1002
}
1002
}
  0
ENDBLK
  5
CA
100
AcDbEntity
  8
0
100
AcDbBlockEnd
  0
BLOCK
  5
232
100
AcDbEntity
  8
ALPHA
 62
     7
100
AcDbBlockBegin
  2
AI9-BLK1
 70
     0
 10
0.0
 20
0.0
 30
0.0
  3
AI9-BLK1
  1

  0
SPLINE
  5
14E
100
AcDbEntity
  8
ALPHA
 62
     7
100
AcDbSpline
210
0.0
220
0.0
230
-1.0
 70
    11
 71
     3
 72
    29
 73
    25
 74
     0
 42
0.0000001
 43
0.0000001
 40
0.0
 40
0.0
 40
0.0
 40
0.0
 40
1.0
 40
1.0
 40
1.0
 40
2.0
 40
2.0
 40
2.0
 40
3.0
 40
3.0
 40
3.0
 40
4.0
 40
4.0
 40
4.0
 40
5.0
 40
5.0
 40
5.0
 40
6.0
 40
6.0
 40
6.0
 40
7.0
 40
7.0
 40
7.0
 40
8.0
 40
8.0
 40
8.0
 40
8.0
 10
146.0000891791449
 20
-98.25020446777344
 30
0.0
 10
146.0000891791449
 20
-99.90660637749565
 30
0.0
 10
144.6571909586588
 20
-101.2501936170789
 30
0.0
 10
143.0001000298393
 20
-101.2501936170789
 30
0.0
 10
143.0001000298393
 20
-101.2501936170789
 30
0.0
 10
-143.0000139024522
 20
-101.2501936170789
 30
0.0
 10
-143.0000139024522
 20
-101.2501936170789
 30
0.0
 10
-144.656760321723
 20
-101.2501936170789
 30
0.0
 10
-146.0000030517577
 20
-99.90660637749565
 30
0.0
 10
-146.0000030517577
 20
-98.25020446777344
 30
0.0
 10
-146.0000030517577
 20
-98.25020446777344
 30
0.0
 10
-146.0000030517577
 20
98.25011834038628
 30
0.0
 10
-146.0000030517577
 20
98.25011834038628
 30
0.0
 10
-146.0000030517577
 20
99.90686475965711
 30
0.0
 10
-144.656760321723
 20
101.2501074896918
 30
0.0
 10
-143.0000139024522
 20
101.2501074896918
 30
0.0
 10
-143.0000139024522
 20
101.2501074896918
 30
0.0
 10
143.0001000298393
 20
101.2501074896918
 30
0.0
 10
143.0001000298393
 20
101.2501074896918
 30
0.0
 10
144.6571909586588
 20
101.2501074896918
 30
0.0
 10
146.0000891791449
 20
99.90686475965711
 30
0.0
 10
146.0000891791449
 20
98.25011834038628
 30
0.0
 10
146.0000891791449
 20
98.25011834038628
 30
0.0
 10
146.0000891791449
 20
-98.25020446777344
 30
0.0
 10
146.0000891791449
 20
-98.25020446777344
 30
0.0
  0
SPLINE
  5
14F
100
AcDbEntity
  8
ALPHA
 62
     7
100
AcDbSpline
210
0.0
220
0.0
230
-1.0
 70
    11
 71
     3
 72
    29
 73
    25
 74
     0
 42
0.0000001
 43
0.0000001
 40
0.0
 40
0.0
 40
0.0
 40
0.0
 40
1.0
 40
1.0
 40
1.0
 40
2.0
 40
2.0
 40
2.0
 40
3.0
 40
3.0
 40
3.0
 40
4.0
 40
4.0
 40
4.0
 40
5.0
 40
5.0
 40
5.0
 40
6.0
 40
6.0
 40
6.0
 40
7.0
 40
7.0
 40
7.0
 40
8.0
 40
8.0
 40
8.0
 40
8.0
 10
76.18936326768663
 20
40.38818935818142
 30
0.0
 10
77.01894226074218
 20
40.38818935818142
 30
0.0
 10
77.69142489963107
 20
41.0606719970703
 30
0.0
 10
77.69142489963107
 20
41.88887295193142
 30
0.0
 10
77.69142489963107
 20
41.88887295193142
 30
0.0
 10
77.87056986490885
 20
67.24339769151474
 30
0.0
 10
77.87056986490885
 20
67.24339769151474
 30
0.0
 10
77.87056986490885
 20
68.0757327609592
 30
0.0
 10
77.19808722601996
 20
68.74683736165363
 30
0.0
 10
76.36437411838106
 20
68.74683736165363
 30
0.0
 10
76.36437411838106
 20
68.74683736165363
 30
0.0
 10
-76.01202697753905
 20
68.92460428873697
 30
0.0
 10
-76.01202697753905
 20
68.92460428873697
 30
0.0
 10
-76.84022793240017
 20
68.92460428873697
 30
0.0
 10
-77.51271057128906
 20
68.25074361165363
 30
0.0
 10
-77.51271057128906
 20
67.42116461859808
 30
0.0
 10
-77.51271057128906
 20
67.42116461859808
 30
0.0
 10
-77.69185553656683
 20
41.88887295193142
 30
0.0
 10
-77.69185553656683
 20
41.88887295193142
 30
0.0
 10
-77.69185553656683
 20
41.0606719970703
 30
0.0
 10
-77.01937289767794
 20
40.38818935818142
 30
0.0
 10
-76.1870378282335
 20
40.38818935818142
 30
0.0
 10
-76.1870378282335
 20
40.38818935818142
 30
0.0
 10
76.18936326768663
 20
40.38818935818142
 30
0.0
 10
76.18936326768663
 20
40.38818935818142
 30
0.0
  0
POLYLINE
  5
150
100
AcDbEntity
  8
ALPHA
 62
     7
100
AcDb2dPolyline
 66
     1
 10
0.0
 20
0.0
 30
0.0
 70
     1
  0
VERTEX
  5
151
100
AcDbEntity
  8
ALPHA
 62
     7
100
AcDbVertex
100
AcDb2dVertex
 10
77.691425
 20
-84.679973
 30
0.0
  0
VERTEX
  5
152
100
AcDbEntity
  8
ALPHA
 62
     7
100
AcDbVertex
100
AcDb2dVertex
 10
77.691425
 20
25.69279
 30
0.0
  0
VERTEX
  5
153
100
AcDbEntity
  8
ALPHA
 62
     7
100
AcDbVertex
100
AcDb2dVertex
 10
-77.691856
 20
25.69279
 30
0.0
  0
VERTEX
  5
154
100
AcDbEntity
  8
ALPHA
 62
     7
100
AcDbVertex
100
AcDb2dVertex
 10
-77.691856
 20
-84.679973
 30
0.0
  0
SEQEND
  5
155
100
AcDbEntity
  8
ALPHA
 62
     7
  0
POLYLINE
  5
156
100
AcDbEntity
  8
ALPHA
 62
     7
100
AcDb2dPolyline
 66
     1
 10
0.0
 20
0.0
 30
0.0
 70
     1
  0
VERTEX
  5
157
100
AcDbEntity
  8
ALPHA
 62
     7
100
AcDbVertex
100
AcDb2dVertex
 10
-36.28198
 20
-29.293862
 30
0.0
  0
VERTEX
  5
158
100
AcDbEntity
  8
ALPHA
 62
     7
100
AcDbVertex
100
AcDb2dVertex
 10
-41.795511
 20
-25.282393
 30
0.0
  0
VERTEX
  5
159
100
AcDbEntity
  8
ALPHA
 62
     7
100
AcDbVertex
100
AcDb2dVertex
 10
-41.795511
 20
-25.282393
 30
0.0
  0
VERTEX
  5
15A
100
AcDbEntity
  8
ALPHA
 62
     7
100
AcDbVertex
100
AcDb2dVertex
 10
-47.307664
 20
-29.293862
 30
0.0
  0
VERTEX
  5
15B
100
AcDbEntity
  8
ALPHA
 62
     7
100
AcDbVertex
100
AcDb2dVertex
 10
-44.558477
 20
-29.297996
 30
0.0
  0
VERTEX
  5
15C
100
AcDbEntity
  8
ALPHA
 62
     7
100
AcDbVertex
100
AcDb2dVertex
 10
-44.558477
 20
-32.304876
 30
0.0
  0
VERTEX
  5
15D
100
AcDbEntity
  8
ALPHA
 62
     7
100
AcDbVertex
100
AcDb2dVertex
 10
-39.046325
 20
-32.304876
 30
0.0
  0
VERTEX
  5
15E
100
AcDbEntity
  8
ALPHA
 62
     7
100
AcDbVertex
100
AcDb2dVertex
 10
-39.046325
 20
-29.297996
 30
0.0
  0
SEQEND
  5
15F
100
AcDbEntity
  8
ALPHA
 62
     7
  0
POLYLINE
  5
160
100
AcDbEntity
  8
ALPHA
 62
     7
100
AcDb2dPolyline
 66
     1
 10
0.0
 20
0.0
 30
0.0
 70
     1
  0
VERTEX
  5
161
100
AcDbEntity
  8
ALPHA
 62
     7
100
AcDbVertex
100
AcDb2dVertex
 10
-23.222312
 20
-53.379214
 30
0.0
  0
VERTEX
  5
162
100
AcDbEntity
  8
ALPHA
 62
     7
100
AcDbVertex
100
AcDb2dVertex
 10
-19.210843
 20
-47.865683
 30
0.0
  0
VERTEX
  5
163
100
AcDbEntity
  8
ALPHA
 62
     7
100
AcDbVertex
100
AcDb2dVertex
 10
-19.210843
 20
-47.865683
 30
0.0
  0
VERTEX
  5
164
100
AcDbEntity
  8
ALPHA
 62
     7
100
AcDbVertex
100
AcDb2dVertex
 10
-23.222312
 20
-42.349396
 30
0.0
  0
VERTEX
  5
165
100
AcDbEntity
  8
ALPHA
 62
     7
100
AcDbVertex
100
AcDb2dVertex
 10
-23.231958
 20
-45.102716
 30
0.0
  0
VERTEX
  5
166
100
AcDbEntity
  8
ALPHA
 62
     7
100
AcDbVertex
100
AcDb2dVertex
 10
-26.238838
 20
-45.102716
 30
0.0
  0
VERTEX
  5
167
100
AcDbEntity
  8
ALPHA
 62
     7
100
AcDbVertex
100
AcDb2dVertex
 10
-26.238838
 20
-50.614869
 30
0.0
  0
VERTEX
  5
168
100
AcDbEntity
  8
ALPHA
 62
     7
100
AcDbVertex
100
AcDb2dVertex
 10
-23.231958
 20
-50.614869
 30
0.0
  0
SEQEND
  5
169
100
AcDbEntity
  8
ALPHA
 62
     7
  0
POLYLINE
  5
16A
100
AcDbEntity
  8
ALPHA
 62
     7
100
AcDb2dPolyline
 66
     1
 10
0.0
 20
0.0
 30
0.0
 70
     1
  0
VERTEX
  5
16B
100
AcDbEntity
  8
ALPHA
 62
     7
100
AcDbVertex
100
AcDb2dVertex
 10
-60.367159
 20
-42.349396
 30
0.0
  0
VERTEX
  5
16C
100
AcDbEntity
  8
ALPHA
 62
     7
100
AcDbVertex
100
AcDb2dVertex
 10
-64.378629
 20
-47.865683
 30
0.0
  0
VERTEX
  5
16D
100
AcDbEntity
  8
ALPHA
 62
     7
100
AcDbVertex
100
AcDb2dVertex
 10
-64.378629
 20
-47.865683
 30
0.0
  0
VERTEX
  5
16E
100
AcDbEntity
  8
ALPHA
 62
     7
100
AcDbVertex
100
AcDb2dVertex
 10
-60.367159
 20
-53.379214
 30
0.0
  0
VERTEX
  5
16F
100
AcDbEntity
  8
ALPHA
 62
     7
100
AcDbVertex
100
AcDb2dVertex
 10
-60.363025
 20
-50.62865
 30
0.0
  0
VERTEX
  5
170
100
AcDbEntity
  8
ALPHA
 62
     7
100
AcDbVertex
100
AcDb2dVertex
 10
-57.356146
 20
-50.62865
 30
0.0
  0
VERTEX
  5
171
100
AcDbEntity
  8
ALPHA
 62
     7
100
AcDbVertex
100
AcDb2dVertex
 10
-57.356146
 20
-45.112363
 30
0.0
  0
VERTEX
  5
172
100
AcDbEntity
  8
ALPHA
 62
     7
100
AcDbVertex
100
AcDb2dVertex
 10
-60.363025
 20
-45.112363
 30
0.0
  0
SEQEND
  5
173
100
AcDbEntity
  8
ALPHA
 62
     7
  0
POLYLINE
  5
174
100
AcDbEntity
  8
ALPHA
 62
     7
100
AcDb2dPolyline
 66
     1
 10
0.0
 20
0.0
 30
0.0
 70
     1
  0
VERTEX
  5
175
100
AcDbEntity
  8
ALPHA
 62
     7
100
AcDbVertex
100
AcDb2dVertex
 10
-47.307664
 20
-66.438882
 30
0.0
  0
VERTEX
  5
176
100
AcDbEntity
  8
ALPHA
 62
     7
100
AcDbVertex
100
AcDb2dVertex
 10
-41.795511
 20
-70.444839
 30
0.0
  0
VERTEX
  5
177
100
AcDbEntity
  8
ALPHA
 62
     7
100
AcDbVertex
100
AcDb2dVertex
 10
-41.795511
 20
-70.444839
 30
0.0
  0
VERTEX
  5
178
100
AcDbEntity
  8
ALPHA
 62
     7
100
AcDbVertex
100
AcDb2dVertex
 10
-36.28198
 20
-66.438882
 30
0.0
  0
VERTEX
  5
179
100
AcDbEntity
  8
ALPHA
 62
     7
100
AcDbVertex
100
AcDb2dVertex
 10
-39.032544
 20
-66.429236
 30
0.0
  0
VERTEX
  5
17A
100
AcDbEntity
  8
ALPHA
 62
     7
100
AcDbVertex
100
AcDb2dVertex
 10
-39.032544
 20
-63.422356
 30
0.0
  0
VERTEX
  5
17B
100
AcDbEntity
  8
ALPHA
 62
     7
100
AcDbVertex
100
AcDb2dVertex
 10
-44.544697
 20
-63.422356
 30
0.0
  0
VERTEX
  5
17C
100
AcDbEntity
  8
ALPHA
 62
     7
100
AcDbVertex
100
AcDb2dVertex
 10
-44.544697
 20
-66.429236
 30
0.0
  0
SEQEND
  5
17D
100
AcDbEntity
  8
ALPHA
 62
     7
  0
SPLINE
  5
17E
100
AcDbEntity
  8
ALPHA
 62
     7
100
AcDbSpline
210
0.0
220
0.0
230
-1.0
 70
     8
 71
     3
 72
    17
 73
    13
 74
     0
 42
0.0000001
 43
0.0000001
 40
0.0
 40
0.0
 40
0.0
 40
0.0
 40
1.0
 40
1.0
 40
1.0
 40
2.0
 40
2.0
 40
2.0
 40
3.0
 40
3.0
 40
3.0
 40
4.0
 40
4.0
 40
4.0
 40
4.0
 10
-48.39906989203559
 20
-38.33792690700954
 30
0.0
 10
-48.39906989203559
 20
-38.33792690700954
 30
0.0
 10
-48.39906989203559
 20
-34.95759921603732
 30
0.0
 10
-48.39906989203559
 20
-34.95759921603732
 30
0.0
 10
-48.39906989203559
 20
-34.95759921603732
 30
0.0
 10
-48.40320400661892
 20
-34.95346510145399
 30
0.0
 10
-48.40320400661892
 20
-34.95346510145399
 30
0.0
 10
-49.89975348578559
 20
-33.34667256673176
 30
0.0
 10
-50.81614888509114
 20
-31.18590867784288
 30
0.0
 10
-50.81614888509114
 20
-28.81017083062065
 30
0.0
 10
-50.81614888509114
 20
-24.42525329589843
 30
0.0
 10
-47.6893802218967
 20
-20.76931796603732
 30
0.0
 10
-43.54010721842447
 20
-19.95903150770399
 30
0.0
  0
SPLINE
  5
17F
100
AcDbEntity
  8
ALPHA
 62
     7
100
AcDbSpline
210
0.0
220
0.0
230
1.0
 70
     8
 71
     3
 72
    17
 73
    13
 74
     0
 42
0.0000001
 43
0.0000001
 40
0.0
 40
0.0
 40
0.0
 40
0.0
 40
1.0
 40
1.0
 40
1.0
 40
2.0
 40
2.0
 40
2.0
 40
3.0
 40
3.0
 40
3.0
 40
4.0
 40
4.0
 40
4.0
 40
4.0
 10
-40.0495364718967
 20
-19.95903150770399
 30
0.0
 10
-35.9043975830078
 20
-20.76931796603732
 30
0.0
 10
-32.77349480523003
 20
-24.42525329589843
 30
0.0
 10
-32.77349480523003
 20
-28.81017083062065
 30
0.0
 10
-32.77349480523003
 20
-31.28237135145399
 30
0.0
 10
-33.76292622884114
 20
-33.51617126464843
 30
0.0
 10
-35.37109680175781
 20
-35.14639044867621
 30
0.0
 10
-35.37109680175781
 20
-35.14639044867621
 30
0.0
 10
-35.36558464898003
 20
-35.15603671603732
 30
0.0
 10
-35.36558464898003
 20
-35.15603671603732
 30
0.0
 10
-35.36558464898003
 20
-35.15603671603732
 30
0.0
 10
-35.36558464898003
 20
-38.33792690700954
 30
0.0
 10
-35.36558464898003
 20
-38.33792690700954
 30
0.0
  0
SPLINE
  5
180
100
AcDbEntity
  8
ALPHA
 62
     7
100
AcDbSpline
210
0.0
220
0.0
230
-1.0
 70
     8
 71
     3
 72
    17
 73
    13
 74
     0
 42
0.0000001
 43
0.0000001
 40
0.0
 40
0.0
 40
0.0
 40
0.0
 40
1.0
 40
1.0
 40
1.0
 40
2.0
 40
2.0
 40
2.0
 40
3.0
 40
3.0
 40
3.0
 40
4.0
 40
4.0
 40
4.0
 40
4.0
 10
-32.35870530870225
 20
-41.3503184000651
 30
0.0
 10
-32.35870530870225
 20
-41.3503184000651
 30
0.0
 10
-28.9742435031467
 20
-41.3503184000651
 30
0.0
 10
-28.9742435031467
 20
-41.3503184000651
 30
0.0
 10
-28.9742435031467
 20
-41.3503184000651
 30
0.0
 10
-28.9742435031467
 20
-41.34480624728732
 30
0.0
 10
-28.9742435031467
 20
-41.34480624728732
 30
0.0
 10
-27.3619388156467
 20
-39.84825676812065
 30
0.0
 10
-25.20255296495225
 20
-38.9318613688151
 30
0.0
 10
-22.83094923231336
 20
-38.9318613688151
 30
0.0
 10
-18.44740973578558
 20
-38.9318613688151
 30
0.0
 10
-14.79009636773003
 20
-42.05863003200954
 30
0.0
 10
-13.9798099093967
 20
-46.20790303548176
 30
0.0
  0
SPLINE
  5
181
100
AcDbEntity
  8
ALPHA
 62
     7
100
AcDbSpline
210
0.0
220
0.0
230
1.0
 70
     8
 71
     3
 72
    17
 73
    13
 74
     0
 42
0.0000001
 43
0.0000001
 40
0.0
 40
0.0
 40
0.0
 40
0.0
 40
1.0
 40
1.0
 40
1.0
 40
2.0
 40
2.0
 40
2.0
 40
3.0
 40
3.0
 40
3.0
 40
4.0
 40
4.0
 40
4.0
 40
4.0
 10
-13.9798099093967
 20
-49.69847378200954
 30
0.0
 10
-14.79009636773003
 20
-53.84361267089843
 30
0.0
 10
-18.44740973578558
 20
-56.97589348687065
 30
0.0
 10
-22.83094923231336
 20
-56.97589348687065
 30
0.0
 10
-25.29901563856336
 20
-56.97589348687065
 30
0.0
 10
-27.53694966634114
 20
-55.9850840250651
 30
0.0
 10
-29.16716885036892
 20
-54.37829149034287
 30
0.0
 10
-29.16716885036892
 20
-54.37829149034287
 30
0.0
 10
-29.17681511773003
 20
-54.38242560492621
 30
0.0
 10
-29.17681511773003
 20
-54.38242560492621
 30
0.0
 10
-29.17681511773003
 20
-54.38242560492621
 30
0.0
 10
-32.35870530870225
 20
-54.38242560492621
 30
0.0
 10
-32.35870530870225
 20
-54.38242560492621
 30
0.0
  0
SPLINE
  5
182
100
AcDbEntity
  8
ALPHA
 62
     7
100
AcDbSpline
210
0.0
220
0.0
230
1.0
 70
     8
 71
     3
 72
    17
 73
    13
 74
     0
 42
0.0000001
 43
0.0000001
 40
0.0
 40
0.0
 40
0.0
 40
0.0
 40
1.0
 40
1.0
 40
1.0
 40
2.0
 40
2.0
 40
2.0
 40
3.0
 40
3.0
 40
3.0
 40
4.0
 40
4.0
 40
4.0
 40
4.0
 10
-35.36558464898003
 20
-57.38930494520399
 30
0.0
 10
-35.36558464898003
 20
-57.38930494520399
 30
0.0
 10
-35.36558464898003
 20
-60.77514478895398
 30
0.0
 10
-35.36558464898003
 20
-60.77514478895398
 30
0.0
 10
-35.36558464898003
 20
-60.77514478895398
 30
0.0
 10
-35.36558464898003
 20
-60.77514478895398
 30
0.0
 10
-35.36558464898003
 20
-60.77514478895398
 30
0.0
 10
-33.86490105523003
 20
-62.38607143825954
 30
0.0
 10
-32.94850565592447
 20
-64.54683532714843
 30
0.0
 10
-32.94850565592447
 20
-66.91843905978732
 30
0.0
 10
-32.94850565592447
 20
-71.30197855631509
 30
0.0
 10
-36.07940843370225
 20
-74.95791388617622
 30
0.0
 10
-40.22868143717447
 20
-75.76957838270399
 30
0.0
  0
SPLINE
  5
183
100
AcDbEntity
  8
ALPHA
 62
     7
100
AcDbSpline
210
0.0
220
0.0
230
-1.0
 70
     8
 71
     3
 72
    17
 73
    13
 74
     0
 42
0.0000001
 43
0.0000001
 40
0.0
 40
0.0
 40
0.0
 40
0.0
 40
1.0
 40
1.0
 40
1.0
 40
2.0
 40
2.0
 40
2.0
 40
3.0
 40
3.0
 40
3.0
 40
4.0
 40
4.0
 40
4.0
 40
4.0
 10
-43.71511806911892
 20
-75.76957838270399
 30
0.0
 10
-47.86439107259114
 20
-74.95791388617622
 30
0.0
 10
-50.99667188856336
 20
-71.30197855631509
 30
0.0
 10
-50.99667188856336
 20
-66.91843905978732
 30
0.0
 10
-50.99667188856336
 20
-64.44899461534287
 30
0.0
 10
-50.00172831217447
 20
-62.2110605875651
 30
0.0
 10
-48.39493577745225
 20
-60.58084140353732
 30
0.0
 10
-48.39493577745225
 20
-60.58084140353732
 30
0.0
 10
-48.39906989203559
 20
-60.57257317437065
 30
0.0
 10
-48.39906989203559
 20
-60.57257317437065
 30
0.0
 10
-48.39906989203559
 20
-60.57257317437065
 30
0.0
 10
-48.39906989203559
 20
-57.38930494520399
 30
0.0
 10
-48.39906989203559
 20
-57.38930494520399
 30
0.0
  0
SPLINE
  5
184
100
AcDbEntity
  8
ALPHA
 62
     7
100
AcDbSpline
210
0.0
220
0.0
230
1.0
 70
     8
 71
     3
 72
    17
 73
    13
 74
     0
 42
0.0000001
 43
0.0000001
 40
0.0
 40
0.0
 40
0.0
 40
0.0
 40
1.0
 40
1.0
 40
1.0
 40
2.0
 40
2.0
 40
2.0
 40
3.0
 40
3.0
 40
3.0
 40
4.0
 40
4.0
 40
4.0
 40
4.0
 10
-51.4100833468967
 20
-54.38242560492621
 30
0.0
 10
-51.4100833468967
 20
-54.38242560492621
 30
0.0
 10
-54.79023878309462
 20
-54.38242560492621
 30
0.0
 10
-54.79023878309462
 20
-54.38242560492621
 30
0.0
 10
-54.79023878309462
 20
-54.38242560492621
 30
0.0
 10
-54.79575093587239
 20
-54.38242560492621
 30
0.0
 10
-54.79575093587239
 20
-54.38242560492621
 30
0.0
 10
-56.40254347059461
 20
-55.88448723687065
 30
0.0
 10
-58.56192932128905
 20
-56.80088263617621
 30
0.0
 10
-60.93904520670572
 20
-56.80088263617621
 30
0.0
 10
-65.3225847032335
 20
-56.80088263617621
 30
0.0
 10
-68.97989807128905
 20
-53.66860182020399
 30
0.0
 10
-69.7901845296224
 20
-49.51932881673176
 30
0.0
  0
SPLINE
  5
185
100
AcDbEntity
  8
ALPHA
 62
     7
100
AcDbSpline
210
0.0
220
0.0
230
-1.0
 70
     8
 71
     3
 72
    17
 73
    13
 74
     0
 42
0.0000001
 43
0.0000001
 40
0.0
 40
0.0
 40
0.0
 40
0.0
 40
1.0
 40
1.0
 40
1.0
 40
2.0
 40
2.0
 40
2.0
 40
3.0
 40
3.0
 40
3.0
 40
4.0
 40
4.0
 40
4.0
 40
4.0
 10
-69.7901845296224
 20
-46.03289218478732
 30
0.0
 10
-68.97989807128905
 20
-41.88361918131509
 30
0.0
 10
-65.3225847032335
 20
-38.75271640353732
 30
0.0
 10
-60.93904520670572
 20
-38.75271640353732
 30
0.0
 10
-58.46546664767794
 20
-38.75271640353732
 30
0.0
 10
-56.2316667344835
 20
-39.74765997992621
 30
0.0
 10
-54.60161980523003
 20
-41.35445251464843
 30
0.0
 10
-54.60161980523003
 20
-41.35445251464843
 30
0.0
 10
-54.59335157606336
 20
-41.3503184000651
 30
0.0
 10
-54.59335157606336
 20
-41.3503184000651
 30
0.0
 10
-54.59335157606336
 20
-41.3503184000651
 30
0.0
 10
-51.4100833468967
 20
-41.3503184000651
 30
0.0
 10
-51.4100833468967
 20
-41.3503184000651
 30
0.0
  0
SPLINE
  5
186
100
AcDbEntity
  8
ALPHA
 62
     7
100
AcDbSpline
210
0.0
220
0.0
230
-1.0
 70
    11
 71
     3
 72
    29
 73
    25
 74
     0
 42
0.0000001
 43
0.0000001
 40
0.0
 40
0.0
 40
0.0
 40
0.0
 40
1.0
 40
1.0
 40
1.0
 40
2.0
 40
2.0
 40
2.0
 40
3.0
 40
3.0
 40
3.0
 40
4.0
 40
4.0
 40
4.0
 40
5.0
 40
5.0
 40
5.0
 40
6.0
 40
6.0
 40
6.0
 40
7.0
 40
7.0
 40
7.0
 40
8.0
 40
8.0
 40
8.0
 40
8.0
 10
-16.60497266981336
 20
-72.66485833062064
 30
0.0
 10
-16.05237935384114
 20
-72.66485833062064
 30
0.0
 10
-15.60589497884114
 20
-72.21837395562065
 30
0.0
 10
-15.60589497884114
 20
-71.66578063964843
 30
0.0
 10
-15.60589497884114
 20
-71.66578063964843
 30
0.0
 10
-15.60589497884114
 20
-64.64743211534288
 30
0.0
 10
-15.60589497884114
 20
-64.64743211534288
 30
0.0
 10
-15.60589497884114
 20
-64.09483879937065
 30
0.0
 10
-16.05237935384114
 20
-63.64422030978732
 30
0.0
 10
-16.60497266981336
 20
-63.64422030978732
 30
0.0
 10
-16.60497266981336
 20
-63.64422030978732
 30
0.0
 10
-28.63386806911892
 20
-63.64422030978732
 30
0.0
 10
-28.63386806911892
 20
-63.64422030978732
 30
0.0
 10
-29.19059549967447
 20
-63.64422030978732
 30
0.0
 10
-29.63707987467447
 20
-64.09483879937065
 30
0.0
 10
-29.63707987467447
 20
-64.64743211534288
 30
0.0
 10
-29.63707987467447
 20
-64.64743211534288
 30
0.0
 10
-29.63707987467447
 20
-71.66578063964843
 30
0.0
 10
-29.63707987467447
 20
-71.66578063964843
 30
0.0
 10
-29.63707987467447
 20
-72.21837395562065
 30
0.0
 10
-29.19059549967447
 20
-72.66485833062064
 30
0.0
 10
-28.63386806911892
 20
-72.66485833062064
 30
0.0
 10
-28.63386806911892
 20
-72.66485833062064
 30
0.0
 10
-16.60497266981336
 20
-72.66485833062064
 30
0.0
 10
-16.60497266981336
 20
-72.66485833062064
 30
0.0
  0
SPLINE
  5
187
100
AcDbEntity
  8
ALPHA
 62
     7
100
AcDbSpline
210
0.0
220
0.0
230
1.0
 70
     8
 71
     3
 72
    32
 73
    28
 74
     0
 42
0.0000001
 43
0.0000001
 40
0.0
 40
0.0
 40
0.0
 40
0.0
 40
1.0
 40
1.0
 40
1.0
 40
2.0
 40
2.0
 40
2.0
 40
3.0
 40
3.0
 40
3.0
 40
4.0
 40
4.0
 40
4.0
 40
5.0
 40
5.0
 40
5.0
 40
6.0
 40
6.0
 40
6.0
 40
7.0
 40
7.0
 40
7.0
 40
8.0
 40
8.0
 40
8.0
 40
9.0
 40
9.0
 40
9.0
 40
9.0
 10
-109.2930274115668
 20
44.47682868109808
 30
0.0
 10
-109.2930274115668
 20
44.47682868109808
 30
0.0
 10
-108.5419965955946
 20
44.47682868109808
 30
0.0
 10
-108.5419965955946
 20
44.47682868109808
 30
0.0
 10
-107.7137956407334
 20
44.47682868109808
 30
0.0
 10
-107.0413130018446
 20
45.14931131998697
 30
0.0
 10
-107.0413130018446
 20
45.98302442762586
 30
0.0
 10
-107.0413130018446
 20
45.98302442762586
 30
0.0
 10
-107.0413130018446
 20
49.49150967068142
 30
0.0
 10
-107.0413130018446
 20
49.49150967068142
 30
0.0
 10
-107.0413130018446
 20
50.32246670193142
 30
0.0
 10
-107.7137956407334
 20
50.99494934082031
 30
0.0
 10
-108.5419965955946
 20
50.99494934082031
 30
0.0
 10
-108.5419965955946
 20
50.99494934082031
 30
0.0
 10
-115.5603451199001
 20
50.99494934082031
 30
0.0
 10
-115.5603451199001
 20
50.99494934082031
 30
0.0
 10
-116.3899241129557
 20
50.99494934082031
 30
0.0
 10
-117.0624067518446
 20
50.32246670193142
 30
0.0
 10
-117.0624067518446
 20
49.49150967068142
 30
0.0
 10
-117.0624067518446
 20
49.49150967068142
 30
0.0
 10
-117.0624067518446
 20
45.98302442762586
 30
0.0
 10
-117.0624067518446
 20
45.98302442762586
 30
0.0
 10
-117.0624067518446
 20
45.14931131998697
 30
0.0
 10
-116.3899241129557
 20
44.47682868109808
 30
0.0
 10
-115.5603451199001
 20
44.47682868109808
 30
0.0
 10
-115.5603451199001
 20
44.47682868109808
 30
0.0
 10
-114.8106923421223
 20
44.47682868109808
 30
0.0
 10
-114.8106923421223
 20
44.47682868109808
 30
0.0
  0
SPLINE
  5
188
100
AcDbEntity
  8
ALPHA
 62
     7
100
AcDbSpline
210
0.0
220
0.0
230
-1.0
 70
     8
 71
     3
 72
    20
 73
    16
 74
     0
 42
0.0000001
 43
0.0000001
 40
0.0
 40
0.0
 40
0.0
 40
0.0
 40
1.0
 40
1.0
 40
1.0
 40
2.0
 40
2.0
 40
2.0
 40
3.0
 40
3.0
 40
3.0
 40
4.0
 40
4.0
 40
4.0
 40
5.0
 40
5.0
 40
5.0
 40
5.0
 10
-109.2930274115668
 20
42.47316114637587
 30
0.0
 10
-109.2930274115668
 20
42.47316114637587
 30
0.0
 10
-109.2930274115668
 20
45.23199361165364
 30
0.0
 10
-109.2930274115668
 20
45.23199361165364
 30
0.0
 10
-109.2930274115668
 20
46.75610385470919
 30
0.0
 10
-110.527749633789
 20
47.99082607693142
 30
0.0
 10
-112.0518598768446
 20
47.99082607693142
 30
0.0
 10
-112.0518598768446
 20
47.99082607693142
 30
0.0
 10
-112.0518598768446
 20
47.99082607693142
 30
0.0
 10
-112.0518598768446
 20
47.99082607693142
 30
0.0
 10
-113.5759701199001
 20
47.99082607693142
 30
0.0
 10
-114.8106923421223
 20
46.75610385470919
 30
0.0
 10
-114.8106923421223
 20
45.23199361165364
 30
0.0
 10
-114.8106923421223
 20
45.23199361165364
 30
0.0
 10
-114.8106923421223
 20
42.47316114637587
 30
0.0
 10
-114.8106923421223
 20
42.47316114637587
 30
0.0
  0
SPLINE
  5
189
100
AcDbEntity
  8
ALPHA
 62
     7
100
AcDbSpline
210
0.0
220
0.0
230
-1.0
 70
    11
 71
     3
 72
    29
 73
    25
 74
     0
 42
0.0000001
 43
0.0000001
 40
0.0
 40
0.0
 40
0.0
 40
0.0
 40
1.0
 40
1.0
 40
1.0
 40
2.0
 40
2.0
 40
2.0
 40
3.0
 40
3.0
 40
3.0
 40
4.0
 40
4.0
 40
4.0
 40
5.0
 40
5.0
 40
5.0
 40
6.0
 40
6.0
 40
6.0
 40
7.0
 40
7.0
 40
7.0
 40
8.0
 40
8.0
 40
8.0
 40
8.0
 10
-112.0518598768446
 20
43.92423536512587
 30
0.0
 10
-111.3600847032335
 20
43.92423536512587
 30
0.0
 10
-110.7992231580946
 20
44.4864749484592
 30
0.0
 10
-110.7992231580946
 20
45.17687208387586
 30
0.0
 10
-110.7992231580946
 20
45.17687208387586
 30
0.0
 10
-110.7992231580946
 20
46.18146192762586
 30
0.0
 10
-110.7992231580946
 20
46.18146192762586
 30
0.0
 10
-110.7992231580946
 20
46.87185906304253
 30
0.0
 10
-111.3600847032335
 20
47.43409864637587
 30
0.0
 10
-112.0518598768446
 20
47.43409864637587
 30
0.0
 10
-112.0518598768446
 20
47.43409864637587
 30
0.0
 10
-112.0518598768446
 20
47.43409864637587
 30
0.0
 10
-112.0518598768446
 20
47.43409864637587
 30
0.0
 10
-112.7422570122612
 20
47.43409864637587
 30
0.0
 10
-113.3044965955946
 20
46.87185906304253
 30
0.0
 10
-113.3044965955946
 20
46.18146192762586
 30
0.0
 10
-113.3044965955946
 20
46.18146192762586
 30
0.0
 10
-113.3044965955946
 20
45.17687208387586
 30
0.0
 10
-113.3044965955946
 20
45.17687208387586
 30
0.0
 10
-113.3044965955946
 20
44.4864749484592
 30
0.0
 10
-112.7422570122612
 20
43.92423536512587
 30
0.0
 10
-112.0518598768446
 20
43.92423536512587
 30
0.0
 10
-112.0518598768446
 20
43.92423536512587
 30
0.0
 10
-112.0518598768446
 20
43.92423536512587
 30
0.0
 10
-112.0518598768446
 20
43.92423536512587
 30
0.0
  0
SPLINE
  5
18A
100
AcDbEntity
  8
ALPHA
 62
     7
100
AcDbSpline
210
0.0
220
0.0
230
-1.0
 70
     8
 71
     3
 72
    32
 73
    28
 74
     0
 42
0.0000001
 43
0.0000001
 40
0.0
 40
0.0
 40
0.0
 40
0.0
 40
1.0
 40
1.0
 40
1.0
 40
2.0
 40
2.0
 40
2.0
 40
3.0
 40
3.0
 40
3.0
 40
4.0
 40
4.0
 40
4.0
 40
5.0
 40
5.0
 40
5.0
 40
6.0
 40
6.0
 40
6.0
 40
7.0
 40
7.0
 40
7.0
 40
8.0
 40
8.0
 40
8.0
 40
9.0
 40
9.0
 40
9.0
 40
9.0
 10
-127.8207509358723
 20
15.07362772623697
 30
0.0
 10
-127.8207509358723
 20
15.07362772623697
 30
0.0
 10
-127.8207509358723
 20
12.06537034776475
 30
0.0
 10
-127.8207509358723
 20
12.06537034776475
 30
0.0
 10
-127.8207509358723
 20
11.5086429172092
 30
0.0
 10
-127.3742665608723
 20
11.0621585422092
 30
0.0
 10
-126.8189171685112
 20
11.0621585422092
 30
0.0
 10
-126.8189171685112
 20
11.0621585422092
 30
0.0
 10
-112.7835981580946
 20
11.0621585422092
 30
0.0
 10
-112.7835981580946
 20
11.0621585422092
 30
0.0
 10
-112.2310048421223
 20
11.0621585422092
 30
0.0
 10
-111.780386352539
 20
11.5086429172092
 30
0.0
 10
-111.780386352539
 20
12.06537034776475
 30
0.0
 10
-111.780386352539
 20
12.06537034776475
 30
0.0
 10
-111.780386352539
 20
24.09426574707031
 30
0.0
 10
-111.780386352539
 20
24.09426574707031
 30
0.0
 10
-111.780386352539
 20
24.64685906304253
 30
0.0
 10
-112.2310048421223
 20
25.09334343804253
 30
0.0
 10
-112.7835981580946
 20
25.09334343804253
 30
0.0
 10
-112.7835981580946
 20
25.09334343804253
 30
0.0
 10
-126.8189171685112
 20
25.09334343804253
 30
0.0
 10
-126.8189171685112
 20
25.09334343804253
 30
0.0
 10
-127.3742665608723
 20
25.09334343804253
 30
0.0
 10
-127.8207509358723
 20
24.64685906304253
 30
0.0
 10
-127.8207509358723
 20
24.09426574707031
 30
0.0
 10
-127.8207509358723
 20
24.09426574707031
 30
0.0
 10
-127.8207509358723
 20
21.08738640679253
 30
0.0
 10
-127.8207509358723
 20
21.08738640679253
 30
0.0
  0
SPLINE
  5
18B
100
AcDbEntity
  8
ALPHA
 62
     7
100
AcDbSpline
210
0.0
220
0.0
230
1.0
 70
    11
 71
     3
 72
    26
 73
    22
 74
     0
 42
0.0000001
 43
0.0000001
 40
0.0
 40
0.0
 40
0.0
 40
0.0
 40
1.0
 40
1.0
 40
1.0
 40
2.0
 40
2.0
 40
2.0
 40
3.0
 40
3.0
 40
3.0
 40
4.0
 40
4.0
 40
4.0
 40
5.0
 40
5.0
 40
5.0
 40
6.0
 40
6.0
 40
6.0
 40
7.0
 40
7.0
 40
7.0
 40
7.0
 10
-124.8083594428168
 20
18.08050706651475
 30
0.0
 10
-124.8083594428168
 20
18.08050706651475
 30
0.0
 10
-127.816616821289
 20
21.08738640679253
 30
0.0
 10
-127.816616821289
 20
21.08738640679253
 30
0.0
 10
-127.816616821289
 20
21.08738640679253
 30
0.0
 10
-132.8285417344835
 20
21.08738640679253
 30
0.0
 10
-132.8285417344835
 20
21.08738640679253
 30
0.0
 10
-134.489077758789
 20
21.08738640679253
 30
0.0
 10
-135.8367991129556
 20
19.73828701443142
 30
0.0
 10
-135.8367991129556
 20
18.08050706651475
 30
0.0
 10
-135.8367991129556
 20
18.08050706651475
 30
0.0
 10
-135.8367991129556
 20
18.08050706651475
 30
0.0
 10
-135.8367991129556
 20
18.08050706651475
 30
0.0
 10
-135.8367991129556
 20
16.41721496582031
 30
0.0
 10
-134.489077758789
 20
15.07362772623697
 30
0.0
 10
-132.8285417344835
 20
15.07362772623697
 30
0.0
 10
-132.8285417344835
 20
15.07362772623697
 30
0.0
 10
-127.816616821289
 20
15.07362772623697
 30
0.0
 10
-127.816616821289
 20
15.07362772623697
 30
0.0
 10
-127.816616821289
 20
15.07362772623697
 30
0.0
 10
-124.8083594428168
 20
18.08050706651475
 30
0.0
 10
-124.8083594428168
 20
18.08050706651475
 30
0.0
  0
SPLINE
  5
18C
100
AcDbEntity
  8
ALPHA
 62
     7
100
AcDbSpline
210
0.0
220
0.0
230
-1.0
 70
     8
 71
     3
 72
    32
 73
    28
 74
     0
 42
0.0000001
 43
0.0000001
 40
0.0
 40
0.0
 40
0.0
 40
0.0
 40
1.0
 40
1.0
 40
1.0
 40
2.0
 40
2.0
 40
2.0
 40
3.0
 40
3.0
 40
3.0
 40
4.0
 40
4.0
 40
4.0
 40
5.0
 40
5.0
 40
5.0
 40
6.0
 40
6.0
 40
6.0
 40
7.0
 40
7.0
 40
7.0
 40
8.0
 40
8.0
 40
8.0
 40
9.0
 40
9.0
 40
9.0
 40
9.0
 10
-127.8207509358723
 20
-4.024775865342881
 30
0.0
 10
-127.8207509358723
 20
-4.024775865342881
 30
0.0
 10
-127.8207509358723
 20
-7.031655205620658
 30
0.0
 10
-127.8207509358723
 20
-7.031655205620658
 30
0.0
 10
-127.8207509358723
 20
-7.589760674370658
 30
0.0
 10
-127.3742665608723
 20
-8.036245049370659
 30
0.0
 10
-126.8189171685112
 20
-8.036245049370659
 30
0.0
 10
-126.8189171685112
 20
-8.036245049370659
 30
0.0
 10
-112.7835981580946
 20
-8.036245049370659
 30
0.0
 10
-112.7835981580946
 20
-8.036245049370659
 30
0.0
 10
-112.2310048421223
 20
-8.036245049370659
 30
0.0
 10
-111.780386352539
 20
-7.589760674370658
 30
0.0
 10
-111.780386352539
 20
-7.031655205620658
 30
0.0
 10
-111.780386352539
 20
-7.031655205620658
 30
0.0
 10
-111.780386352539
 20
4.997240193684895
 30
0.0
 10
-111.780386352539
 20
4.997240193684895
 30
0.0
 10
-111.780386352539
 20
5.549833509657117
 30
0.0
 10
-112.2310048421223
 20
5.996317884657117
 30
0.0
 10
-112.7835981580946
 20
5.996317884657117
 30
0.0
 10
-112.7835981580946
 20
5.996317884657117
 30
0.0
 10
-126.8189171685112
 20
5.996317884657117
 30
0.0
 10
-126.8189171685112
 20
5.996317884657117
 30
0.0
 10
-127.3742665608723
 20
5.996317884657117
 30
0.0
 10
-127.8207509358723
 20
5.549833509657117
 30
0.0
 10
-127.8207509358723
 20
4.997240193684895
 30
0.0
 10
-127.8207509358723
 20
4.997240193684895
 30
0.0
 10
-127.8207509358723
 20
1.988982815212673
 30
0.0
 10
-127.8207509358723
 20
1.988982815212673
 30
0.0
  0
SPLINE
  5
18D
100
AcDbEntity
  8
ALPHA
 62
     7
100
AcDbSpline
210
0.0
220
0.0
230
1.0
 70
    11
 71
     3
 72
    26
 73
    22
 74
     0
 42
0.0000001
 43
0.0000001
 40
0.0
 40
0.0
 40
0.0
 40
0.0
 40
1.0
 40
1.0
 40
1.0
 40
2.0
 40
2.0
 40
2.0
 40
3.0
 40
3.0
 40
3.0
 40
4.0
 40
4.0
 40
4.0
 40
5.0
 40
5.0
 40
5.0
 40
6.0
 40
6.0
 40
6.0
 40
7.0
 40
7.0
 40
7.0
 40
7.0
 10
-124.8083594428168
 20
-1.017896525065103
 30
0.0
 10
-124.8083594428168
 20
-1.017896525065103
 30
0.0
 10
-127.816616821289
 20
1.988982815212673
 30
0.0
 10
-127.816616821289
 20
1.988982815212673
 30
0.0
 10
-127.816616821289
 20
1.988982815212673
 30
0.0
 10
-132.8285417344835
 20
1.988982815212673
 30
0.0
 10
-132.8285417344835
 20
1.988982815212673
 30
0.0
 10
-134.489077758789
 20
1.988982815212673
 30
0.0
 10
-135.8367991129556
 20
0.6398834228515625
 30
0.0
 10
-135.8367991129556
 20
-1.017896525065103
 30
0.0
 10
-135.8367991129556
 20
-1.017896525065103
 30
0.0
 10
-135.8367991129556
 20
-1.017896525065103
 30
0.0
 10
-135.8367991129556
 20
-1.017896525065103
 30
0.0
 10
-135.8367991129556
 20
-2.679810587565103
 30
0.0
 10
-134.489077758789
 20
-4.024775865342881
 30
0.0
 10
-132.8285417344835
 20
-4.024775865342881
 30
0.0
 10
-132.8285417344835
 20
-4.024775865342881
 30
0.0
 10
-127.816616821289
 20
-4.024775865342881
 30
0.0
 10
-127.816616821289
 20
-4.024775865342881
 30
0.0
 10
-127.816616821289
 20
-4.024775865342881
 30
0.0
 10
-124.8083594428168
 20
-1.017896525065103
 30
0.0
 10
-124.8083594428168
 20
-1.017896525065103
 30
0.0
  0
SPLINE
  5
18E
100
AcDbEntity
  8
ALPHA
 62
     7
100
AcDbSpline
210
0.0
220
0.0
230
-1.0
 70
     8
 71
     3
 72
    32
 73
    28
 74
     0
 42
0.0000001
 43
0.0000001
 40
0.0
 40
0.0
 40
0.0
 40
0.0
 40
1.0
 40
1.0
 40
1.0
 40
2.0
 40
2.0
 40
2.0
 40
3.0
 40
3.0
 40
3.0
 40
4.0
 40
4.0
 40
4.0
 40
5.0
 40
5.0
 40
5.0
 40
6.0
 40
6.0
 40
6.0
 40
7.0
 40
7.0
 40
7.0
 40
8.0
 40
8.0
 40
8.0
 40
9.0
 40
9.0
 40
9.0
 40
9.0
 10
-127.8207509358723
 20
-23.12300720214843
 30
0.0
 10
-127.8207509358723
 20
-23.12300720214843
 30
0.0
 10
-127.8207509358723
 20
-26.12988654242621
 30
0.0
 10
-127.8207509358723
 20
-26.12988654242621
 30
0.0
 10
-127.8207509358723
 20
-26.68661397298176
 30
0.0
 10
-127.3742665608723
 20
-27.13309834798177
 30
0.0
 10
-126.8189171685112
 20
-27.13309834798177
 30
0.0
 10
-126.8189171685112
 20
-27.13309834798177
 30
0.0
 10
-112.7835981580946
 20
-27.13309834798177
 30
0.0
 10
-112.7835981580946
 20
-27.13309834798177
 30
0.0
 10
-112.2310048421223
 20
-27.13309834798177
 30
0.0
 10
-111.780386352539
 20
-26.68661397298176
 30
0.0
 10
-111.780386352539
 20
-26.12988654242621
 30
0.0
 10
-111.780386352539
 20
-26.12988654242621
 30
0.0
 10
-111.780386352539
 20
-14.10099114312066
 30
0.0
 10
-111.780386352539
 20
-14.10099114312066
 30
0.0
 10
-111.780386352539
 20
-13.54839782714843
 30
0.0
 10
-112.2310048421223
 20
-13.10191345214843
 30
0.0
 10
-112.7835981580946
 20
-13.10191345214843
 30
0.0
 10
-112.7835981580946
 20
-13.10191345214843
 30
0.0
 10
-126.8189171685112
 20
-13.10191345214843
 30
0.0
 10
-126.8189171685112
 20
-13.10191345214843
 30
0.0
 10
-127.3742665608723
 20
-13.10191345214843
 30
0.0
 10
-127.8207509358723
 20
-13.54839782714843
 30
0.0
 10
-127.8207509358723
 20
-14.10099114312066
 30
0.0
 10
-127.8207509358723
 20
-14.10099114312066
 30
0.0
 10
-127.8207509358723
 20
-17.10787048339843
 30
0.0
 10
-127.8207509358723
 20
-17.10787048339843
 30
0.0
  0
SPLINE
  5
18F
100
AcDbEntity
  8
ALPHA
 62
     7
100
AcDbSpline
210
0.0
220
0.0
230
1.0
 70
    11
 71
     3
 72
    26
 73
    22
 74
     0
 42
0.0000001
 43
0.0000001
 40
0.0
 40
0.0
 40
0.0
 40
0.0
 40
1.0
 40
1.0
 40
1.0
 40
2.0
 40
2.0
 40
2.0
 40
3.0
 40
3.0
 40
3.0
 40
4.0
 40
4.0
 40
4.0
 40
5.0
 40
5.0
 40
5.0
 40
6.0
 40
6.0
 40
6.0
 40
7.0
 40
7.0
 40
7.0
 40
7.0
 10
-124.8083594428168
 20
-20.11474982367621
 30
0.0
 10
-124.8083594428168
 20
-20.11474982367621
 30
0.0
 10
-127.816616821289
 20
-17.10787048339843
 30
0.0
 10
-127.816616821289
 20
-17.10787048339843
 30
0.0
 10
-127.816616821289
 20
-17.10787048339843
 30
0.0
 10
-132.8285417344835
 20
-17.10787048339843
 30
0.0
 10
-132.8285417344835
 20
-17.10787048339843
 30
0.0
 10
-134.489077758789
 20
-17.10787048339843
 30
0.0
 10
-135.8367991129556
 20
-18.45696987575954
 30
0.0
 10
-135.8367991129556
 20
-20.11474982367621
 30
0.0
 10
-135.8367991129556
 20
-20.11474982367621
 30
0.0
 10
-135.8367991129556
 20
-20.11474982367621
 30
0.0
 10
-135.8367991129556
 20
-20.11474982367621
 30
0.0
 10
-135.8367991129556
 20
-21.77804192437065
 30
0.0
 10
-134.489077758789
 20
-23.12300720214843
 30
0.0
 10
-132.8285417344835
 20
-23.12300720214843
 30
0.0
 10
-132.8285417344835
 20
-23.12300720214843
 30
0.0
 10
-127.816616821289
 20
-23.12300720214843
 30
0.0
 10
-127.816616821289
 20
-23.12300720214843
 30
0.0
 10
-127.816616821289
 20
-23.12300720214843
 30
0.0
 10
-124.8083594428168
 20
-20.11474982367621
 30
0.0
 10
-124.8083594428168
 20
-20.11474982367621
 30
0.0
  0
SPLINE
  5
190
100
AcDbEntity
  8
ALPHA
 62
     7
100
AcDbSpline
210
0.0
220
0.0
230
-1.0
 70
     8
 71
     3
 72
    32
 73
    28
 74
     0
 42
0.0000001
 43
0.0000001
 40
0.0
 40
0.0
 40
0.0
 40
0.0
 40
1.0
 40
1.0
 40
1.0
 40
2.0
 40
2.0
 40
2.0
 40
3.0
 40
3.0
 40
3.0
 40
4.0
 40
4.0
 40
4.0
 40
5.0
 40
5.0
 40
5.0
 40
6.0
 40
6.0
 40
6.0
 40
7.0
 40
7.0
 40
7.0
 40
8.0
 40
8.0
 40
8.0
 40
9.0
 40
9.0
 40
9.0
 40
9.0
 10
-127.8207509358723
 20
-42.21986050075954
 30
0.0
 10
-127.8207509358723
 20
-42.21986050075954
 30
0.0
 10
-127.8207509358723
 20
-45.22811787923177
 30
0.0
 10
-127.8207509358723
 20
-45.22811787923177
 30
0.0
 10
-127.8207509358723
 20
-45.78484530978732
 30
0.0
 10
-127.3742665608723
 20
-46.23132968478731
 30
0.0
 10
-126.8189171685112
 20
-46.23132968478731
 30
0.0
 10
-126.8189171685112
 20
-46.23132968478731
 30
0.0
 10
-112.7835981580946
 20
-46.23132968478731
 30
0.0
 10
-112.7835981580946
 20
-46.23132968478731
 30
0.0
 10
-112.2310048421223
 20
-46.23132968478731
 30
0.0
 10
-111.780386352539
 20
-45.78484530978732
 30
0.0
 10
-111.780386352539
 20
-45.22811787923177
 30
0.0
 10
-111.780386352539
 20
-45.22811787923177
 30
0.0
 10
-111.780386352539
 20
-33.19922247992621
 30
0.0
 10
-111.780386352539
 20
-33.19922247992621
 30
0.0
 10
-111.780386352539
 20
-32.64662916395399
 30
0.0
 10
-112.2310048421223
 20
-32.19876675075954
 30
0.0
 10
-112.7835981580946
 20
-32.19876675075954
 30
0.0
 10
-112.7835981580946
 20
-32.19876675075954
 30
0.0
 10
-126.8189171685112
 20
-32.19876675075954
 30
0.0
 10
-126.8189171685112
 20
-32.19876675075954
 30
0.0
 10
-127.3742665608723
 20
-32.19876675075954
 30
0.0
 10
-127.8207509358723
 20
-32.64662916395399
 30
0.0
 10
-127.8207509358723
 20
-33.19922247992621
 30
0.0
 10
-127.8207509358723
 20
-33.19922247992621
 30
0.0
 10
-127.8207509358723
 20
-36.20610182020399
 30
0.0
 10
-127.8207509358723
 20
-36.20610182020399
 30
0.0
  0
SPLINE
  5
191
100
AcDbEntity
  8
ALPHA
 62
     7
100
AcDbSpline
210
0.0
220
0.0
230
1.0
 70
    11
 71
     3
 72
    26
 73
    22
 74
     0
 42
0.0000001
 43
0.0000001
 40
0.0
 40
0.0
 40
0.0
 40
0.0
 40
1.0
 40
1.0
 40
1.0
 40
2.0
 40
2.0
 40
2.0
 40
3.0
 40
3.0
 40
3.0
 40
4.0
 40
4.0
 40
4.0
 40
5.0
 40
5.0
 40
5.0
 40
6.0
 40
6.0
 40
6.0
 40
7.0
 40
7.0
 40
7.0
 40
7.0
 10
-124.8083594428168
 20
-39.21298116048177
 30
0.0
 10
-124.8083594428168
 20
-39.21298116048177
 30
0.0
 10
-127.816616821289
 20
-36.20610182020399
 30
0.0
 10
-127.816616821289
 20
-36.20610182020399
 30
0.0
 10
-127.816616821289
 20
-36.20610182020399
 30
0.0
 10
-132.8285417344835
 20
-36.20610182020399
 30
0.0
 10
-132.8285417344835
 20
-36.20610182020399
 30
0.0
 10
-134.489077758789
 20
-36.20610182020399
 30
0.0
 10
-135.8367991129556
 20
-37.5552012125651
 30
0.0
 10
-135.8367991129556
 20
-39.21298116048177
 30
0.0
 10
-135.8367991129556
 20
-39.21298116048177
 30
0.0
 10
-135.8367991129556
 20
-39.21298116048177
 30
0.0
 10
-135.8367991129556
 20
-39.21298116048177
 30
0.0
 10
-135.8367991129556
 20
-40.87489522298176
 30
0.0
 10
-134.489077758789
 20
-42.21986050075954
 30
0.0
 10
-132.8285417344835
 20
-42.21986050075954
 30
0.0
 10
-132.8285417344835
 20
-42.21986050075954
 30
0.0
 10
-127.816616821289
 20
-42.21986050075954
 30
0.0
 10
-127.816616821289
 20
-42.21986050075954
 30
0.0
 10
-127.816616821289
 20
-42.21986050075954
 30
0.0
 10
-124.8083594428168
 20
-39.21298116048177
 30
0.0
 10
-124.8083594428168
 20
-39.21298116048177
 30
0.0
  0
SPLINE
  5
192
100
AcDbEntity
  8
ALPHA
 62
     7
100
AcDbSpline
210
0.0
220
0.0
230
-1.0
 70
     8
 71
     3
 72
    32
 73
    28
 74
     0
 42
0.0000001
 43
0.0000001
 40
0.0
 40
0.0
 40
0.0
 40
0.0
 40
1.0
 40
1.0
 40
1.0
 40
2.0
 40
2.0
 40
2.0
 40
3.0
 40
3.0
 40
3.0
 40
4.0
 40
4.0
 40
4.0
 40
5.0
 40
5.0
 40
5.0
 40
6.0
 40
6.0
 40
6.0
 40
7.0
 40
7.0
 40
7.0
 40
8.0
 40
8.0
 40
8.0
 40
9.0
 40
9.0
 40
9.0
 40
9.0
 10
-127.8207509358723
 20
-61.3180918375651
 30
0.0
 10
-127.8207509358723
 20
-61.3180918375651
 30
0.0
 10
-127.8207509358723
 20
-64.32497117784286
 30
0.0
 10
-127.8207509358723
 20
-64.32497117784286
 30
0.0
 10
-127.8207509358723
 20
-64.88169860839843
 30
0.0
 10
-127.3742665608723
 20
-65.32956102159288
 30
0.0
 10
-126.8189171685112
 20
-65.32956102159288
 30
0.0
 10
-126.8189171685112
 20
-65.32956102159288
 30
0.0
 10
-112.7835981580946
 20
-65.32956102159288
 30
0.0
 10
-112.7835981580946
 20
-65.32956102159288
 30
0.0
 10
-112.2310048421223
 20
-65.32956102159288
 30
0.0
 10
-111.780386352539
 20
-64.88169860839843
 30
0.0
 10
-111.780386352539
 20
-64.32497117784286
 30
0.0
 10
-111.780386352539
 20
-64.32497117784286
 30
0.0
 10
-111.780386352539
 20
-52.29607577853732
 30
0.0
 10
-111.780386352539
 20
-52.29607577853732
 30
0.0
 10
-111.780386352539
 20
-51.7434824625651
 30
0.0
 10
-112.2310048421223
 20
-51.2969980875651
 30
0.0
 10
-112.7835981580946
 20
-51.2969980875651
 30
0.0
 10
-112.7835981580946
 20
-51.2969980875651
 30
0.0
 10
-126.8189171685112
 20
-51.2969980875651
 30
0.0
 10
-126.8189171685112
 20
-51.2969980875651
 30
0.0
 10
-127.3742665608723
 20
-51.2969980875651
 30
0.0
 10
-127.8207509358723
 20
-51.7434824625651
 30
0.0
 10
-127.8207509358723
 20
-52.29607577853732
 30
0.0
 10
-127.8207509358723
 20
-52.29607577853732
 30
0.0
 10
-127.8207509358723
 20
-55.3029551188151
 30
0.0
 10
-127.8207509358723
 20
-55.3029551188151
 30
0.0
  0
SPLINE
  5
193
100
AcDbEntity
  8
ALPHA
 62
     7
100
AcDbSpline
210
0.0
220
0.0
230
1.0
 70
    11
 71
     3
 72
    26
 73
    22
 74
     0
 42
0.0000001
 43
0.0000001
 40
0.0
 40
0.0
 40
0.0
 40
0.0
 40
1.0
 40
1.0
 40
1.0
 40
2.0
 40
2.0
 40
2.0
 40
3.0
 40
3.0
 40
3.0
 40
4.0
 40
4.0
 40
4.0
 40
5.0
 40
5.0
 40
5.0
 40
6.0
 40
6.0
 40
6.0
 40
7.0
 40
7.0
 40
7.0
 40
7.0
 10
-124.8083594428168
 20
-58.31121249728732
 30
0.0
 10
-124.8083594428168
 20
-58.31121249728732
 30
0.0
 10
-127.816616821289
 20
-55.3029551188151
 30
0.0
 10
-127.816616821289
 20
-55.3029551188151
 30
0.0
 10
-127.816616821289
 20
-55.3029551188151
 30
0.0
 10
-132.8285417344835
 20
-55.3029551188151
 30
0.0
 10
-132.8285417344835
 20
-55.3029551188151
 30
0.0
 10
-134.489077758789
 20
-55.3029551188151
 30
0.0
 10
-135.8367991129556
 20
-56.65343254937066
 30
0.0
 10
-135.8367991129556
 20
-58.31121249728732
 30
0.0
 10
-135.8367991129556
 20
-58.31121249728732
 30
0.0
 10
-135.8367991129556
 20
-58.31121249728732
 30
0.0
 10
-135.8367991129556
 20
-58.31121249728732
 30
0.0
 10
-135.8367991129556
 20
-59.97312655978731
 30
0.0
 10
-134.489077758789
 20
-61.3180918375651
 30
0.0
 10
-132.8285417344835
 20
-61.3180918375651
 30
0.0
 10
-132.8285417344835
 20
-61.3180918375651
 30
0.0
 10
-127.816616821289
 20
-61.3180918375651
 30
0.0
 10
-127.816616821289
 20
-61.3180918375651
 30
0.0
 10
-127.816616821289
 20
-61.3180918375651
 30
0.0
 10
-124.8083594428168
 20
-58.31121249728732
 30
0.0
 10
-124.8083594428168
 20
-58.31121249728732
 30
0.0
  0
SPLINE
  5
194
100
AcDbEntity
  8
ALPHA
 62
     7
100
AcDbSpline
210
0.0
220
0.0
230
-1.0
 70
     8
 71
     3
 72
    32
 73
    28
 74
     0
 42
0.0000001
 43
0.0000001
 40
0.0
 40
0.0
 40
0.0
 40
0.0
 40
1.0
 40
1.0
 40
1.0
 40
2.0
 40
2.0
 40
2.0
 40
3.0
 40
3.0
 40
3.0
 40
4.0
 40
4.0
 40
4.0
 40
5.0
 40
5.0
 40
5.0
 40
6.0
 40
6.0
 40
6.0
 40
7.0
 40
7.0
 40
7.0
 40
8.0
 40
8.0
 40
8.0
 40
9.0
 40
9.0
 40
9.0
 40
9.0
 10
-127.8207509358723
 20
-80.41494513617621
 30
0.0
 10
-127.8207509358723
 20
-80.41494513617621
 30
0.0
 10
-127.8207509358723
 20
-83.42320251464842
 30
0.0
 10
-127.8207509358723
 20
-83.42320251464842
 30
0.0
 10
-127.8207509358723
 20
-83.97992994520398
 30
0.0
 10
-127.3742665608723
 20
-84.42641432020399
 30
0.0
 10
-126.8189171685112
 20
-84.42641432020399
 30
0.0
 10
-126.8189171685112
 20
-84.42641432020399
 30
0.0
 10
-112.7835981580946
 20
-84.42641432020399
 30
0.0
 10
-112.7835981580946
 20
-84.42641432020399
 30
0.0
 10
-112.2310048421223
 20
-84.42641432020399
 30
0.0
 10
-111.780386352539
 20
-83.97992994520398
 30
0.0
 10
-111.780386352539
 20
-83.42320251464842
 30
0.0
 10
-111.780386352539
 20
-83.42320251464842
 30
0.0
 10
-111.780386352539
 20
-71.39430711534287
 30
0.0
 10
-111.780386352539
 20
-71.39430711534287
 30
0.0
 10
-111.780386352539
 20
-70.84171379937065
 30
0.0
 10
-112.2310048421223
 20
-70.39522942437065
 30
0.0
 10
-112.7835981580946
 20
-70.39522942437065
 30
0.0
 10
-112.7835981580946
 20
-70.39522942437065
 30
0.0
 10
-126.8189171685112
 20
-70.39522942437065
 30
0.0
 10
-126.8189171685112
 20
-70.39522942437065
 30
0.0
 10
-127.3742665608723
 20
-70.39522942437065
 30
0.0
 10
-127.8207509358723
 20
-70.84171379937065
 30
0.0
 10
-127.8207509358723
 20
-71.39430711534287
 30
0.0
 10
-127.8207509358723
 20
-71.39430711534287
 30
0.0
 10
-127.8207509358723
 20
-74.40118645562065
 30
0.0
 10
-127.8207509358723
 20
-74.40118645562065
 30
0.0
  0
SPLINE
  5
195
100
AcDbEntity
  8
ALPHA
 62
     7
100
AcDbSpline
210
0.0
220
0.0
230
1.0
 70
    11
 71
     3
 72
    26
 73
    22
 74
     0
 42
0.0000001
 43
0.0000001
 40
0.0
 40
0.0
 40
0.0
 40
0.0
 40
1.0
 40
1.0
 40
1.0
 40
2.0
 40
2.0
 40
2.0
 40
3.0
 40
3.0
 40
3.0
 40
4.0
 40
4.0
 40
4.0
 40
5.0
 40
5.0
 40
5.0
 40
6.0
 40
6.0
 40
6.0
 40
7.0
 40
7.0
 40
7.0
 40
7.0
 10
-124.8083594428168
 20
-77.40806579589843
 30
0.0
 10
-124.8083594428168
 20
-77.40806579589843
 30
0.0
 10
-127.816616821289
 20
-74.40118645562065
 30
0.0
 10
-127.816616821289
 20
-74.40118645562065
 30
0.0
 10
-127.816616821289
 20
-74.40118645562065
 30
0.0
 10
-132.8285417344835
 20
-74.40118645562065
 30
0.0
 10
-132.8285417344835
 20
-74.40118645562065
 30
0.0
 10
-134.489077758789
 20
-74.40118645562065
 30
0.0
 10
-135.8367991129556
 20
-75.75028584798175
 30
0.0
 10
-135.8367991129556
 20
-77.40806579589843
 30
0.0
 10
-135.8367991129556
 20
-77.40806579589843
 30
0.0
 10
-135.8367991129556
 20
-77.40806579589843
 30
0.0
 10
-135.8367991129556
 20
-77.40806579589843
 30
0.0
 10
-135.8367991129556
 20
-79.07135789659287
 30
0.0
 10
-134.489077758789
 20
-80.41494513617621
 30
0.0
 10
-132.8285417344835
 20
-80.41494513617621
 30
0.0
 10
-132.8285417344835
 20
-80.41494513617621
 30
0.0
 10
-127.816616821289
 20
-80.41494513617621
 30
0.0
 10
-127.816616821289
 20
-80.41494513617621
 30
0.0
 10
-127.816616821289
 20
-80.41494513617621
 30
0.0
 10
-124.8083594428168
 20
-77.40806579589843
 30
0.0
 10
-124.8083594428168
 20
-77.40806579589843
 30
0.0
  0
SPLINE
  5
196
100
AcDbEntity
  8
ALPHA
 62
     7
100
AcDbSpline
210
0.0
220
0.0
230
-1.0
 70
     8
 71
     3
 72
    32
 73
    28
 74
     0
 42
0.0000001
 43
0.0000001
 40
0.0
 40
0.0
 40
0.0
 40
0.0
 40
1.0
 40
1.0
 40
1.0
 40
2.0
 40
2.0
 40
2.0
 40
3.0
 40
3.0
 40
3.0
 40
4.0
 40
4.0
 40
4.0
 40
5.0
 40
5.0
 40
5.0
 40
6.0
 40
6.0
 40
6.0
 40
7.0
 40
7.0
 40
7.0
 40
8.0
 40
8.0
 40
8.0
 40
9.0
 40
9.0
 40
9.0
 40
9.0
 10
-89.72075093587239
 20
15.07362772623697
 30
0.0
 10
-89.72075093587239
 20
15.07362772623697
 30
0.0
 10
-89.72075093587239
 20
12.06537034776475
 30
0.0
 10
-89.72075093587239
 20
12.06537034776475
 30
0.0
 10
-89.72075093587239
 20
11.5086429172092
 30
0.0
 10
-90.16723531087238
 20
11.0621585422092
 30
0.0
 10
-90.72534077962238
 20
11.0621585422092
 30
0.0
 10
-90.72534077962238
 20
11.0621585422092
 30
0.0
 10
-104.7565256754557
 20
11.0621585422092
 30
0.0
 10
-104.7565256754557
 20
11.0621585422092
 30
0.0
 10
-105.3091189914279
 20
11.0621585422092
 30
0.0
 10
-105.7611155192057
 20
11.5086429172092
 30
0.0
 10
-105.7611155192057
 20
12.06537034776475
 30
0.0
 10
-105.7611155192057
 20
12.06537034776475
 30
0.0
 10
-105.7611155192057
 20
24.09426574707031
 30
0.0
 10
-105.7611155192057
 20
24.09426574707031
 30
0.0
 10
-105.7611155192057
 20
24.64685906304253
 30
0.0
 10
-105.3091189914279
 20
25.09334343804253
 30
0.0
 10
-104.7565256754557
 20
25.09334343804253
 30
0.0
 10
-104.7565256754557
 20
25.09334343804253
 30
0.0
 10
-90.72534077962238
 20
25.09334343804253
 30
0.0
 10
-90.72534077962238
 20
25.09334343804253
 30
0.0
 10
-90.16723531087238
 20
25.09334343804253
 30
0.0
 10
-89.72075093587239
 20
24.64685906304253
 30
0.0
 10
-89.72075093587239
 20
24.09426574707031
 30
0.0
 10
-89.72075093587239
 20
24.09426574707031
 30
0.0
 10
-89.72075093587239
 20
21.08738640679253
 30
0.0
 10
-89.72075093587239
 20
21.08738640679253
 30
0.0
  0
SPLINE
  5
197
100
AcDbEntity
  8
ALPHA
 62
     7
100
AcDbSpline
210
0.0
220
0.0
230
1.0
 70
    11
 71
     3
 72
    26
 73
    22
 74
     0
 42
0.0000001
 43
0.0000001
 40
0.0
 40
0.0
 40
0.0
 40
0.0
 40
1.0
 40
1.0
 40
1.0
 40
2.0
 40
2.0
 40
2.0
 40
3.0
 40
3.0
 40
3.0
 40
4.0
 40
4.0
 40
4.0
 40
5.0
 40
5.0
 40
5.0
 40
6.0
 40
6.0
 40
6.0
 40
7.0
 40
7.0
 40
7.0
 40
7.0
 10
-92.73314242892794
 20
18.08050706651475
 30
0.0
 10
-92.73314242892794
 20
18.08050706651475
 30
0.0
 10
-89.72626308865017
 20
21.08738640679253
 30
0.0
 10
-89.72626308865017
 20
21.08738640679253
 30
0.0
 10
-89.72626308865017
 20
21.08738640679253
 30
0.0
 10
-84.71571621365017
 20
21.08738640679253
 30
0.0
 10
-84.71571621365017
 20
21.08738640679253
 30
0.0
 10
-83.05242411295571
 20
21.08738640679253
 30
0.0
 10
-81.70745883517794
 20
19.73828701443142
 30
0.0
 10
-81.70745883517794
 20
18.08050706651475
 30
0.0
 10
-81.70745883517794
 20
18.08050706651475
 30
0.0
 10
-81.70745883517794
 20
18.08050706651475
 30
0.0
 10
-81.70745883517794
 20
18.08050706651475
 30
0.0
 10
-81.70745883517794
 20
16.41721496582031
 30
0.0
 10
-83.05242411295571
 20
15.07362772623697
 30
0.0
 10
-84.71571621365017
 20
15.07362772623697
 30
0.0
 10
-84.71571621365017
 20
15.07362772623697
 30
0.0
 10
-89.72626308865017
 20
15.07362772623697
 30
0.0
 10
-89.72626308865017
 20
15.07362772623697
 30
0.0
 10
-89.72626308865017
 20
15.07362772623697
 30
0.0
 10
-92.73314242892794
 20
18.08050706651475
 30
0.0
 10
-92.73314242892794
 20
18.08050706651475
 30
0.0
  0
SPLINE
  5
198
100
AcDbEntity
  8
ALPHA
 62
     7
100
AcDbSpline
210
0.0
220
0.0
230
-1.0
 70
     8
 71
     3
 72
    32
 73
    28
 74
     0
 42
0.0000001
 43
0.0000001
 40
0.0
 40
0.0
 40
0.0
 40
0.0
 40
1.0
 40
1.0
 40
1.0
 40
2.0
 40
2.0
 40
2.0
 40
3.0
 40
3.0
 40
3.0
 40
4.0
 40
4.0
 40
4.0
 40
5.0
 40
5.0
 40
5.0
 40
6.0
 40
6.0
 40
6.0
 40
7.0
 40
7.0
 40
7.0
 40
8.0
 40
8.0
 40
8.0
 40
9.0
 40
9.0
 40
9.0
 40
9.0
 10
-89.72075093587239
 20
-4.024775865342881
 30
0.0
 10
-89.72075093587239
 20
-4.024775865342881
 30
0.0
 10
-89.72075093587239
 20
-7.031655205620658
 30
0.0
 10
-89.72075093587239
 20
-7.031655205620658
 30
0.0
 10
-89.72075093587239
 20
-7.589760674370658
 30
0.0
 10
-90.16723531087238
 20
-8.036245049370659
 30
0.0
 10
-90.72534077962238
 20
-8.036245049370659
 30
0.0
 10
-90.72534077962238
 20
-8.036245049370659
 30
0.0
 10
-104.7565256754557
 20
-8.036245049370659
 30
0.0
 10
-104.7565256754557
 20
-8.036245049370659
 30
0.0
 10
-105.3091189914279
 20
-8.036245049370659
 30
0.0
 10
-105.7611155192057
 20
-7.589760674370658
 30
0.0
 10
-105.7611155192057
 20
-7.031655205620658
 30
0.0
 10
-105.7611155192057
 20
-7.031655205620658
 30
0.0
 10
-105.7611155192057
 20
4.997240193684895
 30
0.0
 10
-105.7611155192057
 20
4.997240193684895
 30
0.0
 10
-105.7611155192057
 20
5.549833509657117
 30
0.0
 10
-105.3091189914279
 20
5.996317884657117
 30
0.0
 10
-104.7565256754557
 20
5.996317884657117
 30
0.0
 10
-104.7565256754557
 20
5.996317884657117
 30
0.0
 10
-90.72534077962238
 20
5.996317884657117
 30
0.0
 10
-90.72534077962238
 20
5.996317884657117
 30
0.0
 10
-90.16723531087238
 20
5.996317884657117
 30
0.0
 10
-89.72075093587239
 20
5.549833509657117
 30
0.0
 10
-89.72075093587239
 20
4.997240193684895
 30
0.0
 10
-89.72075093587239
 20
4.997240193684895
 30
0.0
 10
-89.72075093587239
 20
1.988982815212673
 30
0.0
 10
-89.72075093587239
 20
1.988982815212673
 30
0.0
  0
SPLINE
  5
199
100
AcDbEntity
  8
ALPHA
 62
     7
100
AcDbSpline
210
0.0
220
0.0
230
1.0
 70
    11
 71
     3
 72
    26
 73
    22
 74
     0
 42
0.0000001
 43
0.0000001
 40
0.0
 40
0.0
 40
0.0
 40
0.0
 40
1.0
 40
1.0
 40
1.0
 40
2.0
 40
2.0
 40
2.0
 40
3.0
 40
3.0
 40
3.0
 40
4.0
 40
4.0
 40
4.0
 40
5.0
 40
5.0
 40
5.0
 40
6.0
 40
6.0
 40
6.0
 40
7.0
 40
7.0
 40
7.0
 40
7.0
 10
-92.73314242892794
 20
-1.017896525065103
 30
0.0
 10
-92.73314242892794
 20
-1.017896525065103
 30
0.0
 10
-89.72626308865017
 20
1.988982815212673
 30
0.0
 10
-89.72626308865017
 20
1.988982815212673
 30
0.0
 10
-89.72626308865017
 20
1.988982815212673
 30
0.0
 10
-84.71571621365017
 20
1.988982815212673
 30
0.0
 10
-84.71571621365017
 20
1.988982815212673
 30
0.0
 10
-83.05242411295571
 20
1.988982815212673
 30
0.0
 10
-81.70745883517794
 20
0.6398834228515625
 30
0.0
 10
-81.70745883517794
 20
-1.017896525065103
 30
0.0
 10
-81.70745883517794
 20
-1.017896525065103
 30
0.0
 10
-81.70745883517794
 20
-1.017896525065103
 30
0.0
 10
-81.70745883517794
 20
-1.017896525065103
 30
0.0
 10
-81.70745883517794
 20
-2.679810587565103
 30
0.0
 10
-83.05242411295571
 20
-4.024775865342881
 30
0.0
 10
-84.71571621365017
 20
-4.024775865342881
 30
0.0
 10
-84.71571621365017
 20
-4.024775865342881
 30
0.0
 10
-89.72626308865017
 20
-4.024775865342881
 30
0.0
 10
-89.72626308865017
 20
-4.024775865342881
 30
0.0
 10
-89.72626308865017
 20
-4.024775865342881
 30
0.0
 10
-92.73314242892794
 20
-1.017896525065103
 30
0.0
 10
-92.73314242892794
 20
-1.017896525065103
 30
0.0
  0
SPLINE
  5
19A
100
AcDbEntity
  8
ALPHA
 62
     7
100
AcDbSpline
210
0.0
220
0.0
230
-1.0
 70
     8
 71
     3
 72
    32
 73
    28
 74
     0
 42
0.0000001
 43
0.0000001
 40
0.0
 40
0.0
 40
0.0
 40
0.0
 40
1.0
 40
1.0
 40
1.0
 40
2.0
 40
2.0
 40
2.0
 40
3.0
 40
3.0
 40
3.0
 40
4.0
 40
4.0
 40
4.0
 40
5.0
 40
5.0
 40
5.0
 40
6.0
 40
6.0
 40
6.0
 40
7.0
 40
7.0
 40
7.0
 40
8.0
 40
8.0
 40
8.0
 40
9.0
 40
9.0
 40
9.0
 40
9.0
 10
-89.72075093587239
 20
-23.12300720214843
 30
0.0
 10
-89.72075093587239
 20
-23.12300720214843
 30
0.0
 10
-89.72075093587239
 20
-26.12988654242621
 30
0.0
 10
-89.72075093587239
 20
-26.12988654242621
 30
0.0
 10
-89.72075093587239
 20
-26.68661397298176
 30
0.0
 10
-90.16723531087238
 20
-27.13309834798177
 30
0.0
 10
-90.72534077962238
 20
-27.13309834798177
 30
0.0
 10
-90.72534077962238
 20
-27.13309834798177
 30
0.0
 10
-104.7565256754557
 20
-27.13309834798177
 30
0.0
 10
-104.7565256754557
 20
-27.13309834798177
 30
0.0
 10
-105.3091189914279
 20
-27.13309834798177
 30
0.0
 10
-105.7611155192057
 20
-26.68661397298176
 30
0.0
 10
-105.7611155192057
 20
-26.12988654242621
 30
0.0
 10
-105.7611155192057
 20
-26.12988654242621
 30
0.0
 10
-105.7611155192057
 20
-14.10099114312066
 30
0.0
 10
-105.7611155192057
 20
-14.10099114312066
 30
0.0
 10
-105.7611155192057
 20
-13.54839782714843
 30
0.0
 10
-105.3091189914279
 20
-13.10191345214843
 30
0.0
 10
-104.7565256754557
 20
-13.10191345214843
 30
0.0
 10
-104.7565256754557
 20
-13.10191345214843
 30
0.0
 10
-90.72534077962238
 20
-13.10191345214843
 30
0.0
 10
-90.72534077962238
 20
-13.10191345214843
 30
0.0
 10
-90.16723531087238
 20
-13.10191345214843
 30
0.0
 10
-89.72075093587239
 20
-13.54839782714843
 30
0.0
 10
-89.72075093587239
 20
-14.10099114312066
 30
0.0
 10
-89.72075093587239
 20
-14.10099114312066
 30
0.0
 10
-89.72075093587239
 20
-17.10787048339843
 30
0.0
 10
-89.72075093587239
 20
-17.10787048339843
 30
0.0
  0
SPLINE
  5
19B
100
AcDbEntity
  8
ALPHA
 62
     7
100
AcDbSpline
210
0.0
220
0.0
230
1.0
 70
    11
 71
     3
 72
    26
 73
    22
 74
     0
 42
0.0000001
 43
0.0000001
 40
0.0
 40
0.0
 40
0.0
 40
0.0
 40
1.0
 40
1.0
 40
1.0
 40
2.0
 40
2.0
 40
2.0
 40
3.0
 40
3.0
 40
3.0
 40
4.0
 40
4.0
 40
4.0
 40
5.0
 40
5.0
 40
5.0
 40
6.0
 40
6.0
 40
6.0
 40
7.0
 40
7.0
 40
7.0
 40
7.0
 10
-92.73314242892794
 20
-20.11474982367621
 30
0.0
 10
-92.73314242892794
 20
-20.11474982367621
 30
0.0
 10
-89.72626308865017
 20
-17.10787048339843
 30
0.0
 10
-89.72626308865017
 20
-17.10787048339843
 30
0.0
 10
-89.72626308865017
 20
-17.10787048339843
 30
0.0
 10
-84.71571621365017
 20
-17.10787048339843
 30
0.0
 10
-84.71571621365017
 20
-17.10787048339843
 30
0.0
 10
-83.05242411295571
 20
-17.10787048339843
 30
0.0
 10
-81.70745883517794
 20
-18.45696987575954
 30
0.0
 10
-81.70745883517794
 20
-20.11474982367621
 30
0.0
 10
-81.70745883517794
 20
-20.11474982367621
 30
0.0
 10
-81.70745883517794
 20
-20.11474982367621
 30
0.0
 10
-81.70745883517794
 20
-20.11474982367621
 30
0.0
 10
-81.70745883517794
 20
-21.77804192437065
 30
0.0
 10
-83.05242411295571
 20
-23.12300720214843
 30
0.0
 10
-84.71571621365017
 20
-23.12300720214843
 30
0.0
 10
-84.71571621365017
 20
-23.12300720214843
 30
0.0
 10
-89.72626308865017
 20
-23.12300720214843
 30
0.0
 10
-89.72626308865017
 20
-23.12300720214843
 30
0.0
 10
-89.72626308865017
 20
-23.12300720214843
 30
0.0
 10
-92.73314242892794
 20
-20.11474982367621
 30
0.0
 10
-92.73314242892794
 20
-20.11474982367621
 30
0.0
  0
SPLINE
  5
19C
100
AcDbEntity
  8
ALPHA
 62
     7
100
AcDbSpline
210
0.0
220
0.0
230
-1.0
 70
     8
 71
     3
 72
    32
 73
    28
 74
     0
 42
0.0000001
 43
0.0000001
 40
0.0
 40
0.0
 40
0.0
 40
0.0
 40
1.0
 40
1.0
 40
1.0
 40
2.0
 40
2.0
 40
2.0
 40
3.0
 40
3.0
 40
3.0
 40
4.0
 40
4.0
 40
4.0
 40
5.0
 40
5.0
 40
5.0
 40
6.0
 40
6.0
 40
6.0
 40
7.0
 40
7.0
 40
7.0
 40
8.0
 40
8.0
 40
8.0
 40
9.0
 40
9.0
 40
9.0
 40
9.0
 10
-89.72075093587239
 20
-42.21986050075954
 30
0.0
 10
-89.72075093587239
 20
-42.21986050075954
 30
0.0
 10
-89.72075093587239
 20
-45.22811787923177
 30
0.0
 10
-89.72075093587239
 20
-45.22811787923177
 30
0.0
 10
-89.72075093587239
 20
-45.78484530978732
 30
0.0
 10
-90.16723531087238
 20
-46.23132968478731
 30
0.0
 10
-90.72534077962238
 20
-46.23132968478731
 30
0.0
 10
-90.72534077962238
 20
-46.23132968478731
 30
0.0
 10
-104.7565256754557
 20
-46.23132968478731
 30
0.0
 10
-104.7565256754557
 20
-46.23132968478731
 30
0.0
 10
-105.3091189914279
 20
-46.23132968478731
 30
0.0
 10
-105.7611155192057
 20
-45.78484530978732
 30
0.0
 10
-105.7611155192057
 20
-45.22811787923177
 30
0.0
 10
-105.7611155192057
 20
-45.22811787923177
 30
0.0
 10
-105.7611155192057
 20
-33.19922247992621
 30
0.0
 10
-105.7611155192057
 20
-33.19922247992621
 30
0.0
 10
-105.7611155192057
 20
-32.64662916395399
 30
0.0
 10
-105.3091189914279
 20
-32.19876675075954
 30
0.0
 10
-104.7565256754557
 20
-32.19876675075954
 30
0.0
 10
-104.7565256754557
 20
-32.19876675075954
 30
0.0
 10
-90.72534077962238
 20
-32.19876675075954
 30
0.0
 10
-90.72534077962238
 20
-32.19876675075954
 30
0.0
 10
-90.16723531087238
 20
-32.19876675075954
 30
0.0
 10
-89.72075093587239
 20
-32.64662916395399
 30
0.0
 10
-89.72075093587239
 20
-33.19922247992621
 30
0.0
 10
-89.72075093587239
 20
-33.19922247992621
 30
0.0
 10
-89.72075093587239
 20
-36.20610182020399
 30
0.0
 10
-89.72075093587239
 20
-36.20610182020399
 30
0.0
  0
SPLINE
  5
19D
100
AcDbEntity
  8
ALPHA
 62
     7
100
AcDbSpline
210
0.0
220
0.0
230
1.0
 70
    11
 71
     3
 72
    26
 73
    22
 74
     0
 42
0.0000001
 43
0.0000001
 40
0.0
 40
0.0
 40
0.0
 40
0.0
 40
1.0
 40
1.0
 40
1.0
 40
2.0
 40
2.0
 40
2.0
 40
3.0
 40
3.0
 40
3.0
 40
4.0
 40
4.0
 40
4.0
 40
5.0
 40
5.0
 40
5.0
 40
6.0
 40
6.0
 40
6.0
 40
7.0
 40
7.0
 40
7.0
 40
7.0
 10
-92.73314242892794
 20
-39.21298116048177
 30
0.0
 10
-92.73314242892794
 20
-39.21298116048177
 30
0.0
 10
-89.72626308865017
 20
-36.20610182020399
 30
0.0
 10
-89.72626308865017
 20
-36.20610182020399
 30
0.0
 10
-89.72626308865017
 20
-36.20610182020399
 30
0.0
 10
-84.71571621365017
 20
-36.20610182020399
 30
0.0
 10
-84.71571621365017
 20
-36.20610182020399
 30
0.0
 10
-83.05242411295571
 20
-36.20610182020399
 30
0.0
 10
-81.70745883517794
 20
-37.5552012125651
 30
0.0
 10
-81.70745883517794
 20
-39.21298116048177
 30
0.0
 10
-81.70745883517794
 20
-39.21298116048177
 30
0.0
 10
-81.70745883517794
 20
-39.21298116048177
 30
0.0
 10
-81.70745883517794
 20
-39.21298116048177
 30
0.0
 10
-81.70745883517794
 20
-40.87489522298176
 30
0.0
 10
-83.05242411295571
 20
-42.21986050075954
 30
0.0
 10
-84.71571621365017
 20
-42.21986050075954
 30
0.0
 10
-84.71571621365017
 20
-42.21986050075954
 30
0.0
 10
-89.72626308865017
 20
-42.21986050075954
 30
0.0
 10
-89.72626308865017
 20
-42.21986050075954
 30
0.0
 10
-89.72626308865017
 20
-42.21986050075954
 30
0.0
 10
-92.73314242892794
 20
-39.21298116048177
 30
0.0
 10
-92.73314242892794
 20
-39.21298116048177
 30
0.0
  0
SPLINE
  5
19E
100
AcDbEntity
  8
ALPHA
 62
     7
100
AcDbSpline
210
0.0
220
0.0
230
-1.0
 70
     8
 71
     3
 72
    32
 73
    28
 74
     0
 42
0.0000001
 43
0.0000001
 40
0.0
 40
0.0
 40
0.0
 40
0.0
 40
1.0
 40
1.0
 40
1.0
 40
2.0
 40
2.0
 40
2.0
 40
3.0
 40
3.0
 40
3.0
 40
4.0
 40
4.0
 40
4.0
 40
5.0
 40
5.0
 40
5.0
 40
6.0
 40
6.0
 40
6.0
 40
7.0
 40
7.0
 40
7.0
 40
8.0
 40
8.0
 40
8.0
 40
9.0
 40
9.0
 40
9.0
 40
9.0
 10
-89.72075093587239
 20
-61.3180918375651
 30
0.0
 10
-89.72075093587239
 20
-61.3180918375651
 30
0.0
 10
-89.72075093587239
 20
-64.32497117784286
 30
0.0
 10
-89.72075093587239
 20
-64.32497117784286
 30
0.0
 10
-89.72075093587239
 20
-64.88169860839843
 30
0.0
 10
-90.16723531087238
 20
-65.32956102159288
 30
0.0
 10
-90.72534077962238
 20
-65.32956102159288
 30
0.0
 10
-90.72534077962238
 20
-65.32956102159288
 30
0.0
 10
-104.7565256754557
 20
-65.32956102159288
 30
0.0
 10
-104.7565256754557
 20
-65.32956102159288
 30
0.0
 10
-105.3091189914279
 20
-65.32956102159288
 30
0.0
 10
-105.7611155192057
 20
-64.88169860839843
 30
0.0
 10
-105.7611155192057
 20
-64.32497117784286
 30
0.0
 10
-105.7611155192057
 20
-64.32497117784286
 30
0.0
 10
-105.7611155192057
 20
-52.29607577853732
 30
0.0
 10
-105.7611155192057
 20
-52.29607577853732
 30
0.0
 10
-105.7611155192057
 20
-51.7434824625651
 30
0.0
 10
-105.3091189914279
 20
-51.2969980875651
 30
0.0
 10
-104.7565256754557
 20
-51.2969980875651
 30
0.0
 10
-104.7565256754557
 20
-51.2969980875651
 30
0.0
 10
-90.72534077962238
 20
-51.2969980875651
 30
0.0
 10
-90.72534077962238
 20
-51.2969980875651
 30
0.0
 10
-90.16723531087238
 20
-51.2969980875651
 30
0.0
 10
-89.72075093587239
 20
-51.7434824625651
 30
0.0
 10
-89.72075093587239
 20
-52.29607577853732
 30
0.0
 10
-89.72075093587239
 20
-52.29607577853732
 30
0.0
 10
-89.72075093587239
 20
-55.3029551188151
 30
0.0
 10
-89.72075093587239
 20
-55.3029551188151
 30
0.0
  0
SPLINE
  5
19F
100
AcDbEntity
  8
ALPHA
 62
     7
100
AcDbSpline
210
0.0
220
0.0
230
1.0
 70
    11
 71
     3
 72
    26
 73
    22
 74
     0
 42
0.0000001
 43
0.0000001
 40
0.0
 40
0.0
 40
0.0
 40
0.0
 40
1.0
 40
1.0
 40
1.0
 40
2.0
 40
2.0
 40
2.0
 40
3.0
 40
3.0
 40
3.0
 40
4.0
 40
4.0
 40
4.0
 40
5.0
 40
5.0
 40
5.0
 40
6.0
 40
6.0
 40
6.0
 40
7.0
 40
7.0
 40
7.0
 40
7.0
 10
-92.73314242892794
 20
-58.31121249728732
 30
0.0
 10
-92.73314242892794
 20
-58.31121249728732
 30
0.0
 10
-89.72626308865017
 20
-55.3029551188151
 30
0.0
 10
-89.72626308865017
 20
-55.3029551188151
 30
0.0
 10
-89.72626308865017
 20
-55.3029551188151
 30
0.0
 10
-84.71571621365017
 20
-55.3029551188151
 30
0.0
 10
-84.71571621365017
 20
-55.3029551188151
 30
0.0
 10
-83.05242411295571
 20
-55.3029551188151
 30
0.0
 10
-81.70745883517794
 20
-56.65343254937066
 30
0.0
 10
-81.70745883517794
 20
-58.31121249728732
 30
0.0
 10
-81.70745883517794
 20
-58.31121249728732
 30
0.0
 10
-81.70745883517794
 20
-58.31121249728732
 30
0.0
 10
-81.70745883517794
 20
-58.31121249728732
 30
0.0
 10
-81.70745883517794
 20
-59.97312655978731
 30
0.0
 10
-83.05242411295571
 20
-61.3180918375651
 30
0.0
 10
-84.71571621365017
 20
-61.3180918375651
 30
0.0
 10
-84.71571621365017
 20
-61.3180918375651
 30
0.0
 10
-89.72626308865017
 20
-61.3180918375651
 30
0.0
 10
-89.72626308865017
 20
-61.3180918375651
 30
0.0
 10
-89.72626308865017
 20
-61.3180918375651
 30
0.0
 10
-92.73314242892794
 20
-58.31121249728732
 30
0.0
 10
-92.73314242892794
 20
-58.31121249728732
 30
0.0
  0
SPLINE
  5
1A0
100
AcDbEntity
  8
ALPHA
 62
     7
100
AcDbSpline
210
0.0
220
0.0
230
-1.0
 70
     8
 71
     3
 72
    32
 73
    28
 74
     0
 42
0.0000001
 43
0.0000001
 40
0.0
 40
0.0
 40
0.0
 40
0.0
 40
1.0
 40
1.0
 40
1.0
 40
2.0
 40
2.0
 40
2.0
 40
3.0
 40
3.0
 40
3.0
 40
4.0
 40
4.0
 40
4.0
 40
5.0
 40
5.0
 40
5.0
 40
6.0
 40
6.0
 40
6.0
 40
7.0
 40
7.0
 40
7.0
 40
8.0
 40
8.0
 40
8.0
 40
9.0
 40
9.0
 40
9.0
 40
9.0
 10
-89.72075093587239
 20
-80.41494513617621
 30
0.0
 10
-89.72075093587239
 20
-80.41494513617621
 30
0.0
 10
-89.72075093587239
 20
-83.42320251464842
 30
0.0
 10
-89.72075093587239
 20
-83.42320251464842
 30
0.0
 10
-89.72075093587239
 20
-83.97992994520398
 30
0.0
 10
-90.16723531087238
 20
-84.42641432020399
 30
0.0
 10
-90.72534077962238
 20
-84.42641432020399
 30
0.0
 10
-90.72534077962238
 20
-84.42641432020399
 30
0.0
 10
-104.7565256754557
 20
-84.42641432020399
 30
0.0
 10
-104.7565256754557
 20
-84.42641432020399
 30
0.0
 10
-105.3091189914279
 20
-84.42641432020399
 30
0.0
 10
-105.7611155192057
 20
-83.97992994520398
 30
0.0
 10
-105.7611155192057
 20
-83.42320251464842
 30
0.0
 10
-105.7611155192057
 20
-83.42320251464842
 30
0.0
 10
-105.7611155192057
 20
-71.39430711534287
 30
0.0
 10
-105.7611155192057
 20
-71.39430711534287
 30
0.0
 10
-105.7611155192057
 20
-70.84171379937065
 30
0.0
 10
-105.3091189914279
 20
-70.39522942437065
 30
0.0
 10
-104.7565256754557
 20
-70.39522942437065
 30
0.0
 10
-104.7565256754557
 20
-70.39522942437065
 30
0.0
 10
-90.72534077962238
 20
-70.39522942437065
 30
0.0
 10
-90.72534077962238
 20
-70.39522942437065
 30
0.0
 10
-90.16723531087238
 20
-70.39522942437065
 30
0.0
 10
-89.72075093587239
 20
-70.84171379937065
 30
0.0
 10
-89.72075093587239
 20
-71.39430711534287
 30
0.0
 10
-89.72075093587239
 20
-71.39430711534287
 30
0.0
 10
-89.72075093587239
 20
-74.40118645562065
 30
0.0
 10
-89.72075093587239
 20
-74.40118645562065
 30
0.0
  0
SPLINE
  5
1A1
100
AcDbEntity
  8
ALPHA
 62
     7
100
AcDbSpline
210
0.0
220
0.0
230
1.0
 70
    11
 71
     3
 72
    26
 73
    22
 74
     0
 42
0.0000001
 43
0.0000001
 40
0.0
 40
0.0
 40
0.0
 40
0.0
 40
1.0
 40
1.0
 40
1.0
 40
2.0
 40
2.0
 40
2.0
 40
3.0
 40
3.0
 40
3.0
 40
4.0
 40
4.0
 40
4.0
 40
5.0
 40
5.0
 40
5.0
 40
6.0
 40
6.0
 40
6.0
 40
7.0
 40
7.0
 40
7.0
 40
7.0
 10
-92.73314242892794
 20
-77.40806579589843
 30
0.0
 10
-92.73314242892794
 20
-77.40806579589843
 30
0.0
 10
-89.72626308865017
 20
-74.40118645562065
 30
0.0
 10
-89.72626308865017
 20
-74.40118645562065
 30
0.0
 10
-89.72626308865017
 20
-74.40118645562065
 30
0.0
 10
-84.71571621365017
 20
-74.40118645562065
 30
0.0
 10
-84.71571621365017
 20
-74.40118645562065
 30
0.0
 10
-83.05242411295571
 20
-74.40118645562065
 30
0.0
 10
-81.70745883517794
 20
-75.75028584798175
 30
0.0
 10
-81.70745883517794
 20
-77.40806579589843
 30
0.0
 10
-81.70745883517794
 20
-77.40806579589843
 30
0.0
 10
-81.70745883517794
 20
-77.40806579589843
 30
0.0
 10
-81.70745883517794
 20
-77.40806579589843
 30
0.0
 10
-81.70745883517794
 20
-79.07135789659287
 30
0.0
 10
-83.05242411295571
 20
-80.41494513617621
 30
0.0
 10
-84.71571621365017
 20
-80.41494513617621
 30
0.0
 10
-84.71571621365017
 20
-80.41494513617621
 30
0.0
 10
-89.72626308865017
 20
-80.41494513617621
 30
0.0
 10
-89.72626308865017
 20
-80.41494513617621
 30
0.0
 10
-89.72626308865017
 20
-80.41494513617621
 30
0.0
 10
-92.73314242892794
 20
-77.40806579589843
 30
0.0
 10
-92.73314242892794
 20
-77.40806579589843
 30
0.0
  0
SPLINE
  5
1A2
100
AcDbEntity
  8
ALPHA
 62
     7
100
AcDbSpline
210
0.0
220
0.0
230
-1.0
 70
     8
 71
     3
 72
    32
 73
    28
 74
     0
 42
0.0000001
 43
0.0000001
 40
0.0
 40
0.0
 40
0.0
 40
0.0
 40
1.0
 40
1.0
 40
1.0
 40
2.0
 40
2.0
 40
2.0
 40
3.0
 40
3.0
 40
3.0
 40
4.0
 40
4.0
 40
4.0
 40
5.0
 40
5.0
 40
5.0
 40
6.0
 40
6.0
 40
6.0
 40
7.0
 40
7.0
 40
7.0
 40
8.0
 40
8.0
 40
8.0
 40
9.0
 40
9.0
 40
9.0
 40
9.0
 10
89.68311326768661
 20
15.07362772623697
 30
0.0
 10
89.68311326768661
 20
15.07362772623697
 30
0.0
 10
89.68311326768661
 20
12.06537034776475
 30
0.0
 10
89.68311326768661
 20
12.06537034776475
 30
0.0
 10
89.68311326768661
 20
11.5086429172092
 30
0.0
 10
90.12959764268662
 20
11.0621585422092
 30
0.0
 10
90.68219095865885
 20
11.0621585422092
 30
0.0
 10
90.68219095865885
 20
11.0621585422092
 30
0.0
 10
104.7188880072699
 20
11.0621585422092
 30
0.0
 10
104.7188880072699
 20
11.0621585422092
 30
0.0
 10
105.2714813232421
 20
11.0621585422092
 30
0.0
 10
105.7220998128254
 20
11.5086429172092
 30
0.0
 10
105.7220998128254
 20
12.06537034776475
 30
0.0
 10
105.7220998128254
 20
12.06537034776475
 30
0.0
 10
105.7220998128254
 20
24.09426574707031
 30
0.0
 10
105.7220998128254
 20
24.09426574707031
 30
0.0
 10
105.7220998128254
 20
24.64685906304253
 30
0.0
 10
105.2714813232421
 20
25.09334343804253
 30
0.0
 10
104.7188880072699
 20
25.09334343804253
 30
0.0
 10
104.7188880072699
 20
25.09334343804253
 30
0.0
 10
90.68219095865885
 20
25.09334343804253
 30
0.0
 10
90.68219095865885
 20
25.09334343804253
 30
0.0
 10
90.12959764268662
 20
25.09334343804253
 30
0.0
 10
89.68311326768661
 20
24.64685906304253
 30
0.0
 10
89.68311326768661
 20
24.09426574707031
 30
0.0
 10
89.68311326768661
 20
24.09426574707031
 30
0.0
 10
89.68311326768661
 20
21.08738640679253
 30
0.0
 10
89.68311326768661
 20
21.08738640679253
 30
0.0
  0
SPLINE
  5
1A3
100
AcDbEntity
  8
ALPHA
 62
     7
100
AcDbSpline
210
0.0
220
0.0
230
1.0
 70
    11
 71
     3
 72
    26
 73
    22
 74
     0
 42
0.0000001
 43
0.0000001
 40
0.0
 40
0.0
 40
0.0
 40
0.0
 40
1.0
 40
1.0
 40
1.0
 40
2.0
 40
2.0
 40
2.0
 40
3.0
 40
3.0
 40
3.0
 40
4.0
 40
4.0
 40
4.0
 40
5.0
 40
5.0
 40
5.0
 40
6.0
 40
6.0
 40
6.0
 40
7.0
 40
7.0
 40
7.0
 40
7.0
 10
92.69412672254773
 20
18.08050706651475
 30
0.0
 10
92.69412672254773
 20
18.08050706651475
 30
0.0
 10
89.68724738226995
 20
21.08738640679253
 30
0.0
 10
89.68724738226995
 20
21.08738640679253
 30
0.0
 10
89.68724738226995
 20
21.08738640679253
 30
0.0
 10
84.67256639268661
 20
21.08738640679253
 30
0.0
 10
84.67256639268661
 20
21.08738640679253
 30
0.0
 10
83.01478644476995
 20
21.08738640679253
 30
0.0
 10
81.66568705240884
 20
19.73828701443142
 30
0.0
 10
81.66568705240884
 20
18.08050706651475
 30
0.0
 10
81.66568705240884
 20
18.08050706651475
 30
0.0
 10
81.66568705240884
 20
18.08050706651475
 30
0.0
 10
81.66568705240884
 20
18.08050706651475
 30
0.0
 10
81.66568705240884
 20
16.41721496582031
 30
0.0
 10
83.01478644476995
 20
15.07362772623697
 30
0.0
 10
84.67256639268661
 20
15.07362772623697
 30
0.0
 10
84.67256639268661
 20
15.07362772623697
 30
0.0
 10
89.68724738226995
 20
15.07362772623697
 30
0.0
 10
89.68724738226995
 20
15.07362772623697
 30
0.0
 10
89.68724738226995
 20
15.07362772623697
 30
0.0
 10
92.69412672254773
 20
18.08050706651475
 30
0.0
 10
92.69412672254773
 20
18.08050706651475
 30
0.0
  0
SPLINE
  5
1A4
100
AcDbEntity
  8
ALPHA
 62
     7
100
AcDbSpline
210
0.0
220
0.0
230
-1.0
 70
     8
 71
     3
 72
    32
 73
    28
 74
     0
 42
0.0000001
 43
0.0000001
 40
0.0
 40
0.0
 40
0.0
 40
0.0
 40
1.0
 40
1.0
 40
1.0
 40
2.0
 40
2.0
 40
2.0
 40
3.0
 40
3.0
 40
3.0
 40
4.0
 40
4.0
 40
4.0
 40
5.0
 40
5.0
 40
5.0
 40
6.0
 40
6.0
 40
6.0
 40
7.0
 40
7.0
 40
7.0
 40
8.0
 40
8.0
 40
8.0
 40
9.0
 40
9.0
 40
9.0
 40
9.0
 10
89.68311326768661
 20
-4.024775865342881
 30
0.0
 10
89.68311326768661
 20
-4.024775865342881
 30
0.0
 10
89.68311326768661
 20
-7.031655205620658
 30
0.0
 10
89.68311326768661
 20
-7.031655205620658
 30
0.0
 10
89.68311326768661
 20
-7.589760674370658
 30
0.0
 10
90.12959764268662
 20
-8.036245049370659
 30
0.0
 10
90.68219095865885
 20
-8.036245049370659
 30
0.0
 10
90.68219095865885
 20
-8.036245049370659
 30
0.0
 10
104.7188880072699
 20
-8.036245049370659
 30
0.0
 10
104.7188880072699
 20
-8.036245049370659
 30
0.0
 10
105.2714813232421
 20
-8.036245049370659
 30
0.0
 10
105.7220998128254
 20
-7.589760674370658
 30
0.0
 10
105.7220998128254
 20
-7.031655205620658
 30
0.0
 10
105.7220998128254
 20
-7.031655205620658
 30
0.0
 10
105.7220998128254
 20
4.997240193684895
 30
0.0
 10
105.7220998128254
 20
4.997240193684895
 30
0.0
 10
105.7220998128254
 20
5.549833509657117
 30
0.0
 10
105.2714813232421
 20
5.996317884657117
 30
0.0
 10
104.7188880072699
 20
5.996317884657117
 30
0.0
 10
104.7188880072699
 20
5.996317884657117
 30
0.0
 10
90.68219095865885
 20
5.996317884657117
 30
0.0
 10
90.68219095865885
 20
5.996317884657117
 30
0.0
 10
90.12959764268662
 20
5.996317884657117
 30
0.0
 10
89.68311326768661
 20
5.549833509657117
 30
0.0
 10
89.68311326768661
 20
4.997240193684895
 30
0.0
 10
89.68311326768661
 20
4.997240193684895
 30
0.0
 10
89.68311326768661
 20
1.988982815212673
 30
0.0
 10
89.68311326768661
 20
1.988982815212673
 30
0.0
  0
SPLINE
  5
1A5
100
AcDbEntity
  8
ALPHA
 62
     7
100
AcDbSpline
210
0.0
220
0.0
230
1.0
 70
    11
 71
     3
 72
    26
 73
    22
 74
     0
 42
0.0000001
 43
0.0000001
 40
0.0
 40
0.0
 40
0.0
 40
0.0
 40
1.0
 40
1.0
 40
1.0
 40
2.0
 40
2.0
 40
2.0
 40
3.0
 40
3.0
 40
3.0
 40
4.0
 40
4.0
 40
4.0
 40
5.0
 40
5.0
 40
5.0
 40
6.0
 40
6.0
 40
6.0
 40
7.0
 40
7.0
 40
7.0
 40
7.0
 10
92.69412672254773
 20
-1.017896525065103
 30
0.0
 10
92.69412672254773
 20
-1.017896525065103
 30
0.0
 10
89.68724738226995
 20
1.988982815212673
 30
0.0
 10
89.68724738226995
 20
1.988982815212673
 30
0.0
 10
89.68724738226995
 20
1.988982815212673
 30
0.0
 10
84.67256639268661
 20
1.988982815212673
 30
0.0
 10
84.67256639268661
 20
1.988982815212673
 30
0.0
 10
83.01478644476995
 20
1.988982815212673
 30
0.0
 10
81.66568705240884
 20
0.6398834228515625
 30
0.0
 10
81.66568705240884
 20
-1.017896525065103
 30
0.0
 10
81.66568705240884
 20
-1.017896525065103
 30
0.0
 10
81.66568705240884
 20
-1.017896525065103
 30
0.0
 10
81.66568705240884
 20
-1.017896525065103
 30
0.0
 10
81.66568705240884
 20
-2.679810587565103
 30
0.0
 10
83.01478644476995
 20
-4.024775865342881
 30
0.0
 10
84.67256639268661
 20
-4.024775865342881
 30
0.0
 10
84.67256639268661
 20
-4.024775865342881
 30
0.0
 10
89.68724738226995
 20
-4.024775865342881
 30
0.0
 10
89.68724738226995
 20
-4.024775865342881
 30
0.0
 10
89.68724738226995
 20
-4.024775865342881
 30
0.0
 10
92.69412672254773
 20
-1.017896525065103
 30
0.0
 10
92.69412672254773
 20
-1.017896525065103
 30
0.0
  0
SPLINE
  5
1A6
100
AcDbEntity
  8
ALPHA
 62
     7
100
AcDbSpline
210
0.0
220
0.0
230
-1.0
 70
     8
 71
     3
 72
    32
 73
    28
 74
     0
 42
0.0000001
 43
0.0000001
 40
0.0
 40
0.0
 40
0.0
 40
0.0
 40
1.0
 40
1.0
 40
1.0
 40
2.0
 40
2.0
 40
2.0
 40
3.0
 40
3.0
 40
3.0
 40
4.0
 40
4.0
 40
4.0
 40
5.0
 40
5.0
 40
5.0
 40
6.0
 40
6.0
 40
6.0
 40
7.0
 40
7.0
 40
7.0
 40
8.0
 40
8.0
 40
8.0
 40
9.0
 40
9.0
 40
9.0
 40
9.0
 10
89.68311326768661
 20
-23.12300720214843
 30
0.0
 10
89.68311326768661
 20
-23.12300720214843
 30
0.0
 10
89.68311326768661
 20
-26.12988654242621
 30
0.0
 10
89.68311326768661
 20
-26.12988654242621
 30
0.0
 10
89.68311326768661
 20
-26.68661397298176
 30
0.0
 10
90.12959764268662
 20
-27.13309834798177
 30
0.0
 10
90.68219095865885
 20
-27.13309834798177
 30
0.0
 10
90.68219095865885
 20
-27.13309834798177
 30
0.0
 10
104.7188880072699
 20
-27.13309834798177
 30
0.0
 10
104.7188880072699
 20
-27.13309834798177
 30
0.0
 10
105.2714813232421
 20
-27.13309834798177
 30
0.0
 10
105.7220998128254
 20
-26.68661397298176
 30
0.0
 10
105.7220998128254
 20
-26.12988654242621
 30
0.0
 10
105.7220998128254
 20
-26.12988654242621
 30
0.0
 10
105.7220998128254
 20
-14.10099114312066
 30
0.0
 10
105.7220998128254
 20
-14.10099114312066
 30
0.0
 10
105.7220998128254
 20
-13.54839782714843
 30
0.0
 10
105.2714813232421
 20
-13.10191345214843
 30
0.0
 10
104.7188880072699
 20
-13.10191345214843
 30
0.0
 10
104.7188880072699
 20
-13.10191345214843
 30
0.0
 10
90.68219095865885
 20
-13.10191345214843
 30
0.0
 10
90.68219095865885
 20
-13.10191345214843
 30
0.0
 10
90.12959764268662
 20
-13.10191345214843
 30
0.0
 10
89.68311326768661
 20
-13.54839782714843
 30
0.0
 10
89.68311326768661
 20
-14.10099114312066
 30
0.0
 10
89.68311326768661
 20
-14.10099114312066
 30
0.0
 10
89.68311326768661
 20
-17.10787048339843
 30
0.0
 10
89.68311326768661
 20
-17.10787048339843
 30
0.0
  0
SPLINE
  5
1A7
100
AcDbEntity
  8
ALPHA
 62
     7
100
AcDbSpline
210
0.0
220
0.0
230
1.0
 70
    11
 71
     3
 72
    26
 73
    22
 74
     0
 42
0.0000001
 43
0.0000001
 40
0.0
 40
0.0
 40
0.0
 40
0.0
 40
1.0
 40
1.0
 40
1.0
 40
2.0
 40
2.0
 40
2.0
 40
3.0
 40
3.0
 40
3.0
 40
4.0
 40
4.0
 40
4.0
 40
5.0
 40
5.0
 40
5.0
 40
6.0
 40
6.0
 40
6.0
 40
7.0
 40
7.0
 40
7.0
 40
7.0
 10
92.69412672254773
 20
-20.11474982367621
 30
0.0
 10
92.69412672254773
 20
-20.11474982367621
 30
0.0
 10
89.68724738226995
 20
-17.10787048339843
 30
0.0
 10
89.68724738226995
 20
-17.10787048339843
 30
0.0
 10
89.68724738226995
 20
-17.10787048339843
 30
0.0
 10
84.67256639268661
 20
-17.10787048339843
 30
0.0
 10
84.67256639268661
 20
-17.10787048339843
 30
0.0
 10
83.01478644476995
 20
-17.10787048339843
 30
0.0
 10
81.66568705240884
 20
-18.45696987575954
 30
0.0
 10
81.66568705240884
 20
-20.11474982367621
 30
0.0
 10
81.66568705240884
 20
-20.11474982367621
 30
0.0
 10
81.66568705240884
 20
-20.11474982367621
 30
0.0
 10
81.66568705240884
 20
-20.11474982367621
 30
0.0
 10
81.66568705240884
 20
-21.77804192437065
 30
0.0
 10
83.01478644476995
 20
-23.12300720214843
 30
0.0
 10
84.67256639268661
 20
-23.12300720214843
 30
0.0
 10
84.67256639268661
 20
-23.12300720214843
 30
0.0
 10
89.68724738226995
 20
-23.12300720214843
 30
0.0
 10
89.68724738226995
 20
-23.12300720214843
 30
0.0
 10
89.68724738226995
 20
-23.12300720214843
 30
0.0
 10
92.69412672254773
 20
-20.11474982367621
 30
0.0
 10
92.69412672254773
 20
-20.11474982367621
 30
0.0
  0
SPLINE
  5
1A8
100
AcDbEntity
  8
ALPHA
 62
     7
100
AcDbSpline
210
0.0
220
0.0
230
-1.0
 70
     8
 71
     3
 72
    32
 73
    28
 74
     0
 42
0.0000001
 43
0.0000001
 40
0.0
 40
0.0
 40
0.0
 40
0.0
 40
1.0
 40
1.0
 40
1.0
 40
2.0
 40
2.0
 40
2.0
 40
3.0
 40
3.0
 40
3.0
 40
4.0
 40
4.0
 40
4.0
 40
5.0
 40
5.0
 40
5.0
 40
6.0
 40
6.0
 40
6.0
 40
7.0
 40
7.0
 40
7.0
 40
8.0
 40
8.0
 40
8.0
 40
9.0
 40
9.0
 40
9.0
 40
9.0
 10
89.68311326768661
 20
-42.21986050075954
 30
0.0
 10
89.68311326768661
 20
-42.21986050075954
 30
0.0
 10
89.68311326768661
 20
-45.22811787923177
 30
0.0
 10
89.68311326768661
 20
-45.22811787923177
 30
0.0
 10
89.68311326768661
 20
-45.78484530978732
 30
0.0
 10
90.12959764268662
 20
-46.23132968478731
 30
0.0
 10
90.68219095865885
 20
-46.23132968478731
 30
0.0
 10
90.68219095865885
 20
-46.23132968478731
 30
0.0
 10
104.7188880072699
 20
-46.23132968478731
 30
0.0
 10
104.7188880072699
 20
-46.23132968478731
 30
0.0
 10
105.2714813232421
 20
-46.23132968478731
 30
0.0
 10
105.7220998128254
 20
-45.78484530978732
 30
0.0
 10
105.7220998128254
 20
-45.22811787923177
 30
0.0
 10
105.7220998128254
 20
-45.22811787923177
 30
0.0
 10
105.7220998128254
 20
-33.19922247992621
 30
0.0
 10
105.7220998128254
 20
-33.19922247992621
 30
0.0
 10
105.7220998128254
 20
-32.64662916395399
 30
0.0
 10
105.2714813232421
 20
-32.19876675075954
 30
0.0
 10
104.7188880072699
 20
-32.19876675075954
 30
0.0
 10
104.7188880072699
 20
-32.19876675075954
 30
0.0
 10
90.68219095865885
 20
-32.19876675075954
 30
0.0
 10
90.68219095865885
 20
-32.19876675075954
 30
0.0
 10
90.12959764268662
 20
-32.19876675075954
 30
0.0
 10
89.68311326768661
 20
-32.64662916395399
 30
0.0
 10
89.68311326768661
 20
-33.19922247992621
 30
0.0
 10
89.68311326768661
 20
-33.19922247992621
 30
0.0
 10
89.68311326768661
 20
-36.20610182020399
 30
0.0
 10
89.68311326768661
 20
-36.20610182020399
 30
0.0
  0
SPLINE
  5
1A9
100
AcDbEntity
  8
ALPHA
 62
     7
100
AcDbSpline
210
0.0
220
0.0
230
1.0
 70
    11
 71
     3
 72
    26
 73
    22
 74
     0
 42
0.0000001
 43
0.0000001
 40
0.0
 40
0.0
 40
0.0
 40
0.0
 40
1.0
 40
1.0
 40
1.0
 40
2.0
 40
2.0
 40
2.0
 40
3.0
 40
3.0
 40
3.0
 40
4.0
 40
4.0
 40
4.0
 40
5.0
 40
5.0
 40
5.0
 40
6.0
 40
6.0
 40
6.0
 40
7.0
 40
7.0
 40
7.0
 40
7.0
 10
92.69412672254773
 20
-39.21298116048177
 30
0.0
 10
92.69412672254773
 20
-39.21298116048177
 30
0.0
 10
89.68724738226995
 20
-36.20610182020399
 30
0.0
 10
89.68724738226995
 20
-36.20610182020399
 30
0.0
 10
89.68724738226995
 20
-36.20610182020399
 30
0.0
 10
84.67256639268661
 20
-36.20610182020399
 30
0.0
 10
84.67256639268661
 20
-36.20610182020399
 30
0.0
 10
83.01478644476995
 20
-36.20610182020399
 30
0.0
 10
81.66568705240884
 20
-37.5552012125651
 30
0.0
 10
81.66568705240884
 20
-39.21298116048177
 30
0.0
 10
81.66568705240884
 20
-39.21298116048177
 30
0.0
 10
81.66568705240884
 20
-39.21298116048177
 30
0.0
 10
81.66568705240884
 20
-39.21298116048177
 30
0.0
 10
81.66568705240884
 20
-40.87489522298176
 30
0.0
 10
83.01478644476995
 20
-42.21986050075954
 30
0.0
 10
84.67256639268661
 20
-42.21986050075954
 30
0.0
 10
84.67256639268661
 20
-42.21986050075954
 30
0.0
 10
89.68724738226995
 20
-42.21986050075954
 30
0.0
 10
89.68724738226995
 20
-42.21986050075954
 30
0.0
 10
89.68724738226995
 20
-42.21986050075954
 30
0.0
 10
92.69412672254773
 20
-39.21298116048177
 30
0.0
 10
92.69412672254773
 20
-39.21298116048177
 30
0.0
  0
SPLINE
  5
1AA
100
AcDbEntity
  8
ALPHA
 62
     7
100
AcDbSpline
210
0.0
220
0.0
230
-1.0
 70
     8
 71
     3
 72
    32
 73
    28
 74
     0
 42
0.0000001
 43
0.0000001
 40
0.0
 40
0.0
 40
0.0
 40
0.0
 40
1.0
 40
1.0
 40
1.0
 40
2.0
 40
2.0
 40
2.0
 40
3.0
 40
3.0
 40
3.0
 40
4.0
 40
4.0
 40
4.0
 40
5.0
 40
5.0
 40
5.0
 40
6.0
 40
6.0
 40
6.0
 40
7.0
 40
7.0
 40
7.0
 40
8.0
 40
8.0
 40
8.0
 40
9.0
 40
9.0
 40
9.0
 40
9.0
 10
89.68311326768661
 20
-61.3180918375651
 30
0.0
 10
89.68311326768661
 20
-61.3180918375651
 30
0.0
 10
89.68311326768661
 20
-64.32497117784286
 30
0.0
 10
89.68311326768661
 20
-64.32497117784286
 30
0.0
 10
89.68311326768661
 20
-64.88169860839843
 30
0.0
 10
90.12959764268662
 20
-65.32956102159288
 30
0.0
 10
90.68219095865885
 20
-65.32956102159288
 30
0.0
 10
90.68219095865885
 20
-65.32956102159288
 30
0.0
 10
104.7188880072699
 20
-65.32956102159288
 30
0.0
 10
104.7188880072699
 20
-65.32956102159288
 30
0.0
 10
105.2714813232421
 20
-65.32956102159288
 30
0.0
 10
105.7220998128254
 20
-64.88169860839843
 30
0.0
 10
105.7220998128254
 20
-64.32497117784286
 30
0.0
 10
105.7220998128254
 20
-64.32497117784286
 30
0.0
 10
105.7220998128254
 20
-52.29607577853732
 30
0.0
 10
105.7220998128254
 20
-52.29607577853732
 30
0.0
 10
105.7220998128254
 20
-51.7434824625651
 30
0.0
 10
105.2714813232421
 20
-51.2969980875651
 30
0.0
 10
104.7188880072699
 20
-51.2969980875651
 30
0.0
 10
104.7188880072699
 20
-51.2969980875651
 30
0.0
 10
90.68219095865885
 20
-51.2969980875651
 30
0.0
 10
90.68219095865885
 20
-51.2969980875651
 30
0.0
 10
90.12959764268662
 20
-51.2969980875651
 30
0.0
 10
89.68311326768661
 20
-51.7434824625651
 30
0.0
 10
89.68311326768661
 20
-52.29607577853732
 30
0.0
 10
89.68311326768661
 20
-52.29607577853732
 30
0.0
 10
89.68311326768661
 20
-55.3029551188151
 30
0.0
 10
89.68311326768661
 20
-55.3029551188151
 30
0.0
  0
SPLINE
  5
1AB
100
AcDbEntity
  8
ALPHA
 62
     7
100
AcDbSpline
210
0.0
220
0.0
230
1.0
 70
    11
 71
     3
 72
    26
 73
    22
 74
     0
 42
0.0000001
 43
0.0000001
 40
0.0
 40
0.0
 40
0.0
 40
0.0
 40
1.0
 40
1.0
 40
1.0
 40
2.0
 40
2.0
 40
2.0
 40
3.0
 40
3.0
 40
3.0
 40
4.0
 40
4.0
 40
4.0
 40
5.0
 40
5.0
 40
5.0
 40
6.0
 40
6.0
 40
6.0
 40
7.0
 40
7.0
 40
7.0
 40
7.0
 10
92.69412672254773
 20
-58.31121249728732
 30
0.0
 10
92.69412672254773
 20
-58.31121249728732
 30
0.0
 10
89.68724738226995
 20
-55.3029551188151
 30
0.0
 10
89.68724738226995
 20
-55.3029551188151
 30
0.0
 10
89.68724738226995
 20
-55.3029551188151
 30
0.0
 10
84.67256639268661
 20
-55.3029551188151
 30
0.0
 10
84.67256639268661
 20
-55.3029551188151
 30
0.0
 10
83.01478644476995
 20
-55.3029551188151
 30
0.0
 10
81.66568705240884
 20
-56.65343254937066
 30
0.0
 10
81.66568705240884
 20
-58.31121249728732
 30
0.0
 10
81.66568705240884
 20
-58.31121249728732
 30
0.0
 10
81.66568705240884
 20
-58.31121249728732
 30
0.0
 10
81.66568705240884
 20
-58.31121249728732
 30
0.0
 10
81.66568705240884
 20
-59.97312655978731
 30
0.0
 10
83.01478644476995
 20
-61.3180918375651
 30
0.0
 10
84.67256639268661
 20
-61.3180918375651
 30
0.0
 10
84.67256639268661
 20
-61.3180918375651
 30
0.0
 10
89.68724738226995
 20
-61.3180918375651
 30
0.0
 10
89.68724738226995
 20
-61.3180918375651
 30
0.0
 10
89.68724738226995
 20
-61.3180918375651
 30
0.0
 10
92.69412672254773
 20
-58.31121249728732
 30
0.0
 10
92.69412672254773
 20
-58.31121249728732
 30
0.0
  0
SPLINE
  5
1AC
100
AcDbEntity
  8
ALPHA
 62
     7
100
AcDbSpline
210
0.0
220
0.0
230
-1.0
 70
     8
 71
     3
 72
    32
 73
    28
 74
     0
 42
0.0000001
 43
0.0000001
 40
0.0
 40
0.0
 40
0.0
 40
0.0
 40
1.0
 40
1.0
 40
1.0
 40
2.0
 40
2.0
 40
2.0
 40
3.0
 40
3.0
 40
3.0
 40
4.0
 40
4.0
 40
4.0
 40
5.0
 40
5.0
 40
5.0
 40
6.0
 40
6.0
 40
6.0
 40
7.0
 40
7.0
 40
7.0
 40
8.0
 40
8.0
 40
8.0
 40
9.0
 40
9.0
 40
9.0
 40
9.0
 10
89.68311326768661
 20
-80.41494513617621
 30
0.0
 10
89.68311326768661
 20
-80.41494513617621
 30
0.0
 10
89.68311326768661
 20
-83.42320251464842
 30
0.0
 10
89.68311326768661
 20
-83.42320251464842
 30
0.0
 10
89.68311326768661
 20
-83.97992994520398
 30
0.0
 10
90.12959764268662
 20
-84.42641432020399
 30
0.0
 10
90.68219095865885
 20
-84.42641432020399
 30
0.0
 10
90.68219095865885
 20
-84.42641432020399
 30
0.0
 10
104.7188880072699
 20
-84.42641432020399
 30
0.0
 10
104.7188880072699
 20
-84.42641432020399
 30
0.0
 10
105.2714813232421
 20
-84.42641432020399
 30
0.0
 10
105.7220998128254
 20
-83.97992994520398
 30
0.0
 10
105.7220998128254
 20
-83.42320251464842
 30
0.0
 10
105.7220998128254
 20
-83.42320251464842
 30
0.0
 10
105.7220998128254
 20
-71.39430711534287
 30
0.0
 10
105.7220998128254
 20
-71.39430711534287
 30
0.0
 10
105.7220998128254
 20
-70.84171379937065
 30
0.0
 10
105.2714813232421
 20
-70.39522942437065
 30
0.0
 10
104.7188880072699
 20
-70.39522942437065
 30
0.0
 10
104.7188880072699
 20
-70.39522942437065
 30
0.0
 10
90.68219095865885
 20
-70.39522942437065
 30
0.0
 10
90.68219095865885
 20
-70.39522942437065
 30
0.0
 10
90.12959764268662
 20
-70.39522942437065
 30
0.0
 10
89.68311326768661
 20
-70.84171379937065
 30
0.0
 10
89.68311326768661
 20
-71.39430711534287
 30
0.0
 10
89.68311326768661
 20
-71.39430711534287
 30
0.0
 10
89.68311326768661
 20
-74.40118645562065
 30
0.0
 10
89.68311326768661
 20
-74.40118645562065
 30
0.0
  0
SPLINE
  5
1AD
100
AcDbEntity
  8
ALPHA
 62
     7
100
AcDbSpline
210
0.0
220
0.0
230
1.0
 70
    11
 71
     3
 72
    26
 73
    22
 74
     0
 42
0.0000001
 43
0.0000001
 40
0.0
 40
0.0
 40
0.0
 40
0.0
 40
1.0
 40
1.0
 40
1.0
 40
2.0
 40
2.0
 40
2.0
 40
3.0
 40
3.0
 40
3.0
 40
4.0
 40
4.0
 40
4.0
 40
5.0
 40
5.0
 40
5.0
 40
6.0
 40
6.0
 40
6.0
 40
7.0
 40
7.0
 40
7.0
 40
7.0
 10
92.69412672254773
 20
-77.40806579589843
 30
0.0
 10
92.69412672254773
 20
-77.40806579589843
 30
0.0
 10
89.68724738226995
 20
-74.40118645562065
 30
0.0
 10
89.68724738226995
 20
-74.40118645562065
 30
0.0
 10
89.68724738226995
 20
-74.40118645562065
 30
0.0
 10
84.67256639268661
 20
-74.40118645562065
 30
0.0
 10
84.67256639268661
 20
-74.40118645562065
 30
0.0
 10
83.01478644476995
 20
-74.40118645562065
 30
0.0
 10
81.66568705240884
 20
-75.75028584798175
 30
0.0
 10
81.66568705240884
 20
-77.40806579589843
 30
0.0
 10
81.66568705240884
 20
-77.40806579589843
 30
0.0
 10
81.66568705240884
 20
-77.40806579589843
 30
0.0
 10
81.66568705240884
 20
-77.40806579589843
 30
0.0
 10
81.66568705240884
 20
-79.07135789659287
 30
0.0
 10
83.01478644476995
 20
-80.41494513617621
 30
0.0
 10
84.67256639268661
 20
-80.41494513617621
 30
0.0
 10
84.67256639268661
 20
-80.41494513617621
 30
0.0
 10
89.68724738226995
 20
-80.41494513617621
 30
0.0
 10
89.68724738226995
 20
-80.41494513617621
 30
0.0
 10
89.68724738226995
 20
-80.41494513617621
 30
0.0
 10
92.69412672254773
 20
-77.40806579589843
 30
0.0
 10
92.69412672254773
 20
-77.40806579589843
 30
0.0
  0
SPLINE
  5
1AE
100
AcDbEntity
  8
ALPHA
 62
     7
100
AcDbSpline
210
0.0
220
0.0
230
-1.0
 70
     8
 71
     3
 72
    32
 73
    28
 74
     0
 42
0.0000001
 43
0.0000001
 40
0.0
 40
0.0
 40
0.0
 40
0.0
 40
1.0
 40
1.0
 40
1.0
 40
2.0
 40
2.0
 40
2.0
 40
3.0
 40
3.0
 40
3.0
 40
4.0
 40
4.0
 40
4.0
 40
5.0
 40
5.0
 40
5.0
 40
6.0
 40
6.0
 40
6.0
 40
7.0
 40
7.0
 40
7.0
 40
8.0
 40
8.0
 40
8.0
 40
9.0
 40
9.0
 40
9.0
 40
9.0
 10
127.7817352294921
 20
15.07362772623697
 30
0.0
 10
127.7817352294921
 20
15.07362772623697
 30
0.0
 10
127.7817352294921
 20
12.06537034776475
 30
0.0
 10
127.7817352294921
 20
12.06537034776475
 30
0.0
 10
127.7817352294921
 20
11.5086429172092
 30
0.0
 10
127.3352508544921
 20
11.0621585422092
 30
0.0
 10
126.7771453857421
 20
11.0621585422092
 30
0.0
 10
126.7771453857421
 20
11.0621585422092
 30
0.0
 10
112.7459604899088
 20
11.0621585422092
 30
0.0
 10
112.7459604899088
 20
11.0621585422092
 30
0.0
 10
112.1933671739366
 20
11.0621585422092
 30
0.0
 10
111.7413706461588
 20
11.5086429172092
 30
0.0
 10
111.7413706461588
 20
12.06537034776475
 30
0.0
 10
111.7413706461588
 20
12.06537034776475
 30
0.0
 10
111.7413706461588
 20
24.09426574707031
 30
0.0
 10
111.7413706461588
 20
24.09426574707031
 30
0.0
 10
111.7413706461588
 20
24.64685906304253
 30
0.0
 10
112.1933671739366
 20
25.09334343804253
 30
0.0
 10
112.7459604899088
 20
25.09334343804253
 30
0.0
 10
112.7459604899088
 20
25.09334343804253
 30
0.0
 10
126.7771453857421
 20
25.09334343804253
 30
0.0
 10
126.7771453857421
 20
25.09334343804253
 30
0.0
 10
127.3352508544921
 20
25.09334343804253
 30
0.0
 10
127.7817352294921
 20
24.64685906304253
 30
0.0
 10
127.7817352294921
 20
24.09426574707031
 30
0.0
 10
127.7817352294921
 20
24.09426574707031
 30
0.0
 10
127.7817352294921
 20
21.08738640679253
 30
0.0
 10
127.7817352294921
 20
21.08738640679253
 30
0.0
  0
SPLINE
  5
1AF
100
AcDbEntity
  8
ALPHA
 62
     7
100
AcDbSpline
210
0.0
220
0.0
230
1.0
 70
    11
 71
     3
 72
    26
 73
    22
 74
     0
 42
0.0000001
 43
0.0000001
 40
0.0
 40
0.0
 40
0.0
 40
0.0
 40
1.0
 40
1.0
 40
1.0
 40
2.0
 40
2.0
 40
2.0
 40
3.0
 40
3.0
 40
3.0
 40
4.0
 40
4.0
 40
4.0
 40
5.0
 40
5.0
 40
5.0
 40
6.0
 40
6.0
 40
6.0
 40
7.0
 40
7.0
 40
7.0
 40
7.0
 10
124.7693437364366
 20
18.08050706651475
 30
0.0
 10
124.7693437364366
 20
18.08050706651475
 30
0.0
 10
127.7776011149088
 20
21.08738640679253
 30
0.0
 10
127.7776011149088
 20
21.08738640679253
 30
0.0
 10
127.7776011149088
 20
21.08738640679253
 30
0.0
 10
132.7867699517144
 20
21.08738640679253
 30
0.0
 10
132.7867699517144
 20
21.08738640679253
 30
0.0
 10
134.4500620524088
 20
21.08738640679253
 30
0.0
 10
135.7950273301866
 20
19.73828701443142
 30
0.0
 10
135.7950273301866
 20
18.08050706651475
 30
0.0
 10
135.7950273301866
 20
18.08050706651475
 30
0.0
 10
135.7950273301866
 20
18.08050706651475
 30
0.0
 10
135.7950273301866
 20
18.08050706651475
 30
0.0
 10
135.7950273301866
 20
16.41721496582031
 30
0.0
 10
134.4500620524088
 20
15.07362772623697
 30
0.0
 10
132.7867699517144
 20
15.07362772623697
 30
0.0
 10
132.7867699517144
 20
15.07362772623697
 30
0.0
 10
127.7776011149088
 20
15.07362772623697
 30
0.0
 10
127.7776011149088
 20
15.07362772623697
 30
0.0
 10
127.7776011149088
 20
15.07362772623697
 30
0.0
 10
124.7693437364366
 20
18.08050706651475
 30
0.0
 10
124.7693437364366
 20
18.08050706651475
 30
0.0
  0
SPLINE
  5
1B0
100
AcDbEntity
  8
ALPHA
 62
     7
100
AcDbSpline
210
0.0
220
0.0
230
-1.0
 70
     8
 71
     3
 72
    32
 73
    28
 74
     0
 42
0.0000001
 43
0.0000001
 40
0.0
 40
0.0
 40
0.0
 40
0.0
 40
1.0
 40
1.0
 40
1.0
 40
2.0
 40
2.0
 40
2.0
 40
3.0
 40
3.0
 40
3.0
 40
4.0
 40
4.0
 40
4.0
 40
5.0
 40
5.0
 40
5.0
 40
6.0
 40
6.0
 40
6.0
 40
7.0
 40
7.0
 40
7.0
 40
8.0
 40
8.0
 40
8.0
 40
9.0
 40
9.0
 40
9.0
 40
9.0
 10
127.7817352294921
 20
-4.024775865342881
 30
0.0
 10
127.7817352294921
 20
-4.024775865342881
 30
0.0
 10
127.7817352294921
 20
-7.031655205620658
 30
0.0
 10
127.7817352294921
 20
-7.031655205620658
 30
0.0
 10
127.7817352294921
 20
-7.589760674370658
 30
0.0
 10
127.3352508544921
 20
-8.036245049370659
 30
0.0
 10
126.7771453857421
 20
-8.036245049370659
 30
0.0
 10
126.7771453857421
 20
-8.036245049370659
 30
0.0
 10
112.7459604899088
 20
-8.036245049370659
 30
0.0
 10
112.7459604899088
 20
-8.036245049370659
 30
0.0
 10
112.1933671739366
 20
-8.036245049370659
 30
0.0
 10
111.7413706461588
 20
-7.589760674370658
 30
0.0
 10
111.7413706461588
 20
-7.031655205620658
 30
0.0
 10
111.7413706461588
 20
-7.031655205620658
 30
0.0
 10
111.7413706461588
 20
4.997240193684895
 30
0.0
 10
111.7413706461588
 20
4.997240193684895
 30
0.0
 10
111.7413706461588
 20
5.549833509657117
 30
0.0
 10
112.1933671739366
 20
5.996317884657117
 30
0.0
 10
112.7459604899088
 20
5.996317884657117
 30
0.0
 10
112.7459604899088
 20
5.996317884657117
 30
0.0
 10
126.7771453857421
 20
5.996317884657117
 30
0.0
 10
126.7771453857421
 20
5.996317884657117
 30
0.0
 10
127.3352508544921
 20
5.996317884657117
 30
0.0
 10
127.7817352294921
 20
5.549833509657117
 30
0.0
 10
127.7817352294921
 20
4.997240193684895
 30
0.0
 10
127.7817352294921
 20
4.997240193684895
 30
0.0
 10
127.7817352294921
 20
1.988982815212673
 30
0.0
 10
127.7817352294921
 20
1.988982815212673
 30
0.0
  0
SPLINE
  5
1B1
100
AcDbEntity
  8
ALPHA
 62
     7
100
AcDbSpline
210
0.0
220
0.0
230
1.0
 70
    11
 71
     3
 72
    26
 73
    22
 74
     0
 42
0.0000001
 43
0.0000001
 40
0.0
 40
0.0
 40
0.0
 40
0.0
 40
1.0
 40
1.0
 40
1.0
 40
2.0
 40
2.0
 40
2.0
 40
3.0
 40
3.0
 40
3.0
 40
4.0
 40
4.0
 40
4.0
 40
5.0
 40
5.0
 40
5.0
 40
6.0
 40
6.0
 40
6.0
 40
7.0
 40
7.0
 40
7.0
 40
7.0
 10
124.7693437364366
 20
-1.017896525065103
 30
0.0
 10
124.7693437364366
 20
-1.017896525065103
 30
0.0
 10
127.7776011149088
 20
1.988982815212673
 30
0.0
 10
127.7776011149088
 20
1.988982815212673
 30
0.0
 10
127.7776011149088
 20
1.988982815212673
 30
0.0
 10
132.7867699517144
 20
1.988982815212673
 30
0.0
 10
132.7867699517144
 20
1.988982815212673
 30
0.0
 10
134.4500620524088
 20
1.988982815212673
 30
0.0
 10
135.7950273301866
 20
0.6398834228515625
 30
0.0
 10
135.7950273301866
 20
-1.017896525065103
 30
0.0
 10
135.7950273301866
 20
-1.017896525065103
 30
0.0
 10
135.7950273301866
 20
-1.017896525065103
 30
0.0
 10
135.7950273301866
 20
-1.017896525065103
 30
0.0
 10
135.7950273301866
 20
-2.679810587565103
 30
0.0
 10
134.4500620524088
 20
-4.024775865342881
 30
0.0
 10
132.7867699517144
 20
-4.024775865342881
 30
0.0
 10
132.7867699517144
 20
-4.024775865342881
 30
0.0
 10
127.7776011149088
 20
-4.024775865342881
 30
0.0
 10
127.7776011149088
 20
-4.024775865342881
 30
0.0
 10
127.7776011149088
 20
-4.024775865342881
 30
0.0
 10
124.7693437364366
 20
-1.017896525065103
 30
0.0
 10
124.7693437364366
 20
-1.017896525065103
 30
0.0
  0
SPLINE
  5
1B2
100
AcDbEntity
  8
ALPHA
 62
     7
100
AcDbSpline
210
0.0
220
0.0
230
-1.0
 70
     8
 71
     3
 72
    32
 73
    28
 74
     0
 42
0.0000001
 43
0.0000001
 40
0.0
 40
0.0
 40
0.0
 40
0.0
 40
1.0
 40
1.0
 40
1.0
 40
2.0
 40
2.0
 40
2.0
 40
3.0
 40
3.0
 40
3.0
 40
4.0
 40
4.0
 40
4.0
 40
5.0
 40
5.0
 40
5.0
 40
6.0
 40
6.0
 40
6.0
 40
7.0
 40
7.0
 40
7.0
 40
8.0
 40
8.0
 40
8.0
 40
9.0
 40
9.0
 40
9.0
 40
9.0
 10
127.7817352294921
 20
-23.12300720214843
 30
0.0
 10
127.7817352294921
 20
-23.12300720214843
 30
0.0
 10
127.7817352294921
 20
-26.12988654242621
 30
0.0
 10
127.7817352294921
 20
-26.12988654242621
 30
0.0
 10
127.7817352294921
 20
-26.68661397298176
 30
0.0
 10
127.3352508544921
 20
-27.13309834798177
 30
0.0
 10
126.7771453857421
 20
-27.13309834798177
 30
0.0
 10
126.7771453857421
 20
-27.13309834798177
 30
0.0
 10
112.7459604899088
 20
-27.13309834798177
 30
0.0
 10
112.7459604899088
 20
-27.13309834798177
 30
0.0
 10
112.1933671739366
 20
-27.13309834798177
 30
0.0
 10
111.7413706461588
 20
-26.68661397298176
 30
0.0
 10
111.7413706461588
 20
-26.12988654242621
 30
0.0
 10
111.7413706461588
 20
-26.12988654242621
 30
0.0
 10
111.7413706461588
 20
-14.10099114312066
 30
0.0
 10
111.7413706461588
 20
-14.10099114312066
 30
0.0
 10
111.7413706461588
 20
-13.54839782714843
 30
0.0
 10
112.1933671739366
 20
-13.10191345214843
 30
0.0
 10
112.7459604899088
 20
-13.10191345214843
 30
0.0
 10
112.7459604899088
 20
-13.10191345214843
 30
0.0
 10
126.7771453857421
 20
-13.10191345214843
 30
0.0
 10
126.7771453857421
 20
-13.10191345214843
 30
0.0
 10
127.3352508544921
 20
-13.10191345214843
 30
0.0
 10
127.7817352294921
 20
-13.54839782714843
 30
0.0
 10
127.7817352294921
 20
-14.10099114312066
 30
0.0
 10
127.7817352294921
 20
-14.10099114312066
 30
0.0
 10
127.7817352294921
 20
-17.10787048339843
 30
0.0
 10
127.7817352294921
 20
-17.10787048339843
 30
0.0
  0
SPLINE
  5
1B3
100
AcDbEntity
  8
ALPHA
 62
     7
100
AcDbSpline
210
0.0
220
0.0
230
1.0
 70
    11
 71
     3
 72
    26
 73
    22
 74
     0
 42
0.0000001
 43
0.0000001
 40
0.0
 40
0.0
 40
0.0
 40
0.0
 40
1.0
 40
1.0
 40
1.0
 40
2.0
 40
2.0
 40
2.0
 40
3.0
 40
3.0
 40
3.0
 40
4.0
 40
4.0
 40
4.0
 40
5.0
 40
5.0
 40
5.0
 40
6.0
 40
6.0
 40
6.0
 40
7.0
 40
7.0
 40
7.0
 40
7.0
 10
124.7693437364366
 20
-20.11474982367621
 30
0.0
 10
124.7693437364366
 20
-20.11474982367621
 30
0.0
 10
127.7776011149088
 20
-17.10787048339843
 30
0.0
 10
127.7776011149088
 20
-17.10787048339843
 30
0.0
 10
127.7776011149088
 20
-17.10787048339843
 30
0.0
 10
132.7867699517144
 20
-17.10787048339843
 30
0.0
 10
132.7867699517144
 20
-17.10787048339843
 30
0.0
 10
134.4500620524088
 20
-17.10787048339843
 30
0.0
 10
135.7950273301866
 20
-18.45696987575954
 30
0.0
 10
135.7950273301866
 20
-20.11474982367621
 30
0.0
 10
135.7950273301866
 20
-20.11474982367621
 30
0.0
 10
135.7950273301866
 20
-20.11474982367621
 30
0.0
 10
135.7950273301866
 20
-20.11474982367621
 30
0.0
 10
135.7950273301866
 20
-21.77804192437065
 30
0.0
 10
134.4500620524088
 20
-23.12300720214843
 30
0.0
 10
132.7867699517144
 20
-23.12300720214843
 30
0.0
 10
132.7867699517144
 20
-23.12300720214843
 30
0.0
 10
127.7776011149088
 20
-23.12300720214843
 30
0.0
 10
127.7776011149088
 20
-23.12300720214843
 30
0.0
 10
127.7776011149088
 20
-23.12300720214843
 30
0.0
 10
124.7693437364366
 20
-20.11474982367621
 30
0.0
 10
124.7693437364366
 20
-20.11474982367621
 30
0.0
  0
SPLINE
  5
1B4
100
AcDbEntity
  8
ALPHA
 62
     7
100
AcDbSpline
210
0.0
220
0.0
230
-1.0
 70
     8
 71
     3
 72
    32
 73
    28
 74
     0
 42
0.0000001
 43
0.0000001
 40
0.0
 40
0.0
 40
0.0
 40
0.0
 40
1.0
 40
1.0
 40
1.0
 40
2.0
 40
2.0
 40
2.0
 40
3.0
 40
3.0
 40
3.0
 40
4.0
 40
4.0
 40
4.0
 40
5.0
 40
5.0
 40
5.0
 40
6.0
 40
6.0
 40
6.0
 40
7.0
 40
7.0
 40
7.0
 40
8.0
 40
8.0
 40
8.0
 40
9.0
 40
9.0
 40
9.0
 40
9.0
 10
127.7817352294921
 20
-42.21986050075954
 30
0.0
 10
127.7817352294921
 20
-42.21986050075954
 30
0.0
 10
127.7817352294921
 20
-45.22811787923177
 30
0.0
 10
127.7817352294921
 20
-45.22811787923177
 30
0.0
 10
127.7817352294921
 20
-45.78484530978732
 30
0.0
 10
127.3352508544921
 20
-46.23132968478731
 30
0.0
 10
126.7771453857421
 20
-46.23132968478731
 30
0.0
 10
126.7771453857421
 20
-46.23132968478731
 30
0.0
 10
112.7459604899088
 20
-46.23132968478731
 30
0.0
 10
112.7459604899088
 20
-46.23132968478731
 30
0.0
 10
112.1933671739366
 20
-46.23132968478731
 30
0.0
 10
111.7413706461588
 20
-45.78484530978732
 30
0.0
 10
111.7413706461588
 20
-45.22811787923177
 30
0.0
 10
111.7413706461588
 20
-45.22811787923177
 30
0.0
 10
111.7413706461588
 20
-33.19922247992621
 30
0.0
 10
111.7413706461588
 20
-33.19922247992621
 30
0.0
 10
111.7413706461588
 20
-32.64662916395399
 30
0.0
 10
112.1933671739366
 20
-32.19876675075954
 30
0.0
 10
112.7459604899088
 20
-32.19876675075954
 30
0.0
 10
112.7459604899088
 20
-32.19876675075954
 30
0.0
 10
126.7771453857421
 20
-32.19876675075954
 30
0.0
 10
126.7771453857421
 20
-32.19876675075954
 30
0.0
 10
127.3352508544921
 20
-32.19876675075954
 30
0.0
 10
127.7817352294921
 20
-32.64662916395399
 30
0.0
 10
127.7817352294921
 20
-33.19922247992621
 30
0.0
 10
127.7817352294921
 20
-33.19922247992621
 30
0.0
 10
127.7817352294921
 20
-36.20610182020399
 30
0.0
 10
127.7817352294921
 20
-36.20610182020399
 30
0.0
  0
SPLINE
  5
1B5
100
AcDbEntity
  8
ALPHA
 62
     7
100
AcDbSpline
210
0.0
220
0.0
230
1.0
 70
    11
 71
     3
 72
    26
 73
    22
 74
     0
 42
0.0000001
 43
0.0000001
 40
0.0
 40
0.0
 40
0.0
 40
0.0
 40
1.0
 40
1.0
 40
1.0
 40
2.0
 40
2.0
 40
2.0
 40
3.0
 40
3.0
 40
3.0
 40
4.0
 40
4.0
 40
4.0
 40
5.0
 40
5.0
 40
5.0
 40
6.0
 40
6.0
 40
6.0
 40
7.0
 40
7.0
 40
7.0
 40
7.0
 10
124.7693437364366
 20
-39.21298116048177
 30
0.0
 10
124.7693437364366
 20
-39.21298116048177
 30
0.0
 10
127.7776011149088
 20
-36.20610182020399
 30
0.0
 10
127.7776011149088
 20
-36.20610182020399
 30
0.0
 10
127.7776011149088
 20
-36.20610182020399
 30
0.0
 10
132.7867699517144
 20
-36.20610182020399
 30
0.0
 10
132.7867699517144
 20
-36.20610182020399
 30
0.0
 10
134.4500620524088
 20
-36.20610182020399
 30
0.0
 10
135.7950273301866
 20
-37.5552012125651
 30
0.0
 10
135.7950273301866
 20
-39.21298116048177
 30
0.0
 10
135.7950273301866
 20
-39.21298116048177
 30
0.0
 10
135.7950273301866
 20
-39.21298116048177
 30
0.0
 10
135.7950273301866
 20
-39.21298116048177
 30
0.0
 10
135.7950273301866
 20
-40.87489522298176
 30
0.0
 10
134.4500620524088
 20
-42.21986050075954
 30
0.0
 10
132.7867699517144
 20
-42.21986050075954
 30
0.0
 10
132.7867699517144
 20
-42.21986050075954
 30
0.0
 10
127.7776011149088
 20
-42.21986050075954
 30
0.0
 10
127.7776011149088
 20
-42.21986050075954
 30
0.0
 10
127.7776011149088
 20
-42.21986050075954
 30
0.0
 10
124.7693437364366
 20
-39.21298116048177
 30
0.0
 10
124.7693437364366
 20
-39.21298116048177
 30
0.0
  0
SPLINE
  5
1B6
100
AcDbEntity
  8
ALPHA
 62
     7
100
AcDbSpline
210
0.0
220
0.0
230
-1.0
 70
     8
 71
     3
 72
    32
 73
    28
 74
     0
 42
0.0000001
 43
0.0000001
 40
0.0
 40
0.0
 40
0.0
 40
0.0
 40
1.0
 40
1.0
 40
1.0
 40
2.0
 40
2.0
 40
2.0
 40
3.0
 40
3.0
 40
3.0
 40
4.0
 40
4.0
 40
4.0
 40
5.0
 40
5.0
 40
5.0
 40
6.0
 40
6.0
 40
6.0
 40
7.0
 40
7.0
 40
7.0
 40
8.0
 40
8.0
 40
8.0
 40
9.0
 40
9.0
 40
9.0
 40
9.0
 10
127.7817352294921
 20
-61.3180918375651
 30
0.0
 10
127.7817352294921
 20
-61.3180918375651
 30
0.0
 10
127.7817352294921
 20
-64.32497117784286
 30
0.0
 10
127.7817352294921
 20
-64.32497117784286
 30
0.0
 10
127.7817352294921
 20
-64.88169860839843
 30
0.0
 10
127.3352508544921
 20
-65.32956102159288
 30
0.0
 10
126.7771453857421
 20
-65.32956102159288
 30
0.0
 10
126.7771453857421
 20
-65.32956102159288
 30
0.0
 10
112.7459604899088
 20
-65.32956102159288
 30
0.0
 10
112.7459604899088
 20
-65.32956102159288
 30
0.0
 10
112.1933671739366
 20
-65.32956102159288
 30
0.0
 10
111.7413706461588
 20
-64.88169860839843
 30
0.0
 10
111.7413706461588
 20
-64.32497117784286
 30
0.0
 10
111.7413706461588
 20
-64.32497117784286
 30
0.0
 10
111.7413706461588
 20
-52.29607577853732
 30
0.0
 10
111.7413706461588
 20
-52.29607577853732
 30
0.0
 10
111.7413706461588
 20
-51.7434824625651
 30
0.0
 10
112.1933671739366
 20
-51.2969980875651
 30
0.0
 10
112.7459604899088
 20
-51.2969980875651
 30
0.0
 10
112.7459604899088
 20
-51.2969980875651
 30
0.0
 10
126.7771453857421
 20
-51.2969980875651
 30
0.0
 10
126.7771453857421
 20
-51.2969980875651
 30
0.0
 10
127.3352508544921
 20
-51.2969980875651
 30
0.0
 10
127.7817352294921
 20
-51.7434824625651
 30
0.0
 10
127.7817352294921
 20
-52.29607577853732
 30
0.0
 10
127.7817352294921
 20
-52.29607577853732
 30
0.0
 10
127.7817352294921
 20
-55.3029551188151
 30
0.0
 10
127.7817352294921
 20
-55.3029551188151
 30
0.0
  0
SPLINE
  5
1B7
100
AcDbEntity
  8
ALPHA
 62
     7
100
AcDbSpline
210
0.0
220
0.0
230
1.0
 70
    11
 71
     3
 72
    26
 73
    22
 74
     0
 42
0.0000001
 43
0.0000001
 40
0.0
 40
0.0
 40
0.0
 40
0.0
 40
1.0
 40
1.0
 40
1.0
 40
2.0
 40
2.0
 40
2.0
 40
3.0
 40
3.0
 40
3.0
 40
4.0
 40
4.0
 40
4.0
 40
5.0
 40
5.0
 40
5.0
 40
6.0
 40
6.0
 40
6.0
 40
7.0
 40
7.0
 40
7.0
 40
7.0
 10
124.7693437364366
 20
-58.31121249728732
 30
0.0
 10
124.7693437364366
 20
-58.31121249728732
 30
0.0
 10
127.7776011149088
 20
-55.3029551188151
 30
0.0
 10
127.7776011149088
 20
-55.3029551188151
 30
0.0
 10
127.7776011149088
 20
-55.3029551188151
 30
0.0
 10
132.7867699517144
 20
-55.3029551188151
 30
0.0
 10
132.7867699517144
 20
-55.3029551188151
 30
0.0
 10
134.4500620524088
 20
-55.3029551188151
 30
0.0
 10
135.7950273301866
 20
-56.65343254937066
 30
0.0
 10
135.7950273301866
 20
-58.31121249728732
 30
0.0
 10
135.7950273301866
 20
-58.31121249728732
 30
0.0
 10
135.7950273301866
 20
-58.31121249728732
 30
0.0
 10
135.7950273301866
 20
-58.31121249728732
 30
0.0
 10
135.7950273301866
 20
-59.97312655978731
 30
0.0
 10
134.4500620524088
 20
-61.3180918375651
 30
0.0
 10
132.7867699517144
 20
-61.3180918375651
 30
0.0
 10
132.7867699517144
 20
-61.3180918375651
 30
0.0
 10
127.7776011149088
 20
-61.3180918375651
 30
0.0
 10
127.7776011149088
 20
-61.3180918375651
 30
0.0
 10
127.7776011149088
 20
-61.3180918375651
 30
0.0
 10
124.7693437364366
 20
-58.31121249728732
 30
0.0
 10
124.7693437364366
 20
-58.31121249728732
 30
0.0
  0
SPLINE
  5
1B8
100
AcDbEntity
  8
ALPHA
 62
     7
100
AcDbSpline
210
0.0
220
0.0
230
-1.0
 70
     8
 71
     3
 72
    32
 73
    28
 74
     0
 42
0.0000001
 43
0.0000001
 40
0.0
 40
0.0
 40
0.0
 40
0.0
 40
1.0
 40
1.0
 40
1.0
 40
2.0
 40
2.0
 40
2.0
 40
3.0
 40
3.0
 40
3.0
 40
4.0
 40
4.0
 40
4.0
 40
5.0
 40
5.0
 40
5.0
 40
6.0
 40
6.0
 40
6.0
 40
7.0
 40
7.0
 40
7.0
 40
8.0
 40
8.0
 40
8.0
 40
9.0
 40
9.0
 40
9.0
 40
9.0
 10
127.7817352294921
 20
-80.41494513617621
 30
0.0
 10
127.7817352294921
 20
-80.41494513617621
 30
0.0
 10
127.7817352294921
 20
-83.42320251464842
 30
0.0
 10
127.7817352294921
 20
-83.42320251464842
 30
0.0
 10
127.7817352294921
 20
-83.97992994520398
 30
0.0
 10
127.3352508544921
 20
-84.42641432020399
 30
0.0
 10
126.7771453857421
 20
-84.42641432020399
 30
0.0
 10
126.7771453857421
 20
-84.42641432020399
 30
0.0
 10
112.7459604899088
 20
-84.42641432020399
 30
0.0
 10
112.7459604899088
 20
-84.42641432020399
 30
0.0
 10
112.1933671739366
 20
-84.42641432020399
 30
0.0
 10
111.7413706461588
 20
-83.97992994520398
 30
0.0
 10
111.7413706461588
 20
-83.42320251464842
 30
0.0
 10
111.7413706461588
 20
-83.42320251464842
 30
0.0
 10
111.7413706461588
 20
-71.39430711534287
 30
0.0
 10
111.7413706461588
 20
-71.39430711534287
 30
0.0
 10
111.7413706461588
 20
-70.84171379937065
 30
0.0
 10
112.1933671739366
 20
-70.39522942437065
 30
0.0
 10
112.7459604899088
 20
-70.39522942437065
 30
0.0
 10
112.7459604899088
 20
-70.39522942437065
 30
0.0
 10
126.7771453857421
 20
-70.39522942437065
 30
0.0
 10
126.7771453857421
 20
-70.39522942437065
 30
0.0
 10
127.3352508544921
 20
-70.39522942437065
 30
0.0
 10
127.7817352294921
 20
-70.84171379937065
 30
0.0
 10
127.7817352294921
 20
-71.39430711534287
 30
0.0
 10
127.7817352294921
 20
-71.39430711534287
 30
0.0
 10
127.7817352294921
 20
-74.40118645562065
 30
0.0
 10
127.7817352294921
 20
-74.40118645562065
 30
0.0
  0
SPLINE
  5
1B9
100
AcDbEntity
  8
ALPHA
 62
     7
100
AcDbSpline
210
0.0
220
0.0
230
1.0
 70
    11
 71
     3
 72
    26
 73
    22
 74
     0
 42
0.0000001
 43
0.0000001
 40
0.0
 40
0.0
 40
0.0
 40
0.0
 40
1.0
 40
1.0
 40
1.0
 40
2.0
 40
2.0
 40
2.0
 40
3.0
 40
3.0
 40
3.0
 40
4.0
 40
4.0
 40
4.0
 40
5.0
 40
5.0
 40
5.0
 40
6.0
 40
6.0
 40
6.0
 40
7.0
 40
7.0
 40
7.0
 40
7.0
 10
124.7693437364366
 20
-77.40806579589843
 30
0.0
 10
124.7693437364366
 20
-77.40806579589843
 30
0.0
 10
127.7776011149088
 20
-74.40118645562065
 30
0.0
 10
127.7776011149088
 20
-74.40118645562065
 30
0.0
 10
127.7776011149088
 20
-74.40118645562065
 30
0.0
 10
132.7867699517144
 20
-74.40118645562065
 30
0.0
 10
132.7867699517144
 20
-74.40118645562065
 30
0.0
 10
134.4500620524088
 20
-74.40118645562065
 30
0.0
 10
135.7950273301866
 20
-75.75028584798175
 30
0.0
 10
135.7950273301866
 20
-77.40806579589843
 30
0.0
 10
135.7950273301866
 20
-77.40806579589843
 30
0.0
 10
135.7950273301866
 20
-77.40806579589843
 30
0.0
 10
135.7950273301866
 20
-77.40806579589843
 30
0.0
 10
135.7950273301866
 20
-79.07135789659287
 30
0.0
 10
134.4500620524088
 20
-80.41494513617621
 30
0.0
 10
132.7867699517144
 20
-80.41494513617621
 30
0.0
 10
132.7867699517144
 20
-80.41494513617621
 30
0.0
 10
127.7776011149088
 20
-80.41494513617621
 30
0.0
 10
127.7776011149088
 20
-80.41494513617621
 30
0.0
 10
127.7776011149088
 20
-80.41494513617621
 30
0.0
 10
124.7693437364366
 20
-77.40806579589843
 30
0.0
 10
124.7693437364366
 20
-77.40806579589843
 30
0.0
  0
POLYLINE
  5
1BA
100
AcDbEntity
  8
ALPHA
 62
     7
100
AcDb2dPolyline
 66
     1
 10
0.0
 20
0.0
 30
0.0
 70
     1
  0
VERTEX
  5
1BB
100
AcDbEntity
  8
ALPHA
 62
     7
100
AcDbVertex
100
AcDb2dVertex
 10
-53.427531
 20
-72.416811
 30
0.0
  0
VERTEX
  5
1BC
100
AcDbEntity
  8
ALPHA
 62
     7
100
AcDbVertex
100
AcDb2dVertex
 10
-53.427531
 20
-63.394795
 30
0.0
  0
VERTEX
  5
1BD
100
AcDbEntity
  8
ALPHA
 62
     7
100
AcDbVertex
100
AcDb2dVertex
 10
-68.468646
 20
-63.394795
 30
0.0
  0
VERTEX
  5
1BE
100
AcDbEntity
  8
ALPHA
 62
     7
100
AcDbVertex
100
AcDb2dVertex
 10
-68.468646
 20
-72.416811
 30
0.0
  0
SEQEND
  5
1BF
100
AcDbEntity
  8
ALPHA
 62
     7
  0
POLYLINE
  5
1C0
100
AcDbEntity
  8
ALPHA
 62
     7
100
AcDb2dPolyline
 66
     1
 10
0.0
 20
0.0
 30
0.0
 70
     1
  0
VERTEX
  5
1C1
100
AcDbEntity
  8
ALPHA
 62
     7
100
AcDbVertex
100
AcDb2dVertex
 10
-53.427531
 20
-34.221727
 30
0.0
  0
VERTEX
  5
1C2
100
AcDbEntity
  8
ALPHA
 62
     7
100
AcDbVertex
100
AcDb2dVertex
 10
-53.427531
 20
-25.199711
 30
0.0
  0
VERTEX
  5
1C3
100
AcDbEntity
  8
ALPHA
 62
     7
100
AcDbVertex
100
AcDb2dVertex
 10
-68.468646
 20
-25.199711
 30
0.0
  0
VERTEX
  5
1C4
100
AcDbEntity
  8
ALPHA
 62
     7
100
AcDbVertex
100
AcDb2dVertex
 10
-68.468646
 20
-34.221727
 30
0.0
  0
SEQEND
  5
1C5
100
AcDbEntity
  8
ALPHA
 62
     7
  0
POLYLINE
  5
1C6
100
AcDbEntity
  8
ALPHA
 62
     7
100
AcDb2dPolyline
 66
     1
 10
0.0
 20
0.0
 30
0.0
 70
     1
  0
VERTEX
  5
1C7
100
AcDbEntity
  8
ALPHA
 62
     7
100
AcDbVertex
100
AcDb2dVertex
 10
-34.330678
 20
-52.789413
 30
0.0
  0
VERTEX
  5
1C8
100
AcDbEntity
  8
ALPHA
 62
     7
100
AcDbVertex
100
AcDb2dVertex
 10
-34.330678
 20
-43.767397
 30
0.0
  0
VERTEX
  5
1C9
100
AcDbEntity
  8
ALPHA
 62
     7
100
AcDbVertex
100
AcDb2dVertex
 10
-49.370587
 20
-43.767397
 30
0.0
  0
VERTEX
  5
1CA
100
AcDbEntity
  8
ALPHA
 62
     7
100
AcDbVertex
100
AcDb2dVertex
 10
-49.370587
 20
-52.789413
 30
0.0
  0
SEQEND
  5
1CB
100
AcDbEntity
  8
ALPHA
 62
     7
  0
POLYLINE
  5
1CC
100
AcDbEntity
  8
ALPHA
 62
     7
100
AcDb2dPolyline
 66
     1
 10
0.0
 20
0.0
 30
0.0
 70
     1
  0
VERTEX
  5
1CD
100
AcDbEntity
  8
ALPHA
 62
     7
100
AcDbVertex
100
AcDb2dVertex
 10
-14.528269
 20
-34.221727
 30
0.0
  0
VERTEX
  5
1CE
100
AcDbEntity
  8
ALPHA
 62
     7
100
AcDbVertex
100
AcDb2dVertex
 10
-14.528269
 20
-25.199711
 30
0.0
  0
VERTEX
  5
1CF
100
AcDbEntity
  8
ALPHA
 62
     7
100
AcDbVertex
100
AcDb2dVertex
 10
-29.564044
 20
-25.199711
 30
0.0
  0
VERTEX
  5
1D0
100
AcDbEntity
  8
ALPHA
 62
     7
100
AcDbVertex
100
AcDb2dVertex
 10
-29.564044
 20
-34.221727
 30
0.0
  0
SEQEND
  5
1D1
100
AcDbEntity
  8
ALPHA
 62
     7
  0
POLYLINE
  5
1D2
100
AcDbEntity
  8
ALPHA
 62
     7
100
AcDb2dPolyline
 66
     1
 10
0.0
 20
0.0
 30
0.0
 70
     1
  0
VERTEX
  5
1D3
100
AcDbEntity
  8
ALPHA
 62
     7
100
AcDbVertex
100
AcDb2dVertex
 10
1.03805
 20
3.265046
 30
0.0
  0
VERTEX
  5
1D4
100
AcDbEntity
  8
ALPHA
 62
     7
100
AcDbVertex
100
AcDb2dVertex
 10
1.03805
 20
12.287234
 30
0.0
  0
VERTEX
  5
1D5
100
AcDbEntity
  8
ALPHA
 62
     7
100
AcDbVertex
100
AcDb2dVertex
 10
-14.003237
 20
12.287234
 30
0.0
  0
VERTEX
  5
1D6
100
AcDbEntity
  8
ALPHA
 62
     7
100
AcDbVertex
100
AcDb2dVertex
 10
-14.003237
 20
3.265046
 30
0.0
  0
SEQEND
  5
1D7
100
AcDbEntity
  8
ALPHA
 62
     7
  0
POLYLINE
  5
1D8
100
AcDbEntity
  8
ALPHA
 62
     7
100
AcDb2dPolyline
 66
     1
 10
0.0
 20
0.0
 30
0.0
 70
     1
  0
VERTEX
  5
1D9
100
AcDbEntity
  8
ALPHA
 62
     7
100
AcDbVertex
100
AcDb2dVertex
 10
22.254326
 20
3.265046
 30
0.0
  0
VERTEX
  5
1DA
100
AcDbEntity
  8
ALPHA
 62
     7
100
AcDbVertex
100
AcDb2dVertex
 10
22.254326
 20
12.287234
 30
0.0
  0
VERTEX
  5
1DB
100
AcDbEntity
  8
ALPHA
 62
     7
100
AcDbVertex
100
AcDb2dVertex
 10
7.218552
 20
12.287234
 30
0.0
  0
VERTEX
  5
1DC
100
AcDbEntity
  8
ALPHA
 62
     7
100
AcDbVertex
100
AcDb2dVertex
 10
7.218552
 20
3.265046
 30
0.0
  0
SEQEND
  5
1DD
100
AcDbEntity
  8
ALPHA
 62
     7
  0
POLYLINE
  5
1DE
100
AcDbEntity
  8
ALPHA
 62
     7
100
AcDb2dPolyline
 66
     1
 10
0.0
 20
0.0
 30
0.0
 70
     1
  0
VERTEX
  5
1DF
100
AcDbEntity
  8
ALPHA
 62
     7
100
AcDbVertex
100
AcDb2dVertex
 10
43.474737
 20
3.265046
 30
0.0
  0
VERTEX
  5
1E0
100
AcDbEntity
  8
ALPHA
 62
     7
100
AcDbVertex
100
AcDb2dVertex
 10
43.474737
 20
12.287234
 30
0.0
  0
VERTEX
  5
1E1
100
AcDbEntity
  8
ALPHA
 62
     7
100
AcDbVertex
100
AcDb2dVertex
 10
28.438962
 20
12.287234
 30
0.0
  0
VERTEX
  5
1E2
100
AcDbEntity
  8
ALPHA
 62
     7
100
AcDbVertex
100
AcDb2dVertex
 10
28.438962
 20
3.265046
 30
0.0
  0
SEQEND
  5
1E3
100
AcDbEntity
  8
ALPHA
 62
     7
  0
POLYLINE
  5
1E4
100
AcDbEntity
  8
ALPHA
 62
     7
100
AcDb2dPolyline
 66
     1
 10
0.0
 20
0.0
 30
0.0
 70
     1
  0
VERTEX
  5
1E5
100
AcDbEntity
  8
ALPHA
 62
     7
100
AcDbVertex
100
AcDb2dVertex
 10
64.695147
 20
3.265046
 30
0.0
  0
VERTEX
  5
1E6
100
AcDbEntity
  8
ALPHA
 62
     7
100
AcDbVertex
100
AcDb2dVertex
 10
64.695147
 20
12.287234
 30
0.0
  0
VERTEX
  5
1E7
100
AcDbEntity
  8
ALPHA
 62
     7
100
AcDbVertex
100
AcDb2dVertex
 10
49.659372
 20
12.287234
 30
0.0
  0
VERTEX
  5
1E8
100
AcDbEntity
  8
ALPHA
 62
     7
100
AcDbVertex
100
AcDb2dVertex
 10
49.659372
 20
3.265046
 30
0.0
  0
SEQEND
  5
1E9
100
AcDbEntity
  8
ALPHA
 62
     7
  0
POLYLINE
  5
1EA
100
AcDbEntity
  8
ALPHA
 62
     7
100
AcDb2dPolyline
 66
     1
 10
0.0
 20
0.0
 30
0.0
 70
     1
  0
VERTEX
  5
1EB
100
AcDbEntity
  8
ALPHA
 62
     7
100
AcDbVertex
100
AcDb2dVertex
 10
22.254326
 20
-73.125123
 30
0.0
  0
VERTEX
  5
1EC
100
AcDbEntity
  8
ALPHA
 62
     7
100
AcDbVertex
100
AcDb2dVertex
 10
22.254326
 20
-64.104485
 30
0.0
  0
VERTEX
  5
1ED
100
AcDbEntity
  8
ALPHA
 62
     7
100
AcDbVertex
100
AcDb2dVertex
 10
7.218552
 20
-64.104485
 30
0.0
  0
VERTEX
  5
1EE
100
AcDbEntity
  8
ALPHA
 62
     7
100
AcDbVertex
100
AcDb2dVertex
 10
7.218552
 20
-73.125123
 30
0.0
  0
SEQEND
  5
1EF
100
AcDbEntity
  8
ALPHA
 62
     7
  0
POLYLINE
  5
1F0
100
AcDbEntity
  8
ALPHA
 62
     7
100
AcDb2dPolyline
 66
     1
 10
0.0
 20
0.0
 30
0.0
 70
     1
  0
VERTEX
  5
1F1
100
AcDbEntity
  8
ALPHA
 62
     7
100
AcDbVertex
100
AcDb2dVertex
 10
43.474737
 20
-73.125123
 30
0.0
  0
VERTEX
  5
1F2
100
AcDbEntity
  8
ALPHA
 62
     7
100
AcDbVertex
100
AcDb2dVertex
 10
43.474737
 20
-64.104485
 30
0.0
  0
VERTEX
  5
1F3
100
AcDbEntity
  8
ALPHA
 62
     7
100
AcDbVertex
100
AcDb2dVertex
 10
28.438962
 20
-64.104485
 30
0.0
  0
VERTEX
  5
1F4
100
AcDbEntity
  8
ALPHA
 62
     7
100
AcDbVertex
100
AcDb2dVertex
 10
28.438962
 20
-73.125123
 30
0.0
  0
SEQEND
  5
1F5
100
AcDbEntity
  8
ALPHA
 62
     7
  0
POLYLINE
  5
1F6
100
AcDbEntity
  8
ALPHA
 62
     7
100
AcDb2dPolyline
 66
     1
 10
0.0
 20
0.0
 30
0.0
 70
     1
  0
VERTEX
  5
1F7
100
AcDbEntity
  8
ALPHA
 62
     7
100
AcDbVertex
100
AcDb2dVertex
 10
64.695147
 20
-73.125123
 30
0.0
  0
VERTEX
  5
1F8
100
AcDbEntity
  8
ALPHA
 62
     7
100
AcDbVertex
100
AcDb2dVertex
 10
64.695147
 20
-64.104485
 30
0.0
  0
VERTEX
  5
1F9
100
AcDbEntity
  8
ALPHA
 62
     7
100
AcDbVertex
100
AcDb2dVertex
 10
49.659372
 20
-64.104485
 30
0.0
  0
VERTEX
  5
1FA
100
AcDbEntity
  8
ALPHA
 62
     7
100
AcDbVertex
100
AcDb2dVertex
 10
49.659372
 20
-73.125123
 30
0.0
  0
SEQEND
  5
1FB
100
AcDbEntity
  8
ALPHA
 62
     7
  0
POLYLINE
  5
1FC
100
AcDbEntity
  8
ALPHA
 62
     7
100
AcDb2dPolyline
 66
     1
 10
0.0
 20
0.0
 30
0.0
 70
     1
  0
VERTEX
  5
1FD
100
AcDbEntity
  8
ALPHA
 62
     7
100
AcDbVertex
100
AcDb2dVertex
 10
22.254326
 20
-55.442137
 30
0.0
  0
VERTEX
  5
1FE
100
AcDbEntity
  8
ALPHA
 62
     7
100
AcDbVertex
100
AcDb2dVertex
 10
22.254326
 20
-46.420121
 30
0.0
  0
VERTEX
  5
1FF
100
AcDbEntity
  8
ALPHA
 62
     7
100
AcDbVertex
100
AcDb2dVertex
 10
7.218552
 20
-46.420121
 30
0.0
  0
VERTEX
  5
200
100
AcDbEntity
  8
ALPHA
 62
     7
100
AcDbVertex
100
AcDb2dVertex
 10
7.218552
 20
-55.442137
 30
0.0
  0
SEQEND
  5
201
100
AcDbEntity
  8
ALPHA
 62
     7
  0
POLYLINE
  5
202
100
AcDbEntity
  8
ALPHA
 62
     7
100
AcDb2dPolyline
 66
     1
 10
0.0
 20
0.0
 30
0.0
 70
     1
  0
VERTEX
  5
203
100
AcDbEntity
  8
ALPHA
 62
     7
100
AcDbVertex
100
AcDb2dVertex
 10
43.474737
 20
-55.442137
 30
0.0
  0
VERTEX
  5
204
100
AcDbEntity
  8
ALPHA
 62
     7
100
AcDbVertex
100
AcDb2dVertex
 10
43.474737
 20
-46.420121
 30
0.0
  0
VERTEX
  5
205
100
AcDbEntity
  8
ALPHA
 62
     7
100
AcDbVertex
100
AcDb2dVertex
 10
28.438962
 20
-46.420121
 30
0.0
  0
VERTEX
  5
206
100
AcDbEntity
  8
ALPHA
 62
     7
100
AcDbVertex
100
AcDb2dVertex
 10
28.438962
 20
-55.442137
 30
0.0
  0
SEQEND
  5
207
100
AcDbEntity
  8
ALPHA
 62
     7
  0
POLYLINE
  5
208
100
AcDbEntity
  8
ALPHA
 62
     7
100
AcDb2dPolyline
 66
     1
 10
0.0
 20
0.0
 30
0.0
 70
     1
  0
VERTEX
  5
209
100
AcDbEntity
  8
ALPHA
 62
     7
100
AcDbVertex
100
AcDb2dVertex
 10
64.695147
 20
-55.442137
 30
0.0
  0
VERTEX
  5
20A
100
AcDbEntity
  8
ALPHA
 62
     7
100
AcDbVertex
100
AcDb2dVertex
 10
64.695147
 20
-46.420121
 30
0.0
  0
VERTEX
  5
20B
100
AcDbEntity
  8
ALPHA
 62
     7
100
AcDbVertex
100
AcDb2dVertex
 10
49.659372
 20
-46.420121
 30
0.0
  0
VERTEX
  5
20C
100
AcDbEntity
  8
ALPHA
 62
     7
100
AcDbVertex
100
AcDb2dVertex
 10
49.659372
 20
-55.442137
 30
0.0
  0
SEQEND
  5
20D
100
AcDbEntity
  8
ALPHA
 62
     7
  0
POLYLINE
  5
20E
100
AcDbEntity
  8
ALPHA
 62
     7
100
AcDb2dPolyline
 66
     1
 10
0.0
 20
0.0
 30
0.0
 70
     1
  0
VERTEX
  5
20F
100
AcDbEntity
  8
ALPHA
 62
     7
100
AcDbVertex
100
AcDb2dVertex
 10
22.254326
 20
-35.98975
 30
0.0
  0
VERTEX
  5
210
100
AcDbEntity
  8
ALPHA
 62
     7
100
AcDbVertex
100
AcDb2dVertex
 10
22.254326
 20
-26.967734
 30
0.0
  0
VERTEX
  5
211
100
AcDbEntity
  8
ALPHA
 62
     7
100
AcDbVertex
100
AcDb2dVertex
 10
7.218552
 20
-26.967734
 30
0.0
  0
VERTEX
  5
212
100
AcDbEntity
  8
ALPHA
 62
     7
100
AcDbVertex
100
AcDb2dVertex
 10
7.218552
 20
-35.98975
 30
0.0
  0
SEQEND
  5
213
100
AcDbEntity
  8
ALPHA
 62
     7
  0
POLYLINE
  5
214
100
AcDbEntity
  8
ALPHA
 62
     7
100
AcDb2dPolyline
 66
     1
 10
0.0
 20
0.0
 30
0.0
 70
     1
  0
VERTEX
  5
215
100
AcDbEntity
  8
ALPHA
 62
     7
100
AcDbVertex
100
AcDb2dVertex
 10
43.474737
 20
-35.98975
 30
0.0
  0
VERTEX
  5
216
100
AcDbEntity
  8
ALPHA
 62
     7
100
AcDbVertex
100
AcDb2dVertex
 10
43.474737
 20
-26.967734
 30
0.0
  0
VERTEX
  5
217
100
AcDbEntity
  8
ALPHA
 62
     7
100
AcDbVertex
100
AcDb2dVertex
 10
28.438962
 20
-26.967734
 30
0.0
  0
VERTEX
  5
218
100
AcDbEntity
  8
ALPHA
 62
     7
100
AcDbVertex
100
AcDb2dVertex
 10
28.438962
 20
-35.98975
 30
0.0
  0
SEQEND
  5
219
100
AcDbEntity
  8
ALPHA
 62
     7
  0
POLYLINE
  5
21A
100
AcDbEntity
  8
ALPHA
 62
     7
100
AcDb2dPolyline
 66
     1
 10
0.0
 20
0.0
 30
0.0
 70
     1
  0
VERTEX
  5
21B
100
AcDbEntity
  8
ALPHA
 62
     7
100
AcDbVertex
100
AcDb2dVertex
 10
64.695147
 20
-35.98975
 30
0.0
  0
VERTEX
  5
21C
100
AcDbEntity
  8
ALPHA
 62
     7
100
AcDbVertex
100
AcDb2dVertex
 10
64.695147
 20
-26.967734
 30
0.0
  0
VERTEX
  5
21D
100
AcDbEntity
  8
ALPHA
 62
     7
100
AcDbVertex
100
AcDb2dVertex
 10
49.659372
 20
-26.967734
 30
0.0
  0
VERTEX
  5
21E
100
AcDbEntity
  8
ALPHA
 62
     7
100
AcDbVertex
100
AcDb2dVertex
 10
49.659372
 20
-35.98975
 30
0.0
  0
SEQEND
  5
21F
100
AcDbEntity
  8
ALPHA
 62
     7
  0
POLYLINE
  5
220
100
AcDbEntity
  8
ALPHA
 62
     7
100
AcDb2dPolyline
 66
     1
 10
0.0
 20
0.0
 30
0.0
 70
     1
  0
VERTEX
  5
221
100
AcDbEntity
  8
ALPHA
 62
     7
100
AcDbVertex
100
AcDb2dVertex
 10
22.254326
 20
-16.362352
 30
0.0
  0
VERTEX
  5
222
100
AcDbEntity
  8
ALPHA
 62
     7
100
AcDbVertex
100
AcDb2dVertex
 10
22.254326
 20
-7.340336
 30
0.0
  0
VERTEX
  5
223
100
AcDbEntity
  8
ALPHA
 62
     7
100
AcDbVertex
100
AcDb2dVertex
 10
7.218552
 20
-7.340336
 30
0.0
  0
VERTEX
  5
224
100
AcDbEntity
  8
ALPHA
 62
     7
100
AcDbVertex
100
AcDb2dVertex
 10
7.218552
 20
-16.362352
 30
0.0
  0
SEQEND
  5
225
100
AcDbEntity
  8
ALPHA
 62
     7
  0
POLYLINE
  5
226
100
AcDbEntity
  8
ALPHA
 62
     7
100
AcDb2dPolyline
 66
     1
 10
0.0
 20
0.0
 30
0.0
 70
     1
  0
VERTEX
  5
227
100
AcDbEntity
  8
ALPHA
 62
     7
100
AcDbVertex
100
AcDb2dVertex
 10
43.474737
 20
-16.362352
 30
0.0
  0
VERTEX
  5
228
100
AcDbEntity
  8
ALPHA
 62
     7
100
AcDbVertex
100
AcDb2dVertex
 10
43.474737
 20
-7.340336
 30
0.0
  0
VERTEX
  5
229
100
AcDbEntity
  8
ALPHA
 62
     7
100
AcDbVertex
100
AcDb2dVertex
 10
28.438962
 20
-7.340336
 30
0.0
  0
VERTEX
  5
22A
100
AcDbEntity
  8
ALPHA
 62
     7
100
AcDbVertex
100
AcDb2dVertex
 10
28.438962
 20
-16.362352
 30
0.0
  0
SEQEND
  5
22B
100
AcDbEntity
  8
ALPHA
 62
     7
  0
POLYLINE
  5
22C
100
AcDbEntity
  8
ALPHA
 62
     7
100
AcDb2dPolyline
 66
     1
 10
0.0
 20
0.0
 30
0.0
 70
     1
  0
VERTEX
  5
22D
100
AcDbEntity
  8
ALPHA
 62
     7
100
AcDbVertex
100
AcDb2dVertex
 10
64.695147
 20
-16.362352
 30
0.0
  0
VERTEX
  5
22E
100
AcDbEntity
  8
ALPHA
 62
     7
100
AcDbVertex
100
AcDb2dVertex
 10
64.695147
 20
-7.340336
 30
0.0
  0
VERTEX
  5
22F
100
AcDbEntity
  8
ALPHA
 62
     7
100
AcDbVertex
100
AcDb2dVertex
 10
49.659372
 20
-7.340336
 30
0.0
  0
VERTEX
  5
230
100
AcDbEntity
  8
ALPHA
 62
     7
100
AcDbVertex
100
AcDb2dVertex
 10
49.659372
 20
-16.362352
 30
0.0
  0
SEQEND
  5
231
100
AcDbEntity
  8
ALPHA
 62
     7
  0
ENDBLK
  5
233
100
AcDbEntity
  8
ALPHA
100
AcDbBlockEnd
  0
BLOCK
  5
37C
100
AcDbEntity
  8
ALPHA
 62
     7
100
AcDbBlockBegin
  2
AI9-BLK7
 70
     0
 10
0.0
 20
0.0
 30
0.0
  3
AI9-BLK7
  1

  0
HATCH
  5
37B
100
AcDbEntity
  8
ALPHA
 62
     7
100
AcDbHatch
 10
0.0
 20
0.0
 30
0.0
210
0.0
220
0.0
230
1.0
  2
SOLID
 70
     1
 71
     0
 91
        1
 92
        1
 93
        1
 72
     4
 94
        3
 73
     0
 74
     0
 95
       59
 96
       55
 40
0.0
 40
0.0
 40
0.0
 40
0.0
 40
1.0
 40
1.0
 40
1.0
 40
2.0
 40
2.0
 40
2.0
 40
3.0
 40
3.0
 40
3.0
 40
4.0
 40
4.0
 40
4.0
 40
5.0
 40
5.0
 40
5.0
 40
6.0
 40
6.0
 40
6.0
 40
7.0
 40
7.0
 40
7.0
 40
8.0
 40
8.0
 40
8.0
 40
9.0
 40
9.0
 40
9.0
 40
10.0
 40
10.0
 40
10.0
 40
11.0
 40
11.0
 40
11.0
 40
12.0
 40
12.0
 40
12.0
 40
13.0
 40
13.0
 40
13.0
 40
14.0
 40
14.0
 40
14.0
 40
15.0
 40
15.0
 40
15.0
 40
16.0
 40
16.0
 40
16.0
 40
17.0
 40
17.0
 40
17.0
 40
18.0
 40
18.0
 40
18.0
 40
18.0
 10
-0.073381
 20
0.079754
 10
-0.054949
 20
0.078376
 10
-0.038068
 20
0.078376
 10
-0.021015
 20
0.078376
 10
0.080443
 20
0.078376
 10
0.169326
 20
0.133325
 10
0.169326
 20
0.242018
 10
0.169326
 20
0.346404
 10
0.09319
 20
0.402904
 10
-0.00844
 20
0.402904
 10
-0.139699
 20
0.402904
 10
-0.196026
 20
0.302652
 10
-0.197404
 20
0.185518
 10
-0.197404
 20
0.185518
 10
-0.317466
 20
0.185518
 10
-0.317466
 20
0.185518
 10
-0.310403
 20
0.376032
 10
-0.208773
 20
0.508668
 10
-0.00844
 20
0.508668
 10
0.165192
 20
0.508668
 10
0.29645
 20
0.425469
 10
0.29645
 20
0.24064
 10
0.29645
 20
0.153134
 10
0.234266
 20
0.076826
 10
0.15813
 20
0.041686
 10
0.15813
 20
0.041686
 10
0.15813
 20
0.038757
 10
0.15813
 20
0.038757
 10
0.279397
 20
0.012058
 10
0.338653
 20
-0.08406
 10
0.338653
 20
-0.20395
 10
0.338653
 20
-0.404282
 10
0.182073
 20
-0.508668
 10
-0.005512
 20
-0.508668
 10
-0.208773
 20
-0.508668
 10
-0.342787
 20
-0.388779
 10
-0.338653
 20
-0.182762
 10
-0.338653
 20
-0.182762
 10
-0.218591
 20
-0.182762
 10
-0.218591
 20
-0.182762
 10
-0.214457
 20
-0.312642
 10
-0.142455
 20
-0.402904
 10
-0.005512
 20
-0.402904
 10
0.111621
 20
-0.402904
 10
0.211701
 20
-0.330901
 10
0.211701
 20
-0.209634
 10
0.211701
 20
-0.08406
 10
0.117133
 20
-0.017742
 10
-0.001378
 20
-0.017742
 10
-0.025321
 20
-0.017742
 10
-0.050815
 20
-0.01912
 10
-0.073381
 20
-0.021876
 10
-0.073381
 20
-0.021876
 10
-0.073381
 20
0.079754
 10
-0.073381
 20
0.079754
 97
        0
 75
     0
 76
     1
 98
        1
 10
0.0
 20
0.0
  0
ENDBLK
  5
37D
100
AcDbEntity
  8
ALPHA
100
AcDbBlockEnd
  0
BLOCK
  5
380
100
AcDbEntity
  8
ALPHA
 62
     7
100
AcDbBlockBegin
  2
AI9-BLK8
 70
     0
 10
0.0
 20
0.0
 30
0.0
  3
AI9-BLK8
  1

  0
HATCH
  5
37F
100
AcDbEntity
  8
ALPHA
 62
     7
100
AcDbHatch
 10
0.0
 20
0.0
 30
0.0
210
0.0
220
0.0
230
1.0
  2
SOLID
 70
     1
 71
     0
 91
        2
 92
       16
 93
        1
 72
     4
 94
        3
 73
     0
 74
     0
 95
       17
 96
       13
 40
0.0
 40
0.0
 40
0.0
 40
0.0
 40
1.0
 40
1.0
 40
1.0
 40
2.0
 40
2.0
 40
2.0
 40
3.0
 40
3.0
 40
3.0
 40
4.0
 40
4.0
 40
4.0
 40
4.0
 10
0.095343
 20
-0.160197
 10
0.095343
 20
-0.160197
 10
0.095343
 20
0.329523
 10
0.095343
 20
0.329523
 10
0.095343
 20
0.329523
 10
0.092415
 20
0.329523
 10
0.092415
 20
0.329523
 10
0.092415
 20
0.329523
 10
-0.240554
 20
-0.160197
 10
-0.240554
 20
-0.160197
 10
-0.240554
 20
-0.160197
 10
0.095343
 20
-0.160197
 10
0.095343
 20
-0.160197
 97
        0
 92
        1
 93
        1
 72
     4
 94
        3
 73
     0
 74
     0
 95
       38
 96
       34
 40
0.0
 40
0.0
 40
0.0
 40
0.0
 40
1.0
 40
1.0
 40
1.0
 40
2.0
 40
2.0
 40
2.0
 40
3.0
 40
3.0
 40
3.0
 40
4.0
 40
4.0
 40
4.0
 40
5.0
 40
5.0
 40
5.0
 40
6.0
 40
6.0
 40
6.0
 40
7.0
 40
7.0
 40
7.0
 40
8.0
 40
8.0
 40
8.0
 40
9.0
 40
9.0
 40
9.0
 40
10.0
 40
10.0
 40
10.0
 40
11.0
 40
11.0
 40
11.0
 40
11.0
 10
0.20817
 20
-0.160197
 10
0.20817
 20
-0.160197
 10
0.343562
 20
-0.160197
 10
0.343562
 20
-0.160197
 10
0.343562
 20
-0.160197
 10
0.343562
 20
-0.265961
 10
0.343562
 20
-0.265961
 10
0.343562
 20
-0.265961
 10
0.20817
 20
-0.265961
 10
0.20817
 20
-0.265961
 10
0.20817
 20
-0.265961
 10
0.20817
 20
-0.500228
 10
0.20817
 20
-0.500228
 10
0.20817
 20
-0.500228
 10
0.095343
 20
-0.500228
 10
0.095343
 20
-0.500228
 10
0.095343
 20
-0.500228
 10
0.095343
 20
-0.265961
 10
0.095343
 20
-0.265961
 10
0.095343
 20
-0.265961
 10
-0.343562
 20
-0.265961
 10
-0.343562
 20
-0.265961
 10
-0.343562
 20
-0.265961
 10
-0.343562
 20
-0.150206
 10
-0.343562
 20
-0.150206
 10
-0.343562
 20
-0.150206
 10
0.112224
 20
0.500228
 10
0.112224
 20
0.500228
 10
0.112224
 20
0.500228
 10
0.20817
 20
0.500228
 10
0.20817
 20
0.500228
 10
0.20817
 20
0.500228
 10
0.20817
 20
-0.160197
 10
0.20817
 20
-0.160197
 97
        0
 75
     0
 76
     1
 98
        1
 10
0.0
 20
0.0
  0
ENDBLK
  5
381
100
AcDbEntity
  8
ALPHA
100
AcDbBlockEnd
  0
BLOCK
  5
384
100
AcDbEntity
  8
ALPHA
 62
     7
100
AcDbBlockBegin
  2
AI9-BLK9
 70
     0
 10
0.0
 20
0.0
 30
0.0
  3
AI9-BLK9
  1

  0
HATCH
  5
383
100
AcDbEntity
  8
ALPHA
 62
     7
100
AcDbHatch
 10
0.0
 20
0.0
 30
0.0
210
0.0
220
0.0
230
1.0
  2
SOLID
 70
     1
 71
     0
 91
        1
 92
        1
 93
        1
 72
     4
 94
        3
 73
     0
 74
     0
 95
       26
 96
       22
 40
0.0
 40
0.0
 40
0.0
 40
0.0
 40
1.0
 40
1.0
 40
1.0
 40
2.0
 40
2.0
 40
2.0
 40
3.0
 40
3.0
 40
3.0
 40
4.0
 40
4.0
 40
4.0
 40
5.0
 40
5.0
 40
5.0
 40
6.0
 40
6.0
 40
6.0
 40
7.0
 40
7.0
 40
7.0
 40
7.0
 10
0.189825
 20
-0.500228
 10
0.189825
 20
-0.500228
 10
0.069935
 20
-0.500228
 10
0.069935
 20
-0.500228
 10
0.069935
 20
-0.500228
 10
0.069935
 20
0.216697
 10
0.069935
 20
0.216697
 10
0.069935
 20
0.216697
 10
-0.189825
 20
0.216697
 10
-0.189825
 20
0.216697
 10
-0.189825
 20
0.216697
 10
-0.189825
 20
0.312642
 10
-0.189825
 20
0.312642
 10
-0.052882
 20
0.312642
 10
0.071313
 20
0.349333
 10
0.098013
 20
0.500228
 10
0.098013
 20
0.500228
 10
0.189825
 20
0.500228
 10
0.189825
 20
0.500228
 10
0.189825
 20
0.500228
 10
0.189825
 20
-0.500228
 10
0.189825
 20
-0.500228
 97
        0
 75
     0
 76
     1
 98
        1
 10
0.0
 20
0.0
  0
ENDBLK
  5
385
100
AcDbEntity
  8
ALPHA
100
AcDbBlockEnd
  0
BLOCK
  5
843
100
AcDbEntity
  8
0
100
AcDbBlockBegin
  2
*D9
 70
     1
 10
0.0
 20
0.0
 30
0.0
  3
*D9
  1

  0
LINE
  5
844
100
AcDbEntity
  8
0
  6
BYBLOCK
 62
     0
100
AcDbLine
 10
17.700824
 20
115.961472
 30
0.0
 11
11.575413
 21
115.961472
 31
0.0
  0
LINE
  5
845
100
AcDbEntity
  8
0
  6
BYBLOCK
 62
     0
100
AcDbLine
 10
14.543884
 20
121.911472
 30
0.0
 11
11.575413
 21
121.911472
 31
0.0
  0
LINE
  5
846
100
AcDbEntity
  8
0
  6
BYBLOCK
 62
     0
100
AcDbLine
 10
11.755413
 20
112.961472
 30
0.0
 11
11.755413
 21
109.961472
 31
0.0
  0
LINE
  5
847
100
AcDbEntity
  8
0
  6
BYBLOCK
 62
     0
100
AcDbLine
 10
11.755413
 20
124.911472
 30
0.0
 11
11.755413
 21
127.911472
 31
0.0
  0
LINE
  5
848
100
AcDbEntity
  8
0
  6
BYBLOCK
 62
     0
100
AcDbLine
 10
11.755413
 20
115.961472
 30
0.0
 11
11.755413
 21
121.911472
 31
0.0
  0
SOLID
  5
849
100
AcDbEntity
  8
0
  6
BYBLOCK
 62
     0
100
AcDbTrace
 10
11.255413
 20
112.961472
 30
0.0
 11
12.255413
 21
112.961472
 31
0.0
 12
11.755413
 22
115.961472
 32
0.0
 13
11.755413
 23
115.961472
 33
0.0
  0
SOLID
  5
84A
100
AcDbEntity
  8
0
  6
BYBLOCK
 62
     0
100
AcDbTrace
 10
11.255413
 20
124.911472
 30
0.0
 11
12.255413
 21
124.911472
 31
0.0
 12
11.755413
 22
121.911472
 32
0.0
 13
11.755413
 23
121.911472
 33
0.0
  0
MTEXT
  5
84B
100
AcDbEntity
  8
0
  6
BYBLOCK
 62
     0
100
AcDbMText
 10
9.505413
 20
118.936472
 30
0.0
 40
2.5
 41
0.0
 71
     5
 72
     1
  1
\A1;6
 11
0.0
 21
1.0
 31
0.0
  0
POINT
  5
84C
100
AcDbEntity
  8
DEFPOINTS
  6
BYBLOCK
 62
     0
100
AcDbPoint
 10
17.763324
 20
115.961472
 30
0.0
  0
POINT
  5
84D
100
AcDbEntity
  8
DEFPOINTS
  6
BYBLOCK
 62
     0
100
AcDbPoint
 10
14.606384
 20
121.911472
 30
0.0
  0
POINT
  5
84E
100
AcDbEntity
  8
DEFPOINTS
  6
BYBLOCK
 62
     0
100
AcDbPoint
 10
11.755413
 20
121.911472
 30
0.0
  0
ENDBLK
  5
84F
100
AcDbEntity
  8
0
100
AcDbBlockEnd
  0
BLOCK
  5
836
100
AcDbEntity
  8
0
100
AcDbBlockBegin
  2
*D10
 70
     1
 10
0.0
 20
0.0
 30
0.0
  3
*D10
  1

  0
LINE
  5
837
100
AcDbEntity
  8
0
  6
BYBLOCK
 62
     0
100
AcDbLine
 10
17.700824
 20
127.861472
 30
0.0
 11
11.575413
 21
127.861472
 31
0.0
  0
LINE
  5
838
100
AcDbEntity
  8
0
  6
BYBLOCK
 62
     0
100
AcDbLine
 10
14.543884
 20
121.911472
 30
0.0
 11
11.575413
 21
121.911472
 31
0.0
  0
LINE
  5
839
100
AcDbEntity
  8
0
  6
BYBLOCK
 62
     0
100
AcDbLine
 10
11.755413
 20
130.861472
 30
0.0
 11
11.755413
 21
133.861472
 31
0.0
  0
LINE
  5
83A
100
AcDbEntity
  8
0
  6
BYBLOCK
 62
     0
100
AcDbLine
 10
11.755413
 20
118.911472
 30
0.0
 11
11.755413
 21
115.911472
 31
0.0
  0
LINE
  5
83B
100
AcDbEntity
  8
0
  6
BYBLOCK
 62
     0
100
AcDbLine
 10
11.755413
 20
127.861472
 30
0.0
 11
11.755413
 21
121.911472
 31
0.0
  0
SOLID
  5
83C
100
AcDbEntity
  8
0
  6
BYBLOCK
 62
     0
100
AcDbTrace
 10
11.255413
 20
130.861472
 30
0.0
 11
12.255413
 21
130.861472
 31
0.0
 12
11.755413
 22
127.861472
 32
0.0
 13
11.755413
 23
127.861472
 33
0.0
  0
SOLID
  5
83D
100
AcDbEntity
  8
0
  6
BYBLOCK
 62
     0
100
AcDbTrace
 10
11.255413
 20
118.911472
 30
0.0
 11
12.255413
 21
118.911472
 31
0.0
 12
11.755413
 22
121.911472
 32
0.0
 13
11.755413
 23
121.911472
 33
0.0
  0
MTEXT
  5
83E
100
AcDbEntity
  8
0
  6
BYBLOCK
 62
     0
100
AcDbMText
 10
9.505413
 20
124.886472
 30
0.0
 40
2.5
 41
0.0
 71
     5
 72
     1
  1
\A1;6
 11
0.0
 21
1.0
 31
0.0
  0
POINT
  5
83F
100
AcDbEntity
  8
DEFPOINTS
  6
BYBLOCK
 62
     0
100
AcDbPoint
 10
17.763324
 20
127.861472
 30
0.0
  0
POINT
  5
840
100
AcDbEntity
  8
DEFPOINTS
  6
BYBLOCK
 62
     0
100
AcDbPoint
 10
14.606384
 20
121.911472
 30
0.0
  0
POINT
  5
841
100
AcDbEntity
  8
DEFPOINTS
  6
BYBLOCK
 62
     0
100
AcDbPoint
 10
11.755413
 20
121.911472
 30
0.0
  0
ENDBLK
  5
842
100
AcDbEntity
  8
0
100
AcDbBlockEnd
  0
BLOCK
  5
850
100
AcDbEntity
  8
0
100
AcDbBlockBegin
  2
*D11
 70
     1
 10
0.0
 20
0.0
 30
0.0
  3
*D11
  1

  0
LINE
  5
851
100
AcDbEntity
  8
0
  6
BYBLOCK
 62
     0
100
AcDbLine
 10
57.355413
 20
113.81261
 30
0.0
 11
57.355413
 21
106.129388
 31
0.0
  0
LINE
  5
852
100
AcDbEntity
  8
0
  6
BYBLOCK
 62
     0
100
AcDbLine
 10
17.755413
 20
115.839104
 30
0.0
 11
17.755413
 21
106.129388
 31
0.0
  0
LINE
  5
853
100
AcDbEntity
  8
0
  6
BYBLOCK
 62
     0
100
AcDbLine
 10
54.355413
 20
106.309388
 30
0.0
 11
20.755413
 21
106.309388
 31
0.0
  0
SOLID
  5
854
100
AcDbEntity
  8
0
  6
BYBLOCK
 62
     0
100
AcDbTrace
 10
54.355413
 20
106.809388
 30
0.0
 11
54.355413
 21
105.809388
 31
0.0
 12
57.355413
 22
106.309388
 32
0.0
 13
57.355413
 23
106.309388
 33
0.0
  0
SOLID
  5
855
100
AcDbEntity
  8
0
  6
BYBLOCK
 62
     0
100
AcDbTrace
 10
20.755413
 20
106.809388
 30
0.0
 11
20.755413
 21
105.809388
 31
0.0
 12
17.755413
 22
106.309388
 32
0.0
 13
17.755413
 23
106.309388
 33
0.0
  0
MTEXT
  5
856
100
AcDbEntity
  8
0
  6
BYBLOCK
 62
     0
100
AcDbMText
 10
37.555413
 20
108.559388
 30
0.0
 40
2.5
 41
0.0
 71
     5
 72
     1
  1
\A1;39.6
  0
POINT
  5
857
100
AcDbEntity
  8
DEFPOINTS
  6
BYBLOCK
 62
     0
100
AcDbPoint
 10
57.355413
 20
113.87511
 30
0.0
  0
POINT
  5
858
100
AcDbEntity
  8
DEFPOINTS
  6
BYBLOCK
 62
     0
100
AcDbPoint
 10
17.755413
 20
115.901604
 30
0.0
  0
POINT
  5
859
100
AcDbEntity
  8
DEFPOINTS
  6
BYBLOCK
 62
     0
100
AcDbPoint
 10
17.755413
 20
106.309388
 30
0.0
  0
ENDBLK
  5
85A
100
AcDbEntity
  8
0
100
AcDbBlockEnd
  0
ENDSEC
  0
SECTION
  2
ENTITIES
  0
INSERT
  5
CC
100
AcDbEntity
  8
0
100
AcDbBlockReference
  2
SCH_IS
 10
-68.718396
 20
-140.042541
 30
0.0
  0
INSERT
  5
EC
100
AcDbEntity
  8
COTATION1
100
AcDbBlockReference
  2
SCH_IS
 10
0.0
 20
0.0
 30
0.0
  0
LINE
  5
6BE
100
AcDbEntity
  8
ALPHA
100
AcDbLine
 10
30.755413
 20
114.511472
 30
0.0
 11
38.954891
 21
114.511472
 31
0.0
  0
LINE
  5
6BF
100
AcDbEntity
  8
ALPHA
100
AcDbLine
 10
38.954891
 20
129.311472
 30
0.0
 11
30.755413
 21
129.311472
 31
0.0
  0
LINE
  5
6C0
100
AcDbEntity
  8
AXE
  6
CENTERLINE
100
AcDbLine
 10
14.606384
 20
121.911472
 30
0.0
 11
60.355413
 21
121.911472
 31
0.0
  0
DIMENSION
  5
6C1
100
AcDbEntity
  8
COTATION1
100
AcDbDimension
  2
*D9
 10
11.755413
 20
121.911472
 30
0.0
 11
9.505413
 21
118.936472
 31
0.0
 70
    32
  1
6
  3
SC_STAND
100
AcDbAlignedDimension
 13
17.763324
 23
115.961472
 33
0.0
 14
14.606384
 24
121.911472
 34
0.0
 50
90.0
100
AcDbRotatedDimension
  0
DIMENSION
  5
6C2
100
AcDbEntity
  8
COTATION1
100
AcDbDimension
  2
*D10
 10
11.755413
 20
121.911472
 30
0.0
 11
9.505413
 21
124.886472
 31
0.0
 70
    32
  1
6
  3
SC_STAND
100
AcDbAlignedDimension
 13
17.763324
 23
127.861472
 33
0.0
 14
14.606384
 24
121.911472
 34
0.0
 50
270.0
100
AcDbRotatedDimension
  0
ARC
  5
6C3
100
AcDbEntity
  8
ALPHA
 62
   133
100
AcDbCircle
 10
28.323575
 20
121.950588
 30
0.0
 40
0.276145
100
AcDbArc
 50
315.077278
 51
1.919853
  0
ARC
  5
6C4
100
AcDbEntity
  8
ALPHA
 62
   133
100
AcDbCircle
 10
27.67215
 20
121.951354
 30
0.0
 40
0.279199
100
AcDbArc
 50
178.258585
 51
224.521448
  0
ARC
  5
6C5
100
AcDbEntity
  8
ALPHA
 62
   133
100
AcDbCircle
 10
28.316879
 20
121.966045
 30
0.0
 40
0.165204
100
AcDbArc
 50
311.46053
 51
357.847118
  0
ARC
  5
6C6
100
AcDbEntity
  8
ALPHA
 62
   133
100
AcDbCircle
 10
27.680583
 20
121.968543
 30
0.0
 40
0.170584
100
AcDbArc
 50
182.924906
 51
227.767446
  0
LINE
  5
6C7
100
AcDbEntity
  8
ALPHA
100
AcDbLine
 10
27.255413
 20
120.211472
 30
0.0
 11
27.255413
 21
123.611472
 31
0.0
  0
LINE
  5
6C8
100
AcDbEntity
  8
ALPHA
100
AcDbLine
 10
28.755413
 20
120.211472
 30
0.0
 11
28.755413
 21
123.611472
 31
0.0
  0
LINE
  5
6C9
100
AcDbEntity
  8
ALPHA
100
AcDbLine
 10
25.755413
 20
114.561472
 30
0.0
 11
25.755413
 21
129.261472
 31
0.0
  0
LINE
  5
6CA
100
AcDbEntity
  8
ALPHA
100
AcDbLine
 10
17.759285
 20
116.061472
 30
0.0
 11
25.755413
 21
116.061472
 31
0.0
  0
LINE
  5
6CB
100
AcDbEntity
  8
ALPHA
100
AcDbLine
 10
20.755413
 20
115.561472
 30
0.0
 11
25.755413
 21
115.561472
 31
0.0
  0
LINE
  5
6CC
100
AcDbEntity
  8
ALPHA
100
AcDbLine
 10
20.755413
 20
115.561472
 30
0.0
 11
18.255413
 21
115.761472
 31
0.0
  0
ARC
  5
6CD
100
AcDbEntity
  8
ALPHA
100
AcDbCircle
 10
18.132867
 20
115.851963
 30
0.0
 40
0.209752
100
AcDbArc
 50
54.250415
 51
87.240578
  0
POLYLINE
  5
6CE
100
AcDbEntity
  8
ALPHA
100
AcDb2dPolyline
 66
     1
 10
0.0
 20
0.0
 30
0.0
  0
VERTEX
  5
6CF
100
AcDbEntity
  8
ALPHA
100
AcDbVertex
100
AcDb2dVertex
 10
17.755507
 20
115.941736
 30
0.0
  0
VERTEX
  5
6D0
100
AcDbEntity
  8
ALPHA
100
AcDbVertex
100
AcDb2dVertex
 10
17.756527
 20
115.959173
 30
0.0
  0
VERTEX
  5
6D1
100
AcDbEntity
  8
ALPHA
100
AcDbVertex
100
AcDb2dVertex
 10
17.757801
 20
115.986438
 30
0.0
  0
VERTEX
  5
6D2
100
AcDbEntity
  8
ALPHA
100
AcDbVertex
100
AcDb2dVertex
 10
17.758878
 20
116.022207
 30
0.0
  0
VERTEX
  5
6D3
100
AcDbEntity
  8
ALPHA
100
AcDbVertex
100
AcDb2dVertex
 10
17.759285
 20
116.061472
 30
0.0
  0
SEQEND
  5
6D4
100
AcDbEntity
  8
ALPHA
  0
LINE
  5
6D5
100
AcDbEntity
  8
ALPHA
100
AcDbLine
 10
17.755413
 20
115.861472
 30
0.0
 11
18.255413
 21
115.861472
 31
0.0
  0
POLYLINE
  5
6D6
100
AcDbEntity
  8
ALPHA
100
AcDb2dPolyline
 66
     1
 10
0.0
 20
0.0
 30
0.0
  0
VERTEX
  5
6D7
100
AcDbEntity
  8
ALPHA
100
AcDbVertex
100
AcDb2dVertex
 10
18.255413
 20
115.877831
 30
0.0
  0
VERTEX
  5
6D8
100
AcDbEntity
  8
ALPHA
100
AcDbVertex
100
AcDb2dVertex
 10
18.239046
 20
115.906016
 30
0.0
  0
VERTEX
  5
6D9
100
AcDbEntity
  8
ALPHA
100
AcDbVertex
100
AcDb2dVertex
 10
18.202996
 20
115.941409
 30
0.0
  0
VERTEX
  5
6DA
100
AcDbEntity
  8
ALPHA
100
AcDbVertex
100
AcDb2dVertex
 10
18.162347
 20
115.959365
 30
0.0
  0
VERTEX
  5
6DB
100
AcDbEntity
  8
ALPHA
100
AcDbVertex
100
AcDb2dVertex
 10
18.142965
 20
115.961472
 30
0.0
  0
SEQEND
  5
6DC
100
AcDbEntity
  8
ALPHA
  0
LINE
  5
6DD
100
AcDbEntity
  8
ALPHA
100
AcDbLine
 10
18.142965
 20
115.961472
 30
0.0
 11
17.763324
 21
115.961472
 31
0.0
  0
LINE
  5
6DE
100
AcDbEntity
  8
ALPHA
100
AcDbLine
 10
17.755413
 20
115.861472
 30
0.0
 11
17.755413
 21
115.941736
 31
0.0
  0
POLYLINE
  5
6DF
100
AcDbEntity
  8
ALPHA
100
AcDb2dPolyline
 66
     1
 10
0.0
 20
0.0
 30
0.0
  0
VERTEX
  5
6E0
100
AcDbEntity
  8
ALPHA
100
AcDbVertex
100
AcDb2dVertex
 10
17.763324
 20
115.961472
 30
0.0
  0
VERTEX
  5
6E1
100
AcDbEntity
  8
ALPHA
100
AcDbVertex
100
AcDb2dVertex
 10
17.760691
 20
115.920145
 30
0.0
  0
VERTEX
  5
6E2
100
AcDbEntity
  8
ALPHA
100
AcDbVertex
100
AcDb2dVertex
 10
17.757394
 20
115.881255
 30
0.0
  0
VERTEX
  5
6E3
100
AcDbEntity
  8
ALPHA
100
AcDbVertex
100
AcDb2dVertex
 10
17.755673
 20
115.863967
 30
0.0
  0
SEQEND
  5
6E4
100
AcDbEntity
  8
ALPHA
  0
LINE
  5
6E5
100
AcDbEntity
  8
ALPHA
100
AcDbLine
 10
18.255413
 20
115.761472
 30
0.0
 11
18.255413
 21
116.022193
 31
0.0
  0
LINE
  5
6E6
100
AcDbEntity
  8
ALPHA
100
AcDbLine
 10
25.555413
 20
116.811472
 30
0.0
 11
25.555413
 21
119.211472
 31
0.0
  0
LINE
  5
6E7
100
AcDbEntity
  8
ALPHA
100
AcDbLine
 10
30.755413
 20
114.911472
 30
0.0
 11
25.755413
 21
114.94656
 31
0.0
  0
LINE
  5
6E8
100
AcDbEntity
  8
ALPHA
100
AcDbLine
 10
25.755413
 20
114.561472
 30
0.0
 11
30.755413
 21
114.561472
 31
0.0
  0
LINE
  5
6E9
100
AcDbEntity
  8
ALPHA
100
AcDbLine
 10
25.555413
 20
116.811472
 30
0.0
 11
25.755413
 21
116.811472
 31
0.0
  0
LINE
  5
6EA
100
AcDbEntity
  8
ALPHA
100
AcDbLine
 10
30.755413
 20
114.511472
 30
0.0
 11
30.755413
 21
114.911472
 31
0.0
  0
POLYLINE
  5
6EB
100
AcDbEntity
  8
ALPHA
 62
   133
100
AcDb2dPolyline
 66
     1
 10
0.0
 20
0.0
 30
0.0
  0
VERTEX
  5
6EC
100
AcDbEntity
  8
ALPHA
 62
   133
100
AcDbVertex
100
AcDb2dVertex
 10
27.999189
 20
121.761776
 30
0.0
  0
VERTEX
  5
6ED
100
AcDbEntity
  8
ALPHA
 62
   133
100
AcDbVertex
100
AcDb2dVertex
 10
28.246183
 20
121.77631
 30
0.0
  0
VERTEX
  5
6EE
100
AcDbEntity
  8
ALPHA
 62
   133
100
AcDbVertex
100
AcDb2dVertex
 10
28.341149
 20
121.796993
 30
0.0
  0
VERTEX
  5
6EF
100
AcDbEntity
  8
ALPHA
 62
   133
100
AcDbVertex
100
AcDb2dVertex
 10
28.426261
 20
121.842239
 30
0.0
  0
SEQEND
  5
6F0
100
AcDbEntity
  8
ALPHA
 62
   133
  0
POLYLINE
  5
6F1
100
AcDbEntity
  8
ALPHA
 62
   133
100
AcDb2dPolyline
 66
     1
 10
0.0
 20
0.0
 30
0.0
  0
VERTEX
  5
6F2
100
AcDbEntity
  8
ALPHA
 62
   133
100
AcDbVertex
100
AcDb2dVertex
 10
28.519103
 20
121.755587
 30
0.0
  0
VERTEX
  5
6F3
100
AcDbEntity
  8
ALPHA
 62
   133
100
AcDbVertex
100
AcDb2dVertex
 10
28.389045
 20
121.675213
 30
0.0
  0
VERTEX
  5
6F4
100
AcDbEntity
  8
ALPHA
 62
   133
100
AcDbVertex
100
AcDb2dVertex
 10
28.240269
 20
121.636612
 30
0.0
  0
VERTEX
  5
6F5
100
AcDbEntity
  8
ALPHA
 62
   133
100
AcDbVertex
100
AcDb2dVertex
 10
27.999189
 20
121.619419
 30
0.0
  0
SEQEND
  5
6F6
100
AcDbEntity
  8
ALPHA
 62
   133
  0
LINE
  5
6F7
100
AcDbEntity
  8
ALPHA
 62
   133
100
AcDbLine
 10
28.482424
 20
121.334704
 30
0.0
 11
28.023946
 21
121.334704
 31
0.0
  0
LINE
  5
6F8
100
AcDbEntity
  8
ALPHA
 62
   133
100
AcDbLine
 10
27.393081
 20
121.481188
 30
0.0
 11
28.599566
 21
121.481188
 31
0.0
  0
ARC
  5
6F9
100
AcDbEntity
  8
ALPHA
 62
   133
100
AcDbCircle
 10
28.270975
 20
121.187076
 30
0.0
 40
0.360358
100
AcDbArc
 50
267.133838
 51
312.17381
  0
ARC
  5
6FA
100
AcDbEntity
  8
ALPHA
 62
   133
100
AcDbCircle
 10
28.270469
 20
121.189323
 30
0.0
 40
0.226664
100
AcDbArc
 50
265.56863
 51
311.301267
  0
LINE
  5
6FB
100
AcDbEntity
  8
ALPHA
100
AcDbLine
 10
27.255413
 20
120.211472
 30
0.0
 11
28.755413
 21
120.211472
 31
0.0
  0
LINE
  5
6FC
100
AcDbEntity
  8
ALPHA
100
AcDbLine
 10
28.755413
 20
119.911472
 30
0.0
 11
27.255413
 21
119.911472
 31
0.0
  0
LINE
  5
6FD
100
AcDbEntity
  8
ALPHA
100
AcDbLine
 10
27.255413
 20
119.811472
 30
0.0
 11
28.655413
 21
119.811472
 31
0.0
  0
LINE
  5
6FE
100
AcDbEntity
  8
ALPHA
100
AcDbLine
 10
27.955413
 20
119.711472
 30
0.0
 11
28.655413
 21
119.811472
 31
0.0
  0
LINE
  5
6FF
100
AcDbEntity
  8
ALPHA
100
AcDbLine
 10
28.655413
 20
118.511472
 30
0.0
 11
27.955413
 21
118.611472
 31
0.0
  0
LINE
  5
700
100
AcDbEntity
  8
ALPHA
100
AcDbLine
 10
27.255413
 20
118.511472
 30
0.0
 11
28.655413
 21
118.511472
 31
0.0
  0
LINE
  5
701
100
AcDbEntity
  8
ALPHA
100
AcDbLine
 10
28.755413
 20
118.411472
 30
0.0
 11
27.255413
 21
118.411472
 31
0.0
  0
LINE
  5
702
100
AcDbEntity
  8
ALPHA
100
AcDbLine
 10
27.255413
 20
118.411472
 30
0.0
 11
27.255413
 21
119.911472
 31
0.0
  0
LINE
  5
703
100
AcDbEntity
  8
ALPHA
100
AcDbLine
 10
25.755413
 20
119.211472
 30
0.0
 11
25.555413
 21
119.211472
 31
0.0
  0
LINE
  5
704
100
AcDbEntity
  8
ALPHA
100
AcDbLine
 10
27.955413
 20
118.611472
 30
0.0
 11
27.955413
 21
119.711472
 31
0.0
  0
LINE
  5
705
100
AcDbEntity
  8
ALPHA
100
AcDbLine
 10
27.255413
 20
118.611472
 30
0.0
 11
27.955413
 21
118.611472
 31
0.0
  0
LINE
  5
706
100
AcDbEntity
  8
ALPHA
100
AcDbLine
 10
27.255413
 20
119.711472
 30
0.0
 11
27.955413
 21
119.711472
 31
0.0
  0
ARC
  5
707
100
AcDbEntity
  8
ALPHA
 62
   133
100
AcDbCircle
 10
28.230486
 20
121.174612
 30
0.0
 40
0.348169
100
AcDbArc
 50
226.991962
 51
273.70039
  0
LINE
  5
708
100
AcDbEntity
  8
ALPHA
 62
   133
100
AcDbLine
 10
27.393081
 20
121.334704
 30
0.0
 11
27.393081
 21
121.481188
 31
0.0
  0
LINE
  5
709
100
AcDbEntity
  8
ALPHA
 62
   133
100
AcDbLine
 10
27.906805
 20
121.334704
 30
0.0
 11
27.393081
 21
121.334704
 31
0.0
  0
LINE
  5
70A
100
AcDbEntity
  8
ALPHA
 62
   133
100
AcDbLine
 10
27.906805
 20
121.15521
 30
0.0
 11
27.906805
 21
121.334704
 31
0.0
  0
LINE
  5
70B
100
AcDbEntity
  8
ALPHA
 62
   133
100
AcDbLine
 10
28.023946
 20
121.192347
 30
0.0
 11
28.023946
 21
121.334704
 31
0.0
  0
ARC
  5
70C
100
AcDbEntity
  8
ALPHA
 62
   133
100
AcDbCircle
 10
28.231305
 20
121.140736
 30
0.0
 40
0.324822
100
AcDbArc
 50
177.446145
 51
222.80677
  0
ARC
  5
70D
100
AcDbEntity
  8
ALPHA
 62
   133
100
AcDbCircle
 10
28.257078
 20
121.177903
 30
0.0
 40
0.233578
100
AcDbArc
 50
176.454753
 51
222.852896
  0
ARC
  5
70E
100
AcDbEntity
  8
ALPHA
 62
   133
100
AcDbCircle
 10
28.238685
 20
121.19905
 30
0.0
 40
0.236145
100
AcDbArc
 50
229.665487
 51
273.464616
  0
POLYLINE
  5
70F
100
AcDbEntity
  8
ALPHA
 62
   133
100
AcDb2dPolyline
 66
     1
 10
0.0
 20
0.0
 30
0.0
  0
VERTEX
  5
710
100
AcDbEntity
  8
ALPHA
 62
   133
100
AcDbVertex
100
AcDb2dVertex
 10
27.565927
 20
121.842239
 30
0.0
  0
VERTEX
  5
711
100
AcDbEntity
  8
ALPHA
 62
   133
100
AcDbVertex
100
AcDb2dVertex
 10
27.678336
 20
121.7896
 30
0.0
  0
VERTEX
  5
712
100
AcDbEntity
  8
ALPHA
 62
   133
100
AcDbVertex
100
AcDb2dVertex
 10
27.80219
 20
121.769856
 30
0.0
  0
VERTEX
  5
713
100
AcDbEntity
  8
ALPHA
 62
   133
100
AcDbVertex
100
AcDb2dVertex
 10
27.999189
 20
121.761776
 30
0.0
  0
SEQEND
  5
714
100
AcDbEntity
  8
ALPHA
 62
   133
  0
POLYLINE
  5
715
100
AcDbEntity
  8
ALPHA
 62
   133
100
AcDb2dPolyline
 66
     1
 10
0.0
 20
0.0
 30
0.0
  0
VERTEX
  5
716
100
AcDbEntity
  8
ALPHA
 62
   133
100
AcDbVertex
100
AcDb2dVertex
 10
27.999189
 20
121.619419
 30
0.0
  0
VERTEX
  5
717
100
AcDbEntity
  8
ALPHA
 62
   133
100
AcDbVertex
100
AcDb2dVertex
 10
27.689964
 20
121.649179
 30
0.0
  0
VERTEX
  5
718
100
AcDbEntity
  8
ALPHA
 62
   133
100
AcDbVertex
100
AcDb2dVertex
 10
27.574106
 20
121.68774
 30
0.0
  0
VERTEX
  5
719
100
AcDbEntity
  8
ALPHA
 62
   133
100
AcDbVertex
100
AcDb2dVertex
 10
27.473085
 20
121.755587
 30
0.0
  0
SEQEND
  5
71A
100
AcDbEntity
  8
ALPHA
 62
   133
  0
LINE
  5
71B
100
AcDbEntity
  8
ALPHA
100
AcDbLine
 10
28.655413
 20
118.511472
 30
0.0
 11
28.655413
 21
119.811472
 31
0.0
  0
LINE
  5
71C
100
AcDbEntity
  8
ALPHA
100
AcDbLine
 10
28.755413
 20
118.411472
 30
0.0
 11
28.755413
 21
119.911472
 31
0.0
  0
LINE
  5
71D
100
AcDbEntity
  8
ALPHA
 62
   133
100
AcDbLine
 10
28.599566
 20
121.15521
 30
0.0
 11
28.599566
 21
121.481188
 31
0.0
  0
LINE
  5
71E
100
AcDbEntity
  8
ALPHA
 62
   133
100
AcDbLine
 10
28.482424
 20
121.192347
 30
0.0
 11
28.482424
 21
121.334704
 31
0.0
  0
ARC
  5
71F
100
AcDbEntity
  8
ALPHA
 62
   133
100
AcDbCircle
 10
28.285748
 20
121.137265
 30
0.0
 40
0.31433
100
AcDbArc
 50
316.277546
 51
3.272735
  0
ARC
  5
720
100
AcDbEntity
  8
ALPHA
 62
   133
100
AcDbCircle
 10
28.244233
 20
121.180176
 30
0.0
 40
0.238502
100
AcDbArc
 50
317.498599
 51
2.925119
  0
LINE
  5
721
100
AcDbEntity
  8
ALPHA
100
AcDbLine
 10
25.755413
 20
128.261472
 30
0.0
 11
20.755413
 21
128.261472
 31
0.0
  0
LINE
  5
722
100
AcDbEntity
  8
ALPHA
100
AcDbLine
 10
25.755413
 20
127.761472
 30
0.0
 11
17.759285
 21
127.761472
 31
0.0
  0
LINE
  5
723
100
AcDbEntity
  8
ALPHA
100
AcDbLine
 10
18.255413
 20
128.061472
 30
0.0
 11
20.755413
 21
128.261472
 31
0.0
  0
POLYLINE
  5
724
100
AcDbEntity
  8
ALPHA
100
AcDb2dPolyline
 66
     1
 10
0.0
 20
0.0
 30
0.0
  0
VERTEX
  5
725
100
AcDbEntity
  8
ALPHA
100
AcDbVertex
100
AcDb2dVertex
 10
17.759285
 20
127.761472
 30
0.0
  0
VERTEX
  5
726
100
AcDbEntity
  8
ALPHA
100
AcDbVertex
100
AcDb2dVertex
 10
17.759234
 20
127.77539
 30
0.0
  0
VERTEX
  5
727
100
AcDbEntity
  8
ALPHA
100
AcDbVertex
100
AcDb2dVertex
 10
17.758546
 20
127.814392
 30
0.0
  0
VERTEX
  5
728
100
AcDbEntity
  8
ALPHA
100
AcDbVertex
100
AcDb2dVertex
 10
17.757336
 20
127.847464
 30
0.0
  0
VERTEX
  5
729
100
AcDbEntity
  8
ALPHA
100
AcDbVertex
100
AcDb2dVertex
 10
17.756129
 20
127.870905
 30
0.0
  0
VERTEX
  5
72A
100
AcDbEntity
  8
ALPHA
100
AcDbVertex
100
AcDb2dVertex
 10
17.755507
 20
127.881208
 30
0.0
  0
SEQEND
  5
72B
100
AcDbEntity
  8
ALPHA
  0
POLYLINE
  5
72C
100
AcDbEntity
  8
ALPHA
100
AcDb2dPolyline
 66
     1
 10
0.0
 20
0.0
 30
0.0
  0
VERTEX
  5
72D
100
AcDbEntity
  8
ALPHA
100
AcDbVertex
100
AcDb2dVertex
 10
18.255413
 20
127.800751
 30
0.0
  0
VERTEX
  5
72E
100
AcDbEntity
  8
ALPHA
100
AcDbVertex
100
AcDb2dVertex
 10
18.248268
 20
127.795952
 30
0.0
  0
VERTEX
  5
72F
100
AcDbEntity
  8
ALPHA
100
AcDbVertex
100
AcDb2dVertex
 10
18.174178
 20
127.764682
 30
0.0
  0
VERTEX
  5
730
100
AcDbEntity
  8
ALPHA
100
AcDbVertex
100
AcDb2dVertex
 10
18.142965
 20
127.761472
 30
0.0
  0
SEQEND
  5
731
100
AcDbEntity
  8
ALPHA
  0
LINE
  5
732
100
AcDbEntity
  8
ALPHA
100
AcDbLine
 10
18.255413
 20
127.961472
 30
0.0
 11
17.755413
 21
127.961472
 31
0.0
  0
POLYLINE
  5
733
100
AcDbEntity
  8
ALPHA
100
AcDb2dPolyline
 66
     1
 10
0.0
 20
0.0
 30
0.0
  0
VERTEX
  5
734
100
AcDbEntity
  8
ALPHA
100
AcDbVertex
100
AcDb2dVertex
 10
18.142965
 20
127.861472
 30
0.0
  0
VERTEX
  5
735
100
AcDbEntity
  8
ALPHA
100
AcDbVertex
100
AcDb2dVertex
 10
18.189538
 20
127.87348
 30
0.0
  0
VERTEX
  5
736
100
AcDbEntity
  8
ALPHA
100
AcDbVertex
100
AcDb2dVertex
 10
18.235335
 20
127.91202
 30
0.0
  0
VERTEX
  5
737
100
AcDbEntity
  8
ALPHA
100
AcDbVertex
100
AcDb2dVertex
 10
18.255413
 20
127.945113
 30
0.0
  0
SEQEND
  5
738
100
AcDbEntity
  8
ALPHA
  0
LINE
  5
739
100
AcDbEntity
  8
ALPHA
100
AcDbLine
 10
17.755413
 20
127.881208
 30
0.0
 11
17.755413
 21
127.961472
 31
0.0
  0
LINE
  5
73A
100
AcDbEntity
  8
ALPHA
100
AcDbLine
 10
18.142965
 20
127.861472
 30
0.0
 11
17.763324
 21
127.861472
 31
0.0
  0
POLYLINE
  5
73B
100
AcDbEntity
  8
ALPHA
100
AcDb2dPolyline
 66
     1
 10
0.0
 20
0.0
 30
0.0
  0
VERTEX
  5
73C
100
AcDbEntity
  8
ALPHA
100
AcDbVertex
100
AcDb2dVertex
 10
17.755673
 20
127.958977
 30
0.0
  0
VERTEX
  5
73D
100
AcDbEntity
  8
ALPHA
100
AcDbVertex
100
AcDb2dVertex
 10
17.758396
 20
127.93081
 30
0.0
  0
VERTEX
  5
73E
100
AcDbEntity
  8
ALPHA
100
AcDbVertex
100
AcDb2dVertex
 10
17.761857
 20
127.886188
 30
0.0
  0
VERTEX
  5
73F
100
AcDbEntity
  8
ALPHA
100
AcDbVertex
100
AcDb2dVertex
 10
17.763324
 20
127.861472
 30
0.0
  0
SEQEND
  5
740
100
AcDbEntity
  8
ALPHA
  0
LINE
  5
741
100
AcDbEntity
  8
ALPHA
100
AcDbLine
 10
18.255413
 20
127.800751
 30
0.0
 11
18.255413
 21
128.061472
 31
0.0
  0
LINE
  5
742
100
AcDbEntity
  8
ALPHA
100
AcDbLine
 10
25.555413
 20
124.611472
 30
0.0
 11
25.555413
 21
127.011472
 31
0.0
  0
POLYLINE
  5
743
100
AcDbEntity
  8
ALPHA
 62
   133
100
AcDb2dPolyline
 66
     1
 10
0.0
 20
0.0
 30
0.0
  0
VERTEX
  5
744
100
AcDbEntity
  8
ALPHA
 62
   133
100
AcDbVertex
100
AcDb2dVertex
 10
27.999189
 20
122.306448
 30
0.0
  0
VERTEX
  5
745
100
AcDbEntity
  8
ALPHA
 62
   133
100
AcDbVertex
100
AcDb2dVertex
 10
28.30496
 20
122.276328
 30
0.0
  0
VERTEX
  5
746
100
AcDbEntity
  8
ALPHA
 62
   133
100
AcDbVertex
100
AcDb2dVertex
 10
28.419407
 20
122.237729
 30
0.0
  0
VERTEX
  5
747
100
AcDbEntity
  8
ALPHA
 62
   133
100
AcDbVertex
100
AcDb2dVertex
 10
28.519103
 20
122.17028
 30
0.0
  0
SEQEND
  5
748
100
AcDbEntity
  8
ALPHA
 62
   133
  0
POLYLINE
  5
749
100
AcDbEntity
  8
ALPHA
 62
   133
100
AcDb2dPolyline
 66
     1
 10
0.0
 20
0.0
 30
0.0
  0
VERTEX
  5
74A
100
AcDbEntity
  8
ALPHA
 62
   133
100
AcDbVertex
100
AcDb2dVertex
 10
28.426261
 20
122.083628
 30
0.0
  0
VERTEX
  5
74B
100
AcDbEntity
  8
ALPHA
 62
   133
100
AcDbVertex
100
AcDb2dVertex
 10
28.315621
 20
122.136095
 30
0.0
  0
VERTEX
  5
74C
100
AcDbEntity
  8
ALPHA
 62
   133
100
AcDbVertex
100
AcDb2dVertex
 10
28.19351
 20
122.155956
 30
0.0
  0
VERTEX
  5
74D
100
AcDbEntity
  8
ALPHA
 62
   133
100
AcDbVertex
100
AcDb2dVertex
 10
27.999189
 20
122.164091
 30
0.0
  0
SEQEND
  5
74E
100
AcDbEntity
  8
ALPHA
 62
   133
  0
LINE
  5
74F
100
AcDbEntity
  8
ALPHA
 62
   133
100
AcDbLine
 10
28.482424
 20
122.690194
 30
0.0
 11
27.393081
 21
122.690194
 31
0.0
  0
LINE
  5
750
100
AcDbEntity
  8
ALPHA
 62
   133
100
AcDbLine
 10
27.393081
 20
122.836678
 30
0.0
 11
28.482424
 21
122.836678
 31
0.0
  0
LINE
  5
751
100
AcDbEntity
  8
ALPHA
100
AcDbLine
 10
28.755413
 20
123.611472
 30
0.0
 11
27.255413
 21
123.611472
 31
0.0
  0
LINE
  5
752
100
AcDbEntity
  8
ALPHA
100
AcDbLine
 10
27.255413
 20
125.411472
 30
0.0
 11
28.755413
 21
125.411472
 31
0.0
  0
LINE
  5
753
100
AcDbEntity
  8
ALPHA
100
AcDbLine
 10
27.255413
 20
125.311472
 30
0.0
 11
28.655413
 21
125.311472
 31
0.0
  0
LINE
  5
754
100
AcDbEntity
  8
ALPHA
100
AcDbLine
 10
27.955413
 20
125.211472
 30
0.0
 11
28.655413
 21
125.311472
 31
0.0
  0
LINE
  5
755
100
AcDbEntity
  8
ALPHA
100
AcDbLine
 10
27.255413
 20
124.011472
 30
0.0
 11
28.655413
 21
124.011472
 31
0.0
  0
LINE
  5
756
100
AcDbEntity
  8
ALPHA
100
AcDbLine
 10
28.655413
 20
124.011472
 30
0.0
 11
27.955413
 21
124.111472
 31
0.0
  0
LINE
  5
757
100
AcDbEntity
  8
ALPHA
100
AcDbLine
 10
27.255413
 20
123.911472
 30
0.0
 11
28.755413
 21
123.911472
 31
0.0
  0
LINE
  5
758
100
AcDbEntity
  8
ALPHA
100
AcDbLine
 10
27.255413
 20
123.911472
 30
0.0
 11
27.255413
 21
125.411472
 31
0.0
  0
POLYLINE
  5
759
100
AcDbEntity
  8
ALPHA
 62
   133
100
AcDb2dPolyline
 66
     1
 10
0.0
 20
0.0
 30
0.0
  0
VERTEX
  5
75A
100
AcDbEntity
  8
ALPHA
 62
   133
100
AcDbVertex
100
AcDb2dVertex
 10
27.473085
 20
122.17028
 30
0.0
  0
VERTEX
  5
75B
100
AcDbEntity
  8
ALPHA
 62
   133
100
AcDbVertex
100
AcDb2dVertex
 10
27.604867
 20
122.251013
 30
0.0
  0
VERTEX
  5
75C
100
AcDbEntity
  8
ALPHA
 62
   133
100
AcDbVertex
100
AcDb2dVertex
 10
27.755452
 20
122.289389
 30
0.0
  0
VERTEX
  5
75D
100
AcDbEntity
  8
ALPHA
 62
   133
100
AcDbVertex
100
AcDb2dVertex
 10
27.999189
 20
122.306448
 30
0.0
  0
SEQEND
  5
75E
100
AcDbEntity
  8
ALPHA
 62
   133
  0
POLYLINE
  5
75F
100
AcDbEntity
  8
ALPHA
 62
   133
100
AcDb2dPolyline
 66
     1
 10
0.0
 20
0.0
 30
0.0
  0
VERTEX
  5
760
100
AcDbEntity
  8
ALPHA
 62
   133
100
AcDbVertex
100
AcDb2dVertex
 10
27.999189
 20
122.164091
 30
0.0
  0
VERTEX
  5
761
100
AcDbEntity
  8
ALPHA
 62
   133
100
AcDbVertex
100
AcDb2dVertex
 10
27.74878
 20
122.149648
 30
0.0
  0
VERTEX
  5
762
100
AcDbEntity
  8
ALPHA
 62
   133
100
AcDbVertex
100
AcDb2dVertex
 10
27.652404
 20
122.129143
 30
0.0
  0
VERTEX
  5
763
100
AcDbEntity
  8
ALPHA
 62
   133
100
AcDbVertex
100
AcDb2dVertex
 10
27.565927
 20
122.083628
 30
0.0
  0
SEQEND
  5
764
100
AcDbEntity
  8
ALPHA
 62
   133
  0
ARC
  5
765
100
AcDbEntity
  8
ALPHA
 62
   133
100
AcDbCircle
 10
27.681578
 20
121.957157
 30
0.0
 40
0.171377
100
AcDbArc
 50
132.441241
 51
179.103268
  0
ARC
  5
766
100
AcDbEntity
  8
ALPHA
 62
   133
100
AcDbCircle
 10
27.676151
 20
121.972651
 30
0.0
 40
0.283361
100
AcDbArc
 50
135.777423
 51
182.591544
  0
LINE
  5
767
100
AcDbEntity
  8
ALPHA
 62
   133
100
AcDbLine
 10
27.393081
 20
122.690194
 30
0.0
 11
27.393081
 21
122.836678
 31
0.0
  0
LINE
  5
768
100
AcDbEntity
  8
ALPHA
100
AcDbLine
 10
25.555413
 20
124.611472
 30
0.0
 11
25.755413
 21
124.611472
 31
0.0
  0
LINE
  5
769
100
AcDbEntity
  8
ALPHA
100
AcDbLine
 10
25.555413
 20
125.911472
 30
0.0
 11
25.755413
 21
125.911472
 31
0.0
  0
LINE
  5
76A
100
AcDbEntity
  8
ALPHA
100
AcDbLine
 10
25.755413
 20
125.711472
 30
0.0
 11
25.555413
 21
125.711472
 31
0.0
  0
LINE
  5
76B
100
AcDbEntity
  8
ALPHA
100
AcDbLine
 10
27.955413
 20
124.111472
 30
0.0
 11
27.955413
 21
125.211472
 31
0.0
  0
LINE
  5
76C
100
AcDbEntity
  8
ALPHA
100
AcDbLine
 10
27.955413
 20
124.111472
 30
0.0
 11
27.255413
 21
124.111472
 31
0.0
  0
LINE
  5
76D
100
AcDbEntity
  8
ALPHA
100
AcDbLine
 10
27.955413
 20
125.211472
 30
0.0
 11
27.255413
 21
125.211472
 31
0.0
  0
LINE
  5
76E
100
AcDbEntity
  8
ALPHA
100
AcDbLine
 10
28.655413
 20
124.011472
 30
0.0
 11
28.655413
 21
125.311472
 31
0.0
  0
LINE
  5
76F
100
AcDbEntity
  8
ALPHA
100
AcDbLine
 10
28.755413
 20
123.911472
 30
0.0
 11
28.755413
 21
125.411472
 31
0.0
  0
LINE
  5
770
100
AcDbEntity
  8
ALPHA
 62
   133
100
AcDbLine
 10
28.599566
 20
122.436427
 30
0.0
 11
28.599566
 21
123.073941
 31
0.0
  0
LINE
  5
771
100
AcDbEntity
  8
ALPHA
 62
   133
100
AcDbLine
 10
28.482424
 20
122.836678
 30
0.0
 11
28.482424
 21
123.073941
 31
0.0
  0
LINE
  5
772
100
AcDbEntity
  8
ALPHA
 62
   133
100
AcDbLine
 10
28.482424
 20
122.436427
 30
0.0
 11
28.482424
 21
122.690194
 31
0.0
  0
LINE
  5
773
100
AcDbEntity
  8
ALPHA
 62
   133
100
AcDbLine
 10
28.599566
 20
122.436427
 30
0.0
 11
28.482424
 21
122.436427
 31
0.0
  0
ARC
  5
774
100
AcDbEntity
  8
ALPHA
 62
   133
100
AcDbCircle
 10
28.307442
 20
121.955731
 30
0.0
 40
0.174572
100
AcDbArc
 50
1.348256
 51
47.107234
  0
ARC
  5
775
100
AcDbEntity
  8
ALPHA
 62
   133
100
AcDbCircle
 10
28.312393
 20
121.970641
 30
0.0
 40
0.287375
100
AcDbArc
 50
357.845799
 51
44.003204
  0
LINE
  5
776
100
AcDbEntity
  8
ALPHA
 62
   133
100
AcDbLine
 10
28.482424
 20
123.073941
 30
0.0
 11
28.599566
 21
123.073941
 31
0.0
  0
LINE
  5
777
100
AcDbEntity
  8
ALPHA
100
AcDbLine
 10
30.755413
 20
129.261472
 30
0.0
 11
25.755413
 21
129.261472
 31
0.0
  0
LINE
  5
778
100
AcDbEntity
  8
ALPHA
100
AcDbLine
 10
25.755413
 20
128.876384
 30
0.0
 11
30.755413
 21
128.911472
 31
0.0
  0
LINE
  5
779
100
AcDbEntity
  8
ALPHA
100
AcDbLine
 10
25.755413
 20
127.011472
 30
0.0
 11
25.555413
 21
127.011472
 31
0.0
  0
LINE
  5
77A
100
AcDbEntity
  8
ALPHA
100
AcDbLine
 10
30.755413
 20
128.911472
 30
0.0
 11
30.755413
 21
129.311472
 31
0.0
  0
LINE
  5
77B
100
AcDbEntity
  8
ALPHA
 62
   254
100
AcDbLine
 10
40.154888
 20
124.911487
 30
0.0
 11
40.154888
 21
118.911503
 31
0.0
  0
LINE
  5
77C
100
AcDbEntity
  8
ALPHA
 62
   254
100
AcDbLine
 10
43.954754
 20
130.81139
 30
0.0
 11
43.954754
 21
113.011402
 31
0.0
  0
LINE
  5
77D
100
AcDbEntity
  8
ALPHA
 62
   254
100
AcDbLine
 10
44.954846
 20
115.911701
 30
0.0
 11
44.954846
 21
127.911686
 31
0.0
  0
LINE
  5
77E
100
AcDbEntity
  8
ALPHA
 62
   254
100
AcDbLine
 10
47.155407
 20
113.211719
 30
0.0
 11
47.155407
 21
130.611713
 31
0.0
  0
LINE
  5
77F
100
AcDbEntity
  8
ALPHA
 62
   254
100
AcDbLine
 10
43.954846
 20
113.011692
 30
0.0
 11
43.954846
 21
130.811237
 31
0.0
  0
LINE
  5
780
100
AcDbEntity
  8
ALPHA
100
AcDbLine
 10
48.755413
 20
119.911472
 30
0.0
 11
48.755413
 21
123.911472
 31
0.0
  0
LINE
  5
781
100
AcDbEntity
  8
ALPHA
100
AcDbLine
 10
57.355413
 20
113.55614
 30
0.0
 11
57.355413
 21
130.266804
 31
0.0
  0
LINE
  5
782
100
AcDbEntity
  8
ALPHA
100
AcDbLine
 10
49.955413
 20
113.161472
 30
0.0
 11
49.955413
 21
130.661472
 31
0.0
  0
LINE
  5
783
100
AcDbEntity
  8
ALPHA
100
AcDbLine
 10
47.755413
 20
112.961472
 30
0.0
 11
47.755413
 21
130.861472
 31
0.0
  0
LINE
  5
784
100
AcDbEntity
  8
ALPHA
100
AcDbLine
 10
49.955413
 20
113.161472
 30
0.0
 11
57.160817
 21
113.356213
 31
0.0
  0
LINE
  5
785
100
AcDbEntity
  8
ALPHA
 62
   254
100
AcDbLine
 10
40.154845
 20
113.011483
 30
0.0
 11
40.15486
 21
113.532372
 31
0.0
  0
LINE
  5
786
100
AcDbEntity
  8
ALPHA
 62
   254
100
AcDbLine
 10
43.954889
 20
115.746783
 30
0.0
 11
44.898974
 21
112.961679
 31
0.0
  0
LINE
  5
787
100
AcDbEntity
  8
ALPHA
 62
   254
100
AcDbLine
 10
44.954881
 20
115.911687
 30
0.0
 11
45.846042
 21
113.282713
 31
0.0
  0
LINE
  5
788
100
AcDbEntity
  8
ALPHA
100
AcDbLine
 10
49.755413
 20
113.161472
 30
0.0
 11
49.755413
 21
119.911472
 31
0.0
  0
LINE
  5
789
100
AcDbEntity
  8
ALPHA
 62
   254
100
AcDbLine
 10
43.954846
 20
113.011493
 30
0.0
 11
40.154873
 21
113.011493
 31
0.0
  0
LINE
  5
78A
100
AcDbEntity
  8
ALPHA
 62
   254
100
AcDbLine
 10
47.155407
 20
113.211719
 30
0.0
 11
47.755413
 21
113.211719
 31
0.0
  0
LINE
  5
78B
100
AcDbEntity
  8
ALPHA
 62
   254
100
AcDbLine
 10
44.898956
 20
112.961671
 30
0.0
 11
45.846025
 21
113.282701
 31
0.0
  0
LINE
  5
78C
100
AcDbEntity
  8
ALPHA
 62
   254
100
AcDbLine
 10
43.954861
 20
112.961719
 30
0.0
 11
44.898953
 21
112.961719
 31
0.0
  0
ARC
  5
78D
100
AcDbEntity
  8
ALPHA
100
AcDbCircle
 10
49.555413
 20
113.161472
 30
0.0
 40
0.2
100
AcDbArc
 50
270.0
 51
0.0
  0
LINE
  5
78E
100
AcDbEntity
  8
ALPHA
100
AcDbLine
 10
47.755413
 20
112.961472
 30
0.0
 11
49.555413
 21
112.961472
 31
0.0
  0
LINE
  5
78F
100
AcDbEntity
  8
ALPHA
 62
   254
100
AcDbLine
 10
43.954861
 20
121.311481
 30
0.0
 11
40.954876
 21
121.311481
 31
0.0
  0
LINE
  5
790
100
AcDbEntity
  8
ALPHA
 62
   254
100
AcDbLine
 10
43.954861
 20
120.219028
 30
0.0
 11
40.954876
 21
120.219028
 31
0.0
  0
LINE
  5
791
100
AcDbEntity
  8
ALPHA
 62
   254
100
AcDbLine
 10
43.954861
 20
119.033665
 30
0.0
 11
40.954876
 21
119.033665
 31
0.0
  0
LINE
  5
792
100
AcDbEntity
  8
ALPHA
 62
   254
100
AcDbLine
 10
43.954861
 20
117.991215
 30
0.0
 11
40.954876
 21
117.991215
 31
0.0
  0
LINE
  5
793
100
AcDbEntity
  8
ALPHA
 62
   254
100
AcDbLine
 10
43.954861
 20
116.951999
 30
0.0
 11
40.954876
 21
116.951999
 31
0.0
  0
LINE
  5
794
100
AcDbEntity
  8
ALPHA
 62
   254
100
AcDbLine
 10
43.954861
 20
116.076984
 30
0.0
 11
40.954876
 21
116.076984
 31
0.0
  0
LINE
  5
795
100
AcDbEntity
  8
ALPHA
 62
   254
100
AcDbLine
 10
43.954861
 20
115.208286
 30
0.0
 11
40.954876
 21
115.208286
 31
0.0
  0
LINE
  5
796
100
AcDbEntity
  8
ALPHA
 62
   254
100
AcDbLine
 10
43.954861
 20
114.521396
 30
0.0
 11
40.954876
 21
114.521396
 31
0.0
  0
LINE
  5
797
100
AcDbEntity
  8
ALPHA
 62
   254
100
AcDbLine
 10
43.954861
 20
113.921406
 30
0.0
 11
40.954876
 21
113.921406
 31
0.0
  0
LINE
  5
798
100
AcDbEntity
  8
ALPHA
 62
   254
100
AcDbLine
 10
43.954861
 20
113.498279
 30
0.0
 11
40.954876
 21
113.498279
 31
0.0
  0
LINE
  5
799
100
AcDbEntity
  8
ALPHA
 62
   254
100
AcDbLine
 10
38.954891
 20
118.911503
 30
0.0
 11
38.954891
 21
113.532383
 31
0.0
  0
LINE
  5
79A
100
AcDbEntity
  8
ALPHA
100
AcDbLine
 10
35.755413
 20
114.511472
 30
0.0
 11
35.755413
 21
120.911472
 31
0.0
  0
LINE
  5
79B
100
AcDbEntity
  8
ALPHA
100
AcDbLine
 10
36.101823
 20
114.511472
 30
0.0
 11
36.101823
 21
120.911472
 31
0.0
  0
LINE
  5
79C
100
AcDbEntity
  8
ALPHA
 62
   254
100
AcDbLine
 10
38.954891
 20
113.532383
 30
0.0
 11
40.154888
 21
113.532383
 31
0.0
  0
LINE
  5
79D
100
AcDbEntity
  8
ALPHA
 62
   254
100
AcDbLine
 10
40.954754
 20
113.921299
 30
0.0
 11
40.954754
 21
113.498188
 31
0.0
  0
LINE
  5
79E
100
AcDbEntity
  8
ALPHA
 62
   254
100
AcDbLine
 10
40.954876
 20
114.521396
 30
0.0
 11
40.954876
 21
115.208286
 31
0.0
  0
LINE
  5
79F
100
AcDbEntity
  8
ALPHA
 62
   254
100
AcDbLine
 10
40.954876
 20
116.076984
 30
0.0
 11
40.954876
 21
116.951999
 31
0.0
  0
LINE
  5
7A0
100
AcDbEntity
  8
ALPHA
100
AcDbLine
 10
40.154888
 20
120.911472
 30
0.0
 11
35.755413
 21
120.911472
 31
0.0
  0
LINE
  5
7A1
100
AcDbEntity
  8
ALPHA
 62
   254
100
AcDbLine
 10
40.154888
 20
118.911503
 30
0.0
 11
38.954891
 21
118.911503
 31
0.0
  0
LINE
  5
7A2
100
AcDbEntity
  8
ALPHA
 62
   254
100
AcDbLine
 10
40.954876
 20
119.033665
 30
0.0
 11
40.954876
 21
117.991215
 31
0.0
  0
LINE
  5
7A3
100
AcDbEntity
  8
ALPHA
 62
   254
100
AcDbLine
 10
40.954876
 20
121.311481
 30
0.0
 11
40.954876
 21
120.219028
 31
0.0
  0
LINE
  5
7A4
100
AcDbEntity
  8
ALPHA
100
AcDbLine
 10
45.429521
 20
114.511472
 30
0.0
 11
47.155407
 21
114.511472
 31
0.0
  0
LINE
  5
7A5
100
AcDbEntity
  8
ALPHA
100
AcDbLine
 10
49.755413
 20
114.111472
 30
0.0
 11
49.955413
 21
114.111472
 31
0.0
  0
LINE
  5
7A6
100
AcDbEntity
  8
ALPHA
100
AcDbLine
 10
49.755413
 20
114.011472
 30
0.0
 11
49.955413
 21
114.011472
 31
0.0
  0
LINE
  5
7A7
100
AcDbEntity
  8
ALPHA
100
AcDbLine
 10
49.955413
 20
116.311472
 30
0.0
 11
49.755413
 21
116.311472
 31
0.0
  0
LINE
  5
7A8
100
AcDbEntity
  8
ALPHA
100
AcDbLine
 10
49.955413
 20
116.911472
 30
0.0
 11
49.755413
 21
116.911472
 31
0.0
  0
LINE
  5
7A9
100
AcDbEntity
  8
ALPHA
100
AcDbLine
 10
47.155407
 20
120.911472
 30
0.0
 11
44.954846
 21
120.911472
 31
0.0
  0
POINT
  5
7AA
100
AcDbEntity
  8
ALPHA
100
AcDbPoint
 10
47.155407
 20
121.911472
 30
0.0
  0
LINE
  5
7AB
100
AcDbEntity
  8
ALPHA
100
AcDbLine
 10
49.755413
 20
119.911472
 30
0.0
 11
48.755413
 21
119.911472
 31
0.0
  0
ARC
  5
7AC
100
AcDbEntity
  8
ALPHA
100
AcDbCircle
 10
57.155413
 20
113.55614
 30
0.0
 40
0.2
100
AcDbArc
 50
271.548158
 51
0.385811
  0
LINE
  5
7AD
100
AcDbEntity
  8
ALPHA
100
AcDbLine
 10
57.160817
 20
130.466731
 30
0.0
 11
49.955413
 21
130.661472
 31
0.0
  0
LINE
  5
7AE
100
AcDbEntity
  8
ALPHA
 62
   254
100
AcDbLine
 10
40.154888
 20
130.811481
 30
0.0
 11
40.154888
 21
130.290653
 31
0.0
  0
LINE
  5
7AF
100
AcDbEntity
  8
ALPHA
 62
   254
100
AcDbLine
 10
43.954861
 20
128.07653
 30
0.0
 11
44.898966
 21
130.861676
 31
0.0
  0
LINE
  5
7B0
100
AcDbEntity
  8
ALPHA
 62
   254
100
AcDbLine
 10
44.954873
 20
127.911682
 30
0.0
 11
45.846028
 21
130.540626
 31
0.0
  0
LINE
  5
7B1
100
AcDbEntity
  8
ALPHA
100
AcDbLine
 10
49.755413
 20
123.911472
 30
0.0
 11
49.755413
 21
130.661472
 31
0.0
  0
LINE
  5
7B2
100
AcDbEntity
  8
ALPHA
 62
   254
100
AcDbLine
 10
40.954876
 20
122.511493
 30
0.0
 11
43.954861
 21
122.511493
 31
0.0
  0
LINE
  5
7B3
100
AcDbEntity
  8
ALPHA
 62
   254
100
AcDbLine
 10
40.954876
 20
123.603946
 30
0.0
 11
43.954861
 21
123.603946
 31
0.0
  0
LINE
  5
7B4
100
AcDbEntity
  8
ALPHA
 62
   254
100
AcDbLine
 10
40.954876
 20
124.78931
 30
0.0
 11
43.954861
 21
124.78931
 31
0.0
  0
LINE
  5
7B5
100
AcDbEntity
  8
ALPHA
 62
   254
100
AcDbLine
 10
40.954876
 20
125.83176
 30
0.0
 11
43.954861
 21
125.83176
 31
0.0
  0
LINE
  5
7B6
100
AcDbEntity
  8
ALPHA
 62
   254
100
AcDbLine
 10
40.954876
 20
126.870975
 30
0.0
 11
43.954861
 21
126.870975
 31
0.0
  0
LINE
  5
7B7
100
AcDbEntity
  8
ALPHA
 62
   254
100
AcDbLine
 10
40.954876
 20
127.745991
 30
0.0
 11
43.954861
 21
127.745991
 31
0.0
  0
LINE
  5
7B8
100
AcDbEntity
  8
ALPHA
 62
   254
100
AcDbLine
 10
40.954876
 20
128.614689
 30
0.0
 11
43.954861
 21
128.614689
 31
0.0
  0
LINE
  5
7B9
100
AcDbEntity
  8
ALPHA
 62
   254
100
AcDbLine
 10
40.954876
 20
129.301578
 30
0.0
 11
43.954861
 21
129.301578
 31
0.0
  0
LINE
  5
7BA
100
AcDbEntity
  8
ALPHA
 62
   254
100
AcDbLine
 10
40.954876
 20
129.901569
 30
0.0
 11
43.954861
 21
129.901569
 31
0.0
  0
LINE
  5
7BB
100
AcDbEntity
  8
ALPHA
 62
   254
100
AcDbLine
 10
40.954876
 20
130.324695
 30
0.0
 11
43.954861
 21
130.324695
 31
0.0
  0
LINE
  5
7BC
100
AcDbEntity
  8
ALPHA
 62
   254
100
AcDbLine
 10
38.954891
 20
130.290653
 30
0.0
 11
38.954891
 21
124.911487
 31
0.0
  0
LINE
  5
7BD
100
AcDbEntity
  8
ALPHA
100
AcDbLine
 10
35.755413
 20
122.911472
 30
0.0
 11
35.755413
 21
129.311472
 31
0.0
  0
LINE
  5
7BE
100
AcDbEntity
  8
ALPHA
100
AcDbLine
 10
36.101823
 20
122.911472
 30
0.0
 11
36.101823
 21
129.311472
 31
0.0
  0
LINE
  5
7BF
100
AcDbEntity
  8
ALPHA
100
AcDbLine
 10
40.154888
 20
122.911472
 30
0.0
 11
35.755413
 21
122.911472
 31
0.0
  0
LINE
  5
7C0
100
AcDbEntity
  8
ALPHA
 62
   254
100
AcDbLine
 10
40.954876
 20
123.603946
 30
0.0
 11
40.954876
 21
122.511493
 31
0.0
  0
LINE
  5
7C1
100
AcDbEntity
  8
ALPHA
 62
   254
100
AcDbLine
 10
38.954891
 20
124.911487
 30
0.0
 11
40.154888
 21
124.911487
 31
0.0
  0
LINE
  5
7C2
100
AcDbEntity
  8
ALPHA
 62
   254
100
AcDbLine
 10
40.954876
 20
125.83176
 30
0.0
 11
40.954876
 21
124.78931
 31
0.0
  0
LINE
  5
7C3
100
AcDbEntity
  8
ALPHA
 62
   254
100
AcDbLine
 10
40.954876
 20
126.870975
 30
0.0
 11
40.954876
 21
127.745991
 31
0.0
  0
LINE
  5
7C4
100
AcDbEntity
  8
ALPHA
 62
   254
100
AcDbLine
 10
40.154888
 20
130.290653
 30
0.0
 11
38.954891
 21
130.290653
 31
0.0
  0
LINE
  5
7C5
100
AcDbEntity
  8
ALPHA
 62
   254
100
AcDbLine
 10
40.954876
 20
128.614689
 30
0.0
 11
40.954876
 21
129.301578
 31
0.0
  0
LINE
  5
7C6
100
AcDbEntity
  8
ALPHA
 62
   254
100
AcDbLine
 10
40.954952
 20
130.324741
 30
0.0
 11
40.954952
 21
129.90163
 31
0.0
  0
LINE
  5
7C7
100
AcDbEntity
  8
ALPHA
100
AcDbLine
 10
47.155407
 20
122.911472
 30
0.0
 11
44.954846
 21
122.911472
 31
0.0
  0
LINE
  5
7C8
100
AcDbEntity
  8
ALPHA
100
AcDbLine
 10
48.755413
 20
123.911472
 30
0.0
 11
49.755413
 21
123.911472
 31
0.0
  0
LINE
  5
7C9
100
AcDbEntity
  8
ALPHA
100
AcDbLine
 10
47.155407
 20
129.311472
 30
0.0
 11
45.429372
 21
129.311472
 31
0.0
  0
LINE
  5
7CA
100
AcDbEntity
  8
ALPHA
100
AcDbLine
 10
49.955413
 20
126.911472
 30
0.0
 11
49.755413
 21
126.911472
 31
0.0
  0
LINE
  5
7CB
100
AcDbEntity
  8
ALPHA
100
AcDbLine
 10
49.955413
 20
127.511472
 30
0.0
 11
49.755413
 21
127.511472
 31
0.0
  0
LINE
  5
7CC
100
AcDbEntity
  8
ALPHA
100
AcDbLine
 10
49.955413
 20
129.811472
 30
0.0
 11
49.755413
 21
129.811472
 31
0.0
  0
LINE
  5
7CD
100
AcDbEntity
  8
ALPHA
100
AcDbLine
 10
49.755413
 20
129.711472
 30
0.0
 11
49.955413
 21
129.711472
 31
0.0
  0
LINE
  5
7CE
100
AcDbEntity
  8
ALPHA
 62
   254
100
AcDbLine
 10
40.154888
 20
130.811481
 30
0.0
 11
43.954861
 21
130.811481
 31
0.0
  0
LINE
  5
7CF
100
AcDbEntity
  8
ALPHA
 62
   254
100
AcDbLine
 10
47.155407
 20
130.611713
 30
0.0
 11
47.755413
 21
130.611713
 31
0.0
  0
LINE
  5
7D0
100
AcDbEntity
  8
ALPHA
 62
   254
100
AcDbLine
 10
44.898987
 20
130.861673
 30
0.0
 11
45.846052
 21
130.540629
 31
0.0
  0
LINE
  5
7D1
100
AcDbEntity
  8
ALPHA
 62
   254
100
AcDbLine
 10
43.954861
 20
130.861728
 30
0.0
 11
44.898968
 21
130.861728
 31
0.0
  0
ARC
  5
7D2
100
AcDbEntity
  8
ALPHA
100
AcDbCircle
 10
49.555413
 20
130.661472
 30
0.0
 40
0.2
100
AcDbArc
 50
0.0
 51
90.0
  0
LINE
  5
7D3
100
AcDbEntity
  8
ALPHA
100
AcDbLine
 10
49.555413
 20
130.861472
 30
0.0
 11
47.755413
 21
130.861472
 31
0.0
  0
ARC
  5
7D4
100
AcDbEntity
  8
ALPHA
100
AcDbCircle
 10
57.155413
 20
130.266804
 30
0.0
 40
0.2
100
AcDbArc
 50
0.361573
 51
88.451842
  0
DIMENSION
  5
835
100
AcDbEntity
  8
COTATION1
100
AcDbDimension
  2
*D11
 10
17.755413
 20
106.309388
 30
0.0
 11
37.555413
 21
108.559388
 31
0.0
 70
    32
  3
SC_STAND
100
AcDbAlignedDimension
 13
57.355413
 23
113.87511
 33
0.0
 14
17.755413
 24
115.901604
 34
0.0
100
AcDbRotatedDimension
  0
ENDSEC
  0
SECTION
  2
OBJECTS
  0
DICTIONARY
  5
F8
100
AcDbDictionary
  3
ACAD_GROUP
350
F9
  3
ACAD_MLINESTYLE
350
106
  3
ACDBVARIABLEDICTIONARY
350
143
  0
DICTIONARY
  5
F9
102
{ACAD_REACTORS
330
F8
102
}
100
AcDbDictionary
  0
DICTIONARY
  5
106
102
{ACAD_REACTORS
330
F8
102
}
100
AcDbDictionary
  3
STANDARD
350
107
  0
DICTIONARY
  5
143
102
{ACAD_REACTORS
330
F8
102
}
100
AcDbDictionary
  3
DIMADEC
350
144
  0
MLINESTYLE
  5
107
102
{ACAD_REACTORS
330
106
102
}
100
AcDbMlineStyle
  2
STANDARD
 70
     0
  3

 62
   256
 51
90.0
 52
90.0
 71
     2
 49
0.5
 62
   256
  6
BYLAYER
 49
-0.5
 62
   256
  6
BYLAYER
  0
DICTIONARYVAR
  5
144
102
{ACAD_REACTORS
330
143
102
}
100
DictionaryVariables
280
     0
  1
0
  0
ENDSEC
  0
EOF
