  0
SECTION
  2
HEADER
  9
$ACADVER
  1
AC1014
  9
$ACADMAINTVER
 70
     0
  9
$DWGCODEPAGE
  3
ANSI_1252
  9
$INSBASE
 10
93.894301
 20
236.06014
 30
0.0
  9
$EXTMIN
 10
43.283907
 20
99.868929
 30
0.0
  9
$EXTMAX
 10
111.543838
 20
253.383875
 30
0.0
  9
$LIMMIN
 10
0.0
 20
0.0
  9
$LIMMAX
 10
210.0
 20
297.0
  9
$ORTHOMODE
 70
     0
  9
$REGENMODE
 70
     1
  9
$FILLMODE
 70
     1
  9
$QTEXTMODE
 70
     0
  9
$MIRRTEXT
 70
     0
  9
$DRAGMODE
 70
     1
  9
$LTSCALE
 40
7.0
  9
$OSMODE
 70
  4095
  9
$ATTMODE
 70
     1
  9
$TEXTSIZE
 40
2.5
  9
$TRACEWID
 40
0.05
  9
$TEXTSTYLE
  7
STANDARD
  9
$CLAYER
  8
COTATION1
  9
$CELTYPE
  6
BYLAYER
  9
$CECOLOR
 62
   256
  9
$CELTSCALE
 40
1.0
  9
$DELOBJ
 70
     1
  9
$DISPSILH
 70
     0
  9
$DIMSCALE
 40
1.0
  9
$DIMASZ
 40
3.0
  9
$DIMEXO
 40
0.0625
  9
$DIMDLI
 40
0.38
  9
$DIMRND
 40
0.01
  9
$DIMDLE
 40
0.0
  9
$DIMEXE
 40
0.18
  9
$DIMTP
 40
0.0
  9
$DIMTM
 40
0.0
  9
$DIMTXT
 40
2.5
  9
$DIMCEN
 40
0.09
  9
$DIMTSZ
 40
0.0
  9
$DIMTOL
 70
     0
  9
$DIMLIM
 70
     0
  9
$DIMTIH
 70
     0
  9
$DIMTOH
 70
     0
  9
$DIMSE1
 70
     0
  9
$DIMSE2
 70
     0
  9
$DIMTAD
 70
     1
  9
$DIMZIN
 70
    12
  9
$DIMBLK
  1

  9
$DIMASO
 70
     1
  9
$DIMSHO
 70
     0
  9
$DIMPOST
  1

  9
$DIMAPOST
  1

  9
$DIMALT
 70
     0
  9
$DIMALTD
 70
     2
  9
$DIMALTF
 40
25.4
  9
$DIMLFAC
 40
1.0
  9
$DIMTOFL
 70
     1
  9
$DIMTVP
 40
0.0
  9
$DIMTIX
 70
     0
  9
$DIMSOXD
 70
     0
  9
$DIMSAH
 70
     0
  9
$DIMBLK1
  1

  9
$DIMBLK2
  1

  9
$DIMSTYLE
  2
SC_STAND
  9
$DIMCLRD
 70
     0
  9
$DIMCLRE
 70
     0
  9
$DIMCLRT
 70
     0
  9
$DIMTFAC
 40
1.0
  9
$DIMGAP
 40
1.0
  9
$DIMJUST
 70
     0
  9
$DIMSD1
 70
     0
  9
$DIMSD2
 70
     0
  9
$DIMTOLJ
 70
     1
  9
$DIMTZIN
 70
    12
  9
$DIMALTZ
 70
    12
  9
$DIMALTTZ
 70
    12
  9
$DIMFIT
 70
     5
  9
$DIMUPT
 70
     0
  9
$DIMUNIT
 70
     2
  9
$DIMDEC
 70
     3
  9
$DIMTDEC
 70
     3
  9
$DIMALTU
 70
     2
  9
$DIMALTTD
 70
     2
  9
$DIMTXSTY
  7
STANDARD
  9
$DIMAUNIT
 70
     0
  9
$LUNITS
 70
     2
  9
$LUPREC
 70
     3
  9
$SKETCHINC
 40
0.1
  9
$FILLETRAD
 40
0.0625
  9
$AUNITS
 70
     0
  9
$AUPREC
 70
     0
  9
$MENU
  1
ACAD
  9
$ELEVATION
 40
0.0
  9
$PELEVATION
 40
0.0
  9
$THICKNESS
 40
0.0
  9
$LIMCHECK
 70
     0
  9
$BLIPMODE
 70
     1
  9
$CHAMFERA
 40
0.0
  9
$CHAMFERB
 40
0.0
  9
$CHAMFERC
 40
0.0
  9
$CHAMFERD
 40
0.0
  9
$SKPOLY
 70
     0
  9
$TDCREATE
 40
2450953.590960648
  9
$TDUPDATE
 40
2452968.636077291
  9
$TDINDWG
 40
0.0067367361
  9
$TDUSRTIMER
 40
0.0067367361
  9
$USRTIMER
 70
     1
  9
$ANGBASE
 50
0.0
  9
$ANGDIR
 70
     0
  9
$PDMODE
 70
     0
  9
$PDSIZE
 40
0.0
  9
$PLINEWID
 40
0.0
  9
$COORDS
 70
     0
  9
$SPLFRAME
 70
     0
  9
$SPLINETYPE
 70
     6
  9
$SPLINESEGS
 70
     8
  9
$ATTDIA
 70
     0
  9
$ATTREQ
 70
     1
  9
$HANDLING
 70
     1
  9
$HANDSEED
  5
620
  9
$SURFTAB1
 70
     6
  9
$SURFTAB2
 70
     6
  9
$SURFTYPE
 70
     6
  9
$SURFU
 70
     6
  9
$SURFV
 70
     6
  9
$UCSNAME
  2

  9
$UCSORG
 10
0.0
 20
0.0
 30
0.0
  9
$UCSXDIR
 10
1.0
 20
0.0
 30
0.0
  9
$UCSYDIR
 10
0.0
 20
1.0
 30
0.0
  9
$PUCSNAME
  2

  9
$PUCSORG
 10
0.0
 20
0.0
 30
0.0
  9
$PUCSXDIR
 10
1.0
 20
0.0
 30
0.0
  9
$PUCSYDIR
 10
0.0
 20
1.0
 30
0.0
  9
$USERI1
 70
     0
  9
$USERI2
 70
     0
  9
$USERI3
 70
     0
  9
$USERI4
 70
     0
  9
$USERI5
 70
     0
  9
$USERR1
 40
0.0
  9
$USERR2
 40
0.0
  9
$USERR3
 40
0.0
  9
$USERR4
 40
0.0
  9
$USERR5
 40
0.0
  9
$WORLDVIEW
 70
     1
  9
$SHADEDGE
 70
     3
  9
$SHADEDIF
 70
    70
  9
$TILEMODE
 70
     1
  9
$MAXACTVP
 70
    32
  9
$PINSBASE
 10
0.0
 20
0.0
 30
0.0
  9
$PLIMCHECK
 70
     0
  9
$PEXTMIN
 10
-3.174999
 20
-3.175
 30
0.0
  9
$PEXTMAX
 10
203.812116
 20
370.276807
 30
0.0
  9
$PLIMMIN
 10
-3.175
 20
-3.175
  9
$PLIMMAX
 10
203.812115
 20
370.276807
  9
$UNITMODE
 70
     0
  9
$VISRETAIN
 70
     0
  9
$PLINEGEN
 70
     0
  9
$PSLTSCALE
 70
     1
  9
$TREEDEPTH
 70
  3020
  9
$PICKSTYLE
 70
     1
  9
$CMLSTYLE
  2
STANDARD
  9
$CMLJUST
 70
     0
  9
$CMLSCALE
 40
1.0
  9
$PROXYGRAPHICS
 70
     1
  9
$MEASUREMENT
 70
     0
  0
ENDSEC
  0
SECTION
  2
CLASSES
  0
CLASS
  1
DICTIONARYVAR
  2
AcDbDictionaryVar
  3
"AutoCAD"
 90
        0
280
     0
281
     0
  0
ENDSEC
  0
SECTION
  2
TABLES
  0
TABLE
  2
VPORT
  5
F4
100
AcDbSymbolTable
 70
     2
  0
VPORT
  5
61F
100
AcDbSymbolTableRecord
100
AcDbViewportTableRecord
  2
*ACTIVE
 70
     0
 10
0.0
 20
0.0
 11
1.0
 21
1.0
 12
77.410584
 22
176.620194
 13
0.0
 23
0.0
 14
1.0
 24
1.0
 15
10.0
 25
10.0
 16
0.0
 26
0.0
 36
1.0
 17
0.0
 27
0.0
 37
0.0
 40
154.740519
 41
1.592689
 42
50.0
 43
0.0
 44
0.0
 50
0.0
 51
0.0
 71
     0
 72
   100
 73
     1
 74
     1
 75
     0
 76
     1
 77
     0
 78
     0
  0
ENDTAB
  0
TABLE
  2
LTYPE
  5
F1
100
AcDbSymbolTable
 70
     2
  0
LTYPE
  5
FD
100
AcDbSymbolTableRecord
100
AcDbLinetypeTableRecord
  2
BYBLOCK
 70
     0
  3

 72
    65
 73
     0
 40
0.0
  0
LTYPE
  5
FE
100
AcDbSymbolTableRecord
100
AcDbLinetypeTableRecord
  2
BYLAYER
 70
     0
  3

 72
    65
 73
     0
 40
0.0
  0
LTYPE
  5
FF
100
AcDbSymbolTableRecord
100
AcDbLinetypeTableRecord
  2
CONTINUOUS
 70
     0
  3
Solid line
 72
    65
 73
     0
 40
0.0
  0
LTYPE
  5
120
100
AcDbSymbolTableRecord
100
AcDbLinetypeTableRecord
  2
CACHE2
 70
     0
  3
_ _ _ _ _ _ _ _ _ _ _ _ _ _ _ _ _ _ _ _ _ _ _ _
 72
    65
 73
     2
 40
0.1875
 49
0.125
 74
     0
 49
-0.0625
 74
     0
  0
ENDTAB
  0
TABLE
  2
LAYER
  5
EE
100
AcDbSymbolTable
 70
     6
  0
LAYER
  5
FA
100
AcDbSymbolTableRecord
100
AcDbLayerTableRecord
  2
0
 70
     0
 62
    -7
  6
CONTINUOUS
  0
LAYER
  5
12C
100
AcDbSymbolTableRecord
100
AcDbLayerTableRecord
  2
ALPHA
 70
     0
 62
   255
  6
CONTINUOUS
  0
LAYER
  5
12F
100
AcDbSymbolTableRecord
100
AcDbLayerTableRecord
  2
COTATION1
 70
     0
 62
     2
  6
CONTINUOUS
  0
LAYER
  5
13B
100
AcDbSymbolTableRecord
100
AcDbLayerTableRecord
  2
ASHADE
 70
     0
 62
    -7
  6
CONTINUOUS
  0
LAYER
  5
13C
100
AcDbSymbolTableRecord
100
AcDbLayerTableRecord
  2
POINTILLE_COURT
 70
     0
 62
    40
  6
CACHE2
  0
LAYER
  5
13E
100
AcDbSymbolTableRecord
100
AcDbLayerTableRecord
  2
DEFPOINTS
 70
     0
 62
    -7
  6
CONTINUOUS
  0
ENDTAB
  0
TABLE
  2
STYLE
  5
EF
100
AcDbSymbolTable
 70
     1
  0
STYLE
  5
FB
100
AcDbSymbolTableRecord
100
AcDbTextStyleTableRecord
  2
STANDARD
 70
     0
 40
0.0
 41
1.0
 50
0.0
 71
     0
 42
2.5
  3
txt
  4

  0
ENDTAB
  0
TABLE
  2
VIEW
  5
F2
100
AcDbSymbolTable
 70
     0
  0
ENDTAB
  0
TABLE
  2
UCS
  5
F3
100
AcDbSymbolTable
 70
     0
  0
ENDTAB
  0
TABLE
  2
APPID
  5
F5
100
AcDbSymbolTable
 70
     3
  0
APPID
  5
FC
100
AcDbSymbolTableRecord
100
AcDbRegAppTableRecord
  2
ACAD
 70
     0
  0
APPID
  5
127
100
AcDbSymbolTableRecord
100
AcDbRegAppTableRecord
  2
AVE_RENDER
 70
     0
  0
APPID
  5
128
100
AcDbSymbolTableRecord
100
AcDbRegAppTableRecord
  2
AVE_MATERIAL
 70
     0
  0
ENDTAB
  0
TABLE
  2
DIMSTYLE
  5
F6
100
AcDbSymbolTable
 70
     2
  0
DIMSTYLE
105
129
100
AcDbSymbolTableRecord
100
AcDbDimStyleTableRecord
  2
STANDARD
 70
     0
  3

  4

  5

  6

  7

 40
1.0
 41
0.18
 42
0.0625
 43
0.38
 44
0.18
 45
0.0
 46
0.0
 47
0.0
 48
0.0
140
0.18
141
0.09
142
0.0
143
25.4
144
1.0
145
0.0
146
1.0
147
0.09
 71
     0
 72
     0
 73
     1
 74
     1
 75
     0
 76
     0
 77
     0
 78
     0
170
     0
171
     2
172
     0
173
     0
174
     0
175
     0
176
     0
177
     0
178
     0
270
     2
271
     3
272
     3
273
     2
274
     2
340
FB
275
     0
280
     0
281
     0
282
     0
283
     1
284
    12
285
    12
286
    12
287
     5
288
     0
  0
DIMSTYLE
105
12A
102
{ACAD_REACTORS
330
578
330
592
330
59F
330
5AC
330
604
102
}
100
AcDbSymbolTableRecord
100
AcDbDimStyleTableRecord
  2
SC_STAND
 70
     0
  3

  4

  5

  6

  7

 40
1.0
 41
3.0
 42
0.0625
 43
0.38
 44
0.18
 45
0.01
 46
0.0
 47
0.0
 48
0.0
140
2.5
141
0.09
142
0.0
143
25.4
144
1.0
145
0.0
146
1.0
147
1.0
 71
     0
 72
     0
 73
     0
 74
     0
 75
     0
 76
     0
 77
     1
 78
    12
170
     0
171
     2
172
     1
173
     0
174
     0
175
     0
176
     0
177
     0
178
     0
270
     2
271
     3
272
     3
273
     2
274
     2
340
FB
275
     0
280
     0
281
     0
282
     0
283
     1
284
    12
285
    12
286
    12
287
     5
288
     0
  0
ENDTAB
  0
TABLE
  2
BLOCK_RECORD
  5
ED
100
AcDbSymbolTable
 70
    10
  0
BLOCK_RECORD
  5
103
100
AcDbSymbolTableRecord
100
AcDbBlockTableRecord
  2
*MODEL_SPACE
  0
BLOCK_RECORD
  5
100
100
AcDbSymbolTableRecord
100
AcDbBlockTableRecord
  2
*PAPER_SPACE
  0
BLOCK_RECORD
  5
108
100
AcDbSymbolTableRecord
100
AcDbBlockTableRecord
  2
AVE_RENDER
  0
BLOCK_RECORD
  5
109
100
AcDbSymbolTableRecord
100
AcDbBlockTableRecord
  2
AVE_GLOBAL
  0
BLOCK_RECORD
  5
10A
100
AcDbSymbolTableRecord
100
AcDbBlockTableRecord
  2
SCH_IS
  0
BLOCK_RECORD
  5
56A
100
AcDbSymbolTableRecord
100
AcDbBlockTableRecord
  2
*D4
  0
BLOCK_RECORD
  5
586
100
AcDbSymbolTableRecord
100
AcDbBlockTableRecord
  2
*D5
  0
BLOCK_RECORD
  5
593
100
AcDbSymbolTableRecord
100
AcDbBlockTableRecord
  2
*D6
  0
BLOCK_RECORD
  5
5A0
100
AcDbSymbolTableRecord
100
AcDbBlockTableRecord
  2
*D7
  0
BLOCK_RECORD
  5
5F8
100
AcDbSymbolTableRecord
100
AcDbBlockTableRecord
  2
*D9
  0
ENDTAB
  0
ENDSEC
  0
SECTION
  2
BLOCKS
  0
BLOCK
  5
141
100
AcDbEntity
  8
0
100
AcDbBlockBegin
  2
*MODEL_SPACE
 70
     0
 10
0.0
 20
0.0
 30
0.0
  3
*MODEL_SPACE
  1

  0
ENDBLK
  5
142
100
AcDbEntity
  8
0
100
AcDbBlockEnd
  0
BLOCK
  5
13F
100
AcDbEntity
 67
     1
  8
0
100
AcDbBlockBegin
  2
*PAPER_SPACE
 70
     0
 10
0.0
 20
0.0
 30
0.0
  3
*PAPER_SPACE
  1

  0
ENDBLK
  5
140
100
AcDbEntity
 67
     1
  8
0
100
AcDbBlockEnd
  0
BLOCK
  5
8D
100
AcDbEntity
  8
0
100
AcDbBlockBegin
  2
AVE_RENDER
 70
     0
 10
0.0
 20
0.0
 30
0.0
  3
AVE_RENDER
  1
AVE_RENDER
  0
ENDBLK
  5
8E
100
AcDbEntity
  8
0
100
AcDbBlockEnd
  0
BLOCK
  5
90
100
AcDbEntity
  8
0
100
AcDbBlockBegin
  2
AVE_GLOBAL
 70
     0
 10
0.0
 20
0.0
 30
0.0
  3
AVE_GLOBAL
  1
AVE_GLOBAL
  0
ENDBLK
  5
91
100
AcDbEntity
  8
0
100
AcDbBlockEnd
  0
BLOCK
  5
C9
100
AcDbEntity
  8
0
100
AcDbBlockBegin
  2
SCH_IS
 70
     0
 10
0.0
 20
0.0
 30
0.0
  3
SCH_IS
  1

  0
INSERT
  5
C0
100
AcDbEntity
  8
ASHADE
 62
     1
100
AcDbBlockReference
  2
AVE_RENDER
 10
0.0
 20
0.0
 30
0.0
1001
AVE_RENDER
1002
{
1070
     6
1000
Pref
1070
    50
1070
    20
1070
     1
1070
     0
1000

1070
    10
1070
     1
1070
    30
1040
25.4
1070
     1
1040
0.3
1040
0.7
1040
0.0
1040
10.0
1010
-1.0
1020
-1.0
1030
-1.0
1040
0.3
1070
    49
1070
     0
1070
     0
1010
1.0
1020
1.0
1030
1.0
1040
45.0
1070
     1
1070
     0
1000
WCS
1040
0.0
1002
}
  0
INSERT
  5
C1
100
AcDbEntity
  8
ASHADE
 62
     3
100
AcDbBlockReference
  2
AVE_RENDER
 10
0.0
 20
0.0
 30
0.0
1001
AVE_RENDER
1002
{
1070
     0
1000
Full Opt
1070
     0
1070
     1
1070
     1
1070
     1
1070
     0
1070
     0
1070
     0
1070
     1
1070
     1
1040
0.0001
1040
0.0001
1002
}
  0
INSERT
  5
C2
100
AcDbEntity
  8
ASHADE
 62
     4
100
AcDbBlockReference
  2
AVE_RENDER
 10
0.0
 20
0.0
 30
0.0
1001
AVE_RENDER
1002
{
1070
     0
1000
Quick Opt
1070
     0
1070
     1
1070
     1
1070
     1
1070
     0
1070
     0
1070
     1
1002
}
  0
INSERT
  5
C3
100
AcDbEntity
  8
ASHADE
 62
     5
100
AcDbBlockReference
  2
AVE_RENDER
 10
0.0
 20
0.0
 30
0.0
1001
AVE_RENDER
1002
{
1070
     1
1000
Scanl Opt
1070
     2
1070
     0
1070
     2
1040
2.0
1040
4.0
1070
     0
1070
     1
1070
     0
1040
0.03
1002
}
  0
INSERT
  5
C4
100
AcDbEntity
  8
ASHADE
 62
     6
100
AcDbBlockReference
  2
AVE_RENDER
 10
0.0
 20
0.0
 30
0.0
1001
AVE_RENDER
1002
{
1070
     2
1000
Raytr Opt
1070
     2
1070
     0
1070
     2
1040
2.0
1040
4.0
1070
     0
1070
     1
1070
     1
1040
0.03
1070
     3
1040
0.03
1002
}
  0
INSERT
  5
C5
100
AcDbEntity
  8
ASHADE
 62
     7
100
AcDbBlockReference
  2
AVE_RENDER
 10
0.0
 20
0.0
 30
0.0
1001
AVE_RENDER
1002
{
1070
     0
1000
RFile Opt
1070
     5
1070
   640
1070
   480
1070
 10000
1070
     3
1070
    32
1070
    24
1070
     0
1070
     0
1070
     0
1070
     1
1070
     0
1070
     0
1070
     0
1002
}
  0
INSERT
  5
C6
100
AcDbEntity
  8
ASHADE
 62
     8
100
AcDbBlockReference
  2
AVE_RENDER
 10
0.0
 20
0.0
 30
0.0
1001
AVE_RENDER
1002
{
1070
     0
1000
Fog Opt
1070
     0
1070
     0
1040
0.0
1040
1.0
1040
0.0
1040
1.0
1010
0.5
1020
0.5
1030
0.5
1002
}
  0
INSERT
  5
C7
100
AcDbEntity
  8
ASHADE
 62
     9
100
AcDbBlockReference
  2
AVE_RENDER
 10
0.0
 20
0.0
 30
0.0
1001
AVE_RENDER
1002
{
1070
     0
1000
BG Opt
1070
     0
1070
     1
1010
0.0
1020
0.0
1030
0.0
1010
1.0
1020
0.0
1030
0.0
1010
0.0
1020
1.0
1030
0.0
1010
0.0
1020
0.0
1030
1.0
1040
0.5
1040
0.33
1040
0.0
1000

1070
     1
1000

1070
     1
1070
     1
1040
1.0
1040
1.0
1040
0.0
1040
0.0
1070
     0
1002
}
  0
INSERT
  5
C8
100
AcDbEntity
  8
ASHADE
 62
     1
100
AcDbBlockReference
  2
AVE_GLOBAL
 10
0.0
 20
0.0
 30
0.0
1001
AVE_MATERIAL
1002
{
1000
*GLOBAL*
1000
1
1000
Finition globale.
1002
{
1002
}
1002
{
1070
    63
1002
{
1002
{
1010
-1.0
1020
-1.0
1030
-1.0
1002
}
1040
0.1
1000

1040
0.0
1002
{
1002
}
1040
0.0
1002
{
1002
}
1040
0.0
1002
}
1002
{
1002
{
1010
-1.0
1020
-1.0
1030
-1.0
1002
}
1040
0.7
1000

1040
0.0
1002
{
1002
}
1040
0.0
1002
{
1002
}
1040
0.0
1002
}
1002
{
1002
{
1010
-1.0
1020
-1.0
1030
-1.0
1002
}
1040
0.2
1000

1040
0.0
1002
{
1002
}
1040
0.0
1002
{
1002
}
1040
0.0
1002
}
1002
{
1070
     0
1002
{
1070
     1
1002
{
1040
1.0
1040
1.0
1000

1040
0.0
1002
{
1002
}
1040
0.0
1002
{
1002
}
1040
0.0
1002
}
1002
}
1040
1.0
1040
0.0
1040
0.0
1002
}
1002
{
1040
1.0
1040
1.0
1000

1040
0.0
1002
{
1002
}
1040
0.0
1002
{
1002
}
1040
0.0
1002
}
1002
{
1040
0.5
1040
1.0
1000

1040
0.0
1002
{
1002
}
1040
0.0
1002
{
1002
}
1040
0.0
1002
}
1002
{
1070
     0
1040
0.0
1002
{
1002
}
1040
1.0
1002
{
1002
}
1040
0.0
1002
}
1002
{
1040
0.0
1002
{
1002
{
1010
0.0
1020
0.0
1030
0.0
1002
}
1040
1.0
1000

1040
0.0
1002
{
1002
}
1040
0.0
1002
{
1002
}
1040
0.0
1002
}
1002
}
1002
{
1002
{
1070
     1
1002
{
1040
0.0
1040
1.0
1000

1040
0.0
1002
{
1002
}
1040
0.0
1002
{
1002
}
1040
0.0
1002
}
1002
}
1040
0.0
1002
{
1002
}
1010
1.0
1020
0.0
1030
0.0
1010
0.0
1020
1.0
1030
0.0
1010
0.0
1020
0.0
1030
1.0
1070
     0
1002
}
1002
{
1002
{
1040
1.0
1040
1.0
1002
{
1070
     1
1002
{
1040
1.0
1040
1.0
1000

1040
0.0
1002
{
1002
}
1040
0.0
1002
{
1002
}
1040
0.0
1002
}
1002
}
1002
}
1070
     0
1040
0.0
1002
{
1002
}
1002
}
1002
{
1002
}
1002
}
1002
{
1071
        3
1070
     3
1070
     0
1002
{
1070
     2
1070
     0
1070
     0
1040
0.0
1002
}
1070
     0
1070
     2
1002
{
1002
}
1002
}
1002
{
1040
8030.0
1040
190.300003
1040
0.305
1040
228.0
1040
545.0
1040
14.0
1040
17.4
1040
0.456
1002
}
1002
}
  0
ENDBLK
  5
CA
100
AcDbEntity
  8
0
100
AcDbBlockEnd
  0
BLOCK
  5
5D5
100
AcDbEntity
  8
0
100
AcDbBlockBegin
  2
*D4
 70
     1
 10
0.0
 20
0.0
 30
0.0
  3
*D4
  1

  0
LINE
  5
5D6
100
AcDbEntity
  8
0
  6
BYBLOCK
 62
     0
100
AcDbLine
 10
90.586733
 20
242.384008
 30
0.0
 11
99.806037
 21
242.384008
 31
0.0
  0
LINE
  5
5D7
100
AcDbEntity
  8
0
  6
BYBLOCK
 62
     0
100
AcDbLine
 10
63.576697
 20
247.383875
 30
0.0
 11
99.806037
 21
247.383875
 31
0.0
  0
LINE
  5
5D8
100
AcDbEntity
  8
0
  6
BYBLOCK
 62
     0
100
AcDbLine
 10
99.626037
 20
239.384008
 30
0.0
 11
99.626037
 21
236.384008
 31
0.0
  0
LINE
  5
5D9
100
AcDbEntity
  8
0
  6
BYBLOCK
 62
     0
100
AcDbLine
 10
99.626037
 20
250.383875
 30
0.0
 11
99.626037
 21
253.383875
 31
0.0
  0
LINE
  5
5DA
100
AcDbEntity
  8
0
  6
BYBLOCK
 62
     0
100
AcDbLine
 10
99.626037
 20
242.384008
 30
0.0
 11
99.626037
 21
247.383875
 31
0.0
  0
SOLID
  5
5DB
100
AcDbEntity
  8
0
  6
BYBLOCK
 62
     0
100
AcDbTrace
 10
99.126037
 20
239.384008
 30
0.0
 11
100.126037
 21
239.384008
 31
0.0
 12
99.626037
 22
242.384008
 32
0.0
 13
99.626037
 23
242.384008
 33
0.0
  0
SOLID
  5
5DC
100
AcDbEntity
  8
0
  6
BYBLOCK
 62
     0
100
AcDbTrace
 10
99.126037
 20
250.383875
 30
0.0
 11
100.126037
 21
250.383875
 31
0.0
 12
99.626037
 22
247.383875
 32
0.0
 13
99.626037
 23
247.383875
 33
0.0
  0
MTEXT
  5
5DD
100
AcDbEntity
  8
0
  6
BYBLOCK
 62
     0
100
AcDbMText
 10
97.376037
 20
244.883942
 30
0.0
 40
2.5
 41
0.0
 71
     5
 72
     1
  1
\A1;5
 11
0.0
 21
1.0
 31
0.0
  0
POINT
  5
5DE
100
AcDbEntity
  8
DEFPOINTS
  6
BYBLOCK
 62
     0
100
AcDbPoint
 10
90.524233
 20
242.384008
 30
0.0
  0
POINT
  5
5DF
100
AcDbEntity
  8
DEFPOINTS
  6
BYBLOCK
 62
     0
100
AcDbPoint
 10
63.514197
 20
247.383875
 30
0.0
  0
POINT
  5
5E0
100
AcDbEntity
  8
DEFPOINTS
  6
BYBLOCK
 62
     0
100
AcDbPoint
 10
99.626037
 20
247.383875
 30
0.0
  0
ENDBLK
  5
5E1
100
AcDbEntity
  8
0
100
AcDbBlockEnd
  0
BLOCK
  5
614
100
AcDbEntity
  8
0
100
AcDbBlockBegin
  2
*D5
 70
     1
 10
0.0
 20
0.0
 30
0.0
  3
*D5
  1

  0
LINE
  5
615
100
AcDbEntity
  8
0
  6
BYBLOCK
 62
     0
100
AcDbLine
 10
86.525167
 20
199.883932
 30
0.0
 11
99.806037
 21
199.883932
 31
0.0
  0
LINE
  5
616
100
AcDbEntity
  8
0
  6
BYBLOCK
 62
     0
100
AcDbLine
 10
90.649233
 20
242.384008
 30
0.0
 11
99.806037
 21
242.384008
 31
0.0
  0
LINE
  5
617
100
AcDbEntity
  8
0
  6
BYBLOCK
 62
     0
100
AcDbLine
 10
99.626037
 20
202.883932
 30
0.0
 11
99.626037
 21
239.384008
 31
0.0
  0
SOLID
  5
618
100
AcDbEntity
  8
0
  6
BYBLOCK
 62
     0
100
AcDbTrace
 10
99.126037
 20
202.883932
 30
0.0
 11
100.126037
 21
202.883932
 31
0.0
 12
99.626037
 22
199.883932
 32
0.0
 13
99.626037
 23
199.883932
 33
0.0
  0
SOLID
  5
619
100
AcDbEntity
  8
0
  6
BYBLOCK
 62
     0
100
AcDbTrace
 10
99.126037
 20
239.384008
 30
0.0
 11
100.126037
 21
239.384008
 31
0.0
 12
99.626037
 22
242.384008
 32
0.0
 13
99.626037
 23
242.384008
 33
0.0
  0
MTEXT
  5
61A
100
AcDbEntity
  8
0
  6
BYBLOCK
 62
     0
100
AcDbMText
 10
97.376037
 20
221.13397
 30
0.0
 40
2.5
 41
0.0
 71
     5
 72
     1
  1
\A1;42
 11
0.0
 21
1.0
 31
0.0
  0
POINT
  5
61B
100
AcDbEntity
  8
DEFPOINTS
  6
BYBLOCK
 62
     0
100
AcDbPoint
 10
86.462667
 20
199.883932
 30
0.0
  0
POINT
  5
61C
100
AcDbEntity
  8
DEFPOINTS
  6
BYBLOCK
 62
     0
100
AcDbPoint
 10
90.586733
 20
242.384008
 30
0.0
  0
POINT
  5
61D
100
AcDbEntity
  8
DEFPOINTS
  6
BYBLOCK
 62
     0
100
AcDbPoint
 10
99.626037
 20
242.384008
 30
0.0
  0
ENDBLK
  5
61E
100
AcDbEntity
  8
0
100
AcDbBlockEnd
  0
BLOCK
  5
594
100
AcDbEntity
  8
0
100
AcDbBlockBegin
  2
*D6
 70
     1
 10
0.0
 20
0.0
 30
0.0
  3
*D6
  1

  0
LINE
  5
595
100
AcDbEntity
  8
0
  6
BYBLOCK
 62
     0
100
AcDbLine
 10
86.525167
 20
164.883829
 30
0.0
 11
99.806037
 21
164.883829
 31
0.0
  0
LINE
  5
596
100
AcDbEntity
  8
0
  6
BYBLOCK
 62
     0
100
AcDbLine
 10
86.525167
 20
199.883932
 30
0.0
 11
99.806037
 21
199.883932
 31
0.0
  0
LINE
  5
597
100
AcDbEntity
  8
0
  6
BYBLOCK
 62
     0
100
AcDbLine
 10
99.626037
 20
167.883829
 30
0.0
 11
99.626037
 21
196.883932
 31
0.0
  0
SOLID
  5
598
100
AcDbEntity
  8
0
  6
BYBLOCK
 62
     0
100
AcDbTrace
 10
99.126037
 20
167.883829
 30
0.0
 11
100.126037
 21
167.883829
 31
0.0
 12
99.626037
 22
164.883829
 32
0.0
 13
99.626037
 23
164.883829
 33
0.0
  0
SOLID
  5
599
100
AcDbEntity
  8
0
  6
BYBLOCK
 62
     0
100
AcDbTrace
 10
99.126037
 20
196.883932
 30
0.0
 11
100.126037
 21
196.883932
 31
0.0
 12
99.626037
 22
199.883932
 32
0.0
 13
99.626037
 23
199.883932
 33
0.0
  0
MTEXT
  5
59A
100
AcDbEntity
  8
0
  6
BYBLOCK
 62
     0
100
AcDbMText
 10
97.376037
 20
182.38388
 30
0.0
 40
2.5
 41
0.0
 71
     5
 72
     1
  1
\A1;35
 11
0.0
 21
1.0
 31
0.0
  0
POINT
  5
59B
100
AcDbEntity
  8
DEFPOINTS
  6
BYBLOCK
 62
     0
100
AcDbPoint
 10
86.462667
 20
164.883829
 30
0.0
  0
POINT
  5
59C
100
AcDbEntity
  8
DEFPOINTS
  6
BYBLOCK
 62
     0
100
AcDbPoint
 10
86.462667
 20
199.883932
 30
0.0
  0
POINT
  5
59D
100
AcDbEntity
  8
DEFPOINTS
  6
BYBLOCK
 62
     0
100
AcDbPoint
 10
99.626037
 20
199.883932
 30
0.0
  0
ENDBLK
  5
59E
100
AcDbEntity
  8
0
100
AcDbBlockEnd
  0
BLOCK
  5
5ED
100
AcDbEntity
  8
0
100
AcDbBlockBegin
  2
*D7
 70
     1
 10
0.0
 20
0.0
 30
0.0
  3
*D7
  1

  0
LINE
  5
5EE
100
AcDbEntity
  8
0
  6
BYBLOCK
 62
     0
100
AcDbLine
 10
90.524233
 20
110.084073
 30
0.0
 11
111.223838
 21
110.084073
 31
0.0
  0
LINE
  5
5EF
100
AcDbEntity
  8
0
  6
BYBLOCK
 62
     0
100
AcDbLine
 10
99.688537
 20
247.383875
 30
0.0
 11
111.223838
 21
247.383875
 31
0.0
  0
LINE
  5
5F0
100
AcDbEntity
  8
0
  6
BYBLOCK
 62
     0
100
AcDbLine
 10
111.043838
 20
113.084073
 30
0.0
 11
111.043838
 21
244.383875
 31
0.0
  0
SOLID
  5
5F1
100
AcDbEntity
  8
0
  6
BYBLOCK
 62
     0
100
AcDbTrace
 10
110.543838
 20
113.084073
 30
0.0
 11
111.543838
 21
113.084073
 31
0.0
 12
111.043838
 22
110.084073
 32
0.0
 13
111.043838
 23
110.084073
 33
0.0
  0
SOLID
  5
5F2
100
AcDbEntity
  8
0
  6
BYBLOCK
 62
     0
100
AcDbTrace
 10
110.543838
 20
244.383875
 30
0.0
 11
111.543838
 21
244.383875
 31
0.0
 12
111.043838
 22
247.383875
 32
0.0
 13
111.043838
 23
247.383875
 33
0.0
  0
MTEXT
  5
5F3
100
AcDbEntity
  8
0
  6
BYBLOCK
 62
     0
100
AcDbMText
 10
108.793838
 20
178.733974
 30
0.0
 40
2.5
 41
0.0
 71
     5
 72
     1
  1
\A1;137.3
 11
0.0
 21
1.0
 31
0.0
  0
POINT
  5
5F4
100
AcDbEntity
  8
DEFPOINTS
  6
BYBLOCK
 62
     0
100
AcDbPoint
 10
90.461733
 20
110.084073
 30
0.0
  0
POINT
  5
5F5
100
AcDbEntity
  8
DEFPOINTS
  6
BYBLOCK
 62
     0
100
AcDbPoint
 10
99.626037
 20
247.383875
 30
0.0
  0
POINT
  5
5F6
100
AcDbEntity
  8
DEFPOINTS
  6
BYBLOCK
 62
     0
100
AcDbPoint
 10
111.043838
 20
247.383875
 30
0.0
  0
ENDBLK
  5
5F7
100
AcDbEntity
  8
0
100
AcDbBlockEnd
  0
BLOCK
  5
605
100
AcDbEntity
  8
0
100
AcDbBlockBegin
  2
*D9
 70
     1
 10
0.0
 20
0.0
 30
0.0
  3
*D9
  1

  0
LINE
  5
606
100
AcDbEntity
  8
0
  6
BYBLOCK
 62
     0
100
AcDbLine
 10
43.283907
 20
110.021573
 30
0.0
 11
43.283907
 21
100.188929
 31
0.0
  0
LINE
  5
607
100
AcDbEntity
  8
0
  6
BYBLOCK
 62
     0
100
AcDbLine
 10
90.461733
 20
117.171073
 30
0.0
 11
90.461733
 21
100.188929
 31
0.0
  0
LINE
  5
608
100
AcDbEntity
  8
0
  6
BYBLOCK
 62
     0
100
AcDbLine
 10
46.283907
 20
100.368929
 30
0.0
 11
87.461733
 21
100.368929
 31
0.0
  0
SOLID
  5
609
100
AcDbEntity
  8
0
  6
BYBLOCK
 62
     0
100
AcDbTrace
 10
46.283907
 20
100.868929
 30
0.0
 11
46.283907
 21
99.868929
 31
0.0
 12
43.283907
 22
100.368929
 32
0.0
 13
43.283907
 23
100.368929
 33
0.0
  0
SOLID
  5
60A
100
AcDbEntity
  8
0
  6
BYBLOCK
 62
     0
100
AcDbTrace
 10
87.461733
 20
100.868929
 30
0.0
 11
87.461733
 21
99.868929
 31
0.0
 12
90.461733
 22
100.368929
 32
0.0
 13
90.461733
 23
100.368929
 33
0.0
  0
MTEXT
  5
60B
100
AcDbEntity
  8
0
  6
BYBLOCK
 62
     0
100
AcDbMText
 10
66.87282
 20
102.618929
 30
0.0
 40
2.5
 41
0.0
 71
     5
 72
     1
  1
\A1;47
  0
POINT
  5
60C
100
AcDbEntity
  8
DEFPOINTS
  6
BYBLOCK
 62
     0
100
AcDbPoint
 10
43.283907
 20
110.084073
 30
0.0
  0
POINT
  5
60D
100
AcDbEntity
  8
DEFPOINTS
  6
BYBLOCK
 62
     0
100
AcDbPoint
 10
90.461733
 20
117.233573
 30
0.0
  0
POINT
  5
60E
100
AcDbEntity
  8
DEFPOINTS
  6
BYBLOCK
 62
     0
100
AcDbPoint
 10
90.461733
 20
100.368929
 30
0.0
  0
ENDBLK
  5
60F
100
AcDbEntity
  8
0
100
AcDbBlockEnd
  0
ENDSEC
  0
SECTION
  2
ENTITIES
  0
INSERT
  5
CC
100
AcDbEntity
  8
0
100
AcDbBlockReference
  2
SCH_IS
 10
-68.718396
 20
-140.042541
 30
0.0
  0
INSERT
  5
EC
100
AcDbEntity
  8
COTATION1
100
AcDbBlockReference
  2
SCH_IS
 10
0.0
 20
0.0
 30
0.0
  0
POLYLINE
  5
3D3
100
AcDbEntity
  8
ALPHA
 62
     7
100
AcDb2dPolyline
 66
     1
 10
0.0
 20
0.0
 30
0.0
  0
VERTEX
  5
3D4
100
AcDbEntity
  8
ALPHA
 62
     7
100
AcDbVertex
100
AcDb2dVertex
 10
90.461733
 20
163.330435
 30
0.0
  0
VERTEX
  5
3D5
100
AcDbEntity
  8
ALPHA
 62
     7
100
AcDbVertex
100
AcDb2dVertex
 10
90.461733
 20
110.084073
 30
0.0
  0
VERTEX
  5
3D6
100
AcDbEntity
  8
ALPHA
 62
     7
100
AcDbVertex
100
AcDb2dVertex
 10
43.283907
 20
110.084073
 30
0.0
  0
VERTEX
  5
3D7
100
AcDbEntity
  8
ALPHA
 62
     7
100
AcDbVertex
100
AcDb2dVertex
 10
43.283907
 20
122.383753
 30
0.0
  0
SEQEND
  5
3D8
100
AcDbEntity
  8
ALPHA
 62
     7
  0
POLYLINE
  5
3D9
100
AcDbEntity
  8
ALPHA
 62
     7
100
AcDb2dPolyline
 66
     1
 10
0.0
 20
0.0
 30
0.0
  0
VERTEX
  5
3DA
100
AcDbEntity
  8
ALPHA
 62
     7
100
AcDbVertex
100
AcDb2dVertex
 10
65.626729
 20
126.554386
 30
0.0
  0
VERTEX
  5
3DB
100
AcDbEntity
  8
ALPHA
 62
     7
100
AcDbVertex
100
AcDb2dVertex
 10
43.283907
 20
126.554386
 30
0.0
  0
VERTEX
  5
3DC
100
AcDbEntity
  8
ALPHA
 62
     7
100
AcDbVertex
100
AcDb2dVertex
 10
43.283907
 20
122.384097
 30
0.0
  0
SEQEND
  5
3DD
100
AcDbEntity
  8
ALPHA
 62
     7
  0
POLYLINE
  5
3DE
100
AcDbEntity
  8
ALPHA
 62
     7
100
AcDb2dPolyline
 66
     1
 10
0.0
 20
0.0
 30
0.0
  0
VERTEX
  5
3DF
100
AcDbEntity
  8
ALPHA
 62
     7
100
AcDbVertex
100
AcDb2dVertex
 10
60.922796
 20
123.384553
 30
0.0
  0
VERTEX
  5
3E0
100
AcDbEntity
  8
ALPHA
 62
     7
100
AcDbVertex
100
AcDb2dVertex
 10
60.922796
 20
124.266498
 30
0.0
  0
VERTEX
  5
3E1
100
AcDbEntity
  8
ALPHA
 62
     7
100
AcDbVertex
100
AcDb2dVertex
 10
55.45474
 20
124.266498
 30
0.0
  0
VERTEX
  5
3E2
100
AcDbEntity
  8
ALPHA
 62
     7
100
AcDbVertex
100
AcDb2dVertex
 10
55.45474
 20
123.384553
 30
0.0
  0
SEQEND
  5
3E3
100
AcDbEntity
  8
ALPHA
 62
     7
  0
LINE
  5
400
100
AcDbEntity
  8
ALPHA
 62
     7
100
AcDbLine
 10
43.283907
 20
123.384553
 30
0.0
 11
46.487846
 21
123.384553
 31
0.0
  0
POLYLINE
  5
40D
100
AcDbEntity
  8
ALPHA
 62
     7
100
AcDb2dPolyline
 66
     1
 10
0.0
 20
0.0
 30
0.0
  0
VERTEX
  5
40E
100
AcDbEntity
  8
ALPHA
 62
     7
100
AcDbVertex
100
AcDb2dVertex
 10
51.955901
 20
123.384553
 30
0.0
  0
VERTEX
  5
40F
100
AcDbEntity
  8
ALPHA
 62
     7
100
AcDbVertex
100
AcDb2dVertex
 10
51.955901
 20
124.266498
 30
0.0
  0
VERTEX
  5
410
100
AcDbEntity
  8
ALPHA
 62
     7
100
AcDbVertex
100
AcDb2dVertex
 10
46.487846
 20
124.266498
 30
0.0
  0
VERTEX
  5
411
100
AcDbEntity
  8
ALPHA
 62
     7
100
AcDbVertex
100
AcDb2dVertex
 10
46.487846
 20
123.384553
 30
0.0
  0
SEQEND
  5
412
100
AcDbEntity
  8
ALPHA
 62
     7
  0
LINE
  5
413
100
AcDbEntity
  8
ALPHA
 62
     7
100
AcDbLine
 10
51.955901
 20
123.384553
 30
0.0
 11
55.45474
 21
123.384553
 31
0.0
  0
POLYLINE
  5
43C
100
AcDbEntity
  8
ALPHA
 62
     7
100
AcDb2dPolyline
 66
     1
 10
0.0
 20
0.0
 30
0.0
  0
VERTEX
  5
43D
100
AcDbEntity
  8
ALPHA
 62
     7
100
AcDbVertex
100
AcDb2dVertex
 10
65.626729
 20
126.554386
 30
0.0
  0
VERTEX
  5
43E
100
AcDbEntity
  8
ALPHA
 62
     7
100
AcDbVertex
100
AcDb2dVertex
 10
68.978118
 20
142.429386
 30
0.0
  0
VERTEX
  5
43F
100
AcDbEntity
  8
ALPHA
 62
     7
100
AcDbVertex
100
AcDb2dVertex
 10
71.094785
 20
159.18633
 30
0.0
  0
VERTEX
  5
440
100
AcDbEntity
  8
ALPHA
 62
     7
100
AcDbVertex
100
AcDb2dVertex
 10
72.153118
 20
182.38388
 30
0.0
  0
SEQEND
  5
441
100
AcDbEntity
  8
ALPHA
 62
     7
  0
SPLINE
  5
442
100
AcDbEntity
  8
ALPHA
 62
     7
100
AcDbSpline
210
0.0
220
0.0
230
1.0
 70
     8
 71
     3
 72
    14
 73
    10
 74
     0
 42
0.0000001
 43
0.0000001
 40
0.0
 40
0.0
 40
0.0
 40
0.0
 40
1.0
 40
1.0
 40
1.0
 40
2.0
 40
2.0
 40
2.0
 40
3.0
 40
3.0
 40
3.0
 40
3.0
 10
85.62895352948192
 20
176.020100093295
 30
0.0
 10
87.17649042184303
 20
176.020100093295
 30
0.0
 10
88.43050517878745
 20
177.6940719899964
 30
0.0
 10
88.43050517878745
 20
179.7590622243714
 30
0.0
 10
88.43050517878745
 20
179.7590622243714
 30
0.0
 10
88.43050517878745
 20
185.0086987261075
 30
0.0
 10
88.43050517878745
 20
185.0086987261075
 30
0.0
 10
88.43050517878745
 20
187.0736889604825
 30
0.0
 10
87.17649042184303
 20
188.7476608571839
 30
0.0
 10
85.62895352948192
 20
188.7476608571839
 30
0.0
  0
LINE
  5
443
100
AcDbEntity
  8
ALPHA
 62
     7
100
AcDbLine
 10
85.165933
 20
188.280161
 30
0.0
 11
85.165933
 21
176.4876
 31
0.0
  0
POLYLINE
  5
444
100
AcDbEntity
  8
ALPHA
 62
     7
100
AcDb2dPolyline
 66
     1
 10
0.0
 20
0.0
 30
0.0
  0
VERTEX
  5
445
100
AcDbEntity
  8
ALPHA
 62
     7
100
AcDbVertex
100
AcDb2dVertex
 10
84.022161
 20
164.883829
 30
0.0
  0
VERTEX
  5
446
100
AcDbEntity
  8
ALPHA
 62
     7
100
AcDbVertex
100
AcDb2dVertex
 10
84.022161
 20
172.293196
 30
0.0
  0
VERTEX
  5
447
100
AcDbEntity
  8
ALPHA
 62
     7
100
AcDbVertex
100
AcDb2dVertex
 10
89.589435
 20
177.86047
 30
0.0
  0
VERTEX
  5
448
100
AcDbEntity
  8
ALPHA
 62
     7
100
AcDbVertex
100
AcDb2dVertex
 10
89.589435
 20
186.907291
 30
0.0
  0
VERTEX
  5
449
100
AcDbEntity
  8
ALPHA
 62
     7
100
AcDbVertex
100
AcDb2dVertex
 10
84.022161
 20
192.474565
 30
0.0
  0
VERTEX
  5
44A
100
AcDbEntity
  8
ALPHA
 62
     7
100
AcDbVertex
100
AcDb2dVertex
 10
84.022161
 20
199.883932
 30
0.0
  0
SEQEND
  5
44B
100
AcDbEntity
  8
ALPHA
 62
     7
  0
LINE
  5
44C
100
AcDbEntity
  8
ALPHA
 62
     7
100
AcDbLine
 10
82.115645
 20
179.114485
 30
0.0
 11
82.115645
 21
176.750116
 31
0.0
  0
LINE
  5
44D
100
AcDbEntity
  8
ALPHA
 62
     7
100
AcDbLine
 10
83.793407
 20
176.750116
 30
0.0
 11
83.793407
 21
179.114485
 31
0.0
  0
POLYLINE
  5
44E
100
AcDbEntity
  8
ALPHA
 62
     7
100
AcDb2dPolyline
 66
     1
 10
0.0
 20
0.0
 30
0.0
  0
VERTEX
  5
44F
100
AcDbEntity
  8
ALPHA
 62
     7
100
AcDbVertex
100
AcDb2dVertex
 10
78.912395
 20
182.38388
 30
0.0
  0
VERTEX
  5
450
100
AcDbEntity
  8
ALPHA
 62
     7
100
AcDbVertex
100
AcDb2dVertex
 10
79.67514
 20
171.749215
 30
0.0
  0
VERTEX
  5
451
100
AcDbEntity
  8
ALPHA
 62
     7
100
AcDbVertex
100
AcDb2dVertex
 10
80.437884
 20
164.883829
 30
0.0
  0
VERTEX
  5
452
100
AcDbEntity
  8
ALPHA
 62
     7
100
AcDbVertex
100
AcDb2dVertex
 10
86.462667
 20
164.883829
 30
0.0
  0
VERTEX
  5
453
100
AcDbEntity
  8
ALPHA
 62
     7
100
AcDbVertex
100
AcDb2dVertex
 10
90.461733
 20
163.330435
 30
0.0
  0
SEQEND
  5
454
100
AcDbEntity
  8
ALPHA
 62
     7
  0
LINE
  5
455
100
AcDbEntity
  8
ALPHA
 62
     7
100
AcDbLine
 10
72.153118
 20
182.38388
 30
0.0
 11
71.815499
 21
174.979681
 31
0.0
  0
LINE
  5
456
100
AcDbEntity
  8
ALPHA
 62
     7
100
AcDbLine
 10
88.978964
 20
154.431754
 30
0.0
 11
73.048843
 21
154.431754
 31
0.0
  0
LINE
  5
457
100
AcDbEntity
  8
ALPHA
 62
     7
100
AcDbLine
 10
88.978964
 20
148.351849
 30
0.0
 11
71.125791
 21
148.351849
 31
0.0
  0
LINE
  5
458
100
AcDbEntity
  8
ALPHA
 62
     7
100
AcDbLine
 10
88.978964
 20
153.13502
 30
0.0
 11
73.126013
 21
153.13502
 31
0.0
  0
LINE
  5
459
100
AcDbEntity
  8
ALPHA
 62
     7
100
AcDbLine
 10
88.978964
 20
142.39459
 30
0.0
 11
70.506362
 21
142.39459
 31
0.0
  0
LINE
  5
45A
100
AcDbEntity
  8
ALPHA
 62
     7
100
AcDbLine
 10
88.978964
 20
146.902842
 30
0.0
 11
71.00659
 21
146.902842
 31
0.0
  0
LINE
  5
45B
100
AcDbEntity
  8
ALPHA
 62
     7
100
AcDbLine
 10
88.978964
 20
136.477294
 30
0.0
 11
69.506596
 21
136.477294
 31
0.0
  0
LINE
  5
45C
100
AcDbEntity
  8
ALPHA
 62
     7
100
AcDbLine
 10
88.978964
 20
141.022064
 30
0.0
 11
70.006824
 21
141.022064
 31
0.0
  0
LINE
  5
45D
100
AcDbEntity
  8
ALPHA
 62
     7
100
AcDbLine
 10
88.978964
 20
130.484206
 30
0.0
 11
68.46411
 21
130.484206
 31
0.0
  0
LINE
  5
45E
100
AcDbEntity
  8
ALPHA
 62
     7
100
AcDbLine
 10
88.978964
 20
135.028631
 30
0.0
 11
68.964338
 21
135.028631
 31
0.0
  0
LINE
  5
45F
100
AcDbEntity
  8
ALPHA
 62
     7
100
AcDbLine
 10
88.978964
 20
129.263953
 30
0.0
 11
66.229621
 21
129.263953
 31
0.0
  0
POLYLINE
  5
460
100
AcDbEntity
  8
ALPHA
 62
     7
100
AcDb2dPolyline
 66
     1
 10
0.0
 20
0.0
 30
0.0
  0
VERTEX
  5
461
100
AcDbEntity
  8
ALPHA
 62
     7
100
AcDbVertex
100
AcDb2dVertex
 10
78.855896
 20
123.384553
 30
0.0
  0
VERTEX
  5
462
100
AcDbEntity
  8
ALPHA
 62
     7
100
AcDbVertex
100
AcDb2dVertex
 10
78.855896
 20
124.266498
 30
0.0
  0
VERTEX
  5
463
100
AcDbEntity
  8
ALPHA
 62
     7
100
AcDbVertex
100
AcDb2dVertex
 10
73.38784
 20
124.266498
 30
0.0
  0
VERTEX
  5
464
100
AcDbEntity
  8
ALPHA
 62
     7
100
AcDbVertex
100
AcDb2dVertex
 10
73.38784
 20
123.384553
 30
0.0
  0
SEQEND
  5
465
100
AcDbEntity
  8
ALPHA
 62
     7
  0
POLYLINE
  5
466
100
AcDbEntity
  8
ALPHA
 62
     7
100
AcDb2dPolyline
 66
     1
 10
0.0
 20
0.0
 30
0.0
  0
VERTEX
  5
467
100
AcDbEntity
  8
ALPHA
 62
     7
100
AcDbVertex
100
AcDb2dVertex
 10
69.889001
 20
123.384553
 30
0.0
  0
VERTEX
  5
468
100
AcDbEntity
  8
ALPHA
 62
     7
100
AcDbVertex
100
AcDb2dVertex
 10
69.889001
 20
124.266498
 30
0.0
  0
VERTEX
  5
469
100
AcDbEntity
  8
ALPHA
 62
     7
100
AcDbVertex
100
AcDb2dVertex
 10
64.420946
 20
124.266498
 30
0.0
  0
VERTEX
  5
46A
100
AcDbEntity
  8
ALPHA
 62
     7
100
AcDbVertex
100
AcDb2dVertex
 10
64.420946
 20
123.384553
 30
0.0
  0
SEQEND
  5
46B
100
AcDbEntity
  8
ALPHA
 62
     7
  0
LINE
  5
46C
100
AcDbEntity
  8
ALPHA
 62
     7
100
AcDbLine
 10
60.922796
 20
123.384553
 30
0.0
 11
64.420946
 21
123.384553
 31
0.0
  0
LINE
  5
46D
100
AcDbEntity
  8
ALPHA
 62
     7
100
AcDbLine
 10
65.626729
 20
126.554386
 30
0.0
 11
66.229621
 21
129.263953
 31
0.0
  0
LINE
  5
46E
100
AcDbEntity
  8
ALPHA
 62
     7
100
AcDbLine
 10
69.889001
 20
123.384553
 30
0.0
 11
73.38784
 21
123.384553
 31
0.0
  0
LINE
  5
46F
100
AcDbEntity
  8
ALPHA
 62
     7
100
AcDbLine
 10
66.59549
 20
131.142219
 30
0.0
 11
68.46411
 21
130.484206
 31
0.0
  0
LINE
  5
470
100
AcDbEntity
  8
ALPHA
 62
     7
100
AcDbLine
 10
67.278308
 20
134.378542
 30
0.0
 11
68.964338
 21
135.028631
 31
0.0
  0
LINE
  5
471
100
AcDbEntity
  8
ALPHA
 62
     7
100
AcDbLine
 10
66.59549
 20
131.142219
 30
0.0
 11
67.278308
 21
134.378542
 31
0.0
  0
POLYLINE
  5
472
100
AcDbEntity
  8
ALPHA
 62
     7
100
AcDb2dPolyline
 66
     1
 10
0.0
 20
0.0
 30
0.0
  0
VERTEX
  5
473
100
AcDbEntity
  8
ALPHA
 62
     7
100
AcDbVertex
100
AcDb2dVertex
 10
71.293222
 20
163.540242
 30
0.0
  0
VERTEX
  5
474
100
AcDbEntity
  8
ALPHA
 62
     7
100
AcDbVertex
100
AcDb2dVertex
 10
71.094785
 20
159.18633
 30
0.0
  0
VERTEX
  5
475
100
AcDbEntity
  8
ALPHA
 62
     7
100
AcDbVertex
100
AcDb2dVertex
 10
70.576642
 20
155.085977
 30
0.0
  0
SEQEND
  5
476
100
AcDbEntity
  8
ALPHA
 62
     7
  0
LINE
  5
477
100
AcDbEntity
  8
ALPHA
 62
     7
100
AcDbLine
 10
73.048843
 20
154.431754
 30
0.0
 11
70.576642
 21
155.085977
 31
0.0
  0
LINE
  5
478
100
AcDbEntity
  8
ALPHA
 62
     7
100
AcDbLine
 10
73.126013
 20
153.13502
 30
0.0
 11
70.233511
 21
152.36952
 31
0.0
  0
LINE
  5
479
100
AcDbEntity
  8
ALPHA
 62
     7
100
AcDbLine
 10
69.468011
 20
146.309597
 30
0.0
 11
71.00659
 21
146.902842
 31
0.0
  0
LINE
  5
47A
100
AcDbEntity
  8
ALPHA
 62
     7
100
AcDbLine
 10
69.044953
 20
142.958208
 30
0.0
 11
70.506362
 21
142.39459
 31
0.0
  0
LINE
  5
47B
100
AcDbEntity
  8
ALPHA
 62
     7
100
AcDbLine
 10
67.856395
 20
137.113948
 30
0.0
 11
69.506596
 21
136.477294
 31
0.0
  0
LINE
  5
47C
100
AcDbEntity
  8
ALPHA
 62
     7
100
AcDbLine
 10
68.563329
 20
140.465337
 30
0.0
 11
70.006824
 21
141.022064
 31
0.0
  0
LINE
  5
47D
100
AcDbEntity
  8
ALPHA
 62
     7
100
AcDbLine
 10
69.044953
 20
142.958208
 30
0.0
 11
69.468011
 21
146.309597
 31
0.0
  0
LINE
  5
47E
100
AcDbEntity
  8
ALPHA
 62
     7
100
AcDbLine
 10
67.856395
 20
137.113948
 30
0.0
 11
68.563329
 21
140.465337
 31
0.0
  0
LINE
  5
47F
100
AcDbEntity
  8
ALPHA
 62
     7
100
AcDbLine
 10
69.798051
 20
148.918223
 30
0.0
 11
70.233511
 21
152.36952
 31
0.0
  0
LINE
  5
480
100
AcDbEntity
  8
ALPHA
 62
     7
100
AcDbLine
 10
69.798051
 20
148.918223
 30
0.0
 11
71.125791
 21
148.351849
 31
0.0
  0
POLYLINE
  5
481
100
AcDbEntity
  8
ALPHA
 62
     7
100
AcDb2dPolyline
 66
     1
 10
0.0
 20
0.0
 30
0.0
  0
VERTEX
  5
482
100
AcDbEntity
  8
ALPHA
 62
     7
100
AcDbVertex
100
AcDb2dVertex
 10
71.610171
 20
170.480042
 30
0.0
  0
VERTEX
  5
483
100
AcDbEntity
  8
ALPHA
 62
     7
100
AcDbVertex
100
AcDb2dVertex
 10
75.328118
 20
170.480042
 30
0.0
  0
VERTEX
  5
484
100
AcDbEntity
  8
ALPHA
 62
     7
100
AcDbVertex
100
AcDb2dVertex
 10
75.328118
 20
174.979681
 30
0.0
  0
VERTEX
  5
485
100
AcDbEntity
  8
ALPHA
 62
     7
100
AcDbVertex
100
AcDb2dVertex
 10
71.815499
 20
174.979681
 30
0.0
  0
SEQEND
  5
486
100
AcDbEntity
  8
ALPHA
 62
     7
  0
POLYLINE
  5
487
100
AcDbEntity
  8
ALPHA
 62
     7
100
AcDb2dPolyline
 66
     1
 10
0.0
 20
0.0
 30
0.0
  0
VERTEX
  5
488
100
AcDbEntity
  8
ALPHA
 62
     7
100
AcDbVertex
100
AcDb2dVertex
 10
71.293222
 20
163.540242
 30
0.0
  0
VERTEX
  5
489
100
AcDbEntity
  8
ALPHA
 62
     7
100
AcDbVertex
100
AcDb2dVertex
 10
75.328118
 20
163.540242
 30
0.0
  0
VERTEX
  5
48A
100
AcDbEntity
  8
ALPHA
 62
     7
100
AcDbVertex
100
AcDb2dVertex
 10
75.328118
 20
168.039881
 30
0.0
  0
VERTEX
  5
48B
100
AcDbEntity
  8
ALPHA
 62
     7
100
AcDbVertex
100
AcDb2dVertex
 10
71.49855
 20
168.039881
 30
0.0
  0
SEQEND
  5
48C
100
AcDbEntity
  8
ALPHA
 62
     7
  0
LINE
  5
48D
100
AcDbEntity
  8
ALPHA
 62
     7
100
AcDbLine
 10
71.293222
 20
163.540242
 30
0.0
 11
71.49855
 21
168.039881
 31
0.0
  0
LINE
  5
48E
100
AcDbEntity
  8
ALPHA
 62
     7
100
AcDbLine
 10
71.610171
 20
170.480042
 30
0.0
 11
71.815499
 21
174.979681
 31
0.0
  0
LINE
  5
48F
100
AcDbEntity
  8
ALPHA
 62
     7
100
AcDbLine
 10
71.610171
 20
170.480042
 30
0.0
 11
71.49855
 21
168.039881
 31
0.0
  0
POLYLINE
  5
490
100
AcDbEntity
  8
ALPHA
 62
     7
100
AcDb2dPolyline
 66
     1
 10
0.0
 20
0.0
 30
0.0
 70
     1
  0
VERTEX
  5
491
100
AcDbEntity
  8
ALPHA
 62
     7
100
AcDbVertex
100
AcDb2dVertex
 10
88.915575
 20
127.911409
 30
0.0
  0
VERTEX
  5
492
100
AcDbEntity
  8
ALPHA
 62
     7
100
AcDbVertex
100
AcDb2dVertex
 10
87.557518
 20
127.911409
 30
0.0
  0
VERTEX
  5
493
100
AcDbEntity
  8
ALPHA
 62
     7
100
AcDbVertex
100
AcDb2dVertex
 10
87.557518
 20
125.265575
 30
0.0
  0
VERTEX
  5
494
100
AcDbEntity
  8
ALPHA
 62
     7
100
AcDbVertex
100
AcDb2dVertex
 10
88.915575
 20
125.265575
 30
0.0
  0
SEQEND
  5
495
100
AcDbEntity
  8
ALPHA
 62
     7
  0
LINE
  5
496
100
AcDbEntity
  8
ALPHA
 62
     7
100
AcDbLine
 10
87.82279
 20
123.384553
 30
0.0
 11
90.461733
 21
123.384553
 31
0.0
  0
POLYLINE
  5
497
100
AcDbEntity
  8
ALPHA
 62
     7
100
AcDb2dPolyline
 66
     1
 10
0.0
 20
0.0
 30
0.0
  0
VERTEX
  5
498
100
AcDbEntity
  8
ALPHA
 62
     7
100
AcDbVertex
100
AcDb2dVertex
 10
87.82279
 20
123.384553
 30
0.0
  0
VERTEX
  5
499
100
AcDbEntity
  8
ALPHA
 62
     7
100
AcDbVertex
100
AcDb2dVertex
 10
87.82279
 20
124.266498
 30
0.0
  0
VERTEX
  5
49A
100
AcDbEntity
  8
ALPHA
 62
     7
100
AcDbVertex
100
AcDb2dVertex
 10
82.354735
 20
124.266498
 30
0.0
  0
VERTEX
  5
49B
100
AcDbEntity
  8
ALPHA
 62
     7
100
AcDbVertex
100
AcDb2dVertex
 10
82.354735
 20
123.384553
 30
0.0
  0
SEQEND
  5
49C
100
AcDbEntity
  8
ALPHA
 62
     7
  0
LINE
  5
49D
100
AcDbEntity
  8
ALPHA
 62
     7
100
AcDbLine
 10
78.855896
 20
123.384553
 30
0.0
 11
82.354735
 21
123.384553
 31
0.0
  0
LINE
  5
49E
100
AcDbEntity
  8
ALPHA
 62
     7
100
AcDbLine
 10
88.978964
 20
129.263953
 30
0.0
 11
90.461733
 21
128.806444
 31
0.0
  0
LINE
  5
49F
100
AcDbEntity
  8
ALPHA
 62
     7
100
AcDbLine
 10
88.978964
 20
130.484206
 30
0.0
 11
90.461733
 21
130.941715
 31
0.0
  0
LINE
  5
4A0
100
AcDbEntity
  8
ALPHA
 62
     7
100
AcDbLine
 10
88.978964
 20
135.028631
 30
0.0
 11
90.461733
 21
134.570778
 31
0.0
  0
POLYLINE
  5
4A1
100
AcDbEntity
  8
ALPHA
 62
     7
100
AcDb2dPolyline
 66
     1
 10
0.0
 20
0.0
 30
0.0
 70
     1
  0
VERTEX
  5
4A2
100
AcDbEntity
  8
ALPHA
 62
     7
100
AcDbVertex
100
AcDb2dVertex
 10
88.915575
 20
161.746725
 30
0.0
  0
VERTEX
  5
4A3
100
AcDbEntity
  8
ALPHA
 62
     7
100
AcDbVertex
100
AcDb2dVertex
 10
87.557518
 20
161.746725
 30
0.0
  0
VERTEX
  5
4A4
100
AcDbEntity
  8
ALPHA
 62
     7
100
AcDbVertex
100
AcDb2dVertex
 10
87.557518
 20
159.100892
 30
0.0
  0
VERTEX
  5
4A5
100
AcDbEntity
  8
ALPHA
 62
     7
100
AcDbVertex
100
AcDb2dVertex
 10
88.915575
 20
159.100892
 30
0.0
  0
SEQEND
  5
4A6
100
AcDbEntity
  8
ALPHA
 62
     7
  0
SPLINE
  5
4A7
100
AcDbEntity
  8
ALPHA
 62
     7
100
AcDbSpline
210
0.0
220
0.0
230
1.0
 70
     8
 71
     3
 72
    11
 73
     7
 74
     0
 42
0.0000001
 43
0.0000001
 40
0.0
 40
0.0
 40
0.0
 40
0.0
 40
1.0
 40
1.0
 40
1.0
 40
2.0
 40
2.0
 40
2.0
 40
2.0
 10
82.11564515274579
 20
176.750115826802
 30
0.0
 10
82.11564515274579
 20
176.28675048392
 30
0.0
 10
82.49116056073191
 20
175.9112350759339
 30
0.0
 10
82.95418139406525
 20
175.9112350759339
 30
0.0
 10
83.41789124649579
 20
175.9112350759339
 30
0.0
 10
83.79340665448191
 20
176.28675048392
 30
0.0
 10
83.79340665448191
 20
176.750115826802
 30
0.0
  0
SPLINE
  5
4A8
100
AcDbEntity
  8
ALPHA
 62
     7
100
AcDbSpline
210
0.0
220
0.0
230
1.0
 70
     8
 71
     3
 72
     8
 73
     4
 74
     0
 42
0.0000001
 43
0.0000001
 40
0.0
 40
0.0
 40
0.0
 40
0.0
 40
1.0
 40
1.0
 40
1.0
 40
1.0
 10
85.16593269614856
 20
176.4875995507603
 30
0.0
 10
85.16593269614856
 20
176.2319734656908
 30
0.0
 10
85.37332744441247
 20
176.024578717427
 30
0.0
 10
85.62895352948192
 20
176.024578717427
 30
0.0
  0
LINE
  5
4A9
100
AcDbEntity
  8
ALPHA
 62
     7
100
AcDbLine
 10
88.978964
 20
146.902842
 30
0.0
 11
90.461733
 21
146.444989
 31
0.0
  0
LINE
  5
4AA
100
AcDbEntity
  8
ALPHA
 62
     7
100
AcDbLine
 10
88.978964
 20
136.477294
 30
0.0
 11
90.461733
 21
136.935147
 31
0.0
  0
LINE
  5
4AB
100
AcDbEntity
  8
ALPHA
 62
     7
100
AcDbLine
 10
88.978964
 20
141.022064
 30
0.0
 11
90.461733
 21
140.564211
 31
0.0
  0
LINE
  5
4AC
100
AcDbEntity
  8
ALPHA
 62
     7
100
AcDbLine
 10
88.978964
 20
142.39459
 30
0.0
 11
90.461733
 21
142.852099
 31
0.0
  0
LINE
  5
4AD
100
AcDbEntity
  8
ALPHA
 62
     7
100
AcDbLine
 10
88.978964
 20
148.351849
 30
0.0
 11
90.461733
 21
148.809358
 31
0.0
  0
LINE
  5
4AE
100
AcDbEntity
  8
ALPHA
 62
     7
100
AcDbLine
 10
88.978964
 20
154.431754
 30
0.0
 11
90.461733
 21
154.889262
 31
0.0
  0
LINE
  5
4AF
100
AcDbEntity
  8
ALPHA
 62
     7
100
AcDbLine
 10
88.978964
 20
153.13502
 30
0.0
 11
90.461733
 21
152.677511
 31
0.0
  0
POLYLINE
  5
4B0
100
AcDbEntity
  8
ALPHA
 62
     7
100
AcDb2dPolyline
 66
     1
 10
0.0
 20
0.0
 30
0.0
  0
VERTEX
  5
4B1
100
AcDbEntity
  8
ALPHA
 62
     7
100
AcDbVertex
100
AcDb2dVertex
 10
90.461733
 20
201.437326
 30
0.0
  0
VERTEX
  5
4B2
100
AcDbEntity
  8
ALPHA
 62
     7
100
AcDbVertex
100
AcDb2dVertex
 10
90.461733
 20
242.384008
 30
0.0
  0
VERTEX
  5
4B3
100
AcDbEntity
  8
ALPHA
 62
     7
100
AcDbVertex
100
AcDb2dVertex
 10
60.922796
 20
242.384008
 30
0.0
  0
SEQEND
  5
4B4
100
AcDbEntity
  8
ALPHA
 62
     7
  0
LINE
  5
4B5
100
AcDbEntity
  8
ALPHA
 62
     7
100
AcDbLine
 10
88.978964
 20
210.701532
 30
0.0
 11
70.448485
 21
210.701532
 31
0.0
  0
LINE
  5
4B6
100
AcDbEntity
  8
ALPHA
 62
     7
100
AcDbLine
 10
88.978964
 20
214.89628
 30
0.0
 11
71.548159
 21
214.89628
 31
0.0
  0
LINE
  5
4B7
100
AcDbEntity
  8
ALPHA
 62
     7
100
AcDbLine
 10
88.978964
 20
211.997921
 30
0.0
 11
72.048387
 21
211.997921
 31
0.0
  0
LINE
  5
4B8
100
AcDbEntity
  8
ALPHA
 62
     7
100
AcDbLine
 10
88.978964
 20
219.090684
 30
0.0
 11
71.125791
 21
219.090684
 31
0.0
  0
LINE
  5
4B9
100
AcDbEntity
  8
ALPHA
 62
     7
100
AcDbLine
 10
88.978964
 20
216.19267
 30
0.0
 11
71.625329
 21
216.19267
 31
0.0
  0
LINE
  5
4BA
100
AcDbEntity
  8
ALPHA
 62
     7
100
AcDbLine
 10
88.978964
 20
223.43805
 30
0.0
 11
70.506362
 21
223.43805
 31
0.0
  0
LINE
  5
4BB
100
AcDbEntity
  8
ALPHA
 62
     7
100
AcDbLine
 10
88.978964
 20
220.539691
 30
0.0
 11
71.00659
 21
220.539691
 31
0.0
  0
LINE
  5
4BC
100
AcDbEntity
  8
ALPHA
 62
     7
100
AcDbLine
 10
88.978964
 20
227.708935
 30
0.0
 11
69.506596
 21
227.708935
 31
0.0
  0
LINE
  5
4BD
100
AcDbEntity
  8
ALPHA
 62
     7
100
AcDbLine
 10
88.978964
 20
224.810576
 30
0.0
 11
70.006824
 21
224.810576
 31
0.0
  0
LINE
  5
4BE
100
AcDbEntity
  8
ALPHA
 62
     7
100
AcDbLine
 10
88.978964
 20
232.055956
 30
0.0
 11
68.964338
 21
232.055956
 31
0.0
  0
LINE
  5
4BF
100
AcDbEntity
  8
ALPHA
 62
     7
100
AcDbLine
 10
88.978964
 20
229.157597
 30
0.0
 11
68.964338
 21
229.157597
 31
0.0
  0
LINE
  5
4C0
100
AcDbEntity
  8
ALPHA
 62
     7
100
AcDbLine
 10
88.978964
 20
233.275865
 30
0.0
 11
68.46411
 21
233.275865
 31
0.0
  0
POLYLINE
  5
4C1
100
AcDbEntity
  8
ALPHA
 62
     7
100
AcDb2dPolyline
 66
     1
 10
0.0
 20
0.0
 30
0.0
  0
VERTEX
  5
4C2
100
AcDbEntity
  8
ALPHA
 62
     7
100
AcDbVertex
100
AcDb2dVertex
 10
78.355668
 20
241.035598
 30
0.0
  0
VERTEX
  5
4C3
100
AcDbEntity
  8
ALPHA
 62
     7
100
AcDbVertex
100
AcDb2dVertex
 10
78.355668
 20
240.153653
 30
0.0
  0
VERTEX
  5
4C4
100
AcDbEntity
  8
ALPHA
 62
     7
100
AcDbVertex
100
AcDb2dVertex
 10
72.887612
 20
240.153653
 30
0.0
  0
VERTEX
  5
4C5
100
AcDbEntity
  8
ALPHA
 62
     7
100
AcDbVertex
100
AcDb2dVertex
 10
72.887612
 20
241.035598
 30
0.0
  0
SEQEND
  5
4C6
100
AcDbEntity
  8
ALPHA
 62
     7
  0
POLYLINE
  5
4C7
100
AcDbEntity
  8
ALPHA
 62
     7
100
AcDb2dPolyline
 66
     1
 10
0.0
 20
0.0
 30
0.0
  0
VERTEX
  5
4C8
100
AcDbEntity
  8
ALPHA
 62
     7
100
AcDbVertex
100
AcDb2dVertex
 10
65.979507
 20
237.155042
 30
0.0
  0
VERTEX
  5
4C9
100
AcDbEntity
  8
ALPHA
 62
     7
100
AcDbVertex
100
AcDb2dVertex
 10
68.978118
 20
222.338375
 30
0.0
  0
VERTEX
  5
4CA
100
AcDbEntity
  8
ALPHA
 62
     7
100
AcDbVertex
100
AcDb2dVertex
 10
71.094785
 20
205.581431
 30
0.0
  0
VERTEX
  5
4CB
100
AcDbEntity
  8
ALPHA
 62
     7
100
AcDbVertex
100
AcDb2dVertex
 10
72.153118
 20
182.38388
 30
0.0
  0
SEQEND
  5
4CC
100
AcDbEntity
  8
ALPHA
 62
     7
  0
POLYLINE
  5
4CD
100
AcDbEntity
  8
ALPHA
 62
     7
100
AcDb2dPolyline
 66
     1
 10
0.0
 20
0.0
 30
0.0
  0
VERTEX
  5
4CE
100
AcDbEntity
  8
ALPHA
 62
     7
100
AcDbVertex
100
AcDb2dVertex
 10
69.10283
 20
221.3517
 30
0.0
  0
VERTEX
  5
4CF
100
AcDbEntity
  8
ALPHA
 62
     7
100
AcDbVertex
100
AcDb2dVertex
 10
68.978118
 20
222.338375
 30
0.0
  0
VERTEX
  5
4D0
100
AcDbEntity
  8
ALPHA
 62
     7
100
AcDbVertex
100
AcDb2dVertex
 10
68.894747
 20
222.750753
 30
0.0
  0
SEQEND
  5
4D1
100
AcDbEntity
  8
ALPHA
 62
     7
  0
POLYLINE
  5
4DA
100
AcDbEntity
  8
ALPHA
 62
     7
100
AcDb2dPolyline
 66
     1
 10
0.0
 20
0.0
 30
0.0
  0
VERTEX
  5
4DB
100
AcDbEntity
  8
ALPHA
 62
     7
100
AcDbVertex
100
AcDb2dVertex
 10
71.407599
 20
198.728102
 30
0.0
  0
VERTEX
  5
4DC
100
AcDbEntity
  8
ALPHA
 62
     7
100
AcDbVertex
100
AcDb2dVertex
 10
75.328118
 20
198.728102
 30
0.0
  0
VERTEX
  5
4DD
100
AcDbEntity
  8
ALPHA
 62
     7
100
AcDbVertex
100
AcDb2dVertex
 10
75.328118
 20
203.227742
 30
0.0
  0
VERTEX
  5
4DE
100
AcDbEntity
  8
ALPHA
 62
     7
100
AcDbVertex
100
AcDb2dVertex
 10
71.202272
 20
203.227742
 30
0.0
  0
SEQEND
  5
4DF
100
AcDbEntity
  8
ALPHA
 62
     7
  0
LINE
  5
4E0
100
AcDbEntity
  8
ALPHA
 62
     7
100
AcDbLine
 10
71.407599
 20
198.728102
 30
0.0
 11
71.202272
 21
203.227742
 31
0.0
  0
POLYLINE
  5
4E1
100
AcDbEntity
  8
ALPHA
 62
     7
100
AcDb2dPolyline
 66
     1
 10
0.0
 20
0.0
 30
0.0
  0
VERTEX
  5
4E2
100
AcDbEntity
  8
ALPHA
 62
     7
100
AcDbVertex
100
AcDb2dVertex
 10
71.51922
 20
196.287597
 30
0.0
  0
VERTEX
  5
4E3
100
AcDbEntity
  8
ALPHA
 62
     7
100
AcDbVertex
100
AcDb2dVertex
 10
75.328118
 20
196.287597
 30
0.0
  0
VERTEX
  5
4E4
100
AcDbEntity
  8
ALPHA
 62
     7
100
AcDbVertex
100
AcDb2dVertex
 10
75.328118
 20
191.788302
 30
0.0
  0
VERTEX
  5
4E5
100
AcDbEntity
  8
ALPHA
 62
     7
100
AcDbVertex
100
AcDb2dVertex
 10
71.723859
 20
191.788302
 30
0.0
  0
SEQEND
  5
4E6
100
AcDbEntity
  8
ALPHA
 62
     7
  0
LINE
  5
4E7
100
AcDbEntity
  8
ALPHA
 62
     7
100
AcDbLine
 10
71.723859
 20
191.788302
 30
0.0
 11
72.153118
 21
182.38388
 31
0.0
  0
LINE
  5
4E8
100
AcDbEntity
  8
ALPHA
 62
     7
100
AcDbLine
 10
71.51922
 20
196.287597
 30
0.0
 11
71.723859
 21
191.788302
 31
0.0
  0
LINE
  5
4E9
100
AcDbEntity
  8
ALPHA
 62
     7
100
AcDbLine
 10
71.51922
 20
196.287597
 30
0.0
 11
71.407599
 21
198.728102
 31
0.0
  0
POLYLINE
  5
4EA
100
AcDbEntity
  8
ALPHA
 62
     7
100
AcDb2dPolyline
 66
     1
 10
0.0
 20
0.0
 30
0.0
  0
VERTEX
  5
4EB
100
AcDbEntity
  8
ALPHA
 62
     7
100
AcDbVertex
100
AcDb2dVertex
 10
70.968694
 20
206.583265
 30
0.0
  0
VERTEX
  5
4EC
100
AcDbEntity
  8
ALPHA
 62
     7
100
AcDbVertex
100
AcDb2dVertex
 10
74.183657
 20
206.583265
 30
0.0
  0
VERTEX
  5
4ED
100
AcDbEntity
  8
ALPHA
 62
     7
100
AcDbVertex
100
AcDb2dVertex
 10
74.183657
 20
207.574763
 30
0.0
  0
VERTEX
  5
4EE
100
AcDbEntity
  8
ALPHA
 62
     7
100
AcDbVertex
100
AcDb2dVertex
 10
70.843293
 20
207.574763
 30
0.0
  0
SEQEND
  5
4EF
100
AcDbEntity
  8
ALPHA
 62
     7
  0
LINE
  5
4F0
100
AcDbEntity
  8
ALPHA
 62
     7
100
AcDbLine
 10
72.048387
 20
211.997921
 30
0.0
 11
70.183901
 21
212.793394
 31
0.0
  0
POLYLINE
  5
4F1
100
AcDbEntity
  8
ALPHA
 62
     7
100
AcDb2dPolyline
 66
     1
 10
0.0
 20
0.0
 30
0.0
  0
VERTEX
  5
4F2
100
AcDbEntity
  8
ALPHA
 62
     7
100
AcDbVertex
100
AcDb2dVertex
 10
71.202272
 20
203.227742
 30
0.0
  0
VERTEX
  5
4F3
100
AcDbEntity
  8
ALPHA
 62
     7
100
AcDbVertex
100
AcDb2dVertex
 10
71.094785
 20
205.581431
 30
0.0
  0
VERTEX
  5
4F4
100
AcDbEntity
  8
ALPHA
 62
     7
100
AcDbVertex
100
AcDb2dVertex
 10
70.968694
 20
206.583265
 30
0.0
  0
SEQEND
  5
4F5
100
AcDbEntity
  8
ALPHA
 62
     7
  0
LINE
  5
4F6
100
AcDbEntity
  8
ALPHA
 62
     7
100
AcDbLine
 10
70.448485
 20
210.701532
 30
0.0
 11
70.843293
 21
207.574763
 31
0.0
  0
LINE
  5
4F7
100
AcDbEntity
  8
ALPHA
 62
     7
100
AcDbLine
 10
70.843293
 20
207.574763
 30
0.0
 11
70.968694
 21
206.583265
 31
0.0
  0
LINE
  5
4F8
100
AcDbEntity
  8
ALPHA
 62
     7
100
AcDbLine
 10
69.10283
 20
221.3517
 30
0.0
 11
71.00659
 21
220.539691
 31
0.0
  0
LINE
  5
4F9
100
AcDbEntity
  8
ALPHA
 62
     7
100
AcDbLine
 10
71.625329
 20
216.19267
 30
0.0
 11
69.647845
 21
217.036029
 31
0.0
  0
LINE
  5
4FA
100
AcDbEntity
  8
ALPHA
 62
     7
100
AcDbLine
 10
71.548159
 20
214.89628
 30
0.0
 11
70.001311
 21
214.236544
 31
0.0
  0
LINE
  5
4FB
100
AcDbEntity
  8
ALPHA
 62
     7
100
AcDbLine
 10
70.001311
 20
214.236544
 30
0.0
 11
70.183901
 21
212.793394
 31
0.0
  0
LINE
  5
4FC
100
AcDbEntity
  8
ALPHA
 62
     7
100
AcDbLine
 10
69.476968
 20
218.387884
 30
0.0
 11
71.125791
 21
219.090684
 31
0.0
  0
LINE
  5
4FD
100
AcDbEntity
  8
ALPHA
 62
     7
100
AcDbLine
 10
69.476968
 20
218.387884
 30
0.0
 11
69.647845
 21
217.036029
 31
0.0
  0
POLYLINE
  5
4FE
100
AcDbEntity
  8
ALPHA
 62
     7
100
AcDb2dPolyline
 66
     1
 10
0.0
 20
0.0
 30
0.0
  0
VERTEX
  5
4FF
100
AcDbEntity
  8
ALPHA
 62
     7
100
AcDbVertex
100
AcDb2dVertex
 10
66.559661
 20
234.289756
 30
0.0
  0
VERTEX
  5
500
100
AcDbEntity
  8
ALPHA
 62
     7
100
AcDbVertex
100
AcDb2dVertex
 10
65.979507
 20
237.155042
 30
0.0
  0
VERTEX
  5
501
100
AcDbEntity
  8
ALPHA
 62
     7
100
AcDbVertex
100
AcDb2dVertex
 10
60.922796
 20
237.155042
 30
0.0
  0
VERTEX
  5
502
100
AcDbEntity
  8
ALPHA
 62
     7
100
AcDbVertex
100
AcDb2dVertex
 10
60.922796
 20
242.384008
 30
0.0
  0
SEQEND
  5
503
100
AcDbEntity
  8
ALPHA
 62
     7
  0
POLYLINE
  5
504
100
AcDbEntity
  8
ALPHA
 62
     7
100
AcDb2dPolyline
 66
     1
 10
0.0
 20
0.0
 30
0.0
  0
VERTEX
  5
505
100
AcDbEntity
  8
ALPHA
 62
     7
100
AcDbVertex
100
AcDb2dVertex
 10
69.389462
 20
241.035598
 30
0.0
  0
VERTEX
  5
506
100
AcDbEntity
  8
ALPHA
 62
     7
100
AcDbVertex
100
AcDb2dVertex
 10
69.389462
 20
240.153653
 30
0.0
  0
VERTEX
  5
507
100
AcDbEntity
  8
ALPHA
 62
     7
100
AcDbVertex
100
AcDb2dVertex
 10
63.921407
 20
240.153653
 30
0.0
  0
VERTEX
  5
508
100
AcDbEntity
  8
ALPHA
 62
     7
100
AcDbVertex
100
AcDb2dVertex
 10
63.921407
 20
241.035598
 30
0.0
  0
SEQEND
  5
509
100
AcDbEntity
  8
ALPHA
 62
     7
  0
POLYLINE
  5
50A
100
AcDbEntity
  8
ALPHA
 62
     7
100
AcDb2dPolyline
 66
     1
 10
0.0
 20
0.0
 30
0.0
  0
VERTEX
  5
50B
100
AcDbEntity
  8
ALPHA
 62
     7
100
AcDbVertex
100
AcDb2dVertex
 10
62.218152
 20
247.383875
 30
0.0
  0
VERTEX
  5
50C
100
AcDbEntity
  8
ALPHA
 62
     7
100
AcDbVertex
100
AcDb2dVertex
 10
63.514197
 20
247.383875
 30
0.0
  0
VERTEX
  5
50D
100
AcDbEntity
  8
ALPHA
 62
     7
100
AcDbVertex
100
AcDb2dVertex
 10
64.97974
 20
245.44532
 30
0.0
  0
VERTEX
  5
50E
100
AcDbEntity
  8
ALPHA
 62
     7
100
AcDbVertex
100
AcDb2dVertex
 10
68.331129
 20
242.975875
 30
0.0
  0
VERTEX
  5
50F
100
AcDbEntity
  8
ALPHA
 62
     7
100
AcDbVertex
100
AcDb2dVertex
 10
73.622796
 20
242.384008
 30
0.0
  0
SEQEND
  5
510
100
AcDbEntity
  8
ALPHA
 62
     7
  0
POLYLINE
  5
511
100
AcDbEntity
  8
ALPHA
 62
     7
100
AcDb2dPolyline
 66
     1
 10
0.0
 20
0.0
 30
0.0
  0
VERTEX
  5
512
100
AcDbEntity
  8
ALPHA
 62
     7
100
AcDbVertex
100
AcDb2dVertex
 10
60.922796
 20
242.384008
 30
0.0
  0
VERTEX
  5
513
100
AcDbEntity
  8
ALPHA
 62
     7
100
AcDbVertex
100
AcDb2dVertex
 10
60.922796
 20
247.383875
 30
0.0
  0
VERTEX
  5
514
100
AcDbEntity
  8
ALPHA
 62
     7
100
AcDbVertex
100
AcDb2dVertex
 10
62.218152
 20
247.383875
 30
0.0
  0
VERTEX
  5
515
100
AcDbEntity
  8
ALPHA
 62
     7
100
AcDbVertex
100
AcDb2dVertex
 10
62.218152
 20
242.384008
 30
0.0
  0
SEQEND
  5
516
100
AcDbEntity
  8
ALPHA
 62
     7
  0
LINE
  5
518
100
AcDbEntity
  8
ALPHA
 62
     7
100
AcDbLine
 10
60.922796
 20
241.035598
 30
0.0
 11
63.921407
 21
241.035598
 31
0.0
  0
LINE
  5
519
100
AcDbEntity
  8
ALPHA
 62
     7
100
AcDbLine
 10
69.389462
 20
241.035598
 30
0.0
 11
72.887612
 21
241.035598
 31
0.0
  0
LINE
  5
51A
100
AcDbEntity
  8
ALPHA
 62
     7
100
AcDbLine
 10
68.894747
 20
222.750753
 30
0.0
 11
70.506362
 21
223.43805
 31
0.0
  0
LINE
  5
51B
100
AcDbEntity
  8
ALPHA
 62
     7
100
AcDbLine
 10
68.019692
 20
227.074693
 30
0.0
 11
69.506596
 21
227.708935
 31
0.0
  0
LINE
  5
51C
100
AcDbEntity
  8
ALPHA
 62
     7
100
AcDbLine
 10
68.333196
 20
225.524055
 30
0.0
 11
70.006824
 21
224.810576
 31
0.0
  0
LINE
  5
51D
100
AcDbEntity
  8
ALPHA
 62
     7
100
AcDbLine
 10
68.333196
 20
225.524055
 30
0.0
 11
68.019692
 21
227.074693
 31
0.0
  0
LINE
  5
51E
100
AcDbEntity
  8
ALPHA
 62
     7
100
AcDbLine
 10
67.166687
 20
231.289078
 30
0.0
 11
68.964338
 21
232.055956
 31
0.0
  0
LINE
  5
51F
100
AcDbEntity
  8
ALPHA
 62
     7
100
AcDbLine
 10
68.964338
 20
229.157597
 30
0.0
 11
67.469166
 21
229.795285
 31
0.0
  0
LINE
  5
520
100
AcDbEntity
  8
ALPHA
 62
     7
100
AcDbLine
 10
67.469166
 20
229.795285
 30
0.0
 11
67.166687
 21
231.289078
 31
0.0
  0
LINE
  5
521
100
AcDbEntity
  8
ALPHA
 62
     7
100
AcDbLine
 10
66.559661
 20
234.289756
 30
0.0
 11
68.46411
 21
233.275865
 31
0.0
  0
POLYLINE
  5
522
100
AcDbEntity
  8
ALPHA
 62
     7
100
AcDb2dPolyline
 66
     1
 10
0.0
 20
0.0
 30
0.0
  0
VERTEX
  5
523
100
AcDbEntity
  8
ALPHA
 62
     7
100
AcDbVertex
100
AcDb2dVertex
 10
79.67514
 20
193.018546
 30
0.0
  0
VERTEX
  5
524
100
AcDbEntity
  8
ALPHA
 62
     7
100
AcDbVertex
100
AcDb2dVertex
 10
80.437884
 20
199.883932
 30
0.0
  0
VERTEX
  5
525
100
AcDbEntity
  8
ALPHA
 62
     7
100
AcDbVertex
100
AcDb2dVertex
 10
86.462667
 20
199.883932
 30
0.0
  0
VERTEX
  5
526
100
AcDbEntity
  8
ALPHA
 62
     7
100
AcDbVertex
100
AcDb2dVertex
 10
90.461733
 20
201.437326
 30
0.0
  0
SEQEND
  5
527
100
AcDbEntity
  8
ALPHA
 62
     7
  0
POLYLINE
  5
528
100
AcDbEntity
  8
ALPHA
 62
     7
100
AcDb2dPolyline
 66
     1
 10
0.0
 20
0.0
 30
0.0
 70
     1
  0
VERTEX
  5
529
100
AcDbEntity
  8
ALPHA
 62
     7
100
AcDbVertex
100
AcDb2dVertex
 10
88.915575
 20
202.521153
 30
0.0
  0
VERTEX
  5
52A
100
AcDbEntity
  8
ALPHA
 62
     7
100
AcDbVertex
100
AcDb2dVertex
 10
87.557518
 20
202.521153
 30
0.0
  0
VERTEX
  5
52B
100
AcDbEntity
  8
ALPHA
 62
     7
100
AcDbVertex
100
AcDb2dVertex
 10
87.557518
 20
205.166986
 30
0.0
  0
VERTEX
  5
52C
100
AcDbEntity
  8
ALPHA
 62
     7
100
AcDbVertex
100
AcDb2dVertex
 10
88.915575
 20
205.166986
 30
0.0
  0
SEQEND
  5
52D
100
AcDbEntity
  8
ALPHA
 62
     7
  0
SPLINE
  5
52E
100
AcDbEntity
  8
ALPHA
 62
     7
100
AcDbSpline
210
0.0
220
0.0
230
-1.0
 70
     8
 71
     3
 72
    11
 73
     7
 74
     0
 42
0.0000001
 43
0.0000001
 40
0.0
 40
0.0
 40
0.0
 40
0.0
 40
1.0
 40
1.0
 40
1.0
 40
2.0
 40
2.0
 40
2.0
 40
2.0
 10
83.79340665448191
 20
179.11448485892
 30
0.0
 10
83.79340665448191
 20
179.5778502018019
 30
0.0
 10
83.41789124649579
 20
179.9533656097881
 30
0.0
 10
82.95418139406525
 20
179.9533656097881
 30
0.0
 10
82.49116056073191
 20
179.9533656097881
 30
0.0
 10
82.11564515274579
 20
179.5778502018019
 30
0.0
 10
82.11564515274579
 20
179.11448485892
 30
0.0
  0
SPLINE
  5
52F
100
AcDbEntity
  8
ALPHA
 62
     7
100
AcDbSpline
210
0.0
220
0.0
230
-1.0
 70
     8
 71
     3
 72
    11
 73
     7
 74
     0
 42
0.0000001
 43
0.0000001
 40
0.0
 40
0.0
 40
0.0
 40
0.0
 40
1.0
 40
1.0
 40
1.0
 40
2.0
 40
2.0
 40
2.0
 40
2.0
 10
82.11564515274579
 20
188.017645123677
 30
0.0
 10
82.11564515274579
 20
188.4810104665589
 30
0.0
 10
82.49116056073191
 20
188.856525874545
 30
0.0
 10
82.95418139406525
 20
188.856525874545
 30
0.0
 10
83.41789124649579
 20
188.856525874545
 30
0.0
 10
83.79340665448191
 20
188.4810104665589
 30
0.0
 10
83.79340665448191
 20
188.017645123677
 30
0.0
  0
SPLINE
  5
530
100
AcDbEntity
  8
ALPHA
 62
     7
100
AcDbSpline
210
0.0
220
0.0
230
1.0
 70
     8
 71
     3
 72
    11
 73
     7
 74
     0
 42
0.0000001
 43
0.0000001
 40
0.0
 40
0.0
 40
0.0
 40
0.0
 40
1.0
 40
1.0
 40
1.0
 40
2.0
 40
2.0
 40
2.0
 40
2.0
 10
83.79340665448191
 20
185.6532760915589
 30
0.0
 10
83.79340665448191
 20
185.1899107486769
 30
0.0
 10
83.41789124649579
 20
184.8143953406909
 30
0.0
 10
82.95418139406525
 20
184.8143953406909
 30
0.0
 10
82.49116056073191
 20
184.8143953406909
 30
0.0
 10
82.11564515274579
 20
185.1899107486769
 30
0.0
 10
82.11564515274579
 20
185.6532760915589
 30
0.0
  0
CIRCLE
  5
531
100
AcDbEntity
  8
ALPHA
 62
     7
100
AcDbCircle
 10
82.954526
 20
182.38388
 30
0.0
 40
0.838881
  0
LINE
  5
532
100
AcDbEntity
  8
ALPHA
 62
     7
100
AcDbLine
 10
79.67514
 20
193.018546
 30
0.0
 11
78.912395
 21
182.38388
 31
0.0
  0
LINE
  5
533
100
AcDbEntity
  8
ALPHA
 62
     7
100
AcDbLine
 10
82.115645
 20
185.653276
 30
0.0
 11
82.115645
 21
188.017645
 31
0.0
  0
SPLINE
  5
534
100
AcDbEntity
  8
ALPHA
 62
     7
100
AcDbSpline
210
0.0
220
0.0
230
-1.0
 70
     8
 71
     3
 72
     8
 73
     4
 74
     0
 42
0.0000001
 43
0.0000001
 40
0.0
 40
0.0
 40
0.0
 40
0.0
 40
1.0
 40
1.0
 40
1.0
 40
1.0
 10
85.16593269614856
 20
188.2801613997186
 30
0.0
 10
85.16593269614856
 20
188.5357874847881
 30
0.0
 10
85.37332744441247
 20
188.743182233052
 30
0.0
 10
85.62895352948192
 20
188.743182233052
 30
0.0
  0
LINE
  5
535
100
AcDbEntity
  8
ALPHA
 62
     7
100
AcDbLine
 10
83.793407
 20
188.017645
 30
0.0
 11
83.793407
 21
185.653276
 31
0.0
  0
LINE
  5
536
100
AcDbEntity
  8
ALPHA
 62
     7
100
AcDbLine
 10
88.978964
 20
210.701532
 30
0.0
 11
90.461733
 21
210.243679
 31
0.0
  0
LINE
  5
537
100
AcDbEntity
  8
ALPHA
 62
     7
100
AcDbLine
 10
88.978964
 20
216.19267
 30
0.0
 11
90.461733
 21
216.650178
 31
0.0
  0
LINE
  5
538
100
AcDbEntity
  8
ALPHA
 62
     7
100
AcDbLine
 10
88.978964
 20
214.89628
 30
0.0
 11
90.461733
 21
214.438427
 31
0.0
  0
LINE
  5
539
100
AcDbEntity
  8
ALPHA
 62
     7
100
AcDbLine
 10
88.978964
 20
211.997921
 30
0.0
 11
90.461733
 21
212.455774
 31
0.0
  0
LINE
  5
53A
100
AcDbEntity
  8
ALPHA
 62
     7
100
AcDbLine
 10
88.978964
 20
219.090684
 30
0.0
 11
90.461733
 21
218.633175
 31
0.0
  0
LINE
  5
53B
100
AcDbEntity
  8
ALPHA
 62
     7
100
AcDbLine
 10
88.978964
 20
220.539691
 30
0.0
 11
90.461733
 21
220.997544
 31
0.0
  0
POLYLINE
  5
53C
100
AcDbEntity
  8
ALPHA
 62
     7
100
AcDb2dPolyline
 66
     1
 10
0.0
 20
0.0
 30
0.0
 70
     1
  0
VERTEX
  5
53D
100
AcDbEntity
  8
ALPHA
 62
     7
100
AcDbVertex
100
AcDb2dVertex
 10
88.915575
 20
235.391153
 30
0.0
  0
VERTEX
  5
53E
100
AcDbEntity
  8
ALPHA
 62
     7
100
AcDbVertex
100
AcDb2dVertex
 10
87.557518
 20
235.391153
 30
0.0
  0
VERTEX
  5
53F
100
AcDbEntity
  8
ALPHA
 62
     7
100
AcDbVertex
100
AcDb2dVertex
 10
87.557518
 20
238.036986
 30
0.0
  0
VERTEX
  5
540
100
AcDbEntity
  8
ALPHA
 62
     7
100
AcDbVertex
100
AcDb2dVertex
 10
88.915575
 20
238.036986
 30
0.0
  0
SEQEND
  5
541
100
AcDbEntity
  8
ALPHA
 62
     7
  0
LINE
  5
542
100
AcDbEntity
  8
ALPHA
 62
     7
100
AcDbLine
 10
87.322562
 20
241.035598
 30
0.0
 11
90.461733
 21
241.035598
 31
0.0
  0
POLYLINE
  5
543
100
AcDbEntity
  8
ALPHA
 62
     7
100
AcDb2dPolyline
 66
     1
 10
0.0
 20
0.0
 30
0.0
  0
VERTEX
  5
544
100
AcDbEntity
  8
ALPHA
 62
     7
100
AcDbVertex
100
AcDb2dVertex
 10
87.322562
 20
241.035598
 30
0.0
  0
VERTEX
  5
545
100
AcDbEntity
  8
ALPHA
 62
     7
100
AcDbVertex
100
AcDb2dVertex
 10
87.322562
 20
240.153653
 30
0.0
  0
VERTEX
  5
546
100
AcDbEntity
  8
ALPHA
 62
     7
100
AcDbVertex
100
AcDb2dVertex
 10
81.854507
 20
240.153653
 30
0.0
  0
VERTEX
  5
547
100
AcDbEntity
  8
ALPHA
 62
     7
100
AcDbVertex
100
AcDb2dVertex
 10
81.854507
 20
241.035598
 30
0.0
  0
SEQEND
  5
548
100
AcDbEntity
  8
ALPHA
 62
     7
  0
LINE
  5
549
100
AcDbEntity
  8
ALPHA
 62
     7
100
AcDbLine
 10
78.355668
 20
241.035598
 30
0.0
 11
81.854507
 21
241.035598
 31
0.0
  0
LINE
  5
54A
100
AcDbEntity
  8
ALPHA
 62
     7
100
AcDbLine
 10
88.978964
 20
223.43805
 30
0.0
 11
90.461733
 21
222.980197
 31
0.0
  0
LINE
  5
54B
100
AcDbEntity
  8
ALPHA
 62
     7
100
AcDbLine
 10
88.978964
 20
224.810576
 30
0.0
 11
90.461733
 21
225.268429
 31
0.0
  0
LINE
  5
54C
100
AcDbEntity
  8
ALPHA
 62
     7
100
AcDbLine
 10
88.978964
 20
227.708935
 30
0.0
 11
90.461733
 21
227.251082
 31
0.0
  0
LINE
  5
54D
100
AcDbEntity
  8
ALPHA
 62
     7
100
AcDbLine
 10
88.978964
 20
232.055956
 30
0.0
 11
90.461733
 21
231.598103
 31
0.0
  0
LINE
  5
54E
100
AcDbEntity
  8
ALPHA
 62
     7
100
AcDbLine
 10
88.978964
 20
229.157597
 30
0.0
 11
90.461733
 21
229.615451
 31
0.0
  0
LINE
  5
54F
100
AcDbEntity
  8
ALPHA
 62
     7
100
AcDbLine
 10
88.978964
 20
233.275865
 30
0.0
 11
90.461733
 21
233.733718
 31
0.0
  0
DIMENSION
  5
578
100
AcDbEntity
  8
COTATION1
100
AcDbDimension
  2
*D4
 10
99.626037
 20
247.383875
 30
0.0
 11
97.376037
 21
244.883942
 31
0.0
 70
    32
  3
SC_STAND
100
AcDbAlignedDimension
 13
90.524233
 23
242.384008
 33
0.0
 14
63.514197
 24
247.383875
 34
0.0
 50
90.0
100
AcDbRotatedDimension
  0
DIMENSION
  5
592
100
AcDbEntity
  8
COTATION1
100
AcDbDimension
  2
*D5
 10
99.626037
 20
242.384008
 30
0.0
 11
97.376037
 21
221.13397
 31
0.0
 70
    32
  1
42
  3
SC_STAND
100
AcDbAlignedDimension
 13
86.462667
 23
199.883932
 33
0.0
 14
90.586733
 24
242.384008
 34
0.0
 50
90.0
100
AcDbRotatedDimension
  0
DIMENSION
  5
59F
100
AcDbEntity
  8
COTATION1
100
AcDbDimension
  2
*D6
 10
99.626037
 20
199.883932
 30
0.0
 11
97.376037
 21
182.38388
 31
0.0
 70
    32
  3
SC_STAND
100
AcDbAlignedDimension
 13
86.462667
 23
164.883829
 33
0.0
 14
86.462667
 24
199.883932
 34
0.0
 50
90.0
100
AcDbRotatedDimension
  0
DIMENSION
  5
5AC
100
AcDbEntity
  8
COTATION1
100
AcDbDimension
  2
*D7
 10
111.043838
 20
247.383875
 30
0.0
 11
108.793838
 21
178.733974
 31
0.0
 70
    32
  3
SC_STAND
100
AcDbAlignedDimension
 13
90.461733
 23
110.084073
 33
0.0
 14
99.626037
 24
247.383875
 34
0.0
 50
90.0
100
AcDbRotatedDimension
  0
DIMENSION
  5
604
100
AcDbEntity
  8
COTATION1
100
AcDbDimension
  2
*D9
 10
90.461733
 20
100.368929
 30
0.0
 11
66.87282
 21
102.618929
 31
0.0
 70
    32
  1
47
  3
SC_STAND
100
AcDbAlignedDimension
 13
43.283907
 23
110.084073
 33
0.0
 14
90.461733
 24
117.233573
 34
0.0
100
AcDbRotatedDimension
  0
ENDSEC
  0
SECTION
  2
OBJECTS
  0
DICTIONARY
  5
F8
100
AcDbDictionary
  3
ACAD_GROUP
350
F9
  3
ACAD_MLINESTYLE
350
106
  3
ACDBVARIABLEDICTIONARY
350
143
  0
DICTIONARY
  5
F9
102
{ACAD_REACTORS
330
F8
102
}
100
AcDbDictionary
  0
DICTIONARY
  5
106
102
{ACAD_REACTORS
330
F8
102
}
100
AcDbDictionary
  3
STANDARD
350
107
  0
DICTIONARY
  5
143
102
{ACAD_REACTORS
330
F8
102
}
100
AcDbDictionary
  3
DIMADEC
350
144
  0
MLINESTYLE
  5
107
102
{ACAD_REACTORS
330
106
102
}
100
AcDbMlineStyle
  2
STANDARD
 70
     0
  3

 62
   256
 51
90.0
 52
90.0
 71
     2
 49
0.5
 62
   256
  6
BYLAYER
 49
-0.5
 62
   256
  6
BYLAYER
  0
DICTIONARYVAR
  5
144
102
{ACAD_REACTORS
330
143
102
}
100
DictionaryVariables
280
     0
  1
0
  0
ENDSEC
  0
EOF
