  0
SECTION
  2
HEADER
  9
$ACADVER
  1
AC1014
  9
$ACADMAINTVER
 70
     0
  9
$DWGCODEPAGE
  3
ANSI_1252
  9
$INSBASE
 10
93.894301
 20
236.06014
 30
0.0
  9
$EXTMIN
 10
4.527741
 20
103.589265
 30
-0.001526
  9
$EXTMAX
 10
64.048462
 20
221.440293
 30
0.0
  9
$LIMMIN
 10
0.0
 20
0.0
  9
$LIMMAX
 10
210.0
 20
297.0
  9
$ORTHOMODE
 70
     1
  9
$REGENMODE
 70
     1
  9
$FILLMODE
 70
     1
  9
$QTEXTMODE
 70
     0
  9
$MIRRTEXT
 70
     0
  9
$DRAGMODE
 70
     1
  9
$LTSCALE
 40
7.0
  9
$OSMODE
 70
  4095
  9
$ATTMODE
 70
     1
  9
$TEXTSIZE
 40
2.5
  9
$TRACEWID
 40
0.05
  9
$TEXTSTYLE
  7
STANDARD
  9
$CLAYER
  8
COTATION1
  9
$CELTYPE
  6
BYLAYER
  9
$CECOLOR
 62
   256
  9
$CELTSCALE
 40
1.0
  9
$DELOBJ
 70
     1
  9
$DISPSILH
 70
     0
  9
$DIMSCALE
 40
1.0
  9
$DIMASZ
 40
3.0
  9
$DIMEXO
 40
0.0625
  9
$DIMDLI
 40
0.38
  9
$DIMRND
 40
0.01
  9
$DIMDLE
 40
0.0
  9
$DIMEXE
 40
0.18
  9
$DIMTP
 40
0.0
  9
$DIMTM
 40
0.0
  9
$DIMTXT
 40
2.5
  9
$DIMCEN
 40
0.09
  9
$DIMTSZ
 40
0.0
  9
$DIMTOL
 70
     0
  9
$DIMLIM
 70
     0
  9
$DIMTIH
 70
     0
  9
$DIMTOH
 70
     0
  9
$DIMSE1
 70
     0
  9
$DIMSE2
 70
     0
  9
$DIMTAD
 70
     1
  9
$DIMZIN
 70
    12
  9
$DIMBLK
  1

  9
$DIMASO
 70
     1
  9
$DIMSHO
 70
     0
  9
$DIMPOST
  1

  9
$DIMAPOST
  1

  9
$DIMALT
 70
     0
  9
$DIMALTD
 70
     2
  9
$DIMALTF
 40
25.4
  9
$DIMLFAC
 40
1.0
  9
$DIMTOFL
 70
     1
  9
$DIMTVP
 40
0.0
  9
$DIMTIX
 70
     0
  9
$DIMSOXD
 70
     0
  9
$DIMSAH
 70
     0
  9
$DIMBLK1
  1

  9
$DIMBLK2
  1

  9
$DIMSTYLE
  2
SC_STAND
  9
$DIMCLRD
 70
     0
  9
$DIMCLRE
 70
     0
  9
$DIMCLRT
 70
     0
  9
$DIMTFAC
 40
1.0
  9
$DIMGAP
 40
1.0
  9
$DIMJUST
 70
     0
  9
$DIMSD1
 70
     0
  9
$DIMSD2
 70
     0
  9
$DIMTOLJ
 70
     1
  9
$DIMTZIN
 70
    12
  9
$DIMALTZ
 70
    12
  9
$DIMALTTZ
 70
    12
  9
$DIMFIT
 70
     5
  9
$DIMUPT
 70
     0
  9
$DIMUNIT
 70
     2
  9
$DIMDEC
 70
     3
  9
$DIMTDEC
 70
     3
  9
$DIMALTU
 70
     2
  9
$DIMALTTD
 70
     2
  9
$DIMTXSTY
  7
STANDARD
  9
$DIMAUNIT
 70
     0
  9
$LUNITS
 70
     2
  9
$LUPREC
 70
     3
  9
$SKETCHINC
 40
0.1
  9
$FILLETRAD
 40
0.0625
  9
$AUNITS
 70
     0
  9
$AUPREC
 70
     0
  9
$MENU
  1
ACAD
  9
$ELEVATION
 40
0.0
  9
$PELEVATION
 40
0.0
  9
$THICKNESS
 40
0.0
  9
$LIMCHECK
 70
     0
  9
$BLIPMODE
 70
     1
  9
$CHAMFERA
 40
0.0
  9
$CHAMFERB
 40
0.0
  9
$CHAMFERC
 40
0.0
  9
$CHAMFERD
 40
0.0
  9
$SKPOLY
 70
     0
  9
$TDCREATE
 40
2450953.590960648
  9
$TDUPDATE
 40
2453109.695140694
  9
$TDINDWG
 40
0.0039585995
  9
$TDUSRTIMER
 40
0.0039585995
  9
$USRTIMER
 70
     1
  9
$ANGBASE
 50
0.0
  9
$ANGDIR
 70
     0
  9
$PDMODE
 70
     0
  9
$PDSIZE
 40
0.0
  9
$PLINEWID
 40
0.0
  9
$COORDS
 70
     0
  9
$SPLFRAME
 70
     0
  9
$SPLINETYPE
 70
     6
  9
$SPLINESEGS
 70
     8
  9
$ATTDIA
 70
     0
  9
$ATTREQ
 70
     1
  9
$HANDLING
 70
     1
  9
$HANDSEED
  5
C54
  9
$SURFTAB1
 70
     6
  9
$SURFTAB2
 70
     6
  9
$SURFTYPE
 70
     6
  9
$SURFU
 70
     6
  9
$SURFV
 70
     6
  9
$UCSNAME
  2

  9
$UCSORG
 10
0.0
 20
0.0
 30
0.0
  9
$UCSXDIR
 10
1.0
 20
0.0
 30
0.0
  9
$UCSYDIR
 10
0.0
 20
1.0
 30
0.0
  9
$PUCSNAME
  2

  9
$PUCSORG
 10
0.0
 20
0.0
 30
0.0
  9
$PUCSXDIR
 10
1.0
 20
0.0
 30
0.0
  9
$PUCSYDIR
 10
0.0
 20
1.0
 30
0.0
  9
$USERI1
 70
     0
  9
$USERI2
 70
     0
  9
$USERI3
 70
     0
  9
$USERI4
 70
     0
  9
$USERI5
 70
     0
  9
$USERR1
 40
0.0
  9
$USERR2
 40
0.0
  9
$USERR3
 40
0.0
  9
$USERR4
 40
0.0
  9
$USERR5
 40
0.0
  9
$WORLDVIEW
 70
     1
  9
$SHADEDGE
 70
     3
  9
$SHADEDIF
 70
    70
  9
$TILEMODE
 70
     1
  9
$MAXACTVP
 70
    32
  9
$PINSBASE
 10
0.0
 20
0.0
 30
0.0
  9
$PLIMCHECK
 70
     0
  9
$PEXTMIN
 10
-3.174999
 20
-3.175
 30
0.0
  9
$PEXTMAX
 10
203.812116
 20
370.276807
 30
0.0
  9
$PLIMMIN
 10
-3.175
 20
-3.175
  9
$PLIMMAX
 10
203.812115
 20
370.276807
  9
$UNITMODE
 70
     0
  9
$VISRETAIN
 70
     0
  9
$PLINEGEN
 70
     0
  9
$PSLTSCALE
 70
     1
  9
$TREEDEPTH
 70
  3020
  9
$PICKSTYLE
 70
     1
  9
$CMLSTYLE
  2
STANDARD
  9
$CMLJUST
 70
     0
  9
$CMLSCALE
 40
1.0
  9
$PROXYGRAPHICS
 70
     1
  9
$MEASUREMENT
 70
     0
  0
ENDSEC
  0
SECTION
  2
CLASSES
  0
CLASS
  1
DICTIONARYVAR
  2
AcDbDictionaryVar
  3
"AutoCAD"
 90
        0
280
     0
281
     0
  0
CLASS
  1
HATCH
  2
AcDbHatch
  3
"ACAD_SEDONA"
 90
        0
280
     0
281
     1
  0
ENDSEC
  0
SECTION
  2
TABLES
  0
TABLE
  2
VPORT
  5
F4
100
AcDbSymbolTable
 70
     2
  0
VPORT
  5
C53
100
AcDbSymbolTableRecord
100
AcDbViewportTableRecord
  2
*ACTIVE
 70
     0
 10
0.0
 20
0.0
 11
1.0
 21
1.0
 12
34.288102
 22
162.514779
 13
0.0
 23
0.0
 14
1.0
 24
1.0
 15
10.0
 25
10.0
 16
0.0
 26
0.0
 36
1.0
 17
0.0
 27
0.0
 37
0.0
 40
118.746099
 41
1.446134
 42
50.0
 43
0.0
 44
0.0
 50
0.0
 51
0.0
 71
     0
 72
   100
 73
     1
 74
     1
 75
     0
 76
     1
 77
     0
 78
     0
  0
ENDTAB
  0
TABLE
  2
LTYPE
  5
F1
100
AcDbSymbolTable
 70
     5
  0
LTYPE
  5
FD
100
AcDbSymbolTableRecord
100
AcDbLinetypeTableRecord
  2
BYBLOCK
 70
     0
  3

 72
    65
 73
     0
 40
0.0
  0
LTYPE
  5
FE
100
AcDbSymbolTableRecord
100
AcDbLinetypeTableRecord
  2
BYLAYER
 70
     0
  3

 72
    65
 73
     0
 40
0.0
  0
LTYPE
  5
FF
100
AcDbSymbolTableRecord
100
AcDbLinetypeTableRecord
  2
CONTINUOUS
 70
     0
  3
Solid line
 72
    65
 73
     0
 40
0.0
  0
LTYPE
  5
110
100
AcDbSymbolTableRecord
100
AcDbLinetypeTableRecord
  2
CACHE
 70
     0
  3
__ __ __ __ __ __ __ __ __ __ __ __ __ __ __ __
 72
    65
 73
     2
 40
0.375
 49
0.25
 74
     0
 49
-0.125
 74
     0
  0
LTYPE
  5
112
100
AcDbSymbolTableRecord
100
AcDbLinetypeTableRecord
  2
AXES2
 70
     0
  3
___ _ ___ _ ___ _ ___ _ ___ _ ___ _ ___ _ ___ _
 72
    65
 73
     4
 40
1.125
 49
0.75
 74
     0
 49
-0.125
 74
     0
 49
0.125
 74
     0
 49
-0.125
 74
     0
  0
LTYPE
  5
120
100
AcDbSymbolTableRecord
100
AcDbLinetypeTableRecord
  2
CACHE2
 70
     0
  3
_ _ _ _ _ _ _ _ _ _ _ _ _ _ _ _ _ _ _ _ _ _ _ _
 72
    65
 73
     2
 40
0.1875
 49
0.125
 74
     0
 49
-0.0625
 74
     0
  0
LTYPE
  5
121
100
AcDbSymbolTableRecord
100
AcDbLinetypeTableRecord
  2
CACHEX2
 70
     0
  3
____ ____ ____ ____ ____ ____ ____ ____ ____ __
 72
    65
 73
     2
 40
0.75
 49
0.5
 74
     0
 49
-0.25
 74
     0
  0
ENDTAB
  0
TABLE
  2
LAYER
  5
EE
100
AcDbSymbolTable
 70
     6
  0
LAYER
  5
FA
100
AcDbSymbolTableRecord
100
AcDbLayerTableRecord
  2
0
 70
     0
 62
     7
  6
CONTINUOUS
  0
LAYER
  5
12C
100
AcDbSymbolTableRecord
100
AcDbLayerTableRecord
  2
ALPHA
 70
     0
 62
   255
  6
CONTINUOUS
  0
LAYER
  5
12F
100
AcDbSymbolTableRecord
100
AcDbLayerTableRecord
  2
COTATION1
 70
     0
 62
     2
  6
CONTINUOUS
  0
LAYER
  5
13B
100
AcDbSymbolTableRecord
100
AcDbLayerTableRecord
  2
ASHADE
 70
     0
 62
     7
  6
CONTINUOUS
  0
LAYER
  5
13E
100
AcDbSymbolTableRecord
100
AcDbLayerTableRecord
  2
DEFPOINTS
 70
     0
 62
     7
  6
CONTINUOUS
  0
LAYER
  5
59C
100
AcDbSymbolTableRecord
100
AcDbLayerTableRecord
  2
COTE_CONST
 70
     0
 62
     7
  6
CONTINUOUS
  0
ENDTAB
  0
TABLE
  2
STYLE
  5
EF
100
AcDbSymbolTable
 70
     2
  0
STYLE
  5
FB
100
AcDbSymbolTableRecord
100
AcDbTextStyleTableRecord
  2
STANDARD
 70
     0
 40
0.0
 41
1.0
 50
0.0
 71
     0
 42
2.5
  3
txt
  4

  0
STYLE
  5
386
100
AcDbSymbolTableRecord
100
AcDbTextStyleTableRecord
  2
STD
 70
     0
 40
0.0
 41
1.0
 50
0.0
 71
     0
 42
0.0
  3
txt
  4

  0
ENDTAB
  0
TABLE
  2
VIEW
  5
F2
100
AcDbSymbolTable
 70
     0
  0
ENDTAB
  0
TABLE
  2
UCS
  5
F3
100
AcDbSymbolTable
 70
     0
  0
ENDTAB
  0
TABLE
  2
APPID
  5
F5
100
AcDbSymbolTable
 70
     3
  0
APPID
  5
FC
100
AcDbSymbolTableRecord
100
AcDbRegAppTableRecord
  2
ACAD
 70
     0
  0
APPID
  5
127
100
AcDbSymbolTableRecord
100
AcDbRegAppTableRecord
  2
AVE_RENDER
 70
     0
  0
APPID
  5
128
100
AcDbSymbolTableRecord
100
AcDbRegAppTableRecord
  2
AVE_MATERIAL
 70
     0
  0
ENDTAB
  0
TABLE
  2
DIMSTYLE
  5
F6
100
AcDbSymbolTable
 70
     2
  0
DIMSTYLE
105
129
100
AcDbSymbolTableRecord
100
AcDbDimStyleTableRecord
  2
STANDARD
 70
     0
  3

  4

  5

  6

  7

 40
1.0
 41
0.18
 42
0.0625
 43
0.38
 44
0.18
 45
0.0
 46
0.0
 47
0.0
 48
0.0
140
0.18
141
0.09
142
0.0
143
25.4
144
1.0
145
0.0
146
1.0
147
0.09
 71
     0
 72
     0
 73
     1
 74
     1
 75
     0
 76
     0
 77
     0
 78
     0
170
     0
171
     2
172
     0
173
     0
174
     0
175
     0
176
     0
177
     0
178
     0
270
     2
271
     3
272
     3
273
     2
274
     2
340
FB
275
     0
280
     0
281
     0
282
     0
283
     1
284
    12
285
    12
286
    12
287
     5
288
     0
  0
DIMSTYLE
105
12A
102
{ACAD_REACTORS
330
8D3
102
}
100
AcDbSymbolTableRecord
100
AcDbDimStyleTableRecord
  2
SC_STAND
 70
     0
  3

  4

  5

  6

  7

 40
1.0
 41
3.0
 42
0.0625
 43
0.38
 44
0.18
 45
0.01
 46
0.0
 47
0.0
 48
0.0
140
2.5
141
0.09
142
0.0
143
25.4
144
1.0
145
0.0
146
1.0
147
1.0
 71
     0
 72
     0
 73
     0
 74
     0
 75
     0
 76
     0
 77
     1
 78
    12
170
     0
171
     2
172
     1
173
     0
174
     0
175
     0
176
     0
177
     0
178
     0
270
     2
271
     3
272
     3
273
     2
274
     2
340
FB
275
     0
280
     0
281
     0
282
     0
283
     1
284
    12
285
    12
286
    12
287
     5
288
     0
  0
ENDTAB
  0
TABLE
  2
BLOCK_RECORD
  5
ED
100
AcDbSymbolTable
 70
     9
  0
BLOCK_RECORD
  5
103
100
AcDbSymbolTableRecord
100
AcDbBlockTableRecord
  2
*MODEL_SPACE
  0
BLOCK_RECORD
  5
100
100
AcDbSymbolTableRecord
100
AcDbBlockTableRecord
  2
*PAPER_SPACE
  0
BLOCK_RECORD
  5
108
100
AcDbSymbolTableRecord
100
AcDbBlockTableRecord
  2
AVE_RENDER
  0
BLOCK_RECORD
  5
109
100
AcDbSymbolTableRecord
100
AcDbBlockTableRecord
  2
AVE_GLOBAL
  0
BLOCK_RECORD
  5
10A
100
AcDbSymbolTableRecord
100
AcDbBlockTableRecord
  2
SCH_IS
  0
BLOCK_RECORD
  5
14D
100
AcDbSymbolTableRecord
100
AcDbBlockTableRecord
  2
AI9-BLK1
  0
BLOCK_RECORD
  5
37A
100
AcDbSymbolTableRecord
100
AcDbBlockTableRecord
  2
AI9-BLK7
  0
BLOCK_RECORD
  5
37E
100
AcDbSymbolTableRecord
100
AcDbBlockTableRecord
  2
AI9-BLK8
  0
BLOCK_RECORD
  5
382
100
AcDbSymbolTableRecord
100
AcDbBlockTableRecord
  2
AI9-BLK9
  0
BLOCK_RECORD
  5
BFD
100
AcDbSymbolTableRecord
100
AcDbBlockTableRecord
  2
*D8
  0
ENDTAB
  0
ENDSEC
  0
SECTION
  2
BLOCKS
  0
BLOCK
  5
141
100
AcDbEntity
  8
0
100
AcDbBlockBegin
  2
*MODEL_SPACE
 70
     0
 10
0.0
 20
0.0
 30
0.0
  3
*MODEL_SPACE
  1

  0
ENDBLK
  5
142
100
AcDbEntity
  8
0
100
AcDbBlockEnd
  0
BLOCK
  5
13F
100
AcDbEntity
 67
     1
  8
0
100
AcDbBlockBegin
  2
*PAPER_SPACE
 70
     0
 10
0.0
 20
0.0
 30
0.0
  3
*PAPER_SPACE
  1

  0
ENDBLK
  5
140
100
AcDbEntity
 67
     1
  8
0
100
AcDbBlockEnd
  0
BLOCK
  5
8D
100
AcDbEntity
  8
0
100
AcDbBlockBegin
  2
AVE_RENDER
 70
     0
 10
0.0
 20
0.0
 30
0.0
  3
AVE_RENDER
  1
AVE_RENDER
  0
ENDBLK
  5
8E
100
AcDbEntity
  8
0
100
AcDbBlockEnd
  0
BLOCK
  5
90
100
AcDbEntity
  8
0
100
AcDbBlockBegin
  2
AVE_GLOBAL
 70
     0
 10
0.0
 20
0.0
 30
0.0
  3
AVE_GLOBAL
  1
AVE_GLOBAL
  0
ENDBLK
  5
91
100
AcDbEntity
  8
0
100
AcDbBlockEnd
  0
BLOCK
  5
C9
100
AcDbEntity
  8
0
100
AcDbBlockBegin
  2
SCH_IS
 70
     0
 10
0.0
 20
0.0
 30
0.0
  3
SCH_IS
  1

  0
INSERT
  5
C0
100
AcDbEntity
  8
ASHADE
 62
     1
100
AcDbBlockReference
  2
AVE_RENDER
 10
0.0
 20
0.0
 30
0.0
1001
AVE_RENDER
1002
{
1070
     6
1000
Pref
1070
    50
1070
    20
1070
     1
1070
     0
1000

1070
    10
1070
     1
1070
    30
1040
25.4
1070
     1
1040
0.3
1040
0.7
1040
0.0
1040
10.0
1010
-1.0
1020
-1.0
1030
-1.0
1040
0.3
1070
    49
1070
     0
1070
     0
1010
1.0
1020
1.0
1030
1.0
1040
45.0
1070
     1
1070
     0
1000
WCS
1040
0.0
1002
}
  0
INSERT
  5
C1
100
AcDbEntity
  8
ASHADE
 62
     3
100
AcDbBlockReference
  2
AVE_RENDER
 10
0.0
 20
0.0
 30
0.0
1001
AVE_RENDER
1002
{
1070
     0
1000
Full Opt
1070
     0
1070
     1
1070
     1
1070
     1
1070
     0
1070
     0
1070
     0
1070
     1
1070
     1
1040
0.0001
1040
0.0001
1002
}
  0
INSERT
  5
C2
100
AcDbEntity
  8
ASHADE
 62
     4
100
AcDbBlockReference
  2
AVE_RENDER
 10
0.0
 20
0.0
 30
0.0
1001
AVE_RENDER
1002
{
1070
     0
1000
Quick Opt
1070
     0
1070
     1
1070
     1
1070
     1
1070
     0
1070
     0
1070
     1
1002
}
  0
INSERT
  5
C3
100
AcDbEntity
  8
ASHADE
 62
     5
100
AcDbBlockReference
  2
AVE_RENDER
 10
0.0
 20
0.0
 30
0.0
1001
AVE_RENDER
1002
{
1070
     1
1000
Scanl Opt
1070
     2
1070
     0
1070
     2
1040
2.0
1040
4.0
1070
     0
1070
     1
1070
     0
1040
0.03
1002
}
  0
INSERT
  5
C4
100
AcDbEntity
  8
ASHADE
 62
     6
100
AcDbBlockReference
  2
AVE_RENDER
 10
0.0
 20
0.0
 30
0.0
1001
AVE_RENDER
1002
{
1070
     2
1000
Raytr Opt
1070
     2
1070
     0
1070
     2
1040
2.0
1040
4.0
1070
     0
1070
     1
1070
     1
1040
0.03
1070
     3
1040
0.03
1002
}
  0
INSERT
  5
C5
100
AcDbEntity
  8
ASHADE
 62
     7
100
AcDbBlockReference
  2
AVE_RENDER
 10
0.0
 20
0.0
 30
0.0
1001
AVE_RENDER
1002
{
1070
     0
1000
RFile Opt
1070
     5
1070
   640
1070
   480
1070
 10000
1070
     3
1070
    32
1070
    24
1070
     0
1070
     0
1070
     0
1070
     1
1070
     0
1070
     0
1070
     0
1002
}
  0
INSERT
  5
C6
100
AcDbEntity
  8
ASHADE
 62
     8
100
AcDbBlockReference
  2
AVE_RENDER
 10
0.0
 20
0.0
 30
0.0
1001
AVE_RENDER
1002
{
1070
     0
1000
Fog Opt
1070
     0
1070
     0
1040
0.0
1040
1.0
1040
0.0
1040
1.0
1010
0.5
1020
0.5
1030
0.5
1002
}
  0
INSERT
  5
C7
100
AcDbEntity
  8
ASHADE
 62
     9
100
AcDbBlockReference
  2
AVE_RENDER
 10
0.0
 20
0.0
 30
0.0
1001
AVE_RENDER
1002
{
1070
     0
1000
BG Opt
1070
     0
1070
     1
1010
0.0
1020
0.0
1030
0.0
1010
1.0
1020
0.0
1030
0.0
1010
0.0
1020
1.0
1030
0.0
1010
0.0
1020
0.0
1030
1.0
1040
0.5
1040
0.33
1040
0.0
1000

1070
     1
1000

1070
     1
1070
     1
1040
1.0
1040
1.0
1040
0.0
1040
0.0
1070
     0
1002
}
  0
INSERT
  5
C8
100
AcDbEntity
  8
ASHADE
 62
     1
100
AcDbBlockReference
  2
AVE_GLOBAL
 10
0.0
 20
0.0
 30
0.0
1001
AVE_MATERIAL
1002
{
1000
*GLOBAL*
1000
1
1000
Finition globale.
1002
{
1002
}
1002
{
1070
    63
1002
{
1002
{
1010
-1.0
1020
-1.0
1030
-1.0
1002
}
1040
0.1
1000

1040
0.0
1002
{
1002
}
1040
0.0
1002
{
1002
}
1040
0.0
1002
}
1002
{
1002
{
1010
-1.0
1020
-1.0
1030
-1.0
1002
}
1040
0.7
1000

1040
0.0
1002
{
1002
}
1040
0.0
1002
{
1002
}
1040
0.0
1002
}
1002
{
1002
{
1010
-1.0
1020
-1.0
1030
-1.0
1002
}
1040
0.2
1000

1040
0.0
1002
{
1002
}
1040
0.0
1002
{
1002
}
1040
0.0
1002
}
1002
{
1070
     0
1002
{
1070
     1
1002
{
1040
1.0
1040
1.0
1000

1040
0.0
1002
{
1002
}
1040
0.0
1002
{
1002
}
1040
0.0
1002
}
1002
}
1040
1.0
1040
0.0
1040
0.0
1002
}
1002
{
1040
1.0
1040
1.0
1000

1040
0.0
1002
{
1002
}
1040
0.0
1002
{
1002
}
1040
0.0
1002
}
1002
{
1040
0.5
1040
1.0
1000

1040
0.0
1002
{
1002
}
1040
0.0
1002
{
1002
}
1040
0.0
1002
}
1002
{
1070
     0
1040
0.0
1002
{
1002
}
1040
1.0
1002
{
1002
}
1040
0.0
1002
}
1002
{
1040
0.0
1002
{
1002
{
1010
0.0
1020
0.0
1030
0.0
1002
}
1040
1.0
1000

1040
0.0
1002
{
1002
}
1040
0.0
1002
{
1002
}
1040
0.0
1002
}
1002
}
1002
{
1002
{
1070
     1
1002
{
1040
0.0
1040
1.0
1000

1040
0.0
1002
{
1002
}
1040
0.0
1002
{
1002
}
1040
0.0
1002
}
1002
}
1040
0.0
1002
{
1002
}
1010
1.0
1020
0.0
1030
0.0
1010
0.0
1020
1.0
1030
0.0
1010
0.0
1020
0.0
1030
1.0
1070
     0
1002
}
1002
{
1002
{
1040
1.0
1040
1.0
1002
{
1070
     1
1002
{
1040
1.0
1040
1.0
1000

1040
0.0
1002
{
1002
}
1040
0.0
1002
{
1002
}
1040
0.0
1002
}
1002
}
1002
}
1070
     0
1040
0.0
1002
{
1002
}
1002
}
1002
{
1002
}
1002
}
1002
{
1071
        3
1070
     3
1070
     0
1002
{
1070
     2
1070
     0
1070
     0
1040
0.0
1002
}
1070
     0
1070
     2
1002
{
1002
}
1002
}
1002
{
1040
8030.0
1040
190.300003
1040
0.305
1040
228.0
1040
545.0
1040
14.0
1040
17.4
1040
0.456
1002
}
1002
}
  0
ENDBLK
  5
CA
100
AcDbEntity
  8
0
100
AcDbBlockEnd
  0
BLOCK
  5
232
100
AcDbEntity
  8
ALPHA
 62
     7
100
AcDbBlockBegin
  2
AI9-BLK1
 70
     0
 10
0.0
 20
0.0
 30
0.0
  3
AI9-BLK1
  1

  0
SPLINE
  5
14E
100
AcDbEntity
  8
ALPHA
 62
     7
100
AcDbSpline
210
0.0
220
0.0
230
-1.0
 70
    11
 71
     3
 72
    29
 73
    25
 74
     0
 42
0.0000001
 43
0.0000001
 40
0.0
 40
0.0
 40
0.0
 40
0.0
 40
1.0
 40
1.0
 40
1.0
 40
2.0
 40
2.0
 40
2.0
 40
3.0
 40
3.0
 40
3.0
 40
4.0
 40
4.0
 40
4.0
 40
5.0
 40
5.0
 40
5.0
 40
6.0
 40
6.0
 40
6.0
 40
7.0
 40
7.0
 40
7.0
 40
8.0
 40
8.0
 40
8.0
 40
8.0
 10
146.0000891791449
 20
-98.25020446777344
 30
0.0
 10
146.0000891791449
 20
-99.90660637749565
 30
0.0
 10
144.6571909586588
 20
-101.2501936170789
 30
0.0
 10
143.0001000298393
 20
-101.2501936170789
 30
0.0
 10
143.0001000298393
 20
-101.2501936170789
 30
0.0
 10
-143.0000139024522
 20
-101.2501936170789
 30
0.0
 10
-143.0000139024522
 20
-101.2501936170789
 30
0.0
 10
-144.656760321723
 20
-101.2501936170789
 30
0.0
 10
-146.0000030517577
 20
-99.90660637749565
 30
0.0
 10
-146.0000030517577
 20
-98.25020446777344
 30
0.0
 10
-146.0000030517577
 20
-98.25020446777344
 30
0.0
 10
-146.0000030517577
 20
98.25011834038628
 30
0.0
 10
-146.0000030517577
 20
98.25011834038628
 30
0.0
 10
-146.0000030517577
 20
99.90686475965711
 30
0.0
 10
-144.656760321723
 20
101.2501074896918
 30
0.0
 10
-143.0000139024522
 20
101.2501074896918
 30
0.0
 10
-143.0000139024522
 20
101.2501074896918
 30
0.0
 10
143.0001000298393
 20
101.2501074896918
 30
0.0
 10
143.0001000298393
 20
101.2501074896918
 30
0.0
 10
144.6571909586588
 20
101.2501074896918
 30
0.0
 10
146.0000891791449
 20
99.90686475965711
 30
0.0
 10
146.0000891791449
 20
98.25011834038628
 30
0.0
 10
146.0000891791449
 20
98.25011834038628
 30
0.0
 10
146.0000891791449
 20
-98.25020446777344
 30
0.0
 10
146.0000891791449
 20
-98.25020446777344
 30
0.0
  0
SPLINE
  5
14F
100
AcDbEntity
  8
ALPHA
 62
     7
100
AcDbSpline
210
0.0
220
0.0
230
-1.0
 70
    11
 71
     3
 72
    29
 73
    25
 74
     0
 42
0.0000001
 43
0.0000001
 40
0.0
 40
0.0
 40
0.0
 40
0.0
 40
1.0
 40
1.0
 40
1.0
 40
2.0
 40
2.0
 40
2.0
 40
3.0
 40
3.0
 40
3.0
 40
4.0
 40
4.0
 40
4.0
 40
5.0
 40
5.0
 40
5.0
 40
6.0
 40
6.0
 40
6.0
 40
7.0
 40
7.0
 40
7.0
 40
8.0
 40
8.0
 40
8.0
 40
8.0
 10
76.18936326768663
 20
40.38818935818142
 30
0.0
 10
77.01894226074218
 20
40.38818935818142
 30
0.0
 10
77.69142489963107
 20
41.0606719970703
 30
0.0
 10
77.69142489963107
 20
41.88887295193142
 30
0.0
 10
77.69142489963107
 20
41.88887295193142
 30
0.0
 10
77.87056986490885
 20
67.24339769151474
 30
0.0
 10
77.87056986490885
 20
67.24339769151474
 30
0.0
 10
77.87056986490885
 20
68.0757327609592
 30
0.0
 10
77.19808722601996
 20
68.74683736165363
 30
0.0
 10
76.36437411838106
 20
68.74683736165363
 30
0.0
 10
76.36437411838106
 20
68.74683736165363
 30
0.0
 10
-76.01202697753905
 20
68.92460428873697
 30
0.0
 10
-76.01202697753905
 20
68.92460428873697
 30
0.0
 10
-76.84022793240017
 20
68.92460428873697
 30
0.0
 10
-77.51271057128906
 20
68.25074361165363
 30
0.0
 10
-77.51271057128906
 20
67.42116461859808
 30
0.0
 10
-77.51271057128906
 20
67.42116461859808
 30
0.0
 10
-77.69185553656683
 20
41.88887295193142
 30
0.0
 10
-77.69185553656683
 20
41.88887295193142
 30
0.0
 10
-77.69185553656683
 20
41.0606719970703
 30
0.0
 10
-77.01937289767794
 20
40.38818935818142
 30
0.0
 10
-76.1870378282335
 20
40.38818935818142
 30
0.0
 10
-76.1870378282335
 20
40.38818935818142
 30
0.0
 10
76.18936326768663
 20
40.38818935818142
 30
0.0
 10
76.18936326768663
 20
40.38818935818142
 30
0.0
  0
POLYLINE
  5
150
100
AcDbEntity
  8
ALPHA
 62
     7
100
AcDb2dPolyline
 66
     1
 10
0.0
 20
0.0
 30
0.0
 70
     1
  0
VERTEX
  5
151
100
AcDbEntity
  8
ALPHA
 62
     7
100
AcDbVertex
100
AcDb2dVertex
 10
77.691425
 20
-84.679973
 30
0.0
  0
VERTEX
  5
152
100
AcDbEntity
  8
ALPHA
 62
     7
100
AcDbVertex
100
AcDb2dVertex
 10
77.691425
 20
25.69279
 30
0.0
  0
VERTEX
  5
153
100
AcDbEntity
  8
ALPHA
 62
     7
100
AcDbVertex
100
AcDb2dVertex
 10
-77.691856
 20
25.69279
 30
0.0
  0
VERTEX
  5
154
100
AcDbEntity
  8
ALPHA
 62
     7
100
AcDbVertex
100
AcDb2dVertex
 10
-77.691856
 20
-84.679973
 30
0.0
  0
SEQEND
  5
155
100
AcDbEntity
  8
ALPHA
 62
     7
  0
POLYLINE
  5
156
100
AcDbEntity
  8
ALPHA
 62
     7
100
AcDb2dPolyline
 66
     1
 10
0.0
 20
0.0
 30
0.0
 70
     1
  0
VERTEX
  5
157
100
AcDbEntity
  8
ALPHA
 62
     7
100
AcDbVertex
100
AcDb2dVertex
 10
-36.28198
 20
-29.293862
 30
0.0
  0
VERTEX
  5
158
100
AcDbEntity
  8
ALPHA
 62
     7
100
AcDbVertex
100
AcDb2dVertex
 10
-41.795511
 20
-25.282393
 30
0.0
  0
VERTEX
  5
159
100
AcDbEntity
  8
ALPHA
 62
     7
100
AcDbVertex
100
AcDb2dVertex
 10
-41.795511
 20
-25.282393
 30
0.0
  0
VERTEX
  5
15A
100
AcDbEntity
  8
ALPHA
 62
     7
100
AcDbVertex
100
AcDb2dVertex
 10
-47.307664
 20
-29.293862
 30
0.0
  0
VERTEX
  5
15B
100
AcDbEntity
  8
ALPHA
 62
     7
100
AcDbVertex
100
AcDb2dVertex
 10
-44.558477
 20
-29.297996
 30
0.0
  0
VERTEX
  5
15C
100
AcDbEntity
  8
ALPHA
 62
     7
100
AcDbVertex
100
AcDb2dVertex
 10
-44.558477
 20
-32.304876
 30
0.0
  0
VERTEX
  5
15D
100
AcDbEntity
  8
ALPHA
 62
     7
100
AcDbVertex
100
AcDb2dVertex
 10
-39.046325
 20
-32.304876
 30
0.0
  0
VERTEX
  5
15E
100
AcDbEntity
  8
ALPHA
 62
     7
100
AcDbVertex
100
AcDb2dVertex
 10
-39.046325
 20
-29.297996
 30
0.0
  0
SEQEND
  5
15F
100
AcDbEntity
  8
ALPHA
 62
     7
  0
POLYLINE
  5
160
100
AcDbEntity
  8
ALPHA
 62
     7
100
AcDb2dPolyline
 66
     1
 10
0.0
 20
0.0
 30
0.0
 70
     1
  0
VERTEX
  5
161
100
AcDbEntity
  8
ALPHA
 62
     7
100
AcDbVertex
100
AcDb2dVertex
 10
-23.222312
 20
-53.379214
 30
0.0
  0
VERTEX
  5
162
100
AcDbEntity
  8
ALPHA
 62
     7
100
AcDbVertex
100
AcDb2dVertex
 10
-19.210843
 20
-47.865683
 30
0.0
  0
VERTEX
  5
163
100
AcDbEntity
  8
ALPHA
 62
     7
100
AcDbVertex
100
AcDb2dVertex
 10
-19.210843
 20
-47.865683
 30
0.0
  0
VERTEX
  5
164
100
AcDbEntity
  8
ALPHA
 62
     7
100
AcDbVertex
100
AcDb2dVertex
 10
-23.222312
 20
-42.349396
 30
0.0
  0
VERTEX
  5
165
100
AcDbEntity
  8
ALPHA
 62
     7
100
AcDbVertex
100
AcDb2dVertex
 10
-23.231958
 20
-45.102716
 30
0.0
  0
VERTEX
  5
166
100
AcDbEntity
  8
ALPHA
 62
     7
100
AcDbVertex
100
AcDb2dVertex
 10
-26.238838
 20
-45.102716
 30
0.0
  0
VERTEX
  5
167
100
AcDbEntity
  8
ALPHA
 62
     7
100
AcDbVertex
100
AcDb2dVertex
 10
-26.238838
 20
-50.614869
 30
0.0
  0
VERTEX
  5
168
100
AcDbEntity
  8
ALPHA
 62
     7
100
AcDbVertex
100
AcDb2dVertex
 10
-23.231958
 20
-50.614869
 30
0.0
  0
SEQEND
  5
169
100
AcDbEntity
  8
ALPHA
 62
     7
  0
POLYLINE
  5
16A
100
AcDbEntity
  8
ALPHA
 62
     7
100
AcDb2dPolyline
 66
     1
 10
0.0
 20
0.0
 30
0.0
 70
     1
  0
VERTEX
  5
16B
100
AcDbEntity
  8
ALPHA
 62
     7
100
AcDbVertex
100
AcDb2dVertex
 10
-60.367159
 20
-42.349396
 30
0.0
  0
VERTEX
  5
16C
100
AcDbEntity
  8
ALPHA
 62
     7
100
AcDbVertex
100
AcDb2dVertex
 10
-64.378629
 20
-47.865683
 30
0.0
  0
VERTEX
  5
16D
100
AcDbEntity
  8
ALPHA
 62
     7
100
AcDbVertex
100
AcDb2dVertex
 10
-64.378629
 20
-47.865683
 30
0.0
  0
VERTEX
  5
16E
100
AcDbEntity
  8
ALPHA
 62
     7
100
AcDbVertex
100
AcDb2dVertex
 10
-60.367159
 20
-53.379214
 30
0.0
  0
VERTEX
  5
16F
100
AcDbEntity
  8
ALPHA
 62
     7
100
AcDbVertex
100
AcDb2dVertex
 10
-60.363025
 20
-50.62865
 30
0.0
  0
VERTEX
  5
170
100
AcDbEntity
  8
ALPHA
 62
     7
100
AcDbVertex
100
AcDb2dVertex
 10
-57.356146
 20
-50.62865
 30
0.0
  0
VERTEX
  5
171
100
AcDbEntity
  8
ALPHA
 62
     7
100
AcDbVertex
100
AcDb2dVertex
 10
-57.356146
 20
-45.112363
 30
0.0
  0
VERTEX
  5
172
100
AcDbEntity
  8
ALPHA
 62
     7
100
AcDbVertex
100
AcDb2dVertex
 10
-60.363025
 20
-45.112363
 30
0.0
  0
SEQEND
  5
173
100
AcDbEntity
  8
ALPHA
 62
     7
  0
POLYLINE
  5
174
100
AcDbEntity
  8
ALPHA
 62
     7
100
AcDb2dPolyline
 66
     1
 10
0.0
 20
0.0
 30
0.0
 70
     1
  0
VERTEX
  5
175
100
AcDbEntity
  8
ALPHA
 62
     7
100
AcDbVertex
100
AcDb2dVertex
 10
-47.307664
 20
-66.438882
 30
0.0
  0
VERTEX
  5
176
100
AcDbEntity
  8
ALPHA
 62
     7
100
AcDbVertex
100
AcDb2dVertex
 10
-41.795511
 20
-70.444839
 30
0.0
  0
VERTEX
  5
177
100
AcDbEntity
  8
ALPHA
 62
     7
100
AcDbVertex
100
AcDb2dVertex
 10
-41.795511
 20
-70.444839
 30
0.0
  0
VERTEX
  5
178
100
AcDbEntity
  8
ALPHA
 62
     7
100
AcDbVertex
100
AcDb2dVertex
 10
-36.28198
 20
-66.438882
 30
0.0
  0
VERTEX
  5
179
100
AcDbEntity
  8
ALPHA
 62
     7
100
AcDbVertex
100
AcDb2dVertex
 10
-39.032544
 20
-66.429236
 30
0.0
  0
VERTEX
  5
17A
100
AcDbEntity
  8
ALPHA
 62
     7
100
AcDbVertex
100
AcDb2dVertex
 10
-39.032544
 20
-63.422356
 30
0.0
  0
VERTEX
  5
17B
100
AcDbEntity
  8
ALPHA
 62
     7
100
AcDbVertex
100
AcDb2dVertex
 10
-44.544697
 20
-63.422356
 30
0.0
  0
VERTEX
  5
17C
100
AcDbEntity
  8
ALPHA
 62
     7
100
AcDbVertex
100
AcDb2dVertex
 10
-44.544697
 20
-66.429236
 30
0.0
  0
SEQEND
  5
17D
100
AcDbEntity
  8
ALPHA
 62
     7
  0
SPLINE
  5
17E
100
AcDbEntity
  8
ALPHA
 62
     7
100
AcDbSpline
210
0.0
220
0.0
230
-1.0
 70
     8
 71
     3
 72
    17
 73
    13
 74
     0
 42
0.0000001
 43
0.0000001
 40
0.0
 40
0.0
 40
0.0
 40
0.0
 40
1.0
 40
1.0
 40
1.0
 40
2.0
 40
2.0
 40
2.0
 40
3.0
 40
3.0
 40
3.0
 40
4.0
 40
4.0
 40
4.0
 40
4.0
 10
-48.39906989203559
 20
-38.33792690700954
 30
0.0
 10
-48.39906989203559
 20
-38.33792690700954
 30
0.0
 10
-48.39906989203559
 20
-34.95759921603732
 30
0.0
 10
-48.39906989203559
 20
-34.95759921603732
 30
0.0
 10
-48.39906989203559
 20
-34.95759921603732
 30
0.0
 10
-48.40320400661892
 20
-34.95346510145399
 30
0.0
 10
-48.40320400661892
 20
-34.95346510145399
 30
0.0
 10
-49.89975348578559
 20
-33.34667256673176
 30
0.0
 10
-50.81614888509114
 20
-31.18590867784288
 30
0.0
 10
-50.81614888509114
 20
-28.81017083062065
 30
0.0
 10
-50.81614888509114
 20
-24.42525329589843
 30
0.0
 10
-47.6893802218967
 20
-20.76931796603732
 30
0.0
 10
-43.54010721842447
 20
-19.95903150770399
 30
0.0
  0
SPLINE
  5
17F
100
AcDbEntity
  8
ALPHA
 62
     7
100
AcDbSpline
210
0.0
220
0.0
230
1.0
 70
     8
 71
     3
 72
    17
 73
    13
 74
     0
 42
0.0000001
 43
0.0000001
 40
0.0
 40
0.0
 40
0.0
 40
0.0
 40
1.0
 40
1.0
 40
1.0
 40
2.0
 40
2.0
 40
2.0
 40
3.0
 40
3.0
 40
3.0
 40
4.0
 40
4.0
 40
4.0
 40
4.0
 10
-40.0495364718967
 20
-19.95903150770399
 30
0.0
 10
-35.9043975830078
 20
-20.76931796603732
 30
0.0
 10
-32.77349480523003
 20
-24.42525329589843
 30
0.0
 10
-32.77349480523003
 20
-28.81017083062065
 30
0.0
 10
-32.77349480523003
 20
-31.28237135145399
 30
0.0
 10
-33.76292622884114
 20
-33.51617126464843
 30
0.0
 10
-35.37109680175781
 20
-35.14639044867621
 30
0.0
 10
-35.37109680175781
 20
-35.14639044867621
 30
0.0
 10
-35.36558464898003
 20
-35.15603671603732
 30
0.0
 10
-35.36558464898003
 20
-35.15603671603732
 30
0.0
 10
-35.36558464898003
 20
-35.15603671603732
 30
0.0
 10
-35.36558464898003
 20
-38.33792690700954
 30
0.0
 10
-35.36558464898003
 20
-38.33792690700954
 30
0.0
  0
SPLINE
  5
180
100
AcDbEntity
  8
ALPHA
 62
     7
100
AcDbSpline
210
0.0
220
0.0
230
-1.0
 70
     8
 71
     3
 72
    17
 73
    13
 74
     0
 42
0.0000001
 43
0.0000001
 40
0.0
 40
0.0
 40
0.0
 40
0.0
 40
1.0
 40
1.0
 40
1.0
 40
2.0
 40
2.0
 40
2.0
 40
3.0
 40
3.0
 40
3.0
 40
4.0
 40
4.0
 40
4.0
 40
4.0
 10
-32.35870530870225
 20
-41.3503184000651
 30
0.0
 10
-32.35870530870225
 20
-41.3503184000651
 30
0.0
 10
-28.9742435031467
 20
-41.3503184000651
 30
0.0
 10
-28.9742435031467
 20
-41.3503184000651
 30
0.0
 10
-28.9742435031467
 20
-41.3503184000651
 30
0.0
 10
-28.9742435031467
 20
-41.34480624728732
 30
0.0
 10
-28.9742435031467
 20
-41.34480624728732
 30
0.0
 10
-27.3619388156467
 20
-39.84825676812065
 30
0.0
 10
-25.20255296495225
 20
-38.9318613688151
 30
0.0
 10
-22.83094923231336
 20
-38.9318613688151
 30
0.0
 10
-18.44740973578558
 20
-38.9318613688151
 30
0.0
 10
-14.79009636773003
 20
-42.05863003200954
 30
0.0
 10
-13.9798099093967
 20
-46.20790303548176
 30
0.0
  0
SPLINE
  5
181
100
AcDbEntity
  8
ALPHA
 62
     7
100
AcDbSpline
210
0.0
220
0.0
230
1.0
 70
     8
 71
     3
 72
    17
 73
    13
 74
     0
 42
0.0000001
 43
0.0000001
 40
0.0
 40
0.0
 40
0.0
 40
0.0
 40
1.0
 40
1.0
 40
1.0
 40
2.0
 40
2.0
 40
2.0
 40
3.0
 40
3.0
 40
3.0
 40
4.0
 40
4.0
 40
4.0
 40
4.0
 10
-13.9798099093967
 20
-49.69847378200954
 30
0.0
 10
-14.79009636773003
 20
-53.84361267089843
 30
0.0
 10
-18.44740973578558
 20
-56.97589348687065
 30
0.0
 10
-22.83094923231336
 20
-56.97589348687065
 30
0.0
 10
-25.29901563856336
 20
-56.97589348687065
 30
0.0
 10
-27.53694966634114
 20
-55.9850840250651
 30
0.0
 10
-29.16716885036892
 20
-54.37829149034287
 30
0.0
 10
-29.16716885036892
 20
-54.37829149034287
 30
0.0
 10
-29.17681511773003
 20
-54.38242560492621
 30
0.0
 10
-29.17681511773003
 20
-54.38242560492621
 30
0.0
 10
-29.17681511773003
 20
-54.38242560492621
 30
0.0
 10
-32.35870530870225
 20
-54.38242560492621
 30
0.0
 10
-32.35870530870225
 20
-54.38242560492621
 30
0.0
  0
SPLINE
  5
182
100
AcDbEntity
  8
ALPHA
 62
     7
100
AcDbSpline
210
0.0
220
0.0
230
1.0
 70
     8
 71
     3
 72
    17
 73
    13
 74
     0
 42
0.0000001
 43
0.0000001
 40
0.0
 40
0.0
 40
0.0
 40
0.0
 40
1.0
 40
1.0
 40
1.0
 40
2.0
 40
2.0
 40
2.0
 40
3.0
 40
3.0
 40
3.0
 40
4.0
 40
4.0
 40
4.0
 40
4.0
 10
-35.36558464898003
 20
-57.38930494520399
 30
0.0
 10
-35.36558464898003
 20
-57.38930494520399
 30
0.0
 10
-35.36558464898003
 20
-60.77514478895398
 30
0.0
 10
-35.36558464898003
 20
-60.77514478895398
 30
0.0
 10
-35.36558464898003
 20
-60.77514478895398
 30
0.0
 10
-35.36558464898003
 20
-60.77514478895398
 30
0.0
 10
-35.36558464898003
 20
-60.77514478895398
 30
0.0
 10
-33.86490105523003
 20
-62.38607143825954
 30
0.0
 10
-32.94850565592447
 20
-64.54683532714843
 30
0.0
 10
-32.94850565592447
 20
-66.91843905978732
 30
0.0
 10
-32.94850565592447
 20
-71.30197855631509
 30
0.0
 10
-36.07940843370225
 20
-74.95791388617622
 30
0.0
 10
-40.22868143717447
 20
-75.76957838270399
 30
0.0
  0
SPLINE
  5
183
100
AcDbEntity
  8
ALPHA
 62
     7
100
AcDbSpline
210
0.0
220
0.0
230
-1.0
 70
     8
 71
     3
 72
    17
 73
    13
 74
     0
 42
0.0000001
 43
0.0000001
 40
0.0
 40
0.0
 40
0.0
 40
0.0
 40
1.0
 40
1.0
 40
1.0
 40
2.0
 40
2.0
 40
2.0
 40
3.0
 40
3.0
 40
3.0
 40
4.0
 40
4.0
 40
4.0
 40
4.0
 10
-43.71511806911892
 20
-75.76957838270399
 30
0.0
 10
-47.86439107259114
 20
-74.95791388617622
 30
0.0
 10
-50.99667188856336
 20
-71.30197855631509
 30
0.0
 10
-50.99667188856336
 20
-66.91843905978732
 30
0.0
 10
-50.99667188856336
 20
-64.44899461534287
 30
0.0
 10
-50.00172831217447
 20
-62.2110605875651
 30
0.0
 10
-48.39493577745225
 20
-60.58084140353732
 30
0.0
 10
-48.39493577745225
 20
-60.58084140353732
 30
0.0
 10
-48.39906989203559
 20
-60.57257317437065
 30
0.0
 10
-48.39906989203559
 20
-60.57257317437065
 30
0.0
 10
-48.39906989203559
 20
-60.57257317437065
 30
0.0
 10
-48.39906989203559
 20
-57.38930494520399
 30
0.0
 10
-48.39906989203559
 20
-57.38930494520399
 30
0.0
  0
SPLINE
  5
184
100
AcDbEntity
  8
ALPHA
 62
     7
100
AcDbSpline
210
0.0
220
0.0
230
1.0
 70
     8
 71
     3
 72
    17
 73
    13
 74
     0
 42
0.0000001
 43
0.0000001
 40
0.0
 40
0.0
 40
0.0
 40
0.0
 40
1.0
 40
1.0
 40
1.0
 40
2.0
 40
2.0
 40
2.0
 40
3.0
 40
3.0
 40
3.0
 40
4.0
 40
4.0
 40
4.0
 40
4.0
 10
-51.4100833468967
 20
-54.38242560492621
 30
0.0
 10
-51.4100833468967
 20
-54.38242560492621
 30
0.0
 10
-54.79023878309462
 20
-54.38242560492621
 30
0.0
 10
-54.79023878309462
 20
-54.38242560492621
 30
0.0
 10
-54.79023878309462
 20
-54.38242560492621
 30
0.0
 10
-54.79575093587239
 20
-54.38242560492621
 30
0.0
 10
-54.79575093587239
 20
-54.38242560492621
 30
0.0
 10
-56.40254347059461
 20
-55.88448723687065
 30
0.0
 10
-58.56192932128905
 20
-56.80088263617621
 30
0.0
 10
-60.93904520670572
 20
-56.80088263617621
 30
0.0
 10
-65.3225847032335
 20
-56.80088263617621
 30
0.0
 10
-68.97989807128905
 20
-53.66860182020399
 30
0.0
 10
-69.7901845296224
 20
-49.51932881673176
 30
0.0
  0
SPLINE
  5
185
100
AcDbEntity
  8
ALPHA
 62
     7
100
AcDbSpline
210
0.0
220
0.0
230
-1.0
 70
     8
 71
     3
 72
    17
 73
    13
 74
     0
 42
0.0000001
 43
0.0000001
 40
0.0
 40
0.0
 40
0.0
 40
0.0
 40
1.0
 40
1.0
 40
1.0
 40
2.0
 40
2.0
 40
2.0
 40
3.0
 40
3.0
 40
3.0
 40
4.0
 40
4.0
 40
4.0
 40
4.0
 10
-69.7901845296224
 20
-46.03289218478732
 30
0.0
 10
-68.97989807128905
 20
-41.88361918131509
 30
0.0
 10
-65.3225847032335
 20
-38.75271640353732
 30
0.0
 10
-60.93904520670572
 20
-38.75271640353732
 30
0.0
 10
-58.46546664767794
 20
-38.75271640353732
 30
0.0
 10
-56.2316667344835
 20
-39.74765997992621
 30
0.0
 10
-54.60161980523003
 20
-41.35445251464843
 30
0.0
 10
-54.60161980523003
 20
-41.35445251464843
 30
0.0
 10
-54.59335157606336
 20
-41.3503184000651
 30
0.0
 10
-54.59335157606336
 20
-41.3503184000651
 30
0.0
 10
-54.59335157606336
 20
-41.3503184000651
 30
0.0
 10
-51.4100833468967
 20
-41.3503184000651
 30
0.0
 10
-51.4100833468967
 20
-41.3503184000651
 30
0.0
  0
SPLINE
  5
186
100
AcDbEntity
  8
ALPHA
 62
     7
100
AcDbSpline
210
0.0
220
0.0
230
-1.0
 70
    11
 71
     3
 72
    29
 73
    25
 74
     0
 42
0.0000001
 43
0.0000001
 40
0.0
 40
0.0
 40
0.0
 40
0.0
 40
1.0
 40
1.0
 40
1.0
 40
2.0
 40
2.0
 40
2.0
 40
3.0
 40
3.0
 40
3.0
 40
4.0
 40
4.0
 40
4.0
 40
5.0
 40
5.0
 40
5.0
 40
6.0
 40
6.0
 40
6.0
 40
7.0
 40
7.0
 40
7.0
 40
8.0
 40
8.0
 40
8.0
 40
8.0
 10
-16.60497266981336
 20
-72.66485833062064
 30
0.0
 10
-16.05237935384114
 20
-72.66485833062064
 30
0.0
 10
-15.60589497884114
 20
-72.21837395562065
 30
0.0
 10
-15.60589497884114
 20
-71.66578063964843
 30
0.0
 10
-15.60589497884114
 20
-71.66578063964843
 30
0.0
 10
-15.60589497884114
 20
-64.64743211534288
 30
0.0
 10
-15.60589497884114
 20
-64.64743211534288
 30
0.0
 10
-15.60589497884114
 20
-64.09483879937065
 30
0.0
 10
-16.05237935384114
 20
-63.64422030978732
 30
0.0
 10
-16.60497266981336
 20
-63.64422030978732
 30
0.0
 10
-16.60497266981336
 20
-63.64422030978732
 30
0.0
 10
-28.63386806911892
 20
-63.64422030978732
 30
0.0
 10
-28.63386806911892
 20
-63.64422030978732
 30
0.0
 10
-29.19059549967447
 20
-63.64422030978732
 30
0.0
 10
-29.63707987467447
 20
-64.09483879937065
 30
0.0
 10
-29.63707987467447
 20
-64.64743211534288
 30
0.0
 10
-29.63707987467447
 20
-64.64743211534288
 30
0.0
 10
-29.63707987467447
 20
-71.66578063964843
 30
0.0
 10
-29.63707987467447
 20
-71.66578063964843
 30
0.0
 10
-29.63707987467447
 20
-72.21837395562065
 30
0.0
 10
-29.19059549967447
 20
-72.66485833062064
 30
0.0
 10
-28.63386806911892
 20
-72.66485833062064
 30
0.0
 10
-28.63386806911892
 20
-72.66485833062064
 30
0.0
 10
-16.60497266981336
 20
-72.66485833062064
 30
0.0
 10
-16.60497266981336
 20
-72.66485833062064
 30
0.0
  0
SPLINE
  5
187
100
AcDbEntity
  8
ALPHA
 62
     7
100
AcDbSpline
210
0.0
220
0.0
230
1.0
 70
     8
 71
     3
 72
    32
 73
    28
 74
     0
 42
0.0000001
 43
0.0000001
 40
0.0
 40
0.0
 40
0.0
 40
0.0
 40
1.0
 40
1.0
 40
1.0
 40
2.0
 40
2.0
 40
2.0
 40
3.0
 40
3.0
 40
3.0
 40
4.0
 40
4.0
 40
4.0
 40
5.0
 40
5.0
 40
5.0
 40
6.0
 40
6.0
 40
6.0
 40
7.0
 40
7.0
 40
7.0
 40
8.0
 40
8.0
 40
8.0
 40
9.0
 40
9.0
 40
9.0
 40
9.0
 10
-109.2930274115668
 20
44.47682868109808
 30
0.0
 10
-109.2930274115668
 20
44.47682868109808
 30
0.0
 10
-108.5419965955946
 20
44.47682868109808
 30
0.0
 10
-108.5419965955946
 20
44.47682868109808
 30
0.0
 10
-107.7137956407334
 20
44.47682868109808
 30
0.0
 10
-107.0413130018446
 20
45.14931131998697
 30
0.0
 10
-107.0413130018446
 20
45.98302442762586
 30
0.0
 10
-107.0413130018446
 20
45.98302442762586
 30
0.0
 10
-107.0413130018446
 20
49.49150967068142
 30
0.0
 10
-107.0413130018446
 20
49.49150967068142
 30
0.0
 10
-107.0413130018446
 20
50.32246670193142
 30
0.0
 10
-107.7137956407334
 20
50.99494934082031
 30
0.0
 10
-108.5419965955946
 20
50.99494934082031
 30
0.0
 10
-108.5419965955946
 20
50.99494934082031
 30
0.0
 10
-115.5603451199001
 20
50.99494934082031
 30
0.0
 10
-115.5603451199001
 20
50.99494934082031
 30
0.0
 10
-116.3899241129557
 20
50.99494934082031
 30
0.0
 10
-117.0624067518446
 20
50.32246670193142
 30
0.0
 10
-117.0624067518446
 20
49.49150967068142
 30
0.0
 10
-117.0624067518446
 20
49.49150967068142
 30
0.0
 10
-117.0624067518446
 20
45.98302442762586
 30
0.0
 10
-117.0624067518446
 20
45.98302442762586
 30
0.0
 10
-117.0624067518446
 20
45.14931131998697
 30
0.0
 10
-116.3899241129557
 20
44.47682868109808
 30
0.0
 10
-115.5603451199001
 20
44.47682868109808
 30
0.0
 10
-115.5603451199001
 20
44.47682868109808
 30
0.0
 10
-114.8106923421223
 20
44.47682868109808
 30
0.0
 10
-114.8106923421223
 20
44.47682868109808
 30
0.0
  0
SPLINE
  5
188
100
AcDbEntity
  8
ALPHA
 62
     7
100
AcDbSpline
210
0.0
220
0.0
230
-1.0
 70
     8
 71
     3
 72
    20
 73
    16
 74
     0
 42
0.0000001
 43
0.0000001
 40
0.0
 40
0.0
 40
0.0
 40
0.0
 40
1.0
 40
1.0
 40
1.0
 40
2.0
 40
2.0
 40
2.0
 40
3.0
 40
3.0
 40
3.0
 40
4.0
 40
4.0
 40
4.0
 40
5.0
 40
5.0
 40
5.0
 40
5.0
 10
-109.2930274115668
 20
42.47316114637587
 30
0.0
 10
-109.2930274115668
 20
42.47316114637587
 30
0.0
 10
-109.2930274115668
 20
45.23199361165364
 30
0.0
 10
-109.2930274115668
 20
45.23199361165364
 30
0.0
 10
-109.2930274115668
 20
46.75610385470919
 30
0.0
 10
-110.527749633789
 20
47.99082607693142
 30
0.0
 10
-112.0518598768446
 20
47.99082607693142
 30
0.0
 10
-112.0518598768446
 20
47.99082607693142
 30
0.0
 10
-112.0518598768446
 20
47.99082607693142
 30
0.0
 10
-112.0518598768446
 20
47.99082607693142
 30
0.0
 10
-113.5759701199001
 20
47.99082607693142
 30
0.0
 10
-114.8106923421223
 20
46.75610385470919
 30
0.0
 10
-114.8106923421223
 20
45.23199361165364
 30
0.0
 10
-114.8106923421223
 20
45.23199361165364
 30
0.0
 10
-114.8106923421223
 20
42.47316114637587
 30
0.0
 10
-114.8106923421223
 20
42.47316114637587
 30
0.0
  0
SPLINE
  5
189
100
AcDbEntity
  8
ALPHA
 62
     7
100
AcDbSpline
210
0.0
220
0.0
230
-1.0
 70
    11
 71
     3
 72
    29
 73
    25
 74
     0
 42
0.0000001
 43
0.0000001
 40
0.0
 40
0.0
 40
0.0
 40
0.0
 40
1.0
 40
1.0
 40
1.0
 40
2.0
 40
2.0
 40
2.0
 40
3.0
 40
3.0
 40
3.0
 40
4.0
 40
4.0
 40
4.0
 40
5.0
 40
5.0
 40
5.0
 40
6.0
 40
6.0
 40
6.0
 40
7.0
 40
7.0
 40
7.0
 40
8.0
 40
8.0
 40
8.0
 40
8.0
 10
-112.0518598768446
 20
43.92423536512587
 30
0.0
 10
-111.3600847032335
 20
43.92423536512587
 30
0.0
 10
-110.7992231580946
 20
44.4864749484592
 30
0.0
 10
-110.7992231580946
 20
45.17687208387586
 30
0.0
 10
-110.7992231580946
 20
45.17687208387586
 30
0.0
 10
-110.7992231580946
 20
46.18146192762586
 30
0.0
 10
-110.7992231580946
 20
46.18146192762586
 30
0.0
 10
-110.7992231580946
 20
46.87185906304253
 30
0.0
 10
-111.3600847032335
 20
47.43409864637587
 30
0.0
 10
-112.0518598768446
 20
47.43409864637587
 30
0.0
 10
-112.0518598768446
 20
47.43409864637587
 30
0.0
 10
-112.0518598768446
 20
47.43409864637587
 30
0.0
 10
-112.0518598768446
 20
47.43409864637587
 30
0.0
 10
-112.7422570122612
 20
47.43409864637587
 30
0.0
 10
-113.3044965955946
 20
46.87185906304253
 30
0.0
 10
-113.3044965955946
 20
46.18146192762586
 30
0.0
 10
-113.3044965955946
 20
46.18146192762586
 30
0.0
 10
-113.3044965955946
 20
45.17687208387586
 30
0.0
 10
-113.3044965955946
 20
45.17687208387586
 30
0.0
 10
-113.3044965955946
 20
44.4864749484592
 30
0.0
 10
-112.7422570122612
 20
43.92423536512587
 30
0.0
 10
-112.0518598768446
 20
43.92423536512587
 30
0.0
 10
-112.0518598768446
 20
43.92423536512587
 30
0.0
 10
-112.0518598768446
 20
43.92423536512587
 30
0.0
 10
-112.0518598768446
 20
43.92423536512587
 30
0.0
  0
SPLINE
  5
18A
100
AcDbEntity
  8
ALPHA
 62
     7
100
AcDbSpline
210
0.0
220
0.0
230
-1.0
 70
     8
 71
     3
 72
    32
 73
    28
 74
     0
 42
0.0000001
 43
0.0000001
 40
0.0
 40
0.0
 40
0.0
 40
0.0
 40
1.0
 40
1.0
 40
1.0
 40
2.0
 40
2.0
 40
2.0
 40
3.0
 40
3.0
 40
3.0
 40
4.0
 40
4.0
 40
4.0
 40
5.0
 40
5.0
 40
5.0
 40
6.0
 40
6.0
 40
6.0
 40
7.0
 40
7.0
 40
7.0
 40
8.0
 40
8.0
 40
8.0
 40
9.0
 40
9.0
 40
9.0
 40
9.0
 10
-127.8207509358723
 20
15.07362772623697
 30
0.0
 10
-127.8207509358723
 20
15.07362772623697
 30
0.0
 10
-127.8207509358723
 20
12.06537034776475
 30
0.0
 10
-127.8207509358723
 20
12.06537034776475
 30
0.0
 10
-127.8207509358723
 20
11.5086429172092
 30
0.0
 10
-127.3742665608723
 20
11.0621585422092
 30
0.0
 10
-126.8189171685112
 20
11.0621585422092
 30
0.0
 10
-126.8189171685112
 20
11.0621585422092
 30
0.0
 10
-112.7835981580946
 20
11.0621585422092
 30
0.0
 10
-112.7835981580946
 20
11.0621585422092
 30
0.0
 10
-112.2310048421223
 20
11.0621585422092
 30
0.0
 10
-111.780386352539
 20
11.5086429172092
 30
0.0
 10
-111.780386352539
 20
12.06537034776475
 30
0.0
 10
-111.780386352539
 20
12.06537034776475
 30
0.0
 10
-111.780386352539
 20
24.09426574707031
 30
0.0
 10
-111.780386352539
 20
24.09426574707031
 30
0.0
 10
-111.780386352539
 20
24.64685906304253
 30
0.0
 10
-112.2310048421223
 20
25.09334343804253
 30
0.0
 10
-112.7835981580946
 20
25.09334343804253
 30
0.0
 10
-112.7835981580946
 20
25.09334343804253
 30
0.0
 10
-126.8189171685112
 20
25.09334343804253
 30
0.0
 10
-126.8189171685112
 20
25.09334343804253
 30
0.0
 10
-127.3742665608723
 20
25.09334343804253
 30
0.0
 10
-127.8207509358723
 20
24.64685906304253
 30
0.0
 10
-127.8207509358723
 20
24.09426574707031
 30
0.0
 10
-127.8207509358723
 20
24.09426574707031
 30
0.0
 10
-127.8207509358723
 20
21.08738640679253
 30
0.0
 10
-127.8207509358723
 20
21.08738640679253
 30
0.0
  0
SPLINE
  5
18B
100
AcDbEntity
  8
ALPHA
 62
     7
100
AcDbSpline
210
0.0
220
0.0
230
1.0
 70
    11
 71
     3
 72
    26
 73
    22
 74
     0
 42
0.0000001
 43
0.0000001
 40
0.0
 40
0.0
 40
0.0
 40
0.0
 40
1.0
 40
1.0
 40
1.0
 40
2.0
 40
2.0
 40
2.0
 40
3.0
 40
3.0
 40
3.0
 40
4.0
 40
4.0
 40
4.0
 40
5.0
 40
5.0
 40
5.0
 40
6.0
 40
6.0
 40
6.0
 40
7.0
 40
7.0
 40
7.0
 40
7.0
 10
-124.8083594428168
 20
18.08050706651475
 30
0.0
 10
-124.8083594428168
 20
18.08050706651475
 30
0.0
 10
-127.816616821289
 20
21.08738640679253
 30
0.0
 10
-127.816616821289
 20
21.08738640679253
 30
0.0
 10
-127.816616821289
 20
21.08738640679253
 30
0.0
 10
-132.8285417344835
 20
21.08738640679253
 30
0.0
 10
-132.8285417344835
 20
21.08738640679253
 30
0.0
 10
-134.489077758789
 20
21.08738640679253
 30
0.0
 10
-135.8367991129556
 20
19.73828701443142
 30
0.0
 10
-135.8367991129556
 20
18.08050706651475
 30
0.0
 10
-135.8367991129556
 20
18.08050706651475
 30
0.0
 10
-135.8367991129556
 20
18.08050706651475
 30
0.0
 10
-135.8367991129556
 20
18.08050706651475
 30
0.0
 10
-135.8367991129556
 20
16.41721496582031
 30
0.0
 10
-134.489077758789
 20
15.07362772623697
 30
0.0
 10
-132.8285417344835
 20
15.07362772623697
 30
0.0
 10
-132.8285417344835
 20
15.07362772623697
 30
0.0
 10
-127.816616821289
 20
15.07362772623697
 30
0.0
 10
-127.816616821289
 20
15.07362772623697
 30
0.0
 10
-127.816616821289
 20
15.07362772623697
 30
0.0
 10
-124.8083594428168
 20
18.08050706651475
 30
0.0
 10
-124.8083594428168
 20
18.08050706651475
 30
0.0
  0
SPLINE
  5
18C
100
AcDbEntity
  8
ALPHA
 62
     7
100
AcDbSpline
210
0.0
220
0.0
230
-1.0
 70
     8
 71
     3
 72
    32
 73
    28
 74
     0
 42
0.0000001
 43
0.0000001
 40
0.0
 40
0.0
 40
0.0
 40
0.0
 40
1.0
 40
1.0
 40
1.0
 40
2.0
 40
2.0
 40
2.0
 40
3.0
 40
3.0
 40
3.0
 40
4.0
 40
4.0
 40
4.0
 40
5.0
 40
5.0
 40
5.0
 40
6.0
 40
6.0
 40
6.0
 40
7.0
 40
7.0
 40
7.0
 40
8.0
 40
8.0
 40
8.0
 40
9.0
 40
9.0
 40
9.0
 40
9.0
 10
-127.8207509358723
 20
-4.024775865342881
 30
0.0
 10
-127.8207509358723
 20
-4.024775865342881
 30
0.0
 10
-127.8207509358723
 20
-7.031655205620658
 30
0.0
 10
-127.8207509358723
 20
-7.031655205620658
 30
0.0
 10
-127.8207509358723
 20
-7.589760674370658
 30
0.0
 10
-127.3742665608723
 20
-8.036245049370659
 30
0.0
 10
-126.8189171685112
 20
-8.036245049370659
 30
0.0
 10
-126.8189171685112
 20
-8.036245049370659
 30
0.0
 10
-112.7835981580946
 20
-8.036245049370659
 30
0.0
 10
-112.7835981580946
 20
-8.036245049370659
 30
0.0
 10
-112.2310048421223
 20
-8.036245049370659
 30
0.0
 10
-111.780386352539
 20
-7.589760674370658
 30
0.0
 10
-111.780386352539
 20
-7.031655205620658
 30
0.0
 10
-111.780386352539
 20
-7.031655205620658
 30
0.0
 10
-111.780386352539
 20
4.997240193684895
 30
0.0
 10
-111.780386352539
 20
4.997240193684895
 30
0.0
 10
-111.780386352539
 20
5.549833509657117
 30
0.0
 10
-112.2310048421223
 20
5.996317884657117
 30
0.0
 10
-112.7835981580946
 20
5.996317884657117
 30
0.0
 10
-112.7835981580946
 20
5.996317884657117
 30
0.0
 10
-126.8189171685112
 20
5.996317884657117
 30
0.0
 10
-126.8189171685112
 20
5.996317884657117
 30
0.0
 10
-127.3742665608723
 20
5.996317884657117
 30
0.0
 10
-127.8207509358723
 20
5.549833509657117
 30
0.0
 10
-127.8207509358723
 20
4.997240193684895
 30
0.0
 10
-127.8207509358723
 20
4.997240193684895
 30
0.0
 10
-127.8207509358723
 20
1.988982815212673
 30
0.0
 10
-127.8207509358723
 20
1.988982815212673
 30
0.0
  0
SPLINE
  5
18D
100
AcDbEntity
  8
ALPHA
 62
     7
100
AcDbSpline
210
0.0
220
0.0
230
1.0
 70
    11
 71
     3
 72
    26
 73
    22
 74
     0
 42
0.0000001
 43
0.0000001
 40
0.0
 40
0.0
 40
0.0
 40
0.0
 40
1.0
 40
1.0
 40
1.0
 40
2.0
 40
2.0
 40
2.0
 40
3.0
 40
3.0
 40
3.0
 40
4.0
 40
4.0
 40
4.0
 40
5.0
 40
5.0
 40
5.0
 40
6.0
 40
6.0
 40
6.0
 40
7.0
 40
7.0
 40
7.0
 40
7.0
 10
-124.8083594428168
 20
-1.017896525065103
 30
0.0
 10
-124.8083594428168
 20
-1.017896525065103
 30
0.0
 10
-127.816616821289
 20
1.988982815212673
 30
0.0
 10
-127.816616821289
 20
1.988982815212673
 30
0.0
 10
-127.816616821289
 20
1.988982815212673
 30
0.0
 10
-132.8285417344835
 20
1.988982815212673
 30
0.0
 10
-132.8285417344835
 20
1.988982815212673
 30
0.0
 10
-134.489077758789
 20
1.988982815212673
 30
0.0
 10
-135.8367991129556
 20
0.6398834228515625
 30
0.0
 10
-135.8367991129556
 20
-1.017896525065103
 30
0.0
 10
-135.8367991129556
 20
-1.017896525065103
 30
0.0
 10
-135.8367991129556
 20
-1.017896525065103
 30
0.0
 10
-135.8367991129556
 20
-1.017896525065103
 30
0.0
 10
-135.8367991129556
 20
-2.679810587565103
 30
0.0
 10
-134.489077758789
 20
-4.024775865342881
 30
0.0
 10
-132.8285417344835
 20
-4.024775865342881
 30
0.0
 10
-132.8285417344835
 20
-4.024775865342881
 30
0.0
 10
-127.816616821289
 20
-4.024775865342881
 30
0.0
 10
-127.816616821289
 20
-4.024775865342881
 30
0.0
 10
-127.816616821289
 20
-4.024775865342881
 30
0.0
 10
-124.8083594428168
 20
-1.017896525065103
 30
0.0
 10
-124.8083594428168
 20
-1.017896525065103
 30
0.0
  0
SPLINE
  5
18E
100
AcDbEntity
  8
ALPHA
 62
     7
100
AcDbSpline
210
0.0
220
0.0
230
-1.0
 70
     8
 71
     3
 72
    32
 73
    28
 74
     0
 42
0.0000001
 43
0.0000001
 40
0.0
 40
0.0
 40
0.0
 40
0.0
 40
1.0
 40
1.0
 40
1.0
 40
2.0
 40
2.0
 40
2.0
 40
3.0
 40
3.0
 40
3.0
 40
4.0
 40
4.0
 40
4.0
 40
5.0
 40
5.0
 40
5.0
 40
6.0
 40
6.0
 40
6.0
 40
7.0
 40
7.0
 40
7.0
 40
8.0
 40
8.0
 40
8.0
 40
9.0
 40
9.0
 40
9.0
 40
9.0
 10
-127.8207509358723
 20
-23.12300720214843
 30
0.0
 10
-127.8207509358723
 20
-23.12300720214843
 30
0.0
 10
-127.8207509358723
 20
-26.12988654242621
 30
0.0
 10
-127.8207509358723
 20
-26.12988654242621
 30
0.0
 10
-127.8207509358723
 20
-26.68661397298176
 30
0.0
 10
-127.3742665608723
 20
-27.13309834798177
 30
0.0
 10
-126.8189171685112
 20
-27.13309834798177
 30
0.0
 10
-126.8189171685112
 20
-27.13309834798177
 30
0.0
 10
-112.7835981580946
 20
-27.13309834798177
 30
0.0
 10
-112.7835981580946
 20
-27.13309834798177
 30
0.0
 10
-112.2310048421223
 20
-27.13309834798177
 30
0.0
 10
-111.780386352539
 20
-26.68661397298176
 30
0.0
 10
-111.780386352539
 20
-26.12988654242621
 30
0.0
 10
-111.780386352539
 20
-26.12988654242621
 30
0.0
 10
-111.780386352539
 20
-14.10099114312066
 30
0.0
 10
-111.780386352539
 20
-14.10099114312066
 30
0.0
 10
-111.780386352539
 20
-13.54839782714843
 30
0.0
 10
-112.2310048421223
 20
-13.10191345214843
 30
0.0
 10
-112.7835981580946
 20
-13.10191345214843
 30
0.0
 10
-112.7835981580946
 20
-13.10191345214843
 30
0.0
 10
-126.8189171685112
 20
-13.10191345214843
 30
0.0
 10
-126.8189171685112
 20
-13.10191345214843
 30
0.0
 10
-127.3742665608723
 20
-13.10191345214843
 30
0.0
 10
-127.8207509358723
 20
-13.54839782714843
 30
0.0
 10
-127.8207509358723
 20
-14.10099114312066
 30
0.0
 10
-127.8207509358723
 20
-14.10099114312066
 30
0.0
 10
-127.8207509358723
 20
-17.10787048339843
 30
0.0
 10
-127.8207509358723
 20
-17.10787048339843
 30
0.0
  0
SPLINE
  5
18F
100
AcDbEntity
  8
ALPHA
 62
     7
100
AcDbSpline
210
0.0
220
0.0
230
1.0
 70
    11
 71
     3
 72
    26
 73
    22
 74
     0
 42
0.0000001
 43
0.0000001
 40
0.0
 40
0.0
 40
0.0
 40
0.0
 40
1.0
 40
1.0
 40
1.0
 40
2.0
 40
2.0
 40
2.0
 40
3.0
 40
3.0
 40
3.0
 40
4.0
 40
4.0
 40
4.0
 40
5.0
 40
5.0
 40
5.0
 40
6.0
 40
6.0
 40
6.0
 40
7.0
 40
7.0
 40
7.0
 40
7.0
 10
-124.8083594428168
 20
-20.11474982367621
 30
0.0
 10
-124.8083594428168
 20
-20.11474982367621
 30
0.0
 10
-127.816616821289
 20
-17.10787048339843
 30
0.0
 10
-127.816616821289
 20
-17.10787048339843
 30
0.0
 10
-127.816616821289
 20
-17.10787048339843
 30
0.0
 10
-132.8285417344835
 20
-17.10787048339843
 30
0.0
 10
-132.8285417344835
 20
-17.10787048339843
 30
0.0
 10
-134.489077758789
 20
-17.10787048339843
 30
0.0
 10
-135.8367991129556
 20
-18.45696987575954
 30
0.0
 10
-135.8367991129556
 20
-20.11474982367621
 30
0.0
 10
-135.8367991129556
 20
-20.11474982367621
 30
0.0
 10
-135.8367991129556
 20
-20.11474982367621
 30
0.0
 10
-135.8367991129556
 20
-20.11474982367621
 30
0.0
 10
-135.8367991129556
 20
-21.77804192437065
 30
0.0
 10
-134.489077758789
 20
-23.12300720214843
 30
0.0
 10
-132.8285417344835
 20
-23.12300720214843
 30
0.0
 10
-132.8285417344835
 20
-23.12300720214843
 30
0.0
 10
-127.816616821289
 20
-23.12300720214843
 30
0.0
 10
-127.816616821289
 20
-23.12300720214843
 30
0.0
 10
-127.816616821289
 20
-23.12300720214843
 30
0.0
 10
-124.8083594428168
 20
-20.11474982367621
 30
0.0
 10
-124.8083594428168
 20
-20.11474982367621
 30
0.0
  0
SPLINE
  5
190
100
AcDbEntity
  8
ALPHA
 62
     7
100
AcDbSpline
210
0.0
220
0.0
230
-1.0
 70
     8
 71
     3
 72
    32
 73
    28
 74
     0
 42
0.0000001
 43
0.0000001
 40
0.0
 40
0.0
 40
0.0
 40
0.0
 40
1.0
 40
1.0
 40
1.0
 40
2.0
 40
2.0
 40
2.0
 40
3.0
 40
3.0
 40
3.0
 40
4.0
 40
4.0
 40
4.0
 40
5.0
 40
5.0
 40
5.0
 40
6.0
 40
6.0
 40
6.0
 40
7.0
 40
7.0
 40
7.0
 40
8.0
 40
8.0
 40
8.0
 40
9.0
 40
9.0
 40
9.0
 40
9.0
 10
-127.8207509358723
 20
-42.21986050075954
 30
0.0
 10
-127.8207509358723
 20
-42.21986050075954
 30
0.0
 10
-127.8207509358723
 20
-45.22811787923177
 30
0.0
 10
-127.8207509358723
 20
-45.22811787923177
 30
0.0
 10
-127.8207509358723
 20
-45.78484530978732
 30
0.0
 10
-127.3742665608723
 20
-46.23132968478731
 30
0.0
 10
-126.8189171685112
 20
-46.23132968478731
 30
0.0
 10
-126.8189171685112
 20
-46.23132968478731
 30
0.0
 10
-112.7835981580946
 20
-46.23132968478731
 30
0.0
 10
-112.7835981580946
 20
-46.23132968478731
 30
0.0
 10
-112.2310048421223
 20
-46.23132968478731
 30
0.0
 10
-111.780386352539
 20
-45.78484530978732
 30
0.0
 10
-111.780386352539
 20
-45.22811787923177
 30
0.0
 10
-111.780386352539
 20
-45.22811787923177
 30
0.0
 10
-111.780386352539
 20
-33.19922247992621
 30
0.0
 10
-111.780386352539
 20
-33.19922247992621
 30
0.0
 10
-111.780386352539
 20
-32.64662916395399
 30
0.0
 10
-112.2310048421223
 20
-32.19876675075954
 30
0.0
 10
-112.7835981580946
 20
-32.19876675075954
 30
0.0
 10
-112.7835981580946
 20
-32.19876675075954
 30
0.0
 10
-126.8189171685112
 20
-32.19876675075954
 30
0.0
 10
-126.8189171685112
 20
-32.19876675075954
 30
0.0
 10
-127.3742665608723
 20
-32.19876675075954
 30
0.0
 10
-127.8207509358723
 20
-32.64662916395399
 30
0.0
 10
-127.8207509358723
 20
-33.19922247992621
 30
0.0
 10
-127.8207509358723
 20
-33.19922247992621
 30
0.0
 10
-127.8207509358723
 20
-36.20610182020399
 30
0.0
 10
-127.8207509358723
 20
-36.20610182020399
 30
0.0
  0
SPLINE
  5
191
100
AcDbEntity
  8
ALPHA
 62
     7
100
AcDbSpline
210
0.0
220
0.0
230
1.0
 70
    11
 71
     3
 72
    26
 73
    22
 74
     0
 42
0.0000001
 43
0.0000001
 40
0.0
 40
0.0
 40
0.0
 40
0.0
 40
1.0
 40
1.0
 40
1.0
 40
2.0
 40
2.0
 40
2.0
 40
3.0
 40
3.0
 40
3.0
 40
4.0
 40
4.0
 40
4.0
 40
5.0
 40
5.0
 40
5.0
 40
6.0
 40
6.0
 40
6.0
 40
7.0
 40
7.0
 40
7.0
 40
7.0
 10
-124.8083594428168
 20
-39.21298116048177
 30
0.0
 10
-124.8083594428168
 20
-39.21298116048177
 30
0.0
 10
-127.816616821289
 20
-36.20610182020399
 30
0.0
 10
-127.816616821289
 20
-36.20610182020399
 30
0.0
 10
-127.816616821289
 20
-36.20610182020399
 30
0.0
 10
-132.8285417344835
 20
-36.20610182020399
 30
0.0
 10
-132.8285417344835
 20
-36.20610182020399
 30
0.0
 10
-134.489077758789
 20
-36.20610182020399
 30
0.0
 10
-135.8367991129556
 20
-37.5552012125651
 30
0.0
 10
-135.8367991129556
 20
-39.21298116048177
 30
0.0
 10
-135.8367991129556
 20
-39.21298116048177
 30
0.0
 10
-135.8367991129556
 20
-39.21298116048177
 30
0.0
 10
-135.8367991129556
 20
-39.21298116048177
 30
0.0
 10
-135.8367991129556
 20
-40.87489522298176
 30
0.0
 10
-134.489077758789
 20
-42.21986050075954
 30
0.0
 10
-132.8285417344835
 20
-42.21986050075954
 30
0.0
 10
-132.8285417344835
 20
-42.21986050075954
 30
0.0
 10
-127.816616821289
 20
-42.21986050075954
 30
0.0
 10
-127.816616821289
 20
-42.21986050075954
 30
0.0
 10
-127.816616821289
 20
-42.21986050075954
 30
0.0
 10
-124.8083594428168
 20
-39.21298116048177
 30
0.0
 10
-124.8083594428168
 20
-39.21298116048177
 30
0.0
  0
SPLINE
  5
192
100
AcDbEntity
  8
ALPHA
 62
     7
100
AcDbSpline
210
0.0
220
0.0
230
-1.0
 70
     8
 71
     3
 72
    32
 73
    28
 74
     0
 42
0.0000001
 43
0.0000001
 40
0.0
 40
0.0
 40
0.0
 40
0.0
 40
1.0
 40
1.0
 40
1.0
 40
2.0
 40
2.0
 40
2.0
 40
3.0
 40
3.0
 40
3.0
 40
4.0
 40
4.0
 40
4.0
 40
5.0
 40
5.0
 40
5.0
 40
6.0
 40
6.0
 40
6.0
 40
7.0
 40
7.0
 40
7.0
 40
8.0
 40
8.0
 40
8.0
 40
9.0
 40
9.0
 40
9.0
 40
9.0
 10
-127.8207509358723
 20
-61.3180918375651
 30
0.0
 10
-127.8207509358723
 20
-61.3180918375651
 30
0.0
 10
-127.8207509358723
 20
-64.32497117784286
 30
0.0
 10
-127.8207509358723
 20
-64.32497117784286
 30
0.0
 10
-127.8207509358723
 20
-64.88169860839843
 30
0.0
 10
-127.3742665608723
 20
-65.32956102159288
 30
0.0
 10
-126.8189171685112
 20
-65.32956102159288
 30
0.0
 10
-126.8189171685112
 20
-65.32956102159288
 30
0.0
 10
-112.7835981580946
 20
-65.32956102159288
 30
0.0
 10
-112.7835981580946
 20
-65.32956102159288
 30
0.0
 10
-112.2310048421223
 20
-65.32956102159288
 30
0.0
 10
-111.780386352539
 20
-64.88169860839843
 30
0.0
 10
-111.780386352539
 20
-64.32497117784286
 30
0.0
 10
-111.780386352539
 20
-64.32497117784286
 30
0.0
 10
-111.780386352539
 20
-52.29607577853732
 30
0.0
 10
-111.780386352539
 20
-52.29607577853732
 30
0.0
 10
-111.780386352539
 20
-51.7434824625651
 30
0.0
 10
-112.2310048421223
 20
-51.2969980875651
 30
0.0
 10
-112.7835981580946
 20
-51.2969980875651
 30
0.0
 10
-112.7835981580946
 20
-51.2969980875651
 30
0.0
 10
-126.8189171685112
 20
-51.2969980875651
 30
0.0
 10
-126.8189171685112
 20
-51.2969980875651
 30
0.0
 10
-127.3742665608723
 20
-51.2969980875651
 30
0.0
 10
-127.8207509358723
 20
-51.7434824625651
 30
0.0
 10
-127.8207509358723
 20
-52.29607577853732
 30
0.0
 10
-127.8207509358723
 20
-52.29607577853732
 30
0.0
 10
-127.8207509358723
 20
-55.3029551188151
 30
0.0
 10
-127.8207509358723
 20
-55.3029551188151
 30
0.0
  0
SPLINE
  5
193
100
AcDbEntity
  8
ALPHA
 62
     7
100
AcDbSpline
210
0.0
220
0.0
230
1.0
 70
    11
 71
     3
 72
    26
 73
    22
 74
     0
 42
0.0000001
 43
0.0000001
 40
0.0
 40
0.0
 40
0.0
 40
0.0
 40
1.0
 40
1.0
 40
1.0
 40
2.0
 40
2.0
 40
2.0
 40
3.0
 40
3.0
 40
3.0
 40
4.0
 40
4.0
 40
4.0
 40
5.0
 40
5.0
 40
5.0
 40
6.0
 40
6.0
 40
6.0
 40
7.0
 40
7.0
 40
7.0
 40
7.0
 10
-124.8083594428168
 20
-58.31121249728732
 30
0.0
 10
-124.8083594428168
 20
-58.31121249728732
 30
0.0
 10
-127.816616821289
 20
-55.3029551188151
 30
0.0
 10
-127.816616821289
 20
-55.3029551188151
 30
0.0
 10
-127.816616821289
 20
-55.3029551188151
 30
0.0
 10
-132.8285417344835
 20
-55.3029551188151
 30
0.0
 10
-132.8285417344835
 20
-55.3029551188151
 30
0.0
 10
-134.489077758789
 20
-55.3029551188151
 30
0.0
 10
-135.8367991129556
 20
-56.65343254937066
 30
0.0
 10
-135.8367991129556
 20
-58.31121249728732
 30
0.0
 10
-135.8367991129556
 20
-58.31121249728732
 30
0.0
 10
-135.8367991129556
 20
-58.31121249728732
 30
0.0
 10
-135.8367991129556
 20
-58.31121249728732
 30
0.0
 10
-135.8367991129556
 20
-59.97312655978731
 30
0.0
 10
-134.489077758789
 20
-61.3180918375651
 30
0.0
 10
-132.8285417344835
 20
-61.3180918375651
 30
0.0
 10
-132.8285417344835
 20
-61.3180918375651
 30
0.0
 10
-127.816616821289
 20
-61.3180918375651
 30
0.0
 10
-127.816616821289
 20
-61.3180918375651
 30
0.0
 10
-127.816616821289
 20
-61.3180918375651
 30
0.0
 10
-124.8083594428168
 20
-58.31121249728732
 30
0.0
 10
-124.8083594428168
 20
-58.31121249728732
 30
0.0
  0
SPLINE
  5
194
100
AcDbEntity
  8
ALPHA
 62
     7
100
AcDbSpline
210
0.0
220
0.0
230
-1.0
 70
     8
 71
     3
 72
    32
 73
    28
 74
     0
 42
0.0000001
 43
0.0000001
 40
0.0
 40
0.0
 40
0.0
 40
0.0
 40
1.0
 40
1.0
 40
1.0
 40
2.0
 40
2.0
 40
2.0
 40
3.0
 40
3.0
 40
3.0
 40
4.0
 40
4.0
 40
4.0
 40
5.0
 40
5.0
 40
5.0
 40
6.0
 40
6.0
 40
6.0
 40
7.0
 40
7.0
 40
7.0
 40
8.0
 40
8.0
 40
8.0
 40
9.0
 40
9.0
 40
9.0
 40
9.0
 10
-127.8207509358723
 20
-80.41494513617621
 30
0.0
 10
-127.8207509358723
 20
-80.41494513617621
 30
0.0
 10
-127.8207509358723
 20
-83.42320251464842
 30
0.0
 10
-127.8207509358723
 20
-83.42320251464842
 30
0.0
 10
-127.8207509358723
 20
-83.97992994520398
 30
0.0
 10
-127.3742665608723
 20
-84.42641432020399
 30
0.0
 10
-126.8189171685112
 20
-84.42641432020399
 30
0.0
 10
-126.8189171685112
 20
-84.42641432020399
 30
0.0
 10
-112.7835981580946
 20
-84.42641432020399
 30
0.0
 10
-112.7835981580946
 20
-84.42641432020399
 30
0.0
 10
-112.2310048421223
 20
-84.42641432020399
 30
0.0
 10
-111.780386352539
 20
-83.97992994520398
 30
0.0
 10
-111.780386352539
 20
-83.42320251464842
 30
0.0
 10
-111.780386352539
 20
-83.42320251464842
 30
0.0
 10
-111.780386352539
 20
-71.39430711534287
 30
0.0
 10
-111.780386352539
 20
-71.39430711534287
 30
0.0
 10
-111.780386352539
 20
-70.84171379937065
 30
0.0
 10
-112.2310048421223
 20
-70.39522942437065
 30
0.0
 10
-112.7835981580946
 20
-70.39522942437065
 30
0.0
 10
-112.7835981580946
 20
-70.39522942437065
 30
0.0
 10
-126.8189171685112
 20
-70.39522942437065
 30
0.0
 10
-126.8189171685112
 20
-70.39522942437065
 30
0.0
 10
-127.3742665608723
 20
-70.39522942437065
 30
0.0
 10
-127.8207509358723
 20
-70.84171379937065
 30
0.0
 10
-127.8207509358723
 20
-71.39430711534287
 30
0.0
 10
-127.8207509358723
 20
-71.39430711534287
 30
0.0
 10
-127.8207509358723
 20
-74.40118645562065
 30
0.0
 10
-127.8207509358723
 20
-74.40118645562065
 30
0.0
  0
SPLINE
  5
195
100
AcDbEntity
  8
ALPHA
 62
     7
100
AcDbSpline
210
0.0
220
0.0
230
1.0
 70
    11
 71
     3
 72
    26
 73
    22
 74
     0
 42
0.0000001
 43
0.0000001
 40
0.0
 40
0.0
 40
0.0
 40
0.0
 40
1.0
 40
1.0
 40
1.0
 40
2.0
 40
2.0
 40
2.0
 40
3.0
 40
3.0
 40
3.0
 40
4.0
 40
4.0
 40
4.0
 40
5.0
 40
5.0
 40
5.0
 40
6.0
 40
6.0
 40
6.0
 40
7.0
 40
7.0
 40
7.0
 40
7.0
 10
-124.8083594428168
 20
-77.40806579589843
 30
0.0
 10
-124.8083594428168
 20
-77.40806579589843
 30
0.0
 10
-127.816616821289
 20
-74.40118645562065
 30
0.0
 10
-127.816616821289
 20
-74.40118645562065
 30
0.0
 10
-127.816616821289
 20
-74.40118645562065
 30
0.0
 10
-132.8285417344835
 20
-74.40118645562065
 30
0.0
 10
-132.8285417344835
 20
-74.40118645562065
 30
0.0
 10
-134.489077758789
 20
-74.40118645562065
 30
0.0
 10
-135.8367991129556
 20
-75.75028584798175
 30
0.0
 10
-135.8367991129556
 20
-77.40806579589843
 30
0.0
 10
-135.8367991129556
 20
-77.40806579589843
 30
0.0
 10
-135.8367991129556
 20
-77.40806579589843
 30
0.0
 10
-135.8367991129556
 20
-77.40806579589843
 30
0.0
 10
-135.8367991129556
 20
-79.07135789659287
 30
0.0
 10
-134.489077758789
 20
-80.41494513617621
 30
0.0
 10
-132.8285417344835
 20
-80.41494513617621
 30
0.0
 10
-132.8285417344835
 20
-80.41494513617621
 30
0.0
 10
-127.816616821289
 20
-80.41494513617621
 30
0.0
 10
-127.816616821289
 20
-80.41494513617621
 30
0.0
 10
-127.816616821289
 20
-80.41494513617621
 30
0.0
 10
-124.8083594428168
 20
-77.40806579589843
 30
0.0
 10
-124.8083594428168
 20
-77.40806579589843
 30
0.0
  0
SPLINE
  5
196
100
AcDbEntity
  8
ALPHA
 62
     7
100
AcDbSpline
210
0.0
220
0.0
230
-1.0
 70
     8
 71
     3
 72
    32
 73
    28
 74
     0
 42
0.0000001
 43
0.0000001
 40
0.0
 40
0.0
 40
0.0
 40
0.0
 40
1.0
 40
1.0
 40
1.0
 40
2.0
 40
2.0
 40
2.0
 40
3.0
 40
3.0
 40
3.0
 40
4.0
 40
4.0
 40
4.0
 40
5.0
 40
5.0
 40
5.0
 40
6.0
 40
6.0
 40
6.0
 40
7.0
 40
7.0
 40
7.0
 40
8.0
 40
8.0
 40
8.0
 40
9.0
 40
9.0
 40
9.0
 40
9.0
 10
-89.72075093587239
 20
15.07362772623697
 30
0.0
 10
-89.72075093587239
 20
15.07362772623697
 30
0.0
 10
-89.72075093587239
 20
12.06537034776475
 30
0.0
 10
-89.72075093587239
 20
12.06537034776475
 30
0.0
 10
-89.72075093587239
 20
11.5086429172092
 30
0.0
 10
-90.16723531087238
 20
11.0621585422092
 30
0.0
 10
-90.72534077962238
 20
11.0621585422092
 30
0.0
 10
-90.72534077962238
 20
11.0621585422092
 30
0.0
 10
-104.7565256754557
 20
11.0621585422092
 30
0.0
 10
-104.7565256754557
 20
11.0621585422092
 30
0.0
 10
-105.3091189914279
 20
11.0621585422092
 30
0.0
 10
-105.7611155192057
 20
11.5086429172092
 30
0.0
 10
-105.7611155192057
 20
12.06537034776475
 30
0.0
 10
-105.7611155192057
 20
12.06537034776475
 30
0.0
 10
-105.7611155192057
 20
24.09426574707031
 30
0.0
 10
-105.7611155192057
 20
24.09426574707031
 30
0.0
 10
-105.7611155192057
 20
24.64685906304253
 30
0.0
 10
-105.3091189914279
 20
25.09334343804253
 30
0.0
 10
-104.7565256754557
 20
25.09334343804253
 30
0.0
 10
-104.7565256754557
 20
25.09334343804253
 30
0.0
 10
-90.72534077962238
 20
25.09334343804253
 30
0.0
 10
-90.72534077962238
 20
25.09334343804253
 30
0.0
 10
-90.16723531087238
 20
25.09334343804253
 30
0.0
 10
-89.72075093587239
 20
24.64685906304253
 30
0.0
 10
-89.72075093587239
 20
24.09426574707031
 30
0.0
 10
-89.72075093587239
 20
24.09426574707031
 30
0.0
 10
-89.72075093587239
 20
21.08738640679253
 30
0.0
 10
-89.72075093587239
 20
21.08738640679253
 30
0.0
  0
SPLINE
  5
197
100
AcDbEntity
  8
ALPHA
 62
     7
100
AcDbSpline
210
0.0
220
0.0
230
1.0
 70
    11
 71
     3
 72
    26
 73
    22
 74
     0
 42
0.0000001
 43
0.0000001
 40
0.0
 40
0.0
 40
0.0
 40
0.0
 40
1.0
 40
1.0
 40
1.0
 40
2.0
 40
2.0
 40
2.0
 40
3.0
 40
3.0
 40
3.0
 40
4.0
 40
4.0
 40
4.0
 40
5.0
 40
5.0
 40
5.0
 40
6.0
 40
6.0
 40
6.0
 40
7.0
 40
7.0
 40
7.0
 40
7.0
 10
-92.73314242892794
 20
18.08050706651475
 30
0.0
 10
-92.73314242892794
 20
18.08050706651475
 30
0.0
 10
-89.72626308865017
 20
21.08738640679253
 30
0.0
 10
-89.72626308865017
 20
21.08738640679253
 30
0.0
 10
-89.72626308865017
 20
21.08738640679253
 30
0.0
 10
-84.71571621365017
 20
21.08738640679253
 30
0.0
 10
-84.71571621365017
 20
21.08738640679253
 30
0.0
 10
-83.05242411295571
 20
21.08738640679253
 30
0.0
 10
-81.70745883517794
 20
19.73828701443142
 30
0.0
 10
-81.70745883517794
 20
18.08050706651475
 30
0.0
 10
-81.70745883517794
 20
18.08050706651475
 30
0.0
 10
-81.70745883517794
 20
18.08050706651475
 30
0.0
 10
-81.70745883517794
 20
18.08050706651475
 30
0.0
 10
-81.70745883517794
 20
16.41721496582031
 30
0.0
 10
-83.05242411295571
 20
15.07362772623697
 30
0.0
 10
-84.71571621365017
 20
15.07362772623697
 30
0.0
 10
-84.71571621365017
 20
15.07362772623697
 30
0.0
 10
-89.72626308865017
 20
15.07362772623697
 30
0.0
 10
-89.72626308865017
 20
15.07362772623697
 30
0.0
 10
-89.72626308865017
 20
15.07362772623697
 30
0.0
 10
-92.73314242892794
 20
18.08050706651475
 30
0.0
 10
-92.73314242892794
 20
18.08050706651475
 30
0.0
  0
SPLINE
  5
198
100
AcDbEntity
  8
ALPHA
 62
     7
100
AcDbSpline
210
0.0
220
0.0
230
-1.0
 70
     8
 71
     3
 72
    32
 73
    28
 74
     0
 42
0.0000001
 43
0.0000001
 40
0.0
 40
0.0
 40
0.0
 40
0.0
 40
1.0
 40
1.0
 40
1.0
 40
2.0
 40
2.0
 40
2.0
 40
3.0
 40
3.0
 40
3.0
 40
4.0
 40
4.0
 40
4.0
 40
5.0
 40
5.0
 40
5.0
 40
6.0
 40
6.0
 40
6.0
 40
7.0
 40
7.0
 40
7.0
 40
8.0
 40
8.0
 40
8.0
 40
9.0
 40
9.0
 40
9.0
 40
9.0
 10
-89.72075093587239
 20
-4.024775865342881
 30
0.0
 10
-89.72075093587239
 20
-4.024775865342881
 30
0.0
 10
-89.72075093587239
 20
-7.031655205620658
 30
0.0
 10
-89.72075093587239
 20
-7.031655205620658
 30
0.0
 10
-89.72075093587239
 20
-7.589760674370658
 30
0.0
 10
-90.16723531087238
 20
-8.036245049370659
 30
0.0
 10
-90.72534077962238
 20
-8.036245049370659
 30
0.0
 10
-90.72534077962238
 20
-8.036245049370659
 30
0.0
 10
-104.7565256754557
 20
-8.036245049370659
 30
0.0
 10
-104.7565256754557
 20
-8.036245049370659
 30
0.0
 10
-105.3091189914279
 20
-8.036245049370659
 30
0.0
 10
-105.7611155192057
 20
-7.589760674370658
 30
0.0
 10
-105.7611155192057
 20
-7.031655205620658
 30
0.0
 10
-105.7611155192057
 20
-7.031655205620658
 30
0.0
 10
-105.7611155192057
 20
4.997240193684895
 30
0.0
 10
-105.7611155192057
 20
4.997240193684895
 30
0.0
 10
-105.7611155192057
 20
5.549833509657117
 30
0.0
 10
-105.3091189914279
 20
5.996317884657117
 30
0.0
 10
-104.7565256754557
 20
5.996317884657117
 30
0.0
 10
-104.7565256754557
 20
5.996317884657117
 30
0.0
 10
-90.72534077962238
 20
5.996317884657117
 30
0.0
 10
-90.72534077962238
 20
5.996317884657117
 30
0.0
 10
-90.16723531087238
 20
5.996317884657117
 30
0.0
 10
-89.72075093587239
 20
5.549833509657117
 30
0.0
 10
-89.72075093587239
 20
4.997240193684895
 30
0.0
 10
-89.72075093587239
 20
4.997240193684895
 30
0.0
 10
-89.72075093587239
 20
1.988982815212673
 30
0.0
 10
-89.72075093587239
 20
1.988982815212673
 30
0.0
  0
SPLINE
  5
199
100
AcDbEntity
  8
ALPHA
 62
     7
100
AcDbSpline
210
0.0
220
0.0
230
1.0
 70
    11
 71
     3
 72
    26
 73
    22
 74
     0
 42
0.0000001
 43
0.0000001
 40
0.0
 40
0.0
 40
0.0
 40
0.0
 40
1.0
 40
1.0
 40
1.0
 40
2.0
 40
2.0
 40
2.0
 40
3.0
 40
3.0
 40
3.0
 40
4.0
 40
4.0
 40
4.0
 40
5.0
 40
5.0
 40
5.0
 40
6.0
 40
6.0
 40
6.0
 40
7.0
 40
7.0
 40
7.0
 40
7.0
 10
-92.73314242892794
 20
-1.017896525065103
 30
0.0
 10
-92.73314242892794
 20
-1.017896525065103
 30
0.0
 10
-89.72626308865017
 20
1.988982815212673
 30
0.0
 10
-89.72626308865017
 20
1.988982815212673
 30
0.0
 10
-89.72626308865017
 20
1.988982815212673
 30
0.0
 10
-84.71571621365017
 20
1.988982815212673
 30
0.0
 10
-84.71571621365017
 20
1.988982815212673
 30
0.0
 10
-83.05242411295571
 20
1.988982815212673
 30
0.0
 10
-81.70745883517794
 20
0.6398834228515625
 30
0.0
 10
-81.70745883517794
 20
-1.017896525065103
 30
0.0
 10
-81.70745883517794
 20
-1.017896525065103
 30
0.0
 10
-81.70745883517794
 20
-1.017896525065103
 30
0.0
 10
-81.70745883517794
 20
-1.017896525065103
 30
0.0
 10
-81.70745883517794
 20
-2.679810587565103
 30
0.0
 10
-83.05242411295571
 20
-4.024775865342881
 30
0.0
 10
-84.71571621365017
 20
-4.024775865342881
 30
0.0
 10
-84.71571621365017
 20
-4.024775865342881
 30
0.0
 10
-89.72626308865017
 20
-4.024775865342881
 30
0.0
 10
-89.72626308865017
 20
-4.024775865342881
 30
0.0
 10
-89.72626308865017
 20
-4.024775865342881
 30
0.0
 10
-92.73314242892794
 20
-1.017896525065103
 30
0.0
 10
-92.73314242892794
 20
-1.017896525065103
 30
0.0
  0
SPLINE
  5
19A
100
AcDbEntity
  8
ALPHA
 62
     7
100
AcDbSpline
210
0.0
220
0.0
230
-1.0
 70
     8
 71
     3
 72
    32
 73
    28
 74
     0
 42
0.0000001
 43
0.0000001
 40
0.0
 40
0.0
 40
0.0
 40
0.0
 40
1.0
 40
1.0
 40
1.0
 40
2.0
 40
2.0
 40
2.0
 40
3.0
 40
3.0
 40
3.0
 40
4.0
 40
4.0
 40
4.0
 40
5.0
 40
5.0
 40
5.0
 40
6.0
 40
6.0
 40
6.0
 40
7.0
 40
7.0
 40
7.0
 40
8.0
 40
8.0
 40
8.0
 40
9.0
 40
9.0
 40
9.0
 40
9.0
 10
-89.72075093587239
 20
-23.12300720214843
 30
0.0
 10
-89.72075093587239
 20
-23.12300720214843
 30
0.0
 10
-89.72075093587239
 20
-26.12988654242621
 30
0.0
 10
-89.72075093587239
 20
-26.12988654242621
 30
0.0
 10
-89.72075093587239
 20
-26.68661397298176
 30
0.0
 10
-90.16723531087238
 20
-27.13309834798177
 30
0.0
 10
-90.72534077962238
 20
-27.13309834798177
 30
0.0
 10
-90.72534077962238
 20
-27.13309834798177
 30
0.0
 10
-104.7565256754557
 20
-27.13309834798177
 30
0.0
 10
-104.7565256754557
 20
-27.13309834798177
 30
0.0
 10
-105.3091189914279
 20
-27.13309834798177
 30
0.0
 10
-105.7611155192057
 20
-26.68661397298176
 30
0.0
 10
-105.7611155192057
 20
-26.12988654242621
 30
0.0
 10
-105.7611155192057
 20
-26.12988654242621
 30
0.0
 10
-105.7611155192057
 20
-14.10099114312066
 30
0.0
 10
-105.7611155192057
 20
-14.10099114312066
 30
0.0
 10
-105.7611155192057
 20
-13.54839782714843
 30
0.0
 10
-105.3091189914279
 20
-13.10191345214843
 30
0.0
 10
-104.7565256754557
 20
-13.10191345214843
 30
0.0
 10
-104.7565256754557
 20
-13.10191345214843
 30
0.0
 10
-90.72534077962238
 20
-13.10191345214843
 30
0.0
 10
-90.72534077962238
 20
-13.10191345214843
 30
0.0
 10
-90.16723531087238
 20
-13.10191345214843
 30
0.0
 10
-89.72075093587239
 20
-13.54839782714843
 30
0.0
 10
-89.72075093587239
 20
-14.10099114312066
 30
0.0
 10
-89.72075093587239
 20
-14.10099114312066
 30
0.0
 10
-89.72075093587239
 20
-17.10787048339843
 30
0.0
 10
-89.72075093587239
 20
-17.10787048339843
 30
0.0
  0
SPLINE
  5
19B
100
AcDbEntity
  8
ALPHA
 62
     7
100
AcDbSpline
210
0.0
220
0.0
230
1.0
 70
    11
 71
     3
 72
    26
 73
    22
 74
     0
 42
0.0000001
 43
0.0000001
 40
0.0
 40
0.0
 40
0.0
 40
0.0
 40
1.0
 40
1.0
 40
1.0
 40
2.0
 40
2.0
 40
2.0
 40
3.0
 40
3.0
 40
3.0
 40
4.0
 40
4.0
 40
4.0
 40
5.0
 40
5.0
 40
5.0
 40
6.0
 40
6.0
 40
6.0
 40
7.0
 40
7.0
 40
7.0
 40
7.0
 10
-92.73314242892794
 20
-20.11474982367621
 30
0.0
 10
-92.73314242892794
 20
-20.11474982367621
 30
0.0
 10
-89.72626308865017
 20
-17.10787048339843
 30
0.0
 10
-89.72626308865017
 20
-17.10787048339843
 30
0.0
 10
-89.72626308865017
 20
-17.10787048339843
 30
0.0
 10
-84.71571621365017
 20
-17.10787048339843
 30
0.0
 10
-84.71571621365017
 20
-17.10787048339843
 30
0.0
 10
-83.05242411295571
 20
-17.10787048339843
 30
0.0
 10
-81.70745883517794
 20
-18.45696987575954
 30
0.0
 10
-81.70745883517794
 20
-20.11474982367621
 30
0.0
 10
-81.70745883517794
 20
-20.11474982367621
 30
0.0
 10
-81.70745883517794
 20
-20.11474982367621
 30
0.0
 10
-81.70745883517794
 20
-20.11474982367621
 30
0.0
 10
-81.70745883517794
 20
-21.77804192437065
 30
0.0
 10
-83.05242411295571
 20
-23.12300720214843
 30
0.0
 10
-84.71571621365017
 20
-23.12300720214843
 30
0.0
 10
-84.71571621365017
 20
-23.12300720214843
 30
0.0
 10
-89.72626308865017
 20
-23.12300720214843
 30
0.0
 10
-89.72626308865017
 20
-23.12300720214843
 30
0.0
 10
-89.72626308865017
 20
-23.12300720214843
 30
0.0
 10
-92.73314242892794
 20
-20.11474982367621
 30
0.0
 10
-92.73314242892794
 20
-20.11474982367621
 30
0.0
  0
SPLINE
  5
19C
100
AcDbEntity
  8
ALPHA
 62
     7
100
AcDbSpline
210
0.0
220
0.0
230
-1.0
 70
     8
 71
     3
 72
    32
 73
    28
 74
     0
 42
0.0000001
 43
0.0000001
 40
0.0
 40
0.0
 40
0.0
 40
0.0
 40
1.0
 40
1.0
 40
1.0
 40
2.0
 40
2.0
 40
2.0
 40
3.0
 40
3.0
 40
3.0
 40
4.0
 40
4.0
 40
4.0
 40
5.0
 40
5.0
 40
5.0
 40
6.0
 40
6.0
 40
6.0
 40
7.0
 40
7.0
 40
7.0
 40
8.0
 40
8.0
 40
8.0
 40
9.0
 40
9.0
 40
9.0
 40
9.0
 10
-89.72075093587239
 20
-42.21986050075954
 30
0.0
 10
-89.72075093587239
 20
-42.21986050075954
 30
0.0
 10
-89.72075093587239
 20
-45.22811787923177
 30
0.0
 10
-89.72075093587239
 20
-45.22811787923177
 30
0.0
 10
-89.72075093587239
 20
-45.78484530978732
 30
0.0
 10
-90.16723531087238
 20
-46.23132968478731
 30
0.0
 10
-90.72534077962238
 20
-46.23132968478731
 30
0.0
 10
-90.72534077962238
 20
-46.23132968478731
 30
0.0
 10
-104.7565256754557
 20
-46.23132968478731
 30
0.0
 10
-104.7565256754557
 20
-46.23132968478731
 30
0.0
 10
-105.3091189914279
 20
-46.23132968478731
 30
0.0
 10
-105.7611155192057
 20
-45.78484530978732
 30
0.0
 10
-105.7611155192057
 20
-45.22811787923177
 30
0.0
 10
-105.7611155192057
 20
-45.22811787923177
 30
0.0
 10
-105.7611155192057
 20
-33.19922247992621
 30
0.0
 10
-105.7611155192057
 20
-33.19922247992621
 30
0.0
 10
-105.7611155192057
 20
-32.64662916395399
 30
0.0
 10
-105.3091189914279
 20
-32.19876675075954
 30
0.0
 10
-104.7565256754557
 20
-32.19876675075954
 30
0.0
 10
-104.7565256754557
 20
-32.19876675075954
 30
0.0
 10
-90.72534077962238
 20
-32.19876675075954
 30
0.0
 10
-90.72534077962238
 20
-32.19876675075954
 30
0.0
 10
-90.16723531087238
 20
-32.19876675075954
 30
0.0
 10
-89.72075093587239
 20
-32.64662916395399
 30
0.0
 10
-89.72075093587239
 20
-33.19922247992621
 30
0.0
 10
-89.72075093587239
 20
-33.19922247992621
 30
0.0
 10
-89.72075093587239
 20
-36.20610182020399
 30
0.0
 10
-89.72075093587239
 20
-36.20610182020399
 30
0.0
  0
SPLINE
  5
19D
100
AcDbEntity
  8
ALPHA
 62
     7
100
AcDbSpline
210
0.0
220
0.0
230
1.0
 70
    11
 71
     3
 72
    26
 73
    22
 74
     0
 42
0.0000001
 43
0.0000001
 40
0.0
 40
0.0
 40
0.0
 40
0.0
 40
1.0
 40
1.0
 40
1.0
 40
2.0
 40
2.0
 40
2.0
 40
3.0
 40
3.0
 40
3.0
 40
4.0
 40
4.0
 40
4.0
 40
5.0
 40
5.0
 40
5.0
 40
6.0
 40
6.0
 40
6.0
 40
7.0
 40
7.0
 40
7.0
 40
7.0
 10
-92.73314242892794
 20
-39.21298116048177
 30
0.0
 10
-92.73314242892794
 20
-39.21298116048177
 30
0.0
 10
-89.72626308865017
 20
-36.20610182020399
 30
0.0
 10
-89.72626308865017
 20
-36.20610182020399
 30
0.0
 10
-89.72626308865017
 20
-36.20610182020399
 30
0.0
 10
-84.71571621365017
 20
-36.20610182020399
 30
0.0
 10
-84.71571621365017
 20
-36.20610182020399
 30
0.0
 10
-83.05242411295571
 20
-36.20610182020399
 30
0.0
 10
-81.70745883517794
 20
-37.5552012125651
 30
0.0
 10
-81.70745883517794
 20
-39.21298116048177
 30
0.0
 10
-81.70745883517794
 20
-39.21298116048177
 30
0.0
 10
-81.70745883517794
 20
-39.21298116048177
 30
0.0
 10
-81.70745883517794
 20
-39.21298116048177
 30
0.0
 10
-81.70745883517794
 20
-40.87489522298176
 30
0.0
 10
-83.05242411295571
 20
-42.21986050075954
 30
0.0
 10
-84.71571621365017
 20
-42.21986050075954
 30
0.0
 10
-84.71571621365017
 20
-42.21986050075954
 30
0.0
 10
-89.72626308865017
 20
-42.21986050075954
 30
0.0
 10
-89.72626308865017
 20
-42.21986050075954
 30
0.0
 10
-89.72626308865017
 20
-42.21986050075954
 30
0.0
 10
-92.73314242892794
 20
-39.21298116048177
 30
0.0
 10
-92.73314242892794
 20
-39.21298116048177
 30
0.0
  0
SPLINE
  5
19E
100
AcDbEntity
  8
ALPHA
 62
     7
100
AcDbSpline
210
0.0
220
0.0
230
-1.0
 70
     8
 71
     3
 72
    32
 73
    28
 74
     0
 42
0.0000001
 43
0.0000001
 40
0.0
 40
0.0
 40
0.0
 40
0.0
 40
1.0
 40
1.0
 40
1.0
 40
2.0
 40
2.0
 40
2.0
 40
3.0
 40
3.0
 40
3.0
 40
4.0
 40
4.0
 40
4.0
 40
5.0
 40
5.0
 40
5.0
 40
6.0
 40
6.0
 40
6.0
 40
7.0
 40
7.0
 40
7.0
 40
8.0
 40
8.0
 40
8.0
 40
9.0
 40
9.0
 40
9.0
 40
9.0
 10
-89.72075093587239
 20
-61.3180918375651
 30
0.0
 10
-89.72075093587239
 20
-61.3180918375651
 30
0.0
 10
-89.72075093587239
 20
-64.32497117784286
 30
0.0
 10
-89.72075093587239
 20
-64.32497117784286
 30
0.0
 10
-89.72075093587239
 20
-64.88169860839843
 30
0.0
 10
-90.16723531087238
 20
-65.32956102159288
 30
0.0
 10
-90.72534077962238
 20
-65.32956102159288
 30
0.0
 10
-90.72534077962238
 20
-65.32956102159288
 30
0.0
 10
-104.7565256754557
 20
-65.32956102159288
 30
0.0
 10
-104.7565256754557
 20
-65.32956102159288
 30
0.0
 10
-105.3091189914279
 20
-65.32956102159288
 30
0.0
 10
-105.7611155192057
 20
-64.88169860839843
 30
0.0
 10
-105.7611155192057
 20
-64.32497117784286
 30
0.0
 10
-105.7611155192057
 20
-64.32497117784286
 30
0.0
 10
-105.7611155192057
 20
-52.29607577853732
 30
0.0
 10
-105.7611155192057
 20
-52.29607577853732
 30
0.0
 10
-105.7611155192057
 20
-51.7434824625651
 30
0.0
 10
-105.3091189914279
 20
-51.2969980875651
 30
0.0
 10
-104.7565256754557
 20
-51.2969980875651
 30
0.0
 10
-104.7565256754557
 20
-51.2969980875651
 30
0.0
 10
-90.72534077962238
 20
-51.2969980875651
 30
0.0
 10
-90.72534077962238
 20
-51.2969980875651
 30
0.0
 10
-90.16723531087238
 20
-51.2969980875651
 30
0.0
 10
-89.72075093587239
 20
-51.7434824625651
 30
0.0
 10
-89.72075093587239
 20
-52.29607577853732
 30
0.0
 10
-89.72075093587239
 20
-52.29607577853732
 30
0.0
 10
-89.72075093587239
 20
-55.3029551188151
 30
0.0
 10
-89.72075093587239
 20
-55.3029551188151
 30
0.0
  0
SPLINE
  5
19F
100
AcDbEntity
  8
ALPHA
 62
     7
100
AcDbSpline
210
0.0
220
0.0
230
1.0
 70
    11
 71
     3
 72
    26
 73
    22
 74
     0
 42
0.0000001
 43
0.0000001
 40
0.0
 40
0.0
 40
0.0
 40
0.0
 40
1.0
 40
1.0
 40
1.0
 40
2.0
 40
2.0
 40
2.0
 40
3.0
 40
3.0
 40
3.0
 40
4.0
 40
4.0
 40
4.0
 40
5.0
 40
5.0
 40
5.0
 40
6.0
 40
6.0
 40
6.0
 40
7.0
 40
7.0
 40
7.0
 40
7.0
 10
-92.73314242892794
 20
-58.31121249728732
 30
0.0
 10
-92.73314242892794
 20
-58.31121249728732
 30
0.0
 10
-89.72626308865017
 20
-55.3029551188151
 30
0.0
 10
-89.72626308865017
 20
-55.3029551188151
 30
0.0
 10
-89.72626308865017
 20
-55.3029551188151
 30
0.0
 10
-84.71571621365017
 20
-55.3029551188151
 30
0.0
 10
-84.71571621365017
 20
-55.3029551188151
 30
0.0
 10
-83.05242411295571
 20
-55.3029551188151
 30
0.0
 10
-81.70745883517794
 20
-56.65343254937066
 30
0.0
 10
-81.70745883517794
 20
-58.31121249728732
 30
0.0
 10
-81.70745883517794
 20
-58.31121249728732
 30
0.0
 10
-81.70745883517794
 20
-58.31121249728732
 30
0.0
 10
-81.70745883517794
 20
-58.31121249728732
 30
0.0
 10
-81.70745883517794
 20
-59.97312655978731
 30
0.0
 10
-83.05242411295571
 20
-61.3180918375651
 30
0.0
 10
-84.71571621365017
 20
-61.3180918375651
 30
0.0
 10
-84.71571621365017
 20
-61.3180918375651
 30
0.0
 10
-89.72626308865017
 20
-61.3180918375651
 30
0.0
 10
-89.72626308865017
 20
-61.3180918375651
 30
0.0
 10
-89.72626308865017
 20
-61.3180918375651
 30
0.0
 10
-92.73314242892794
 20
-58.31121249728732
 30
0.0
 10
-92.73314242892794
 20
-58.31121249728732
 30
0.0
  0
SPLINE
  5
1A0
100
AcDbEntity
  8
ALPHA
 62
     7
100
AcDbSpline
210
0.0
220
0.0
230
-1.0
 70
     8
 71
     3
 72
    32
 73
    28
 74
     0
 42
0.0000001
 43
0.0000001
 40
0.0
 40
0.0
 40
0.0
 40
0.0
 40
1.0
 40
1.0
 40
1.0
 40
2.0
 40
2.0
 40
2.0
 40
3.0
 40
3.0
 40
3.0
 40
4.0
 40
4.0
 40
4.0
 40
5.0
 40
5.0
 40
5.0
 40
6.0
 40
6.0
 40
6.0
 40
7.0
 40
7.0
 40
7.0
 40
8.0
 40
8.0
 40
8.0
 40
9.0
 40
9.0
 40
9.0
 40
9.0
 10
-89.72075093587239
 20
-80.41494513617621
 30
0.0
 10
-89.72075093587239
 20
-80.41494513617621
 30
0.0
 10
-89.72075093587239
 20
-83.42320251464842
 30
0.0
 10
-89.72075093587239
 20
-83.42320251464842
 30
0.0
 10
-89.72075093587239
 20
-83.97992994520398
 30
0.0
 10
-90.16723531087238
 20
-84.42641432020399
 30
0.0
 10
-90.72534077962238
 20
-84.42641432020399
 30
0.0
 10
-90.72534077962238
 20
-84.42641432020399
 30
0.0
 10
-104.7565256754557
 20
-84.42641432020399
 30
0.0
 10
-104.7565256754557
 20
-84.42641432020399
 30
0.0
 10
-105.3091189914279
 20
-84.42641432020399
 30
0.0
 10
-105.7611155192057
 20
-83.97992994520398
 30
0.0
 10
-105.7611155192057
 20
-83.42320251464842
 30
0.0
 10
-105.7611155192057
 20
-83.42320251464842
 30
0.0
 10
-105.7611155192057
 20
-71.39430711534287
 30
0.0
 10
-105.7611155192057
 20
-71.39430711534287
 30
0.0
 10
-105.7611155192057
 20
-70.84171379937065
 30
0.0
 10
-105.3091189914279
 20
-70.39522942437065
 30
0.0
 10
-104.7565256754557
 20
-70.39522942437065
 30
0.0
 10
-104.7565256754557
 20
-70.39522942437065
 30
0.0
 10
-90.72534077962238
 20
-70.39522942437065
 30
0.0
 10
-90.72534077962238
 20
-70.39522942437065
 30
0.0
 10
-90.16723531087238
 20
-70.39522942437065
 30
0.0
 10
-89.72075093587239
 20
-70.84171379937065
 30
0.0
 10
-89.72075093587239
 20
-71.39430711534287
 30
0.0
 10
-89.72075093587239
 20
-71.39430711534287
 30
0.0
 10
-89.72075093587239
 20
-74.40118645562065
 30
0.0
 10
-89.72075093587239
 20
-74.40118645562065
 30
0.0
  0
SPLINE
  5
1A1
100
AcDbEntity
  8
ALPHA
 62
     7
100
AcDbSpline
210
0.0
220
0.0
230
1.0
 70
    11
 71
     3
 72
    26
 73
    22
 74
     0
 42
0.0000001
 43
0.0000001
 40
0.0
 40
0.0
 40
0.0
 40
0.0
 40
1.0
 40
1.0
 40
1.0
 40
2.0
 40
2.0
 40
2.0
 40
3.0
 40
3.0
 40
3.0
 40
4.0
 40
4.0
 40
4.0
 40
5.0
 40
5.0
 40
5.0
 40
6.0
 40
6.0
 40
6.0
 40
7.0
 40
7.0
 40
7.0
 40
7.0
 10
-92.73314242892794
 20
-77.40806579589843
 30
0.0
 10
-92.73314242892794
 20
-77.40806579589843
 30
0.0
 10
-89.72626308865017
 20
-74.40118645562065
 30
0.0
 10
-89.72626308865017
 20
-74.40118645562065
 30
0.0
 10
-89.72626308865017
 20
-74.40118645562065
 30
0.0
 10
-84.71571621365017
 20
-74.40118645562065
 30
0.0
 10
-84.71571621365017
 20
-74.40118645562065
 30
0.0
 10
-83.05242411295571
 20
-74.40118645562065
 30
0.0
 10
-81.70745883517794
 20
-75.75028584798175
 30
0.0
 10
-81.70745883517794
 20
-77.40806579589843
 30
0.0
 10
-81.70745883517794
 20
-77.40806579589843
 30
0.0
 10
-81.70745883517794
 20
-77.40806579589843
 30
0.0
 10
-81.70745883517794
 20
-77.40806579589843
 30
0.0
 10
-81.70745883517794
 20
-79.07135789659287
 30
0.0
 10
-83.05242411295571
 20
-80.41494513617621
 30
0.0
 10
-84.71571621365017
 20
-80.41494513617621
 30
0.0
 10
-84.71571621365017
 20
-80.41494513617621
 30
0.0
 10
-89.72626308865017
 20
-80.41494513617621
 30
0.0
 10
-89.72626308865017
 20
-80.41494513617621
 30
0.0
 10
-89.72626308865017
 20
-80.41494513617621
 30
0.0
 10
-92.73314242892794
 20
-77.40806579589843
 30
0.0
 10
-92.73314242892794
 20
-77.40806579589843
 30
0.0
  0
SPLINE
  5
1A2
100
AcDbEntity
  8
ALPHA
 62
     7
100
AcDbSpline
210
0.0
220
0.0
230
-1.0
 70
     8
 71
     3
 72
    32
 73
    28
 74
     0
 42
0.0000001
 43
0.0000001
 40
0.0
 40
0.0
 40
0.0
 40
0.0
 40
1.0
 40
1.0
 40
1.0
 40
2.0
 40
2.0
 40
2.0
 40
3.0
 40
3.0
 40
3.0
 40
4.0
 40
4.0
 40
4.0
 40
5.0
 40
5.0
 40
5.0
 40
6.0
 40
6.0
 40
6.0
 40
7.0
 40
7.0
 40
7.0
 40
8.0
 40
8.0
 40
8.0
 40
9.0
 40
9.0
 40
9.0
 40
9.0
 10
89.68311326768661
 20
15.07362772623697
 30
0.0
 10
89.68311326768661
 20
15.07362772623697
 30
0.0
 10
89.68311326768661
 20
12.06537034776475
 30
0.0
 10
89.68311326768661
 20
12.06537034776475
 30
0.0
 10
89.68311326768661
 20
11.5086429172092
 30
0.0
 10
90.12959764268662
 20
11.0621585422092
 30
0.0
 10
90.68219095865885
 20
11.0621585422092
 30
0.0
 10
90.68219095865885
 20
11.0621585422092
 30
0.0
 10
104.7188880072699
 20
11.0621585422092
 30
0.0
 10
104.7188880072699
 20
11.0621585422092
 30
0.0
 10
105.2714813232421
 20
11.0621585422092
 30
0.0
 10
105.7220998128254
 20
11.5086429172092
 30
0.0
 10
105.7220998128254
 20
12.06537034776475
 30
0.0
 10
105.7220998128254
 20
12.06537034776475
 30
0.0
 10
105.7220998128254
 20
24.09426574707031
 30
0.0
 10
105.7220998128254
 20
24.09426574707031
 30
0.0
 10
105.7220998128254
 20
24.64685906304253
 30
0.0
 10
105.2714813232421
 20
25.09334343804253
 30
0.0
 10
104.7188880072699
 20
25.09334343804253
 30
0.0
 10
104.7188880072699
 20
25.09334343804253
 30
0.0
 10
90.68219095865885
 20
25.09334343804253
 30
0.0
 10
90.68219095865885
 20
25.09334343804253
 30
0.0
 10
90.12959764268662
 20
25.09334343804253
 30
0.0
 10
89.68311326768661
 20
24.64685906304253
 30
0.0
 10
89.68311326768661
 20
24.09426574707031
 30
0.0
 10
89.68311326768661
 20
24.09426574707031
 30
0.0
 10
89.68311326768661
 20
21.08738640679253
 30
0.0
 10
89.68311326768661
 20
21.08738640679253
 30
0.0
  0
SPLINE
  5
1A3
100
AcDbEntity
  8
ALPHA
 62
     7
100
AcDbSpline
210
0.0
220
0.0
230
1.0
 70
    11
 71
     3
 72
    26
 73
    22
 74
     0
 42
0.0000001
 43
0.0000001
 40
0.0
 40
0.0
 40
0.0
 40
0.0
 40
1.0
 40
1.0
 40
1.0
 40
2.0
 40
2.0
 40
2.0
 40
3.0
 40
3.0
 40
3.0
 40
4.0
 40
4.0
 40
4.0
 40
5.0
 40
5.0
 40
5.0
 40
6.0
 40
6.0
 40
6.0
 40
7.0
 40
7.0
 40
7.0
 40
7.0
 10
92.69412672254773
 20
18.08050706651475
 30
0.0
 10
92.69412672254773
 20
18.08050706651475
 30
0.0
 10
89.68724738226995
 20
21.08738640679253
 30
0.0
 10
89.68724738226995
 20
21.08738640679253
 30
0.0
 10
89.68724738226995
 20
21.08738640679253
 30
0.0
 10
84.67256639268661
 20
21.08738640679253
 30
0.0
 10
84.67256639268661
 20
21.08738640679253
 30
0.0
 10
83.01478644476995
 20
21.08738640679253
 30
0.0
 10
81.66568705240884
 20
19.73828701443142
 30
0.0
 10
81.66568705240884
 20
18.08050706651475
 30
0.0
 10
81.66568705240884
 20
18.08050706651475
 30
0.0
 10
81.66568705240884
 20
18.08050706651475
 30
0.0
 10
81.66568705240884
 20
18.08050706651475
 30
0.0
 10
81.66568705240884
 20
16.41721496582031
 30
0.0
 10
83.01478644476995
 20
15.07362772623697
 30
0.0
 10
84.67256639268661
 20
15.07362772623697
 30
0.0
 10
84.67256639268661
 20
15.07362772623697
 30
0.0
 10
89.68724738226995
 20
15.07362772623697
 30
0.0
 10
89.68724738226995
 20
15.07362772623697
 30
0.0
 10
89.68724738226995
 20
15.07362772623697
 30
0.0
 10
92.69412672254773
 20
18.08050706651475
 30
0.0
 10
92.69412672254773
 20
18.08050706651475
 30
0.0
  0
SPLINE
  5
1A4
100
AcDbEntity
  8
ALPHA
 62
     7
100
AcDbSpline
210
0.0
220
0.0
230
-1.0
 70
     8
 71
     3
 72
    32
 73
    28
 74
     0
 42
0.0000001
 43
0.0000001
 40
0.0
 40
0.0
 40
0.0
 40
0.0
 40
1.0
 40
1.0
 40
1.0
 40
2.0
 40
2.0
 40
2.0
 40
3.0
 40
3.0
 40
3.0
 40
4.0
 40
4.0
 40
4.0
 40
5.0
 40
5.0
 40
5.0
 40
6.0
 40
6.0
 40
6.0
 40
7.0
 40
7.0
 40
7.0
 40
8.0
 40
8.0
 40
8.0
 40
9.0
 40
9.0
 40
9.0
 40
9.0
 10
89.68311326768661
 20
-4.024775865342881
 30
0.0
 10
89.68311326768661
 20
-4.024775865342881
 30
0.0
 10
89.68311326768661
 20
-7.031655205620658
 30
0.0
 10
89.68311326768661
 20
-7.031655205620658
 30
0.0
 10
89.68311326768661
 20
-7.589760674370658
 30
0.0
 10
90.12959764268662
 20
-8.036245049370659
 30
0.0
 10
90.68219095865885
 20
-8.036245049370659
 30
0.0
 10
90.68219095865885
 20
-8.036245049370659
 30
0.0
 10
104.7188880072699
 20
-8.036245049370659
 30
0.0
 10
104.7188880072699
 20
-8.036245049370659
 30
0.0
 10
105.2714813232421
 20
-8.036245049370659
 30
0.0
 10
105.7220998128254
 20
-7.589760674370658
 30
0.0
 10
105.7220998128254
 20
-7.031655205620658
 30
0.0
 10
105.7220998128254
 20
-7.031655205620658
 30
0.0
 10
105.7220998128254
 20
4.997240193684895
 30
0.0
 10
105.7220998128254
 20
4.997240193684895
 30
0.0
 10
105.7220998128254
 20
5.549833509657117
 30
0.0
 10
105.2714813232421
 20
5.996317884657117
 30
0.0
 10
104.7188880072699
 20
5.996317884657117
 30
0.0
 10
104.7188880072699
 20
5.996317884657117
 30
0.0
 10
90.68219095865885
 20
5.996317884657117
 30
0.0
 10
90.68219095865885
 20
5.996317884657117
 30
0.0
 10
90.12959764268662
 20
5.996317884657117
 30
0.0
 10
89.68311326768661
 20
5.549833509657117
 30
0.0
 10
89.68311326768661
 20
4.997240193684895
 30
0.0
 10
89.68311326768661
 20
4.997240193684895
 30
0.0
 10
89.68311326768661
 20
1.988982815212673
 30
0.0
 10
89.68311326768661
 20
1.988982815212673
 30
0.0
  0
SPLINE
  5
1A5
100
AcDbEntity
  8
ALPHA
 62
     7
100
AcDbSpline
210
0.0
220
0.0
230
1.0
 70
    11
 71
     3
 72
    26
 73
    22
 74
     0
 42
0.0000001
 43
0.0000001
 40
0.0
 40
0.0
 40
0.0
 40
0.0
 40
1.0
 40
1.0
 40
1.0
 40
2.0
 40
2.0
 40
2.0
 40
3.0
 40
3.0
 40
3.0
 40
4.0
 40
4.0
 40
4.0
 40
5.0
 40
5.0
 40
5.0
 40
6.0
 40
6.0
 40
6.0
 40
7.0
 40
7.0
 40
7.0
 40
7.0
 10
92.69412672254773
 20
-1.017896525065103
 30
0.0
 10
92.69412672254773
 20
-1.017896525065103
 30
0.0
 10
89.68724738226995
 20
1.988982815212673
 30
0.0
 10
89.68724738226995
 20
1.988982815212673
 30
0.0
 10
89.68724738226995
 20
1.988982815212673
 30
0.0
 10
84.67256639268661
 20
1.988982815212673
 30
0.0
 10
84.67256639268661
 20
1.988982815212673
 30
0.0
 10
83.01478644476995
 20
1.988982815212673
 30
0.0
 10
81.66568705240884
 20
0.6398834228515625
 30
0.0
 10
81.66568705240884
 20
-1.017896525065103
 30
0.0
 10
81.66568705240884
 20
-1.017896525065103
 30
0.0
 10
81.66568705240884
 20
-1.017896525065103
 30
0.0
 10
81.66568705240884
 20
-1.017896525065103
 30
0.0
 10
81.66568705240884
 20
-2.679810587565103
 30
0.0
 10
83.01478644476995
 20
-4.024775865342881
 30
0.0
 10
84.67256639268661
 20
-4.024775865342881
 30
0.0
 10
84.67256639268661
 20
-4.024775865342881
 30
0.0
 10
89.68724738226995
 20
-4.024775865342881
 30
0.0
 10
89.68724738226995
 20
-4.024775865342881
 30
0.0
 10
89.68724738226995
 20
-4.024775865342881
 30
0.0
 10
92.69412672254773
 20
-1.017896525065103
 30
0.0
 10
92.69412672254773
 20
-1.017896525065103
 30
0.0
  0
SPLINE
  5
1A6
100
AcDbEntity
  8
ALPHA
 62
     7
100
AcDbSpline
210
0.0
220
0.0
230
-1.0
 70
     8
 71
     3
 72
    32
 73
    28
 74
     0
 42
0.0000001
 43
0.0000001
 40
0.0
 40
0.0
 40
0.0
 40
0.0
 40
1.0
 40
1.0
 40
1.0
 40
2.0
 40
2.0
 40
2.0
 40
3.0
 40
3.0
 40
3.0
 40
4.0
 40
4.0
 40
4.0
 40
5.0
 40
5.0
 40
5.0
 40
6.0
 40
6.0
 40
6.0
 40
7.0
 40
7.0
 40
7.0
 40
8.0
 40
8.0
 40
8.0
 40
9.0
 40
9.0
 40
9.0
 40
9.0
 10
89.68311326768661
 20
-23.12300720214843
 30
0.0
 10
89.68311326768661
 20
-23.12300720214843
 30
0.0
 10
89.68311326768661
 20
-26.12988654242621
 30
0.0
 10
89.68311326768661
 20
-26.12988654242621
 30
0.0
 10
89.68311326768661
 20
-26.68661397298176
 30
0.0
 10
90.12959764268662
 20
-27.13309834798177
 30
0.0
 10
90.68219095865885
 20
-27.13309834798177
 30
0.0
 10
90.68219095865885
 20
-27.13309834798177
 30
0.0
 10
104.7188880072699
 20
-27.13309834798177
 30
0.0
 10
104.7188880072699
 20
-27.13309834798177
 30
0.0
 10
105.2714813232421
 20
-27.13309834798177
 30
0.0
 10
105.7220998128254
 20
-26.68661397298176
 30
0.0
 10
105.7220998128254
 20
-26.12988654242621
 30
0.0
 10
105.7220998128254
 20
-26.12988654242621
 30
0.0
 10
105.7220998128254
 20
-14.10099114312066
 30
0.0
 10
105.7220998128254
 20
-14.10099114312066
 30
0.0
 10
105.7220998128254
 20
-13.54839782714843
 30
0.0
 10
105.2714813232421
 20
-13.10191345214843
 30
0.0
 10
104.7188880072699
 20
-13.10191345214843
 30
0.0
 10
104.7188880072699
 20
-13.10191345214843
 30
0.0
 10
90.68219095865885
 20
-13.10191345214843
 30
0.0
 10
90.68219095865885
 20
-13.10191345214843
 30
0.0
 10
90.12959764268662
 20
-13.10191345214843
 30
0.0
 10
89.68311326768661
 20
-13.54839782714843
 30
0.0
 10
89.68311326768661
 20
-14.10099114312066
 30
0.0
 10
89.68311326768661
 20
-14.10099114312066
 30
0.0
 10
89.68311326768661
 20
-17.10787048339843
 30
0.0
 10
89.68311326768661
 20
-17.10787048339843
 30
0.0
  0
SPLINE
  5
1A7
100
AcDbEntity
  8
ALPHA
 62
     7
100
AcDbSpline
210
0.0
220
0.0
230
1.0
 70
    11
 71
     3
 72
    26
 73
    22
 74
     0
 42
0.0000001
 43
0.0000001
 40
0.0
 40
0.0
 40
0.0
 40
0.0
 40
1.0
 40
1.0
 40
1.0
 40
2.0
 40
2.0
 40
2.0
 40
3.0
 40
3.0
 40
3.0
 40
4.0
 40
4.0
 40
4.0
 40
5.0
 40
5.0
 40
5.0
 40
6.0
 40
6.0
 40
6.0
 40
7.0
 40
7.0
 40
7.0
 40
7.0
 10
92.69412672254773
 20
-20.11474982367621
 30
0.0
 10
92.69412672254773
 20
-20.11474982367621
 30
0.0
 10
89.68724738226995
 20
-17.10787048339843
 30
0.0
 10
89.68724738226995
 20
-17.10787048339843
 30
0.0
 10
89.68724738226995
 20
-17.10787048339843
 30
0.0
 10
84.67256639268661
 20
-17.10787048339843
 30
0.0
 10
84.67256639268661
 20
-17.10787048339843
 30
0.0
 10
83.01478644476995
 20
-17.10787048339843
 30
0.0
 10
81.66568705240884
 20
-18.45696987575954
 30
0.0
 10
81.66568705240884
 20
-20.11474982367621
 30
0.0
 10
81.66568705240884
 20
-20.11474982367621
 30
0.0
 10
81.66568705240884
 20
-20.11474982367621
 30
0.0
 10
81.66568705240884
 20
-20.11474982367621
 30
0.0
 10
81.66568705240884
 20
-21.77804192437065
 30
0.0
 10
83.01478644476995
 20
-23.12300720214843
 30
0.0
 10
84.67256639268661
 20
-23.12300720214843
 30
0.0
 10
84.67256639268661
 20
-23.12300720214843
 30
0.0
 10
89.68724738226995
 20
-23.12300720214843
 30
0.0
 10
89.68724738226995
 20
-23.12300720214843
 30
0.0
 10
89.68724738226995
 20
-23.12300720214843
 30
0.0
 10
92.69412672254773
 20
-20.11474982367621
 30
0.0
 10
92.69412672254773
 20
-20.11474982367621
 30
0.0
  0
SPLINE
  5
1A8
100
AcDbEntity
  8
ALPHA
 62
     7
100
AcDbSpline
210
0.0
220
0.0
230
-1.0
 70
     8
 71
     3
 72
    32
 73
    28
 74
     0
 42
0.0000001
 43
0.0000001
 40
0.0
 40
0.0
 40
0.0
 40
0.0
 40
1.0
 40
1.0
 40
1.0
 40
2.0
 40
2.0
 40
2.0
 40
3.0
 40
3.0
 40
3.0
 40
4.0
 40
4.0
 40
4.0
 40
5.0
 40
5.0
 40
5.0
 40
6.0
 40
6.0
 40
6.0
 40
7.0
 40
7.0
 40
7.0
 40
8.0
 40
8.0
 40
8.0
 40
9.0
 40
9.0
 40
9.0
 40
9.0
 10
89.68311326768661
 20
-42.21986050075954
 30
0.0
 10
89.68311326768661
 20
-42.21986050075954
 30
0.0
 10
89.68311326768661
 20
-45.22811787923177
 30
0.0
 10
89.68311326768661
 20
-45.22811787923177
 30
0.0
 10
89.68311326768661
 20
-45.78484530978732
 30
0.0
 10
90.12959764268662
 20
-46.23132968478731
 30
0.0
 10
90.68219095865885
 20
-46.23132968478731
 30
0.0
 10
90.68219095865885
 20
-46.23132968478731
 30
0.0
 10
104.7188880072699
 20
-46.23132968478731
 30
0.0
 10
104.7188880072699
 20
-46.23132968478731
 30
0.0
 10
105.2714813232421
 20
-46.23132968478731
 30
0.0
 10
105.7220998128254
 20
-45.78484530978732
 30
0.0
 10
105.7220998128254
 20
-45.22811787923177
 30
0.0
 10
105.7220998128254
 20
-45.22811787923177
 30
0.0
 10
105.7220998128254
 20
-33.19922247992621
 30
0.0
 10
105.7220998128254
 20
-33.19922247992621
 30
0.0
 10
105.7220998128254
 20
-32.64662916395399
 30
0.0
 10
105.2714813232421
 20
-32.19876675075954
 30
0.0
 10
104.7188880072699
 20
-32.19876675075954
 30
0.0
 10
104.7188880072699
 20
-32.19876675075954
 30
0.0
 10
90.68219095865885
 20
-32.19876675075954
 30
0.0
 10
90.68219095865885
 20
-32.19876675075954
 30
0.0
 10
90.12959764268662
 20
-32.19876675075954
 30
0.0
 10
89.68311326768661
 20
-32.64662916395399
 30
0.0
 10
89.68311326768661
 20
-33.19922247992621
 30
0.0
 10
89.68311326768661
 20
-33.19922247992621
 30
0.0
 10
89.68311326768661
 20
-36.20610182020399
 30
0.0
 10
89.68311326768661
 20
-36.20610182020399
 30
0.0
  0
SPLINE
  5
1A9
100
AcDbEntity
  8
ALPHA
 62
     7
100
AcDbSpline
210
0.0
220
0.0
230
1.0
 70
    11
 71
     3
 72
    26
 73
    22
 74
     0
 42
0.0000001
 43
0.0000001
 40
0.0
 40
0.0
 40
0.0
 40
0.0
 40
1.0
 40
1.0
 40
1.0
 40
2.0
 40
2.0
 40
2.0
 40
3.0
 40
3.0
 40
3.0
 40
4.0
 40
4.0
 40
4.0
 40
5.0
 40
5.0
 40
5.0
 40
6.0
 40
6.0
 40
6.0
 40
7.0
 40
7.0
 40
7.0
 40
7.0
 10
92.69412672254773
 20
-39.21298116048177
 30
0.0
 10
92.69412672254773
 20
-39.21298116048177
 30
0.0
 10
89.68724738226995
 20
-36.20610182020399
 30
0.0
 10
89.68724738226995
 20
-36.20610182020399
 30
0.0
 10
89.68724738226995
 20
-36.20610182020399
 30
0.0
 10
84.67256639268661
 20
-36.20610182020399
 30
0.0
 10
84.67256639268661
 20
-36.20610182020399
 30
0.0
 10
83.01478644476995
 20
-36.20610182020399
 30
0.0
 10
81.66568705240884
 20
-37.5552012125651
 30
0.0
 10
81.66568705240884
 20
-39.21298116048177
 30
0.0
 10
81.66568705240884
 20
-39.21298116048177
 30
0.0
 10
81.66568705240884
 20
-39.21298116048177
 30
0.0
 10
81.66568705240884
 20
-39.21298116048177
 30
0.0
 10
81.66568705240884
 20
-40.87489522298176
 30
0.0
 10
83.01478644476995
 20
-42.21986050075954
 30
0.0
 10
84.67256639268661
 20
-42.21986050075954
 30
0.0
 10
84.67256639268661
 20
-42.21986050075954
 30
0.0
 10
89.68724738226995
 20
-42.21986050075954
 30
0.0
 10
89.68724738226995
 20
-42.21986050075954
 30
0.0
 10
89.68724738226995
 20
-42.21986050075954
 30
0.0
 10
92.69412672254773
 20
-39.21298116048177
 30
0.0
 10
92.69412672254773
 20
-39.21298116048177
 30
0.0
  0
SPLINE
  5
1AA
100
AcDbEntity
  8
ALPHA
 62
     7
100
AcDbSpline
210
0.0
220
0.0
230
-1.0
 70
     8
 71
     3
 72
    32
 73
    28
 74
     0
 42
0.0000001
 43
0.0000001
 40
0.0
 40
0.0
 40
0.0
 40
0.0
 40
1.0
 40
1.0
 40
1.0
 40
2.0
 40
2.0
 40
2.0
 40
3.0
 40
3.0
 40
3.0
 40
4.0
 40
4.0
 40
4.0
 40
5.0
 40
5.0
 40
5.0
 40
6.0
 40
6.0
 40
6.0
 40
7.0
 40
7.0
 40
7.0
 40
8.0
 40
8.0
 40
8.0
 40
9.0
 40
9.0
 40
9.0
 40
9.0
 10
89.68311326768661
 20
-61.3180918375651
 30
0.0
 10
89.68311326768661
 20
-61.3180918375651
 30
0.0
 10
89.68311326768661
 20
-64.32497117784286
 30
0.0
 10
89.68311326768661
 20
-64.32497117784286
 30
0.0
 10
89.68311326768661
 20
-64.88169860839843
 30
0.0
 10
90.12959764268662
 20
-65.32956102159288
 30
0.0
 10
90.68219095865885
 20
-65.32956102159288
 30
0.0
 10
90.68219095865885
 20
-65.32956102159288
 30
0.0
 10
104.7188880072699
 20
-65.32956102159288
 30
0.0
 10
104.7188880072699
 20
-65.32956102159288
 30
0.0
 10
105.2714813232421
 20
-65.32956102159288
 30
0.0
 10
105.7220998128254
 20
-64.88169860839843
 30
0.0
 10
105.7220998128254
 20
-64.32497117784286
 30
0.0
 10
105.7220998128254
 20
-64.32497117784286
 30
0.0
 10
105.7220998128254
 20
-52.29607577853732
 30
0.0
 10
105.7220998128254
 20
-52.29607577853732
 30
0.0
 10
105.7220998128254
 20
-51.7434824625651
 30
0.0
 10
105.2714813232421
 20
-51.2969980875651
 30
0.0
 10
104.7188880072699
 20
-51.2969980875651
 30
0.0
 10
104.7188880072699
 20
-51.2969980875651
 30
0.0
 10
90.68219095865885
 20
-51.2969980875651
 30
0.0
 10
90.68219095865885
 20
-51.2969980875651
 30
0.0
 10
90.12959764268662
 20
-51.2969980875651
 30
0.0
 10
89.68311326768661
 20
-51.7434824625651
 30
0.0
 10
89.68311326768661
 20
-52.29607577853732
 30
0.0
 10
89.68311326768661
 20
-52.29607577853732
 30
0.0
 10
89.68311326768661
 20
-55.3029551188151
 30
0.0
 10
89.68311326768661
 20
-55.3029551188151
 30
0.0
  0
SPLINE
  5
1AB
100
AcDbEntity
  8
ALPHA
 62
     7
100
AcDbSpline
210
0.0
220
0.0
230
1.0
 70
    11
 71
     3
 72
    26
 73
    22
 74
     0
 42
0.0000001
 43
0.0000001
 40
0.0
 40
0.0
 40
0.0
 40
0.0
 40
1.0
 40
1.0
 40
1.0
 40
2.0
 40
2.0
 40
2.0
 40
3.0
 40
3.0
 40
3.0
 40
4.0
 40
4.0
 40
4.0
 40
5.0
 40
5.0
 40
5.0
 40
6.0
 40
6.0
 40
6.0
 40
7.0
 40
7.0
 40
7.0
 40
7.0
 10
92.69412672254773
 20
-58.31121249728732
 30
0.0
 10
92.69412672254773
 20
-58.31121249728732
 30
0.0
 10
89.68724738226995
 20
-55.3029551188151
 30
0.0
 10
89.68724738226995
 20
-55.3029551188151
 30
0.0
 10
89.68724738226995
 20
-55.3029551188151
 30
0.0
 10
84.67256639268661
 20
-55.3029551188151
 30
0.0
 10
84.67256639268661
 20
-55.3029551188151
 30
0.0
 10
83.01478644476995
 20
-55.3029551188151
 30
0.0
 10
81.66568705240884
 20
-56.65343254937066
 30
0.0
 10
81.66568705240884
 20
-58.31121249728732
 30
0.0
 10
81.66568705240884
 20
-58.31121249728732
 30
0.0
 10
81.66568705240884
 20
-58.31121249728732
 30
0.0
 10
81.66568705240884
 20
-58.31121249728732
 30
0.0
 10
81.66568705240884
 20
-59.97312655978731
 30
0.0
 10
83.01478644476995
 20
-61.3180918375651
 30
0.0
 10
84.67256639268661
 20
-61.3180918375651
 30
0.0
 10
84.67256639268661
 20
-61.3180918375651
 30
0.0
 10
89.68724738226995
 20
-61.3180918375651
 30
0.0
 10
89.68724738226995
 20
-61.3180918375651
 30
0.0
 10
89.68724738226995
 20
-61.3180918375651
 30
0.0
 10
92.69412672254773
 20
-58.31121249728732
 30
0.0
 10
92.69412672254773
 20
-58.31121249728732
 30
0.0
  0
SPLINE
  5
1AC
100
AcDbEntity
  8
ALPHA
 62
     7
100
AcDbSpline
210
0.0
220
0.0
230
-1.0
 70
     8
 71
     3
 72
    32
 73
    28
 74
     0
 42
0.0000001
 43
0.0000001
 40
0.0
 40
0.0
 40
0.0
 40
0.0
 40
1.0
 40
1.0
 40
1.0
 40
2.0
 40
2.0
 40
2.0
 40
3.0
 40
3.0
 40
3.0
 40
4.0
 40
4.0
 40
4.0
 40
5.0
 40
5.0
 40
5.0
 40
6.0
 40
6.0
 40
6.0
 40
7.0
 40
7.0
 40
7.0
 40
8.0
 40
8.0
 40
8.0
 40
9.0
 40
9.0
 40
9.0
 40
9.0
 10
89.68311326768661
 20
-80.41494513617621
 30
0.0
 10
89.68311326768661
 20
-80.41494513617621
 30
0.0
 10
89.68311326768661
 20
-83.42320251464842
 30
0.0
 10
89.68311326768661
 20
-83.42320251464842
 30
0.0
 10
89.68311326768661
 20
-83.97992994520398
 30
0.0
 10
90.12959764268662
 20
-84.42641432020399
 30
0.0
 10
90.68219095865885
 20
-84.42641432020399
 30
0.0
 10
90.68219095865885
 20
-84.42641432020399
 30
0.0
 10
104.7188880072699
 20
-84.42641432020399
 30
0.0
 10
104.7188880072699
 20
-84.42641432020399
 30
0.0
 10
105.2714813232421
 20
-84.42641432020399
 30
0.0
 10
105.7220998128254
 20
-83.97992994520398
 30
0.0
 10
105.7220998128254
 20
-83.42320251464842
 30
0.0
 10
105.7220998128254
 20
-83.42320251464842
 30
0.0
 10
105.7220998128254
 20
-71.39430711534287
 30
0.0
 10
105.7220998128254
 20
-71.39430711534287
 30
0.0
 10
105.7220998128254
 20
-70.84171379937065
 30
0.0
 10
105.2714813232421
 20
-70.39522942437065
 30
0.0
 10
104.7188880072699
 20
-70.39522942437065
 30
0.0
 10
104.7188880072699
 20
-70.39522942437065
 30
0.0
 10
90.68219095865885
 20
-70.39522942437065
 30
0.0
 10
90.68219095865885
 20
-70.39522942437065
 30
0.0
 10
90.12959764268662
 20
-70.39522942437065
 30
0.0
 10
89.68311326768661
 20
-70.84171379937065
 30
0.0
 10
89.68311326768661
 20
-71.39430711534287
 30
0.0
 10
89.68311326768661
 20
-71.39430711534287
 30
0.0
 10
89.68311326768661
 20
-74.40118645562065
 30
0.0
 10
89.68311326768661
 20
-74.40118645562065
 30
0.0
  0
SPLINE
  5
1AD
100
AcDbEntity
  8
ALPHA
 62
     7
100
AcDbSpline
210
0.0
220
0.0
230
1.0
 70
    11
 71
     3
 72
    26
 73
    22
 74
     0
 42
0.0000001
 43
0.0000001
 40
0.0
 40
0.0
 40
0.0
 40
0.0
 40
1.0
 40
1.0
 40
1.0
 40
2.0
 40
2.0
 40
2.0
 40
3.0
 40
3.0
 40
3.0
 40
4.0
 40
4.0
 40
4.0
 40
5.0
 40
5.0
 40
5.0
 40
6.0
 40
6.0
 40
6.0
 40
7.0
 40
7.0
 40
7.0
 40
7.0
 10
92.69412672254773
 20
-77.40806579589843
 30
0.0
 10
92.69412672254773
 20
-77.40806579589843
 30
0.0
 10
89.68724738226995
 20
-74.40118645562065
 30
0.0
 10
89.68724738226995
 20
-74.40118645562065
 30
0.0
 10
89.68724738226995
 20
-74.40118645562065
 30
0.0
 10
84.67256639268661
 20
-74.40118645562065
 30
0.0
 10
84.67256639268661
 20
-74.40118645562065
 30
0.0
 10
83.01478644476995
 20
-74.40118645562065
 30
0.0
 10
81.66568705240884
 20
-75.75028584798175
 30
0.0
 10
81.66568705240884
 20
-77.40806579589843
 30
0.0
 10
81.66568705240884
 20
-77.40806579589843
 30
0.0
 10
81.66568705240884
 20
-77.40806579589843
 30
0.0
 10
81.66568705240884
 20
-77.40806579589843
 30
0.0
 10
81.66568705240884
 20
-79.07135789659287
 30
0.0
 10
83.01478644476995
 20
-80.41494513617621
 30
0.0
 10
84.67256639268661
 20
-80.41494513617621
 30
0.0
 10
84.67256639268661
 20
-80.41494513617621
 30
0.0
 10
89.68724738226995
 20
-80.41494513617621
 30
0.0
 10
89.68724738226995
 20
-80.41494513617621
 30
0.0
 10
89.68724738226995
 20
-80.41494513617621
 30
0.0
 10
92.69412672254773
 20
-77.40806579589843
 30
0.0
 10
92.69412672254773
 20
-77.40806579589843
 30
0.0
  0
SPLINE
  5
1AE
100
AcDbEntity
  8
ALPHA
 62
     7
100
AcDbSpline
210
0.0
220
0.0
230
-1.0
 70
     8
 71
     3
 72
    32
 73
    28
 74
     0
 42
0.0000001
 43
0.0000001
 40
0.0
 40
0.0
 40
0.0
 40
0.0
 40
1.0
 40
1.0
 40
1.0
 40
2.0
 40
2.0
 40
2.0
 40
3.0
 40
3.0
 40
3.0
 40
4.0
 40
4.0
 40
4.0
 40
5.0
 40
5.0
 40
5.0
 40
6.0
 40
6.0
 40
6.0
 40
7.0
 40
7.0
 40
7.0
 40
8.0
 40
8.0
 40
8.0
 40
9.0
 40
9.0
 40
9.0
 40
9.0
 10
127.7817352294921
 20
15.07362772623697
 30
0.0
 10
127.7817352294921
 20
15.07362772623697
 30
0.0
 10
127.7817352294921
 20
12.06537034776475
 30
0.0
 10
127.7817352294921
 20
12.06537034776475
 30
0.0
 10
127.7817352294921
 20
11.5086429172092
 30
0.0
 10
127.3352508544921
 20
11.0621585422092
 30
0.0
 10
126.7771453857421
 20
11.0621585422092
 30
0.0
 10
126.7771453857421
 20
11.0621585422092
 30
0.0
 10
112.7459604899088
 20
11.0621585422092
 30
0.0
 10
112.7459604899088
 20
11.0621585422092
 30
0.0
 10
112.1933671739366
 20
11.0621585422092
 30
0.0
 10
111.7413706461588
 20
11.5086429172092
 30
0.0
 10
111.7413706461588
 20
12.06537034776475
 30
0.0
 10
111.7413706461588
 20
12.06537034776475
 30
0.0
 10
111.7413706461588
 20
24.09426574707031
 30
0.0
 10
111.7413706461588
 20
24.09426574707031
 30
0.0
 10
111.7413706461588
 20
24.64685906304253
 30
0.0
 10
112.1933671739366
 20
25.09334343804253
 30
0.0
 10
112.7459604899088
 20
25.09334343804253
 30
0.0
 10
112.7459604899088
 20
25.09334343804253
 30
0.0
 10
126.7771453857421
 20
25.09334343804253
 30
0.0
 10
126.7771453857421
 20
25.09334343804253
 30
0.0
 10
127.3352508544921
 20
25.09334343804253
 30
0.0
 10
127.7817352294921
 20
24.64685906304253
 30
0.0
 10
127.7817352294921
 20
24.09426574707031
 30
0.0
 10
127.7817352294921
 20
24.09426574707031
 30
0.0
 10
127.7817352294921
 20
21.08738640679253
 30
0.0
 10
127.7817352294921
 20
21.08738640679253
 30
0.0
  0
SPLINE
  5
1AF
100
AcDbEntity
  8
ALPHA
 62
     7
100
AcDbSpline
210
0.0
220
0.0
230
1.0
 70
    11
 71
     3
 72
    26
 73
    22
 74
     0
 42
0.0000001
 43
0.0000001
 40
0.0
 40
0.0
 40
0.0
 40
0.0
 40
1.0
 40
1.0
 40
1.0
 40
2.0
 40
2.0
 40
2.0
 40
3.0
 40
3.0
 40
3.0
 40
4.0
 40
4.0
 40
4.0
 40
5.0
 40
5.0
 40
5.0
 40
6.0
 40
6.0
 40
6.0
 40
7.0
 40
7.0
 40
7.0
 40
7.0
 10
124.7693437364366
 20
18.08050706651475
 30
0.0
 10
124.7693437364366
 20
18.08050706651475
 30
0.0
 10
127.7776011149088
 20
21.08738640679253
 30
0.0
 10
127.7776011149088
 20
21.08738640679253
 30
0.0
 10
127.7776011149088
 20
21.08738640679253
 30
0.0
 10
132.7867699517144
 20
21.08738640679253
 30
0.0
 10
132.7867699517144
 20
21.08738640679253
 30
0.0
 10
134.4500620524088
 20
21.08738640679253
 30
0.0
 10
135.7950273301866
 20
19.73828701443142
 30
0.0
 10
135.7950273301866
 20
18.08050706651475
 30
0.0
 10
135.7950273301866
 20
18.08050706651475
 30
0.0
 10
135.7950273301866
 20
18.08050706651475
 30
0.0
 10
135.7950273301866
 20
18.08050706651475
 30
0.0
 10
135.7950273301866
 20
16.41721496582031
 30
0.0
 10
134.4500620524088
 20
15.07362772623697
 30
0.0
 10
132.7867699517144
 20
15.07362772623697
 30
0.0
 10
132.7867699517144
 20
15.07362772623697
 30
0.0
 10
127.7776011149088
 20
15.07362772623697
 30
0.0
 10
127.7776011149088
 20
15.07362772623697
 30
0.0
 10
127.7776011149088
 20
15.07362772623697
 30
0.0
 10
124.7693437364366
 20
18.08050706651475
 30
0.0
 10
124.7693437364366
 20
18.08050706651475
 30
0.0
  0
SPLINE
  5
1B0
100
AcDbEntity
  8
ALPHA
 62
     7
100
AcDbSpline
210
0.0
220
0.0
230
-1.0
 70
     8
 71
     3
 72
    32
 73
    28
 74
     0
 42
0.0000001
 43
0.0000001
 40
0.0
 40
0.0
 40
0.0
 40
0.0
 40
1.0
 40
1.0
 40
1.0
 40
2.0
 40
2.0
 40
2.0
 40
3.0
 40
3.0
 40
3.0
 40
4.0
 40
4.0
 40
4.0
 40
5.0
 40
5.0
 40
5.0
 40
6.0
 40
6.0
 40
6.0
 40
7.0
 40
7.0
 40
7.0
 40
8.0
 40
8.0
 40
8.0
 40
9.0
 40
9.0
 40
9.0
 40
9.0
 10
127.7817352294921
 20
-4.024775865342881
 30
0.0
 10
127.7817352294921
 20
-4.024775865342881
 30
0.0
 10
127.7817352294921
 20
-7.031655205620658
 30
0.0
 10
127.7817352294921
 20
-7.031655205620658
 30
0.0
 10
127.7817352294921
 20
-7.589760674370658
 30
0.0
 10
127.3352508544921
 20
-8.036245049370659
 30
0.0
 10
126.7771453857421
 20
-8.036245049370659
 30
0.0
 10
126.7771453857421
 20
-8.036245049370659
 30
0.0
 10
112.7459604899088
 20
-8.036245049370659
 30
0.0
 10
112.7459604899088
 20
-8.036245049370659
 30
0.0
 10
112.1933671739366
 20
-8.036245049370659
 30
0.0
 10
111.7413706461588
 20
-7.589760674370658
 30
0.0
 10
111.7413706461588
 20
-7.031655205620658
 30
0.0
 10
111.7413706461588
 20
-7.031655205620658
 30
0.0
 10
111.7413706461588
 20
4.997240193684895
 30
0.0
 10
111.7413706461588
 20
4.997240193684895
 30
0.0
 10
111.7413706461588
 20
5.549833509657117
 30
0.0
 10
112.1933671739366
 20
5.996317884657117
 30
0.0
 10
112.7459604899088
 20
5.996317884657117
 30
0.0
 10
112.7459604899088
 20
5.996317884657117
 30
0.0
 10
126.7771453857421
 20
5.996317884657117
 30
0.0
 10
126.7771453857421
 20
5.996317884657117
 30
0.0
 10
127.3352508544921
 20
5.996317884657117
 30
0.0
 10
127.7817352294921
 20
5.549833509657117
 30
0.0
 10
127.7817352294921
 20
4.997240193684895
 30
0.0
 10
127.7817352294921
 20
4.997240193684895
 30
0.0
 10
127.7817352294921
 20
1.988982815212673
 30
0.0
 10
127.7817352294921
 20
1.988982815212673
 30
0.0
  0
SPLINE
  5
1B1
100
AcDbEntity
  8
ALPHA
 62
     7
100
AcDbSpline
210
0.0
220
0.0
230
1.0
 70
    11
 71
     3
 72
    26
 73
    22
 74
     0
 42
0.0000001
 43
0.0000001
 40
0.0
 40
0.0
 40
0.0
 40
0.0
 40
1.0
 40
1.0
 40
1.0
 40
2.0
 40
2.0
 40
2.0
 40
3.0
 40
3.0
 40
3.0
 40
4.0
 40
4.0
 40
4.0
 40
5.0
 40
5.0
 40
5.0
 40
6.0
 40
6.0
 40
6.0
 40
7.0
 40
7.0
 40
7.0
 40
7.0
 10
124.7693437364366
 20
-1.017896525065103
 30
0.0
 10
124.7693437364366
 20
-1.017896525065103
 30
0.0
 10
127.7776011149088
 20
1.988982815212673
 30
0.0
 10
127.7776011149088
 20
1.988982815212673
 30
0.0
 10
127.7776011149088
 20
1.988982815212673
 30
0.0
 10
132.7867699517144
 20
1.988982815212673
 30
0.0
 10
132.7867699517144
 20
1.988982815212673
 30
0.0
 10
134.4500620524088
 20
1.988982815212673
 30
0.0
 10
135.7950273301866
 20
0.6398834228515625
 30
0.0
 10
135.7950273301866
 20
-1.017896525065103
 30
0.0
 10
135.7950273301866
 20
-1.017896525065103
 30
0.0
 10
135.7950273301866
 20
-1.017896525065103
 30
0.0
 10
135.7950273301866
 20
-1.017896525065103
 30
0.0
 10
135.7950273301866
 20
-2.679810587565103
 30
0.0
 10
134.4500620524088
 20
-4.024775865342881
 30
0.0
 10
132.7867699517144
 20
-4.024775865342881
 30
0.0
 10
132.7867699517144
 20
-4.024775865342881
 30
0.0
 10
127.7776011149088
 20
-4.024775865342881
 30
0.0
 10
127.7776011149088
 20
-4.024775865342881
 30
0.0
 10
127.7776011149088
 20
-4.024775865342881
 30
0.0
 10
124.7693437364366
 20
-1.017896525065103
 30
0.0
 10
124.7693437364366
 20
-1.017896525065103
 30
0.0
  0
SPLINE
  5
1B2
100
AcDbEntity
  8
ALPHA
 62
     7
100
AcDbSpline
210
0.0
220
0.0
230
-1.0
 70
     8
 71
     3
 72
    32
 73
    28
 74
     0
 42
0.0000001
 43
0.0000001
 40
0.0
 40
0.0
 40
0.0
 40
0.0
 40
1.0
 40
1.0
 40
1.0
 40
2.0
 40
2.0
 40
2.0
 40
3.0
 40
3.0
 40
3.0
 40
4.0
 40
4.0
 40
4.0
 40
5.0
 40
5.0
 40
5.0
 40
6.0
 40
6.0
 40
6.0
 40
7.0
 40
7.0
 40
7.0
 40
8.0
 40
8.0
 40
8.0
 40
9.0
 40
9.0
 40
9.0
 40
9.0
 10
127.7817352294921
 20
-23.12300720214843
 30
0.0
 10
127.7817352294921
 20
-23.12300720214843
 30
0.0
 10
127.7817352294921
 20
-26.12988654242621
 30
0.0
 10
127.7817352294921
 20
-26.12988654242621
 30
0.0
 10
127.7817352294921
 20
-26.68661397298176
 30
0.0
 10
127.3352508544921
 20
-27.13309834798177
 30
0.0
 10
126.7771453857421
 20
-27.13309834798177
 30
0.0
 10
126.7771453857421
 20
-27.13309834798177
 30
0.0
 10
112.7459604899088
 20
-27.13309834798177
 30
0.0
 10
112.7459604899088
 20
-27.13309834798177
 30
0.0
 10
112.1933671739366
 20
-27.13309834798177
 30
0.0
 10
111.7413706461588
 20
-26.68661397298176
 30
0.0
 10
111.7413706461588
 20
-26.12988654242621
 30
0.0
 10
111.7413706461588
 20
-26.12988654242621
 30
0.0
 10
111.7413706461588
 20
-14.10099114312066
 30
0.0
 10
111.7413706461588
 20
-14.10099114312066
 30
0.0
 10
111.7413706461588
 20
-13.54839782714843
 30
0.0
 10
112.1933671739366
 20
-13.10191345214843
 30
0.0
 10
112.7459604899088
 20
-13.10191345214843
 30
0.0
 10
112.7459604899088
 20
-13.10191345214843
 30
0.0
 10
126.7771453857421
 20
-13.10191345214843
 30
0.0
 10
126.7771453857421
 20
-13.10191345214843
 30
0.0
 10
127.3352508544921
 20
-13.10191345214843
 30
0.0
 10
127.7817352294921
 20
-13.54839782714843
 30
0.0
 10
127.7817352294921
 20
-14.10099114312066
 30
0.0
 10
127.7817352294921
 20
-14.10099114312066
 30
0.0
 10
127.7817352294921
 20
-17.10787048339843
 30
0.0
 10
127.7817352294921
 20
-17.10787048339843
 30
0.0
  0
SPLINE
  5
1B3
100
AcDbEntity
  8
ALPHA
 62
     7
100
AcDbSpline
210
0.0
220
0.0
230
1.0
 70
    11
 71
     3
 72
    26
 73
    22
 74
     0
 42
0.0000001
 43
0.0000001
 40
0.0
 40
0.0
 40
0.0
 40
0.0
 40
1.0
 40
1.0
 40
1.0
 40
2.0
 40
2.0
 40
2.0
 40
3.0
 40
3.0
 40
3.0
 40
4.0
 40
4.0
 40
4.0
 40
5.0
 40
5.0
 40
5.0
 40
6.0
 40
6.0
 40
6.0
 40
7.0
 40
7.0
 40
7.0
 40
7.0
 10
124.7693437364366
 20
-20.11474982367621
 30
0.0
 10
124.7693437364366
 20
-20.11474982367621
 30
0.0
 10
127.7776011149088
 20
-17.10787048339843
 30
0.0
 10
127.7776011149088
 20
-17.10787048339843
 30
0.0
 10
127.7776011149088
 20
-17.10787048339843
 30
0.0
 10
132.7867699517144
 20
-17.10787048339843
 30
0.0
 10
132.7867699517144
 20
-17.10787048339843
 30
0.0
 10
134.4500620524088
 20
-17.10787048339843
 30
0.0
 10
135.7950273301866
 20
-18.45696987575954
 30
0.0
 10
135.7950273301866
 20
-20.11474982367621
 30
0.0
 10
135.7950273301866
 20
-20.11474982367621
 30
0.0
 10
135.7950273301866
 20
-20.11474982367621
 30
0.0
 10
135.7950273301866
 20
-20.11474982367621
 30
0.0
 10
135.7950273301866
 20
-21.77804192437065
 30
0.0
 10
134.4500620524088
 20
-23.12300720214843
 30
0.0
 10
132.7867699517144
 20
-23.12300720214843
 30
0.0
 10
132.7867699517144
 20
-23.12300720214843
 30
0.0
 10
127.7776011149088
 20
-23.12300720214843
 30
0.0
 10
127.7776011149088
 20
-23.12300720214843
 30
0.0
 10
127.7776011149088
 20
-23.12300720214843
 30
0.0
 10
124.7693437364366
 20
-20.11474982367621
 30
0.0
 10
124.7693437364366
 20
-20.11474982367621
 30
0.0
  0
SPLINE
  5
1B4
100
AcDbEntity
  8
ALPHA
 62
     7
100
AcDbSpline
210
0.0
220
0.0
230
-1.0
 70
     8
 71
     3
 72
    32
 73
    28
 74
     0
 42
0.0000001
 43
0.0000001
 40
0.0
 40
0.0
 40
0.0
 40
0.0
 40
1.0
 40
1.0
 40
1.0
 40
2.0
 40
2.0
 40
2.0
 40
3.0
 40
3.0
 40
3.0
 40
4.0
 40
4.0
 40
4.0
 40
5.0
 40
5.0
 40
5.0
 40
6.0
 40
6.0
 40
6.0
 40
7.0
 40
7.0
 40
7.0
 40
8.0
 40
8.0
 40
8.0
 40
9.0
 40
9.0
 40
9.0
 40
9.0
 10
127.7817352294921
 20
-42.21986050075954
 30
0.0
 10
127.7817352294921
 20
-42.21986050075954
 30
0.0
 10
127.7817352294921
 20
-45.22811787923177
 30
0.0
 10
127.7817352294921
 20
-45.22811787923177
 30
0.0
 10
127.7817352294921
 20
-45.78484530978732
 30
0.0
 10
127.3352508544921
 20
-46.23132968478731
 30
0.0
 10
126.7771453857421
 20
-46.23132968478731
 30
0.0
 10
126.7771453857421
 20
-46.23132968478731
 30
0.0
 10
112.7459604899088
 20
-46.23132968478731
 30
0.0
 10
112.7459604899088
 20
-46.23132968478731
 30
0.0
 10
112.1933671739366
 20
-46.23132968478731
 30
0.0
 10
111.7413706461588
 20
-45.78484530978732
 30
0.0
 10
111.7413706461588
 20
-45.22811787923177
 30
0.0
 10
111.7413706461588
 20
-45.22811787923177
 30
0.0
 10
111.7413706461588
 20
-33.19922247992621
 30
0.0
 10
111.7413706461588
 20
-33.19922247992621
 30
0.0
 10
111.7413706461588
 20
-32.64662916395399
 30
0.0
 10
112.1933671739366
 20
-32.19876675075954
 30
0.0
 10
112.7459604899088
 20
-32.19876675075954
 30
0.0
 10
112.7459604899088
 20
-32.19876675075954
 30
0.0
 10
126.7771453857421
 20
-32.19876675075954
 30
0.0
 10
126.7771453857421
 20
-32.19876675075954
 30
0.0
 10
127.3352508544921
 20
-32.19876675075954
 30
0.0
 10
127.7817352294921
 20
-32.64662916395399
 30
0.0
 10
127.7817352294921
 20
-33.19922247992621
 30
0.0
 10
127.7817352294921
 20
-33.19922247992621
 30
0.0
 10
127.7817352294921
 20
-36.20610182020399
 30
0.0
 10
127.7817352294921
 20
-36.20610182020399
 30
0.0
  0
SPLINE
  5
1B5
100
AcDbEntity
  8
ALPHA
 62
     7
100
AcDbSpline
210
0.0
220
0.0
230
1.0
 70
    11
 71
     3
 72
    26
 73
    22
 74
     0
 42
0.0000001
 43
0.0000001
 40
0.0
 40
0.0
 40
0.0
 40
0.0
 40
1.0
 40
1.0
 40
1.0
 40
2.0
 40
2.0
 40
2.0
 40
3.0
 40
3.0
 40
3.0
 40
4.0
 40
4.0
 40
4.0
 40
5.0
 40
5.0
 40
5.0
 40
6.0
 40
6.0
 40
6.0
 40
7.0
 40
7.0
 40
7.0
 40
7.0
 10
124.7693437364366
 20
-39.21298116048177
 30
0.0
 10
124.7693437364366
 20
-39.21298116048177
 30
0.0
 10
127.7776011149088
 20
-36.20610182020399
 30
0.0
 10
127.7776011149088
 20
-36.20610182020399
 30
0.0
 10
127.7776011149088
 20
-36.20610182020399
 30
0.0
 10
132.7867699517144
 20
-36.20610182020399
 30
0.0
 10
132.7867699517144
 20
-36.20610182020399
 30
0.0
 10
134.4500620524088
 20
-36.20610182020399
 30
0.0
 10
135.7950273301866
 20
-37.5552012125651
 30
0.0
 10
135.7950273301866
 20
-39.21298116048177
 30
0.0
 10
135.7950273301866
 20
-39.21298116048177
 30
0.0
 10
135.7950273301866
 20
-39.21298116048177
 30
0.0
 10
135.7950273301866
 20
-39.21298116048177
 30
0.0
 10
135.7950273301866
 20
-40.87489522298176
 30
0.0
 10
134.4500620524088
 20
-42.21986050075954
 30
0.0
 10
132.7867699517144
 20
-42.21986050075954
 30
0.0
 10
132.7867699517144
 20
-42.21986050075954
 30
0.0
 10
127.7776011149088
 20
-42.21986050075954
 30
0.0
 10
127.7776011149088
 20
-42.21986050075954
 30
0.0
 10
127.7776011149088
 20
-42.21986050075954
 30
0.0
 10
124.7693437364366
 20
-39.21298116048177
 30
0.0
 10
124.7693437364366
 20
-39.21298116048177
 30
0.0
  0
SPLINE
  5
1B6
100
AcDbEntity
  8
ALPHA
 62
     7
100
AcDbSpline
210
0.0
220
0.0
230
-1.0
 70
     8
 71
     3
 72
    32
 73
    28
 74
     0
 42
0.0000001
 43
0.0000001
 40
0.0
 40
0.0
 40
0.0
 40
0.0
 40
1.0
 40
1.0
 40
1.0
 40
2.0
 40
2.0
 40
2.0
 40
3.0
 40
3.0
 40
3.0
 40
4.0
 40
4.0
 40
4.0
 40
5.0
 40
5.0
 40
5.0
 40
6.0
 40
6.0
 40
6.0
 40
7.0
 40
7.0
 40
7.0
 40
8.0
 40
8.0
 40
8.0
 40
9.0
 40
9.0
 40
9.0
 40
9.0
 10
127.7817352294921
 20
-61.3180918375651
 30
0.0
 10
127.7817352294921
 20
-61.3180918375651
 30
0.0
 10
127.7817352294921
 20
-64.32497117784286
 30
0.0
 10
127.7817352294921
 20
-64.32497117784286
 30
0.0
 10
127.7817352294921
 20
-64.88169860839843
 30
0.0
 10
127.3352508544921
 20
-65.32956102159288
 30
0.0
 10
126.7771453857421
 20
-65.32956102159288
 30
0.0
 10
126.7771453857421
 20
-65.32956102159288
 30
0.0
 10
112.7459604899088
 20
-65.32956102159288
 30
0.0
 10
112.7459604899088
 20
-65.32956102159288
 30
0.0
 10
112.1933671739366
 20
-65.32956102159288
 30
0.0
 10
111.7413706461588
 20
-64.88169860839843
 30
0.0
 10
111.7413706461588
 20
-64.32497117784286
 30
0.0
 10
111.7413706461588
 20
-64.32497117784286
 30
0.0
 10
111.7413706461588
 20
-52.29607577853732
 30
0.0
 10
111.7413706461588
 20
-52.29607577853732
 30
0.0
 10
111.7413706461588
 20
-51.7434824625651
 30
0.0
 10
112.1933671739366
 20
-51.2969980875651
 30
0.0
 10
112.7459604899088
 20
-51.2969980875651
 30
0.0
 10
112.7459604899088
 20
-51.2969980875651
 30
0.0
 10
126.7771453857421
 20
-51.2969980875651
 30
0.0
 10
126.7771453857421
 20
-51.2969980875651
 30
0.0
 10
127.3352508544921
 20
-51.2969980875651
 30
0.0
 10
127.7817352294921
 20
-51.7434824625651
 30
0.0
 10
127.7817352294921
 20
-52.29607577853732
 30
0.0
 10
127.7817352294921
 20
-52.29607577853732
 30
0.0
 10
127.7817352294921
 20
-55.3029551188151
 30
0.0
 10
127.7817352294921
 20
-55.3029551188151
 30
0.0
  0
SPLINE
  5
1B7
100
AcDbEntity
  8
ALPHA
 62
     7
100
AcDbSpline
210
0.0
220
0.0
230
1.0
 70
    11
 71
     3
 72
    26
 73
    22
 74
     0
 42
0.0000001
 43
0.0000001
 40
0.0
 40
0.0
 40
0.0
 40
0.0
 40
1.0
 40
1.0
 40
1.0
 40
2.0
 40
2.0
 40
2.0
 40
3.0
 40
3.0
 40
3.0
 40
4.0
 40
4.0
 40
4.0
 40
5.0
 40
5.0
 40
5.0
 40
6.0
 40
6.0
 40
6.0
 40
7.0
 40
7.0
 40
7.0
 40
7.0
 10
124.7693437364366
 20
-58.31121249728732
 30
0.0
 10
124.7693437364366
 20
-58.31121249728732
 30
0.0
 10
127.7776011149088
 20
-55.3029551188151
 30
0.0
 10
127.7776011149088
 20
-55.3029551188151
 30
0.0
 10
127.7776011149088
 20
-55.3029551188151
 30
0.0
 10
132.7867699517144
 20
-55.3029551188151
 30
0.0
 10
132.7867699517144
 20
-55.3029551188151
 30
0.0
 10
134.4500620524088
 20
-55.3029551188151
 30
0.0
 10
135.7950273301866
 20
-56.65343254937066
 30
0.0
 10
135.7950273301866
 20
-58.31121249728732
 30
0.0
 10
135.7950273301866
 20
-58.31121249728732
 30
0.0
 10
135.7950273301866
 20
-58.31121249728732
 30
0.0
 10
135.7950273301866
 20
-58.31121249728732
 30
0.0
 10
135.7950273301866
 20
-59.97312655978731
 30
0.0
 10
134.4500620524088
 20
-61.3180918375651
 30
0.0
 10
132.7867699517144
 20
-61.3180918375651
 30
0.0
 10
132.7867699517144
 20
-61.3180918375651
 30
0.0
 10
127.7776011149088
 20
-61.3180918375651
 30
0.0
 10
127.7776011149088
 20
-61.3180918375651
 30
0.0
 10
127.7776011149088
 20
-61.3180918375651
 30
0.0
 10
124.7693437364366
 20
-58.31121249728732
 30
0.0
 10
124.7693437364366
 20
-58.31121249728732
 30
0.0
  0
SPLINE
  5
1B8
100
AcDbEntity
  8
ALPHA
 62
     7
100
AcDbSpline
210
0.0
220
0.0
230
-1.0
 70
     8
 71
     3
 72
    32
 73
    28
 74
     0
 42
0.0000001
 43
0.0000001
 40
0.0
 40
0.0
 40
0.0
 40
0.0
 40
1.0
 40
1.0
 40
1.0
 40
2.0
 40
2.0
 40
2.0
 40
3.0
 40
3.0
 40
3.0
 40
4.0
 40
4.0
 40
4.0
 40
5.0
 40
5.0
 40
5.0
 40
6.0
 40
6.0
 40
6.0
 40
7.0
 40
7.0
 40
7.0
 40
8.0
 40
8.0
 40
8.0
 40
9.0
 40
9.0
 40
9.0
 40
9.0
 10
127.7817352294921
 20
-80.41494513617621
 30
0.0
 10
127.7817352294921
 20
-80.41494513617621
 30
0.0
 10
127.7817352294921
 20
-83.42320251464842
 30
0.0
 10
127.7817352294921
 20
-83.42320251464842
 30
0.0
 10
127.7817352294921
 20
-83.97992994520398
 30
0.0
 10
127.3352508544921
 20
-84.42641432020399
 30
0.0
 10
126.7771453857421
 20
-84.42641432020399
 30
0.0
 10
126.7771453857421
 20
-84.42641432020399
 30
0.0
 10
112.7459604899088
 20
-84.42641432020399
 30
0.0
 10
112.7459604899088
 20
-84.42641432020399
 30
0.0
 10
112.1933671739366
 20
-84.42641432020399
 30
0.0
 10
111.7413706461588
 20
-83.97992994520398
 30
0.0
 10
111.7413706461588
 20
-83.42320251464842
 30
0.0
 10
111.7413706461588
 20
-83.42320251464842
 30
0.0
 10
111.7413706461588
 20
-71.39430711534287
 30
0.0
 10
111.7413706461588
 20
-71.39430711534287
 30
0.0
 10
111.7413706461588
 20
-70.84171379937065
 30
0.0
 10
112.1933671739366
 20
-70.39522942437065
 30
0.0
 10
112.7459604899088
 20
-70.39522942437065
 30
0.0
 10
112.7459604899088
 20
-70.39522942437065
 30
0.0
 10
126.7771453857421
 20
-70.39522942437065
 30
0.0
 10
126.7771453857421
 20
-70.39522942437065
 30
0.0
 10
127.3352508544921
 20
-70.39522942437065
 30
0.0
 10
127.7817352294921
 20
-70.84171379937065
 30
0.0
 10
127.7817352294921
 20
-71.39430711534287
 30
0.0
 10
127.7817352294921
 20
-71.39430711534287
 30
0.0
 10
127.7817352294921
 20
-74.40118645562065
 30
0.0
 10
127.7817352294921
 20
-74.40118645562065
 30
0.0
  0
SPLINE
  5
1B9
100
AcDbEntity
  8
ALPHA
 62
     7
100
AcDbSpline
210
0.0
220
0.0
230
1.0
 70
    11
 71
     3
 72
    26
 73
    22
 74
     0
 42
0.0000001
 43
0.0000001
 40
0.0
 40
0.0
 40
0.0
 40
0.0
 40
1.0
 40
1.0
 40
1.0
 40
2.0
 40
2.0
 40
2.0
 40
3.0
 40
3.0
 40
3.0
 40
4.0
 40
4.0
 40
4.0
 40
5.0
 40
5.0
 40
5.0
 40
6.0
 40
6.0
 40
6.0
 40
7.0
 40
7.0
 40
7.0
 40
7.0
 10
124.7693437364366
 20
-77.40806579589843
 30
0.0
 10
124.7693437364366
 20
-77.40806579589843
 30
0.0
 10
127.7776011149088
 20
-74.40118645562065
 30
0.0
 10
127.7776011149088
 20
-74.40118645562065
 30
0.0
 10
127.7776011149088
 20
-74.40118645562065
 30
0.0
 10
132.7867699517144
 20
-74.40118645562065
 30
0.0
 10
132.7867699517144
 20
-74.40118645562065
 30
0.0
 10
134.4500620524088
 20
-74.40118645562065
 30
0.0
 10
135.7950273301866
 20
-75.75028584798175
 30
0.0
 10
135.7950273301866
 20
-77.40806579589843
 30
0.0
 10
135.7950273301866
 20
-77.40806579589843
 30
0.0
 10
135.7950273301866
 20
-77.40806579589843
 30
0.0
 10
135.7950273301866
 20
-77.40806579589843
 30
0.0
 10
135.7950273301866
 20
-79.07135789659287
 30
0.0
 10
134.4500620524088
 20
-80.41494513617621
 30
0.0
 10
132.7867699517144
 20
-80.41494513617621
 30
0.0
 10
132.7867699517144
 20
-80.41494513617621
 30
0.0
 10
127.7776011149088
 20
-80.41494513617621
 30
0.0
 10
127.7776011149088
 20
-80.41494513617621
 30
0.0
 10
127.7776011149088
 20
-80.41494513617621
 30
0.0
 10
124.7693437364366
 20
-77.40806579589843
 30
0.0
 10
124.7693437364366
 20
-77.40806579589843
 30
0.0
  0
POLYLINE
  5
1BA
100
AcDbEntity
  8
ALPHA
 62
     7
100
AcDb2dPolyline
 66
     1
 10
0.0
 20
0.0
 30
0.0
 70
     1
  0
VERTEX
  5
1BB
100
AcDbEntity
  8
ALPHA
 62
     7
100
AcDbVertex
100
AcDb2dVertex
 10
-53.427531
 20
-72.416811
 30
0.0
  0
VERTEX
  5
1BC
100
AcDbEntity
  8
ALPHA
 62
     7
100
AcDbVertex
100
AcDb2dVertex
 10
-53.427531
 20
-63.394795
 30
0.0
  0
VERTEX
  5
1BD
100
AcDbEntity
  8
ALPHA
 62
     7
100
AcDbVertex
100
AcDb2dVertex
 10
-68.468646
 20
-63.394795
 30
0.0
  0
VERTEX
  5
1BE
100
AcDbEntity
  8
ALPHA
 62
     7
100
AcDbVertex
100
AcDb2dVertex
 10
-68.468646
 20
-72.416811
 30
0.0
  0
SEQEND
  5
1BF
100
AcDbEntity
  8
ALPHA
 62
     7
  0
POLYLINE
  5
1C0
100
AcDbEntity
  8
ALPHA
 62
     7
100
AcDb2dPolyline
 66
     1
 10
0.0
 20
0.0
 30
0.0
 70
     1
  0
VERTEX
  5
1C1
100
AcDbEntity
  8
ALPHA
 62
     7
100
AcDbVertex
100
AcDb2dVertex
 10
-53.427531
 20
-34.221727
 30
0.0
  0
VERTEX
  5
1C2
100
AcDbEntity
  8
ALPHA
 62
     7
100
AcDbVertex
100
AcDb2dVertex
 10
-53.427531
 20
-25.199711
 30
0.0
  0
VERTEX
  5
1C3
100
AcDbEntity
  8
ALPHA
 62
     7
100
AcDbVertex
100
AcDb2dVertex
 10
-68.468646
 20
-25.199711
 30
0.0
  0
VERTEX
  5
1C4
100
AcDbEntity
  8
ALPHA
 62
     7
100
AcDbVertex
100
AcDb2dVertex
 10
-68.468646
 20
-34.221727
 30
0.0
  0
SEQEND
  5
1C5
100
AcDbEntity
  8
ALPHA
 62
     7
  0
POLYLINE
  5
1C6
100
AcDbEntity
  8
ALPHA
 62
     7
100
AcDb2dPolyline
 66
     1
 10
0.0
 20
0.0
 30
0.0
 70
     1
  0
VERTEX
  5
1C7
100
AcDbEntity
  8
ALPHA
 62
     7
100
AcDbVertex
100
AcDb2dVertex
 10
-34.330678
 20
-52.789413
 30
0.0
  0
VERTEX
  5
1C8
100
AcDbEntity
  8
ALPHA
 62
     7
100
AcDbVertex
100
AcDb2dVertex
 10
-34.330678
 20
-43.767397
 30
0.0
  0
VERTEX
  5
1C9
100
AcDbEntity
  8
ALPHA
 62
     7
100
AcDbVertex
100
AcDb2dVertex
 10
-49.370587
 20
-43.767397
 30
0.0
  0
VERTEX
  5
1CA
100
AcDbEntity
  8
ALPHA
 62
     7
100
AcDbVertex
100
AcDb2dVertex
 10
-49.370587
 20
-52.789413
 30
0.0
  0
SEQEND
  5
1CB
100
AcDbEntity
  8
ALPHA
 62
     7
  0
POLYLINE
  5
1CC
100
AcDbEntity
  8
ALPHA
 62
     7
100
AcDb2dPolyline
 66
     1
 10
0.0
 20
0.0
 30
0.0
 70
     1
  0
VERTEX
  5
1CD
100
AcDbEntity
  8
ALPHA
 62
     7
100
AcDbVertex
100
AcDb2dVertex
 10
-14.528269
 20
-34.221727
 30
0.0
  0
VERTEX
  5
1CE
100
AcDbEntity
  8
ALPHA
 62
     7
100
AcDbVertex
100
AcDb2dVertex
 10
-14.528269
 20
-25.199711
 30
0.0
  0
VERTEX
  5
1CF
100
AcDbEntity
  8
ALPHA
 62
     7
100
AcDbVertex
100
AcDb2dVertex
 10
-29.564044
 20
-25.199711
 30
0.0
  0
VERTEX
  5
1D0
100
AcDbEntity
  8
ALPHA
 62
     7
100
AcDbVertex
100
AcDb2dVertex
 10
-29.564044
 20
-34.221727
 30
0.0
  0
SEQEND
  5
1D1
100
AcDbEntity
  8
ALPHA
 62
     7
  0
POLYLINE
  5
1D2
100
AcDbEntity
  8
ALPHA
 62
     7
100
AcDb2dPolyline
 66
     1
 10
0.0
 20
0.0
 30
0.0
 70
     1
  0
VERTEX
  5
1D3
100
AcDbEntity
  8
ALPHA
 62
     7
100
AcDbVertex
100
AcDb2dVertex
 10
1.03805
 20
3.265046
 30
0.0
  0
VERTEX
  5
1D4
100
AcDbEntity
  8
ALPHA
 62
     7
100
AcDbVertex
100
AcDb2dVertex
 10
1.03805
 20
12.287234
 30
0.0
  0
VERTEX
  5
1D5
100
AcDbEntity
  8
ALPHA
 62
     7
100
AcDbVertex
100
AcDb2dVertex
 10
-14.003237
 20
12.287234
 30
0.0
  0
VERTEX
  5
1D6
100
AcDbEntity
  8
ALPHA
 62
     7
100
AcDbVertex
100
AcDb2dVertex
 10
-14.003237
 20
3.265046
 30
0.0
  0
SEQEND
  5
1D7
100
AcDbEntity
  8
ALPHA
 62
     7
  0
POLYLINE
  5
1D8
100
AcDbEntity
  8
ALPHA
 62
     7
100
AcDb2dPolyline
 66
     1
 10
0.0
 20
0.0
 30
0.0
 70
     1
  0
VERTEX
  5
1D9
100
AcDbEntity
  8
ALPHA
 62
     7
100
AcDbVertex
100
AcDb2dVertex
 10
22.254326
 20
3.265046
 30
0.0
  0
VERTEX
  5
1DA
100
AcDbEntity
  8
ALPHA
 62
     7
100
AcDbVertex
100
AcDb2dVertex
 10
22.254326
 20
12.287234
 30
0.0
  0
VERTEX
  5
1DB
100
AcDbEntity
  8
ALPHA
 62
     7
100
AcDbVertex
100
AcDb2dVertex
 10
7.218552
 20
12.287234
 30
0.0
  0
VERTEX
  5
1DC
100
AcDbEntity
  8
ALPHA
 62
     7
100
AcDbVertex
100
AcDb2dVertex
 10
7.218552
 20
3.265046
 30
0.0
  0
SEQEND
  5
1DD
100
AcDbEntity
  8
ALPHA
 62
     7
  0
POLYLINE
  5
1DE
100
AcDbEntity
  8
ALPHA
 62
     7
100
AcDb2dPolyline
 66
     1
 10
0.0
 20
0.0
 30
0.0
 70
     1
  0
VERTEX
  5
1DF
100
AcDbEntity
  8
ALPHA
 62
     7
100
AcDbVertex
100
AcDb2dVertex
 10
43.474737
 20
3.265046
 30
0.0
  0
VERTEX
  5
1E0
100
AcDbEntity
  8
ALPHA
 62
     7
100
AcDbVertex
100
AcDb2dVertex
 10
43.474737
 20
12.287234
 30
0.0
  0
VERTEX
  5
1E1
100
AcDbEntity
  8
ALPHA
 62
     7
100
AcDbVertex
100
AcDb2dVertex
 10
28.438962
 20
12.287234
 30
0.0
  0
VERTEX
  5
1E2
100
AcDbEntity
  8
ALPHA
 62
     7
100
AcDbVertex
100
AcDb2dVertex
 10
28.438962
 20
3.265046
 30
0.0
  0
SEQEND
  5
1E3
100
AcDbEntity
  8
ALPHA
 62
     7
  0
POLYLINE
  5
1E4
100
AcDbEntity
  8
ALPHA
 62
     7
100
AcDb2dPolyline
 66
     1
 10
0.0
 20
0.0
 30
0.0
 70
     1
  0
VERTEX
  5
1E5
100
AcDbEntity
  8
ALPHA
 62
     7
100
AcDbVertex
100
AcDb2dVertex
 10
64.695147
 20
3.265046
 30
0.0
  0
VERTEX
  5
1E6
100
AcDbEntity
  8
ALPHA
 62
     7
100
AcDbVertex
100
AcDb2dVertex
 10
64.695147
 20
12.287234
 30
0.0
  0
VERTEX
  5
1E7
100
AcDbEntity
  8
ALPHA
 62
     7
100
AcDbVertex
100
AcDb2dVertex
 10
49.659372
 20
12.287234
 30
0.0
  0
VERTEX
  5
1E8
100
AcDbEntity
  8
ALPHA
 62
     7
100
AcDbVertex
100
AcDb2dVertex
 10
49.659372
 20
3.265046
 30
0.0
  0
SEQEND
  5
1E9
100
AcDbEntity
  8
ALPHA
 62
     7
  0
POLYLINE
  5
1EA
100
AcDbEntity
  8
ALPHA
 62
     7
100
AcDb2dPolyline
 66
     1
 10
0.0
 20
0.0
 30
0.0
 70
     1
  0
VERTEX
  5
1EB
100
AcDbEntity
  8
ALPHA
 62
     7
100
AcDbVertex
100
AcDb2dVertex
 10
22.254326
 20
-73.125123
 30
0.0
  0
VERTEX
  5
1EC
100
AcDbEntity
  8
ALPHA
 62
     7
100
AcDbVertex
100
AcDb2dVertex
 10
22.254326
 20
-64.104485
 30
0.0
  0
VERTEX
  5
1ED
100
AcDbEntity
  8
ALPHA
 62
     7
100
AcDbVertex
100
AcDb2dVertex
 10
7.218552
 20
-64.104485
 30
0.0
  0
VERTEX
  5
1EE
100
AcDbEntity
  8
ALPHA
 62
     7
100
AcDbVertex
100
AcDb2dVertex
 10
7.218552
 20
-73.125123
 30
0.0
  0
SEQEND
  5
1EF
100
AcDbEntity
  8
ALPHA
 62
     7
  0
POLYLINE
  5
1F0
100
AcDbEntity
  8
ALPHA
 62
     7
100
AcDb2dPolyline
 66
     1
 10
0.0
 20
0.0
 30
0.0
 70
     1
  0
VERTEX
  5
1F1
100
AcDbEntity
  8
ALPHA
 62
     7
100
AcDbVertex
100
AcDb2dVertex
 10
43.474737
 20
-73.125123
 30
0.0
  0
VERTEX
  5
1F2
100
AcDbEntity
  8
ALPHA
 62
     7
100
AcDbVertex
100
AcDb2dVertex
 10
43.474737
 20
-64.104485
 30
0.0
  0
VERTEX
  5
1F3
100
AcDbEntity
  8
ALPHA
 62
     7
100
AcDbVertex
100
AcDb2dVertex
 10
28.438962
 20
-64.104485
 30
0.0
  0
VERTEX
  5
1F4
100
AcDbEntity
  8
ALPHA
 62
     7
100
AcDbVertex
100
AcDb2dVertex
 10
28.438962
 20
-73.125123
 30
0.0
  0
SEQEND
  5
1F5
100
AcDbEntity
  8
ALPHA
 62
     7
  0
POLYLINE
  5
1F6
100
AcDbEntity
  8
ALPHA
 62
     7
100
AcDb2dPolyline
 66
     1
 10
0.0
 20
0.0
 30
0.0
 70
     1
  0
VERTEX
  5
1F7
100
AcDbEntity
  8
ALPHA
 62
     7
100
AcDbVertex
100
AcDb2dVertex
 10
64.695147
 20
-73.125123
 30
0.0
  0
VERTEX
  5
1F8
100
AcDbEntity
  8
ALPHA
 62
     7
100
AcDbVertex
100
AcDb2dVertex
 10
64.695147
 20
-64.104485
 30
0.0
  0
VERTEX
  5
1F9
100
AcDbEntity
  8
ALPHA
 62
     7
100
AcDbVertex
100
AcDb2dVertex
 10
49.659372
 20
-64.104485
 30
0.0
  0
VERTEX
  5
1FA
100
AcDbEntity
  8
ALPHA
 62
     7
100
AcDbVertex
100
AcDb2dVertex
 10
49.659372
 20
-73.125123
 30
0.0
  0
SEQEND
  5
1FB
100
AcDbEntity
  8
ALPHA
 62
     7
  0
POLYLINE
  5
1FC
100
AcDbEntity
  8
ALPHA
 62
     7
100
AcDb2dPolyline
 66
     1
 10
0.0
 20
0.0
 30
0.0
 70
     1
  0
VERTEX
  5
1FD
100
AcDbEntity
  8
ALPHA
 62
     7
100
AcDbVertex
100
AcDb2dVertex
 10
22.254326
 20
-55.442137
 30
0.0
  0
VERTEX
  5
1FE
100
AcDbEntity
  8
ALPHA
 62
     7
100
AcDbVertex
100
AcDb2dVertex
 10
22.254326
 20
-46.420121
 30
0.0
  0
VERTEX
  5
1FF
100
AcDbEntity
  8
ALPHA
 62
     7
100
AcDbVertex
100
AcDb2dVertex
 10
7.218552
 20
-46.420121
 30
0.0
  0
VERTEX
  5
200
100
AcDbEntity
  8
ALPHA
 62
     7
100
AcDbVertex
100
AcDb2dVertex
 10
7.218552
 20
-55.442137
 30
0.0
  0
SEQEND
  5
201
100
AcDbEntity
  8
ALPHA
 62
     7
  0
POLYLINE
  5
202
100
AcDbEntity
  8
ALPHA
 62
     7
100
AcDb2dPolyline
 66
     1
 10
0.0
 20
0.0
 30
0.0
 70
     1
  0
VERTEX
  5
203
100
AcDbEntity
  8
ALPHA
 62
     7
100
AcDbVertex
100
AcDb2dVertex
 10
43.474737
 20
-55.442137
 30
0.0
  0
VERTEX
  5
204
100
AcDbEntity
  8
ALPHA
 62
     7
100
AcDbVertex
100
AcDb2dVertex
 10
43.474737
 20
-46.420121
 30
0.0
  0
VERTEX
  5
205
100
AcDbEntity
  8
ALPHA
 62
     7
100
AcDbVertex
100
AcDb2dVertex
 10
28.438962
 20
-46.420121
 30
0.0
  0
VERTEX
  5
206
100
AcDbEntity
  8
ALPHA
 62
     7
100
AcDbVertex
100
AcDb2dVertex
 10
28.438962
 20
-55.442137
 30
0.0
  0
SEQEND
  5
207
100
AcDbEntity
  8
ALPHA
 62
     7
  0
POLYLINE
  5
208
100
AcDbEntity
  8
ALPHA
 62
     7
100
AcDb2dPolyline
 66
     1
 10
0.0
 20
0.0
 30
0.0
 70
     1
  0
VERTEX
  5
209
100
AcDbEntity
  8
ALPHA
 62
     7
100
AcDbVertex
100
AcDb2dVertex
 10
64.695147
 20
-55.442137
 30
0.0
  0
VERTEX
  5
20A
100
AcDbEntity
  8
ALPHA
 62
     7
100
AcDbVertex
100
AcDb2dVertex
 10
64.695147
 20
-46.420121
 30
0.0
  0
VERTEX
  5
20B
100
AcDbEntity
  8
ALPHA
 62
     7
100
AcDbVertex
100
AcDb2dVertex
 10
49.659372
 20
-46.420121
 30
0.0
  0
VERTEX
  5
20C
100
AcDbEntity
  8
ALPHA
 62
     7
100
AcDbVertex
100
AcDb2dVertex
 10
49.659372
 20
-55.442137
 30
0.0
  0
SEQEND
  5
20D
100
AcDbEntity
  8
ALPHA
 62
     7
  0
POLYLINE
  5
20E
100
AcDbEntity
  8
ALPHA
 62
     7
100
AcDb2dPolyline
 66
     1
 10
0.0
 20
0.0
 30
0.0
 70
     1
  0
VERTEX
  5
20F
100
AcDbEntity
  8
ALPHA
 62
     7
100
AcDbVertex
100
AcDb2dVertex
 10
22.254326
 20
-35.98975
 30
0.0
  0
VERTEX
  5
210
100
AcDbEntity
  8
ALPHA
 62
     7
100
AcDbVertex
100
AcDb2dVertex
 10
22.254326
 20
-26.967734
 30
0.0
  0
VERTEX
  5
211
100
AcDbEntity
  8
ALPHA
 62
     7
100
AcDbVertex
100
AcDb2dVertex
 10
7.218552
 20
-26.967734
 30
0.0
  0
VERTEX
  5
212
100
AcDbEntity
  8
ALPHA
 62
     7
100
AcDbVertex
100
AcDb2dVertex
 10
7.218552
 20
-35.98975
 30
0.0
  0
SEQEND
  5
213
100
AcDbEntity
  8
ALPHA
 62
     7
  0
POLYLINE
  5
214
100
AcDbEntity
  8
ALPHA
 62
     7
100
AcDb2dPolyline
 66
     1
 10
0.0
 20
0.0
 30
0.0
 70
     1
  0
VERTEX
  5
215
100
AcDbEntity
  8
ALPHA
 62
     7
100
AcDbVertex
100
AcDb2dVertex
 10
43.474737
 20
-35.98975
 30
0.0
  0
VERTEX
  5
216
100
AcDbEntity
  8
ALPHA
 62
     7
100
AcDbVertex
100
AcDb2dVertex
 10
43.474737
 20
-26.967734
 30
0.0
  0
VERTEX
  5
217
100
AcDbEntity
  8
ALPHA
 62
     7
100
AcDbVertex
100
AcDb2dVertex
 10
28.438962
 20
-26.967734
 30
0.0
  0
VERTEX
  5
218
100
AcDbEntity
  8
ALPHA
 62
     7
100
AcDbVertex
100
AcDb2dVertex
 10
28.438962
 20
-35.98975
 30
0.0
  0
SEQEND
  5
219
100
AcDbEntity
  8
ALPHA
 62
     7
  0
POLYLINE
  5
21A
100
AcDbEntity
  8
ALPHA
 62
     7
100
AcDb2dPolyline
 66
     1
 10
0.0
 20
0.0
 30
0.0
 70
     1
  0
VERTEX
  5
21B
100
AcDbEntity
  8
ALPHA
 62
     7
100
AcDbVertex
100
AcDb2dVertex
 10
64.695147
 20
-35.98975
 30
0.0
  0
VERTEX
  5
21C
100
AcDbEntity
  8
ALPHA
 62
     7
100
AcDbVertex
100
AcDb2dVertex
 10
64.695147
 20
-26.967734
 30
0.0
  0
VERTEX
  5
21D
100
AcDbEntity
  8
ALPHA
 62
     7
100
AcDbVertex
100
AcDb2dVertex
 10
49.659372
 20
-26.967734
 30
0.0
  0
VERTEX
  5
21E
100
AcDbEntity
  8
ALPHA
 62
     7
100
AcDbVertex
100
AcDb2dVertex
 10
49.659372
 20
-35.98975
 30
0.0
  0
SEQEND
  5
21F
100
AcDbEntity
  8
ALPHA
 62
     7
  0
POLYLINE
  5
220
100
AcDbEntity
  8
ALPHA
 62
     7
100
AcDb2dPolyline
 66
     1
 10
0.0
 20
0.0
 30
0.0
 70
     1
  0
VERTEX
  5
221
100
AcDbEntity
  8
ALPHA
 62
     7
100
AcDbVertex
100
AcDb2dVertex
 10
22.254326
 20
-16.362352
 30
0.0
  0
VERTEX
  5
222
100
AcDbEntity
  8
ALPHA
 62
     7
100
AcDbVertex
100
AcDb2dVertex
 10
22.254326
 20
-7.340336
 30
0.0
  0
VERTEX
  5
223
100
AcDbEntity
  8
ALPHA
 62
     7
100
AcDbVertex
100
AcDb2dVertex
 10
7.218552
 20
-7.340336
 30
0.0
  0
VERTEX
  5
224
100
AcDbEntity
  8
ALPHA
 62
     7
100
AcDbVertex
100
AcDb2dVertex
 10
7.218552
 20
-16.362352
 30
0.0
  0
SEQEND
  5
225
100
AcDbEntity
  8
ALPHA
 62
     7
  0
POLYLINE
  5
226
100
AcDbEntity
  8
ALPHA
 62
     7
100
AcDb2dPolyline
 66
     1
 10
0.0
 20
0.0
 30
0.0
 70
     1
  0
VERTEX
  5
227
100
AcDbEntity
  8
ALPHA
 62
     7
100
AcDbVertex
100
AcDb2dVertex
 10
43.474737
 20
-16.362352
 30
0.0
  0
VERTEX
  5
228
100
AcDbEntity
  8
ALPHA
 62
     7
100
AcDbVertex
100
AcDb2dVertex
 10
43.474737
 20
-7.340336
 30
0.0
  0
VERTEX
  5
229
100
AcDbEntity
  8
ALPHA
 62
     7
100
AcDbVertex
100
AcDb2dVertex
 10
28.438962
 20
-7.340336
 30
0.0
  0
VERTEX
  5
22A
100
AcDbEntity
  8
ALPHA
 62
     7
100
AcDbVertex
100
AcDb2dVertex
 10
28.438962
 20
-16.362352
 30
0.0
  0
SEQEND
  5
22B
100
AcDbEntity
  8
ALPHA
 62
     7
  0
POLYLINE
  5
22C
100
AcDbEntity
  8
ALPHA
 62
     7
100
AcDb2dPolyline
 66
     1
 10
0.0
 20
0.0
 30
0.0
 70
     1
  0
VERTEX
  5
22D
100
AcDbEntity
  8
ALPHA
 62
     7
100
AcDbVertex
100
AcDb2dVertex
 10
64.695147
 20
-16.362352
 30
0.0
  0
VERTEX
  5
22E
100
AcDbEntity
  8
ALPHA
 62
     7
100
AcDbVertex
100
AcDb2dVertex
 10
64.695147
 20
-7.340336
 30
0.0
  0
VERTEX
  5
22F
100
AcDbEntity
  8
ALPHA
 62
     7
100
AcDbVertex
100
AcDb2dVertex
 10
49.659372
 20
-7.340336
 30
0.0
  0
VERTEX
  5
230
100
AcDbEntity
  8
ALPHA
 62
     7
100
AcDbVertex
100
AcDb2dVertex
 10
49.659372
 20
-16.362352
 30
0.0
  0
SEQEND
  5
231
100
AcDbEntity
  8
ALPHA
 62
     7
  0
ENDBLK
  5
233
100
AcDbEntity
  8
ALPHA
100
AcDbBlockEnd
  0
BLOCK
  5
37C
100
AcDbEntity
  8
ALPHA
 62
     7
100
AcDbBlockBegin
  2
AI9-BLK7
 70
     0
 10
0.0
 20
0.0
 30
0.0
  3
AI9-BLK7
  1

  0
HATCH
  5
37B
100
AcDbEntity
  8
ALPHA
 62
     7
100
AcDbHatch
 10
0.0
 20
0.0
 30
0.0
210
0.0
220
0.0
230
1.0
  2
SOLID
 70
     1
 71
     0
 91
        1
 92
        1
 93
        1
 72
     4
 94
        3
 73
     0
 74
     0
 95
       59
 96
       55
 40
0.0
 40
0.0
 40
0.0
 40
0.0
 40
1.0
 40
1.0
 40
1.0
 40
2.0
 40
2.0
 40
2.0
 40
3.0
 40
3.0
 40
3.0
 40
4.0
 40
4.0
 40
4.0
 40
5.0
 40
5.0
 40
5.0
 40
6.0
 40
6.0
 40
6.0
 40
7.0
 40
7.0
 40
7.0
 40
8.0
 40
8.0
 40
8.0
 40
9.0
 40
9.0
 40
9.0
 40
10.0
 40
10.0
 40
10.0
 40
11.0
 40
11.0
 40
11.0
 40
12.0
 40
12.0
 40
12.0
 40
13.0
 40
13.0
 40
13.0
 40
14.0
 40
14.0
 40
14.0
 40
15.0
 40
15.0
 40
15.0
 40
16.0
 40
16.0
 40
16.0
 40
17.0
 40
17.0
 40
17.0
 40
18.0
 40
18.0
 40
18.0
 40
18.0
 10
-0.073381
 20
0.079754
 10
-0.054949
 20
0.078376
 10
-0.038068
 20
0.078376
 10
-0.021015
 20
0.078376
 10
0.080443
 20
0.078376
 10
0.169326
 20
0.133325
 10
0.169326
 20
0.242018
 10
0.169326
 20
0.346404
 10
0.09319
 20
0.402904
 10
-0.00844
 20
0.402904
 10
-0.139699
 20
0.402904
 10
-0.196026
 20
0.302652
 10
-0.197404
 20
0.185518
 10
-0.197404
 20
0.185518
 10
-0.317466
 20
0.185518
 10
-0.317466
 20
0.185518
 10
-0.310403
 20
0.376032
 10
-0.208773
 20
0.508668
 10
-0.00844
 20
0.508668
 10
0.165192
 20
0.508668
 10
0.29645
 20
0.425469
 10
0.29645
 20
0.24064
 10
0.29645
 20
0.153134
 10
0.234266
 20
0.076826
 10
0.15813
 20
0.041686
 10
0.15813
 20
0.041686
 10
0.15813
 20
0.038757
 10
0.15813
 20
0.038757
 10
0.279397
 20
0.012058
 10
0.338653
 20
-0.08406
 10
0.338653
 20
-0.20395
 10
0.338653
 20
-0.404282
 10
0.182073
 20
-0.508668
 10
-0.005512
 20
-0.508668
 10
-0.208773
 20
-0.508668
 10
-0.342787
 20
-0.388779
 10
-0.338653
 20
-0.182762
 10
-0.338653
 20
-0.182762
 10
-0.218591
 20
-0.182762
 10
-0.218591
 20
-0.182762
 10
-0.214457
 20
-0.312642
 10
-0.142455
 20
-0.402904
 10
-0.005512
 20
-0.402904
 10
0.111621
 20
-0.402904
 10
0.211701
 20
-0.330901
 10
0.211701
 20
-0.209634
 10
0.211701
 20
-0.08406
 10
0.117133
 20
-0.017742
 10
-0.001378
 20
-0.017742
 10
-0.025321
 20
-0.017742
 10
-0.050815
 20
-0.01912
 10
-0.073381
 20
-0.021876
 10
-0.073381
 20
-0.021876
 10
-0.073381
 20
0.079754
 10
-0.073381
 20
0.079754
 97
        0
 75
     0
 76
     1
 98
        1
 10
0.0
 20
0.0
  0
ENDBLK
  5
37D
100
AcDbEntity
  8
ALPHA
100
AcDbBlockEnd
  0
BLOCK
  5
380
100
AcDbEntity
  8
ALPHA
 62
     7
100
AcDbBlockBegin
  2
AI9-BLK8
 70
     0
 10
0.0
 20
0.0
 30
0.0
  3
AI9-BLK8
  1

  0
HATCH
  5
37F
100
AcDbEntity
  8
ALPHA
 62
     7
100
AcDbHatch
 10
0.0
 20
0.0
 30
0.0
210
0.0
220
0.0
230
1.0
  2
SOLID
 70
     1
 71
     0
 91
        2
 92
       16
 93
        1
 72
     4
 94
        3
 73
     0
 74
     0
 95
       17
 96
       13
 40
0.0
 40
0.0
 40
0.0
 40
0.0
 40
1.0
 40
1.0
 40
1.0
 40
2.0
 40
2.0
 40
2.0
 40
3.0
 40
3.0
 40
3.0
 40
4.0
 40
4.0
 40
4.0
 40
4.0
 10
0.095343
 20
-0.160197
 10
0.095343
 20
-0.160197
 10
0.095343
 20
0.329523
 10
0.095343
 20
0.329523
 10
0.095343
 20
0.329523
 10
0.092415
 20
0.329523
 10
0.092415
 20
0.329523
 10
0.092415
 20
0.329523
 10
-0.240554
 20
-0.160197
 10
-0.240554
 20
-0.160197
 10
-0.240554
 20
-0.160197
 10
0.095343
 20
-0.160197
 10
0.095343
 20
-0.160197
 97
        0
 92
        1
 93
        1
 72
     4
 94
        3
 73
     0
 74
     0
 95
       38
 96
       34
 40
0.0
 40
0.0
 40
0.0
 40
0.0
 40
1.0
 40
1.0
 40
1.0
 40
2.0
 40
2.0
 40
2.0
 40
3.0
 40
3.0
 40
3.0
 40
4.0
 40
4.0
 40
4.0
 40
5.0
 40
5.0
 40
5.0
 40
6.0
 40
6.0
 40
6.0
 40
7.0
 40
7.0
 40
7.0
 40
8.0
 40
8.0
 40
8.0
 40
9.0
 40
9.0
 40
9.0
 40
10.0
 40
10.0
 40
10.0
 40
11.0
 40
11.0
 40
11.0
 40
11.0
 10
0.20817
 20
-0.160197
 10
0.20817
 20
-0.160197
 10
0.343562
 20
-0.160197
 10
0.343562
 20
-0.160197
 10
0.343562
 20
-0.160197
 10
0.343562
 20
-0.265961
 10
0.343562
 20
-0.265961
 10
0.343562
 20
-0.265961
 10
0.20817
 20
-0.265961
 10
0.20817
 20
-0.265961
 10
0.20817
 20
-0.265961
 10
0.20817
 20
-0.500228
 10
0.20817
 20
-0.500228
 10
0.20817
 20
-0.500228
 10
0.095343
 20
-0.500228
 10
0.095343
 20
-0.500228
 10
0.095343
 20
-0.500228
 10
0.095343
 20
-0.265961
 10
0.095343
 20
-0.265961
 10
0.095343
 20
-0.265961
 10
-0.343562
 20
-0.265961
 10
-0.343562
 20
-0.265961
 10
-0.343562
 20
-0.265961
 10
-0.343562
 20
-0.150206
 10
-0.343562
 20
-0.150206
 10
-0.343562
 20
-0.150206
 10
0.112224
 20
0.500228
 10
0.112224
 20
0.500228
 10
0.112224
 20
0.500228
 10
0.20817
 20
0.500228
 10
0.20817
 20
0.500228
 10
0.20817
 20
0.500228
 10
0.20817
 20
-0.160197
 10
0.20817
 20
-0.160197
 97
        0
 75
     0
 76
     1
 98
        1
 10
0.0
 20
0.0
  0
ENDBLK
  5
381
100
AcDbEntity
  8
ALPHA
100
AcDbBlockEnd
  0
BLOCK
  5
384
100
AcDbEntity
  8
ALPHA
 62
     7
100
AcDbBlockBegin
  2
AI9-BLK9
 70
     0
 10
0.0
 20
0.0
 30
0.0
  3
AI9-BLK9
  1

  0
HATCH
  5
383
100
AcDbEntity
  8
ALPHA
 62
     7
100
AcDbHatch
 10
0.0
 20
0.0
 30
0.0
210
0.0
220
0.0
230
1.0
  2
SOLID
 70
     1
 71
     0
 91
        1
 92
        1
 93
        1
 72
     4
 94
        3
 73
     0
 74
     0
 95
       26
 96
       22
 40
0.0
 40
0.0
 40
0.0
 40
0.0
 40
1.0
 40
1.0
 40
1.0
 40
2.0
 40
2.0
 40
2.0
 40
3.0
 40
3.0
 40
3.0
 40
4.0
 40
4.0
 40
4.0
 40
5.0
 40
5.0
 40
5.0
 40
6.0
 40
6.0
 40
6.0
 40
7.0
 40
7.0
 40
7.0
 40
7.0
 10
0.189825
 20
-0.500228
 10
0.189825
 20
-0.500228
 10
0.069935
 20
-0.500228
 10
0.069935
 20
-0.500228
 10
0.069935
 20
-0.500228
 10
0.069935
 20
0.216697
 10
0.069935
 20
0.216697
 10
0.069935
 20
0.216697
 10
-0.189825
 20
0.216697
 10
-0.189825
 20
0.216697
 10
-0.189825
 20
0.216697
 10
-0.189825
 20
0.312642
 10
-0.189825
 20
0.312642
 10
-0.052882
 20
0.312642
 10
0.071313
 20
0.349333
 10
0.098013
 20
0.500228
 10
0.098013
 20
0.500228
 10
0.189825
 20
0.500228
 10
0.189825
 20
0.500228
 10
0.189825
 20
0.500228
 10
0.189825
 20
-0.500228
 10
0.189825
 20
-0.500228
 97
        0
 75
     0
 76
     1
 98
        1
 10
0.0
 20
0.0
  0
ENDBLK
  5
385
100
AcDbEntity
  8
ALPHA
100
AcDbBlockEnd
  0
BLOCK
  5
C43
100
AcDbEntity
  8
0
100
AcDbBlockBegin
  2
*D8
 70
     1
 10
0.0
 20
0.0
 30
0.0
  3
*D8
  1

  0
LINE
  5
C44
100
AcDbEntity
  8
0
  6
BYBLOCK
 62
     0
100
AcDbLine
 10
64.039013
 20
148.366612
 30
0.0
 11
64.039013
 21
103.925418
 31
0.0
  0
LINE
  5
C45
100
AcDbEntity
  8
0
  6
BYBLOCK
 62
     0
100
AcDbLine
 10
4.539013
 20
150.47046
 30
0.0
 11
4.539013
 21
103.925418
 31
0.0
  0
LINE
  5
C46
100
AcDbEntity
  8
0
  6
BYBLOCK
 62
     0
100
AcDbLine
 10
61.039013
 20
104.105418
 30
0.0
 11
7.539013
 21
104.105418
 31
0.0
  0
MTEXT
  5
C47
100
AcDbEntity
  8
0
  6
BYBLOCK
 62
     0
100
AcDbMText
 10
34.373626
 20
106.7792
 30
0.0
 40
2.5
 41
0.0
 71
     5
 72
     1
  1
\A1;59.5
  0
SOLID
  5
C48
100
AcDbEntity
  8
0
  6
BYBLOCK
 62
     0
100
AcDbTrace
 10
61.039013
 20
104.605418
 30
0.0
 11
61.039013
 21
103.605418
 31
0.0
 12
64.039013
 22
104.105418
 32
0.0
 13
64.039013
 23
104.105418
 33
0.0
  0
SOLID
  5
C49
100
AcDbEntity
  8
0
  6
BYBLOCK
 62
     0
100
AcDbTrace
 10
7.539013
 20
104.605418
 30
0.0
 11
7.539013
 21
103.605418
 31
0.0
 12
4.539013
 22
104.105418
 32
0.0
 13
4.539013
 23
104.105418
 33
0.0
  0
POINT
  5
C4A
100
AcDbEntity
  8
DEFPOINTS
  6
BYBLOCK
 62
     0
100
AcDbPoint
 10
64.039013
 20
148.429112
 30
0.0
  0
POINT
  5
C4B
100
AcDbEntity
  8
DEFPOINTS
  6
BYBLOCK
 62
     0
100
AcDbPoint
 10
4.539013
 20
150.53296
 30
0.0
  0
POINT
  5
C4C
100
AcDbEntity
  8
DEFPOINTS
  6
BYBLOCK
 62
     0
100
AcDbPoint
 10
4.539013
 20
104.105418
 30
0.0
  0
ENDBLK
  5
C4D
100
AcDbEntity
  8
0
100
AcDbBlockEnd
  0
ENDSEC
  0
SECTION
  2
ENTITIES
  0
INSERT
  5
CC
100
AcDbEntity
  8
0
100
AcDbBlockReference
  2
SCH_IS
 10
-68.718396
 20
-140.042541
 30
0.0
  0
INSERT
  5
EC
100
AcDbEntity
  8
COTATION1
100
AcDbBlockReference
  2
SCH_IS
 10
0.0
 20
0.0
 30
0.0
  0
LINE
  5
8CF
100
AcDbEntity
  8
ALPHA
  6
CONTINUOUS
 62
     7
100
AcDbLine
 10
30.828719
 20
212.53296
 30
0.0
 11
64.039013
 21
212.53296
 31
0.0
  0
LINE
  5
8D0
100
AcDbEntity
  8
ALPHA
  6
CONTINUOUS
 62
     9
100
AcDbLine
 10
31.16671
 20
211.88296
 30
0.0
 11
57.239013
 21
211.88296
 31
0.0
  0
LINE
  5
8D1
100
AcDbEntity
  8
ALPHA
  6
CONTINUOUS
 62
     9
100
AcDbLine
 10
31.16671
 20
123.18296
 30
0.0
 11
51.039013
 21
123.18296
 31
0.0
  0
LINE
  5
8D2
100
AcDbEntity
  8
ALPHA
  6
CONTINUOUS
 62
     7
100
AcDbLine
 10
30.828719
 20
122.53296
 30
0.0
 11
51.039013
 21
122.53296
 31
0.0
  0
DIMENSION
  5
8D3
100
AcDbEntity
  8
COTATION1
  6
CONTINUOUS
 62
     2
100
AcDbDimension
  2
*D8
 10
4.539013
 20
104.105418
 30
0.0
 11
34.373626
 21
106.7792
 31
0.0
 70
   160
  3
SC_STAND
100
AcDbAlignedDimension
 13
64.039013
 23
148.429112
 33
0.0
 14
4.539013
 24
150.53296
 34
0.0
 50
180.0
100
AcDbRotatedDimension
  0
LINE
  5
8D4
100
AcDbEntity
  8
ALPHA
  6
CONTINUOUS
 62
     9
100
AcDbLine
 10
10.376637
 20
159.48296
 30
0.0
 11
10.376637
 21
145.68296
 31
0.0
  0
LINE
  5
8D5
100
AcDbEntity
  8
ALPHA
  6
CONTINUOUS
 62
     9
100
AcDbLine
 10
9.736705
 20
159.48296
 30
0.0
 11
9.736705
 21
145.33296
 31
0.0
  0
LINE
  5
8D6
100
AcDbEntity
  8
ALPHA
  6
CONTINUOUS
 62
     7
100
AcDbLine
 10
7.808834
 20
156.33296
 30
0.0
 11
7.808834
 21
186.83296
 31
0.0
  0
LINE
  5
8D7
100
AcDbEntity
  8
ALPHA
  6
CONTINUOUS
 62
     7
100
AcDbLine
 10
7.804093
 20
156.43296
 30
0.0
 11
7.804093
 21
186.73296
 31
0.0
  0
LINE
  5
8D8
100
AcDbEntity
  8
ALPHA
  6
CONTINUOUS
 62
     7
100
AcDbLine
 10
7.754093
 20
156.43296
 30
0.0
 11
7.754093
 21
186.73296
 31
0.0
  0
LINE
  5
8D9
100
AcDbEntity
  8
ALPHA
  6
CONTINUOUS
 62
     7
100
AcDbLine
 10
6.59511
 20
156.43296
 30
0.0
 11
6.59511
 21
159.58296
 31
0.0
  0
LINE
  5
8DA
100
AcDbEntity
  8
ALPHA
  6
CONTINUOUS
 62
     9
100
AcDbLine
 10
30.782582
 20
134.18296
 30
0.0
 11
31.16671
 21
123.18296
 31
0.0
  0
LINE
  5
8DB
100
AcDbEntity
  8
ALPHA
  6
CONTINUOUS
 62
     7
100
AcDbLine
 10
30.154884
 20
133.53296
 30
0.0
 11
30.528902
 21
122.82249
 31
0.0
  0
ARC
  5
8DC
100
AcDbEntity
  8
ALPHA
  6
CONTINUOUS
 62
     7
100
AcDbCircle
 10
30.828719
 20
122.83296
 30
0.0
 40
0.3
100
AcDbArc
 50
182.0
 51
270.0
  0
LINE
  5
8DD
100
AcDbEntity
  8
ALPHA
  6
CONTINUOUS
 62
     7
100
AcDbLine
 10
31.16671
 20
123.18296
 30
0.0
 11
30.620322
 21
122.617158
 31
0.0
  0
LINE
  5
8DE
100
AcDbEntity
  8
ALPHA
  6
CONTINUOUS
 62
     9
100
AcDbLine
 10
15.289013
 20
134.18296
 30
0.0
 11
30.782582
 21
134.18296
 31
0.0
  0
LINE
  5
8DF
100
AcDbEntity
  8
ALPHA
  6
CONTINUOUS
 62
     7
100
AcDbLine
 10
14.939013
 20
133.53296
 30
0.0
 11
30.154884
 21
133.53296
 31
0.0
  0
LINE
  5
8E0
100
AcDbEntity
  8
ALPHA
  6
CONTINUOUS
 62
     9
100
AcDbLine
 10
15.289013
 20
145.68296
 30
0.0
 11
15.289013
 21
134.18296
 31
0.0
  0
LINE
  5
8E1
100
AcDbEntity
  8
ALPHA
  6
CONTINUOUS
 62
     7
100
AcDbLine
 10
14.639013
 20
145.03296
 30
0.0
 11
14.639013
 21
133.83296
 31
0.0
  0
LINE
  5
8E2
100
AcDbEntity
  8
ALPHA
  6
CONTINUOUS
 62
     7
100
AcDbLine
 10
15.289013
 20
134.18296
 30
0.0
 11
14.726881
 21
133.620828
 31
0.0
  0
ARC
  5
8E3
100
AcDbEntity
  8
ALPHA
  6
CONTINUOUS
 62
     7
100
AcDbCircle
 10
14.939013
 20
133.83296
 30
0.0
 40
0.3
100
AcDbArc
 50
180.0
 51
270.0
  0
LINE
  5
8E4
100
AcDbEntity
  8
ALPHA
  6
CONTINUOUS
 62
     9
100
AcDbLine
 10
9.736705
 20
145.33296
 30
0.0
 11
6.639013
 21
145.33296
 31
0.0
  0
LINE
  5
8E5
100
AcDbEntity
  8
ALPHA
  6
CONTINUOUS
 62
     7
100
AcDbLine
 10
14.639013
 20
145.03296
 30
0.0
 11
6.939013
 21
145.03296
 31
0.0
  0
ARC
  5
8E6
100
AcDbEntity
  8
ALPHA
  6
CONTINUOUS
 62
     7
100
AcDbCircle
 10
5.929937
 20
149.13296
 30
0.0
 40
0.8
100
AcDbArc
 50
214.552637
 51
269.999972
  0
ARC
  5
8E7
100
AcDbEntity
  8
ALPHA
  6
CONTINUOUS
 62
     7
100
AcDbCircle
 10
6.529937
 20
149.13296
 30
0.0
 40
0.8
100
AcDbArc
 50
214.552637
 51
269.999972
  0
ARC
  5
8E8
100
AcDbEntity
  8
ALPHA
  6
CONTINUOUS
 62
     7
100
AcDbCircle
 10
7.929937
 20
149.13296
 30
0.0
 40
0.8
100
AcDbArc
 50
214.552637
 51
269.999972
  0
POLYLINE
  5
8E9
100
AcDbEntity
  8
ALPHA
  6
CONTINUOUS
 62
     7
100
AcDb2dPolyline
 66
     1
 10
0.0
 20
0.0
 30
0.0
  0
VERTEX
  5
8EA
100
AcDbEntity
  8
ALPHA
  6
CONTINUOUS
 62
     7
100
AcDbVertex
100
AcDb2dVertex
 10
9.31709
 20
151.03296
 30
0.0
  0
VERTEX
  5
8EB
100
AcDbEntity
  8
ALPHA
  6
CONTINUOUS
 62
     7
100
AcDbVertex
100
AcDb2dVertex
 10
9.304074
 20
150.282691
 30
0.0
  0
VERTEX
  5
8EC
100
AcDbEntity
  8
ALPHA
  6
CONTINUOUS
 62
     7
100
AcDbVertex
100
AcDb2dVertex
 10
9.265944
 20
149.567241
 30
0.0
  0
VERTEX
  5
8ED
100
AcDbEntity
  8
ALPHA
  6
CONTINUOUS
 62
     7
100
AcDbVertex
100
AcDb2dVertex
 10
9.204708
 20
148.914947
 30
0.0
  0
VERTEX
  5
8EE
100
AcDbEntity
  8
ALPHA
  6
CONTINUOUS
 62
     7
100
AcDbVertex
100
AcDb2dVertex
 10
9.123604
 20
148.356691
 30
0.0
  0
VERTEX
  5
8EF
100
AcDbEntity
  8
ALPHA
  6
CONTINUOUS
 62
     7
100
AcDbVertex
100
AcDb2dVertex
 10
9.027454
 20
147.91381
 30
0.0
  0
VERTEX
  5
8F0
100
AcDbEntity
  8
ALPHA
  6
CONTINUOUS
 62
     7
100
AcDbVertex
100
AcDb2dVertex
 10
8.921156
 20
147.60633
 30
0.0
  0
VERTEX
  5
8F1
100
AcDbEntity
  8
ALPHA
  6
CONTINUOUS
 62
     7
100
AcDbVertex
100
AcDb2dVertex
 10
8.863608
 20
147.507061
 30
0.0
  0
SEQEND
  5
8F2
100
AcDbEntity
  8
ALPHA
 62
     7
  0
LINE
  5
8F3
100
AcDbEntity
  8
ALPHA
  6
CONTINUOUS
 62
     9
100
AcDbLine
 10
7.929936
 20
148.33296
 30
0.0
 11
7.929936
 21
153.73296
 31
0.0
  0
LINE
  5
8F4
100
AcDbEntity
  8
ALPHA
  6
CONTINUOUS
 62
     9
100
AcDbLine
 10
6.529936
 20
148.33296
 30
0.0
 11
6.529936
 21
153.73296
 31
0.0
  0
LINE
  5
8F5
100
AcDbEntity
  8
ALPHA
  6
CONTINUOUS
 62
     7
100
AcDbLine
 10
7.328757
 20
148.33296
 30
0.0
 11
5.929936
 21
148.33296
 31
0.0
  0
LINE
  5
8F6
100
AcDbEntity
  8
ALPHA
  6
CONTINUOUS
 62
     9
100
AcDbLine
 10
5.929936
 20
148.33296
 30
0.0
 11
5.929937
 21
148.617812
 31
0.0
  0
ARC
  5
8F7
100
AcDbEntity
  8
ALPHA
  6
CONTINUOUS
 62
     7
100
AcDbCircle
 10
6.939013
 20
145.33296
 30
0.0
 40
0.3
100
AcDbArc
 50
180.0
 51
270.0
  0
POLYLINE
  5
8F8
100
AcDbEntity
  8
ALPHA
  6
CONTINUOUS
 62
     7
100
AcDb2dPolyline
 66
     1
 10
0.0
 20
0.0
 30
0.0
  0
VERTEX
  5
8F9
100
AcDbEntity
  8
ALPHA
  6
CONTINUOUS
 62
     7
100
AcDbVertex
100
AcDb2dVertex
 10
8.863608
 20
147.507061
 30
0.0
  0
VERTEX
  5
8FA
100
AcDbEntity
  8
ALPHA
  6
CONTINUOUS
 62
     7
100
AcDbVertex
100
AcDb2dVertex
 10
8.810149
 20
147.452885
 30
0.0
  0
VERTEX
  5
8FB
100
AcDbEntity
  8
ALPHA
  6
CONTINUOUS
 62
     7
100
AcDbVertex
100
AcDb2dVertex
 10
8.699867
 20
147.456393
 30
0.0
  0
VERTEX
  5
8FC
100
AcDbEntity
  8
ALPHA
  6
CONTINUOUS
 62
     7
100
AcDbVertex
100
AcDb2dVertex
 10
8.594949
 20
147.616051
 30
0.0
  0
VERTEX
  5
8FD
100
AcDbEntity
  8
ALPHA
  6
CONTINUOUS
 62
     7
100
AcDbVertex
100
AcDb2dVertex
 10
8.499617
 20
147.928179
 30
0.0
  0
VERTEX
  5
8FE
100
AcDbEntity
  8
ALPHA
  6
CONTINUOUS
 62
     7
100
AcDbVertex
100
AcDb2dVertex
 10
8.424926
 20
148.33296
 30
0.0
  0
SEQEND
  5
8FF
100
AcDbEntity
  8
ALPHA
 62
     7
  0
LINE
  5
900
100
AcDbEntity
  8
ALPHA
  6
CONTINUOUS
 62
     7
100
AcDbLine
 10
9.118452
 20
148.33296
 30
0.0
 11
7.929936
 21
148.33296
 31
0.0
  0
POLYLINE
  5
901
100
AcDbEntity
  8
ALPHA
  6
CONTINUOUS
 62
     7
100
AcDb2dPolyline
 66
     1
 10
0.0
 20
0.0
 30
0.0
  0
VERTEX
  5
902
100
AcDbEntity
  8
ALPHA
  6
CONTINUOUS
 62
     7
100
AcDbVertex
100
AcDb2dVertex
 10
7.184627
 20
147.56522
 30
0.0
  0
VERTEX
  5
903
100
AcDbEntity
  8
ALPHA
  6
CONTINUOUS
 62
     7
100
AcDbVertex
100
AcDb2dVertex
 10
7.132457
 20
147.567806
 30
0.0
  0
VERTEX
  5
904
100
AcDbEntity
  8
ALPHA
  6
CONTINUOUS
 62
     7
100
AcDbVertex
100
AcDb2dVertex
 10
7.0836
 20
147.719965
 30
0.0
  0
VERTEX
  5
905
100
AcDbEntity
  8
ALPHA
  6
CONTINUOUS
 62
     7
100
AcDbVertex
100
AcDb2dVertex
 10
7.040561
 20
148.01715
 30
0.0
  0
VERTEX
  5
906
100
AcDbEntity
  8
ALPHA
  6
CONTINUOUS
 62
     7
100
AcDbVertex
100
AcDb2dVertex
 10
7.013763
 20
148.33296
 30
0.0
  0
SEQEND
  5
907
100
AcDbEntity
  8
ALPHA
 62
     7
  0
POLYLINE
  5
908
100
AcDbEntity
  8
ALPHA
  6
CONTINUOUS
 62
     7
100
AcDb2dPolyline
 66
     1
 10
0.0
 20
0.0
 30
0.0
  0
VERTEX
  5
909
100
AcDbEntity
  8
ALPHA
  6
CONTINUOUS
 62
     7
100
AcDbVertex
100
AcDb2dVertex
 10
7.352874
 20
148.593888
 30
0.0
  0
VERTEX
  5
90A
100
AcDbEntity
  8
ALPHA
  6
CONTINUOUS
 62
     7
100
AcDbVertex
100
AcDb2dVertex
 10
7.34112
 20
148.441539
 30
0.0
  0
VERTEX
  5
90B
100
AcDbEntity
  8
ALPHA
  6
CONTINUOUS
 62
     7
100
AcDbVertex
100
AcDb2dVertex
 10
7.291938
 20
148.009615
 30
0.0
  0
VERTEX
  5
90C
100
AcDbEntity
  8
ALPHA
  6
CONTINUOUS
 62
     7
100
AcDbVertex
100
AcDb2dVertex
 10
7.239315
 20
147.714795
 30
0.0
  0
VERTEX
  5
90D
100
AcDbEntity
  8
ALPHA
  6
CONTINUOUS
 62
     7
100
AcDbVertex
100
AcDb2dVertex
 10
7.184627
 20
147.56522
 30
0.0
  0
SEQEND
  5
90E
100
AcDbEntity
  8
ALPHA
 62
     7
  0
POLYLINE
  5
90F
100
AcDbEntity
  8
ALPHA
  6
CONTINUOUS
 62
     7
100
AcDb2dPolyline
 66
     1
 10
0.0
 20
0.0
 30
0.0
  0
VERTEX
  5
910
100
AcDbEntity
  8
ALPHA
  6
CONTINUOUS
 62
     7
100
AcDbVertex
100
AcDb2dVertex
 10
6.739342
 20
148.33296
 30
0.0
  0
VERTEX
  5
911
100
AcDbEntity
  8
ALPHA
  6
CONTINUOUS
 62
     7
100
AcDbVertex
100
AcDb2dVertex
 10
6.726812
 20
148.040735
 30
0.0
  0
VERTEX
  5
912
100
AcDbEntity
  8
ALPHA
  6
CONTINUOUS
 62
     7
100
AcDbVertex
100
AcDb2dVertex
 10
6.708437
 20
147.748142
 30
0.0
  0
VERTEX
  5
913
100
AcDbEntity
  8
ALPHA
  6
CONTINUOUS
 62
     7
100
AcDbVertex
100
AcDb2dVertex
 10
6.691073
 20
147.599732
 30
0.0
  0
VERTEX
  5
914
100
AcDbEntity
  8
ALPHA
  6
CONTINUOUS
 62
     7
100
AcDbVertex
100
AcDb2dVertex
 10
6.685351
 20
147.582819
 30
0.0
  0
SEQEND
  5
915
100
AcDbEntity
  8
ALPHA
 62
     7
  0
LINE
  5
916
100
AcDbEntity
  8
ALPHA
  6
CONTINUOUS
 62
     7
100
AcDbLine
 10
6.639013
 20
145.33296
 30
0.0
 11
6.639013
 21
147.582819
 31
0.0
  0
LINE
  5
917
100
AcDbEntity
  8
ALPHA
  6
CONTINUOUS
 62
     7
100
AcDbLine
 10
9.111228
 20
148.299686
 30
0.0
 11
9.101199
 21
148.33296
 31
0.0
  0
POLYLINE
  5
918
100
AcDbEntity
  8
ALPHA
  6
CONTINUOUS
 62
     7
100
AcDb2dPolyline
 66
     1
 10
0.0
 20
0.0
 30
0.0
  0
VERTEX
  5
919
100
AcDbEntity
  8
ALPHA
  6
CONTINUOUS
 62
     7
100
AcDbVertex
100
AcDb2dVertex
 10
6.685351
 20
147.582819
 30
0.0
  0
VERTEX
  5
91A
100
AcDbEntity
  8
ALPHA
  6
CONTINUOUS
 62
     7
100
AcDbVertex
100
AcDb2dVertex
 10
6.675881
 20
147.600268
 30
0.0
  0
VERTEX
  5
91B
100
AcDbEntity
  8
ALPHA
  6
CONTINUOUS
 62
     7
100
AcDbVertex
100
AcDb2dVertex
 10
6.663572
 20
147.74966
 30
0.0
  0
VERTEX
  5
91C
100
AcDbEntity
  8
ALPHA
  6
CONTINUOUS
 62
     7
100
AcDbVertex
100
AcDb2dVertex
 10
6.654372
 20
148.042952
 30
0.0
  0
VERTEX
  5
91D
100
AcDbEntity
  8
ALPHA
  6
CONTINUOUS
 62
     7
100
AcDbVertex
100
AcDb2dVertex
 10
6.649991
 20
148.334762
 30
0.0
  0
SEQEND
  5
91E
100
AcDbEntity
  8
ALPHA
 62
     7
  0
ARC
  5
91F
100
AcDbEntity
  8
ALPHA
  6
CONTINUOUS
 62
     7
100
AcDbCircle
 10
8.689013
 20
151.03296
 30
0.0
 40
4.15
100
AcDbArc
 50
145.447303
 51
214.552697
  0
ARC
  5
920
100
AcDbEntity
  8
ALPHA
  6
CONTINUOUS
 62
     7
100
AcDbCircle
 10
9.289013
 20
151.03296
 30
0.0
 40
4.15
100
AcDbArc
 50
145.447303
 51
214.552697
  0
ARC
  5
921
100
AcDbEntity
  8
ALPHA
  6
CONTINUOUS
 62
     7
100
AcDbCircle
 10
10.689013
 20
151.03296
 30
0.0
 40
4.15
100
AcDbArc
 50
145.447303
 51
214.552697
  0
LINE
  5
922
100
AcDbEntity
  8
ALPHA
  6
CONTINUOUS
 62
     9
100
AcDbLine
 10
7.271053
 20
148.679229
 30
0.0
 11
7.271053
 21
153.386691
 31
0.0
  0
POLYLINE
  5
923
100
AcDbEntity
  8
ALPHA
  6
CONTINUOUS
 62
     7
100
AcDb2dPolyline
 66
     1
 10
0.0
 20
0.0
 30
0.0
  0
VERTEX
  5
924
100
AcDbEntity
  8
ALPHA
  6
CONTINUOUS
 62
     7
100
AcDbVertex
100
AcDb2dVertex
 10
8.863608
 20
154.558858
 30
0.0
  0
VERTEX
  5
925
100
AcDbEntity
  8
ALPHA
  6
CONTINUOUS
 62
     7
100
AcDbVertex
100
AcDb2dVertex
 10
8.921152
 20
154.459598
 30
0.0
  0
VERTEX
  5
926
100
AcDbEntity
  8
ALPHA
  6
CONTINUOUS
 62
     7
100
AcDbVertex
100
AcDb2dVertex
 10
9.027448
 20
154.152133
 30
0.0
  0
VERTEX
  5
927
100
AcDbEntity
  8
ALPHA
  6
CONTINUOUS
 62
     7
100
AcDbVertex
100
AcDb2dVertex
 10
9.123601
 20
153.709244
 30
0.0
  0
VERTEX
  5
928
100
AcDbEntity
  8
ALPHA
  6
CONTINUOUS
 62
     7
100
AcDbVertex
100
AcDb2dVertex
 10
9.204706
 20
153.150988
 30
0.0
  0
VERTEX
  5
929
100
AcDbEntity
  8
ALPHA
  6
CONTINUOUS
 62
     7
100
AcDbVertex
100
AcDb2dVertex
 10
9.265943
 20
152.498692
 30
0.0
  0
VERTEX
  5
92A
100
AcDbEntity
  8
ALPHA
  6
CONTINUOUS
 62
     7
100
AcDbVertex
100
AcDb2dVertex
 10
9.304074
 20
151.783231
 30
0.0
  0
VERTEX
  5
92B
100
AcDbEntity
  8
ALPHA
  6
CONTINUOUS
 62
     7
100
AcDbVertex
100
AcDb2dVertex
 10
9.31709
 20
151.03296
 30
0.0
  0
SEQEND
  5
92C
100
AcDbEntity
  8
ALPHA
 62
     7
  0
LINE
  5
92D
100
AcDbEntity
  8
ALPHA
  6
CONTINUOUS
 62
     9
100
AcDbLine
 10
5.871053
 20
148.679229
 30
0.0
 11
5.871053
 21
153.386691
 31
0.0
  0
LINE
  5
92E
100
AcDbEntity
  8
ALPHA
  6
CONTINUOUS
 62
     9
100
AcDbLine
 10
5.271052
 20
152.01744
 30
0.0
 11
5.271053
 21
153.386691
 31
0.0
  0
LINE
  5
92F
100
AcDbEntity
  8
ALPHA
  6
CONTINUOUS
 62
     9
100
AcDbLine
 10
5.271053
 20
148.679229
 30
0.0
 11
5.271049
 21
150.048491
 31
0.0
  0
ARC
  5
930
100
AcDbEntity
  8
ALPHA
  6
CONTINUOUS
 62
     7
100
AcDbCircle
 10
6.529937
 20
152.93296
 30
0.0
 40
0.8
100
AcDbArc
 50
90.000028
 51
145.447363
  0
LINE
  5
931
100
AcDbEntity
  8
ALPHA
  6
CONTINUOUS
 62
     7
100
AcDbLine
 10
7.328757
 20
153.73296
 30
0.0
 11
5.929936
 21
153.73296
 31
0.0
  0
ARC
  5
932
100
AcDbEntity
  8
ALPHA
  6
CONTINUOUS
 62
     7
100
AcDbCircle
 10
5.929937
 20
152.93296
 30
0.0
 40
0.8
100
AcDbArc
 50
90.000028
 51
145.447363
  0
LINE
  5
933
100
AcDbEntity
  8
ALPHA
  6
CONTINUOUS
 62
     9
100
AcDbLine
 10
5.929935
 20
153.44863
 30
0.0
 11
5.929936
 21
153.73296
 31
0.0
  0
ARC
  5
934
100
AcDbEntity
  8
ALPHA
  6
CONTINUOUS
 62
     7
100
AcDbCircle
 10
7.929937
 20
152.93296
 30
0.0
 40
0.8
100
AcDbArc
 50
90.000028
 51
145.447363
  0
LINE
  5
935
100
AcDbEntity
  8
ALPHA
  6
CONTINUOUS
 62
     7
100
AcDbLine
 10
6.595125
 20
156.43296
 30
0.0
 11
7.808834
 21
156.43296
 31
0.0
  0
LINE
  5
936
100
AcDbEntity
  8
ALPHA
  6
CONTINUOUS
 62
     7
100
AcDbLine
 10
6.63902
 20
156.33296
 30
0.0
 11
7.808834
 21
156.33296
 31
0.0
  0
LINE
  5
937
100
AcDbEntity
  8
ALPHA
  6
CONTINUOUS
 62
     7
100
AcDbLine
 10
9.118452
 20
153.73296
 30
0.0
 11
7.929936
 21
153.73296
 31
0.0
  0
LINE
  5
938
100
AcDbEntity
  8
ALPHA
  6
CONTINUOUS
 62
     7
100
AcDbLine
 10
9.101198
 20
153.73296
 30
0.0
 11
9.111228
 21
153.766236
 31
0.0
  0
POLYLINE
  5
939
100
AcDbEntity
  8
ALPHA
  6
CONTINUOUS
 62
     7
100
AcDb2dPolyline
 66
     1
 10
0.0
 20
0.0
 30
0.0
  0
VERTEX
  5
93A
100
AcDbEntity
  8
ALPHA
  6
CONTINUOUS
 62
     7
100
AcDbVertex
100
AcDb2dVertex
 10
8.424927
 20
153.73296
 30
0.0
  0
VERTEX
  5
93B
100
AcDbEntity
  8
ALPHA
  6
CONTINUOUS
 62
     7
100
AcDbVertex
100
AcDb2dVertex
 10
8.499612
 20
154.137719
 30
0.0
  0
VERTEX
  5
93C
100
AcDbEntity
  8
ALPHA
  6
CONTINUOUS
 62
     7
100
AcDbVertex
100
AcDb2dVertex
 10
8.594945
 20
154.44986
 30
0.0
  0
VERTEX
  5
93D
100
AcDbEntity
  8
ALPHA
  6
CONTINUOUS
 62
     7
100
AcDbVertex
100
AcDb2dVertex
 10
8.69986
 20
154.609522
 30
0.0
  0
VERTEX
  5
93E
100
AcDbEntity
  8
ALPHA
  6
CONTINUOUS
 62
     7
100
AcDbVertex
100
AcDb2dVertex
 10
8.810142
 20
154.61304
 30
0.0
  0
VERTEX
  5
93F
100
AcDbEntity
  8
ALPHA
  6
CONTINUOUS
 62
     7
100
AcDbVertex
100
AcDb2dVertex
 10
8.863608
 20
154.558858
 30
0.0
  0
SEQEND
  5
940
100
AcDbEntity
  8
ALPHA
 62
     7
  0
POLYLINE
  5
941
100
AcDbEntity
  8
ALPHA
  6
CONTINUOUS
 62
     7
100
AcDb2dPolyline
 66
     1
 10
0.0
 20
0.0
 30
0.0
  0
VERTEX
  5
942
100
AcDbEntity
  8
ALPHA
  6
CONTINUOUS
 62
     7
100
AcDbVertex
100
AcDb2dVertex
 10
7.013763
 20
153.73296
 30
0.0
  0
VERTEX
  5
943
100
AcDbEntity
  8
ALPHA
  6
CONTINUOUS
 62
     7
100
AcDbVertex
100
AcDb2dVertex
 10
7.040559
 20
154.048749
 30
0.0
  0
VERTEX
  5
944
100
AcDbEntity
  8
ALPHA
  6
CONTINUOUS
 62
     7
100
AcDbVertex
100
AcDb2dVertex
 10
7.083596
 20
154.345935
 30
0.0
  0
VERTEX
  5
945
100
AcDbEntity
  8
ALPHA
  6
CONTINUOUS
 62
     7
100
AcDbVertex
100
AcDb2dVertex
 10
7.132454
 20
154.498109
 30
0.0
  0
VERTEX
  5
946
100
AcDbEntity
  8
ALPHA
  6
CONTINUOUS
 62
     7
100
AcDbVertex
100
AcDb2dVertex
 10
7.184627
 20
154.500701
 30
0.0
  0
SEQEND
  5
947
100
AcDbEntity
  8
ALPHA
 62
     7
  0
POLYLINE
  5
948
100
AcDbEntity
  8
ALPHA
  6
CONTINUOUS
 62
     7
100
AcDb2dPolyline
 66
     1
 10
0.0
 20
0.0
 30
0.0
  0
VERTEX
  5
949
100
AcDbEntity
  8
ALPHA
  6
CONTINUOUS
 62
     7
100
AcDbVertex
100
AcDb2dVertex
 10
6.649991
 20
153.731157
 30
0.0
  0
VERTEX
  5
94A
100
AcDbEntity
  8
ALPHA
  6
CONTINUOUS
 62
     7
100
AcDbVertex
100
AcDb2dVertex
 10
6.654372
 20
154.022948
 30
0.0
  0
VERTEX
  5
94B
100
AcDbEntity
  8
ALPHA
  6
CONTINUOUS
 62
     7
100
AcDbVertex
100
AcDb2dVertex
 10
6.663571
 20
154.316239
 30
0.0
  0
VERTEX
  5
94C
100
AcDbEntity
  8
ALPHA
  6
CONTINUOUS
 62
     7
100
AcDbVertex
100
AcDb2dVertex
 10
6.67588
 20
154.465646
 30
0.0
  0
VERTEX
  5
94D
100
AcDbEntity
  8
ALPHA
  6
CONTINUOUS
 62
     7
100
AcDbVertex
100
AcDb2dVertex
 10
6.685351
 20
154.483101
 30
0.0
  0
SEQEND
  5
94E
100
AcDbEntity
  8
ALPHA
 62
     7
  0
LINE
  5
94F
100
AcDbEntity
  8
ALPHA
  6
CONTINUOUS
 62
     7
100
AcDbLine
 10
6.639013
 20
154.483101
 30
0.0
 11
6.639013
 21
156.33296
 31
0.0
  0
POLYLINE
  5
950
100
AcDbEntity
  8
ALPHA
  6
CONTINUOUS
 62
     7
100
AcDb2dPolyline
 66
     1
 10
0.0
 20
0.0
 30
0.0
  0
VERTEX
  5
951
100
AcDbEntity
  8
ALPHA
  6
CONTINUOUS
 62
     7
100
AcDbVertex
100
AcDb2dVertex
 10
6.685351
 20
154.483101
 30
0.0
  0
VERTEX
  5
952
100
AcDbEntity
  8
ALPHA
  6
CONTINUOUS
 62
     7
100
AcDbVertex
100
AcDb2dVertex
 10
6.691072
 20
154.466193
 30
0.0
  0
VERTEX
  5
953
100
AcDbEntity
  8
ALPHA
  6
CONTINUOUS
 62
     7
100
AcDbVertex
100
AcDb2dVertex
 10
6.708435
 20
154.317799
 30
0.0
  0
VERTEX
  5
954
100
AcDbEntity
  8
ALPHA
  6
CONTINUOUS
 62
     7
100
AcDbVertex
100
AcDb2dVertex
 10
6.726811
 20
154.025204
 30
0.0
  0
VERTEX
  5
955
100
AcDbEntity
  8
ALPHA
  6
CONTINUOUS
 62
     7
100
AcDbVertex
100
AcDb2dVertex
 10
6.739342
 20
153.73296
 30
0.0
  0
SEQEND
  5
956
100
AcDbEntity
  8
ALPHA
 62
     7
  0
POLYLINE
  5
957
100
AcDbEntity
  8
ALPHA
  6
CONTINUOUS
 62
     7
100
AcDb2dPolyline
 66
     1
 10
0.0
 20
0.0
 30
0.0
  0
VERTEX
  5
958
100
AcDbEntity
  8
ALPHA
  6
CONTINUOUS
 62
     7
100
AcDbVertex
100
AcDb2dVertex
 10
7.184627
 20
154.500701
 30
0.0
  0
VERTEX
  5
959
100
AcDbEntity
  8
ALPHA
  6
CONTINUOUS
 62
     7
100
AcDbVertex
100
AcDb2dVertex
 10
7.23931
 20
154.351145
 30
0.0
  0
VERTEX
  5
95A
100
AcDbEntity
  8
ALPHA
  6
CONTINUOUS
 62
     7
100
AcDbVertex
100
AcDb2dVertex
 10
7.291935
 20
154.056324
 30
0.0
  0
VERTEX
  5
95B
100
AcDbEntity
  8
ALPHA
  6
CONTINUOUS
 62
     7
100
AcDbVertex
100
AcDb2dVertex
 10
7.341118
 20
153.6244
 30
0.0
  0
VERTEX
  5
95C
100
AcDbEntity
  8
ALPHA
  6
CONTINUOUS
 62
     7
100
AcDbVertex
100
AcDb2dVertex
 10
7.352874
 20
153.472032
 30
0.0
  0
SEQEND
  5
95D
100
AcDbEntity
  8
ALPHA
 62
     7
  0
LINE
  5
95E
100
AcDbEntity
  8
ALPHA
  6
CONTINUOUS
 62
     7
100
AcDbLine
 10
15.289013
 20
145.68296
 30
0.0
 11
14.639013
 21
145.03296
 31
0.0
  0
LINE
  5
95F
100
AcDbEntity
  8
ALPHA
  6
CONTINUOUS
 62
     9
100
AcDbLine
 10
15.289013
 20
145.68296
 30
0.0
 11
10.376637
 21
145.68296
 31
0.0
  0
LINE
  5
960
100
AcDbEntity
  8
ALPHA
  6
CONTINUOUS
 62
     7
100
AcDbLine
 10
9.845265
 20
145.151587
 30
0.0
 11
10.376637
 21
145.68296
 31
0.0
  0
POLYLINE
  5
961
100
AcDbEntity
  8
ALPHA
  6
CONTINUOUS
 62
     7
100
AcDb2dPolyline
 66
     1
 10
0.0
 20
0.0
 30
0.0
  0
VERTEX
  5
962
100
AcDbEntity
  8
ALPHA
  6
CONTINUOUS
 62
     7
100
AcDbVertex
100
AcDb2dVertex
 10
9.736705
 20
145.33296
 30
0.0
  0
VERTEX
  5
963
100
AcDbEntity
  8
ALPHA
  6
CONTINUOUS
 62
     7
100
AcDbVertex
100
AcDb2dVertex
 10
9.759573
 20
145.270113
 30
0.0
  0
VERTEX
  5
964
100
AcDbEntity
  8
ALPHA
  6
CONTINUOUS
 62
     7
100
AcDbVertex
100
AcDb2dVertex
 10
9.795634
 20
145.208984
 30
0.0
  0
VERTEX
  5
965
100
AcDbEntity
  8
ALPHA
  6
CONTINUOUS
 62
     7
100
AcDbVertex
100
AcDb2dVertex
 10
9.845265
 20
145.151587
 30
0.0
  0
SEQEND
  5
966
100
AcDbEntity
  8
ALPHA
 62
     7
  0
POLYLINE
  5
967
100
AcDbEntity
  8
ALPHA
  6
CONTINUOUS
 62
     7
100
AcDb2dPolyline
 66
     1
 10
0.0
 20
0.0
 30
0.0
  0
VERTEX
  5
968
100
AcDbEntity
  8
ALPHA
  6
CONTINUOUS
 62
     7
100
AcDbVertex
100
AcDb2dVertex
 10
9.845265
 20
145.151587
 30
0.0
  0
VERTEX
  5
969
100
AcDbEntity
  8
ALPHA
  6
CONTINUOUS
 62
     7
100
AcDbVertex
100
AcDb2dVertex
 10
9.894968
 20
145.085086
 30
0.0
  0
VERTEX
  5
96A
100
AcDbEntity
  8
ALPHA
  6
CONTINUOUS
 62
     7
100
AcDbVertex
100
AcDb2dVertex
 10
9.955631
 20
145.045883
 30
0.0
  0
VERTEX
  5
96B
100
AcDbEntity
  8
ALPHA
  6
CONTINUOUS
 62
     7
100
AcDbVertex
100
AcDb2dVertex
 10
10.021141
 20
145.03296
 30
0.0
  0
SEQEND
  5
96C
100
AcDbEntity
  8
ALPHA
 62
     7
  0
LINE
  5
96D
100
AcDbEntity
  8
ALPHA
  6
CONTINUOUS
 62
     7
100
AcDbLine
 10
30.782582
 20
134.18296
 30
0.0
 11
30.154884
 21
133.53296
 31
0.0
  0
LINE
  5
96E
100
AcDbEntity
  8
ALPHA
  6
CONTINUOUS
 62
     7
100
AcDbLine
 10
14.639013
 20
190.03296
 30
0.0
 11
15.289013
 21
189.38296
 31
0.0
  0
LINE
  5
96F
100
AcDbEntity
  8
ALPHA
  6
CONTINUOUS
 62
     7
100
AcDbLine
 10
10.376637
 20
189.38296
 30
0.0
 11
9.845265
 21
189.914333
 31
0.0
  0
LINE
  5
970
100
AcDbEntity
  8
ALPHA
  6
CONTINUOUS
 62
     9
100
AcDbLine
 10
15.289013
 20
200.88296
 30
0.0
 11
15.289013
 21
189.38296
 31
0.0
  0
LINE
  5
971
100
AcDbEntity
  8
ALPHA
  6
CONTINUOUS
 62
     9
100
AcDbLine
 10
9.736705
 20
189.73296
 30
0.0
 11
9.736705
 21
183.48296
 31
0.0
  0
LINE
  5
972
100
AcDbEntity
  8
ALPHA
  6
CONTINUOUS
 62
     7
100
AcDbLine
 10
6.639013
 20
186.83296
 30
0.0
 11
6.639013
 21
189.73296
 31
0.0
  0
ARC
  5
973
100
AcDbEntity
  8
ALPHA
  6
CONTINUOUS
 62
     9
100
AcDbCircle
 10
10.46382
 20
171.48296
 30
0.0
 40
4.472136
100
AcDbArc
 50
277.095219
 51
82.904781
  0
ARC
  5
974
100
AcDbEntity
  8
ALPHA
  6
CONTINUOUS
 62
     9
100
AcDbCircle
 10
10.46382
 20
171.48296
 30
0.0
 40
4.259177
100
AcDbArc
 50
277.23631
 51
82.76369
  0
POLYLINE
  5
975
100
AcDbEntity
  8
ALPHA
  6
CONTINUOUS
 62
     9
100
AcDb2dPolyline
 66
     1
 10
0.0
 20
0.0
 30
0.0
  0
VERTEX
  5
976
100
AcDbEntity
  8
ALPHA
  6
CONTINUOUS
 62
     9
100
AcDbVertex
100
AcDb2dVertex
 10
10.03073
 20
167.919724
 30
0.0
  0
VERTEX
  5
977
100
AcDbEntity
  8
ALPHA
  6
CONTINUOUS
 62
     9
100
AcDbVertex
100
AcDb2dVertex
 10
9.869788
 20
168.258489
 30
0.0
  0
VERTEX
  5
978
100
AcDbEntity
  8
ALPHA
  6
CONTINUOUS
 62
     9
100
AcDbVertex
100
AcDb2dVertex
 10
9.724139
 20
168.603716
 30
0.0
  0
VERTEX
  5
979
100
AcDbEntity
  8
ALPHA
  6
CONTINUOUS
 62
     9
100
AcDbVertex
100
AcDb2dVertex
 10
9.595289
 20
168.951099
 30
0.0
  0
VERTEX
  5
97A
100
AcDbEntity
  8
ALPHA
  6
CONTINUOUS
 62
     9
100
AcDbVertex
100
AcDb2dVertex
 10
9.483847
 20
169.296929
 30
0.0
  0
VERTEX
  5
97B
100
AcDbEntity
  8
ALPHA
  6
CONTINUOUS
 62
     9
100
AcDbVertex
100
AcDb2dVertex
 10
9.391651
 20
169.630534
 30
0.0
  0
VERTEX
  5
97C
100
AcDbEntity
  8
ALPHA
  6
CONTINUOUS
 62
     9
100
AcDbVertex
100
AcDb2dVertex
 10
9.319804
 20
169.937059
 30
0.0
  0
VERTEX
  5
97D
100
AcDbEntity
  8
ALPHA
  6
CONTINUOUS
 62
     9
100
AcDbVertex
100
AcDb2dVertex
 10
9.265446
 20
170.213096
 30
0.0
  0
VERTEX
  5
97E
100
AcDbEntity
  8
ALPHA
  6
CONTINUOUS
 62
     9
100
AcDbVertex
100
AcDb2dVertex
 10
9.224846
 20
170.461535
 30
0.0
  0
VERTEX
  5
97F
100
AcDbEntity
  8
ALPHA
  6
CONTINUOUS
 62
     9
100
AcDbVertex
100
AcDb2dVertex
 10
9.19517
 20
170.684579
 30
0.0
  0
VERTEX
  5
980
100
AcDbEntity
  8
ALPHA
  6
CONTINUOUS
 62
     9
100
AcDbVertex
100
AcDb2dVertex
 10
9.174387
 20
170.882339
 30
0.0
  0
VERTEX
  5
981
100
AcDbEntity
  8
ALPHA
  6
CONTINUOUS
 62
     9
100
AcDbVertex
100
AcDb2dVertex
 10
9.160645
 20
171.056666
 30
0.0
  0
VERTEX
  5
982
100
AcDbEntity
  8
ALPHA
  6
CONTINUOUS
 62
     9
100
AcDbVertex
100
AcDb2dVertex
 10
9.152275
 20
171.214196
 30
0.0
  0
VERTEX
  5
983
100
AcDbEntity
  8
ALPHA
  6
CONTINUOUS
 62
     9
100
AcDbVertex
100
AcDb2dVertex
 10
9.148297
 20
171.362772
 30
0.0
  0
VERTEX
  5
984
100
AcDbEntity
  8
ALPHA
  6
CONTINUOUS
 62
     9
100
AcDbVertex
100
AcDb2dVertex
 10
9.148373
 20
171.508729
 30
0.0
  0
VERTEX
  5
985
100
AcDbEntity
  8
ALPHA
  6
CONTINUOUS
 62
     9
100
AcDbVertex
100
AcDb2dVertex
 10
9.152509
 20
171.657503
 30
0.0
  0
VERTEX
  5
986
100
AcDbEntity
  8
ALPHA
  6
CONTINUOUS
 62
     9
100
AcDbVertex
100
AcDb2dVertex
 10
9.161061
 20
171.815531
 30
0.0
  0
VERTEX
  5
987
100
AcDbEntity
  8
ALPHA
  6
CONTINUOUS
 62
     9
100
AcDbVertex
100
AcDb2dVertex
 10
9.175041
 20
171.990685
 30
0.0
  0
VERTEX
  5
988
100
AcDbEntity
  8
ALPHA
  6
CONTINUOUS
 62
     9
100
AcDbVertex
100
AcDb2dVertex
 10
9.196137
 20
172.189463
 30
0.0
  0
VERTEX
  5
989
100
AcDbEntity
  8
ALPHA
  6
CONTINUOUS
 62
     9
100
AcDbVertex
100
AcDb2dVertex
 10
9.22621
 20
172.4136
 30
0.0
  0
VERTEX
  5
98A
100
AcDbEntity
  8
ALPHA
  6
CONTINUOUS
 62
     9
100
AcDbVertex
100
AcDb2dVertex
 10
9.267337
 20
172.663334
 30
0.0
  0
VERTEX
  5
98B
100
AcDbEntity
  8
ALPHA
  6
CONTINUOUS
 62
     9
100
AcDbVertex
100
AcDb2dVertex
 10
9.322391
 20
172.940873
 30
0.0
  0
VERTEX
  5
98C
100
AcDbEntity
  8
ALPHA
  6
CONTINUOUS
 62
     9
100
AcDbVertex
100
AcDb2dVertex
 10
9.394989
 20
173.248464
 30
0.0
  0
VERTEX
  5
98D
100
AcDbEntity
  8
ALPHA
  6
CONTINUOUS
 62
     9
100
AcDbVertex
100
AcDb2dVertex
 10
9.487551
 20
173.581359
 30
0.0
  0
VERTEX
  5
98E
100
AcDbEntity
  8
ALPHA
  6
CONTINUOUS
 62
     9
100
AcDbVertex
100
AcDb2dVertex
 10
9.598678
 20
173.92459
 30
0.0
  0
VERTEX
  5
98F
100
AcDbEntity
  8
ALPHA
  6
CONTINUOUS
 62
     9
100
AcDbVertex
100
AcDb2dVertex
 10
9.726826
 20
174.268979
 30
0.0
  0
VERTEX
  5
990
100
AcDbEntity
  8
ALPHA
  6
CONTINUOUS
 62
     9
100
AcDbVertex
100
AcDb2dVertex
 10
9.871337
 20
174.610884
 30
0.0
  0
VERTEX
  5
991
100
AcDbEntity
  8
ALPHA
  6
CONTINUOUS
 62
     9
100
AcDbVertex
100
AcDb2dVertex
 10
10.03073
 20
174.946195
 30
0.0
  0
SEQEND
  5
992
100
AcDbEntity
  8
ALPHA
 62
     9
  0
POLYLINE
  5
993
100
AcDbEntity
  8
ALPHA
  6
CONTINUOUS
 62
     9
100
AcDb2dPolyline
 66
     1
 10
0.0
 20
0.0
 30
0.0
  0
VERTEX
  5
994
100
AcDbEntity
  8
ALPHA
  6
CONTINUOUS
 62
     9
100
AcDbVertex
100
AcDb2dVertex
 10
10.775875
 20
167.569063
 30
0.0
  0
VERTEX
  5
995
100
AcDbEntity
  8
ALPHA
  6
CONTINUOUS
 62
     9
100
AcDbVertex
100
AcDb2dVertex
 10
10.565551
 20
167.935908
 30
0.0
  0
VERTEX
  5
996
100
AcDbEntity
  8
ALPHA
  6
CONTINUOUS
 62
     9
100
AcDbVertex
100
AcDb2dVertex
 10
10.393233
 20
168.274814
 30
0.0
  0
VERTEX
  5
997
100
AcDbEntity
  8
ALPHA
  6
CONTINUOUS
 62
     9
100
AcDbVertex
100
AcDb2dVertex
 10
10.250498
 20
168.590207
 30
0.0
  0
VERTEX
  5
998
100
AcDbEntity
  8
ALPHA
  6
CONTINUOUS
 62
     9
100
AcDbVertex
100
AcDb2dVertex
 10
10.13046
 20
168.887909
 30
0.0
  0
VERTEX
  5
999
100
AcDbEntity
  8
ALPHA
  6
CONTINUOUS
 62
     9
100
AcDbVertex
100
AcDb2dVertex
 10
10.028229
 20
169.17304
 30
0.0
  0
VERTEX
  5
99A
100
AcDbEntity
  8
ALPHA
  6
CONTINUOUS
 62
     9
100
AcDbVertex
100
AcDb2dVertex
 10
9.94378
 20
169.438596
 30
0.0
  0
VERTEX
  5
99B
100
AcDbEntity
  8
ALPHA
  6
CONTINUOUS
 62
     9
100
AcDbVertex
100
AcDb2dVertex
 10
9.874747
 20
169.683711
 30
0.0
  0
VERTEX
  5
99C
100
AcDbEntity
  8
ALPHA
  6
CONTINUOUS
 62
     9
100
AcDbVertex
100
AcDb2dVertex
 10
9.818422
 20
169.909965
 30
0.0
  0
VERTEX
  5
99D
100
AcDbEntity
  8
ALPHA
  6
CONTINUOUS
 62
     9
100
AcDbVertex
100
AcDb2dVertex
 10
9.772568
 20
170.118973
 30
0.0
  0
VERTEX
  5
99E
100
AcDbEntity
  8
ALPHA
  6
CONTINUOUS
 62
     9
100
AcDbVertex
100
AcDb2dVertex
 10
9.735676
 20
170.310493
 30
0.0
  0
VERTEX
  5
99F
100
AcDbEntity
  8
ALPHA
  6
CONTINUOUS
 62
     9
100
AcDbVertex
100
AcDb2dVertex
 10
9.706285
 20
170.484964
 30
0.0
  0
VERTEX
  5
9A0
100
AcDbEntity
  8
ALPHA
  6
CONTINUOUS
 62
     9
100
AcDbVertex
100
AcDb2dVertex
 10
9.68297
 20
170.644025
 30
0.0
  0
VERTEX
  5
9A1
100
AcDbEntity
  8
ALPHA
  6
CONTINUOUS
 62
     9
100
AcDbVertex
100
AcDb2dVertex
 10
9.664601
 20
170.789038
 30
0.0
  0
VERTEX
  5
9A2
100
AcDbEntity
  8
ALPHA
  6
CONTINUOUS
 62
     9
100
AcDbVertex
100
AcDb2dVertex
 10
9.650326
 20
170.920706
 30
0.0
  0
VERTEX
  5
9A3
100
AcDbEntity
  8
ALPHA
  6
CONTINUOUS
 62
     9
100
AcDbVertex
100
AcDb2dVertex
 10
9.639478
 20
171.039213
 30
0.0
  0
VERTEX
  5
9A4
100
AcDbEntity
  8
ALPHA
  6
CONTINUOUS
 62
     9
100
AcDbVertex
100
AcDb2dVertex
 10
9.631472
 20
171.145049
 30
0.0
  0
VERTEX
  5
9A5
100
AcDbEntity
  8
ALPHA
  6
CONTINUOUS
 62
     9
100
AcDbVertex
100
AcDb2dVertex
 10
9.625852
 20
171.238797
 30
0.0
  0
VERTEX
  5
9A6
100
AcDbEntity
  8
ALPHA
  6
CONTINUOUS
 62
     9
100
AcDbVertex
100
AcDb2dVertex
 10
9.622299
 20
171.321012
 30
0.0
  0
VERTEX
  5
9A7
100
AcDbEntity
  8
ALPHA
  6
CONTINUOUS
 62
     9
100
AcDbVertex
100
AcDb2dVertex
 10
9.62055
 20
171.394692
 30
0.0
  0
VERTEX
  5
9A8
100
AcDbEntity
  8
ALPHA
  6
CONTINUOUS
 62
     9
100
AcDbVertex
100
AcDb2dVertex
 10
9.620479
 20
171.46516
 30
0.0
  0
VERTEX
  5
9A9
100
AcDbEntity
  8
ALPHA
  6
CONTINUOUS
 62
     9
100
AcDbVertex
100
AcDb2dVertex
 10
9.622083
 20
171.538377
 30
0.0
  0
VERTEX
  5
9AA
100
AcDbEntity
  8
ALPHA
  6
CONTINUOUS
 62
     9
100
AcDbVertex
100
AcDb2dVertex
 10
9.625475
 20
171.619749
 30
0.0
  0
VERTEX
  5
9AB
100
AcDbEntity
  8
ALPHA
  6
CONTINUOUS
 62
     9
100
AcDbVertex
100
AcDb2dVertex
 10
9.630907
 20
171.712449
 30
0.0
  0
VERTEX
  5
9AC
100
AcDbEntity
  8
ALPHA
  6
CONTINUOUS
 62
     9
100
AcDbVertex
100
AcDb2dVertex
 10
9.638699
 20
171.817291
 30
0.0
  0
VERTEX
  5
9AD
100
AcDbEntity
  8
ALPHA
  6
CONTINUOUS
 62
     9
100
AcDbVertex
100
AcDb2dVertex
 10
9.649245
 20
171.934274
 30
0.0
  0
VERTEX
  5
9AE
100
AcDbEntity
  8
ALPHA
  6
CONTINUOUS
 62
     9
100
AcDbVertex
100
AcDb2dVertex
 10
9.663101
 20
172.063982
 30
0.0
  0
VERTEX
  5
9AF
100
AcDbEntity
  8
ALPHA
  6
CONTINUOUS
 62
     9
100
AcDbVertex
100
AcDb2dVertex
 10
9.680981
 20
172.207184
 30
0.0
  0
VERTEX
  5
9B0
100
AcDbEntity
  8
ALPHA
  6
CONTINUOUS
 62
     9
100
AcDbVertex
100
AcDb2dVertex
 10
9.703624
 20
172.363885
 30
0.0
  0
VERTEX
  5
9B1
100
AcDbEntity
  8
ALPHA
  6
CONTINUOUS
 62
     9
100
AcDbVertex
100
AcDb2dVertex
 10
9.732094
 20
172.535373
 30
0.0
  0
VERTEX
  5
9B2
100
AcDbEntity
  8
ALPHA
  6
CONTINUOUS
 62
     9
100
AcDbVertex
100
AcDb2dVertex
 10
9.767786
 20
172.723483
 30
0.0
  0
VERTEX
  5
9B3
100
AcDbEntity
  8
ALPHA
  6
CONTINUOUS
 62
     9
100
AcDbVertex
100
AcDb2dVertex
 10
9.812439
 20
172.93014
 30
0.0
  0
VERTEX
  5
9B4
100
AcDbEntity
  8
ALPHA
  6
CONTINUOUS
 62
     9
100
AcDbVertex
100
AcDb2dVertex
 10
9.867912
 20
173.156191
 30
0.0
  0
VERTEX
  5
9B5
100
AcDbEntity
  8
ALPHA
  6
CONTINUOUS
 62
     9
100
AcDbVertex
100
AcDb2dVertex
 10
9.936054
 20
173.401314
 30
0.0
  0
VERTEX
  5
9B6
100
AcDbEntity
  8
ALPHA
  6
CONTINUOUS
 62
     9
100
AcDbVertex
100
AcDb2dVertex
 10
10.019422
 20
173.66662
 30
0.0
  0
VERTEX
  5
9B7
100
AcDbEntity
  8
ALPHA
  6
CONTINUOUS
 62
     9
100
AcDbVertex
100
AcDb2dVertex
 10
10.121049
 20
173.953124
 30
0.0
  0
VERTEX
  5
9B8
100
AcDbEntity
  8
ALPHA
  6
CONTINUOUS
 62
     9
100
AcDbVertex
100
AcDb2dVertex
 10
10.24135
 20
174.254188
 30
0.0
  0
VERTEX
  5
9B9
100
AcDbEntity
  8
ALPHA
  6
CONTINUOUS
 62
     9
100
AcDbVertex
100
AcDb2dVertex
 10
10.384997
 20
174.573855
 30
0.0
  0
VERTEX
  5
9BA
100
AcDbEntity
  8
ALPHA
  6
CONTINUOUS
 62
     9
100
AcDbVertex
100
AcDb2dVertex
 10
10.559903
 20
174.919509
 30
0.0
  0
VERTEX
  5
9BB
100
AcDbEntity
  8
ALPHA
  6
CONTINUOUS
 62
     9
100
AcDbVertex
100
AcDb2dVertex
 10
10.775875
 20
175.296856
 30
0.0
  0
SEQEND
  5
9BC
100
AcDbEntity
  8
ALPHA
 62
     9
  0
POLYLINE
  5
9BD
100
AcDbEntity
  8
ALPHA
  6
CONTINUOUS
 62
     9
100
AcDb2dPolyline
 66
     1
 10
0.0
 20
0.0
 30
0.0
  0
VERTEX
  5
9BE
100
AcDbEntity
  8
ALPHA
  6
CONTINUOUS
 62
     9
100
AcDbVertex
100
AcDb2dVertex
 10
10.811083
 20
167.143929
 30
0.0
  0
VERTEX
  5
9BF
100
AcDbEntity
  8
ALPHA
  6
CONTINUOUS
 62
     9
100
AcDbVertex
100
AcDb2dVertex
 10
10.559522
 20
167.540857
 30
0.0
  0
VERTEX
  5
9C0
100
AcDbEntity
  8
ALPHA
  6
CONTINUOUS
 62
     9
100
AcDbVertex
100
AcDb2dVertex
 10
10.354296
 20
167.907223
 30
0.0
  0
VERTEX
  5
9C1
100
AcDbEntity
  8
ALPHA
  6
CONTINUOUS
 62
     9
100
AcDbVertex
100
AcDb2dVertex
 10
10.18552
 20
168.246242
 30
0.0
  0
VERTEX
  5
9C2
100
AcDbEntity
  8
ALPHA
  6
CONTINUOUS
 62
     9
100
AcDbVertex
100
AcDb2dVertex
 10
10.045103
 20
168.562619
 30
0.0
  0
VERTEX
  5
9C3
100
AcDbEntity
  8
ALPHA
  6
CONTINUOUS
 62
     9
100
AcDbVertex
100
AcDb2dVertex
 10
9.926469
 20
168.862297
 30
0.0
  0
VERTEX
  5
9C4
100
AcDbEntity
  8
ALPHA
  6
CONTINUOUS
 62
     9
100
AcDbVertex
100
AcDb2dVertex
 10
9.825498
 20
169.148886
 30
0.0
  0
VERTEX
  5
9C5
100
AcDbEntity
  8
ALPHA
  6
CONTINUOUS
 62
     9
100
AcDbVertex
100
AcDb2dVertex
 10
9.742139
 20
169.415377
 30
0.0
  0
VERTEX
  5
9C6
100
AcDbEntity
  8
ALPHA
  6
CONTINUOUS
 62
     9
100
AcDbVertex
100
AcDb2dVertex
 10
9.673898
 20
169.661447
 30
0.0
  0
VERTEX
  5
9C7
100
AcDbEntity
  8
ALPHA
  6
CONTINUOUS
 62
     9
100
AcDbVertex
100
AcDb2dVertex
 10
9.618108
 20
169.888807
 30
0.0
  0
VERTEX
  5
9C8
100
AcDbEntity
  8
ALPHA
  6
CONTINUOUS
 62
     9
100
AcDbVertex
100
AcDb2dVertex
 10
9.572628
 20
170.098925
 30
0.0
  0
VERTEX
  5
9C9
100
AcDbEntity
  8
ALPHA
  6
CONTINUOUS
 62
     9
100
AcDbVertex
100
AcDb2dVertex
 10
9.535991
 20
170.291518
 30
0.0
  0
VERTEX
  5
9CA
100
AcDbEntity
  8
ALPHA
  6
CONTINUOUS
 62
     9
100
AcDbVertex
100
AcDb2dVertex
 10
9.50675
 20
170.467121
 30
0.0
  0
VERTEX
  5
9CB
100
AcDbEntity
  8
ALPHA
  6
CONTINUOUS
 62
     9
100
AcDbVertex
100
AcDb2dVertex
 10
9.483505
 20
170.627405
 30
0.0
  0
VERTEX
  5
9CC
100
AcDbEntity
  8
ALPHA
  6
CONTINUOUS
 62
     9
100
AcDbVertex
100
AcDb2dVertex
 10
9.465157
 20
170.773702
 30
0.0
  0
VERTEX
  5
9CD
100
AcDbEntity
  8
ALPHA
  6
CONTINUOUS
 62
     9
100
AcDbVertex
100
AcDb2dVertex
 10
9.450874
 20
170.906699
 30
0.0
  0
VERTEX
  5
9CE
100
AcDbEntity
  8
ALPHA
  6
CONTINUOUS
 62
     9
100
AcDbVertex
100
AcDb2dVertex
 10
9.439999
 20
171.026625
 30
0.0
  0
VERTEX
  5
9CF
100
AcDbEntity
  8
ALPHA
  6
CONTINUOUS
 62
     9
100
AcDbVertex
100
AcDb2dVertex
 10
9.431957
 20
171.134072
 30
0.0
  0
VERTEX
  5
9D0
100
AcDbEntity
  8
ALPHA
  6
CONTINUOUS
 62
     9
100
AcDbVertex
100
AcDb2dVertex
 10
9.426299
 20
171.229803
 30
0.0
  0
VERTEX
  5
9D1
100
AcDbEntity
  8
ALPHA
  6
CONTINUOUS
 62
     9
100
AcDbVertex
100
AcDb2dVertex
 10
9.422712
 20
171.31462
 30
0.0
  0
VERTEX
  5
9D2
100
AcDbEntity
  8
ALPHA
  6
CONTINUOUS
 62
     9
100
AcDbVertex
100
AcDb2dVertex
 10
9.420933
 20
171.391655
 30
0.0
  0
VERTEX
  5
9D3
100
AcDbEntity
  8
ALPHA
  6
CONTINUOUS
 62
     9
100
AcDbVertex
100
AcDb2dVertex
 10
9.420839
 20
171.46582
 30
0.0
  0
VERTEX
  5
9D4
100
AcDbEntity
  8
ALPHA
  6
CONTINUOUS
 62
     9
100
AcDbVertex
100
AcDb2dVertex
 10
9.422423
 20
171.542256
 30
0.0
  0
VERTEX
  5
9D5
100
AcDbEntity
  8
ALPHA
  6
CONTINUOUS
 62
     9
100
AcDbVertex
100
AcDb2dVertex
 10
9.425794
 20
171.625993
 30
0.0
  0
VERTEX
  5
9D6
100
AcDbEntity
  8
ALPHA
  6
CONTINUOUS
 62
     9
100
AcDbVertex
100
AcDb2dVertex
 10
9.4312
 20
171.720378
 30
0.0
  0
VERTEX
  5
9D7
100
AcDbEntity
  8
ALPHA
  6
CONTINUOUS
 62
     9
100
AcDbVertex
100
AcDb2dVertex
 10
9.438956
 20
171.826517
 30
0.0
  0
VERTEX
  5
9D8
100
AcDbEntity
  8
ALPHA
  6
CONTINUOUS
 62
     9
100
AcDbVertex
100
AcDb2dVertex
 10
9.449444
 20
171.944589
 30
0.0
  0
VERTEX
  5
9D9
100
AcDbEntity
  8
ALPHA
  6
CONTINUOUS
 62
     9
100
AcDbVertex
100
AcDb2dVertex
 10
9.463208
 20
172.075254
 30
0.0
  0
VERTEX
  5
9DA
100
AcDbEntity
  8
ALPHA
  6
CONTINUOUS
 62
     9
100
AcDbVertex
100
AcDb2dVertex
 10
9.480946
 20
172.219354
 30
0.0
  0
VERTEX
  5
9DB
100
AcDbEntity
  8
ALPHA
  6
CONTINUOUS
 62
     9
100
AcDbVertex
100
AcDb2dVertex
 10
9.50338
 20
172.3769
 30
0.0
  0
VERTEX
  5
9DC
100
AcDbEntity
  8
ALPHA
  6
CONTINUOUS
 62
     9
100
AcDbVertex
100
AcDb2dVertex
 10
9.531532
 20
172.54909
 30
0.0
  0
VERTEX
  5
9DD
100
AcDbEntity
  8
ALPHA
  6
CONTINUOUS
 62
     9
100
AcDbVertex
100
AcDb2dVertex
 10
9.566749
 20
172.73772
 30
0.0
  0
VERTEX
  5
9DE
100
AcDbEntity
  8
ALPHA
  6
CONTINUOUS
 62
     9
100
AcDbVertex
100
AcDb2dVertex
 10
9.610728
 20
172.944761
 30
0.0
  0
VERTEX
  5
9DF
100
AcDbEntity
  8
ALPHA
  6
CONTINUOUS
 62
     9
100
AcDbVertex
100
AcDb2dVertex
 10
9.665303
 20
173.171208
 30
0.0
  0
VERTEX
  5
9E0
100
AcDbEntity
  8
ALPHA
  6
CONTINUOUS
 62
     9
100
AcDbVertex
100
AcDb2dVertex
 10
9.732276
 20
173.41675
 30
0.0
  0
VERTEX
  5
9E1
100
AcDbEntity
  8
ALPHA
  6
CONTINUOUS
 62
     9
100
AcDbVertex
100
AcDb2dVertex
 10
9.814082
 20
173.68235
 30
0.0
  0
VERTEX
  5
9E2
100
AcDbEntity
  8
ALPHA
  6
CONTINUOUS
 62
     9
100
AcDbVertex
100
AcDb2dVertex
 10
9.913835
 20
173.969548
 30
0.0
  0
VERTEX
  5
9E3
100
AcDbEntity
  8
ALPHA
  6
CONTINUOUS
 62
     9
100
AcDbVertex
100
AcDb2dVertex
 10
10.032028
 20
174.271898
 30
0.0
  0
VERTEX
  5
9E4
100
AcDbEntity
  8
ALPHA
  6
CONTINUOUS
 62
     9
100
AcDbVertex
100
AcDb2dVertex
 10
10.17249
 20
174.591779
 30
0.0
  0
VERTEX
  5
9E5
100
AcDbEntity
  8
ALPHA
  6
CONTINUOUS
 62
     9
100
AcDbVertex
100
AcDb2dVertex
 10
10.34254
 20
174.936306
 30
0.0
  0
VERTEX
  5
9E6
100
AcDbEntity
  8
ALPHA
  6
CONTINUOUS
 62
     9
100
AcDbVertex
100
AcDb2dVertex
 10
10.551536
 20
175.311596
 30
0.0
  0
VERTEX
  5
9E7
100
AcDbEntity
  8
ALPHA
  6
CONTINUOUS
 62
     9
100
AcDbVertex
100
AcDb2dVertex
 10
10.811083
 20
175.721991
 30
0.0
  0
SEQEND
  5
9E8
100
AcDbEntity
  8
ALPHA
 62
     9
  0
POLYLINE
  5
9E9
100
AcDbEntity
  8
ALPHA
  6
CONTINUOUS
 62
     9
100
AcDb2dPolyline
 66
     1
 10
0.0
 20
0.0
 30
0.0
  0
VERTEX
  5
9EA
100
AcDbEntity
  8
ALPHA
  6
CONTINUOUS
 62
     9
100
AcDbVertex
100
AcDb2dVertex
 10
11.000314
 20
175.708213
 30
0.0
  0
VERTEX
  5
9EB
100
AcDbEntity
  8
ALPHA
  6
CONTINUOUS
 62
     9
100
AcDbVertex
100
AcDb2dVertex
 10
10.969469
 20
175.324935
 30
0.0
  0
VERTEX
  5
9EC
100
AcDbEntity
  8
ALPHA
  6
CONTINUOUS
 62
     9
100
AcDbVertex
100
AcDb2dVertex
 10
10.94402
 20
174.968915
 30
0.0
  0
VERTEX
  5
9ED
100
AcDbEntity
  8
ALPHA
  6
CONTINUOUS
 62
     9
100
AcDbVertex
100
AcDb2dVertex
 10
10.923063
 20
174.639508
 30
0.0
  0
VERTEX
  5
9EE
100
AcDbEntity
  8
ALPHA
  6
CONTINUOUS
 62
     9
100
AcDbVertex
100
AcDb2dVertex
 10
10.905817
 20
174.335289
 30
0.0
  0
VERTEX
  5
9EF
100
AcDbEntity
  8
ALPHA
  6
CONTINUOUS
 62
     9
100
AcDbVertex
100
AcDb2dVertex
 10
10.891598
 20
174.053964
 30
0.0
  0
VERTEX
  5
9F0
100
AcDbEntity
  8
ALPHA
  6
CONTINUOUS
 62
     9
100
AcDbVertex
100
AcDb2dVertex
 10
10.879872
 20
173.793616
 30
0.0
  0
VERTEX
  5
9F1
100
AcDbEntity
  8
ALPHA
  6
CONTINUOUS
 62
     9
100
AcDbVertex
100
AcDb2dVertex
 10
10.870249
 20
173.553556
 30
0.0
  0
VERTEX
  5
9F2
100
AcDbEntity
  8
ALPHA
  6
CONTINUOUS
 62
     9
100
AcDbVertex
100
AcDb2dVertex
 10
10.862373
 20
173.332478
 30
0.0
  0
VERTEX
  5
9F3
100
AcDbEntity
  8
ALPHA
  6
CONTINUOUS
 62
     9
100
AcDbVertex
100
AcDb2dVertex
 10
10.855943
 20
173.128951
 30
0.0
  0
VERTEX
  5
9F4
100
AcDbEntity
  8
ALPHA
  6
CONTINUOUS
 62
     9
100
AcDbVertex
100
AcDb2dVertex
 10
10.850737
 20
172.942645
 30
0.0
  0
VERTEX
  5
9F5
100
AcDbEntity
  8
ALPHA
  6
CONTINUOUS
 62
     9
100
AcDbVertex
100
AcDb2dVertex
 10
10.84655
 20
172.772754
 30
0.0
  0
VERTEX
  5
9F6
100
AcDbEntity
  8
ALPHA
  6
CONTINUOUS
 62
     9
100
AcDbVertex
100
AcDb2dVertex
 10
10.843192
 20
172.617824
 30
0.0
  0
VERTEX
  5
9F7
100
AcDbEntity
  8
ALPHA
  6
CONTINUOUS
 62
     9
100
AcDbVertex
100
AcDb2dVertex
 10
10.840506
 20
172.47635
 30
0.0
  0
VERTEX
  5
9F8
100
AcDbEntity
  8
ALPHA
  6
CONTINUOUS
 62
     9
100
AcDbVertex
100
AcDb2dVertex
 10
10.838365
 20
172.346812
 30
0.0
  0
VERTEX
  5
9F9
100
AcDbEntity
  8
ALPHA
  6
CONTINUOUS
 62
     9
100
AcDbVertex
100
AcDb2dVertex
 10
10.836662
 20
172.227766
 30
0.0
  0
VERTEX
  5
9FA
100
AcDbEntity
  8
ALPHA
  6
CONTINUOUS
 62
     9
100
AcDbVertex
100
AcDb2dVertex
 10
10.835324
 20
172.118556
 30
0.0
  0
VERTEX
  5
9FB
100
AcDbEntity
  8
ALPHA
  6
CONTINUOUS
 62
     9
100
AcDbVertex
100
AcDb2dVertex
 10
10.8343
 20
172.020078
 30
0.0
  0
VERTEX
  5
9FC
100
AcDbEntity
  8
ALPHA
  6
CONTINUOUS
 62
     9
100
AcDbVertex
100
AcDb2dVertex
 10
10.83296
 20
171.853555
 30
0.0
  0
SEQEND
  5
9FD
100
AcDbEntity
  8
ALPHA
 62
     9
  0
POLYLINE
  5
9FE
100
AcDbEntity
  8
ALPHA
  6
CONTINUOUS
 62
     9
100
AcDb2dPolyline
 66
     1
 10
0.0
 20
0.0
 30
0.0
  0
VERTEX
  5
9FF
100
AcDbEntity
  8
ALPHA
  6
CONTINUOUS
 62
     9
100
AcDbVertex
100
AcDb2dVertex
 10
10.775238
 20
175.296918
 30
0.0
  0
VERTEX
  5
A00
100
AcDbEntity
  8
ALPHA
  6
CONTINUOUS
 62
     9
100
AcDbVertex
100
AcDb2dVertex
 10
10.75676
 20
175.038677
 30
0.0
  0
VERTEX
  5
A01
100
AcDbEntity
  8
ALPHA
  6
CONTINUOUS
 62
     9
100
AcDbVertex
100
AcDb2dVertex
 10
10.735362
 20
174.702676
 30
0.0
  0
VERTEX
  5
A02
100
AcDbEntity
  8
ALPHA
  6
CONTINUOUS
 62
     9
100
AcDbVertex
100
AcDb2dVertex
 10
10.717752
 20
174.392368
 30
0.0
  0
VERTEX
  5
A03
100
AcDbEntity
  8
ALPHA
  6
CONTINUOUS
 62
     9
100
AcDbVertex
100
AcDb2dVertex
 10
10.703234
 20
174.105412
 30
0.0
  0
VERTEX
  5
A04
100
AcDbEntity
  8
ALPHA
  6
CONTINUOUS
 62
     9
100
AcDbVertex
100
AcDb2dVertex
 10
10.691262
 20
173.839853
 30
0.0
  0
VERTEX
  5
A05
100
AcDbEntity
  8
ALPHA
  6
CONTINUOUS
 62
     9
100
AcDbVertex
100
AcDb2dVertex
 10
10.681436
 20
173.594989
 30
0.0
  0
VERTEX
  5
A06
100
AcDbEntity
  8
ALPHA
  6
CONTINUOUS
 62
     9
100
AcDbVertex
100
AcDb2dVertex
 10
10.673394
 20
173.369486
 30
0.0
  0
VERTEX
  5
A07
100
AcDbEntity
  8
ALPHA
  6
CONTINUOUS
 62
     9
100
AcDbVertex
100
AcDb2dVertex
 10
10.666829
 20
173.161886
 30
0.0
  0
VERTEX
  5
A08
100
AcDbEntity
  8
ALPHA
  6
CONTINUOUS
 62
     9
100
AcDbVertex
100
AcDb2dVertex
 10
10.661514
 20
172.971852
 30
0.0
  0
VERTEX
  5
A09
100
AcDbEntity
  8
ALPHA
  6
CONTINUOUS
 62
     9
100
AcDbVertex
100
AcDb2dVertex
 10
10.657238
 20
172.798561
 30
0.0
  0
VERTEX
  5
A0A
100
AcDbEntity
  8
ALPHA
  6
CONTINUOUS
 62
     9
100
AcDbVertex
100
AcDb2dVertex
 10
10.653809
 20
172.640531
 30
0.0
  0
VERTEX
  5
A0B
100
AcDbEntity
  8
ALPHA
  6
CONTINUOUS
 62
     9
100
AcDbVertex
100
AcDb2dVertex
 10
10.651067
 20
172.496227
 30
0.0
  0
VERTEX
  5
A0C
100
AcDbEntity
  8
ALPHA
  6
CONTINUOUS
 62
     9
100
AcDbVertex
100
AcDb2dVertex
 10
10.648881
 20
172.364097
 30
0.0
  0
VERTEX
  5
A0D
100
AcDbEntity
  8
ALPHA
  6
CONTINUOUS
 62
     9
100
AcDbVertex
100
AcDb2dVertex
 10
10.647143
 20
172.24267
 30
0.0
  0
VERTEX
  5
A0E
100
AcDbEntity
  8
ALPHA
  6
CONTINUOUS
 62
     9
100
AcDbVertex
100
AcDb2dVertex
 10
10.645776
 20
172.131273
 30
0.0
  0
VERTEX
  5
A0F
100
AcDbEntity
  8
ALPHA
  6
CONTINUOUS
 62
     9
100
AcDbVertex
100
AcDb2dVertex
 10
10.64473
 20
172.030818
 30
0.0
  0
VERTEX
  5
A10
100
AcDbEntity
  8
ALPHA
  6
CONTINUOUS
 62
     9
100
AcDbVertex
100
AcDb2dVertex
 10
10.643949
 20
171.941653
 30
0.0
  0
VERTEX
  5
A11
100
AcDbEntity
  8
ALPHA
  6
CONTINUOUS
 62
     9
100
AcDbVertex
100
AcDb2dVertex
 10
10.642913
 20
171.78497
 30
0.0
  0
SEQEND
  5
A12
100
AcDbEntity
  8
ALPHA
 62
     9
  0
LINE
  5
A13
100
AcDbEntity
  8
ALPHA
  6
CONTINUOUS
 62
     7
100
AcDbLine
 10
10.460984
 20
174.050975
 30
0.0
 11
10.460984
 21
168.814808
 31
0.0
  0
POLYLINE
  5
A14
100
AcDbEntity
  8
ALPHA
  6
CONTINUOUS
 62
     7
100
AcDb2dPolyline
 66
     1
 10
0.0
 20
0.0
 30
0.0
  0
VERTEX
  5
A15
100
AcDbEntity
  8
ALPHA
  6
CONTINUOUS
 62
     7
100
AcDbVertex
100
AcDb2dVertex
 10
9.583968
 20
175.170702
 30
0.0
  0
VERTEX
  5
A16
100
AcDbEntity
  8
ALPHA
  6
CONTINUOUS
 62
     7
100
AcDbVertex
100
AcDb2dVertex
 10
9.097631
 20
174.004643
 30
0.0
  0
VERTEX
  5
A17
100
AcDbEntity
  8
ALPHA
  6
CONTINUOUS
 62
     7
100
AcDbVertex
100
AcDb2dVertex
 10
8.771629
 20
172.731752
 30
0.0
  0
VERTEX
  5
A18
100
AcDbEntity
  8
ALPHA
  6
CONTINUOUS
 62
     7
100
AcDbVertex
100
AcDb2dVertex
 10
8.647832
 20
171.430113
 30
0.0
  0
VERTEX
  5
A19
100
AcDbEntity
  8
ALPHA
  6
CONTINUOUS
 62
     7
100
AcDbVertex
100
AcDb2dVertex
 10
8.772617
 20
170.128635
 30
0.0
  0
VERTEX
  5
A1A
100
AcDbEntity
  8
ALPHA
  6
CONTINUOUS
 62
     7
100
AcDbVertex
100
AcDb2dVertex
 10
9.099454
 20
168.855865
 30
0.0
  0
VERTEX
  5
A1B
100
AcDbEntity
  8
ALPHA
  6
CONTINUOUS
 62
     7
100
AcDbVertex
100
AcDb2dVertex
 10
9.583968
 20
167.695218
 30
0.0
  0
SEQEND
  5
A1C
100
AcDbEntity
  8
ALPHA
 62
     7
  0
POLYLINE
  5
A1D
100
AcDbEntity
  8
ALPHA
  6
CONTINUOUS
 62
     7
100
AcDb2dPolyline
 66
     1
 10
0.0
 20
0.0
 30
0.0
  0
VERTEX
  5
A1E
100
AcDbEntity
  8
ALPHA
  6
CONTINUOUS
 62
     7
100
AcDbVertex
100
AcDb2dVertex
 10
10.3743
 20
173.306962
 30
0.0
  0
VERTEX
  5
A1F
100
AcDbEntity
  8
ALPHA
  6
CONTINUOUS
 62
     7
100
AcDbVertex
100
AcDb2dVertex
 10
10.287979
 20
172.971768
 30
0.0
  0
VERTEX
  5
A20
100
AcDbEntity
  8
ALPHA
  6
CONTINUOUS
 62
     7
100
AcDbVertex
100
AcDb2dVertex
 10
10.219367
 20
172.638778
 30
0.0
  0
VERTEX
  5
A21
100
AcDbEntity
  8
ALPHA
  6
CONTINUOUS
 62
     7
100
AcDbVertex
100
AcDb2dVertex
 10
10.166442
 20
172.297125
 30
0.0
  0
VERTEX
  5
A22
100
AcDbEntity
  8
ALPHA
  6
CONTINUOUS
 62
     7
100
AcDbVertex
100
AcDb2dVertex
 10
10.130768
 20
171.951862
 30
0.0
  0
VERTEX
  5
A23
100
AcDbEntity
  8
ALPHA
  6
CONTINUOUS
 62
     7
100
AcDbVertex
100
AcDb2dVertex
 10
10.112917
 20
171.606549
 30
0.0
  0
VERTEX
  5
A24
100
AcDbEntity
  8
ALPHA
  6
CONTINUOUS
 62
     7
100
AcDbVertex
100
AcDb2dVertex
 10
10.11286
 20
171.261592
 30
0.0
  0
VERTEX
  5
A25
100
AcDbEntity
  8
ALPHA
  6
CONTINUOUS
 62
     7
100
AcDbVertex
100
AcDb2dVertex
 10
10.130591
 20
170.916346
 30
0.0
  0
VERTEX
  5
A26
100
AcDbEntity
  8
ALPHA
  6
CONTINUOUS
 62
     7
100
AcDbVertex
100
AcDb2dVertex
 10
10.166182
 20
170.570814
 30
0.0
  0
VERTEX
  5
A27
100
AcDbEntity
  8
ALPHA
  6
CONTINUOUS
 62
     7
100
AcDbVertex
100
AcDb2dVertex
 10
10.219142
 20
170.228387
 30
0.0
  0
VERTEX
  5
A28
100
AcDbEntity
  8
ALPHA
  6
CONTINUOUS
 62
     7
100
AcDbVertex
100
AcDb2dVertex
 10
10.287892
 20
169.894526
 30
0.0
  0
VERTEX
  5
A29
100
AcDbEntity
  8
ALPHA
  6
CONTINUOUS
 62
     7
100
AcDbVertex
100
AcDb2dVertex
 10
10.3743
 20
169.558958
 30
0.0
  0
SEQEND
  5
A2A
100
AcDbEntity
  8
ALPHA
 62
     7
  0
LINE
  5
A2B
100
AcDbEntity
  8
ALPHA
  6
CONTINUOUS
 62
     7
100
AcDbLine
 10
8.060215
 20
159.68296
 30
0.0
 11
8.060215
 21
183.18296
 31
0.0
  0
LINE
  5
A2C
100
AcDbEntity
  8
ALPHA
  6
CONTINUOUS
 62
     7
100
AcDbLine
 10
8.036294
 20
183.48296
 30
0.0
 11
8.036294
 21
159.48296
 31
0.0
  0
LINE
  5
A2D
100
AcDbEntity
  8
ALPHA
  6
CONTINUOUS
 62
     7
100
AcDbLine
 10
7.397746
 20
159.58296
 30
0.0
 11
7.397746
 21
183.58296
 31
0.0
  0
LINE
  5
A2E
100
AcDbEntity
  8
ALPHA
  6
CONTINUOUS
 62
     7
100
AcDbLine
 10
6.64511
 20
159.58296
 30
0.0
 11
6.64511
 21
183.58296
 31
0.0
  0
LINE
  5
A2F
100
AcDbEntity
  8
ALPHA
  6
CONTINUOUS
 62
     7
100
AcDbLine
 10
9.17555
 20
159.68296
 30
0.0
 11
9.741271
 21
159.68296
 31
0.0
  0
LINE
  5
A30
100
AcDbEntity
  8
ALPHA
  6
CONTINUOUS
 62
     7
100
AcDbLine
 10
8.036294
 20
159.48296
 30
0.0
 11
11.016212
 21
159.48296
 31
0.0
  0
LINE
  5
A31
100
AcDbEntity
  8
ALPHA
  6
CONTINUOUS
 62
     7
100
AcDbLine
 10
9.17555
 20
159.68296
 30
0.0
 11
9.378122
 21
159.48296
 31
0.0
  0
LINE
  5
A32
100
AcDbEntity
  8
ALPHA
  6
CONTINUOUS
 62
     7
100
AcDbLine
 10
8.545866
 20
160.38296
 30
0.0
 11
9.17555
 21
160.38296
 31
0.0
  0
LINE
  5
A33
100
AcDbEntity
  8
ALPHA
  6
CONTINUOUS
 62
     7
100
AcDbLine
 10
8.060215
 20
159.68296
 30
0.0
 11
8.545866
 21
159.68296
 31
0.0
  0
LINE
  5
A34
100
AcDbEntity
  8
ALPHA
  6
CONTINUOUS
 62
     7
100
AcDbLine
 10
6.595117
 20
159.58296
 30
0.0
 11
7.397746
 21
159.58296
 31
0.0
  0
LINE
  5
A35
100
AcDbEntity
  8
ALPHA
  6
CONTINUOUS
 62
     7
100
AcDbLine
 10
7.199057
 20
158.572048
 30
0.0
 11
7.213551
 21
158.572048
 31
0.0
  0
LINE
  5
A36
100
AcDbEntity
  8
ALPHA
  6
CONTINUOUS
 62
     7
100
AcDbLine
 10
7.120184
 20
158.572048
 30
0.0
 11
7.140523
 21
158.572048
 31
0.0
  0
LINE
  5
A37
100
AcDbEntity
  8
ALPHA
  6
CONTINUOUS
 62
     7
100
AcDbLine
 10
7.309357
 20
158.572048
 30
0.0
 11
7.325118
 21
158.572048
 31
0.0
  0
LINE
  5
A38
100
AcDbEntity
  8
ALPHA
  6
CONTINUOUS
 62
     7
100
AcDbLine
 10
7.233144
 20
158.572048
 30
0.0
 11
7.248041
 21
158.572048
 31
0.0
  0
LINE
  5
A39
100
AcDbEntity
  8
ALPHA
  6
CONTINUOUS
 62
     7
100
AcDbLine
 10
6.992552
 20
158.572048
 30
0.0
 11
7.010263
 21
158.572048
 31
0.0
  0
LINE
  5
A3A
100
AcDbEntity
  8
ALPHA
  6
CONTINUOUS
 62
     7
100
AcDbLine
 10
6.920275
 20
158.572048
 30
0.0
 11
6.936309
 21
158.572048
 31
0.0
  0
LINE
  5
A3B
100
AcDbEntity
  8
ALPHA
  6
CONTINUOUS
 62
     7
100
AcDbLine
 10
7.026332
 20
158.572048
 30
0.0
 11
7.102431
 21
158.572048
 31
0.0
  0
LINE
  5
A3C
100
AcDbEntity
  8
ALPHA
  6
CONTINUOUS
 62
     7
100
AcDbLine
 10
7.038584
 20
158.381952
 30
0.0
 11
7.102431
 21
158.381952
 31
0.0
  0
LINE
  5
A3D
100
AcDbEntity
  8
ALPHA
  6
CONTINUOUS
 62
     7
100
AcDbLine
 10
7.1337
 20
158.381952
 30
0.0
 11
7.149191
 21
158.381952
 31
0.0
  0
LINE
  5
A3E
100
AcDbEntity
  8
ALPHA
  6
CONTINUOUS
 62
     7
100
AcDbLine
 10
6.998412
 20
158.255222
 30
0.0
 11
7.010263
 21
158.255222
 31
0.0
  0
LINE
  5
A3F
100
AcDbEntity
  8
ALPHA
  6
CONTINUOUS
 62
     7
100
AcDbLine
 10
6.930921
 20
158.255222
 30
0.0
 11
6.942812
 21
158.255222
 31
0.0
  0
LINE
  5
A40
100
AcDbEntity
  8
ALPHA
  6
CONTINUOUS
 62
     7
100
AcDbLine
 10
7.038584
 20
157.970078
 30
0.0
 11
7.093669
 21
157.970078
 31
0.0
  0
LINE
  5
A41
100
AcDbEntity
  8
ALPHA
  6
CONTINUOUS
 62
     7
100
AcDbLine
 10
7.038584
 20
157.77998
 30
0.0
 11
7.093669
 21
157.77998
 31
0.0
  0
LINE
  5
A42
100
AcDbEntity
  8
ALPHA
  6
CONTINUOUS
 62
     7
100
AcDbLine
 10
7.233144
 20
157.589884
 30
0.0
 11
7.248041
 21
157.589884
 31
0.0
  0
LINE
  5
A43
100
AcDbEntity
  8
ALPHA
  6
CONTINUOUS
 62
     7
100
AcDbLine
 10
7.309357
 20
157.589884
 30
0.0
 11
7.325118
 21
157.589884
 31
0.0
  0
LINE
  5
A44
100
AcDbEntity
  8
ALPHA
  6
CONTINUOUS
 62
     7
100
AcDbLine
 10
7.306747
 20
157.463152
 30
0.0
 11
7.322479
 21
157.463152
 31
0.0
  0
LINE
  5
A45
100
AcDbEntity
  8
ALPHA
  6
CONTINUOUS
 62
     7
100
AcDbLine
 10
7.235615
 20
157.431471
 30
0.0
 11
7.250541
 21
157.431471
 31
0.0
  0
LINE
  5
A46
100
AcDbEntity
  8
ALPHA
  6
CONTINUOUS
 62
     7
100
AcDbLine
 10
7.301541
 20
157.368105
 30
0.0
 11
7.322479
 21
157.368105
 31
0.0
  0
LINE
  5
A47
100
AcDbEntity
  8
ALPHA
  6
CONTINUOUS
 62
     7
100
AcDbLine
 10
7.240571
 20
157.304739
 30
0.0
 11
7.255554
 21
157.304739
 31
0.0
  0
LINE
  5
A48
100
AcDbEntity
  8
ALPHA
  6
CONTINUOUS
 62
     7
100
AcDbLine
 10
7.293769
 20
157.304739
 30
0.0
 11
7.317216
 21
157.304739
 31
0.0
  0
LINE
  5
A49
100
AcDbEntity
  8
ALPHA
  6
CONTINUOUS
 62
     7
100
AcDbLine
 10
7.199057
 20
157.304739
 30
0.0
 11
7.213551
 21
157.304739
 31
0.0
  0
LINE
  5
A4A
100
AcDbEntity
  8
ALPHA
  6
CONTINUOUS
 62
     7
100
AcDbLine
 10
7.038584
 20
157.273056
 30
0.0
 11
7.102431
 21
157.273056
 31
0.0
  0
LINE
  5
A4B
100
AcDbEntity
  8
ALPHA
  6
CONTINUOUS
 62
     7
100
AcDbLine
 10
7.283473
 20
157.273056
 30
0.0
 11
7.317216
 21
157.273056
 31
0.0
  0
LINE
  5
A4C
100
AcDbEntity
  8
ALPHA
  6
CONTINUOUS
 62
     7
100
AcDbLine
 10
6.963893
 20
157.241373
 30
0.0
 11
6.975044
 21
157.241373
 31
0.0
  0
LINE
  5
A4D
100
AcDbEntity
  8
ALPHA
  6
CONTINUOUS
 62
     7
100
AcDbLine
 10
7.250541
 20
157.178007
 30
0.0
 11
7.296355
 21
157.178007
 31
0.0
  0
LINE
  5
A4E
100
AcDbEntity
  8
ALPHA
  6
CONTINUOUS
 62
     7
100
AcDbLine
 10
7.260587
 20
157.114643
 30
0.0
 11
7.296355
 21
157.114643
 31
0.0
  0
LINE
  5
A4F
100
AcDbEntity
  8
ALPHA
  6
CONTINUOUS
 62
     7
100
AcDbLine
 10
7.191874
 20
157.08296
 30
0.0
 11
7.213551
 21
157.08296
 31
0.0
  0
LINE
  5
A50
100
AcDbEntity
  8
ALPHA
  6
CONTINUOUS
 62
     7
100
AcDbLine
 10
7.120184
 20
157.08296
 30
0.0
 11
7.1337
 21
157.08296
 31
0.0
  0
LINE
  5
A51
100
AcDbEntity
  8
ALPHA
  6
CONTINUOUS
 62
     7
100
AcDbLine
 10
7.273253
 20
157.08296
 30
0.0
 11
7.283473
 21
157.08296
 31
0.0
  0
LINE
  5
A52
100
AcDbEntity
  8
ALPHA
  6
CONTINUOUS
 62
     7
100
AcDbLine
 10
6.998412
 20
157.08296
 30
0.0
 11
7.010263
 21
157.08296
 31
0.0
  0
LINE
  5
A53
100
AcDbEntity
  8
ALPHA
  6
CONTINUOUS
 62
     7
100
AcDbLine
 10
6.920275
 20
157.08296
 30
0.0
 11
6.930921
 21
157.08296
 31
0.0
  0
LINE
  5
A54
100
AcDbEntity
  8
ALPHA
  6
CONTINUOUS
 62
     7
100
AcDbLine
 10
6.956432
 20
157.08296
 30
0.0
 11
6.97143
 21
157.08296
 31
0.0
  0
LINE
  5
A55
100
AcDbEntity
  8
ALPHA
  6
CONTINUOUS
 62
     7
100
AcDbLine
 10
7.026332
 20
157.08296
 30
0.0
 11
7.102431
 21
157.08296
 31
0.0
  0
LINE
  5
A56
100
AcDbEntity
  8
ALPHA
  6
CONTINUOUS
 62
     7
100
AcDbLine
 10
8.545866
 20
159.68296
 30
0.0
 11
8.747793
 21
159.48296
 31
0.0
  0
LINE
  5
A57
100
AcDbEntity
  8
ALPHA
  6
CONTINUOUS
 62
     7
100
AcDbLine
 10
7.283473
 20
157.08296
 30
0.0
 11
7.296355
 21
157.114643
 31
0.0
  0
LINE
  5
A58
100
AcDbEntity
  8
ALPHA
  6
CONTINUOUS
 62
     7
100
AcDbLine
 10
7.283473
 20
157.273056
 30
0.0
 11
7.293769
 21
157.304739
 31
0.0
  0
LINE
  5
A59
100
AcDbEntity
  8
ALPHA
  6
CONTINUOUS
 62
     7
100
AcDbLine
 10
7.255554
 20
157.368105
 30
0.0
 11
7.263111
 21
157.304739
 31
0.0
  0
LINE
  5
A5A
100
AcDbEntity
  8
ALPHA
  6
CONTINUOUS
 62
     7
100
AcDbLine
 10
8.060215
 20
159.68296
 30
0.0
 11
8.103319
 21
159.634386
 31
0.0
  0
LINE
  5
A5B
100
AcDbEntity
  8
ALPHA
  6
CONTINUOUS
 62
     7
100
AcDbLine
 10
8.103319
 20
159.634386
 30
0.0
 11
8.255826
 21
159.48296
 31
0.0
  0
LINE
  5
A5C
100
AcDbEntity
  8
ALPHA
  6
CONTINUOUS
 62
     7
100
AcDbLine
 10
7.296355
 20
157.114643
 30
0.0
 11
7.306747
 21
157.178007
 31
0.0
  0
LINE
  5
A5D
100
AcDbEntity
  8
ALPHA
  6
CONTINUOUS
 62
     7
100
AcDbLine
 10
7.293769
 20
157.304739
 30
0.0
 11
7.301541
 21
157.368105
 31
0.0
  0
LINE
  5
A5E
100
AcDbEntity
  8
ALPHA
  6
CONTINUOUS
 62
     7
100
AcDbLine
 10
7.306747
 20
157.178007
 30
0.0
 11
7.317216
 21
157.304739
 31
0.0
  0
LINE
  5
A5F
100
AcDbEntity
  8
ALPHA
  6
CONTINUOUS
 62
     7
100
AcDbLine
 10
7.301541
 20
157.368105
 30
0.0
 11
7.306747
 21
157.463152
 31
0.0
  0
LINE
  5
A60
100
AcDbEntity
  8
ALPHA
  6
CONTINUOUS
 62
     7
100
AcDbLine
 10
7.319845
 20
157.368106
 30
0.0
 11
7.322479
 21
157.431471
 31
0.0
  0
LINE
  5
A61
100
AcDbEntity
  8
ALPHA
  6
CONTINUOUS
 62
     7
100
AcDbLine
 10
7.317216
 20
157.304739
 30
0.0
 11
7.319845
 21
157.368106
 31
0.0
  0
POLYLINE
  5
A62
100
AcDbEntity
  8
ALPHA
  6
CONTINUOUS
 62
     7
100
AcDb2dPolyline
 66
     1
 10
0.0
 20
0.0
 30
0.0
  0
VERTEX
  5
A63
100
AcDbEntity
  8
ALPHA
  6
CONTINUOUS
 62
     7
100
AcDbVertex
100
AcDb2dVertex
 10
6.639215
 20
157.08296
 30
0.0
  0
VERTEX
  5
A64
100
AcDbEntity
  8
ALPHA
  6
CONTINUOUS
 62
     7
100
AcDbVertex
100
AcDb2dVertex
 10
6.653914
 20
157.457977
 30
0.0
  0
VERTEX
  5
A65
100
AcDbEntity
  8
ALPHA
  6
CONTINUOUS
 62
     7
100
AcDbVertex
100
AcDb2dVertex
 10
6.670723
 20
157.83296
 30
0.0
  0
SEQEND
  5
A66
100
AcDbEntity
  8
ALPHA
 62
     7
  0
LINE
  5
A67
100
AcDbEntity
  8
ALPHA
  6
CONTINUOUS
 62
     7
100
AcDbLine
 10
6.97143
 20
157.08296
 30
0.0
 11
6.991817
 21
157.971163
 31
0.0
  0
LINE
  5
A68
100
AcDbEntity
  8
ALPHA
  6
CONTINUOUS
 62
     7
100
AcDbLine
 10
6.979493
 20
157.971362
 30
0.0
 11
6.992552
 21
158.572048
 31
0.0
  0
LINE
  5
A69
100
AcDbEntity
  8
ALPHA
  6
CONTINUOUS
 62
     7
100
AcDbLine
 10
6.963893
 20
157.241373
 30
0.0
 11
6.979493
 21
157.971362
 31
0.0
  0
LINE
  5
A6A
100
AcDbEntity
  8
ALPHA
  6
CONTINUOUS
 62
     7
100
AcDbLine
 10
7.306747
 20
157.463152
 30
0.0
 11
7.309357
 21
157.589884
 31
0.0
  0
LINE
  5
A6B
100
AcDbEntity
  8
ALPHA
  6
CONTINUOUS
 62
     7
100
AcDbLine
 10
7.322479
 20
157.431471
 30
0.0
 11
7.325118
 21
157.589884
 31
0.0
  0
LINE
  5
A6C
100
AcDbEntity
  8
ALPHA
  6
CONTINUOUS
 62
     7
100
AcDbLine
 10
9.17555
 20
159.68296
 30
0.0
 11
9.17555
 21
160.38296
 31
0.0
  0
LINE
  5
A6D
100
AcDbEntity
  8
ALPHA
  6
CONTINUOUS
 62
     7
100
AcDbLine
 10
8.545866
 20
159.68296
 30
0.0
 11
8.545866
 21
160.38296
 31
0.0
  0
LINE
  5
A6E
100
AcDbEntity
  8
ALPHA
  6
CONTINUOUS
 62
     7
100
AcDbLine
 10
7.325118
 20
157.589884
 30
0.0
 11
7.325118
 21
158.572048
 31
0.0
  0
LINE
  5
A6F
100
AcDbEntity
  8
ALPHA
  6
CONTINUOUS
 62
     7
100
AcDbLine
 10
7.309357
 20
157.589884
 30
0.0
 11
7.309357
 21
158.572048
 31
0.0
  0
LINE
  5
A70
100
AcDbEntity
  8
ALPHA
  6
CONTINUOUS
 62
     7
100
AcDbLine
 10
7.248041
 20
157.589884
 30
0.0
 11
7.248041
 21
158.572048
 31
0.0
  0
LINE
  5
A71
100
AcDbEntity
  8
ALPHA
  6
CONTINUOUS
 62
     7
100
AcDbLine
 10
7.233144
 20
157.589884
 30
0.0
 11
7.233144
 21
158.572048
 31
0.0
  0
LINE
  5
A72
100
AcDbEntity
  8
ALPHA
  6
CONTINUOUS
 62
     7
100
AcDbLine
 10
7.213551
 20
157.08296
 30
0.0
 11
7.213551
 21
158.572048
 31
0.0
  0
LINE
  5
A73
100
AcDbEntity
  8
ALPHA
  6
CONTINUOUS
 62
     7
100
AcDbLine
 10
7.199057
 20
157.304739
 30
0.0
 11
7.199057
 21
158.572048
 31
0.0
  0
LINE
  5
A74
100
AcDbEntity
  8
ALPHA
  6
CONTINUOUS
 62
     7
100
AcDbLine
 10
7.1337
 20
157.08296
 30
0.0
 11
7.1337
 21
158.381952
 31
0.0
  0
LINE
  5
A75
100
AcDbEntity
  8
ALPHA
  6
CONTINUOUS
 62
     7
100
AcDbLine
 10
7.120184
 20
157.08296
 30
0.0
 11
7.120184
 21
158.572048
 31
0.0
  0
LINE
  5
A76
100
AcDbEntity
  8
ALPHA
  6
CONTINUOUS
 62
     7
100
AcDbLine
 10
7.102431
 20
158.381952
 30
0.0
 11
7.102431
 21
158.572048
 31
0.0
  0
LINE
  5
A77
100
AcDbEntity
  8
ALPHA
  6
CONTINUOUS
 62
     7
100
AcDbLine
 10
7.102431
 20
157.08296
 30
0.0
 11
7.102431
 21
157.273056
 31
0.0
  0
LINE
  5
A78
100
AcDbEntity
  8
ALPHA
  6
CONTINUOUS
 62
     7
100
AcDbLine
 10
7.093669
 20
157.77998
 30
0.0
 11
7.093669
 21
157.970078
 31
0.0
  0
LINE
  5
A79
100
AcDbEntity
  8
ALPHA
  6
CONTINUOUS
 62
     7
100
AcDbLine
 10
7.038584
 20
157.970078
 30
0.0
 11
7.038584
 21
158.381952
 31
0.0
  0
LINE
  5
A7A
100
AcDbEntity
  8
ALPHA
  6
CONTINUOUS
 62
     7
100
AcDbLine
 10
7.038584
 20
157.273056
 30
0.0
 11
7.038584
 21
157.77998
 31
0.0
  0
LINE
  5
A7B
100
AcDbEntity
  8
ALPHA
  6
CONTINUOUS
 62
     7
100
AcDbLine
 10
7.026332
 20
157.08296
 30
0.0
 11
7.026332
 21
158.572048
 31
0.0
  0
LINE
  5
A7C
100
AcDbEntity
  8
ALPHA
  6
CONTINUOUS
 62
     7
100
AcDbLine
 10
7.010263
 20
157.08296
 30
0.0
 11
7.010263
 21
158.572048
 31
0.0
  0
LINE
  5
A7D
100
AcDbEntity
  8
ALPHA
  6
CONTINUOUS
 62
     7
100
AcDbLine
 10
6.998412
 20
157.08296
 30
0.0
 11
6.998412
 21
158.255222
 31
0.0
  0
LINE
  5
A7E
100
AcDbEntity
  8
ALPHA
  6
CONTINUOUS
 62
     7
100
AcDbLine
 10
6.930921
 20
157.08296
 30
0.0
 11
6.930921
 21
158.255222
 31
0.0
  0
LINE
  5
A7F
100
AcDbEntity
  8
ALPHA
  6
CONTINUOUS
 62
     7
100
AcDbLine
 10
6.920275
 20
157.08296
 30
0.0
 11
6.920275
 21
158.572048
 31
0.0
  0
LINE
  5
A80
100
AcDbEntity
  8
ALPHA
  6
CONTINUOUS
 62
     7
100
AcDbLine
 10
6.639215
 20
157.08296
 30
0.0
 11
6.639215
 21
158.58296
 31
0.0
  0
LINE
  5
A81
100
AcDbEntity
  8
ALPHA
  6
CONTINUOUS
 62
     7
100
AcDbLine
 10
7.233144
 20
157.589884
 30
0.0
 11
7.235615
 21
157.431471
 31
0.0
  0
LINE
  5
A82
100
AcDbEntity
  8
ALPHA
  6
CONTINUOUS
 62
     7
100
AcDbLine
 10
7.248041
 20
157.589884
 30
0.0
 11
7.250541
 21
157.463152
 31
0.0
  0
LINE
  5
A83
100
AcDbEntity
  8
ALPHA
  6
CONTINUOUS
 62
     7
100
AcDbLine
 10
6.936309
 20
158.572048
 30
0.0
 11
6.949967
 21
157.906678
 31
0.0
  0
LINE
  5
A84
100
AcDbEntity
  8
ALPHA
  6
CONTINUOUS
 62
     7
100
AcDbLine
 10
6.949967
 20
157.906678
 30
0.0
 11
6.963893
 21
157.241373
 31
0.0
  0
LINE
  5
A85
100
AcDbEntity
  8
ALPHA
  6
CONTINUOUS
 62
     7
100
AcDbLine
 10
6.930921
 20
158.255222
 30
0.0
 11
6.94356
 21
157.669064
 31
0.0
  0
LINE
  5
A86
100
AcDbEntity
  8
ALPHA
  6
CONTINUOUS
 62
     7
100
AcDbLine
 10
6.94356
 20
157.669064
 30
0.0
 11
6.956432
 21
157.08296
 31
0.0
  0
LINE
  5
A87
100
AcDbEntity
  8
ALPHA
  6
CONTINUOUS
 62
     7
100
AcDbLine
 10
7.235615
 20
157.431471
 30
0.0
 11
7.240571
 21
157.304739
 31
0.0
  0
POLYLINE
  5
A88
100
AcDbEntity
  8
ALPHA
  6
CONTINUOUS
 62
     7
100
AcDb2dPolyline
 66
     1
 10
0.0
 20
0.0
 30
0.0
  0
VERTEX
  5
A89
100
AcDbEntity
  8
ALPHA
  6
CONTINUOUS
 62
     7
100
AcDbVertex
100
AcDb2dVertex
 10
6.639215
 20
158.58296
 30
0.0
  0
VERTEX
  5
A8A
100
AcDbEntity
  8
ALPHA
  6
CONTINUOUS
 62
     7
100
AcDbVertex
100
AcDb2dVertex
 10
6.653914
 20
158.207943
 30
0.0
  0
VERTEX
  5
A8B
100
AcDbEntity
  8
ALPHA
  6
CONTINUOUS
 62
     7
100
AcDbVertex
100
AcDb2dVertex
 10
6.670723
 20
157.83296
 30
0.0
  0
SEQEND
  5
A8C
100
AcDbEntity
  8
ALPHA
 62
     7
  0
LINE
  5
A8D
100
AcDbEntity
  8
ALPHA
  6
CONTINUOUS
 62
     7
100
AcDbLine
 10
7.1337
 20
158.381952
 30
0.0
 11
7.162416
 21
157.732391
 31
0.0
  0
LINE
  5
A8E
100
AcDbEntity
  8
ALPHA
  6
CONTINUOUS
 62
     7
100
AcDbLine
 10
7.162416
 20
157.732391
 30
0.0
 11
7.191874
 21
157.08296
 31
0.0
  0
LINE
  5
A8F
100
AcDbEntity
  8
ALPHA
  6
CONTINUOUS
 62
     7
100
AcDbLine
 10
7.140523
 20
158.572048
 30
0.0
 11
7.169418
 21
157.93833
 31
0.0
  0
LINE
  5
A90
100
AcDbEntity
  8
ALPHA
  6
CONTINUOUS
 62
     7
100
AcDbLine
 10
7.196222
 20
157.36533
 30
0.0
 11
7.199057
 21
157.304739
 31
0.0
  0
LINE
  5
A91
100
AcDbEntity
  8
ALPHA
  6
CONTINUOUS
 62
     7
100
AcDbLine
 10
7.169418
 20
157.93833
 30
0.0
 11
7.191775
 21
157.460403
 31
0.0
  0
LINE
  5
A92
100
AcDbEntity
  8
ALPHA
  6
CONTINUOUS
 62
     7
100
AcDbLine
 10
7.250541
 20
157.463152
 30
0.0
 11
7.255554
 21
157.368105
 31
0.0
  0
LINE
  5
A93
100
AcDbEntity
  8
ALPHA
  6
CONTINUOUS
 62
     7
100
AcDbLine
 10
7.240571
 20
157.304739
 30
0.0
 11
7.250541
 21
157.178007
 31
0.0
  0
LINE
  5
A94
100
AcDbEntity
  8
ALPHA
  6
CONTINUOUS
 62
     7
100
AcDbLine
 10
7.250541
 20
157.178007
 30
0.0
 11
7.260587
 21
157.114643
 31
0.0
  0
LINE
  5
A95
100
AcDbEntity
  8
ALPHA
  6
CONTINUOUS
 62
     7
100
AcDbLine
 10
7.263111
 20
157.304739
 30
0.0
 11
7.273253
 21
157.273056
 31
0.0
  0
LINE
  5
A96
100
AcDbEntity
  8
ALPHA
  6
CONTINUOUS
 62
     7
100
AcDbLine
 10
7.260587
 20
157.114643
 30
0.0
 11
7.273253
 21
157.08296
 31
0.0
  0
LINE
  5
A97
100
AcDbEntity
  8
ALPHA
  6
CONTINUOUS
 62
     9
100
AcDbLine
 10
11.016212
 20
167.04507
 30
0.0
 11
11.016212
 21
159.48296
 31
0.0
  0
LINE
  5
A98
100
AcDbEntity
  8
ALPHA
  6
CONTINUOUS
 62
     9
100
AcDbLine
 10
10.819409
 20
167.04507
 30
0.0
 11
10.819409
 21
159.48296
 31
0.0
  0
LINE
  5
A99
100
AcDbEntity
  8
ALPHA
  6
CONTINUOUS
 62
     7
100
AcDbLine
 10
10.460984
 20
167.03296
 30
0.0
 11
10.460984
 21
162.83296
 31
0.0
  0
LINE
  5
A9A
100
AcDbEntity
  8
ALPHA
  6
CONTINUOUS
 62
     7
100
AcDbLine
 10
10.219213
 20
162.83296
 30
0.0
 11
10.219213
 21
167.03296
 31
0.0
  0
LINE
  5
A9B
100
AcDbEntity
  8
ALPHA
  6
CONTINUOUS
 62
     9
100
AcDbLine
 10
10.191642
 20
162.83296
 30
0.0
 11
10.191642
 21
167.03296
 31
0.0
  0
LINE
  5
A9C
100
AcDbEntity
  8
ALPHA
  6
CONTINUOUS
 62
     9
100
AcDbLine
 10
9.748639
 20
162.83296
 30
0.0
 11
9.748639
 21
167.03296
 31
0.0
  0
LINE
  5
A9D
100
AcDbEntity
  8
ALPHA
  6
CONTINUOUS
 62
     7
100
AcDbLine
 10
10.811083
 20
159.48296
 30
0.0
 11
10.811083
 21
162.83296
 31
0.0
  0
LINE
  5
A9E
100
AcDbEntity
  8
ALPHA
  6
CONTINUOUS
 62
     9
100
AcDbLine
 10
10.233515
 20
162.83296
 30
0.0
 11
10.233515
 21
159.48296
 31
0.0
  0
LINE
  5
A9F
100
AcDbEntity
  8
ALPHA
  6
CONTINUOUS
 62
     9
100
AcDbLine
 10
9.741271
 20
162.83296
 30
0.0
 11
9.741271
 21
159.68296
 31
0.0
  0
POLYLINE
  5
AA0
100
AcDbEntity
  8
ALPHA
  6
CONTINUOUS
 62
     7
100
AcDb2dPolyline
 66
     1
 10
0.0
 20
0.0
 30
0.0
  0
VERTEX
  5
AA1
100
AcDbEntity
  8
ALPHA
  6
CONTINUOUS
 62
     7
100
AcDbVertex
100
AcDb2dVertex
 10
10.008795
 20
159.48296
 30
0.0
  0
VERTEX
  5
AA2
100
AcDbEntity
  8
ALPHA
  6
CONTINUOUS
 62
     7
100
AcDbVertex
100
AcDb2dVertex
 10
9.964316
 20
159.522245
 30
0.0
  0
VERTEX
  5
AA3
100
AcDbEntity
  8
ALPHA
  6
CONTINUOUS
 62
     7
100
AcDbVertex
100
AcDb2dVertex
 10
9.921517
 20
159.558941
 30
0.0
  0
SEQEND
  5
AA4
100
AcDbEntity
  8
ALPHA
 62
     7
  0
LINE
  5
AA5
100
AcDbEntity
  8
ALPHA
  6
CONTINUOUS
 62
     7
100
AcDbLine
 10
9.921517
 20
159.558941
 30
0.0
 11
9.880812
 21
159.592577
 31
0.0
  0
POLYLINE
  5
AA6
100
AcDbEntity
  8
ALPHA
  6
CONTINUOUS
 62
     7
100
AcDb2dPolyline
 66
     1
 10
0.0
 20
0.0
 30
0.0
  0
VERTEX
  5
AA7
100
AcDbEntity
  8
ALPHA
  6
CONTINUOUS
 62
     7
100
AcDbVertex
100
AcDb2dVertex
 10
9.880812
 20
159.592577
 30
0.0
  0
VERTEX
  5
AA8
100
AcDbEntity
  8
ALPHA
  6
CONTINUOUS
 62
     7
100
AcDbVertex
100
AcDb2dVertex
 10
9.842917
 20
159.622407
 30
0.0
  0
VERTEX
  5
AA9
100
AcDbEntity
  8
ALPHA
  6
CONTINUOUS
 62
     7
100
AcDbVertex
100
AcDb2dVertex
 10
9.808693
 20
159.64754
 30
0.0
  0
VERTEX
  5
AAA
100
AcDbEntity
  8
ALPHA
  6
CONTINUOUS
 62
     7
100
AcDbVertex
100
AcDb2dVertex
 10
9.779489
 20
159.666727
 30
0.0
  0
VERTEX
  5
AAB
100
AcDbEntity
  8
ALPHA
  6
CONTINUOUS
 62
     7
100
AcDbVertex
100
AcDb2dVertex
 10
9.756611
 20
159.678831
 30
0.0
  0
VERTEX
  5
AAC
100
AcDbEntity
  8
ALPHA
  6
CONTINUOUS
 62
     7
100
AcDbVertex
100
AcDb2dVertex
 10
9.741271
 20
159.68296
 30
0.0
  0
SEQEND
  5
AAD
100
AcDbEntity
  8
ALPHA
 62
     7
  0
LINE
  5
AAE
100
AcDbEntity
  8
ALPHA
  6
CONTINUOUS
 62
     7
100
AcDbLine
 10
9.741271
 20
162.83296
 30
0.0
 11
10.811083
 21
162.83296
 31
0.0
  0
LINE
  5
AAF
100
AcDbEntity
  8
ALPHA
  6
CONTINUOUS
 62
     7
100
AcDbLine
 10
10.460984
 20
163.030746
 30
0.0
 11
10.219213
 21
163.33296
 31
0.0
  0
POLYLINE
  5
AB0
100
AcDbEntity
  8
ALPHA
  6
CONTINUOUS
 62
     9
100
AcDb2dPolyline
 66
     1
 10
0.0
 20
0.0
 30
0.0
  0
VERTEX
  5
AB1
100
AcDbEntity
  8
ALPHA
  6
CONTINUOUS
 62
     9
100
AcDbVertex
100
AcDb2dVertex
 10
10.644061
 20
171.010499
 30
0.0
  0
VERTEX
  5
AB2
100
AcDbEntity
  8
ALPHA
  6
CONTINUOUS
 62
     9
100
AcDbVertex
100
AcDb2dVertex
 10
10.644885
 20
170.919039
 30
0.0
  0
VERTEX
  5
AB3
100
AcDbEntity
  8
ALPHA
  6
CONTINUOUS
 62
     9
100
AcDbVertex
100
AcDb2dVertex
 10
10.645984
 20
170.816501
 30
0.0
  0
VERTEX
  5
AB4
100
AcDbEntity
  8
ALPHA
  6
CONTINUOUS
 62
     9
100
AcDbVertex
100
AcDb2dVertex
 10
10.647406
 20
170.703621
 30
0.0
  0
VERTEX
  5
AB5
100
AcDbEntity
  8
ALPHA
  6
CONTINUOUS
 62
     9
100
AcDbVertex
100
AcDb2dVertex
 10
10.649205
 20
170.580962
 30
0.0
  0
VERTEX
  5
AB6
100
AcDbEntity
  8
ALPHA
  6
CONTINUOUS
 62
     9
100
AcDbVertex
100
AcDb2dVertex
 10
10.651463
 20
170.447596
 30
0.0
  0
VERTEX
  5
AB7
100
AcDbEntity
  8
ALPHA
  6
CONTINUOUS
 62
     9
100
AcDbVertex
100
AcDb2dVertex
 10
10.654285
 20
170.30217
 30
0.0
  0
VERTEX
  5
AB8
100
AcDbEntity
  8
ALPHA
  6
CONTINUOUS
 62
     9
100
AcDbVertex
100
AcDb2dVertex
 10
10.657801
 20
170.143214
 30
0.0
  0
VERTEX
  5
AB9
100
AcDbEntity
  8
ALPHA
  6
CONTINUOUS
 62
     9
100
AcDbVertex
100
AcDb2dVertex
 10
10.662172
 20
169.969199
 30
0.0
  0
VERTEX
  5
ABA
100
AcDbEntity
  8
ALPHA
  6
CONTINUOUS
 62
     9
100
AcDbVertex
100
AcDb2dVertex
 10
10.667587
 20
169.778712
 30
0.0
  0
VERTEX
  5
ABB
100
AcDbEntity
  8
ALPHA
  6
CONTINUOUS
 62
     9
100
AcDbVertex
100
AcDb2dVertex
 10
10.674249
 20
169.571139
 30
0.0
  0
VERTEX
  5
ABC
100
AcDbEntity
  8
ALPHA
  6
CONTINUOUS
 62
     9
100
AcDbVertex
100
AcDb2dVertex
 10
10.682375
 20
169.346237
 30
0.0
  0
VERTEX
  5
ABD
100
AcDbEntity
  8
ALPHA
  6
CONTINUOUS
 62
     9
100
AcDbVertex
100
AcDb2dVertex
 10
10.692253
 20
169.10287
 30
0.0
  0
VERTEX
  5
ABE
100
AcDbEntity
  8
ALPHA
  6
CONTINUOUS
 62
     9
100
AcDbVertex
100
AcDb2dVertex
 10
10.704215
 20
168.840034
 30
0.0
  0
VERTEX
  5
ABF
100
AcDbEntity
  8
ALPHA
  6
CONTINUOUS
 62
     9
100
AcDbVertex
100
AcDb2dVertex
 10
10.718665
 20
168.556549
 30
0.0
  0
VERTEX
  5
AC0
100
AcDbEntity
  8
ALPHA
  6
CONTINUOUS
 62
     9
100
AcDbVertex
100
AcDb2dVertex
 10
10.736154
 20
168.250097
 30
0.0
  0
VERTEX
  5
AC1
100
AcDbEntity
  8
ALPHA
  6
CONTINUOUS
 62
     9
100
AcDbVertex
100
AcDb2dVertex
 10
10.757369
 20
167.918215
 30
0.0
  0
VERTEX
  5
AC2
100
AcDbEntity
  8
ALPHA
  6
CONTINUOUS
 62
     9
100
AcDbVertex
100
AcDb2dVertex
 10
10.782375
 20
167.569529
 30
0.0
  0
SEQEND
  5
AC3
100
AcDbEntity
  8
ALPHA
 62
     9
  0
POLYLINE
  5
AC4
100
AcDbEntity
  8
ALPHA
  6
CONTINUOUS
 62
     9
100
AcDb2dPolyline
 66
     1
 10
0.0
 20
0.0
 30
0.0
  0
VERTEX
  5
AC5
100
AcDbEntity
  8
ALPHA
  6
CONTINUOUS
 62
     9
100
AcDbVertex
100
AcDb2dVertex
 10
10.834452
 20
170.930095
 30
0.0
  0
VERTEX
  5
AC6
100
AcDbEntity
  8
ALPHA
  6
CONTINUOUS
 62
     9
100
AcDbVertex
100
AcDb2dVertex
 10
10.835528
 20
170.829574
 30
0.0
  0
VERTEX
  5
AC7
100
AcDbEntity
  8
ALPHA
  6
CONTINUOUS
 62
     9
100
AcDbVertex
100
AcDb2dVertex
 10
10.83692
 20
170.71891
 30
0.0
  0
VERTEX
  5
AC8
100
AcDbEntity
  8
ALPHA
  6
CONTINUOUS
 62
     9
100
AcDbVertex
100
AcDb2dVertex
 10
10.838683
 20
170.598656
 30
0.0
  0
VERTEX
  5
AC9
100
AcDbEntity
  8
ALPHA
  6
CONTINUOUS
 62
     9
100
AcDbVertex
100
AcDb2dVertex
 10
10.840894
 20
170.467905
 30
0.0
  0
VERTEX
  5
ACA
100
AcDbEntity
  8
ALPHA
  6
CONTINUOUS
 62
     9
100
AcDbVertex
100
AcDb2dVertex
 10
10.843658
 20
170.325332
 30
0.0
  0
VERTEX
  5
ACB
100
AcDbEntity
  8
ALPHA
  6
CONTINUOUS
 62
     9
100
AcDbVertex
100
AcDb2dVertex
 10
10.847101
 20
170.169494
 30
0.0
  0
VERTEX
  5
ACC
100
AcDbEntity
  8
ALPHA
  6
CONTINUOUS
 62
     9
100
AcDbVertex
100
AcDb2dVertex
 10
10.851382
 20
169.998893
 30
0.0
  0
VERTEX
  5
ACD
100
AcDbEntity
  8
ALPHA
  6
CONTINUOUS
 62
     9
100
AcDbVertex
100
AcDb2dVertex
 10
10.856686
 20
169.812144
 30
0.0
  0
VERTEX
  5
ACE
100
AcDbEntity
  8
ALPHA
  6
CONTINUOUS
 62
     9
100
AcDbVertex
100
AcDb2dVertex
 10
10.86321
 20
169.608643
 30
0.0
  0
VERTEX
  5
ACF
100
AcDbEntity
  8
ALPHA
  6
CONTINUOUS
 62
     9
100
AcDbVertex
100
AcDb2dVertex
 10
10.871169
 20
169.388153
 30
0.0
  0
VERTEX
  5
AD0
100
AcDbEntity
  8
ALPHA
  6
CONTINUOUS
 62
     9
100
AcDbVertex
100
AcDb2dVertex
 10
10.880843
 20
169.149561
 30
0.0
  0
VERTEX
  5
AD1
100
AcDbEntity
  8
ALPHA
  6
CONTINUOUS
 62
     9
100
AcDbVertex
100
AcDb2dVertex
 10
10.892559
 20
168.891882
 30
0.0
  0
VERTEX
  5
AD2
100
AcDbEntity
  8
ALPHA
  6
CONTINUOUS
 62
     9
100
AcDbVertex
100
AcDb2dVertex
 10
10.906711
 20
168.61396
 30
0.0
  0
VERTEX
  5
AD3
100
AcDbEntity
  8
ALPHA
  6
CONTINUOUS
 62
     9
100
AcDbVertex
100
AcDb2dVertex
 10
10.923838
 20
168.313522
 30
0.0
  0
VERTEX
  5
AD4
100
AcDbEntity
  8
ALPHA
  6
CONTINUOUS
 62
     9
100
AcDbVertex
100
AcDb2dVertex
 10
10.944617
 20
167.988153
 30
0.0
  0
VERTEX
  5
AD5
100
AcDbEntity
  8
ALPHA
  6
CONTINUOUS
 62
     9
100
AcDbVertex
100
AcDb2dVertex
 10
10.969815
 20
167.63641
 30
0.0
  0
VERTEX
  5
AD6
100
AcDbEntity
  8
ALPHA
  6
CONTINUOUS
 62
     9
100
AcDbVertex
100
AcDb2dVertex
 10
11.000314
 20
167.257707
 30
0.0
  0
SEQEND
  5
AD7
100
AcDbEntity
  8
ALPHA
 62
     9
  0
LINE
  5
AD8
100
AcDbEntity
  8
ALPHA
  6
CONTINUOUS
 62
     7
100
AcDbLine
 10
10.3743
 20
169.558958
 30
0.0
 11
10.427566
 21
169.047434
 31
0.0
  0
POLYLINE
  5
AD9
100
AcDbEntity
  8
ALPHA
  6
CONTINUOUS
 62
     9
100
AcDb2dPolyline
 66
     1
 10
0.0
 20
0.0
 30
0.0
  0
VERTEX
  5
ADA
100
AcDbEntity
  8
ALPHA
  6
CONTINUOUS
 62
     9
100
AcDbVertex
100
AcDb2dVertex
 10
11.000314
 20
167.257707
 30
0.0
  0
VERTEX
  5
ADB
100
AcDbEntity
  8
ALPHA
  6
CONTINUOUS
 62
     9
100
AcDbVertex
100
AcDb2dVertex
 10
10.914461
 20
167.241155
 30
0.0
  0
VERTEX
  5
ADC
100
AcDbEntity
  8
ALPHA
  6
CONTINUOUS
 62
     9
100
AcDbVertex
100
AcDb2dVertex
 10
10.847989
 20
167.210967
 30
0.0
  0
VERTEX
  5
ADD
100
AcDbEntity
  8
ALPHA
  6
CONTINUOUS
 62
     9
100
AcDbVertex
100
AcDb2dVertex
 10
10.814235
 20
167.173202
 30
0.0
  0
SEQEND
  5
ADE
100
AcDbEntity
  8
ALPHA
 62
     9
  0
LINE
  5
ADF
100
AcDbEntity
  8
ALPHA
  6
CONTINUOUS
 62
     9
100
AcDbLine
 10
9.741271
 20
167.088679
 30
0.0
 11
10.233515
 21
167.088679
 31
0.0
  0
LINE
  5
AE0
100
AcDbEntity
  8
ALPHA
  6
CONTINUOUS
 62
     9
100
AcDbLine
 10
11.016212
 20
167.04507
 30
0.0
 11
10.819409
 21
167.04507
 31
0.0
  0
LINE
  5
AE1
100
AcDbEntity
  8
ALPHA
  6
CONTINUOUS
 62
     7
100
AcDbLine
 10
9.741271
 20
167.03296
 30
0.0
 11
10.811083
 21
167.03296
 31
0.0
  0
LINE
  5
AE2
100
AcDbEntity
  8
ALPHA
  6
CONTINUOUS
 62
     9
100
AcDbLine
 10
9.583968
 20
167.695218
 30
0.0
 11
10.03073
 21
167.919724
 31
0.0
  0
LINE
  5
AE3
100
AcDbEntity
  8
ALPHA
  6
CONTINUOUS
 62
     7
100
AcDbLine
 10
10.460984
 20
166.835174
 30
0.0
 11
10.219213
 21
166.53296
 31
0.0
  0
POLYLINE
  5
AE4
100
AcDbEntity
  8
ALPHA
  6
CONTINUOUS
 62
     7
100
AcDb2dPolyline
 66
     1
 10
0.0
 20
0.0
 30
0.0
  0
VERTEX
  5
AE5
100
AcDbEntity
  8
ALPHA
  6
CONTINUOUS
 62
     7
100
AcDbVertex
100
AcDb2dVertex
 10
10.427566
 20
169.047434
 30
0.0
  0
VERTEX
  5
AE6
100
AcDbEntity
  8
ALPHA
  6
CONTINUOUS
 62
     7
100
AcDbVertex
100
AcDb2dVertex
 10
10.493826
 20
168.5862
 30
0.0
  0
VERTEX
  5
AE7
100
AcDbEntity
  8
ALPHA
  6
CONTINUOUS
 62
     7
100
AcDbVertex
100
AcDb2dVertex
 10
10.573235
 20
168.180755
 30
0.0
  0
VERTEX
  5
AE8
100
AcDbEntity
  8
ALPHA
  6
CONTINUOUS
 62
     7
100
AcDbVertex
100
AcDb2dVertex
 10
10.66686
 20
167.837443
 30
0.0
  0
VERTEX
  5
AE9
100
AcDbEntity
  8
ALPHA
  6
CONTINUOUS
 62
     7
100
AcDbVertex
100
AcDb2dVertex
 10
10.775875
 20
167.569063
 30
0.0
  0
SEQEND
  5
AEA
100
AcDbEntity
  8
ALPHA
 62
     7
  0
POLYLINE
  5
AEB
100
AcDbEntity
  8
ALPHA
  6
CONTINUOUS
 62
     9
100
AcDb2dPolyline
 66
     1
 10
0.0
 20
0.0
 30
0.0
  0
VERTEX
  5
AEC
100
AcDbEntity
  8
ALPHA
  6
CONTINUOUS
 62
     9
100
AcDbVertex
100
AcDb2dVertex
 10
9.516319
 20
167.85411
 30
0.0
  0
VERTEX
  5
AED
100
AcDbEntity
  8
ALPHA
  6
CONTINUOUS
 62
     9
100
AcDbVertex
100
AcDb2dVertex
 10
9.62273
 20
167.418786
 30
0.0
  0
VERTEX
  5
AEE
100
AcDbEntity
  8
ALPHA
  6
CONTINUOUS
 62
     9
100
AcDbVertex
100
AcDb2dVertex
 10
9.741271
 20
167.088679
 30
0.0
  0
SEQEND
  5
AEF
100
AcDbEntity
  8
ALPHA
 62
     9
  0
POLYLINE
  5
AF0
100
AcDbEntity
  8
ALPHA
  6
CONTINUOUS
 62
     7
100
AcDb2dPolyline
 66
     1
 10
0.0
 20
0.0
 30
0.0
  0
VERTEX
  5
AF1
100
AcDbEntity
  8
ALPHA
  6
CONTINUOUS
 62
     7
100
AcDbVertex
100
AcDb2dVertex
 10
10.775875
 20
167.569063
 30
0.0
  0
VERTEX
  5
AF2
100
AcDbEntity
  8
ALPHA
  6
CONTINUOUS
 62
     7
100
AcDbVertex
100
AcDb2dVertex
 10
10.783944
 20
167.543827
 30
0.0
  0
VERTEX
  5
AF3
100
AcDbEntity
  8
ALPHA
  6
CONTINUOUS
 62
     7
100
AcDbVertex
100
AcDb2dVertex
 10
10.791291
 20
167.502616
 30
0.0
  0
VERTEX
  5
AF4
100
AcDbEntity
  8
ALPHA
  6
CONTINUOUS
 62
     7
100
AcDbVertex
100
AcDb2dVertex
 10
10.797599
 20
167.449867
 30
0.0
  0
VERTEX
  5
AF5
100
AcDbEntity
  8
ALPHA
  6
CONTINUOUS
 62
     7
100
AcDbVertex
100
AcDb2dVertex
 10
10.802844
 20
167.387905
 30
0.0
  0
VERTEX
  5
AF6
100
AcDbEntity
  8
ALPHA
  6
CONTINUOUS
 62
     7
100
AcDbVertex
100
AcDb2dVertex
 10
10.807051
 20
167.316131
 30
0.0
  0
VERTEX
  5
AF7
100
AcDbEntity
  8
ALPHA
  6
CONTINUOUS
 62
     7
100
AcDbVertex
100
AcDb2dVertex
 10
10.809953
 20
167.234836
 30
0.0
  0
VERTEX
  5
AF8
100
AcDbEntity
  8
ALPHA
  6
CONTINUOUS
 62
     7
100
AcDbVertex
100
AcDb2dVertex
 10
10.811083
 20
167.143929
 30
0.0
  0
SEQEND
  5
AF9
100
AcDbEntity
  8
ALPHA
 62
     7
  0
LINE
  5
AFA
100
AcDbEntity
  8
ALPHA
  6
CONTINUOUS
 62
     7
100
AcDbLine
 10
9.64483
 20
167.556971
 30
0.0
 11
9.64446
 21
167.557944
 31
0.0
  0
POLYLINE
  5
AFB
100
AcDbEntity
  8
ALPHA
  6
CONTINUOUS
 62
     7
100
AcDb2dPolyline
 66
     1
 10
0.0
 20
0.0
 30
0.0
  0
VERTEX
  5
AFC
100
AcDbEntity
  8
ALPHA
  6
CONTINUOUS
 62
     7
100
AcDbVertex
100
AcDb2dVertex
 10
9.583965
 20
167.695217
 30
0.0
  0
VERTEX
  5
AFD
100
AcDbEntity
  8
ALPHA
  6
CONTINUOUS
 62
     7
100
AcDbVertex
100
AcDb2dVertex
 10
9.602882
 20
167.65617
 30
0.0
  0
VERTEX
  5
AFE
100
AcDbEntity
  8
ALPHA
  6
CONTINUOUS
 62
     7
100
AcDbVertex
100
AcDb2dVertex
 10
9.644826
 20
167.556982
 30
0.0
  0
SEQEND
  5
AFF
100
AcDbEntity
  8
ALPHA
 62
     7
  0
LINE
  5
B00
100
AcDbEntity
  8
ALPHA
  6
CONTINUOUS
 62
     7
100
AcDbLine
 10
10.811083
 20
167.03296
 30
0.0
 11
10.811083
 21
167.143929
 31
0.0
  0
LINE
  5
B01
100
AcDbEntity
  8
ALPHA
  6
CONTINUOUS
 62
     9
100
AcDbLine
 10
10.818825
 20
167.089181
 30
0.0
 11
10.819409
 21
167.04507
 31
0.0
  0
LINE
  5
B02
100
AcDbEntity
  8
ALPHA
  6
CONTINUOUS
 62
     9
100
AcDbLine
 10
10.817101
 20
167.131966
 30
0.0
 11
10.818825
 21
167.089181
 31
0.0
  0
LINE
  5
B03
100
AcDbEntity
  8
ALPHA
  6
CONTINUOUS
 62
     9
100
AcDbLine
 10
10.814235
 20
167.173202
 30
0.0
 11
10.817101
 21
167.131966
 31
0.0
  0
POLYLINE
  5
B04
100
AcDbEntity
  8
ALPHA
  6
CONTINUOUS
 62
     9
100
AcDb2dPolyline
 66
     1
 10
0.0
 20
0.0
 30
0.0
  0
VERTEX
  5
B05
100
AcDbEntity
  8
ALPHA
  6
CONTINUOUS
 62
     9
100
AcDbVertex
100
AcDb2dVertex
 10
10.233515
 20
167.088679
 30
0.0
  0
VERTEX
  5
B06
100
AcDbEntity
  8
ALPHA
  6
CONTINUOUS
 62
     9
100
AcDbVertex
100
AcDb2dVertex
 10
10.211765
 20
167.362474
 30
0.0
  0
VERTEX
  5
B07
100
AcDbEntity
  8
ALPHA
  6
CONTINUOUS
 62
     9
100
AcDbVertex
100
AcDb2dVertex
 10
10.144372
 20
167.643124
 30
0.0
  0
VERTEX
  5
B08
100
AcDbEntity
  8
ALPHA
  6
CONTINUOUS
 62
     9
100
AcDbVertex
100
AcDb2dVertex
 10
10.03073
 20
167.919724
 30
0.0
  0
SEQEND
  5
B09
100
AcDbEntity
  8
ALPHA
 62
     9
  0
POLYLINE
  5
B0A
100
AcDbEntity
  8
ALPHA
  6
CONTINUOUS
 62
     9
100
AcDb2dPolyline
 66
     1
 10
0.0
 20
0.0
 30
0.0
  0
VERTEX
  5
B0B
100
AcDbEntity
  8
ALPHA
  6
CONTINUOUS
 62
     9
100
AcDbVertex
100
AcDb2dVertex
 10
11.000314
 20
167.257707
 30
0.0
  0
VERTEX
  5
B0C
100
AcDbEntity
  8
ALPHA
  6
CONTINUOUS
 62
     9
100
AcDbVertex
100
AcDb2dVertex
 10
11.006673
 20
167.189188
 30
0.0
  0
VERTEX
  5
B0D
100
AcDbEntity
  8
ALPHA
  6
CONTINUOUS
 62
     9
100
AcDbVertex
100
AcDb2dVertex
 10
11.011986
 20
167.118196
 30
0.0
  0
VERTEX
  5
B0E
100
AcDbEntity
  8
ALPHA
  6
CONTINUOUS
 62
     9
100
AcDbVertex
100
AcDb2dVertex
 10
11.016212
 20
167.04507
 30
0.0
  0
SEQEND
  5
B0F
100
AcDbEntity
  8
ALPHA
 62
     9
  0
LINE
  5
B10
100
AcDbEntity
  8
ALPHA
  6
CONTINUOUS
 62
     9
100
AcDbLine
 10
9.515381
 20
167.859516
 30
0.0
 11
9.516319
 21
167.85411
 31
0.0
  0
LINE
  5
B11
100
AcDbEntity
  8
ALPHA
  6
CONTINUOUS
 62
     9
100
AcDbLine
 10
10.233515
 20
167.03296
 30
0.0
 11
10.233515
 21
167.088679
 31
0.0
  0
LINE
  5
B12
100
AcDbEntity
  8
ALPHA
  6
CONTINUOUS
 62
     9
100
AcDbLine
 10
9.741271
 20
167.03296
 30
0.0
 11
9.741271
 21
167.088679
 31
0.0
  0
POLYLINE
  5
B13
100
AcDbEntity
  8
ALPHA
  6
CONTINUOUS
 62
     9
100
AcDb2dPolyline
 66
     1
 10
0.0
 20
0.0
 30
0.0
  0
VERTEX
  5
B14
100
AcDbEntity
  8
ALPHA
  6
CONTINUOUS
 62
     9
100
AcDbVertex
100
AcDb2dVertex
 10
9.741263
 20
167.088679
 30
0.0
  0
VERTEX
  5
B15
100
AcDbEntity
  8
ALPHA
  6
CONTINUOUS
 62
     9
100
AcDbVertex
100
AcDb2dVertex
 10
9.720788
 20
167.285151
 30
0.0
  0
VERTEX
  5
B16
100
AcDbEntity
  8
ALPHA
  6
CONTINUOUS
 62
     9
100
AcDbVertex
100
AcDb2dVertex
 10
9.668892
 20
167.489144
 30
0.0
  0
VERTEX
  5
B17
100
AcDbEntity
  8
ALPHA
  6
CONTINUOUS
 62
     9
100
AcDbVertex
100
AcDb2dVertex
 10
9.64483
 20
167.556971
 30
0.0
  0
SEQEND
  5
B18
100
AcDbEntity
  8
ALPHA
 62
     9
  0
LINE
  5
B19
100
AcDbEntity
  8
ALPHA
  6
CONTINUOUS
 62
     9
100
AcDbLine
 10
10.83296
 20
171.853555
 30
0.0
 11
10.832184
 21
171.705787
 31
0.0
  0
LINE
  5
B1A
100
AcDbEntity
  8
ALPHA
  6
CONTINUOUS
 62
     9
100
AcDbLine
 10
10.642913
 20
171.78497
 30
0.0
 11
10.642321
 21
171.634749
 31
0.0
  0
LINE
  5
B1B
100
AcDbEntity
  8
ALPHA
  6
CONTINUOUS
 62
     9
100
AcDbLine
 10
10.832184
 20
171.705787
 30
0.0
 11
10.83179
 21
171.555087
 31
0.0
  0
LINE
  5
B1C
100
AcDbEntity
  8
ALPHA
  6
CONTINUOUS
 62
     9
100
AcDbLine
 10
10.642321
 20
171.634749
 30
0.0
 11
10.642121
 21
171.474894
 31
0.0
  0
LINE
  5
B1D
100
AcDbEntity
  8
ALPHA
  6
CONTINUOUS
 62
     9
100
AcDbLine
 10
10.83179
 20
171.555087
 30
0.0
 11
10.831811
 21
171.395841
 31
0.0
  0
LINE
  5
B1E
100
AcDbEntity
  8
ALPHA
  6
CONTINUOUS
 62
     9
100
AcDbLine
 10
10.642121
 20
171.474894
 30
0.0
 11
10.642359
 21
171.317488
 31
0.0
  0
LINE
  5
B1F
100
AcDbEntity
  8
ALPHA
  6
CONTINUOUS
 62
     9
100
AcDbLine
 10
10.831811
 20
171.395841
 30
0.0
 11
10.832233
 21
171.247937
 31
0.0
  0
LINE
  5
B20
100
AcDbEntity
  8
ALPHA
  6
CONTINUOUS
 62
     9
100
AcDbLine
 10
10.642359
 20
171.317488
 30
0.0
 11
10.642976
 21
171.169131
 31
0.0
  0
LINE
  5
B21
100
AcDbEntity
  8
ALPHA
  6
CONTINUOUS
 62
     9
100
AcDbLine
 10
10.832233
 20
171.247937
 30
0.0
 11
10.83304
 21
171.100334
 31
0.0
  0
LINE
  5
B22
100
AcDbEntity
  8
ALPHA
  6
CONTINUOUS
 62
     9
100
AcDbLine
 10
10.642976
 20
171.169131
 30
0.0
 11
10.644061
 21
171.010499
 31
0.0
  0
LINE
  5
B23
100
AcDbEntity
  8
ALPHA
  6
CONTINUOUS
 62
     9
100
AcDbLine
 10
10.83304
 20
171.100334
 30
0.0
 11
10.834452
 21
170.930095
 31
0.0
  0
LINE
  5
B24
100
AcDbEntity
  8
ALPHA
  6
CONTINUOUS
 62
     7
100
AcDbLine
 10
8.036294
 20
183.48296
 30
0.0
 11
11.016212
 21
183.48296
 31
0.0
  0
LINE
  5
B25
100
AcDbEntity
  8
ALPHA
  6
CONTINUOUS
 62
     7
100
AcDbLine
 10
8.255826
 20
183.38296
 30
0.0
 11
10.811083
 21
183.38296
 31
0.0
  0
LINE
  5
B26
100
AcDbEntity
  8
ALPHA
  6
CONTINUOUS
 62
     7
100
AcDbLine
 10
8.060215
 20
183.18296
 30
0.0
 11
9.741271
 21
183.18296
 31
0.0
  0
LINE
  5
B27
100
AcDbEntity
  8
ALPHA
  6
CONTINUOUS
 62
     7
100
AcDbLine
 10
6.59511
 20
183.58296
 30
0.0
 11
6.59511
 21
186.73296
 31
0.0
  0
LINE
  5
B28
100
AcDbEntity
  8
ALPHA
  6
CONTINUOUS
 62
     7
100
AcDbLine
 10
6.595115
 20
183.58296
 30
0.0
 11
7.397746
 21
183.58296
 31
0.0
  0
LINE
  5
B29
100
AcDbEntity
  8
ALPHA
  6
CONTINUOUS
 62
     7
100
AcDbLine
 10
9.043365
 20
183.48296
 30
0.0
 11
9.043365
 21
183.38296
 31
0.0
  0
LINE
  5
B2A
100
AcDbEntity
  8
ALPHA
  6
CONTINUOUS
 62
     7
100
AcDbLine
 10
8.103319
 20
183.231534
 30
0.0
 11
8.255826
 21
183.38296
 31
0.0
  0
LINE
  5
B2B
100
AcDbEntity
  8
ALPHA
  6
CONTINUOUS
 62
     7
100
AcDbLine
 10
8.060215
 20
183.18296
 30
0.0
 11
8.103319
 21
183.231534
 31
0.0
  0
LINE
  5
B2C
100
AcDbEntity
  8
ALPHA
  6
CONTINUOUS
 62
     7
100
AcDbLine
 10
7.808834
 20
186.83296
 30
0.0
 11
6.63902
 21
186.83296
 31
0.0
  0
LINE
  5
B2D
100
AcDbEntity
  8
ALPHA
  6
CONTINUOUS
 62
     7
100
AcDbLine
 10
6.595125
 20
186.73296
 30
0.0
 11
7.808834
 21
186.73296
 31
0.0
  0
LINE
  5
B2E
100
AcDbEntity
  8
ALPHA
  6
CONTINUOUS
 62
     9
100
AcDbLine
 10
11.016212
 20
183.48296
 30
0.0
 11
11.016212
 21
175.920849
 31
0.0
  0
LINE
  5
B2F
100
AcDbEntity
  8
ALPHA
  6
CONTINUOUS
 62
     9
100
AcDbLine
 10
10.819409
 20
183.48296
 30
0.0
 11
10.819409
 21
175.920849
 31
0.0
  0
LINE
  5
B30
100
AcDbEntity
  8
ALPHA
  6
CONTINUOUS
 62
     7
100
AcDbLine
 10
10.811083
 20
175.721991
 30
0.0
 11
10.811083
 21
183.38296
 31
0.0
  0
LINE
  5
B31
100
AcDbEntity
  8
ALPHA
  6
CONTINUOUS
 62
     9
100
AcDbLine
 10
10.233515
 20
175.777241
 30
0.0
 11
10.233515
 21
183.38296
 31
0.0
  0
LINE
  5
B32
100
AcDbEntity
  8
ALPHA
  6
CONTINUOUS
 62
     9
100
AcDbLine
 10
9.741271
 20
175.777241
 30
0.0
 11
9.741271
 21
183.18296
 31
0.0
  0
LINE
  5
B33
100
AcDbEntity
  8
ALPHA
  6
CONTINUOUS
 62
     9
100
AcDbLine
 10
11.016212
 20
175.920849
 30
0.0
 11
10.819409
 21
175.920849
 31
0.0
  0
LINE
  5
B34
100
AcDbEntity
  8
ALPHA
  6
CONTINUOUS
 62
     9
100
AcDbLine
 10
9.741271
 20
175.777241
 30
0.0
 11
10.233515
 21
175.777241
 31
0.0
  0
POLYLINE
  5
B35
100
AcDbEntity
  8
ALPHA
  6
CONTINUOUS
 62
     9
100
AcDb2dPolyline
 66
     1
 10
0.0
 20
0.0
 30
0.0
  0
VERTEX
  5
B36
100
AcDbEntity
  8
ALPHA
  6
CONTINUOUS
 62
     9
100
AcDbVertex
100
AcDb2dVertex
 10
11.000314
 20
175.708213
 30
0.0
  0
VERTEX
  5
B37
100
AcDbEntity
  8
ALPHA
  6
CONTINUOUS
 62
     9
100
AcDbVertex
100
AcDb2dVertex
 10
10.914461
 20
175.724765
 30
0.0
  0
VERTEX
  5
B38
100
AcDbEntity
  8
ALPHA
  6
CONTINUOUS
 62
     9
100
AcDbVertex
100
AcDb2dVertex
 10
10.847989
 20
175.754952
 30
0.0
  0
SEQEND
  5
B39
100
AcDbEntity
  8
ALPHA
 62
     9
  0
LINE
  5
B3A
100
AcDbEntity
  8
ALPHA
  6
CONTINUOUS
 62
     9
100
AcDbLine
 10
9.583965
 20
175.170703
 30
0.0
 11
10.03073
 21
174.946195
 31
0.0
  0
LINE
  5
B3B
100
AcDbEntity
  8
ALPHA
  6
CONTINUOUS
 62
     9
100
AcDbLine
 10
10.847989
 20
175.754952
 30
0.0
 11
10.814235
 21
175.792718
 31
0.0
  0
POLYLINE
  5
B3C
100
AcDbEntity
  8
ALPHA
  6
CONTINUOUS
 62
     9
100
AcDb2dPolyline
 66
     1
 10
0.0
 20
0.0
 30
0.0
  0
VERTEX
  5
B3D
100
AcDbEntity
  8
ALPHA
  6
CONTINUOUS
 62
     9
100
AcDbVertex
100
AcDb2dVertex
 10
11.016212
 20
175.920849
 30
0.0
  0
VERTEX
  5
B3E
100
AcDbEntity
  8
ALPHA
  6
CONTINUOUS
 62
     9
100
AcDbVertex
100
AcDb2dVertex
 10
11.011986
 20
175.847724
 30
0.0
  0
VERTEX
  5
B3F
100
AcDbEntity
  8
ALPHA
  6
CONTINUOUS
 62
     9
100
AcDbVertex
100
AcDb2dVertex
 10
11.006673
 20
175.776732
 30
0.0
  0
VERTEX
  5
B40
100
AcDbEntity
  8
ALPHA
  6
CONTINUOUS
 62
     9
100
AcDbVertex
100
AcDb2dVertex
 10
11.000314
 20
175.708213
 30
0.0
  0
SEQEND
  5
B41
100
AcDbEntity
  8
ALPHA
 62
     9
  0
POLYLINE
  5
B42
100
AcDbEntity
  8
ALPHA
  6
CONTINUOUS
 62
     9
100
AcDb2dPolyline
 66
     1
 10
0.0
 20
0.0
 30
0.0
  0
VERTEX
  5
B43
100
AcDbEntity
  8
ALPHA
  6
CONTINUOUS
 62
     9
100
AcDbVertex
100
AcDb2dVertex
 10
10.819409
 20
175.920849
 30
0.0
  0
VERTEX
  5
B44
100
AcDbEntity
  8
ALPHA
  6
CONTINUOUS
 62
     9
100
AcDbVertex
100
AcDb2dVertex
 10
10.818825
 20
175.876739
 30
0.0
  0
VERTEX
  5
B45
100
AcDbEntity
  8
ALPHA
  6
CONTINUOUS
 62
     9
100
AcDbVertex
100
AcDb2dVertex
 10
10.817101
 20
175.833954
 30
0.0
  0
VERTEX
  5
B46
100
AcDbEntity
  8
ALPHA
  6
CONTINUOUS
 62
     9
100
AcDbVertex
100
AcDb2dVertex
 10
10.814235
 20
175.792718
 30
0.0
  0
SEQEND
  5
B47
100
AcDbEntity
  8
ALPHA
 62
     9
  0
POLYLINE
  5
B48
100
AcDbEntity
  8
ALPHA
  6
CONTINUOUS
 62
     7
100
AcDb2dPolyline
 66
     1
 10
0.0
 20
0.0
 30
0.0
  0
VERTEX
  5
B49
100
AcDbEntity
  8
ALPHA
  6
CONTINUOUS
 62
     7
100
AcDbVertex
100
AcDb2dVertex
 10
10.811083
 20
175.721991
 30
0.0
  0
VERTEX
  5
B4A
100
AcDbEntity
  8
ALPHA
  6
CONTINUOUS
 62
     7
100
AcDbVertex
100
AcDb2dVertex
 10
10.809953
 20
175.631084
 30
0.0
  0
VERTEX
  5
B4B
100
AcDbEntity
  8
ALPHA
  6
CONTINUOUS
 62
     7
100
AcDbVertex
100
AcDb2dVertex
 10
10.807051
 20
175.549789
 30
0.0
  0
VERTEX
  5
B4C
100
AcDbEntity
  8
ALPHA
  6
CONTINUOUS
 62
     7
100
AcDbVertex
100
AcDb2dVertex
 10
10.802844
 20
175.478015
 30
0.0
  0
VERTEX
  5
B4D
100
AcDbEntity
  8
ALPHA
  6
CONTINUOUS
 62
     7
100
AcDbVertex
100
AcDb2dVertex
 10
10.797599
 20
175.416053
 30
0.0
  0
VERTEX
  5
B4E
100
AcDbEntity
  8
ALPHA
  6
CONTINUOUS
 62
     7
100
AcDbVertex
100
AcDb2dVertex
 10
10.791291
 20
175.363304
 30
0.0
  0
VERTEX
  5
B4F
100
AcDbEntity
  8
ALPHA
  6
CONTINUOUS
 62
     7
100
AcDbVertex
100
AcDb2dVertex
 10
10.783945
 20
175.322093
 30
0.0
  0
VERTEX
  5
B50
100
AcDbEntity
  8
ALPHA
  6
CONTINUOUS
 62
     7
100
AcDbVertex
100
AcDb2dVertex
 10
10.77588
 20
175.296872
 30
0.0
  0
SEQEND
  5
B51
100
AcDbEntity
  8
ALPHA
 62
     7
  0
POLYLINE
  5
B52
100
AcDbEntity
  8
ALPHA
  6
CONTINUOUS
 62
     9
100
AcDb2dPolyline
 66
     1
 10
0.0
 20
0.0
 30
0.0
  0
VERTEX
  5
B53
100
AcDbEntity
  8
ALPHA
  6
CONTINUOUS
 62
     9
100
AcDbVertex
100
AcDb2dVertex
 10
10.03073
 20
174.946195
 30
0.0
  0
VERTEX
  5
B54
100
AcDbEntity
  8
ALPHA
  6
CONTINUOUS
 62
     9
100
AcDbVertex
100
AcDb2dVertex
 10
10.144372
 20
175.222796
 30
0.0
  0
VERTEX
  5
B55
100
AcDbEntity
  8
ALPHA
  6
CONTINUOUS
 62
     9
100
AcDbVertex
100
AcDb2dVertex
 10
10.211765
 20
175.503446
 30
0.0
  0
VERTEX
  5
B56
100
AcDbEntity
  8
ALPHA
  6
CONTINUOUS
 62
     9
100
AcDbVertex
100
AcDb2dVertex
 10
10.233515
 20
175.777241
 30
0.0
  0
SEQEND
  5
B57
100
AcDbEntity
  8
ALPHA
 62
     9
  0
POLYLINE
  5
B58
100
AcDbEntity
  8
ALPHA
  6
CONTINUOUS
 62
     7
100
AcDb2dPolyline
 66
     1
 10
0.0
 20
0.0
 30
0.0
  0
VERTEX
  5
B59
100
AcDbEntity
  8
ALPHA
  6
CONTINUOUS
 62
     7
100
AcDbVertex
100
AcDb2dVertex
 10
10.77588
 20
175.296872
 30
0.0
  0
VERTEX
  5
B5A
100
AcDbEntity
  8
ALPHA
  6
CONTINUOUS
 62
     7
100
AcDbVertex
100
AcDb2dVertex
 10
10.667608
 20
175.030756
 30
0.0
  0
VERTEX
  5
B5B
100
AcDbEntity
  8
ALPHA
  6
CONTINUOUS
 62
     7
100
AcDbVertex
100
AcDb2dVertex
 10
10.574088
 20
174.688873
 30
0.0
  0
VERTEX
  5
B5C
100
AcDbEntity
  8
ALPHA
  6
CONTINUOUS
 62
     7
100
AcDbVertex
100
AcDb2dVertex
 10
10.494423
 20
174.283282
 30
0.0
  0
SEQEND
  5
B5D
100
AcDbEntity
  8
ALPHA
 62
     7
  0
POLYLINE
  5
B5E
100
AcDbEntity
  8
ALPHA
  6
CONTINUOUS
 62
     7
100
AcDb2dPolyline
 66
     1
 10
0.0
 20
0.0
 30
0.0
  0
VERTEX
  5
B5F
100
AcDbEntity
  8
ALPHA
  6
CONTINUOUS
 62
     7
100
AcDbVertex
100
AcDb2dVertex
 10
9.644832
 20
175.308953
 30
0.0
  0
VERTEX
  5
B60
100
AcDbEntity
  8
ALPHA
  6
CONTINUOUS
 62
     7
100
AcDbVertex
100
AcDb2dVertex
 10
9.64104
 20
175.299084
 30
0.0
  0
VERTEX
  5
B61
100
AcDbEntity
  8
ALPHA
  6
CONTINUOUS
 62
     7
100
AcDbVertex
100
AcDb2dVertex
 10
9.601442
 20
175.206672
 30
0.0
  0
VERTEX
  5
B62
100
AcDbEntity
  8
ALPHA
  6
CONTINUOUS
 62
     7
100
AcDbVertex
100
AcDb2dVertex
 10
9.583965
 20
175.170703
 30
0.0
  0
SEQEND
  5
B63
100
AcDbEntity
  8
ALPHA
 62
     7
  0
LINE
  5
B64
100
AcDbEntity
  8
ALPHA
  6
CONTINUOUS
 62
     9
100
AcDbLine
 10
9.741271
 20
175.777241
 30
0.0
 11
9.622395
 21
175.445992
 31
0.0
  0
POLYLINE
  5
B65
100
AcDbEntity
  8
ALPHA
  6
CONTINUOUS
 62
     9
100
AcDb2dPolyline
 66
     1
 10
0.0
 20
0.0
 30
0.0
  0
VERTEX
  5
B66
100
AcDbEntity
  8
ALPHA
  6
CONTINUOUS
 62
     9
100
AcDbVertex
100
AcDb2dVertex
 10
9.644832
 20
175.308953
 30
0.0
  0
VERTEX
  5
B67
100
AcDbEntity
  8
ALPHA
  6
CONTINUOUS
 62
     9
100
AcDbVertex
100
AcDb2dVertex
 10
9.668892
 20
175.376775
 30
0.0
  0
VERTEX
  5
B68
100
AcDbEntity
  8
ALPHA
  6
CONTINUOUS
 62
     9
100
AcDbVertex
100
AcDb2dVertex
 10
9.720788
 20
175.58077
 30
0.0
  0
VERTEX
  5
B69
100
AcDbEntity
  8
ALPHA
  6
CONTINUOUS
 62
     9
100
AcDbVertex
100
AcDb2dVertex
 10
9.741263
 20
175.777241
 30
0.0
  0
SEQEND
  5
B6A
100
AcDbEntity
  8
ALPHA
 62
     9
  0
POLYLINE
  5
B6B
100
AcDbEntity
  8
ALPHA
  6
CONTINUOUS
 62
     9
100
AcDb2dPolyline
 66
     1
 10
0.0
 20
0.0
 30
0.0
  0
VERTEX
  5
B6C
100
AcDbEntity
  8
ALPHA
  6
CONTINUOUS
 62
     9
100
AcDbVertex
100
AcDb2dVertex
 10
9.622395
 20
175.445992
 30
0.0
  0
VERTEX
  5
B6D
100
AcDbEntity
  8
ALPHA
  6
CONTINUOUS
 62
     9
100
AcDbVertex
100
AcDb2dVertex
 10
9.516097
 20
175.010731
 30
0.0
  0
VERTEX
  5
B6E
100
AcDbEntity
  8
ALPHA
  6
CONTINUOUS
 62
     9
100
AcDbVertex
100
AcDb2dVertex
 10
9.51528
 20
175.006013
 30
0.0
  0
SEQEND
  5
B6F
100
AcDbEntity
  8
ALPHA
 62
     9
  0
POLYLINE
  5
B70
100
AcDbEntity
  8
ALPHA
  6
CONTINUOUS
 62
     7
100
AcDb2dPolyline
 66
     1
 10
0.0
 20
0.0
 30
0.0
  0
VERTEX
  5
B71
100
AcDbEntity
  8
ALPHA
  6
CONTINUOUS
 62
     7
100
AcDbVertex
100
AcDb2dVertex
 10
10.494423
 20
174.283282
 30
0.0
  0
VERTEX
  5
B72
100
AcDbEntity
  8
ALPHA
  6
CONTINUOUS
 62
     7
100
AcDbVertex
100
AcDb2dVertex
 10
10.427837
 20
173.820694
 30
0.0
  0
VERTEX
  5
B73
100
AcDbEntity
  8
ALPHA
  6
CONTINUOUS
 62
     7
100
AcDbVertex
100
AcDb2dVertex
 10
10.3743
 20
173.306962
 30
0.0
  0
SEQEND
  5
B74
100
AcDbEntity
  8
ALPHA
 62
     7
  0
LINE
  5
B75
100
AcDbEntity
  8
ALPHA
  6
CONTINUOUS
 62
     9
100
AcDbLine
 10
10.376637
 20
189.38296
 30
0.0
 11
15.289013
 21
189.38296
 31
0.0
  0
LINE
  5
B76
100
AcDbEntity
  8
ALPHA
  6
CONTINUOUS
 62
     9
100
AcDbLine
 10
10.376637
 20
189.38296
 30
0.0
 11
10.376637
 21
183.48296
 31
0.0
  0
POLYLINE
  5
B77
100
AcDbEntity
  8
ALPHA
  6
CONTINUOUS
 62
     7
100
AcDb2dPolyline
 66
     1
 10
0.0
 20
0.0
 30
0.0
  0
VERTEX
  5
B78
100
AcDbEntity
  8
ALPHA
  6
CONTINUOUS
 62
     7
100
AcDbVertex
100
AcDb2dVertex
 10
9.741271
 20
183.18296
 30
0.0
  0
VERTEX
  5
B79
100
AcDbEntity
  8
ALPHA
  6
CONTINUOUS
 62
     7
100
AcDbVertex
100
AcDb2dVertex
 10
9.756629
 20
183.187097
 30
0.0
  0
VERTEX
  5
B7A
100
AcDbEntity
  8
ALPHA
  6
CONTINUOUS
 62
     7
100
AcDbVertex
100
AcDb2dVertex
 10
9.779566
 20
183.199239
 30
0.0
  0
VERTEX
  5
B7B
100
AcDbEntity
  8
ALPHA
  6
CONTINUOUS
 62
     7
100
AcDbVertex
100
AcDb2dVertex
 10
9.808851
 20
183.21849
 30
0.0
  0
VERTEX
  5
B7C
100
AcDbEntity
  8
ALPHA
  6
CONTINUOUS
 62
     7
100
AcDbVertex
100
AcDb2dVertex
 10
9.843129
 20
183.243675
 30
0.0
  0
VERTEX
  5
B7D
100
AcDbEntity
  8
ALPHA
  6
CONTINUOUS
 62
     7
100
AcDbVertex
100
AcDb2dVertex
 10
9.881007
 20
183.2735
 30
0.0
  0
VERTEX
  5
B7E
100
AcDbEntity
  8
ALPHA
  6
CONTINUOUS
 62
     7
100
AcDbVertex
100
AcDb2dVertex
 10
9.92164
 20
183.307082
 30
0.0
  0
VERTEX
  5
B7F
100
AcDbEntity
  8
ALPHA
  6
CONTINUOUS
 62
     7
100
AcDbVertex
100
AcDb2dVertex
 10
9.964357
 20
183.34371
 30
0.0
  0
VERTEX
  5
B80
100
AcDbEntity
  8
ALPHA
  6
CONTINUOUS
 62
     7
100
AcDbVertex
100
AcDb2dVertex
 10
10.008795
 20
183.38296
 30
0.0
  0
SEQEND
  5
B81
100
AcDbEntity
  8
ALPHA
 62
     7
  0
LINE
  5
B82
100
AcDbEntity
  8
ALPHA
  6
CONTINUOUS
 62
     7
100
AcDbLine
 10
30.154884
 20
201.53296
 30
0.0
 11
14.939013
 21
201.53296
 31
0.0
  0
LINE
  5
B83
100
AcDbEntity
  8
ALPHA
  6
CONTINUOUS
 62
     9
100
AcDbLine
 10
30.782582
 20
200.88296
 30
0.0
 11
15.289013
 21
200.88296
 31
0.0
  0
LINE
  5
B84
100
AcDbEntity
  8
ALPHA
  6
CONTINUOUS
 62
     7
100
AcDbLine
 10
6.939013
 20
190.03296
 30
0.0
 11
14.639013
 21
190.03296
 31
0.0
  0
LINE
  5
B85
100
AcDbEntity
  8
ALPHA
  6
CONTINUOUS
 62
     9
100
AcDbLine
 10
6.639013
 20
189.73296
 30
0.0
 11
9.736705
 21
189.73296
 31
0.0
  0
ARC
  5
B86
100
AcDbEntity
  8
ALPHA
  6
CONTINUOUS
 62
     7
100
AcDbCircle
 10
6.939013
 20
189.73296
 30
0.0
 40
0.3
100
AcDbArc
 50
90.0
 51
180.0
  0
LINE
  5
B87
100
AcDbEntity
  8
ALPHA
  6
CONTINUOUS
 62
     7
100
AcDbLine
 10
14.639013
 20
201.23296
 30
0.0
 11
14.639013
 21
190.03296
 31
0.0
  0
POLYLINE
  5
B88
100
AcDbEntity
  8
ALPHA
  6
CONTINUOUS
 62
     7
100
AcDb2dPolyline
 66
     1
 10
0.0
 20
0.0
 30
0.0
  0
VERTEX
  5
B89
100
AcDbEntity
  8
ALPHA
  6
CONTINUOUS
 62
     7
100
AcDbVertex
100
AcDb2dVertex
 10
9.845265
 20
189.914333
 30
0.0
  0
VERTEX
  5
B8A
100
AcDbEntity
  8
ALPHA
  6
CONTINUOUS
 62
     7
100
AcDbVertex
100
AcDb2dVertex
 10
9.795634
 20
189.856936
 30
0.0
  0
VERTEX
  5
B8B
100
AcDbEntity
  8
ALPHA
  6
CONTINUOUS
 62
     7
100
AcDbVertex
100
AcDb2dVertex
 10
9.759573
 20
189.795807
 30
0.0
  0
VERTEX
  5
B8C
100
AcDbEntity
  8
ALPHA
  6
CONTINUOUS
 62
     7
100
AcDbVertex
100
AcDb2dVertex
 10
9.736705
 20
189.73296
 30
0.0
  0
SEQEND
  5
B8D
100
AcDbEntity
  8
ALPHA
 62
     7
  0
POLYLINE
  5
B8E
100
AcDbEntity
  8
ALPHA
  6
CONTINUOUS
 62
     7
100
AcDb2dPolyline
 66
     1
 10
0.0
 20
0.0
 30
0.0
  0
VERTEX
  5
B8F
100
AcDbEntity
  8
ALPHA
  6
CONTINUOUS
 62
     7
100
AcDbVertex
100
AcDb2dVertex
 10
9.845265
 20
189.914333
 30
0.0
  0
VERTEX
  5
B90
100
AcDbEntity
  8
ALPHA
  6
CONTINUOUS
 62
     7
100
AcDbVertex
100
AcDb2dVertex
 10
9.894968
 20
189.980834
 30
0.0
  0
VERTEX
  5
B91
100
AcDbEntity
  8
ALPHA
  6
CONTINUOUS
 62
     7
100
AcDbVertex
100
AcDb2dVertex
 10
9.955631
 20
190.020036
 30
0.0
  0
VERTEX
  5
B92
100
AcDbEntity
  8
ALPHA
  6
CONTINUOUS
 62
     7
100
AcDbVertex
100
AcDb2dVertex
 10
10.021141
 20
190.03296
 30
0.0
  0
SEQEND
  5
B93
100
AcDbEntity
  8
ALPHA
 62
     7
  0
LINE
  5
B94
100
AcDbEntity
  8
ALPHA
  6
CONTINUOUS
 62
     7
100
AcDbLine
 10
15.289013
 20
200.88296
 30
0.0
 11
14.726881
 21
201.445092
 31
0.0
  0
ARC
  5
B95
100
AcDbEntity
  8
ALPHA
  6
CONTINUOUS
 62
     7
100
AcDbCircle
 10
14.939013
 20
201.23296
 30
0.0
 40
0.3
100
AcDbArc
 50
90.0
 51
180.0
  0
LINE
  5
B96
100
AcDbEntity
  8
ALPHA
  6
CONTINUOUS
 62
     9
100
AcDbLine
 10
31.16671
 20
211.88296
 30
0.0
 11
30.782582
 21
200.88296
 31
0.0
  0
LINE
  5
B97
100
AcDbEntity
  8
ALPHA
  6
CONTINUOUS
 62
     7
100
AcDbLine
 10
30.528902
 20
212.24343
 30
0.0
 11
30.154884
 21
201.53296
 31
0.0
  0
LINE
  5
B98
100
AcDbEntity
  8
ALPHA
  6
CONTINUOUS
 62
     7
100
AcDbLine
 10
30.782582
 20
200.88296
 30
0.0
 11
30.154884
 21
201.53296
 31
0.0
  0
ARC
  5
B99
100
AcDbEntity
  8
ALPHA
  6
CONTINUOUS
 62
     7
100
AcDbCircle
 10
30.828719
 20
212.23296
 30
0.0
 40
0.3
100
AcDbArc
 50
90.0
 51
178.0
  0
LINE
  5
B9A
100
AcDbEntity
  8
ALPHA
  6
CONTINUOUS
 62
     7
100
AcDbLine
 10
30.620322
 20
212.448762
 30
0.0
 11
31.16671
 21
211.88296
 31
0.0
  0
LINE
  5
B9B
100
AcDbEntity
  8
ALPHA
  6
CONTINUOUS
 62
     7
100
AcDbLine
 10
58.539013
 20
146.53296
 30
0.0
 11
58.539013
 21
188.53296
 31
0.0
  0
LINE
  5
B9C
100
AcDbEntity
  8
ALPHA
  6
CONTINUOUS
 62
     7
100
AcDbLine
 10
58.039013
 20
188.287664
 30
0.0
 11
58.039013
 21
146.778256
 31
0.0
  0
LINE
  5
B9D
100
AcDbEntity
  8
ALPHA
  6
CONTINUOUS
 62
     7
100
AcDbLine
 10
55.039013
 20
159.03296
 30
0.0
 11
55.039013
 21
151.53296
 31
0.0
  0
LINE
  5
B9E
100
AcDbEntity
  8
ALPHA
  6
CONTINUOUS
 62
     7
100
AcDbLine
 10
54.989013
 20
158.78296
 30
0.0
 11
54.989013
 21
151.78296
 31
0.0
  0
LINE
  5
B9F
100
AcDbEntity
  8
ALPHA
  6
CONTINUOUS
 62
     7
100
AcDbLine
 10
53.874653
 20
151.78296
 30
0.0
 11
53.874653
 21
158.78296
 31
0.0
  0
LINE
  5
BA0
100
AcDbEntity
  8
ALPHA
  6
CONTINUOUS
 62
     7
100
AcDbLine
 10
52.489013
 20
151.78296
 30
0.0
 11
52.489013
 21
158.78296
 31
0.0
  0
LINE
  5
BA1
100
AcDbEntity
  8
ALPHA
  6
CONTINUOUS
 62
     7
100
AcDbLine
 10
52.239013
 20
151.53296
 30
0.0
 11
52.239013
 21
159.03296
 31
0.0
  0
LINE
  5
BA2
100
AcDbEntity
  8
ALPHA
  6
CONTINUOUS
 62
     7
100
AcDbLine
 10
64.039013
 20
122.53296
 30
0.0
 11
64.039013
 21
148.929112
 31
0.0
  0
LINE
  5
BA3
100
AcDbEntity
  8
ALPHA
  6
CONTINUOUS
 62
     7
100
AcDbLine
 10
51.539013
 20
122.53296
 30
0.0
 11
51.539013
 21
144.787664
 31
0.0
  0
LINE
  5
BA4
100
AcDbEntity
  8
ALPHA
  6
CONTINUOUS
 62
     7
100
AcDbLine
 10
51.039013
 20
122.53296
 30
0.0
 11
51.039013
 21
145.03296
 31
0.0
  0
LINE
  5
BA5
100
AcDbEntity
  8
ALPHA
  6
CONTINUOUS
 62
     9
100
AcDbLine
 10
51.539013
 20
123.33296
 30
0.0
 11
64.039013
 21
123.33296
 31
0.0
  0
LINE
  5
BA6
100
AcDbEntity
  8
ALPHA
  6
CONTINUOUS
 62
     7
100
AcDbLine
 10
51.539013
 20
122.53296
 30
0.0
 11
64.039013
 21
122.53296
 31
0.0
  0
LINE
  5
BA7
100
AcDbEntity
  8
ALPHA
  6
CONTINUOUS
 62
     7
100
AcDbLine
 10
51.539013
 20
123.33296
 30
0.0
 11
51.039013
 21
123.33296
 31
0.0
  0
LINE
  5
BA8
100
AcDbEntity
  8
ALPHA
  6
CONTINUOUS
 62
     7
100
AcDbLine
 10
60.43691
 20
113.864556
 30
0.0
 11
61.889013
 21
117.854176
 31
0.0
  0
LINE
  5
BA9
100
AcDbEntity
  8
ALPHA
  6
CONTINUOUS
 62
     9
100
AcDbLine
 10
60.904118
 20
115.73296
 30
0.0
 11
61.689013
 21
117.889441
 31
0.0
  0
LINE
  5
BAA
100
AcDbEntity
  8
ALPHA
  6
CONTINUOUS
 62
     7
100
AcDbLine
 10
63.539013
 20
122.53296
 30
0.0
 11
63.539013
 21
113.93296
 31
0.0
  0
LINE
  5
BAB
100
AcDbEntity
  8
ALPHA
  6
CONTINUOUS
 62
     9
100
AcDbLine
 10
63.339013
 20
122.53296
 30
0.0
 11
63.339013
 21
113.73296
 31
0.0
  0
LINE
  5
BAC
100
AcDbEntity
  8
ALPHA
  6
CONTINUOUS
 62
     9
100
AcDbLine
 10
59.039013
 20
113.73296
 30
0.0
 11
59.039013
 21
122.53296
 31
0.0
  0
LINE
  5
BAD
100
AcDbEntity
  8
ALPHA
  6
CONTINUOUS
 62
     7
100
AcDbLine
 10
58.539013
 20
114.23296
 30
0.0
 11
58.539013
 21
122.53296
 31
0.0
  0
LINE
  5
BAE
100
AcDbEntity
  8
ALPHA
  6
CONTINUOUS
 62
     9
100
AcDbLine
 10
61.116953
 20
115.73296
 30
0.0
 11
63.539013
 21
115.73296
 31
0.0
  0
LINE
  5
BAF
100
AcDbEntity
  8
ALPHA
  6
CONTINUOUS
 62
     7
100
AcDbLine
 10
63.339013
 20
113.73296
 30
0.0
 11
59.039013
 21
113.73296
 31
0.0
  0
ARC
  5
BB0
100
AcDbEntity
  8
ALPHA
  6
CONTINUOUS
 62
     7
100
AcDbCircle
 10
59.039013
 20
114.23296
 30
0.0
 40
0.5
100
AcDbArc
 50
180.0
 51
270.0
  0
LINE
  5
BB1
100
AcDbEntity
  8
ALPHA
  6
CONTINUOUS
 62
     9
100
AcDbLine
 10
58.539013
 20
115.73296
 30
0.0
 11
60.904118
 21
115.73296
 31
0.0
  0
ARC
  5
BB2
100
AcDbEntity
  8
ALPHA
  6
CONTINUOUS
 62
     7
100
AcDbCircle
 10
60.248971
 20
113.93296
 30
0.0
 40
0.2
100
AcDbArc
 50
269.999956
 51
339.999871
  0
LINE
  5
BB3
100
AcDbEntity
  8
ALPHA
  6
CONTINUOUS
 62
     9
100
AcDbLine
 10
60.248971
 20
113.73296
 30
0.0
 11
60.904118
 21
115.73296
 31
0.0
  0
LINE
  5
BB4
100
AcDbEntity
  8
ALPHA
  6
CONTINUOUS
 62
     9
100
AcDbLine
 10
60.904118
 20
115.73296
 30
0.0
 11
61.092056
 21
115.664556
 31
0.0
  0
ARC
  5
BB5
100
AcDbEntity
  8
ALPHA
  6
CONTINUOUS
 62
     7
100
AcDbCircle
 10
63.339013
 20
113.93296
 30
0.0
 40
0.2
100
AcDbArc
 50
270.0
 51
0.0
  0
LINE
  5
BB6
100
AcDbEntity
  8
ALPHA
  6
CONTINUOUS
 62
     7
100
AcDbLine
 10
61.889013
 20
117.854176
 30
0.0
 11
61.889013
 21
122.53296
 31
0.0
  0
LINE
  5
BB7
100
AcDbEntity
  8
ALPHA
  6
CONTINUOUS
 62
     9
100
AcDbLine
 10
61.689013
 20
117.889441
 30
0.0
 11
61.689013
 21
122.53296
 31
0.0
  0
LINE
  5
BB8
100
AcDbEntity
  8
ALPHA
  6
CONTINUOUS
 62
     7
100
AcDbLine
 10
61.689013
 20
117.889441
 30
0.0
 11
61.889013
 21
117.854176
 31
0.0
  0
LINE
  5
BB9
100
AcDbEntity
  8
ALPHA
  6
CONTINUOUS
 62
     7
100
AcDbLine
 10
58.039013
 20
146.778256
 30
0.0
 11
51.039013
 21
145.03296
 31
0.0
  0
LINE
  5
BBA
100
AcDbEntity
  8
ALPHA
  6
CONTINUOUS
 62
     7
100
AcDbLine
 10
51.539013
 20
144.787664
 30
0.0
 11
58.539013
 21
146.53296
 31
0.0
  0
LINE
  5
BBB
100
AcDbEntity
  8
ALPHA
  6
CONTINUOUS
 62
     7
100
AcDbLine
 10
54.989013
 20
151.78296
 30
0.0
 11
52.489013
 21
151.78296
 31
0.0
  0
LINE
  5
BBC
100
AcDbEntity
  8
ALPHA
  6
CONTINUOUS
 62
     7
100
AcDbLine
 10
55.039013
 20
151.53296
 30
0.0
 11
52.239013
 21
151.53296
 31
0.0
  0
CIRCLE
  5
BBD
100
AcDbEntity
  8
ALPHA
  6
CONTINUOUS
 62
     7
100
AcDbCircle
 10
61.039013
 20
145.03296
 30
0.0
 40
2.15
  0
CIRCLE
  5
BBE
100
AcDbEntity
  8
ALPHA
  6
CONTINUOUS
 62
     7
100
AcDbCircle
 10
61.039013
 20
145.03296
 30
0.0
 40
1.75
  0
LINE
  5
BBF
100
AcDbEntity
  8
ALPHA
  6
CONTINUOUS
 62
     9
100
AcDbLine
 10
57.939013
 20
146.753323
 30
0.0
 11
57.939013
 21
146.383363
 31
0.0
  0
LINE
  5
BC0
100
AcDbEntity
  8
ALPHA
  6
CONTINUOUS
 62
     7
100
AcDbLine
 10
63.539013
 20
149.94014
 30
0.0
 11
59.914142
 21
152.03296
 31
0.0
  0
LINE
  5
BC1
100
AcDbEntity
  8
ALPHA
  6
CONTINUOUS
 62
     7
100
AcDbLine
 10
64.039013
 20
148.929112
 30
0.0
 11
61.039013
 21
149.73296
 31
0.0
  0
LINE
  5
BC2
100
AcDbEntity
  8
ALPHA
  6
CONTINUOUS
 62
     7
100
AcDbLine
 10
58.539013
 20
150.03296
 30
0.0
 11
59.539013
 21
150.03296
 31
0.0
  0
LINE
  5
BC3
100
AcDbEntity
  8
ALPHA
  6
CONTINUOUS
 62
     7
100
AcDbLine
 10
58.039013
 20
149.73296
 30
0.0
 11
61.039013
 21
149.73296
 31
0.0
  0
LINE
  5
BC4
100
AcDbEntity
  8
ALPHA
  6
CONTINUOUS
 62
     7
100
AcDbLine
 10
59.914142
 20
152.03296
 30
0.0
 11
59.539013
 21
150.63296
 31
0.0
  0
LINE
  5
BC5
100
AcDbEntity
  8
ALPHA
  6
CONTINUOUS
 62
     7
100
AcDbLine
 10
60.939013
 20
151.44125
 30
0.0
 11
60.939013
 21
149.73296
 31
0.0
  0
LINE
  5
BC6
100
AcDbEntity
  8
ALPHA
  6
CONTINUOUS
 62
     7
100
AcDbLine
 10
59.539013
 20
150.63296
 30
0.0
 11
59.539013
 21
150.03296
 31
0.0
  0
LINE
  5
BC7
100
AcDbEntity
  8
ALPHA
  6
CONTINUOUS
 62
     7
100
AcDbLine
 10
63.539013
 20
149.94014
 30
0.0
 11
63.539013
 21
149.063087
 31
0.0
  0
CIRCLE
  5
BC8
100
AcDbEntity
  8
ALPHA
  6
CONTINUOUS
 62
     7
100
AcDbCircle
 10
61.039013
 20
188.03296
 30
0.0
 40
2.15
  0
CIRCLE
  5
BC9
100
AcDbEntity
  8
ALPHA
  6
CONTINUOUS
 62
     7
100
AcDbCircle
 10
61.039013
 20
188.03296
 30
0.0
 40
1.75
  0
LINE
  5
BCA
100
AcDbEntity
  8
ALPHA
  6
CONTINUOUS
 62
     7
100
AcDbLine
 10
64.039013
 20
212.53296
 30
0.0
 11
64.039013
 21
181.53296
 31
0.0
  0
LINE
  5
BCB
100
AcDbEntity
  8
ALPHA
  6
CONTINUOUS
 62
     7
100
AcDbLine
 10
57.539013
 20
188.782288
 30
0.0
 11
57.539013
 21
212.53296
 31
0.0
  0
LINE
  5
BCC
100
AcDbEntity
  8
ALPHA
  6
CONTINUOUS
 62
     7
100
AcDbLine
 10
57.239013
 20
212.53296
 30
0.0
 11
57.239013
 21
188.487126
 31
0.0
  0
LINE
  5
BCD
100
AcDbEntity
  8
ALPHA
  6
CONTINUOUS
 62
     7
100
AcDbLine
 10
52.239013
 20
159.03296
 30
0.0
 11
55.039013
 21
159.03296
 31
0.0
  0
LINE
  5
BCE
100
AcDbEntity
  8
ALPHA
  6
CONTINUOUS
 62
     7
100
AcDbLine
 10
52.489013
 20
158.78296
 30
0.0
 11
54.989013
 21
158.78296
 31
0.0
  0
LINE
  5
BCF
100
AcDbEntity
  8
ALPHA
  6
CONTINUOUS
 62
     7
100
AcDbLine
 10
55.039013
 20
183.53296
 30
0.0
 11
55.039013
 21
176.03296
 31
0.0
  0
LINE
  5
BD0
100
AcDbEntity
  8
ALPHA
  6
CONTINUOUS
 62
     7
100
AcDbLine
 10
54.989013
 20
176.28296
 30
0.0
 11
54.989013
 21
183.28296
 31
0.0
  0
LINE
  5
BD1
100
AcDbEntity
  8
ALPHA
  6
CONTINUOUS
 62
     7
100
AcDbLine
 10
53.874653
 20
183.28296
 30
0.0
 11
53.874653
 21
176.28296
 31
0.0
  0
LINE
  5
BD2
100
AcDbEntity
  8
ALPHA
  6
CONTINUOUS
 62
     7
100
AcDbLine
 10
52.489013
 20
183.28296
 30
0.0
 11
52.489013
 21
176.28296
 31
0.0
  0
LINE
  5
BD3
100
AcDbEntity
  8
ALPHA
  6
CONTINUOUS
 62
     7
100
AcDbLine
 10
52.239013
 20
176.03296
 30
0.0
 11
52.239013
 21
183.53296
 31
0.0
  0
LINE
  5
BD4
100
AcDbEntity
  8
ALPHA
  6
CONTINUOUS
 62
     7
100
AcDbLine
 10
52.489013
 20
176.28296
 30
0.0
 11
54.989013
 21
176.28296
 31
0.0
  0
LINE
  5
BD5
100
AcDbEntity
  8
ALPHA
  6
CONTINUOUS
 62
     7
100
AcDbLine
 10
55.039013
 20
176.03296
 30
0.0
 11
52.239013
 21
176.03296
 31
0.0
  0
LINE
  5
BD6
100
AcDbEntity
  8
ALPHA
  6
CONTINUOUS
 62
     7
100
AcDbLine
 10
52.239013
 20
183.53296
 30
0.0
 11
55.039013
 21
183.53296
 31
0.0
  0
LINE
  5
BD7
100
AcDbEntity
  8
ALPHA
  6
CONTINUOUS
 62
     7
100
AcDbLine
 10
54.989013
 20
183.28296
 30
0.0
 11
52.489013
 21
183.28296
 31
0.0
  0
LINE
  5
BD8
100
AcDbEntity
  8
ALPHA
  6
CONTINUOUS
 62
     7
100
AcDbLine
 10
59.739013
 20
185.03296
 30
0.0
 11
62.189739
 21
181.53296
 31
0.0
  0
LINE
  5
BD9
100
AcDbEntity
  8
ALPHA
  6
CONTINUOUS
 62
     7
100
AcDbLine
 10
64.039013
 20
186.324871
 30
0.0
 11
61.039013
 21
185.23296
 31
0.0
  0
LINE
  5
BDA
100
AcDbEntity
  8
ALPHA
  6
CONTINUOUS
 62
     7
100
AcDbLine
 10
59.039013
 20
184.53296
 30
0.0
 11
58.539013
 21
185.03296
 31
0.0
  0
LINE
  5
BDB
100
AcDbEntity
  8
ALPHA
  6
CONTINUOUS
 62
     7
100
AcDbLine
 10
58.039013
 20
185.23296
 30
0.0
 11
61.039013
 21
185.23296
 31
0.0
  0
LINE
  5
BDC
100
AcDbEntity
  8
ALPHA
  6
CONTINUOUS
 62
     7
100
AcDbLine
 10
58.539013
 20
185.03296
 30
0.0
 11
59.739013
 21
185.03296
 31
0.0
  0
LINE
  5
BDD
100
AcDbEntity
  8
ALPHA
  6
CONTINUOUS
 62
     7
100
AcDbLine
 10
59.039013
 20
182.03296
 30
0.0
 11
58.539013
 21
181.53296
 31
0.0
  0
LINE
  5
BDE
100
AcDbEntity
  8
ALPHA
  6
CONTINUOUS
 62
     7
100
AcDbLine
 10
59.039013
 20
184.53296
 30
0.0
 11
59.039013
 21
182.03296
 31
0.0
  0
LINE
  5
BDF
100
AcDbEntity
  8
ALPHA
  6
CONTINUOUS
 62
     7
100
AcDbLine
 10
58.539013
 20
188.53296
 30
0.0
 11
57.539013
 21
188.782288
 31
0.0
  0
LINE
  5
BE0
100
AcDbEntity
  8
ALPHA
  6
CONTINUOUS
 62
     7
100
AcDbLine
 10
57.239013
 20
188.487126
 30
0.0
 11
58.039013
 21
188.287664
 31
0.0
  0
LINE
  5
BE1
100
AcDbEntity
  8
ALPHA
  6
CONTINUOUS
 62
     9
100
AcDbLine
 10
57.939013
 20
188.682557
 30
0.0
 11
57.939013
 21
188.312597
 31
0.0
  0
LINE
  5
BE2
100
AcDbEntity
  8
ALPHA
  6
CONTINUOUS
 62
     7
100
AcDbLine
 10
62.189739
 20
181.53296
 30
0.0
 11
64.039013
 21
181.53296
 31
0.0
  0
CIRCLE
  5
BE3
100
AcDbEntity
  8
ALPHA
  6
CONTINUOUS
 62
     7
100
AcDbCircle
 10
61.039013
 20
205.53296
 30
0.0
 40
1.8
  0
CIRCLE
  5
BE4
100
AcDbEntity
  8
ALPHA
  6
CONTINUOUS
 62
     7
100
AcDbCircle
 10
61.039013
 20
205.53296
 30
0.0
 40
1.3
  0
LINE
  5
BE5
100
AcDbEntity
  8
ALPHA
  6
CONTINUOUS
 62
     7
100
AcDbLine
 10
59.989013
 20
206.256501
 30
0.0
 11
59.989013
 21
204.809419
 31
0.0
  0
CIRCLE
  5
BE6
100
AcDbEntity
  8
ALPHA
  6
CONTINUOUS
 62
     7
100
AcDbCircle
 10
61.039013
 20
197.53296
 30
0.0
 40
1.8
  0
CIRCLE
  5
BE7
100
AcDbEntity
  8
ALPHA
  6
CONTINUOUS
 62
     7
100
AcDbCircle
 10
61.039013
 20
197.53296
 30
0.0
 40
1.3
  0
LINE
  5
BE8
100
AcDbEntity
  8
ALPHA
  6
CONTINUOUS
 62
     7
100
AcDbLine
 10
59.989013
 20
198.256501
 30
0.0
 11
59.989013
 21
196.809419
 31
0.0
  0
LINE
  5
BE9
100
AcDbEntity
  8
ALPHA
  6
CONTINUOUS
 62
     7
100
AcDbLine
 10
63.539013
 20
221.13296
 30
0.0
 11
63.539013
 21
212.53296
 31
0.0
  0
LINE
  5
BEA
100
AcDbEntity
  8
ALPHA
  6
CONTINUOUS
 62
     9
100
AcDbLine
 10
63.339013
 20
221.33296
 30
0.0
 11
63.339013
 21
212.53296
 31
0.0
  0
LINE
  5
BEB
100
AcDbEntity
  8
ALPHA
  6
CONTINUOUS
 62
     7
100
AcDbLine
 10
61.889013
 20
212.53296
 30
0.0
 11
61.889013
 21
217.211744
 31
0.0
  0
LINE
  5
BEC
100
AcDbEntity
  8
ALPHA
  6
CONTINUOUS
 62
     9
100
AcDbLine
 10
61.689013
 20
212.53296
 30
0.0
 11
61.689013
 21
217.176478
 31
0.0
  0
LINE
  5
BED
100
AcDbEntity
  8
ALPHA
  6
CONTINUOUS
 62
     9
100
AcDbLine
 10
59.039013
 20
212.53296
 30
0.0
 11
59.039013
 21
221.33296
 31
0.0
  0
LINE
  5
BEE
100
AcDbEntity
  8
ALPHA
  6
CONTINUOUS
 62
     7
100
AcDbLine
 10
58.539013
 20
212.53296
 30
0.0
 11
58.539013
 21
220.83296
 31
0.0
  0
LINE
  5
BEF
100
AcDbEntity
  8
ALPHA
  6
CONTINUOUS
 62
     9
100
AcDbLine
 10
64.039013
 20
211.73296
 30
0.0
 11
57.539013
 21
211.73296
 31
0.0
  0
LINE
  5
BF0
100
AcDbEntity
  8
ALPHA
  6
CONTINUOUS
 62
     7
100
AcDbLine
 10
60.240642
 20
206.53296
 30
0.0
 11
61.837384
 21
206.53296
 31
0.0
  0
LINE
  5
BF1
100
AcDbEntity
  8
ALPHA
  6
CONTINUOUS
 62
     9
100
AcDbLine
 10
59.989013
 20
206.13296
 30
0.0
 11
62.17156
 21
206.13296
 31
0.0
  0
LINE
  5
BF2
100
AcDbEntity
  8
ALPHA
  6
CONTINUOUS
 62
     7
100
AcDbLine
 10
59.039013
 20
221.33296
 30
0.0
 11
63.339013
 21
221.33296
 31
0.0
  0
LINE
  5
BF3
100
AcDbEntity
  8
ALPHA
  6
CONTINUOUS
 62
     9
100
AcDbLine
 10
63.539013
 20
219.33296
 30
0.0
 11
61.116953
 21
219.33296
 31
0.0
  0
LINE
  5
BF4
100
AcDbEntity
  8
ALPHA
  6
CONTINUOUS
 62
     7
100
AcDbLine
 10
61.889013
 20
217.211744
 30
0.0
 11
60.43691
 21
221.201364
 31
0.0
  0
LINE
  5
BF5
100
AcDbEntity
  8
ALPHA
  6
CONTINUOUS
 62
     9
100
AcDbLine
 10
61.689013
 20
217.176478
 30
0.0
 11
60.904118
 21
219.33296
 31
0.0
  0
ARC
  5
BF6
100
AcDbEntity
  8
ALPHA
  6
CONTINUOUS
 62
     7
100
AcDbCircle
 10
59.039013
 20
220.83296
 30
0.0
 40
0.5
100
AcDbArc
 50
90.0
 51
180.0
  0
LINE
  5
BF7
100
AcDbEntity
  8
ALPHA
  6
CONTINUOUS
 62
     9
100
AcDbLine
 10
58.539013
 20
219.33296
 30
0.0
 11
60.904118
 21
219.33296
 31
0.0
  0
ARC
  5
BF8
100
AcDbEntity
  8
ALPHA
  6
CONTINUOUS
 62
     7
100
AcDbCircle
 10
60.248971
 20
221.13296
 30
0.0
 40
0.2
100
AcDbArc
 50
20.0
 51
90.0
  0
LINE
  5
BF9
100
AcDbEntity
  8
ALPHA
  6
CONTINUOUS
 62
     9
100
AcDbLine
 10
60.904118
 20
219.33296
 30
0.0
 11
60.248971
 21
221.33296
 31
0.0
  0
LINE
  5
BFA
100
AcDbEntity
  8
ALPHA
  6
CONTINUOUS
 62
     9
100
AcDbLine
 10
60.904118
 20
219.33296
 30
0.0
 11
61.092056
 21
219.401364
 31
0.0
  0
LINE
  5
BFB
100
AcDbEntity
  8
ALPHA
  6
CONTINUOUS
 62
     7
100
AcDbLine
 10
61.689013
 20
217.176478
 30
0.0
 11
61.889013
 21
217.211744
 31
0.0
  0
ARC
  5
BFC
100
AcDbEntity
  8
ALPHA
  6
CONTINUOUS
 62
     7
100
AcDbCircle
 10
63.339013
 20
221.13296
 30
0.0
 40
0.2
100
AcDbArc
 50
0.0
 51
90.0
  0
ENDSEC
  0
SECTION
  2
OBJECTS
  0
DICTIONARY
  5
F8
100
AcDbDictionary
  3
ACAD_GROUP
350
F9
  3
ACAD_MLINESTYLE
350
106
  3
ACDBVARIABLEDICTIONARY
350
143
  0
DICTIONARY
  5
F9
102
{ACAD_REACTORS
330
F8
102
}
100
AcDbDictionary
  0
DICTIONARY
  5
106
102
{ACAD_REACTORS
330
F8
102
}
100
AcDbDictionary
  3
STANDARD
350
107
  0
DICTIONARY
  5
143
102
{ACAD_REACTORS
330
F8
102
}
100
AcDbDictionary
  3
DIMADEC
350
144
  0
MLINESTYLE
  5
107
102
{ACAD_REACTORS
330
106
102
}
100
AcDbMlineStyle
  2
STANDARD
 70
     0
  3

 62
   256
 51
90.0
 52
90.0
 71
     2
 49
0.5
 62
   256
  6
BYLAYER
 49
-0.5
 62
   256
  6
BYLAYER
  0
DICTIONARYVAR
  5
144
102
{ACAD_REACTORS
330
143
102
}
100
DictionaryVariables
280
     0
  1
0
  0
ENDSEC
  0
EOF
