  0
SECTION
  2
HEADER
  9
$ACADVER
  1
AC1012
  9
$DWGCODEPAGE
  3
ANSI_1252
  9
$INSBASE
 10
0.0
 20
0.0
 30
0.0
  9
$EXTMIN
 10
2.643888
 20
3.189164
 30
0.0
  9
$EXTMAX
 10
202.156065
 20
114.011556
 30
0.0
  9
$LIMMIN
 10
19.077216
 20
43.616976
  9
$LIMMAX
 10
194.084622
 20
146.65737
  9
$ORTHOMODE
 70
     1
  9
$REGENMODE
 70
     1
  9
$FILLMODE
 70
     1
  9
$QTEXTMODE
 70
     0
  9
$MIRRTEXT
 70
     1
  9
$DRAGMODE
 70
     2
  9
$LTSCALE
 40
10.0
  9
$OSMODE
 70
    37
  9
$ATTMODE
 70
     1
  9
$TEXTSIZE
 40
0.2
  9
$TRACEWID
 40
0.05
  9
$TEXTSTYLE
  7
STANDARD
  9
$CLAYER
  8
ALPHA
  9
$CELTYPE
  6
CONTINUOUS
  9
$CECOLOR
 62
   256
  9
$CELTSCALE
 40
1.0
  9
$DELOBJ
 70
     1
  9
$DISPSILH
 70
     0
  9
$DIMSCALE
 40
1.0
  9
$DIMASZ
 40
0.18
  9
$DIMEXO
 40
0.0625
  9
$DIMDLI
 40
0.38
  9
$DIMRND
 40
0.0
  9
$DIMDLE
 40
0.0
  9
$DIMEXE
 40
0.18
  9
$DIMTP
 40
0.0
  9
$DIMTM
 40
0.0
  9
$DIMTXT
 40
0.18
  9
$DIMCEN
 40
0.09
  9
$DIMTSZ
 40
0.0
  9
$DIMTOL
 70
     0
  9
$DIMLIM
 70
     0
  9
$DIMTIH
 70
     1
  9
$DIMTOH
 70
     1
  9
$DIMSE1
 70
     0
  9
$DIMSE2
 70
     0
  9
$DIMTAD
 70
     0
  9
$DIMZIN
 70
     0
  9
$DIMBLK
  1

  9
$DIMASO
 70
     1
  9
$DIMSHO
 70
     1
  9
$DIMPOST
  1

  9
$DIMAPOST
  1

  9
$DIMALT
 70
     0
  9
$DIMALTD
 70
     2
  9
$DIMALTF
 40
25.4
  9
$DIMLFAC
 40
1.0
  9
$DIMTOFL
 70
     0
  9
$DIMTVP
 40
0.0
  9
$DIMTIX
 70
     0
  9
$DIMSOXD
 70
     0
  9
$DIMSAH
 70
     0
  9
$DIMBLK1
  1

  9
$DIMBLK2
  1

  9
$DIMSTYLE
  2
STANDARD
  9
$DIMCLRD
 70
     0
  9
$DIMCLRE
 70
     0
  9
$DIMCLRT
 70
     0
  9
$DIMTFAC
 40
1.0
  9
$DIMGAP
 40
0.09
  9
$DIMJUST
 70
     0
  9
$DIMSD1
 70
     0
  9
$DIMSD2
 70
     0
  9
$DIMTOLJ
 70
     1
  9
$DIMTZIN
 70
     0
  9
$DIMALTZ
 70
     0
  9
$DIMALTTZ
 70
     0
  9
$DIMFIT
 70
     3
  9
$DIMUPT
 70
     0
  9
$DIMUNIT
 70
     2
  9
$DIMDEC
 70
     4
  9
$DIMTDEC
 70
     4
  9
$DIMALTU
 70
     2
  9
$DIMALTTD
 70
     2
  9
$DIMTXSTY
  7
STANDARD
  9
$DIMAUNIT
 70
     0
  9
$LUNITS
 70
     2
  9
$LUPREC
 70
     4
  9
$SKETCHINC
 40
0.1
  9
$FILLETRAD
 40
0.0
  9
$AUNITS
 70
     0
  9
$AUPREC
 70
     0
  9
$MENU
  1
acad
  9
$ELEVATION
 40
0.0
  9
$PELEVATION
 40
0.0
  9
$THICKNESS
 40
0.0
  9
$LIMCHECK
 70
     0
  9
$BLIPMODE
 70
     0
  9
$CHAMFERA
 40
0.0
  9
$CHAMFERB
 40
0.0
  9
$CHAMFERC
 40
0.0
  9
$CHAMFERD
 40
0.0
  9
$SKPOLY
 70
     0
  9
$TDCREATE
 40
2453634.413430799
  9
$TDUPDATE
 40
2453893.700968993
  9
$TDINDWG
 40
0.5576051505
  9
$TDUSRTIMER
 40
0.5576040625
  9
$USRTIMER
 70
     1
  9
$ANGBASE
 50
0.0
  9
$ANGDIR
 70
     0
  9
$PDMODE
 70
     0
  9
$PDSIZE
 40
0.0
  9
$PLINEWID
 40
0.0
  9
$COORDS
 70
     1
  9
$SPLFRAME
 70
     0
  9
$SPLINETYPE
 70
     6
  9
$SPLINESEGS
 70
     8
  9
$ATTDIA
 70
     0
  9
$ATTREQ
 70
     1
  9
$HANDLING
 70
     1
  9
$HANDSEED
  5
4C7F
  9
$SURFTAB1
 70
     6
  9
$SURFTAB2
 70
     6
  9
$SURFTYPE
 70
     6
  9
$SURFU
 70
     6
  9
$SURFV
 70
     6
  9
$UCSNAME
  2

  9
$UCSORG
 10
0.0
 20
0.0
 30
0.0
  9
$UCSXDIR
 10
1.0
 20
0.0
 30
0.0
  9
$UCSYDIR
 10
0.0
 20
1.0
 30
0.0
  9
$PUCSNAME
  2

  9
$PUCSORG
 10
0.0
 20
0.0
 30
0.0
  9
$PUCSXDIR
 10
1.0
 20
0.0
 30
0.0
  9
$PUCSYDIR
 10
0.0
 20
1.0
 30
0.0
  9
$USERI1
 70
     0
  9
$USERI2
 70
     0
  9
$USERI3
 70
     0
  9
$USERI4
 70
     0
  9
$USERI5
 70
     0
  9
$USERR1
 40
0.0
  9
$USERR2
 40
0.0
  9
$USERR3
 40
0.0
  9
$USERR4
 40
0.0
  9
$USERR5
 40
0.0
  9
$WORLDVIEW
 70
     1
  9
$SHADEDGE
 70
     3
  9
$SHADEDIF
 70
    70
  9
$TILEMODE
 70
     1
  9
$MAXACTVP
 70
    16
  9
$PINSBASE
 10
0.0
 20
0.0
 30
0.0
  9
$PLIMCHECK
 70
     0
  9
$PEXTMIN
 10
1.000000E+20
 20
1.000000E+20
 30
1.000000E+20
  9
$PEXTMAX
 10
-1.000000E+20
 20
-1.000000E+20
 30
-1.000000E+20
  9
$PLIMMIN
 10
0.0
 20
0.0
  9
$PLIMMAX
 10
12.0
 20
9.0
  9
$UNITMODE
 70
     0
  9
$VISRETAIN
 70
     0
  9
$PLINEGEN
 70
     1
  9
$PSLTSCALE
 70
     0
  9
$TREEDEPTH
 70
  3020
  9
$PICKSTYLE
 70
     0
  9
$CMLSTYLE
  2
STANDARD
  9
$CMLJUST
 70
     0
  9
$CMLSCALE
 40
1.0
  9
$SAVEIMAGES
 70
     0
  0
ENDSEC
  0
SECTION
  2
CLASSES
  0
CLASS
  1
LWPOLYLINE
  2
AcDbPolyline
  3
"AutoCAD"
 90
    32768
280
     0
281
     1
  0
CLASS
  1
IMAGE
  2
AcDbRasterImage
  3
ISM
 90
    32895
280
     0
281
     1
  0
CLASS
  1
OLE2FRAME
  2
AcDbOle2Frame
  3
""
 90
    32768
280
     0
281
     1
  0
CLASS
  1
HATCH
  2
AcDbHatch
  3
"ACAD_SEDONA"
 90
    32768
280
     0
281
     1
  0
CLASS
  1
DICTIONARYVAR
  2
AcDbDictionaryVar
  3
"AutoCAD"
 90
    32768
280
     0
281
     0
  0
CLASS
  1
RASTERVARIABLES
  2
AcDbRasterVariables
  3
ISM
 90
    32768
280
     0
281
     0
  0
CLASS
  1
IMAGEDEF
  2
AcDbRasterImageDef
  3
ISM
 90
    32768
280
     0
281
     0
  0
CLASS
  1
IMAGEDEF_REACTOR
  2
AcDbRasterImageDefReactor
  3
ISM
 90
    32769
280
     0
281
     0
  0
CLASS
  1
SPATIAL_FILTER
  2
AcDbSpatialFilter
  3
"Acad"
 90
    32768
280
     0
281
     0
  0
CLASS
  1
XRECORD
  2
AcDbXrecord
  3
"<Built In>"
 90
    32768
280
     0
281
     0
  0
CLASS
  1
SORTENTSTABLE
  2
AcDbSortentsTable
  3
"AutoCAD"
 90
    32768
280
     0
281
     0
  0
CLASS
  1
LAYER_INDEX
  2
AcDbLayerIndex
  3
"Acad"
 90
    32768
280
     0
281
     0
  0
CLASS
  1
SPATIAL_INDEX
  2
AcDbSpatialIndex
  3
"Acad"
 90
    32768
280
     0
281
     0
  0
CLASS
  1
OBJECT_PTR
  2
CAseDLPNTableRecord
  3
ASE-LPNTableRecord
 90
    32769
280
     0
281
     0
  0
CLASS
  1
LAYOUT
  2
AcDbLayout
  3
AutoCAD 2000
 90
    32768
280
     0
281
     0
  0
CLASS
  1
PLOTSETTINGS
  2
AcDbPlotSettings
  3
AutoCAD 2000
 90
    32768
280
     0
281
     0
  0
CLASS
  1
ACDBDICTIONARYWDFLT
  2
AcDbDictionaryWithDefault
  3
AutoCAD 2000
 90
    32768
280
     0
281
     0
  0
CLASS
  1
ACDBPLACEHOLDER
  2
AcDbPlaceHolder
  3
AutoCAD 2000
 90
    32768
280
     0
281
     0
  0
CLASS
  1
VBA_PROJECT
  2
AcDbVbaProject
  3
acad
 90
    32768
280
     0
281
     0
  0
CLASS
  1
WIPEOUT
  2
AcDbWipeout
  3
WipeOut|AutoCAD Express Tool|expresstools@autodesk.com
 90
    32895
280
     0
281
     1
  0
CLASS
  1
WIPEOUTVARIABLES
  2
AcDbWipeoutVariables
  3
WipeOut|AutoCAD Express Tool|expresstools@autodesk.com
 90
    32768
280
     0
281
     0
  0
CLASS
  1
RTEXT
  2
RText
  3
RText|AutoCAD Express Tool|expresstools@autodesk.com
 90
    32768
280
     0
281
     1
  0
CLASS
  1
ARCALIGNEDTEXT
  2
AcDbArcAlignedText
  3
ATEXT|AutoCAD Express Tool|expresstools@autodesk.com
 90
    32768
280
     0
281
     1
  0
CLASS
  1
TABLESTYLE
  2
AcDbTableStyle
  3
ObjectDBX Classes
 90
    34815
280
     0
281
     0
  0
CLASS
  1
ACAD_PROXY_OBJECT_WRAPPER
  2
AcDbProxyObjectWrapper
  3
AutoCAD 2000
 90
    32768
280
     0
281
     0
  0
CLASS
  1
LONG_TRANSACTION
  2
AcDbLongTransaction
  3
AutoCAD 2000
 90
    32768
280
     0
281
     0
  0
CLASS
  1
LWPOLYLINE
  2
AcDbPolyline
  3
"AutoCAD"
 90
    32768
280
     0
281
     1
  0
CLASS
  1
HATCH
  2
AcDbHatch
  3
"ACAD_SEDONA"
 90
    32768
280
     0
281
     1
  0
CLASS
  1
XRECORD
  2
AcDbXrecord
  3
"<Built In>"
 90
    32768
280
     0
281
     0
  0
ENDSEC
  0
SECTION
  2
TABLES
  0
TABLE
  2
VPORT
  5
7
100
AcDbSymbolTable
 70
     2
  0
VPORT
  5
4C7E
100
AcDbSymbolTableRecord
100
AcDbViewportTableRecord
  2
*ACTIVE
 70
     0
 10
0.0
 20
0.0
 11
1.0
 21
1.0
 12
102.399977
 22
58.60036
 13
0.0
 23
0.0
 14
1.0
 24
1.0
 15
0.0
 25
0.0
 16
0.0
 26
0.0
 36
1.0
 17
0.0
 27
0.0
 37
0.0
 40
119.951284
 41
1.673611
 42
50.0
 43
0.0
 44
0.0
 50
0.0
 51
0.0
 71
     0
 72
   100
 73
     1
 74
     2
 75
     0
 76
     0
 77
     0
 78
     0
  0
ENDTAB
  0
TABLE
  2
LTYPE
  5
4
100
AcDbSymbolTable
 70
     3
  0
LTYPE
  5
11
102
{ACAD_XDICTIONARY
360
4C27
102
}
100
AcDbSymbolTableRecord
100
AcDbLinetypeTableRecord
  2
BYBLOCK
 70
     0
  3

 72
    65
 73
     0
 40
0.0
  0
LTYPE
  5
12
102
{ACAD_XDICTIONARY
360
4C29
102
}
100
AcDbSymbolTableRecord
100
AcDbLinetypeTableRecord
  2
BYLAYER
 70
     0
  3

 72
    65
 73
     0
 40
0.0
  0
LTYPE
  5
13
102
{ACAD_XDICTIONARY
360
4C2B
102
}
100
AcDbSymbolTableRecord
100
AcDbLinetypeTableRecord
  2
CONTINUOUS
 70
     0
  3
Solid line
 72
    65
 73
     0
 40
0.0
  0
LTYPE
  5
725
100
AcDbSymbolTableRecord
100
AcDbLinetypeTableRecord
  2
AXES2
 70
     0
  3
___ _ ___ _ ___ _ ___ _ ___ _ ___ _ ___ _ ___ _
 72
    65
 73
     4
 40
1.125
 49
0.75
 74
     0
 49
-0.125
 74
     0
 49
0.125
 74
     0
 49
-0.125
 74
     0
  0
LTYPE
  5
3472
100
AcDbSymbolTableRecord
100
AcDbLinetypeTableRecord
  2
CACHE2
 70
     0
  3
Caché (x.5) _ _ _ _ _ _ _ _ _ _ _ _ _ _ _ _ _
 72
    65
 73
     2
 40
0.1875
 49
0.125
 74
     0
 49
-0.0625
 74
     0
  0
ENDTAB
  0
TABLE
  2
LAYER
  5
2
102
{ACAD_XDICTIONARY
360
26F0
102
}
100
AcDbSymbolTable
 70
     6
  0
LAYER
  5
14
100
AcDbSymbolTableRecord
100
AcDbLayerTableRecord
  2
0
 70
     0
 62
     7
  6
CONTINUOUS
  0
LAYER
  5
6EC
102
{ACAD_XDICTIONARY
360
4C25
102
}
100
AcDbSymbolTableRecord
100
AcDbLayerTableRecord
  2
DEFPOINTS
 70
     0
 62
     7
  6
CONTINUOUS
  0
LAYER
  5
727
100
AcDbSymbolTableRecord
100
AcDbLayerTableRecord
  2
COTATION1
 70
     0
 62
     2
  6
CONTINUOUS
  0
LAYER
  5
728
100
AcDbSymbolTableRecord
100
AcDbLayerTableRecord
  2
AXE
 70
     0
 62
    80
  6
AXES2
  0
LAYER
  5
729
100
AcDbSymbolTableRecord
100
AcDbLayerTableRecord
  2
ALPHA
 70
     0
 62
   254
  6
CONTINUOUS
  0
LAYER
  5
3473
100
AcDbSymbolTableRecord
100
AcDbLayerTableRecord
  2
POINTILLE_COURT
 70
     0
 62
    41
  6
CACHE2
  0
ENDTAB
  0
TABLE
  2
STYLE
  5
3
100
AcDbSymbolTable
 70
     2
  0
STYLE
  5
17
102
{ACAD_XDICTIONARY
360
4C31
102
}
100
AcDbSymbolTableRecord
100
AcDbTextStyleTableRecord
  2
STANDARD
 70
     0
 40
0.0
 41
1.0
 50
0.0
 71
     0
 42
0.0
  3
txt
  4

  0
STYLE
  5
72B
100
AcDbSymbolTableRecord
100
AcDbTextStyleTableRecord
  2
ROMANS
 70
     0
 40
0.0
 41
1.0
 50
0.0
 71
     0
 42
6.0
  3
romans
  4

  0
ENDTAB
  0
TABLE
  2
VIEW
  5
5
100
AcDbSymbolTable
 70
     0
  0
ENDTAB
  0
TABLE
  2
UCS
  5
6
100
AcDbSymbolTable
 70
     0
  0
ENDTAB
  0
TABLE
  2
APPID
  5
8
100
AcDbSymbolTable
 70
     4
  0
APPID
  5
16
100
AcDbSymbolTableRecord
100
AcDbRegAppTableRecord
  2
ACAD
 70
     0
  0
APPID
  5
26EF
102
{ACAD_XDICTIONARY
360
4C2D
102
}
100
AcDbSymbolTableRecord
100
AcDbRegAppTableRecord
  2
ACAECLAYERSTANDARD
 70
     0
  0
APPID
  5
320E
100
AcDbSymbolTableRecord
100
AcDbRegAppTableRecord
  2
DCO15
 70
     0
  0
APPID
  5
3569
102
{ACAD_XDICTIONARY
360
4C2F
102
}
100
AcDbSymbolTableRecord
100
AcDbRegAppTableRecord
  2
ACAD_EXEMPT_FROM_CAD_STAND
 70
     0
  0
ENDTAB
  0
TABLE
  2
DIMSTYLE
  5
9
100
AcDbSymbolTable
 70
     2
  0
DIMSTYLE
105
18
102
{ACAD_XDICTIONARY
360
4C23
102
}
100
AcDbSymbolTableRecord
100
AcDbDimStyleTableRecord
  2
STANDARD
 70
     0
  3

  4

  5

  6

  7

 40
1.0
 41
0.18
 42
0.0625
 43
0.38
 44
0.18
 45
0.0
 46
0.0
 47
0.0
 48
0.0
140
0.18
141
0.09
142
0.0
143
25.4
144
1.0
145
0.0
146
1.0
147
0.09
 71
     0
 72
     0
 73
     1
 74
     1
 75
     0
 76
     0
 77
     0
 78
     0
170
     0
171
     2
172
     0
173
     0
174
     0
175
     0
176
     0
177
     0
178
     0
270
     2
271
     4
272
     4
273
     2
274
     2
340
17
275
     0
280
     0
281
     0
282
     0
283
     1
284
     0
285
     0
286
     0
287
     3
288
     0
  0
DIMSTYLE
105
72C
102
{ACAD_XDICTIONARY
360
4C61
102
}
102
{ACAD_REACTORS
330
43EA
330
43EC
330
43ED
330
43EF
330
47FD
330
4AE3
102
}
100
AcDbSymbolTableRecord
100
AcDbDimStyleTableRecord
  2
SC_DEFAUT
 70
     0
  3

  4

  5
OPEN30
  6

  7

 40
1.0
 41
5.0
 42
2.0
 43
0.38
 44
2.5
 45
0.0
 46
0.0
 47
0.0
 48
0.0
140
2.5
141
0.0
142
0.0
143
25.4
144
1.0
145
0.0
146
1.0
147
2.0
 71
     0
 72
     0
 73
     1
 74
     1
 75
     0
 76
     0
 77
     1
 78
    12
170
     0
171
     2
172
     0
173
     0
174
     0
175
     0
176
     0
177
     0
178
     0
270
     2
271
     1
272
     1
273
     2
274
     2
340
72B
275
     0
280
     0
281
     0
282
     0
283
     1
284
    12
285
    12
286
    12
287
     5
288
     0
  0
ENDTAB
  0
TABLE
  2
BLOCK_RECORD
  5
1
100
AcDbSymbolTable
 70
     7
  0
BLOCK_RECORD
  5
A
102
{ACAD_XDICTIONARY
360
7D7
102
}
100
AcDbSymbolTableRecord
100
AcDbBlockTableRecord
  2
*MODEL_SPACE
  0
BLOCK_RECORD
  5
B
102
{ACAD_XDICTIONARY
360
4C57
102
}
100
AcDbSymbolTableRecord
100
AcDbBlockTableRecord
  2
*PAPER_SPACE
  0
BLOCK_RECORD
  5
6FA
100
AcDbSymbolTableRecord
100
AcDbBlockTableRecord
  2
_OPEN30
  0
BLOCK_RECORD
  5
4438
100
AcDbSymbolTableRecord
100
AcDbBlockTableRecord
  2
*D1
  0
BLOCK_RECORD
  5
4445
100
AcDbSymbolTableRecord
100
AcDbBlockTableRecord
  2
*D2
  0
BLOCK_RECORD
  5
4451
100
AcDbSymbolTableRecord
100
AcDbBlockTableRecord
  2
*D3
  0
BLOCK_RECORD
  5
445E
100
AcDbSymbolTableRecord
100
AcDbBlockTableRecord
  2
*D4
  0
BLOCK_RECORD
  5
482E
100
AcDbSymbolTableRecord
100
AcDbBlockTableRecord
  2
*D5
  0
BLOCK_RECORD
  5
4AE4
100
AcDbSymbolTableRecord
100
AcDbBlockTableRecord
  2
*D6
  0
ENDTAB
  0
ENDSEC
  0
SECTION
  2
BLOCKS
  0
BLOCK
  5
D
100
AcDbEntity
  8
0
100
AcDbBlockBegin
  2
*MODEL_SPACE
 70
     0
 10
0.0
 20
0.0
 30
0.0
  3
*MODEL_SPACE
  1

  0
ENDBLK
  5
E
100
AcDbEntity
  8
0
100
AcDbBlockEnd
  0
BLOCK
  5
F
100
AcDbEntity
 67
     1
  8
0
100
AcDbBlockBegin
  2
*PAPER_SPACE
 70
     0
 10
0.0
 20
0.0
 30
0.0
  3
*PAPER_SPACE
  1

  0
ENDBLK
  5
10
100
AcDbEntity
 67
     1
  8
0
100
AcDbBlockEnd
  0
BLOCK
  5
6FB
100
AcDbEntity
  8
0
100
AcDbBlockBegin
  2
_OPEN30
 70
     0
 10
0.0
 20
0.0
 30
0.0
  3
_OPEN30
  1

  0
LINE
  5
6FC
100
AcDbEntity
  8
COTATION1
 62
     0
100
AcDbLine
 10
-1.0
 20
0.267949
 30
0.0
 11
0.0
 21
0.0
 31
0.0
1001
ACAD
1000
RTLwPs
1070
   158
  0
LINE
  5
6FD
100
AcDbEntity
  8
COTATION1
 62
     0
100
AcDbLine
 10
0.0
 20
0.0
 30
0.0
 11
-1.0
 21
-0.267949
 31
0.0
1001
ACAD
1000
RTLwPs
1070
   158
  0
LINE
  5
6FE
100
AcDbEntity
  8
COTATION1
 62
     0
100
AcDbLine
 10
0.0
 20
0.0
 30
0.0
 11
-1.0
 21
0.0
 31
0.0
1001
ACAD
1000
RTLwPs
1070
   158
  0
ENDBLK
  5
6FF
100
AcDbEntity
  8
0
100
AcDbBlockEnd
  0
BLOCK
  5
4443
100
AcDbEntity
  8
0
100
AcDbBlockBegin
  2
*D1
 70
     1
 10
0.0
 20
0.0
 30
0.0
  3
*D1
  1

1001
ACAD
1000
RTLwPs
1070
   128
  0
LINE
  5
4B54
100
AcDbEntity
  8
COTATION1
 62
     0
100
AcDbLine
 10
64.899976
 20
27.508611
 30
0.0
 11
64.899976
 21
17.807575
 31
0.0
1001
ACAD
1000
RTLwPs
1070
   158
  0
LINE
  5
4B55
100
AcDbEntity
  8
COTATION1
 62
     0
100
AcDbLine
 10
67.899976
 20
27.508611
 30
0.0
 11
67.899976
 21
17.807575
 31
0.0
1001
ACAD
1000
RTLwPs
1070
   158
  0
LINE
  5
4B56
100
AcDbEntity
  8
COTATION1
 62
     0
100
AcDbLine
 10
59.899976
 20
20.307575
 30
0.0
 11
54.899976
 21
20.307575
 31
0.0
1001
ACAD
1000
RTLwPs
1070
   158
  0
LINE
  5
4B57
100
AcDbEntity
  8
COTATION1
 62
     0
100
AcDbLine
 10
72.899976
 20
20.307575
 30
0.0
 11
77.899976
 21
20.307575
 31
0.0
1001
ACAD
1000
RTLwPs
1070
   158
  0
MTEXT
  5
4B58
100
AcDbEntity
  8
COTATION1
 62
     0
100
AcDbMText
 10
80.674773
 20
23.198259
 30
0.0
 40
2.5
 41
0.0
 71
     5
 72
     1
  1
\A1;1.5...6
  7
ROMANS
1001
ACAD
1000
MTEXTBEGIN
1070
    73
1070
     1
1070
    44
1040
1.0
1070
    74
1070
     0
1000
MTEXTEND
1000
MTEXTBEGIN
1070
    73
1070
     1
1070
    44
1040
1.0
1070
    74
1070
     0
1000
MTEXTEND
  0
INSERT
  5
4B59
100
AcDbEntity
  8
COTATION1
 62
     0
100
AcDbBlockReference
  2
_OPEN30
 10
64.899976
 20
20.307575
 30
0.0
 41
5.0
 42
5.0
 43
5.0
1001
ACAD
1000
RTLwPs
1070
   158
  0
INSERT
  5
4B5A
100
AcDbEntity
  8
COTATION1
 62
     0
100
AcDbBlockReference
  2
_OPEN30
 10
67.899976
 20
20.307575
 30
0.0
 41
5.0
 42
5.0
 43
5.0
 50
180.0
1001
ACAD
1000
RTLwPs
1070
   158
  0
POINT
  5
4B5B
100
AcDbEntity
  8
DEFPOINTS
 62
     0
100
AcDbPoint
 10
64.899976
 20
29.508611
 30
0.0
1001
ACAD
1000
RTLwPs
1070
   128
  0
POINT
  5
4B5C
100
AcDbEntity
  8
DEFPOINTS
 62
     0
100
AcDbPoint
 10
67.899976
 20
29.508611
 30
0.0
1001
ACAD
1000
RTLwPs
1070
   128
  0
POINT
  5
4B5D
100
AcDbEntity
  8
DEFPOINTS
 62
     0
100
AcDbPoint
 10
67.899976
 20
20.307575
 30
0.0
1001
ACAD
1000
RTLwPs
1070
   128
  0
ENDBLK
  5
4444
100
AcDbEntity
  8
0
100
AcDbBlockEnd
1001
ACAD
1000
RTLwPs
1070
   128
  0
BLOCK
  5
444F
100
AcDbEntity
  8
0
100
AcDbBlockBegin
  2
*D2
 70
     1
 10
0.0
 20
0.0
 30
0.0
  3
*D2
  1

1001
ACAD
1000
RTLwPs
1070
   128
  0
LINE
  5
4B5E
100
AcDbEntity
  8
COTATION1
 62
     0
100
AcDbLine
 10
64.149976
 20
91.508611
 30
0.0
 11
64.149976
 21
112.008611
 31
0.0
1001
ACAD
1000
RTLwPs
1070
   158
  0
LINE
  5
4B5F
100
AcDbEntity
  8
COTATION1
 62
     0
100
AcDbLine
 10
30.149976
 20
69.008611
 30
0.0
 11
30.149976
 21
112.008611
 31
0.0
1001
ACAD
1000
RTLwPs
1070
   158
  0
LINE
  5
4B60
100
AcDbEntity
  8
COTATION1
 62
     0
100
AcDbLine
 10
59.149976
 20
109.508611
 30
0.0
 11
35.149976
 21
109.508611
 31
0.0
1001
ACAD
1000
RTLwPs
1070
   158
  0
INSERT
  5
4B61
100
AcDbEntity
  8
COTATION1
 62
     0
100
AcDbBlockReference
  2
_OPEN30
 10
64.149976
 20
109.508611
 30
0.0
 41
5.0
 42
5.0
 43
5.0
1001
ACAD
1000
RTLwPs
1070
   158
  0
INSERT
  5
4B62
100
AcDbEntity
  8
COTATION1
 62
     0
100
AcDbBlockReference
  2
_OPEN30
 10
30.149976
 20
109.508611
 30
0.0
 41
5.0
 42
5.0
 43
5.0
 50
180.0
1001
ACAD
1000
RTLwPs
1070
   158
  0
MTEXT
  5
4B63
100
AcDbEntity
  8
COTATION1
 62
     0
100
AcDbMText
 10
47.149976
 20
112.758611
 30
0.0
 40
2.5
 41
0.0
 71
     5
 72
     1
  1
\A1;34
  7
ROMANS
1001
ACAD
1000
MTEXTBEGIN
1070
    73
1070
     1
1070
    44
1040
1.0
1070
    74
1070
     0
1000
MTEXTEND
1000
MTEXTBEGIN
1070
    73
1070
     1
1070
    44
1040
1.0
1070
    74
1070
     0
1000
MTEXTEND
  0
POINT
  5
4B64
100
AcDbEntity
  8
DEFPOINTS
 62
     0
100
AcDbPoint
 10
64.149976
 20
89.508611
 30
0.0
1001
ACAD
1000
RTLwPs
1070
   128
  0
POINT
  5
4B65
100
AcDbEntity
  8
DEFPOINTS
 62
     0
100
AcDbPoint
 10
30.149976
 20
67.008611
 30
0.0
1001
ACAD
1000
RTLwPs
1070
   128
  0
POINT
  5
4B66
100
AcDbEntity
  8
DEFPOINTS
 62
     0
100
AcDbPoint
 10
30.149976
 20
109.508611
 30
0.0
1001
ACAD
1000
RTLwPs
1070
   128
  0
ENDBLK
  5
4450
100
AcDbEntity
  8
0
100
AcDbBlockEnd
1001
ACAD
1000
RTLwPs
1070
   128
  0
BLOCK
  5
445C
100
AcDbEntity
  8
0
100
AcDbBlockBegin
  2
*D3
 70
     1
 10
0.0
 20
0.0
 30
0.0
  3
*D3
  1

1001
ACAD
1000
RTLwPs
1070
   128
  0
LINE
  5
4B67
100
AcDbEntity
  8
COTATION1
 62
     0
100
AcDbLine
 10
29.149976
 20
79.668865
 30
0.0
 11
12.649976
 21
79.668865
 31
0.0
1001
ACAD
1000
RTLwPs
1070
   158
  0
LINE
  5
4B68
100
AcDbEntity
  8
COTATION1
 62
     0
100
AcDbLine
 10
32.149976
 20
44.668865
 30
0.0
 11
12.649976
 21
44.668865
 31
0.0
1001
ACAD
1000
RTLwPs
1070
   158
  0
LINE
  5
4B69
100
AcDbEntity
  8
COTATION1
 62
     0
100
AcDbLine
 10
15.149976
 20
74.668865
 30
0.0
 11
15.149976
 21
65.418865
 31
0.0
1001
ACAD
1000
RTLwPs
1070
   158
  0
LINE
  5
4B6A
100
AcDbEntity
  8
COTATION1
 62
     0
100
AcDbLine
 10
15.149976
 20
49.668865
 30
0.0
 11
15.149976
 21
58.918865
 31
0.0
1001
ACAD
1000
RTLwPs
1070
   158
  0
INSERT
  5
4B6B
100
AcDbEntity
  8
COTATION1
 62
     0
100
AcDbBlockReference
  2
_OPEN30
 10
15.149976
 20
79.668865
 30
0.0
 41
5.0
 42
5.0
 43
5.0
 50
90.0
1001
ACAD
1000
RTLwPs
1070
   158
  0
INSERT
  5
4B6C
100
AcDbEntity
  8
COTATION1
 62
     0
100
AcDbBlockReference
  2
_OPEN30
 10
15.149976
 20
44.668865
 30
0.0
 41
5.0
 42
5.0
 43
5.0
 50
270.0
1001
ACAD
1000
RTLwPs
1070
   158
  0
MTEXT
  5
4B6D
100
AcDbEntity
  8
COTATION1
 62
     0
100
AcDbMText
 10
15.149976
 20
62.168865
 30
0.0
 40
2.5
 41
0.0
 71
     5
 72
     1
  1
\A1;35
  7
ROMANS
1001
ACAD
1000
MTEXTBEGIN
1070
    73
1070
     1
1070
    44
1040
1.0
1070
    74
1070
     0
1000
MTEXTEND
1000
MTEXTBEGIN
1070
    73
1070
     1
1070
    44
1040
1.0
1070
    74
1070
     0
1000
MTEXTEND
  0
POINT
  5
4B6E
100
AcDbEntity
  8
DEFPOINTS
 62
     0
100
AcDbPoint
 10
31.149976
 20
79.668865
 30
0.0
1001
ACAD
1000
RTLwPs
1070
   128
  0
POINT
  5
4B6F
100
AcDbEntity
  8
DEFPOINTS
 62
     0
100
AcDbPoint
 10
34.149976
 20
44.668865
 30
0.0
1001
ACAD
1000
RTLwPs
1070
   128
  0
POINT
  5
4B70
100
AcDbEntity
  8
DEFPOINTS
 62
     0
100
AcDbPoint
 10
15.149976
 20
44.668865
 30
0.0
1001
ACAD
1000
RTLwPs
1070
   128
  0
ENDBLK
  5
445D
100
AcDbEntity
  8
0
100
AcDbBlockEnd
1001
ACAD
1000
RTLwPs
1070
   128
  0
BLOCK
  5
4469
100
AcDbEntity
  8
0
100
AcDbBlockBegin
  2
*D4
 70
     1
 10
0.0
 20
0.0
 30
0.0
  3
*D4
  1

1001
ACAD
1000
RTLwPs
1070
   128
  0
LINE
  5
4B71
100
AcDbEntity
  8
COTATION1
 62
     0
100
AcDbLine
 10
55.149976
 20
89.508611
 30
0.0
 11
2.649976
 21
89.508611
 31
0.0
1001
ACAD
1000
RTLwPs
1070
   158
  0
LINE
  5
4B72
100
AcDbEntity
  8
COTATION1
 62
     0
100
AcDbLine
 10
55.149976
 20
44.508611
 30
0.0
 11
2.649976
 21
44.508611
 31
0.0
1001
ACAD
1000
RTLwPs
1070
   158
  0
LINE
  5
4B73
100
AcDbEntity
  8
COTATION1
 62
     0
100
AcDbLine
 10
5.149976
 20
84.508611
 30
0.0
 11
5.149976
 21
70.258611
 31
0.0
1001
ACAD
1000
RTLwPs
1070
   158
  0
LINE
  5
4B74
100
AcDbEntity
  8
COTATION1
 62
     0
100
AcDbLine
 10
5.149976
 20
49.508611
 30
0.0
 11
5.149976
 21
63.758611
 31
0.0
1001
ACAD
1000
RTLwPs
1070
   158
  0
INSERT
  5
4B75
100
AcDbEntity
  8
COTATION1
 62
     0
100
AcDbBlockReference
  2
_OPEN30
 10
5.149976
 20
89.508611
 30
0.0
 41
5.0
 42
5.0
 43
5.0
 50
90.0
1001
ACAD
1000
RTLwPs
1070
   158
  0
INSERT
  5
4B76
100
AcDbEntity
  8
COTATION1
 62
     0
100
AcDbBlockReference
  2
_OPEN30
 10
5.149976
 20
44.508611
 30
0.0
 41
5.0
 42
5.0
 43
5.0
 50
270.0
1001
ACAD
1000
RTLwPs
1070
   158
  0
MTEXT
  5
4B77
100
AcDbEntity
  8
COTATION1
 62
     0
100
AcDbMText
 10
5.149976
 20
67.008611
 30
0.0
 40
2.5
 41
0.0
 71
     5
 72
     1
  1
\A1;45
  7
ROMANS
1001
ACAD
1000
MTEXTBEGIN
1070
    73
1070
     1
1070
    44
1040
1.0
1070
    74
1070
     0
1000
MTEXTEND
1000
MTEXTBEGIN
1070
    73
1070
     1
1070
    44
1040
1.0
1070
    74
1070
     0
1000
MTEXTEND
  0
POINT
  5
4B78
100
AcDbEntity
  8
DEFPOINTS
 62
     0
100
AcDbPoint
 10
57.149976
 20
89.508611
 30
0.0
1001
ACAD
1000
RTLwPs
1070
   128
  0
POINT
  5
4B79
100
AcDbEntity
  8
DEFPOINTS
 62
     0
100
AcDbPoint
 10
57.149976
 20
44.508611
 30
0.0
1001
ACAD
1000
RTLwPs
1070
   128
  0
POINT
  5
4B7A
100
AcDbEntity
  8
DEFPOINTS
 62
     0
100
AcDbPoint
 10
5.149976
 20
44.508611
 30
0.0
1001
ACAD
1000
RTLwPs
1070
   128
  0
ENDBLK
  5
446A
100
AcDbEntity
  8
0
100
AcDbBlockEnd
1001
ACAD
1000
RTLwPs
1070
   128
  0
BLOCK
  5
4838
100
AcDbEntity
  8
0
100
AcDbBlockBegin
  2
*D5
 70
     1
 10
0.0
 20
0.0
 30
0.0
  3
*D5
  1

1001
ACAD
1000
RTLwPs
1070
   128
  0
LINE
  5
4C0F
100
AcDbEntity
  8
COTATION1
 62
     0
100
AcDbLine
 10
174.649976
 20
87.494407
 30
0.0
 11
174.649976
 21
112.008924
 31
0.0
1001
ACAD
1000
RTLwPs
1070
   158
  0
LINE
  5
4C10
100
AcDbEntity
  8
COTATION1
 62
     0
100
AcDbLine
 10
64.149976
 20
91.508611
 30
0.0
 11
64.149976
 21
112.008924
 31
0.0
1001
ACAD
1000
RTLwPs
1070
   158
  0
LINE
  5
4C11
100
AcDbEntity
  8
COTATION1
 62
     0
100
AcDbLine
 10
169.649976
 20
109.508924
 30
0.0
 11
69.149976
 21
109.508924
 31
0.0
1001
ACAD
1000
RTLwPs
1070
   158
  0
INSERT
  5
4C12
100
AcDbEntity
  8
COTATION1
 62
     0
100
AcDbBlockReference
  2
_OPEN30
 10
174.649976
 20
109.508924
 30
0.0
 41
5.0
 42
5.0
 43
5.0
1001
ACAD
1000
RTLwPs
1070
   158
  0
INSERT
  5
4C13
100
AcDbEntity
  8
COTATION1
 62
     0
100
AcDbBlockReference
  2
_OPEN30
 10
64.149976
 20
109.508924
 30
0.0
 41
5.0
 42
5.0
 43
5.0
 50
180.0
1001
ACAD
1000
RTLwPs
1070
   158
  0
MTEXT
  5
4C14
100
AcDbEntity
  8
COTATION1
 62
     0
100
AcDbMText
 10
119.399976
 20
112.758924
 30
0.0
 40
2.5
 41
0.0
 71
     5
 72
     1
  1
\A1;110.5
  7
ROMANS
1001
ACAD
1000
MTEXTBEGIN
1070
    73
1070
     1
1070
    44
1040
1.0
1070
    74
1070
     0
1000
MTEXTEND
1000
MTEXTBEGIN
1070
    73
1070
     1
1070
    44
1040
1.0
1070
    74
1070
     0
1000
MTEXTEND
  0
POINT
  5
4C15
100
AcDbEntity
  8
DEFPOINTS
 62
     0
100
AcDbPoint
 10
174.649976
 20
85.494407
 30
0.0
1001
ACAD
1000
RTLwPs
1070
   128
  0
POINT
  5
4C16
100
AcDbEntity
  8
DEFPOINTS
 62
     0
100
AcDbPoint
 10
64.149976
 20
89.508611
 30
0.0
1001
ACAD
1000
RTLwPs
1070
   128
  0
POINT
  5
4C17
100
AcDbEntity
  8
DEFPOINTS
 62
     0
100
AcDbPoint
 10
64.149976
 20
109.508924
 30
0.0
1001
ACAD
1000
RTLwPs
1070
   128
  0
ENDBLK
  5
4839
100
AcDbEntity
  8
0
100
AcDbBlockEnd
1001
ACAD
1000
RTLwPs
1070
   128
  0
BLOCK
  5
4AEF
100
AcDbEntity
  8
0
100
AcDbBlockBegin
  2
*D6
 70
     1
 10
0.0
 20
0.0
 30
0.0
  3
*D6
  1

1001
ACAD
1000
RTLwPs
1070
   128
  0
LINE
  5
4C05
100
AcDbEntity
  8
COTATION1
 62
     0
100
AcDbLine
 10
96.410621
 20
94.494094
 30
0.0
 11
202.149976
 21
94.494094
 31
0.0
1001
ACAD
1000
RTLwPs
1070
   158
  0
LINE
  5
4C06
100
AcDbEntity
  8
COTATION1
 62
     0
100
AcDbLine
 10
174.649976
 20
44.494407
 30
0.0
 11
202.149976
 21
44.494407
 31
0.0
1001
ACAD
1000
RTLwPs
1070
   158
  0
LINE
  5
4C07
100
AcDbEntity
  8
COTATION1
 62
     0
100
AcDbLine
 10
199.649976
 20
89.494094
 30
0.0
 11
199.649976
 21
72.74425
 31
0.0
1001
ACAD
1000
RTLwPs
1070
   158
  0
LINE
  5
4C08
100
AcDbEntity
  8
COTATION1
 62
     0
100
AcDbLine
 10
199.649976
 20
49.494407
 30
0.0
 11
199.649976
 21
66.24425
 31
0.0
1001
ACAD
1000
RTLwPs
1070
   158
  0
INSERT
  5
4C09
100
AcDbEntity
  8
COTATION1
 62
     0
100
AcDbBlockReference
  2
_OPEN30
 10
199.649976
 20
94.494094
 30
0.0
 41
5.0
 42
5.0
 43
5.0
 50
90.0
1001
ACAD
1000
RTLwPs
1070
   158
  0
INSERT
  5
4C0A
100
AcDbEntity
  8
COTATION1
 62
     0
100
AcDbBlockReference
  2
_OPEN30
 10
199.649976
 20
44.494407
 30
0.0
 41
5.0
 42
5.0
 43
5.0
 50
270.0
1001
ACAD
1000
RTLwPs
1070
   158
  0
MTEXT
  5
4C0B
100
AcDbEntity
  8
COTATION1
 62
     0
100
AcDbMText
 10
199.649976
 20
69.49425
 30
0.0
 40
2.5
 41
0.0
 71
     5
 72
     1
  1
\A1;50
  7
ROMANS
1001
ACAD
1000
MTEXTBEGIN
1070
    73
1070
     1
1070
    44
1040
1.0
1070
    74
1070
     0
1000
MTEXTEND
1000
MTEXTBEGIN
1070
    73
1070
     1
1070
    44
1040
1.0
1070
    74
1070
     0
1000
MTEXTEND
  0
POINT
  5
4C0C
100
AcDbEntity
  8
DEFPOINTS
 62
     0
100
AcDbPoint
 10
94.410621
 20
94.494094
 30
0.0
1001
ACAD
1000
RTLwPs
1070
   128
  0
POINT
  5
4C0D
100
AcDbEntity
  8
DEFPOINTS
 62
     0
100
AcDbPoint
 10
172.649976
 20
44.494407
 30
0.0
1001
ACAD
1000
RTLwPs
1070
   128
  0
POINT
  5
4C0E
100
AcDbEntity
  8
DEFPOINTS
 62
     0
100
AcDbPoint
 10
199.649976
 20
44.494407
 30
0.0
1001
ACAD
1000
RTLwPs
1070
   128
  0
ENDBLK
  5
4AF0
100
AcDbEntity
  8
0
100
AcDbBlockEnd
1001
ACAD
1000
RTLwPs
1070
   128
  0
ENDSEC
  0
SECTION
  2
ENTITIES
  0
LINE
  5
43D7
100
AcDbEntity
  8
AXE
100
AcDbLine
 10
66.399976
 20
104.508611
 30
0.0
 11
66.399976
 21
3.193542
 31
0.0
  0
LINE
  5
43D8
100
AcDbEntity
  8
ALPHA
  6
CONTINUOUS
100
AcDbLine
 10
64.149976
 20
89.508611
 30
0.0
 11
64.149976
 21
44.508611
 31
0.0
1001
ACAD
1000
RTLwPs
1070
   128
  0
LINE
  5
43D9
100
AcDbEntity
  8
ALPHA
  6
CONTINUOUS
100
AcDbLine
 10
57.149976
 20
89.508611
 30
0.0
 11
57.149976
 21
44.508611
 31
0.0
1001
ACAD
1000
RTLwPs
1070
   128
  0
LINE
  5
43DA
100
AcDbEntity
  8
ALPHA
  6
CONTINUOUS
100
AcDbLine
 10
52.149976
 20
80.668865
 30
0.0
 11
52.149976
 21
67.008611
 31
0.0
1001
ACAD
1000
RTLwPs
1070
   128
  0
LINE
  5
43DB
100
AcDbEntity
  8
ALPHA
  6
CONTINUOUS
100
AcDbLine
 10
64.149976
 20
89.508611
 30
0.0
 11
57.149976
 21
89.508611
 31
0.0
1001
ACAD
1000
RTLwPs
1070
   128
  0
LINE
  5
43DD
100
AcDbEntity
  8
ALPHA
  6
CONTINUOUS
100
AcDbLine
 10
72.149976
 20
88.008611
 30
0.0
 11
68.649976
 21
88.008611
 31
0.0
1001
ACAD
1000
RTLwPs
1070
   128
  0
LINE
  5
43DE
100
AcDbEntity
  8
ALPHA
  6
CONTINUOUS
100
AcDbLine
 10
68.649976
 20
76.008611
 30
0.0
 11
64.149976
 21
76.008611
 31
0.0
1001
ACAD
1000
RTLwPs
1070
   128
  0
LINE
  5
43DF
100
AcDbEntity
  8
ALPHA
  6
CONTINUOUS
100
AcDbLine
 10
57.149976
 20
82.008611
 30
0.0
 11
52.149976
 21
80.668865
 31
0.0
1001
ACAD
1000
RTLwPs
1070
   128
  0
LINE
  5
43E0
100
AcDbEntity
  8
ALPHA
  6
CONTINUOUS
100
AcDbLine
 10
52.149976
 20
79.668865
 30
0.0
 11
31.149976
 21
79.668865
 31
0.0
1001
ACAD
1000
RTLwPs
1070
   128
  0
LINE
  5
43E1
100
AcDbEntity
  8
ALPHA
  6
CONTINUOUS
100
AcDbLine
 10
52.149976
 20
78.668865
 30
0.0
 11
30.983117
 21
78.668865
 31
0.0
1001
ACAD
1000
RTLwPs
1070
   128
  0
LINE
  5
43E2
100
AcDbEntity
  8
ALPHA
  6
CONTINUOUS
100
AcDbLine
 10
52.149976
 20
44.668865
 30
0.0
 11
34.149976
 21
44.668865
 31
0.0
1001
ACAD
1000
RTLwPs
1070
   128
  0
LINE
  5
43E3
100
AcDbEntity
  8
ALPHA
  6
CONTINUOUS
100
AcDbLine
 10
52.149976
 20
53.348357
 30
0.0
 11
52.149976
 21
67.008611
 31
0.0
1001
ACAD
1000
RTLwPs
1070
   128
  0
LINE
  5
43E4
100
AcDbEntity
  8
ALPHA
  6
CONTINUOUS
100
AcDbLine
 10
57.149976
 20
52.008611
 30
0.0
 11
52.149976
 21
53.348357
 31
0.0
1001
ACAD
1000
RTLwPs
1070
   128
  0
LINE
  5
43E5
100
AcDbEntity
  8
ALPHA
  6
CONTINUOUS
100
AcDbLine
 10
52.149976
 20
53.348357
 30
0.0
 11
52.149976
 21
44.668865
 31
0.0
1001
ACAD
1000
RTLwPs
1070
   128
  0
ARC
  5
43E6
100
AcDbEntity
  8
ALPHA
  6
CONTINUOUS
100
AcDbCircle
 10
97.788908
 20
68.035611
 30
0.0
 40
67.646728
100
AcDbArc
 50
170.097582
 51
180.869887
1001
ACAD
1000
RTLwPs
1070
   128
  0
ARC
  5
43E7
100
AcDbEntity
  8
ALPHA
  6
CONTINUOUS
100
AcDbCircle
 10
92.705256
 20
66.681346
 30
0.0
 40
62.556136
100
AcDbArc
 50
179.700254
 51
200.602571
1001
ACAD
1000
RTLwPs
1070
   128
  0
POLYLINE
  5
43E8
100
AcDbEntity
  8
POINTILLE_COURT
100
AcDb2dPolyline
 66
     1
 10
0.0
 20
0.0
 30
0.0
 70
   128
  0
VERTEX
  5
4C74
100
AcDbEntity
  8
POINTILLE_COURT
100
AcDbVertex
100
AcDb2dVertex
 10
64.899976
 20
99.508611
 30
0.0
  0
VERTEX
  5
4C75
100
AcDbEntity
  8
POINTILLE_COURT
100
AcDbVertex
100
AcDb2dVertex
 10
64.899976
 20
77.008611
 30
0.0
  0
VERTEX
  5
4C76
100
AcDbEntity
  8
POINTILLE_COURT
100
AcDbVertex
100
AcDb2dVertex
 10
67.899976
 20
77.008611
 30
0.0
  0
VERTEX
  5
4C77
100
AcDbEntity
  8
POINTILLE_COURT
100
AcDbVertex
100
AcDb2dVertex
 10
67.899976
 20
99.508611
 30
0.0
  0
SEQEND
  5
4C78
100
AcDbEntity
  8
POINTILLE_COURT
  0
TEXT
  5
43E9
100
AcDbEntity
  8
AXE
100
AcDbText
 10
58.923786
 20
3.193542
 30
0.0
 40
8.0
  1
Y
  7
ROMANS
 72
     2
 11
65.399976
 21
3.193542
 31
0.0
100
AcDbText
  0
DIMENSION
  5
43EA
100
AcDbEntity
  8
COTATION1
100
AcDbDimension
  2
*D1
 10
67.899976
 20
20.307575
 30
0.0
 11
80.674773
 21
23.198259
 31
0.0
 70
   160
  1
1.5...6
  3
SC_DEFAUT
100
AcDbAlignedDimension
 13
64.899976
 23
29.508611
 33
0.0
 14
67.899976
 24
29.508611
 34
0.0
100
AcDbRotatedDimension
  0
TEXT
  5
43EB
100
AcDbEntity
  8
AXE
100
AcDbText
 10
183.068276
 20
67.953916
 30
0.0
 40
8.0
  1
Z
  7
ROMANS
 72
     2
 11
189.544466
 21
67.953916
 31
0.0
100
AcDbText
  0
DIMENSION
  5
43EC
100
AcDbEntity
  8
COTATION1
100
AcDbDimension
  2
*D2
 10
30.149976
 20
109.508611
 30
0.0
 11
47.149976
 21
112.758611
 31
0.0
 70
    32
  3
SC_DEFAUT
100
AcDbAlignedDimension
 13
64.149976
 23
89.508611
 33
0.0
 14
30.149976
 24
67.008611
 34
0.0
100
AcDbRotatedDimension
  0
DIMENSION
  5
43ED
100
AcDbEntity
  8
COTATION1
100
AcDbDimension
  2
*D3
 10
15.149976
 20
44.668865
 30
0.0
 11
15.149976
 21
62.168865
 31
0.0
 70
    32
  3
SC_DEFAUT
100
AcDbAlignedDimension
 13
31.149976
 23
79.668865
 33
0.0
 14
34.149976
 24
44.668865
 34
0.0
 50
90.0
100
AcDbRotatedDimension
  0
LINE
  5
43EE
100
AcDbEntity
  8
ALPHA
  6
CONTINUOUS
100
AcDbLine
 10
64.149976
 20
44.508611
 30
0.0
 11
57.149976
 21
44.508611
 31
0.0
1001
ACAD
1000
RTLwPs
1070
   128
  0
DIMENSION
  5
43EF
100
AcDbEntity
  8
COTATION1
100
AcDbDimension
  2
*D4
 10
5.149976
 20
44.508611
 30
0.0
 11
5.149976
 21
67.008611
 31
0.0
 70
    32
  3
SC_DEFAUT
100
AcDbAlignedDimension
 13
57.149976
 23
89.508611
 33
0.0
 14
57.149976
 24
44.508611
 34
0.0
 50
90.0
100
AcDbRotatedDimension
  0
LINE
  5
43F0
100
AcDbEntity
  8
ALPHA
  6
CONTINUOUS
100
AcDbLine
 10
79.100155
 20
80.858158
 30
0.0
 11
72.199573
 21
81.245253
 31
0.0
1001
ACAD
1000
RTLwPs
1070
   128
  0
LINE
  5
43F1
100
AcDbEntity
  8
ALPHA
  6
CONTINUOUS
100
AcDbLine
 10
79.100155
 20
80.858158
 30
0.0
 11
72.199573
 21
85.422257
 31
0.0
1001
ACAD
1000
RTLwPs
1070
   128
  0
LINE
  5
43F2
100
AcDbEntity
  8
ALPHA
  6
CONTINUOUS
100
AcDbLine
 10
79.100155
 20
77.842444
 30
0.0
 11
72.199573
 21
76.990833
 31
0.0
1001
ACAD
1000
RTLwPs
1070
   128
  0
LINE
  5
43F3
100
AcDbEntity
  8
ALPHA
  6
CONTINUOUS
100
AcDbLine
 10
79.100155
 20
75.133985
 30
0.0
 11
72.199573
 21
76.990833
 31
0.0
1001
ACAD
1000
RTLwPs
1070
   128
  0
LINE
  5
43F4
100
AcDbEntity
  8
ALPHA
  6
CONTINUOUS
100
AcDbLine
 10
79.100155
 20
67.632801
 30
0.0
 11
72.199573
 21
69.64449
 31
0.0
1001
ACAD
1000
RTLwPs
1070
   128
  0
LINE
  5
43F5
100
AcDbEntity
  8
ALPHA
  6
CONTINUOUS
100
AcDbLine
 10
79.100155
 20
53.157852
 30
0.0
 11
72.199573
 21
52.770757
 31
0.0
1001
ACAD
1000
RTLwPs
1070
   128
  0
LINE
  5
43F6
100
AcDbEntity
  8
ALPHA
  6
CONTINUOUS
100
AcDbLine
 10
79.100155
 20
53.157852
 30
0.0
 11
72.199573
 21
48.593754
 31
0.0
1001
ACAD
1000
RTLwPs
1070
   128
  0
LINE
  5
43F7
100
AcDbEntity
  8
ALPHA
  6
CONTINUOUS
100
AcDbLine
 10
79.100155
 20
56.173567
 30
0.0
 11
72.199573
 21
57.023966
 31
0.0
1001
ACAD
1000
RTLwPs
1070
   128
  0
LINE
  5
43F8
100
AcDbEntity
  8
ALPHA
  6
CONTINUOUS
100
AcDbLine
 10
79.100155
 20
58.880817
 30
0.0
 11
72.199573
 21
57.023966
 31
0.0
1001
ACAD
1000
RTLwPs
1070
   128
  0
LINE
  5
43F9
100
AcDbEntity
  8
ALPHA
  6
CONTINUOUS
100
AcDbLine
 10
79.100155
 20
66.38321
 30
0.0
 11
72.199573
 21
64.372732
 31
0.0
1001
ACAD
1000
RTLwPs
1070
   128
  0
SPLINE
  5
43FA
100
AcDbEntity
  8
ALPHA
  6
CONTINUOUS
100
AcDbSpline
210
0.0
220
1.0
230
0.0
 70
    24
 71
     3
 72
     8
 73
     4
 74
     0
 42
0.0000001
 43
0.0000001
 40
0.0
 40
0.0
 40
0.0
 40
0.0
 40
1.0
 40
1.0
 40
1.0
 40
1.0
 10
72.19957392522406
 20
48.59133575405164
 30
0.0
 10
72.19957392522406
 20
48.59133575405164
 30
0.0
 10
77.40177348522775
 20
48.59133575405164
 30
0.0
 10
77.40177348522775
 20
48.59133575405164
 30
0.0
1001
ACAD
1000
RTLwPs
1070
   128
  0
SPLINE
  5
43FB
100
AcDbEntity
  8
ALPHA
  6
CONTINUOUS
100
AcDbSpline
210
0.0
220
0.0
230
1.0
 70
     8
 71
     3
 72
     8
 73
     4
 74
     0
 42
0.0000001
 43
0.0000001
 40
1.0
 40
1.0
 40
1.0
 40
1.0
 40
2.0
 40
2.0
 40
2.0
 40
2.0
 10
77.40177348522775
 20
48.59133575405164
 30
0.0
 10
78.36830236522837
 20
48.59133575405164
 30
0.0
 10
79.15217059331417
 20
49.37762332852035
 30
0.0
 10
79.15217059331417
 20
50.34536188171242
 30
0.0
1001
ACAD
1000
RTLwPs
1070
   128
  0
SPLINE
  5
43FC
100
AcDbEntity
  8
ALPHA
  6
CONTINUOUS
100
AcDbSpline
210
-1.0
220
0.0
230
0.0
 70
    24
 71
     3
 72
     8
 73
     4
 74
     0
 42
0.0000001
 43
0.0000001
 40
2.0
 40
2.0
 40
2.0
 40
2.0
 40
3.0
 40
3.0
 40
3.0
 40
3.0
 10
79.15217059331417
 20
50.34536188171242
 30
0.0
 10
79.15217059331417
 20
50.34536188171242
 30
0.0
 10
79.15217059331417
 20
83.67064863407577
 30
0.0
 10
79.15217059331417
 20
83.67064863407577
 30
0.0
1001
ACAD
1000
RTLwPs
1070
   128
  0
SPLINE
  5
43FD
100
AcDbEntity
  8
ALPHA
  6
CONTINUOUS
100
AcDbSpline
210
0.0
220
0.0
230
-1.0
 70
     8
 71
     3
 72
     8
 73
     4
 74
     0
 42
0.0000001
 43
0.0000001
 40
3.0
 40
3.0
 40
3.0
 40
3.0
 40
4.0
 40
4.0
 40
4.0
 40
4.0
 10
79.15217059331417
 20
83.67064863407577
 30
0.0
 10
79.15217059331417
 20
84.6383871872679
 30
0.0
 10
78.36830236522837
 20
85.42346508854498
 30
0.0
 10
77.40177348522775
 20
85.42346508854498
 30
0.0
1001
ACAD
1000
RTLwPs
1070
   128
  0
SPLINE
  5
43FE
100
AcDbEntity
  8
ALPHA
  6
CONTINUOUS
100
AcDbSpline
210
0.0
220
1.0
230
0.0
 70
    24
 71
     3
 72
     8
 73
     4
 74
     0
 42
0.0000001
 43
0.0000001
 40
4.0
 40
4.0
 40
4.0
 40
4.0
 40
5.0
 40
5.0
 40
5.0
 40
5.0
 10
77.40177348522775
 20
85.42346508854498
 30
0.0
 10
77.40177348522775
 20
85.42346508854498
 30
0.0
 10
72.19957392522406
 20
85.42346508854498
 30
0.0
 10
72.19957392522406
 20
85.42346508854498
 30
0.0
1001
ACAD
1000
RTLwPs
1070
   128
  0
LINE
  5
43FF
100
AcDbEntity
  8
ALPHA
  6
CONTINUOUS
100
AcDbLine
 10
84.200136
 20
77.986393
 30
0.0
 11
84.400336
 21
75.383178
 31
0.0
1001
ACAD
1000
RTLwPs
1070
   128
  0
LINE
  5
4400
100
AcDbEntity
  8
ALPHA
  6
CONTINUOUS
100
AcDbLine
 10
83.017077
 20
77.986393
 30
0.0
 11
84.40699
 21
59.958636
 31
0.0
1001
ACAD
1000
RTLwPs
1070
   128
  0
LINE
  5
4401
100
AcDbEntity
  8
ALPHA
  6
CONTINUOUS
100
AcDbLine
 10
81.834014
 20
77.986393
 30
0.0
 11
83.529978
 21
56.004213
 31
0.0
1001
ACAD
1000
RTLwPs
1070
   128
  0
LINE
  5
4402
100
AcDbEntity
  8
ALPHA
  6
CONTINUOUS
100
AcDbLine
 10
80.650955
 20
77.986393
 30
0.0
 11
82.346919
 21
56.004213
 31
0.0
1001
ACAD
1000
RTLwPs
1070
   128
  0
LINE
  5
4403
100
AcDbEntity
  8
ALPHA
  6
CONTINUOUS
100
AcDbLine
 10
79.467896
 20
77.986393
 30
0.0
 11
81.163856
 21
56.004213
 31
0.0
1001
ACAD
1000
RTLwPs
1070
   128
  0
LINE
  5
4404
100
AcDbEntity
  8
ALPHA
  6
CONTINUOUS
100
AcDbLine
 10
79.174549
 20
66.464257
 30
0.0
 11
79.980797
 21
56.004213
 31
0.0
1001
ACAD
1000
RTLwPs
1070
   128
  0
LINE
  5
4405
100
AcDbEntity
  8
ALPHA
  6
CONTINUOUS
100
AcDbLine
 10
79.155798
 20
55.998164
 30
0.0
 11
84.410621
 21
55.998164
 31
0.0
1001
ACAD
1000
RTLwPs
1070
   128
  0
LINE
  5
4406
100
AcDbEntity
  8
ALPHA
  6
CONTINUOUS
100
AcDbLine
 10
84.410621
 20
55.998164
 30
0.0
 11
84.410621
 21
77.990024
 31
0.0
1001
ACAD
1000
RTLwPs
1070
   128
  0
LINE
  5
4407
100
AcDbEntity
  8
ALPHA
  6
CONTINUOUS
100
AcDbLine
 10
84.410621
 20
77.990024
 30
0.0
 11
79.155798
 21
77.990024
 31
0.0
1001
ACAD
1000
RTLwPs
1070
   128
  0
LINE
  5
442F
100
AcDbEntity
  8
ALPHA
  6
CONTINUOUS
100
AcDbLine
 10
68.649976
 20
88.008611
 30
0.0
 11
68.649976
 21
67.008611
 31
0.0
1001
ACAD
1000
RTLwPs
1070
   128
  0
LINE
  5
4430
100
AcDbEntity
  8
ALPHA
  6
CONTINUOUS
100
AcDbLine
 10
72.149976
 20
88.008611
 30
0.0
 11
72.149976
 21
67.008611
 31
0.0
1001
ACAD
1000
RTLwPs
1070
   128
  0
LINE
  5
4431
100
AcDbEntity
  8
ALPHA
  6
CONTINUOUS
100
AcDbLine
 10
72.149976
 20
46.008611
 30
0.0
 11
68.649976
 21
46.008611
 31
0.0
1001
ACAD
1000
RTLwPs
1070
   128
  0
LINE
  5
4432
100
AcDbEntity
  8
ALPHA
  6
CONTINUOUS
100
AcDbLine
 10
68.649976
 20
58.008611
 30
0.0
 11
64.149976
 21
58.008611
 31
0.0
1001
ACAD
1000
RTLwPs
1070
   128
  0
POLYLINE
  5
4433
100
AcDbEntity
  8
POINTILLE_COURT
100
AcDb2dPolyline
 66
     1
 10
0.0
 20
0.0
 30
0.0
 70
   128
  0
VERTEX
  5
4C79
100
AcDbEntity
  8
POINTILLE_COURT
100
AcDbVertex
100
AcDb2dVertex
 10
64.899976
 20
29.508611
 30
0.0
  0
VERTEX
  5
4C7A
100
AcDbEntity
  8
POINTILLE_COURT
100
AcDbVertex
100
AcDb2dVertex
 10
64.899976
 20
57.008611
 30
0.0
  0
VERTEX
  5
4C7B
100
AcDbEntity
  8
POINTILLE_COURT
100
AcDbVertex
100
AcDb2dVertex
 10
67.899976
 20
57.008611
 30
0.0
  0
VERTEX
  5
4C7C
100
AcDbEntity
  8
POINTILLE_COURT
100
AcDbVertex
100
AcDb2dVertex
 10
67.899976
 20
29.508611
 30
0.0
  0
SEQEND
  5
4C7D
100
AcDbEntity
  8
POINTILLE_COURT
  0
LINE
  5
4434
100
AcDbEntity
  8
ALPHA
  6
CONTINUOUS
100
AcDbLine
 10
68.649976
 20
46.008611
 30
0.0
 11
68.649976
 21
67.008611
 31
0.0
1001
ACAD
1000
RTLwPs
1070
   128
  0
LINE
  5
4435
100
AcDbEntity
  8
ALPHA
  6
CONTINUOUS
100
AcDbLine
 10
72.149976
 20
46.008611
 30
0.0
 11
72.149976
 21
67.008611
 31
0.0
1001
ACAD
1000
RTLwPs
1070
   128
  0
LINE
  5
4759
100
AcDbEntity
  8
AXE
100
AcDbLine
 10
189.649976
 20
66.994407
 30
0.0
 11
24.407189
 21
67.008611
 31
0.0
  0
LINE
  5
47DA
100
AcDbEntity
  8
ALPHA
  6
CONTINUOUS
100
AcDbLine
 10
172.649976
 20
87.494407
 30
0.0
 11
94.410621
 21
87.494094
 31
0.0
1001
ACAD
1000
RTLwPs
1070
   128
  0
LINE
  5
47E9
100
AcDbEntity
  8
ALPHA
  6
CONTINUOUS
100
AcDbLine
 10
84.410621
 20
89.494094
 30
0.0
 11
84.410621
 21
66.994094
 31
0.0
1001
ACAD
1000
RTLwPs
1070
   128
  0
LINE
  5
47EA
100
AcDbEntity
  8
ALPHA
  6
CONTINUOUS
100
AcDbLine
 10
174.649976
 20
85.494407
 30
0.0
 11
174.649976
 21
66.994407
 31
0.0
1001
ACAD
1000
RTLwPs
1070
   128
  0
LINE
  5
47EB
100
AcDbEntity
  8
ALPHA
  6
CONTINUOUS
100
AcDbLine
 10
152.410621
 20
89.494094
 30
0.0
 11
152.410621
 21
66.994094
 31
0.0
1001
ACAD
1000
RTLwPs
1070
   128
  0
LINE
  5
47EC
100
AcDbEntity
  8
ALPHA
  6
CONTINUOUS
100
AcDbLine
 10
172.649976
 20
89.494407
 30
0.0
 11
152.410621
 21
89.494094
 31
0.0
1001
ACAD
1000
RTLwPs
1070
   128
  0
LINE
  5
47ED
100
AcDbEntity
  8
ALPHA
  6
CONTINUOUS
100
AcDbLine
 10
174.649976
 20
85.494407
 30
0.0
 11
172.649976
 21
89.494407
 31
0.0
1001
ACAD
1000
RTLwPs
1070
   128
  0
LINE
  5
47EE
100
AcDbEntity
  8
ALPHA
  6
CONTINUOUS
100
AcDbLine
 10
172.649976
 20
89.494407
 30
0.0
 11
172.649976
 21
66.994407
 31
0.0
1001
ACAD
1000
RTLwPs
1070
   128
  0
LINE
  5
47EF
100
AcDbEntity
  8
ALPHA
  6
CONTINUOUS
100
AcDbLine
 10
172.649976
 20
46.494407
 30
0.0
 11
94.410621
 21
46.494094
 31
0.0
1001
ACAD
1000
RTLwPs
1070
   128
  0
LINE
  5
47F0
100
AcDbEntity
  8
ALPHA
  6
CONTINUOUS
100
AcDbLine
 10
84.410621
 20
44.494094
 30
0.0
 11
84.410621
 21
66.994094
 31
0.0
1001
ACAD
1000
RTLwPs
1070
   128
  0
LINE
  5
47F1
100
AcDbEntity
  8
ALPHA
  6
CONTINUOUS
100
AcDbLine
 10
94.410621
 20
44.494094
 30
0.0
 11
94.410621
 21
94.494094
 31
0.0
1001
ACAD
1000
RTLwPs
1070
   128
  0
LINE
  5
47F3
100
AcDbEntity
  8
ALPHA
  6
CONTINUOUS
100
AcDbLine
 10
174.649976
 20
48.494407
 30
0.0
 11
174.649976
 21
66.994407
 31
0.0
1001
ACAD
1000
RTLwPs
1070
   128
  0
LINE
  5
47F4
100
AcDbEntity
  8
ALPHA
  6
CONTINUOUS
100
AcDbLine
 10
152.410621
 20
44.494094
 30
0.0
 11
152.410621
 21
66.994094
 31
0.0
1001
ACAD
1000
RTLwPs
1070
   128
  0
LINE
  5
47F5
100
AcDbEntity
  8
ALPHA
  6
CONTINUOUS
100
AcDbLine
 10
172.649976
 20
44.494407
 30
0.0
 11
152.410621
 21
44.494094
 31
0.0
1001
ACAD
1000
RTLwPs
1070
   128
  0
LINE
  5
47F6
100
AcDbEntity
  8
ALPHA
  6
CONTINUOUS
100
AcDbLine
 10
174.649976
 20
48.494407
 30
0.0
 11
172.649976
 21
44.494407
 31
0.0
1001
ACAD
1000
RTLwPs
1070
   128
  0
LINE
  5
47F7
100
AcDbEntity
  8
ALPHA
  6
CONTINUOUS
100
AcDbLine
 10
172.649976
 20
44.494407
 30
0.0
 11
172.649976
 21
66.994407
 31
0.0
1001
ACAD
1000
RTLwPs
1070
   128
  0
DIMENSION
  5
47FD
100
AcDbEntity
  8
COTATION1
100
AcDbDimension
  2
*D5
 10
64.149976
 20
109.508924
 30
0.0
 11
119.399976
 21
112.758924
 31
0.0
 70
    32
  3
SC_DEFAUT
100
AcDbAlignedDimension
 13
174.649976
 23
85.494407
 33
0.0
 14
64.149976
 24
89.508611
 34
0.0
100
AcDbRotatedDimension
  0
LINE
  5
47FF
100
AcDbEntity
  8
ALPHA
  6
CONTINUOUS
100
AcDbLine
 10
94.410621
 20
89.494094
 30
0.0
 11
84.410621
 21
89.494094
 31
0.0
1001
ACAD
1000
RTLwPs
1070
   128
  0
LINE
  5
4802
100
AcDbEntity
  8
ALPHA
  6
CONTINUOUS
100
AcDbLine
 10
94.410621
 20
44.494094
 30
0.0
 11
84.410621
 21
44.494094
 31
0.0
1001
ACAD
1000
RTLwPs
1070
   128
  0
LINE
  5
4804
100
AcDbEntity
  8
ALPHA
  6
CONTINUOUS
100
AcDbLine
 10
94.410621
 20
55.994094
 30
0.0
 11
152.410621
 21
55.994094
 31
0.0
1001
ACAD
1000
RTLwPs
1070
   128
  0
LINE
  5
4AA8
100
AcDbEntity
  8
ALPHA
  6
CONTINUOUS
100
AcDbLine
 10
94.410621
 20
94.494094
 30
0.0
 11
92.910621
 21
94.494094
 31
0.0
1001
ACAD
1000
RTLwPs
1070
   128
  0
LINE
  5
4AA9
100
AcDbEntity
  8
ALPHA
  6
CONTINUOUS
100
AcDbLine
 10
92.910621
 20
89.494094
 30
0.0
 11
92.910621
 21
94.494094
 31
0.0
1001
ACAD
1000
RTLwPs
1070
   128
  0
LINE
  5
4AAA
100
AcDbEntity
  8
ALPHA
  6
CONTINUOUS
100
AcDbLine
 10
87.410621
 20
89.494094
 30
0.0
 11
87.410621
 21
44.494094
 31
0.0
1001
ACAD
1000
RTLwPs
1070
   128
  0
LINE
  5
4AAB
100
AcDbEntity
  8
ALPHA
  6
CONTINUOUS
100
AcDbLine
 10
94.410621
 20
82.994094
 30
0.0
 11
87.410621
 21
82.994094
 31
0.0
1001
ACAD
1000
RTLwPs
1070
   128
  0
LINE
  5
4AAC
100
AcDbEntity
  8
ALPHA
  6
CONTINUOUS
100
AcDbLine
 10
94.410621
 20
50.994094
 30
0.0
 11
87.410621
 21
50.994094
 31
0.0
1001
ACAD
1000
RTLwPs
1070
   128
  0
LINE
  5
4AAD
100
AcDbEntity
  8
ALPHA
  6
CONTINUOUS
100
AcDbLine
 10
94.410621
 20
61.994094
 30
0.0
 11
152.410621
 21
61.994094
 31
0.0
1001
ACAD
1000
RTLwPs
1070
   128
  0
DIMENSION
  5
4AE3
100
AcDbEntity
  8
COTATION1
100
AcDbDimension
  2
*D6
 10
199.649976
 20
44.494407
 30
0.0
 11
199.649976
 21
69.49425
 31
0.0
 70
    32
  3
SC_DEFAUT
100
AcDbAlignedDimension
 13
94.410621
 23
94.494094
 33
0.0
 14
172.649976
 24
44.494407
 34
0.0
 50
90.0
100
AcDbRotatedDimension
  0
ENDSEC
  0
SECTION
  2
OBJECTS
  0
DICTIONARY
  5
19
102
{ACAD_XDICTIONARY
360
4C59
102
}
100
AcDbDictionary
  3
ACAD_COLOR
350
6DB
  3
ACAD_GROUP
350
1A
  3
ACAD_LAYOUT
350
1E
  3
ACAD_MATERIAL
350
6DA
  3
ACAD_MLINESTYLE
350
1B
  3
ACAD_PLOTSETTINGS
350
22
  3
ACAD_PLOTSTYLENAME
350
1F
  3
ACAD_TABLESTYLE
350
6DC
  3
ACAD_WIPEOUT_VARS
350
23
  3
ACDBHEADERROUNDTRIPXREC
350
4C35
  3
ACDBVARIABLEDICTIONARY
350
7DA
  3
ASE_INDEX_DICTIONARY
350
3571
  0
DICTIONARY
  5
4C27
100
AcDbDictionary
  3
ACAD_XREC_ROUNDTRIP
360
4C28
  0
DICTIONARY
  5
4C29
100
AcDbDictionary
  3
ACAD_XREC_ROUNDTRIP
360
4C2A
  0
DICTIONARY
  5
4C2B
100
AcDbDictionary
  3
ACAD_XREC_ROUNDTRIP
360
4C2C
  0
DICTIONARY
  5
26F0
100
AcDbDictionary
  3
ACAD_LAYERFILTERS
360
26F2
  3
ACAD_LAYERSTATES
360
3474
  3
ACLYDICTIONARY
360
26F1
  0
DICTIONARY
  5
4C25
100
AcDbDictionary
  3
ACAD_XREC_ROUNDTRIP
360
4C26
  0
DICTIONARY
  5
4C31
100
AcDbDictionary
  3
ACAD_XREC_ROUNDTRIP
360
4C32
  0
DICTIONARY
  5
4C2D
100
AcDbDictionary
  3
ACAD_XREC_ROUNDTRIP
360
4C2E
  0
DICTIONARY
  5
4C2F
100
AcDbDictionary
  3
ACAD_XREC_ROUNDTRIP
360
4C30
  0
DICTIONARY
  5
4C23
100
AcDbDictionary
  3
ACAD_XREC_ROUNDTRIP
360
4C24
  0
DICTIONARY
  5
4C61
100
AcDbDictionary
  3
ACAD_XREC_ROUNDTRIP
360
4C62
  0
DICTIONARY
  5
7D7
100
AcDbDictionary
  3
ACAD_LAYOUTSELFREF
360
4C56
  3
ACAD_SORTENTS
360
7D8
  0
DICTIONARY
  5
4C57
100
AcDbDictionary
  3
ACAD_LAYOUTSELFREF
360
4C58
  0
DICTIONARY
  5
4C59
100
AcDbDictionary
  3
ACAD_XREC_ROUNDTRIP
360
4C5A
  0
DICTIONARY
  5
6DB
102
{ACAD_REACTORS
330
19
102
}
100
AcDbDictionary
  0
DICTIONARY
  5
1A
102
{ACAD_REACTORS
330
19
102
}
100
AcDbDictionary
  0
DICTIONARY
  5
1E
102
{ACAD_XDICTIONARY
360
4C5D
102
}
102
{ACAD_REACTORS
330
19
102
}
100
AcDbDictionary
  3
LAYOUT1
350
21
  3
MODEL
350
20
  0
DICTIONARY
  5
6DA
102
{ACAD_REACTORS
330
19
102
}
100
AcDbDictionary
  0
DICTIONARY
  5
1B
102
{ACAD_XDICTIONARY
360
4C5B
102
}
102
{ACAD_REACTORS
330
19
102
}
100
AcDbDictionary
  3
STANDARD
350
1C
  0
DICTIONARY
  5
22
102
{ACAD_REACTORS
330
19
102
}
100
AcDbDictionary
  0
ACAD_ZOMBIE_OBJECT
  5
1F
102
{ACAD_REACTORS
330
19
102
}
100
AcDbZombieObject
 90
      499
 91
      517
 93
       86
310
405010041939BDC9B585B0
350
1D
340
1D
 94
        0
  0
DICTIONARY
  5
6DC
102
{ACAD_XDICTIONARY
360
4C5F
102
}
102
{ACAD_REACTORS
330
19
102
}
100
AcDbDictionary
  3
STANDARD
350
6DD
  0
ACAD_ZOMBIE_OBJECT
  5
23
102
{ACAD_REACTORS
330
19
102
}
100
AcDbZombieObject
 90
      499
 91
      521
 93
       10
310
4040
 94
        0
  0
DICTIONARY
  5
4C35
102
{ACAD_REACTORS
330
19
102
}
100
AcDbDictionary
  3
CEPSNTYPE
350
4C3F
  3
DIMSTYLEDATA
350
4C43
  3
FINGERPRINTGUID
350
4C40
  3
HYPERLINKBASE
350
4C38
  3
INSUNITS
350
4C3E
  3
LAYOUTDICT
350
4C3A
  3
LWETCUNION
350
4C3D
  3
PLOTSETDICT
350
4C3B
  3
PLOTSTYLNAMDICT
350
4C3C
  3
PSVPSCALE
350
4C42
  3
PUCSBASE
350
4C46
  3
PUCSORGBACK
350
4C4C
  3
PUCSORGBOTTOM
350
4C48
  3
PUCSORGFRONT
350
4C4B
  3
PUCSORGLEFT
350
4C49
  3
PUCSORGRIGHT
350
4C4A
  3
PUCSORGTOP
350
4C47
  3
PUCSORTHOREF
350
4C44
  3
PUCSORTHOVIEW
350
4C45
  3
STYLESHEET
350
4C39
  3
TSTACKALIGN
350
4C36
  3
TSTACKSIZE
350
4C37
  3
UCSBASE
350
4C4F
  3
UCSORGBACK
350
4C55
  3
UCSORGBOTTOM
350
4C51
  3
UCSORGFRONT
350
4C54
  3
UCSORGLEFT
350
4C52
  3
UCSORGRIGHT
350
4C53
  3
UCSORGTOP
350
4C50
  3
UCSORTHOREF
350
4C4D
  3
UCSORTHOVIEW
350
4C4E
  3
VERSIONGUID
350
4C41
  0
DICTIONARY
  5
7DA
102
{ACAD_REACTORS
330
19
102
}
100
AcDbDictionary
  3
CTABLESTYLE
350
7DB
  3
DIMASSOC
350
1A71
  3
PROJECTNAME
350
1A72
  0
DICTIONARY
  5
3571
102
{ACAD_XDICTIONARY
360
4C63
102
}
102
{ACAD_REACTORS
330
19
102
}
100
AcDbDictionary
  3
ASEBLOCKHIERARCHYINDEXRECORD
350
3572
1001
DCO15
1040
1558939622.437
  0
XRECORD
  5
4C28
102
{ACAD_REACTORS
330
4C27
102
}
100
AcDbXrecord
102
EXTNAMES
  1
BYBLOCK
  2
ByBlock
  0
XRECORD
  5
4C2A
102
{ACAD_REACTORS
330
4C29
102
}
100
AcDbXrecord
102
EXTNAMES
  1
BYLAYER
  2
ByLayer
  0
XRECORD
  5
4C2C
102
{ACAD_REACTORS
330
4C2B
102
}
100
AcDbXrecord
102
EXTNAMES
  1
CONTINUOUS
  2
Continuous
  0
DICTIONARY
  5
26F2
102
{ACAD_REACTORS
330
26F0
102
}
100
AcDbDictionary
  0
DICTIONARY
  5
3474
102
{ACAD_REACTORS
330
26F0
102
}
100
AcDbDictionary
  0
DICTIONARY
  5
26F1
102
{ACAD_REACTORS
330
26F0
102
}
100
AcDbDictionary
1001
ACAD
1000
<All
  0
XRECORD
  5
4C26
102
{ACAD_REACTORS
330
4C25
102
}
100
AcDbXrecord
102
EXTNAMES
  1
DEFPOINTS
  2
Defpoints
102
PLOTBIT
280
     0
  0
XRECORD
  5
4C32
102
{ACAD_REACTORS
330
4C31
102
}
100
AcDbXrecord
102
EXTNAMES
  1
STANDARD
  2
Standard
  0
XRECORD
  5
4C2E
102
{ACAD_REACTORS
330
4C2D
102
}
100
AcDbXrecord
102
EXTNAMES
  1
ACAECLAYERSTANDARD
  2
AcAecLayerStandard
  0
XRECORD
  5
4C30
102
{ACAD_REACTORS
330
4C2F
102
}
100
AcDbXrecord
102
EXTNAMES
  1
ACAD_EXEMPT_FROM_CAD_STAND
  2
ACAD_EXEMPT_FROM_CAD_STANDARDS
  0
XRECORD
  5
4C24
102
{ACAD_REACTORS
330
4C23
102
}
100
AcDbXrecord
102
EXTNAMES
  1
STANDARD
  2
Standard
  0
XRECORD
  5
4C62
102
{ACAD_REACTORS
330
4C61
102
}
100
AcDbXrecord
102
ACADR14ROUNDTRIP
1000
DSTYLE
1002
{
1070
   279
 70
     2
1070
   341
340
6FA
1070
   342
340
6FA
1002
}
  0
XRECORD
  5
4C56
102
{ACAD_REACTORS
330
7D7
102
}
100
AcDbXrecord
340
A
  0
SORTENTSTABLE
  5
7D8
102
{ACAD_REACTORS
330
7D7
102
}
100
AcDbSortentsTable
330
A
331
43F1
  5
43F2
331
47EE
  5
47F0
331
47ED
  5
47EF
331
43F0
  5
43F1
331
47EC
  5
47EE
331
4435
  5
4759
331
47EB
  5
47ED
331
4434
  5
4435
331
47EA
  5
47EC
331
4433
  5
4434
331
47E9
  5
47EA
331
4432
  5
4433
331
4431
  5
4432
331
4430
  5
4431
331
47DA
  5
47E9
331
4804
  5
4AAD
331
4802
  5
4950
331
4759
  5
47DA
331
47FF
  5
4804
331
47FD
  5
4803
331
4AAD
  5
4954
331
4AAC
  5
4AD2
331
4AAB
  5
494F
331
4AAA
  5
47EB
331
4AA9
  5
47F5
331
4AA8
  5
4953
331
43EF
  5
43F0
331
43EE
  5
43EF
331
43ED
  5
43EE
331
43EC
  5
43ED
331
43EB
  5
43EC
331
43EA
  5
43EB
331
43E9
  5
43EA
331
442F
  5
4430
331
43E8
  5
43E9
331
43E7
  5
43E8
331
43E6
  5
43E7
331
43E5
  5
43E6
331
43E4
  5
43E5
331
43E3
  5
43E4
331
43E2
  5
43E3
331
43E1
  5
43E2
331
43E0
  5
43E1
331
4407
  5
442F
331
43DF
  5
43E0
331
4406
  5
4407
331
43DE
  5
43DF
331
4405
  5
4406
331
43DD
  5
43DE
331
4404
  5
4405
331
4403
  5
4404
331
43DB
  5
43DD
331
4402
  5
4403
331
43DA
  5
43DB
331
4401
  5
4402
331
43D9
  5
43DA
331
4400
  5
4401
331
43FF
  5
4400
331
43D8
  5
43D8
331
43D7
  5
43D7
331
43FE
  5
43FF
331
43FD
  5
43FE
331
43FC
  5
43FD
331
43FB
  5
43FC
331
43FA
  5
43FB
331
47F7
  5
4802
331
47F6
  5
47FF
331
43F9
  5
43FA
331
43F8
  5
43F9
331
47F5
  5
47FD
331
47F4
  5
47F7
331
43F7
  5
43F8
331
43F6
  5
43F7
331
47F3
  5
47F6
331
43F5
  5
43F6
331
47F1
  5
47F4
331
43F4
  5
43F5
331
43F3
  5
43F4
331
47F0
  5
47F3
331
47EF
  5
47F1
331
43F2
  5
43F3
  0
XRECORD
  5
4C58
102
{ACAD_REACTORS
330
4C57
102
}
100
AcDbXrecord
340
B
  0
XRECORD
  5
4C5A
102
{ACAD_REACTORS
330
4C59
102
}
100
AcDbXrecord
102
EXTNAMES
  1
ACDBVARIABLEDICTIONARY
  2
AcDbVariableDictionary
  0
DICTIONARY
  5
4C5D
100
AcDbDictionary
  3
ACAD_XREC_ROUNDTRIP
360
4C5E
  0
ACAD_ZOMBIE_OBJECT
  5
21
102
{ACAD_XDICTIONARY
360
4C1C
102
}
102
{ACAD_REACTORS
330
1E
102
}
100
AcDbZombieObject
 90
      499
 91
      515
 93
      812
310
AAAAAAAAAA5A69074C61796F757431406A800000000000000000000000000000000000000000000A1000000000000008902A6A6A10232D5E076BC5510408CB5781DAF154410232D5E076BC5510408CB5781DAF15C410232D5E076BC5710408CB5781DAF15C40
330
B
330
0
340
0
340
0
 94
        0
  0
ACAD_ZOMBIE_OBJECT
  5
20
102
{ACAD_XDICTIONARY
360
4C1A
102
}
102
{ACAD_REACTORS
330
1E
102
}
100
AcDbZombieObject
 90
      499
 91
      515
 93
      420
310
A00012AAAAAAAA5A69054D6F64656CAA80000000000000000000000000000000000000000000000000000000000000002AAAAAAAA0
330
A
330
0
340
0
340
0
 94
        0
  0
DICTIONARY
  5
4C5B
100
AcDbDictionary
  3
ACAD_XREC_ROUNDTRIP
360
4C5C
  0
MLINESTYLE
  5
1C
102
{ACAD_REACTORS
330
1B
102
}
100
AcDbMlineStyle
  2
STANDARD
 70
     0
  3

 62
     0
 51
90.0
 52
90.0
 71
     2
 49
0.5
 62
   256
  6
BYLAYER
 49
-0.5
 62
   256
  6
BYLAYER
  0
ACAD_ZOMBIE_OBJECT
  5
1D
102
{ACAD_REACTORS
330
1F
102
}
100
AcDbZombieObject
 90
      499
 91
      518
 93
        0
 94
        0
  0
DICTIONARY
  5
4C5F
100
AcDbDictionary
  3
ACAD_XREC_ROUNDTRIP
360
4C60
  0
ACAD_ZOMBIE_OBJECT
  5
6DD
102
{ACAD_REACTORS
330
6DC
102
}
100
AcDbZombieObject
 90
      499
 91
      525
 93
     1841
310
4214DD185B99185C9928000000000000F83F0000000000003E0FC00000000000004901028000000C1008070000C3001FDFF8000000C1003FBFF000000182007F7FE00000030400FEFFC00000060801FDFF8000000C1003FBFF000000182000000000000000C2020B0000001820100E000186003FBFF000000182007F7FE000
310
00030400FEFFC00000060801FDFF8000000C1003FBFF000000182007F7FE0000003040000000000000012404160000003040201C00030C007F7FE00000030400FEFFC00000060801FDFF8000000C1003FBFF000000182007F7FE00000030400FEFFC000000608000
340
17
340
17
340
17
 94
        0
1001
ACAD
1000
AcadProxyRoundTripData
1071
      524
1071
   393239
1070
     0
  0
XRECORD
  5
4C3F
102
{ACAD_REACTORS
330
4C35
102
}
100
AcDbXrecord
 90
        0
  0
XRECORD
  5
4C43
102
{ACAD_REACTORS
330
4C35
102
}
100
AcDbXrecord
1000
DSTYLE
1002
{
1070
   278
 70
     0
1070
   371
 70
     0
1070
   372
 70
     0
1002
}
  0
XRECORD
  5
4C40
102
{ACAD_REACTORS
330
4C35
102
}
100
AcDbXrecord
  1

  0
XRECORD
  5
4C38
102
{ACAD_REACTORS
330
4C35
102
}
100
AcDbXrecord
  1

  0
XRECORD
  5
4C3E
102
{ACAD_REACTORS
330
4C35
102
}
100
AcDbXrecord
 90
        0
  0
XRECORD
  5
4C3A
102
{ACAD_REACTORS
330
4C35
102
}
100
AcDbXrecord
340
1E
  0
XRECORD
  5
4C3D
102
{ACAD_REACTORS
330
4C35
102
}
100
AcDbXrecord
 90
    10752
  0
XRECORD
  5
4C3B
102
{ACAD_REACTORS
330
4C35
102
}
100
AcDbXrecord
340
22
  0
XRECORD
  5
4C3C
102
{ACAD_REACTORS
330
4C35
102
}
100
AcDbXrecord
340
1F
  0
XRECORD
  5
4C42
102
{ACAD_REACTORS
330
4C35
102
}
100
AcDbXrecord
 40
0.0
  0
XRECORD
  5
4C46
102
{ACAD_REACTORS
330
4C35
102
}
100
AcDbXrecord
340
0
  0
XRECORD
  5
4C4C
102
{ACAD_REACTORS
330
4C35
102
}
100
AcDbXrecord
 10
0.0
 20
0.0
 30
0.0
  0
XRECORD
  5
4C48
102
{ACAD_REACTORS
330
4C35
102
}
100
AcDbXrecord
 10
0.0
 20
0.0
 30
0.0
  0
XRECORD
  5
4C4B
102
{ACAD_REACTORS
330
4C35
102
}
100
AcDbXrecord
 10
0.0
 20
0.0
 30
0.0
  0
XRECORD
  5
4C49
102
{ACAD_REACTORS
330
4C35
102
}
100
AcDbXrecord
 10
0.0
 20
0.0
 30
0.0
  0
XRECORD
  5
4C4A
102
{ACAD_REACTORS
330
4C35
102
}
100
AcDbXrecord
 10
0.0
 20
0.0
 30
0.0
  0
XRECORD
  5
4C47
102
{ACAD_REACTORS
330
4C35
102
}
100
AcDbXrecord
 10
0.0
 20
0.0
 30
0.0
  0
XRECORD
  5
4C44
102
{ACAD_REACTORS
330
4C35
102
}
100
AcDbXrecord
340
0
  0
XRECORD
  5
4C45
102
{ACAD_REACTORS
330
4C35
102
}
100
AcDbXrecord
 70
     0
  0
XRECORD
  5
4C39
102
{ACAD_REACTORS
330
4C35
102
}
100
AcDbXrecord
  1

  0
XRECORD
  5
4C36
102
{ACAD_REACTORS
330
4C35
102
}
100
AcDbXrecord
 90
        1
  0
XRECORD
  5
4C37
102
{ACAD_REACTORS
330
4C35
102
}
100
AcDbXrecord
 90
       70
  0
XRECORD
  5
4C4F
102
{ACAD_REACTORS
330
4C35
102
}
100
AcDbXrecord
340
0
  0
XRECORD
  5
4C55
102
{ACAD_REACTORS
330
4C35
102
}
100
AcDbXrecord
 10
0.0
 20
0.0
 30
0.0
  0
XRECORD
  5
4C51
102
{ACAD_REACTORS
330
4C35
102
}
100
AcDbXrecord
 10
0.0
 20
0.0
 30
0.0
  0
XRECORD
  5
4C54
102
{ACAD_REACTORS
330
4C35
102
}
100
AcDbXrecord
 10
0.0
 20
0.0
 30
0.0
  0
XRECORD
  5
4C52
102
{ACAD_REACTORS
330
4C35
102
}
100
AcDbXrecord
 10
0.0
 20
0.0
 30
0.0
  0
XRECORD
  5
4C53
102
{ACAD_REACTORS
330
4C35
102
}
100
AcDbXrecord
 10
0.0
 20
0.0
 30
0.0
  0
XRECORD
  5
4C50
102
{ACAD_REACTORS
330
4C35
102
}
100
AcDbXrecord
 10
0.0
 20
0.0
 30
0.0
  0
XRECORD
  5
4C4D
102
{ACAD_REACTORS
330
4C35
102
}
100
AcDbXrecord
340
0
  0
XRECORD
  5
4C4E
102
{ACAD_REACTORS
330
4C35
102
}
100
AcDbXrecord
 70
     0
  0
XRECORD
  5
4C41
102
{ACAD_REACTORS
330
4C35
102
}
100
AcDbXrecord
  1
{5AE24F29-CE54-4E1B-9AF2-D069AF265E34}
  0
DICTIONARYVAR
  5
7DB
102
{ACAD_REACTORS
330
7DA
102
}
100
DictionaryVariables
280
     0
  1
STANDARD
  0
DICTIONARYVAR
  5
1A71
102
{ACAD_REACTORS
330
7DA
102
}
100
DictionaryVariables
280
     0
  1
1
  0
DICTIONARYVAR
  5
1A72
102
{ACAD_REACTORS
330
7DA
102
}
100
DictionaryVariables
280
     0
  1

  0
DICTIONARY
  5
4C63
100
AcDbDictionary
  3
ACAD_XREC_ROUNDTRIP
360
4C64
  0
XRECORD
  5
3572
102
{ACAD_REACTORS
330
3571
102
}
100
AcDbXrecord
330
0
330
0
330
0
330
0
330
0
330
0
330
0
330
0
330
0
330
0
330
0
330
0
330
0
330
0
330
0
330
0
330
0
330
0
330
0
330
0
330
0
330
0
330
0
330
0
330
0
330
0
330
0
330
0
330
0
330
0
330
0
  0
XRECORD
  5
4C5E
102
{ACAD_REACTORS
330
4C5D
102
}
100
AcDbXrecord
102
EXTNAMES
  1
LAYOUT1
  2
Layout1
  1
MODEL
  2
Model
  0
DICTIONARY
  5
4C1C
100
AcDbDictionary
  3
ACAD_XREC_ROUNDTRIP
360
4C1D
  0
DICTIONARY
  5
4C1A
100
AcDbDictionary
  3
ACAD_XREC_ROUNDTRIP
360
4C1B
  0
XRECORD
  5
4C5C
102
{ACAD_REACTORS
330
4C5B
102
}
100
AcDbXrecord
102
EXTNAMES
  1
STANDARD
  2
Standard
  0
XRECORD
  5
4C60
102
{ACAD_REACTORS
330
4C5F
102
}
100
AcDbXrecord
102
EXTNAMES
  1
STANDARD
  2
Standard
  0
XRECORD
  5
4C64
102
{ACAD_REACTORS
330
4C63
102
}
100
AcDbXrecord
102
EXTNAMES
  1
ASEBLOCKHIERARCHYINDEXRECORD
  2
ASEBlockHierarchyIndexRecord
  0
XRECORD
  5
4C1D
102
{ACAD_REACTORS
330
4C1C
102
}
100
AcDbXrecord
102
SHADEPLOT
 70
     0
102
SHADEPLOTRESLEVEL
 70
     2
102
SHADEPLOTCUSTOMDPI
 70
   300
  0
XRECORD
  5
4C1B
102
{ACAD_REACTORS
330
4C1A
102
}
100
AcDbXrecord
102
SHADEPLOT
 70
     0
102
SHADEPLOTRESLEVEL
 70
     2
102
SHADEPLOTCUSTOMDPI
 70
   300
  0
ENDSEC
  0
EOF
