  0
SECTION
  2
HEADER
  9
$ACADVER
  1
AC1014
  9
$ACADMAINTVER
 70
     0
  9
$DWGCODEPAGE
  3
ANSI_1252
  9
$INSBASE
 10
93.894301
 20
236.06014
 30
0.0
  9
$EXTMIN
 10
3.674256
 20
103.897802
 30
0.0
  9
$EXTMAX
 10
107.715223
 20
161.297802
 30
0.0
  9
$LIMMIN
 10
0.0
 20
0.0
  9
$LIMMAX
 10
210.0
 20
297.0
  9
$ORTHOMODE
 70
     1
  9
$REGENMODE
 70
     1
  9
$FILLMODE
 70
     1
  9
$QTEXTMODE
 70
     0
  9
$MIRRTEXT
 70
     0
  9
$DRAGMODE
 70
     1
  9
$LTSCALE
 40
7.0
  9
$OSMODE
 70
  4095
  9
$ATTMODE
 70
     1
  9
$TEXTSIZE
 40
2.5
  9
$TRACEWID
 40
0.05
  9
$TEXTSTYLE
  7
STANDARD
  9
$CLAYER
  8
COTATION1
  9
$CELTYPE
  6
BYLAYER
  9
$CECOLOR
 62
   256
  9
$CELTSCALE
 40
1.0
  9
$DELOBJ
 70
     1
  9
$DISPSILH
 70
     0
  9
$DIMSCALE
 40
1.0
  9
$DIMASZ
 40
3.0
  9
$DIMEXO
 40
0.0625
  9
$DIMDLI
 40
0.38
  9
$DIMRND
 40
0.01
  9
$DIMDLE
 40
0.0
  9
$DIMEXE
 40
0.18
  9
$DIMTP
 40
0.0
  9
$DIMTM
 40
0.0
  9
$DIMTXT
 40
2.5
  9
$DIMCEN
 40
0.09
  9
$DIMTSZ
 40
0.0
  9
$DIMTOL
 70
     0
  9
$DIMLIM
 70
     0
  9
$DIMTIH
 70
     0
  9
$DIMTOH
 70
     0
  9
$DIMSE1
 70
     0
  9
$DIMSE2
 70
     0
  9
$DIMTAD
 70
     1
  9
$DIMZIN
 70
    12
  9
$DIMBLK
  1

  9
$DIMASO
 70
     1
  9
$DIMSHO
 70
     0
  9
$DIMPOST
  1

  9
$DIMAPOST
  1

  9
$DIMALT
 70
     0
  9
$DIMALTD
 70
     2
  9
$DIMALTF
 40
25.4
  9
$DIMLFAC
 40
1.0
  9
$DIMTOFL
 70
     1
  9
$DIMTVP
 40
0.0
  9
$DIMTIX
 70
     0
  9
$DIMSOXD
 70
     0
  9
$DIMSAH
 70
     0
  9
$DIMBLK1
  1

  9
$DIMBLK2
  1

  9
$DIMSTYLE
  2
SC_STAND
  9
$DIMCLRD
 70
     0
  9
$DIMCLRE
 70
     0
  9
$DIMCLRT
 70
     0
  9
$DIMTFAC
 40
1.0
  9
$DIMGAP
 40
1.0
  9
$DIMJUST
 70
     0
  9
$DIMSD1
 70
     0
  9
$DIMSD2
 70
     0
  9
$DIMTOLJ
 70
     1
  9
$DIMTZIN
 70
    12
  9
$DIMALTZ
 70
    12
  9
$DIMALTTZ
 70
    12
  9
$DIMFIT
 70
     5
  9
$DIMUPT
 70
     0
  9
$DIMUNIT
 70
     2
  9
$DIMDEC
 70
     3
  9
$DIMTDEC
 70
     3
  9
$DIMALTU
 70
     2
  9
$DIMALTTD
 70
     2
  9
$DIMTXSTY
  7
STANDARD
  9
$DIMAUNIT
 70
     0
  9
$LUNITS
 70
     2
  9
$LUPREC
 70
     3
  9
$SKETCHINC
 40
0.1
  9
$FILLETRAD
 40
0.0625
  9
$AUNITS
 70
     0
  9
$AUPREC
 70
     0
  9
$MENU
  1
ACAD
  9
$ELEVATION
 40
0.0
  9
$PELEVATION
 40
0.0
  9
$THICKNESS
 40
0.0
  9
$LIMCHECK
 70
     0
  9
$BLIPMODE
 70
     1
  9
$CHAMFERA
 40
0.0
  9
$CHAMFERB
 40
0.0
  9
$CHAMFERC
 40
0.0
  9
$CHAMFERD
 40
0.0
  9
$SKPOLY
 70
     0
  9
$TDCREATE
 40
2450953.590960648
  9
$TDUPDATE
 40
2453109.719253831
  9
$TDINDWG
 40
0.0035477083
  9
$TDUSRTIMER
 40
0.0035477083
  9
$USRTIMER
 70
     1
  9
$ANGBASE
 50
0.0
  9
$ANGDIR
 70
     0
  9
$PDMODE
 70
     0
  9
$PDSIZE
 40
0.0
  9
$PLINEWID
 40
0.0
  9
$COORDS
 70
     0
  9
$SPLFRAME
 70
     0
  9
$SPLINETYPE
 70
     6
  9
$SPLINESEGS
 70
     8
  9
$ATTDIA
 70
     0
  9
$ATTREQ
 70
     1
  9
$HANDLING
 70
     1
  9
$HANDSEED
  5
D16
  9
$SURFTAB1
 70
     6
  9
$SURFTAB2
 70
     6
  9
$SURFTYPE
 70
     6
  9
$SURFU
 70
     6
  9
$SURFV
 70
     6
  9
$UCSNAME
  2

  9
$UCSORG
 10
0.0
 20
0.0
 30
0.0
  9
$UCSXDIR
 10
1.0
 20
0.0
 30
0.0
  9
$UCSYDIR
 10
0.0
 20
1.0
 30
0.0
  9
$PUCSNAME
  2

  9
$PUCSORG
 10
0.0
 20
0.0
 30
0.0
  9
$PUCSXDIR
 10
1.0
 20
0.0
 30
0.0
  9
$PUCSYDIR
 10
0.0
 20
1.0
 30
0.0
  9
$USERI1
 70
     0
  9
$USERI2
 70
     0
  9
$USERI3
 70
     0
  9
$USERI4
 70
     0
  9
$USERI5
 70
     0
  9
$USERR1
 40
0.0
  9
$USERR2
 40
0.0
  9
$USERR3
 40
0.0
  9
$USERR4
 40
0.0
  9
$USERR5
 40
0.0
  9
$WORLDVIEW
 70
     1
  9
$SHADEDGE
 70
     3
  9
$SHADEDIF
 70
    70
  9
$TILEMODE
 70
     1
  9
$MAXACTVP
 70
    32
  9
$PINSBASE
 10
0.0
 20
0.0
 30
0.0
  9
$PLIMCHECK
 70
     0
  9
$PEXTMIN
 10
-3.174999
 20
-3.175
 30
0.0
  9
$PEXTMAX
 10
203.812116
 20
370.276807
 30
0.0
  9
$PLIMMIN
 10
-3.175
 20
-3.175
  9
$PLIMMAX
 10
203.812115
 20
370.276807
  9
$UNITMODE
 70
     0
  9
$VISRETAIN
 70
     0
  9
$PLINEGEN
 70
     0
  9
$PSLTSCALE
 70
     1
  9
$TREEDEPTH
 70
  3020
  9
$PICKSTYLE
 70
     1
  9
$CMLSTYLE
  2
STANDARD
  9
$CMLJUST
 70
     0
  9
$CMLSCALE
 40
1.0
  9
$PROXYGRAPHICS
 70
     1
  9
$MEASUREMENT
 70
     0
  0
ENDSEC
  0
SECTION
  2
CLASSES
  0
CLASS
  1
DICTIONARYVAR
  2
AcDbDictionaryVar
  3
"AutoCAD"
 90
        0
280
     0
281
     0
  0
CLASS
  1
HATCH
  2
AcDbHatch
  3
"ACAD_SEDONA"
 90
        0
280
     0
281
     1
  0
ENDSEC
  0
SECTION
  2
TABLES
  0
TABLE
  2
VPORT
  5
F4
100
AcDbSymbolTable
 70
     1
  0
VPORT
  5
D12
100
AcDbSymbolTableRecord
100
AcDbViewportTableRecord
  2
*ACTIVE
 70
     0
 10
0.0
 20
0.0
 11
1.0
 21
1.0
 12
55.693131
 22
132.593171
 13
0.0
 23
0.0
 14
1.0
 24
1.0
 15
10.0
 25
10.0
 16
0.0
 26
0.0
 36
1.0
 17
0.0
 27
0.0
 37
0.0
 40
72.336048
 41
1.446134
 42
50.0
 43
0.0
 44
0.0
 50
0.0
 51
0.0
 71
     0
 72
   100
 73
     1
 74
     1
 75
     0
 76
     1
 77
     0
 78
     0
  0
ENDTAB
  0
TABLE
  2
LTYPE
  5
F1
100
AcDbSymbolTable
 70
     5
  0
LTYPE
  5
FD
100
AcDbSymbolTableRecord
100
AcDbLinetypeTableRecord
  2
BYBLOCK
 70
     0
  3

 72
    65
 73
     0
 40
0.0
  0
LTYPE
  5
FE
100
AcDbSymbolTableRecord
100
AcDbLinetypeTableRecord
  2
BYLAYER
 70
     0
  3

 72
    65
 73
     0
 40
0.0
  0
LTYPE
  5
FF
100
AcDbSymbolTableRecord
100
AcDbLinetypeTableRecord
  2
CONTINUOUS
 70
     0
  3
Solid line
 72
    65
 73
     0
 40
0.0
  0
LTYPE
  5
110
100
AcDbSymbolTableRecord
100
AcDbLinetypeTableRecord
  2
CACHE
 70
     0
  3
__ __ __ __ __ __ __ __ __ __ __ __ __ __ __ __
 72
    65
 73
     2
 40
0.375
 49
0.25
 74
     0
 49
-0.125
 74
     0
  0
LTYPE
  5
112
100
AcDbSymbolTableRecord
100
AcDbLinetypeTableRecord
  2
AXES2
 70
     0
  3
___ _ ___ _ ___ _ ___ _ ___ _ ___ _ ___ _ ___ _
 72
    65
 73
     4
 40
1.125
 49
0.75
 74
     0
 49
-0.125
 74
     0
 49
0.125
 74
     0
 49
-0.125
 74
     0
  0
LTYPE
  5
120
100
AcDbSymbolTableRecord
100
AcDbLinetypeTableRecord
  2
CACHE2
 70
     0
  3
_ _ _ _ _ _ _ _ _ _ _ _ _ _ _ _ _ _ _ _ _ _ _ _
 72
    65
 73
     2
 40
0.1875
 49
0.125
 74
     0
 49
-0.0625
 74
     0
  0
LTYPE
  5
121
100
AcDbSymbolTableRecord
100
AcDbLinetypeTableRecord
  2
CACHEX2
 70
     0
  3
____ ____ ____ ____ ____ ____ ____ ____ ____ __
 72
    65
 73
     2
 40
0.75
 49
0.5
 74
     0
 49
-0.25
 74
     0
  0
ENDTAB
  0
TABLE
  2
LAYER
  5
EE
100
AcDbSymbolTable
 70
     6
  0
LAYER
  5
FA
100
AcDbSymbolTableRecord
100
AcDbLayerTableRecord
  2
0
 70
     0
 62
     7
  6
CONTINUOUS
  0
LAYER
  5
12C
100
AcDbSymbolTableRecord
100
AcDbLayerTableRecord
  2
ALPHA
 70
     0
 62
   255
  6
CONTINUOUS
  0
LAYER
  5
12F
100
AcDbSymbolTableRecord
100
AcDbLayerTableRecord
  2
COTATION1
 70
     0
 62
     2
  6
CONTINUOUS
  0
LAYER
  5
13B
100
AcDbSymbolTableRecord
100
AcDbLayerTableRecord
  2
ASHADE
 70
     0
 62
     7
  6
CONTINUOUS
  0
LAYER
  5
13E
100
AcDbSymbolTableRecord
100
AcDbLayerTableRecord
  2
DEFPOINTS
 70
     0
 62
     7
  6
CONTINUOUS
  0
LAYER
  5
59C
100
AcDbSymbolTableRecord
100
AcDbLayerTableRecord
  2
COTE_CONST
 70
     0
 62
     7
  6
CONTINUOUS
  0
ENDTAB
  0
TABLE
  2
STYLE
  5
EF
100
AcDbSymbolTable
 70
     2
  0
STYLE
  5
FB
100
AcDbSymbolTableRecord
100
AcDbTextStyleTableRecord
  2
STANDARD
 70
     0
 40
0.0
 41
1.0
 50
0.0
 71
     0
 42
2.5
  3
txt
  4

  0
STYLE
  5
386
100
AcDbSymbolTableRecord
100
AcDbTextStyleTableRecord
  2
STD
 70
     0
 40
0.0
 41
1.0
 50
0.0
 71
     0
 42
0.0
  3
txt
  4

  0
ENDTAB
  0
TABLE
  2
VIEW
  5
F2
100
AcDbSymbolTable
 70
     0
  0
ENDTAB
  0
TABLE
  2
UCS
  5
F3
100
AcDbSymbolTable
 70
     0
  0
ENDTAB
  0
TABLE
  2
APPID
  5
F5
100
AcDbSymbolTable
 70
     3
  0
APPID
  5
FC
100
AcDbSymbolTableRecord
100
AcDbRegAppTableRecord
  2
ACAD
 70
     0
  0
APPID
  5
127
100
AcDbSymbolTableRecord
100
AcDbRegAppTableRecord
  2
AVE_RENDER
 70
     0
  0
APPID
  5
128
100
AcDbSymbolTableRecord
100
AcDbRegAppTableRecord
  2
AVE_MATERIAL
 70
     0
  0
ENDTAB
  0
TABLE
  2
DIMSTYLE
  5
F6
100
AcDbSymbolTable
 70
     2
  0
DIMSTYLE
105
129
100
AcDbSymbolTableRecord
100
AcDbDimStyleTableRecord
  2
STANDARD
 70
     0
  3

  4

  5

  6

  7

 40
1.0
 41
0.18
 42
0.0625
 43
0.38
 44
0.18
 45
0.0
 46
0.0
 47
0.0
 48
0.0
140
0.18
141
0.09
142
0.0
143
25.4
144
1.0
145
0.0
146
1.0
147
0.09
 71
     0
 72
     0
 73
     1
 74
     1
 75
     0
 76
     0
 77
     0
 78
     0
170
     0
171
     2
172
     0
173
     0
174
     0
175
     0
176
     0
177
     0
178
     0
270
     2
271
     3
272
     3
273
     2
274
     2
340
FB
275
     0
280
     0
281
     0
282
     0
283
     1
284
    12
285
    12
286
    12
287
     5
288
     0
  0
DIMSTYLE
105
12A
100
AcDbSymbolTableRecord
100
AcDbDimStyleTableRecord
  2
SC_STAND
 70
     0
  3

  4

  5

  6

  7

 40
1.0
 41
3.0
 42
0.0625
 43
0.38
 44
0.18
 45
0.01
 46
0.0
 47
0.0
 48
0.0
140
2.5
141
0.09
142
0.0
143
25.4
144
1.0
145
0.0
146
1.0
147
1.0
 71
     0
 72
     0
 73
     0
 74
     0
 75
     0
 76
     0
 77
     1
 78
    12
170
     0
171
     2
172
     1
173
     0
174
     0
175
     0
176
     0
177
     0
178
     0
270
     2
271
     3
272
     3
273
     2
274
     2
340
FB
275
     0
280
     0
281
     0
282
     0
283
     1
284
    12
285
    12
286
    12
287
     5
288
     0
  0
ENDTAB
  0
TABLE
  2
BLOCK_RECORD
  5
ED
100
AcDbSymbolTable
 70
     9
  0
BLOCK_RECORD
  5
103
100
AcDbSymbolTableRecord
100
AcDbBlockTableRecord
  2
*MODEL_SPACE
  0
BLOCK_RECORD
  5
100
100
AcDbSymbolTableRecord
100
AcDbBlockTableRecord
  2
*PAPER_SPACE
  0
BLOCK_RECORD
  5
108
100
AcDbSymbolTableRecord
100
AcDbBlockTableRecord
  2
AVE_RENDER
  0
BLOCK_RECORD
  5
109
100
AcDbSymbolTableRecord
100
AcDbBlockTableRecord
  2
AVE_GLOBAL
  0
BLOCK_RECORD
  5
10A
100
AcDbSymbolTableRecord
100
AcDbBlockTableRecord
  2
SCH_IS
  0
BLOCK_RECORD
  5
14D
100
AcDbSymbolTableRecord
100
AcDbBlockTableRecord
  2
AI9-BLK1
  0
BLOCK_RECORD
  5
37A
100
AcDbSymbolTableRecord
100
AcDbBlockTableRecord
  2
AI9-BLK7
  0
BLOCK_RECORD
  5
37E
100
AcDbSymbolTableRecord
100
AcDbBlockTableRecord
  2
AI9-BLK8
  0
BLOCK_RECORD
  5
382
100
AcDbSymbolTableRecord
100
AcDbBlockTableRecord
  2
AI9-BLK9
  0
BLOCK_RECORD
  5
CD7
100
AcDbSymbolTableRecord
100
AcDbBlockTableRecord
  2
*D8
  0
ENDTAB
  0
ENDSEC
  0
SECTION
  2
BLOCKS
  0
BLOCK
  5
141
100
AcDbEntity
  8
0
100
AcDbBlockBegin
  2
*MODEL_SPACE
 70
     0
 10
0.0
 20
0.0
 30
0.0
  3
*MODEL_SPACE
  1

  0
ENDBLK
  5
142
100
AcDbEntity
  8
0
100
AcDbBlockEnd
  0
BLOCK
  5
13F
100
AcDbEntity
 67
     1
  8
0
100
AcDbBlockBegin
  2
*PAPER_SPACE
 70
     0
 10
0.0
 20
0.0
 30
0.0
  3
*PAPER_SPACE
  1

  0
ENDBLK
  5
140
100
AcDbEntity
 67
     1
  8
0
100
AcDbBlockEnd
  0
BLOCK
  5
8D
100
AcDbEntity
  8
0
100
AcDbBlockBegin
  2
AVE_RENDER
 70
     0
 10
0.0
 20
0.0
 30
0.0
  3
AVE_RENDER
  1
AVE_RENDER
  0
ENDBLK
  5
8E
100
AcDbEntity
  8
0
100
AcDbBlockEnd
  0
BLOCK
  5
90
100
AcDbEntity
  8
0
100
AcDbBlockBegin
  2
AVE_GLOBAL
 70
     0
 10
0.0
 20
0.0
 30
0.0
  3
AVE_GLOBAL
  1
AVE_GLOBAL
  0
ENDBLK
  5
91
100
AcDbEntity
  8
0
100
AcDbBlockEnd
  0
BLOCK
  5
C9
100
AcDbEntity
  8
0
100
AcDbBlockBegin
  2
SCH_IS
 70
     0
 10
0.0
 20
0.0
 30
0.0
  3
SCH_IS
  1

  0
INSERT
  5
C0
100
AcDbEntity
  8
ASHADE
 62
     1
100
AcDbBlockReference
  2
AVE_RENDER
 10
0.0
 20
0.0
 30
0.0
1001
AVE_RENDER
1002
{
1070
     6
1000
Pref
1070
    50
1070
    20
1070
     1
1070
     0
1000

1070
    10
1070
     1
1070
    30
1040
25.4
1070
     1
1040
0.3
1040
0.7
1040
0.0
1040
10.0
1010
-1.0
1020
-1.0
1030
-1.0
1040
0.3
1070
    49
1070
     0
1070
     0
1010
1.0
1020
1.0
1030
1.0
1040
45.0
1070
     1
1070
     0
1000
WCS
1040
0.0
1002
}
  0
INSERT
  5
C1
100
AcDbEntity
  8
ASHADE
 62
     3
100
AcDbBlockReference
  2
AVE_RENDER
 10
0.0
 20
0.0
 30
0.0
1001
AVE_RENDER
1002
{
1070
     0
1000
Full Opt
1070
     0
1070
     1
1070
     1
1070
     1
1070
     0
1070
     0
1070
     0
1070
     1
1070
     1
1040
0.0001
1040
0.0001
1002
}
  0
INSERT
  5
C2
100
AcDbEntity
  8
ASHADE
 62
     4
100
AcDbBlockReference
  2
AVE_RENDER
 10
0.0
 20
0.0
 30
0.0
1001
AVE_RENDER
1002
{
1070
     0
1000
Quick Opt
1070
     0
1070
     1
1070
     1
1070
     1
1070
     0
1070
     0
1070
     1
1002
}
  0
INSERT
  5
C3
100
AcDbEntity
  8
ASHADE
 62
     5
100
AcDbBlockReference
  2
AVE_RENDER
 10
0.0
 20
0.0
 30
0.0
1001
AVE_RENDER
1002
{
1070
     1
1000
Scanl Opt
1070
     2
1070
     0
1070
     2
1040
2.0
1040
4.0
1070
     0
1070
     1
1070
     0
1040
0.03
1002
}
  0
INSERT
  5
C4
100
AcDbEntity
  8
ASHADE
 62
     6
100
AcDbBlockReference
  2
AVE_RENDER
 10
0.0
 20
0.0
 30
0.0
1001
AVE_RENDER
1002
{
1070
     2
1000
Raytr Opt
1070
     2
1070
     0
1070
     2
1040
2.0
1040
4.0
1070
     0
1070
     1
1070
     1
1040
0.03
1070
     3
1040
0.03
1002
}
  0
INSERT
  5
C5
100
AcDbEntity
  8
ASHADE
 62
     7
100
AcDbBlockReference
  2
AVE_RENDER
 10
0.0
 20
0.0
 30
0.0
1001
AVE_RENDER
1002
{
1070
     0
1000
RFile Opt
1070
     5
1070
   640
1070
   480
1070
 10000
1070
     3
1070
    32
1070
    24
1070
     0
1070
     0
1070
     0
1070
     1
1070
     0
1070
     0
1070
     0
1002
}
  0
INSERT
  5
C6
100
AcDbEntity
  8
ASHADE
 62
     8
100
AcDbBlockReference
  2
AVE_RENDER
 10
0.0
 20
0.0
 30
0.0
1001
AVE_RENDER
1002
{
1070
     0
1000
Fog Opt
1070
     0
1070
     0
1040
0.0
1040
1.0
1040
0.0
1040
1.0
1010
0.5
1020
0.5
1030
0.5
1002
}
  0
INSERT
  5
C7
100
AcDbEntity
  8
ASHADE
 62
     9
100
AcDbBlockReference
  2
AVE_RENDER
 10
0.0
 20
0.0
 30
0.0
1001
AVE_RENDER
1002
{
1070
     0
1000
BG Opt
1070
     0
1070
     1
1010
0.0
1020
0.0
1030
0.0
1010
1.0
1020
0.0
1030
0.0
1010
0.0
1020
1.0
1030
0.0
1010
0.0
1020
0.0
1030
1.0
1040
0.5
1040
0.33
1040
0.0
1000

1070
     1
1000

1070
     1
1070
     1
1040
1.0
1040
1.0
1040
0.0
1040
0.0
1070
     0
1002
}
  0
INSERT
  5
C8
100
AcDbEntity
  8
ASHADE
 62
     1
100
AcDbBlockReference
  2
AVE_GLOBAL
 10
0.0
 20
0.0
 30
0.0
1001
AVE_MATERIAL
1002
{
1000
*GLOBAL*
1000
1
1000
Finition globale.
1002
{
1002
}
1002
{
1070
    63
1002
{
1002
{
1010
-1.0
1020
-1.0
1030
-1.0
1002
}
1040
0.1
1000

1040
0.0
1002
{
1002
}
1040
0.0
1002
{
1002
}
1040
0.0
1002
}
1002
{
1002
{
1010
-1.0
1020
-1.0
1030
-1.0
1002
}
1040
0.7
1000

1040
0.0
1002
{
1002
}
1040
0.0
1002
{
1002
}
1040
0.0
1002
}
1002
{
1002
{
1010
-1.0
1020
-1.0
1030
-1.0
1002
}
1040
0.2
1000

1040
0.0
1002
{
1002
}
1040
0.0
1002
{
1002
}
1040
0.0
1002
}
1002
{
1070
     0
1002
{
1070
     1
1002
{
1040
1.0
1040
1.0
1000

1040
0.0
1002
{
1002
}
1040
0.0
1002
{
1002
}
1040
0.0
1002
}
1002
}
1040
1.0
1040
0.0
1040
0.0
1002
}
1002
{
1040
1.0
1040
1.0
1000

1040
0.0
1002
{
1002
}
1040
0.0
1002
{
1002
}
1040
0.0
1002
}
1002
{
1040
0.5
1040
1.0
1000

1040
0.0
1002
{
1002
}
1040
0.0
1002
{
1002
}
1040
0.0
1002
}
1002
{
1070
     0
1040
0.0
1002
{
1002
}
1040
1.0
1002
{
1002
}
1040
0.0
1002
}
1002
{
1040
0.0
1002
{
1002
{
1010
0.0
1020
0.0
1030
0.0
1002
}
1040
1.0
1000

1040
0.0
1002
{
1002
}
1040
0.0
1002
{
1002
}
1040
0.0
1002
}
1002
}
1002
{
1002
{
1070
     1
1002
{
1040
0.0
1040
1.0
1000

1040
0.0
1002
{
1002
}
1040
0.0
1002
{
1002
}
1040
0.0
1002
}
1002
}
1040
0.0
1002
{
1002
}
1010
1.0
1020
0.0
1030
0.0
1010
0.0
1020
1.0
1030
0.0
1010
0.0
1020
0.0
1030
1.0
1070
     0
1002
}
1002
{
1002
{
1040
1.0
1040
1.0
1002
{
1070
     1
1002
{
1040
1.0
1040
1.0
1000

1040
0.0
1002
{
1002
}
1040
0.0
1002
{
1002
}
1040
0.0
1002
}
1002
}
1002
}
1070
     0
1040
0.0
1002
{
1002
}
1002
}
1002
{
1002
}
1002
}
1002
{
1071
        3
1070
     3
1070
     0
1002
{
1070
     2
1070
     0
1070
     0
1040
0.0
1002
}
1070
     0
1070
     2
1002
{
1002
}
1002
}
1002
{
1040
8030.0
1040
190.300003
1040
0.305
1040
228.0
1040
545.0
1040
14.0
1040
17.4
1040
0.456
1002
}
1002
}
  0
ENDBLK
  5
CA
100
AcDbEntity
  8
0
100
AcDbBlockEnd
  0
BLOCK
  5
232
100
AcDbEntity
  8
ALPHA
 62
     7
100
AcDbBlockBegin
  2
AI9-BLK1
 70
     0
 10
0.0
 20
0.0
 30
0.0
  3
AI9-BLK1
  1

  0
SPLINE
  5
14E
100
AcDbEntity
  8
ALPHA
 62
     7
100
AcDbSpline
210
0.0
220
0.0
230
-1.0
 70
    11
 71
     3
 72
    29
 73
    25
 74
     0
 42
0.0000001
 43
0.0000001
 40
0.0
 40
0.0
 40
0.0
 40
0.0
 40
1.0
 40
1.0
 40
1.0
 40
2.0
 40
2.0
 40
2.0
 40
3.0
 40
3.0
 40
3.0
 40
4.0
 40
4.0
 40
4.0
 40
5.0
 40
5.0
 40
5.0
 40
6.0
 40
6.0
 40
6.0
 40
7.0
 40
7.0
 40
7.0
 40
8.0
 40
8.0
 40
8.0
 40
8.0
 10
146.0000891791449
 20
-98.25020446777344
 30
0.0
 10
146.0000891791449
 20
-99.90660637749565
 30
0.0
 10
144.6571909586588
 20
-101.2501936170789
 30
0.0
 10
143.0001000298393
 20
-101.2501936170789
 30
0.0
 10
143.0001000298393
 20
-101.2501936170789
 30
0.0
 10
-143.0000139024522
 20
-101.2501936170789
 30
0.0
 10
-143.0000139024522
 20
-101.2501936170789
 30
0.0
 10
-144.656760321723
 20
-101.2501936170789
 30
0.0
 10
-146.0000030517577
 20
-99.90660637749565
 30
0.0
 10
-146.0000030517577
 20
-98.25020446777344
 30
0.0
 10
-146.0000030517577
 20
-98.25020446777344
 30
0.0
 10
-146.0000030517577
 20
98.25011834038628
 30
0.0
 10
-146.0000030517577
 20
98.25011834038628
 30
0.0
 10
-146.0000030517577
 20
99.90686475965711
 30
0.0
 10
-144.656760321723
 20
101.2501074896918
 30
0.0
 10
-143.0000139024522
 20
101.2501074896918
 30
0.0
 10
-143.0000139024522
 20
101.2501074896918
 30
0.0
 10
143.0001000298393
 20
101.2501074896918
 30
0.0
 10
143.0001000298393
 20
101.2501074896918
 30
0.0
 10
144.6571909586588
 20
101.2501074896918
 30
0.0
 10
146.0000891791449
 20
99.90686475965711
 30
0.0
 10
146.0000891791449
 20
98.25011834038628
 30
0.0
 10
146.0000891791449
 20
98.25011834038628
 30
0.0
 10
146.0000891791449
 20
-98.25020446777344
 30
0.0
 10
146.0000891791449
 20
-98.25020446777344
 30
0.0
  0
SPLINE
  5
14F
100
AcDbEntity
  8
ALPHA
 62
     7
100
AcDbSpline
210
0.0
220
0.0
230
-1.0
 70
    11
 71
     3
 72
    29
 73
    25
 74
     0
 42
0.0000001
 43
0.0000001
 40
0.0
 40
0.0
 40
0.0
 40
0.0
 40
1.0
 40
1.0
 40
1.0
 40
2.0
 40
2.0
 40
2.0
 40
3.0
 40
3.0
 40
3.0
 40
4.0
 40
4.0
 40
4.0
 40
5.0
 40
5.0
 40
5.0
 40
6.0
 40
6.0
 40
6.0
 40
7.0
 40
7.0
 40
7.0
 40
8.0
 40
8.0
 40
8.0
 40
8.0
 10
76.18936326768663
 20
40.38818935818142
 30
0.0
 10
77.01894226074218
 20
40.38818935818142
 30
0.0
 10
77.69142489963107
 20
41.0606719970703
 30
0.0
 10
77.69142489963107
 20
41.88887295193142
 30
0.0
 10
77.69142489963107
 20
41.88887295193142
 30
0.0
 10
77.87056986490885
 20
67.24339769151474
 30
0.0
 10
77.87056986490885
 20
67.24339769151474
 30
0.0
 10
77.87056986490885
 20
68.0757327609592
 30
0.0
 10
77.19808722601996
 20
68.74683736165363
 30
0.0
 10
76.36437411838106
 20
68.74683736165363
 30
0.0
 10
76.36437411838106
 20
68.74683736165363
 30
0.0
 10
-76.01202697753905
 20
68.92460428873697
 30
0.0
 10
-76.01202697753905
 20
68.92460428873697
 30
0.0
 10
-76.84022793240017
 20
68.92460428873697
 30
0.0
 10
-77.51271057128906
 20
68.25074361165363
 30
0.0
 10
-77.51271057128906
 20
67.42116461859808
 30
0.0
 10
-77.51271057128906
 20
67.42116461859808
 30
0.0
 10
-77.69185553656683
 20
41.88887295193142
 30
0.0
 10
-77.69185553656683
 20
41.88887295193142
 30
0.0
 10
-77.69185553656683
 20
41.0606719970703
 30
0.0
 10
-77.01937289767794
 20
40.38818935818142
 30
0.0
 10
-76.1870378282335
 20
40.38818935818142
 30
0.0
 10
-76.1870378282335
 20
40.38818935818142
 30
0.0
 10
76.18936326768663
 20
40.38818935818142
 30
0.0
 10
76.18936326768663
 20
40.38818935818142
 30
0.0
  0
POLYLINE
  5
150
100
AcDbEntity
  8
ALPHA
 62
     7
100
AcDb2dPolyline
 66
     1
 10
0.0
 20
0.0
 30
0.0
 70
     1
  0
VERTEX
  5
151
100
AcDbEntity
  8
ALPHA
 62
     7
100
AcDbVertex
100
AcDb2dVertex
 10
77.691425
 20
-84.679973
 30
0.0
  0
VERTEX
  5
152
100
AcDbEntity
  8
ALPHA
 62
     7
100
AcDbVertex
100
AcDb2dVertex
 10
77.691425
 20
25.69279
 30
0.0
  0
VERTEX
  5
153
100
AcDbEntity
  8
ALPHA
 62
     7
100
AcDbVertex
100
AcDb2dVertex
 10
-77.691856
 20
25.69279
 30
0.0
  0
VERTEX
  5
154
100
AcDbEntity
  8
ALPHA
 62
     7
100
AcDbVertex
100
AcDb2dVertex
 10
-77.691856
 20
-84.679973
 30
0.0
  0
SEQEND
  5
155
100
AcDbEntity
  8
ALPHA
 62
     7
  0
POLYLINE
  5
156
100
AcDbEntity
  8
ALPHA
 62
     7
100
AcDb2dPolyline
 66
     1
 10
0.0
 20
0.0
 30
0.0
 70
     1
  0
VERTEX
  5
157
100
AcDbEntity
  8
ALPHA
 62
     7
100
AcDbVertex
100
AcDb2dVertex
 10
-36.28198
 20
-29.293862
 30
0.0
  0
VERTEX
  5
158
100
AcDbEntity
  8
ALPHA
 62
     7
100
AcDbVertex
100
AcDb2dVertex
 10
-41.795511
 20
-25.282393
 30
0.0
  0
VERTEX
  5
159
100
AcDbEntity
  8
ALPHA
 62
     7
100
AcDbVertex
100
AcDb2dVertex
 10
-41.795511
 20
-25.282393
 30
0.0
  0
VERTEX
  5
15A
100
AcDbEntity
  8
ALPHA
 62
     7
100
AcDbVertex
100
AcDb2dVertex
 10
-47.307664
 20
-29.293862
 30
0.0
  0
VERTEX
  5
15B
100
AcDbEntity
  8
ALPHA
 62
     7
100
AcDbVertex
100
AcDb2dVertex
 10
-44.558477
 20
-29.297996
 30
0.0
  0
VERTEX
  5
15C
100
AcDbEntity
  8
ALPHA
 62
     7
100
AcDbVertex
100
AcDb2dVertex
 10
-44.558477
 20
-32.304876
 30
0.0
  0
VERTEX
  5
15D
100
AcDbEntity
  8
ALPHA
 62
     7
100
AcDbVertex
100
AcDb2dVertex
 10
-39.046325
 20
-32.304876
 30
0.0
  0
VERTEX
  5
15E
100
AcDbEntity
  8
ALPHA
 62
     7
100
AcDbVertex
100
AcDb2dVertex
 10
-39.046325
 20
-29.297996
 30
0.0
  0
SEQEND
  5
15F
100
AcDbEntity
  8
ALPHA
 62
     7
  0
POLYLINE
  5
160
100
AcDbEntity
  8
ALPHA
 62
     7
100
AcDb2dPolyline
 66
     1
 10
0.0
 20
0.0
 30
0.0
 70
     1
  0
VERTEX
  5
161
100
AcDbEntity
  8
ALPHA
 62
     7
100
AcDbVertex
100
AcDb2dVertex
 10
-23.222312
 20
-53.379214
 30
0.0
  0
VERTEX
  5
162
100
AcDbEntity
  8
ALPHA
 62
     7
100
AcDbVertex
100
AcDb2dVertex
 10
-19.210843
 20
-47.865683
 30
0.0
  0
VERTEX
  5
163
100
AcDbEntity
  8
ALPHA
 62
     7
100
AcDbVertex
100
AcDb2dVertex
 10
-19.210843
 20
-47.865683
 30
0.0
  0
VERTEX
  5
164
100
AcDbEntity
  8
ALPHA
 62
     7
100
AcDbVertex
100
AcDb2dVertex
 10
-23.222312
 20
-42.349396
 30
0.0
  0
VERTEX
  5
165
100
AcDbEntity
  8
ALPHA
 62
     7
100
AcDbVertex
100
AcDb2dVertex
 10
-23.231958
 20
-45.102716
 30
0.0
  0
VERTEX
  5
166
100
AcDbEntity
  8
ALPHA
 62
     7
100
AcDbVertex
100
AcDb2dVertex
 10
-26.238838
 20
-45.102716
 30
0.0
  0
VERTEX
  5
167
100
AcDbEntity
  8
ALPHA
 62
     7
100
AcDbVertex
100
AcDb2dVertex
 10
-26.238838
 20
-50.614869
 30
0.0
  0
VERTEX
  5
168
100
AcDbEntity
  8
ALPHA
 62
     7
100
AcDbVertex
100
AcDb2dVertex
 10
-23.231958
 20
-50.614869
 30
0.0
  0
SEQEND
  5
169
100
AcDbEntity
  8
ALPHA
 62
     7
  0
POLYLINE
  5
16A
100
AcDbEntity
  8
ALPHA
 62
     7
100
AcDb2dPolyline
 66
     1
 10
0.0
 20
0.0
 30
0.0
 70
     1
  0
VERTEX
  5
16B
100
AcDbEntity
  8
ALPHA
 62
     7
100
AcDbVertex
100
AcDb2dVertex
 10
-60.367159
 20
-42.349396
 30
0.0
  0
VERTEX
  5
16C
100
AcDbEntity
  8
ALPHA
 62
     7
100
AcDbVertex
100
AcDb2dVertex
 10
-64.378629
 20
-47.865683
 30
0.0
  0
VERTEX
  5
16D
100
AcDbEntity
  8
ALPHA
 62
     7
100
AcDbVertex
100
AcDb2dVertex
 10
-64.378629
 20
-47.865683
 30
0.0
  0
VERTEX
  5
16E
100
AcDbEntity
  8
ALPHA
 62
     7
100
AcDbVertex
100
AcDb2dVertex
 10
-60.367159
 20
-53.379214
 30
0.0
  0
VERTEX
  5
16F
100
AcDbEntity
  8
ALPHA
 62
     7
100
AcDbVertex
100
AcDb2dVertex
 10
-60.363025
 20
-50.62865
 30
0.0
  0
VERTEX
  5
170
100
AcDbEntity
  8
ALPHA
 62
     7
100
AcDbVertex
100
AcDb2dVertex
 10
-57.356146
 20
-50.62865
 30
0.0
  0
VERTEX
  5
171
100
AcDbEntity
  8
ALPHA
 62
     7
100
AcDbVertex
100
AcDb2dVertex
 10
-57.356146
 20
-45.112363
 30
0.0
  0
VERTEX
  5
172
100
AcDbEntity
  8
ALPHA
 62
     7
100
AcDbVertex
100
AcDb2dVertex
 10
-60.363025
 20
-45.112363
 30
0.0
  0
SEQEND
  5
173
100
AcDbEntity
  8
ALPHA
 62
     7
  0
POLYLINE
  5
174
100
AcDbEntity
  8
ALPHA
 62
     7
100
AcDb2dPolyline
 66
     1
 10
0.0
 20
0.0
 30
0.0
 70
     1
  0
VERTEX
  5
175
100
AcDbEntity
  8
ALPHA
 62
     7
100
AcDbVertex
100
AcDb2dVertex
 10
-47.307664
 20
-66.438882
 30
0.0
  0
VERTEX
  5
176
100
AcDbEntity
  8
ALPHA
 62
     7
100
AcDbVertex
100
AcDb2dVertex
 10
-41.795511
 20
-70.444839
 30
0.0
  0
VERTEX
  5
177
100
AcDbEntity
  8
ALPHA
 62
     7
100
AcDbVertex
100
AcDb2dVertex
 10
-41.795511
 20
-70.444839
 30
0.0
  0
VERTEX
  5
178
100
AcDbEntity
  8
ALPHA
 62
     7
100
AcDbVertex
100
AcDb2dVertex
 10
-36.28198
 20
-66.438882
 30
0.0
  0
VERTEX
  5
179
100
AcDbEntity
  8
ALPHA
 62
     7
100
AcDbVertex
100
AcDb2dVertex
 10
-39.032544
 20
-66.429236
 30
0.0
  0
VERTEX
  5
17A
100
AcDbEntity
  8
ALPHA
 62
     7
100
AcDbVertex
100
AcDb2dVertex
 10
-39.032544
 20
-63.422356
 30
0.0
  0
VERTEX
  5
17B
100
AcDbEntity
  8
ALPHA
 62
     7
100
AcDbVertex
100
AcDb2dVertex
 10
-44.544697
 20
-63.422356
 30
0.0
  0
VERTEX
  5
17C
100
AcDbEntity
  8
ALPHA
 62
     7
100
AcDbVertex
100
AcDb2dVertex
 10
-44.544697
 20
-66.429236
 30
0.0
  0
SEQEND
  5
17D
100
AcDbEntity
  8
ALPHA
 62
     7
  0
SPLINE
  5
17E
100
AcDbEntity
  8
ALPHA
 62
     7
100
AcDbSpline
210
0.0
220
0.0
230
-1.0
 70
     8
 71
     3
 72
    17
 73
    13
 74
     0
 42
0.0000001
 43
0.0000001
 40
0.0
 40
0.0
 40
0.0
 40
0.0
 40
1.0
 40
1.0
 40
1.0
 40
2.0
 40
2.0
 40
2.0
 40
3.0
 40
3.0
 40
3.0
 40
4.0
 40
4.0
 40
4.0
 40
4.0
 10
-48.39906989203559
 20
-38.33792690700954
 30
0.0
 10
-48.39906989203559
 20
-38.33792690700954
 30
0.0
 10
-48.39906989203559
 20
-34.95759921603732
 30
0.0
 10
-48.39906989203559
 20
-34.95759921603732
 30
0.0
 10
-48.39906989203559
 20
-34.95759921603732
 30
0.0
 10
-48.40320400661892
 20
-34.95346510145399
 30
0.0
 10
-48.40320400661892
 20
-34.95346510145399
 30
0.0
 10
-49.89975348578559
 20
-33.34667256673176
 30
0.0
 10
-50.81614888509114
 20
-31.18590867784288
 30
0.0
 10
-50.81614888509114
 20
-28.81017083062065
 30
0.0
 10
-50.81614888509114
 20
-24.42525329589843
 30
0.0
 10
-47.6893802218967
 20
-20.76931796603732
 30
0.0
 10
-43.54010721842447
 20
-19.95903150770399
 30
0.0
  0
SPLINE
  5
17F
100
AcDbEntity
  8
ALPHA
 62
     7
100
AcDbSpline
210
0.0
220
0.0
230
1.0
 70
     8
 71
     3
 72
    17
 73
    13
 74
     0
 42
0.0000001
 43
0.0000001
 40
0.0
 40
0.0
 40
0.0
 40
0.0
 40
1.0
 40
1.0
 40
1.0
 40
2.0
 40
2.0
 40
2.0
 40
3.0
 40
3.0
 40
3.0
 40
4.0
 40
4.0
 40
4.0
 40
4.0
 10
-40.0495364718967
 20
-19.95903150770399
 30
0.0
 10
-35.9043975830078
 20
-20.76931796603732
 30
0.0
 10
-32.77349480523003
 20
-24.42525329589843
 30
0.0
 10
-32.77349480523003
 20
-28.81017083062065
 30
0.0
 10
-32.77349480523003
 20
-31.28237135145399
 30
0.0
 10
-33.76292622884114
 20
-33.51617126464843
 30
0.0
 10
-35.37109680175781
 20
-35.14639044867621
 30
0.0
 10
-35.37109680175781
 20
-35.14639044867621
 30
0.0
 10
-35.36558464898003
 20
-35.15603671603732
 30
0.0
 10
-35.36558464898003
 20
-35.15603671603732
 30
0.0
 10
-35.36558464898003
 20
-35.15603671603732
 30
0.0
 10
-35.36558464898003
 20
-38.33792690700954
 30
0.0
 10
-35.36558464898003
 20
-38.33792690700954
 30
0.0
  0
SPLINE
  5
180
100
AcDbEntity
  8
ALPHA
 62
     7
100
AcDbSpline
210
0.0
220
0.0
230
-1.0
 70
     8
 71
     3
 72
    17
 73
    13
 74
     0
 42
0.0000001
 43
0.0000001
 40
0.0
 40
0.0
 40
0.0
 40
0.0
 40
1.0
 40
1.0
 40
1.0
 40
2.0
 40
2.0
 40
2.0
 40
3.0
 40
3.0
 40
3.0
 40
4.0
 40
4.0
 40
4.0
 40
4.0
 10
-32.35870530870225
 20
-41.3503184000651
 30
0.0
 10
-32.35870530870225
 20
-41.3503184000651
 30
0.0
 10
-28.9742435031467
 20
-41.3503184000651
 30
0.0
 10
-28.9742435031467
 20
-41.3503184000651
 30
0.0
 10
-28.9742435031467
 20
-41.3503184000651
 30
0.0
 10
-28.9742435031467
 20
-41.34480624728732
 30
0.0
 10
-28.9742435031467
 20
-41.34480624728732
 30
0.0
 10
-27.3619388156467
 20
-39.84825676812065
 30
0.0
 10
-25.20255296495225
 20
-38.9318613688151
 30
0.0
 10
-22.83094923231336
 20
-38.9318613688151
 30
0.0
 10
-18.44740973578558
 20
-38.9318613688151
 30
0.0
 10
-14.79009636773003
 20
-42.05863003200954
 30
0.0
 10
-13.9798099093967
 20
-46.20790303548176
 30
0.0
  0
SPLINE
  5
181
100
AcDbEntity
  8
ALPHA
 62
     7
100
AcDbSpline
210
0.0
220
0.0
230
1.0
 70
     8
 71
     3
 72
    17
 73
    13
 74
     0
 42
0.0000001
 43
0.0000001
 40
0.0
 40
0.0
 40
0.0
 40
0.0
 40
1.0
 40
1.0
 40
1.0
 40
2.0
 40
2.0
 40
2.0
 40
3.0
 40
3.0
 40
3.0
 40
4.0
 40
4.0
 40
4.0
 40
4.0
 10
-13.9798099093967
 20
-49.69847378200954
 30
0.0
 10
-14.79009636773003
 20
-53.84361267089843
 30
0.0
 10
-18.44740973578558
 20
-56.97589348687065
 30
0.0
 10
-22.83094923231336
 20
-56.97589348687065
 30
0.0
 10
-25.29901563856336
 20
-56.97589348687065
 30
0.0
 10
-27.53694966634114
 20
-55.9850840250651
 30
0.0
 10
-29.16716885036892
 20
-54.37829149034287
 30
0.0
 10
-29.16716885036892
 20
-54.37829149034287
 30
0.0
 10
-29.17681511773003
 20
-54.38242560492621
 30
0.0
 10
-29.17681511773003
 20
-54.38242560492621
 30
0.0
 10
-29.17681511773003
 20
-54.38242560492621
 30
0.0
 10
-32.35870530870225
 20
-54.38242560492621
 30
0.0
 10
-32.35870530870225
 20
-54.38242560492621
 30
0.0
  0
SPLINE
  5
182
100
AcDbEntity
  8
ALPHA
 62
     7
100
AcDbSpline
210
0.0
220
0.0
230
1.0
 70
     8
 71
     3
 72
    17
 73
    13
 74
     0
 42
0.0000001
 43
0.0000001
 40
0.0
 40
0.0
 40
0.0
 40
0.0
 40
1.0
 40
1.0
 40
1.0
 40
2.0
 40
2.0
 40
2.0
 40
3.0
 40
3.0
 40
3.0
 40
4.0
 40
4.0
 40
4.0
 40
4.0
 10
-35.36558464898003
 20
-57.38930494520399
 30
0.0
 10
-35.36558464898003
 20
-57.38930494520399
 30
0.0
 10
-35.36558464898003
 20
-60.77514478895398
 30
0.0
 10
-35.36558464898003
 20
-60.77514478895398
 30
0.0
 10
-35.36558464898003
 20
-60.77514478895398
 30
0.0
 10
-35.36558464898003
 20
-60.77514478895398
 30
0.0
 10
-35.36558464898003
 20
-60.77514478895398
 30
0.0
 10
-33.86490105523003
 20
-62.38607143825954
 30
0.0
 10
-32.94850565592447
 20
-64.54683532714843
 30
0.0
 10
-32.94850565592447
 20
-66.91843905978732
 30
0.0
 10
-32.94850565592447
 20
-71.30197855631509
 30
0.0
 10
-36.07940843370225
 20
-74.95791388617622
 30
0.0
 10
-40.22868143717447
 20
-75.76957838270399
 30
0.0
  0
SPLINE
  5
183
100
AcDbEntity
  8
ALPHA
 62
     7
100
AcDbSpline
210
0.0
220
0.0
230
-1.0
 70
     8
 71
     3
 72
    17
 73
    13
 74
     0
 42
0.0000001
 43
0.0000001
 40
0.0
 40
0.0
 40
0.0
 40
0.0
 40
1.0
 40
1.0
 40
1.0
 40
2.0
 40
2.0
 40
2.0
 40
3.0
 40
3.0
 40
3.0
 40
4.0
 40
4.0
 40
4.0
 40
4.0
 10
-43.71511806911892
 20
-75.76957838270399
 30
0.0
 10
-47.86439107259114
 20
-74.95791388617622
 30
0.0
 10
-50.99667188856336
 20
-71.30197855631509
 30
0.0
 10
-50.99667188856336
 20
-66.91843905978732
 30
0.0
 10
-50.99667188856336
 20
-64.44899461534287
 30
0.0
 10
-50.00172831217447
 20
-62.2110605875651
 30
0.0
 10
-48.39493577745225
 20
-60.58084140353732
 30
0.0
 10
-48.39493577745225
 20
-60.58084140353732
 30
0.0
 10
-48.39906989203559
 20
-60.57257317437065
 30
0.0
 10
-48.39906989203559
 20
-60.57257317437065
 30
0.0
 10
-48.39906989203559
 20
-60.57257317437065
 30
0.0
 10
-48.39906989203559
 20
-57.38930494520399
 30
0.0
 10
-48.39906989203559
 20
-57.38930494520399
 30
0.0
  0
SPLINE
  5
184
100
AcDbEntity
  8
ALPHA
 62
     7
100
AcDbSpline
210
0.0
220
0.0
230
1.0
 70
     8
 71
     3
 72
    17
 73
    13
 74
     0
 42
0.0000001
 43
0.0000001
 40
0.0
 40
0.0
 40
0.0
 40
0.0
 40
1.0
 40
1.0
 40
1.0
 40
2.0
 40
2.0
 40
2.0
 40
3.0
 40
3.0
 40
3.0
 40
4.0
 40
4.0
 40
4.0
 40
4.0
 10
-51.4100833468967
 20
-54.38242560492621
 30
0.0
 10
-51.4100833468967
 20
-54.38242560492621
 30
0.0
 10
-54.79023878309462
 20
-54.38242560492621
 30
0.0
 10
-54.79023878309462
 20
-54.38242560492621
 30
0.0
 10
-54.79023878309462
 20
-54.38242560492621
 30
0.0
 10
-54.79575093587239
 20
-54.38242560492621
 30
0.0
 10
-54.79575093587239
 20
-54.38242560492621
 30
0.0
 10
-56.40254347059461
 20
-55.88448723687065
 30
0.0
 10
-58.56192932128905
 20
-56.80088263617621
 30
0.0
 10
-60.93904520670572
 20
-56.80088263617621
 30
0.0
 10
-65.3225847032335
 20
-56.80088263617621
 30
0.0
 10
-68.97989807128905
 20
-53.66860182020399
 30
0.0
 10
-69.7901845296224
 20
-49.51932881673176
 30
0.0
  0
SPLINE
  5
185
100
AcDbEntity
  8
ALPHA
 62
     7
100
AcDbSpline
210
0.0
220
0.0
230
-1.0
 70
     8
 71
     3
 72
    17
 73
    13
 74
     0
 42
0.0000001
 43
0.0000001
 40
0.0
 40
0.0
 40
0.0
 40
0.0
 40
1.0
 40
1.0
 40
1.0
 40
2.0
 40
2.0
 40
2.0
 40
3.0
 40
3.0
 40
3.0
 40
4.0
 40
4.0
 40
4.0
 40
4.0
 10
-69.7901845296224
 20
-46.03289218478732
 30
0.0
 10
-68.97989807128905
 20
-41.88361918131509
 30
0.0
 10
-65.3225847032335
 20
-38.75271640353732
 30
0.0
 10
-60.93904520670572
 20
-38.75271640353732
 30
0.0
 10
-58.46546664767794
 20
-38.75271640353732
 30
0.0
 10
-56.2316667344835
 20
-39.74765997992621
 30
0.0
 10
-54.60161980523003
 20
-41.35445251464843
 30
0.0
 10
-54.60161980523003
 20
-41.35445251464843
 30
0.0
 10
-54.59335157606336
 20
-41.3503184000651
 30
0.0
 10
-54.59335157606336
 20
-41.3503184000651
 30
0.0
 10
-54.59335157606336
 20
-41.3503184000651
 30
0.0
 10
-51.4100833468967
 20
-41.3503184000651
 30
0.0
 10
-51.4100833468967
 20
-41.3503184000651
 30
0.0
  0
SPLINE
  5
186
100
AcDbEntity
  8
ALPHA
 62
     7
100
AcDbSpline
210
0.0
220
0.0
230
-1.0
 70
    11
 71
     3
 72
    29
 73
    25
 74
     0
 42
0.0000001
 43
0.0000001
 40
0.0
 40
0.0
 40
0.0
 40
0.0
 40
1.0
 40
1.0
 40
1.0
 40
2.0
 40
2.0
 40
2.0
 40
3.0
 40
3.0
 40
3.0
 40
4.0
 40
4.0
 40
4.0
 40
5.0
 40
5.0
 40
5.0
 40
6.0
 40
6.0
 40
6.0
 40
7.0
 40
7.0
 40
7.0
 40
8.0
 40
8.0
 40
8.0
 40
8.0
 10
-16.60497266981336
 20
-72.66485833062064
 30
0.0
 10
-16.05237935384114
 20
-72.66485833062064
 30
0.0
 10
-15.60589497884114
 20
-72.21837395562065
 30
0.0
 10
-15.60589497884114
 20
-71.66578063964843
 30
0.0
 10
-15.60589497884114
 20
-71.66578063964843
 30
0.0
 10
-15.60589497884114
 20
-64.64743211534288
 30
0.0
 10
-15.60589497884114
 20
-64.64743211534288
 30
0.0
 10
-15.60589497884114
 20
-64.09483879937065
 30
0.0
 10
-16.05237935384114
 20
-63.64422030978732
 30
0.0
 10
-16.60497266981336
 20
-63.64422030978732
 30
0.0
 10
-16.60497266981336
 20
-63.64422030978732
 30
0.0
 10
-28.63386806911892
 20
-63.64422030978732
 30
0.0
 10
-28.63386806911892
 20
-63.64422030978732
 30
0.0
 10
-29.19059549967447
 20
-63.64422030978732
 30
0.0
 10
-29.63707987467447
 20
-64.09483879937065
 30
0.0
 10
-29.63707987467447
 20
-64.64743211534288
 30
0.0
 10
-29.63707987467447
 20
-64.64743211534288
 30
0.0
 10
-29.63707987467447
 20
-71.66578063964843
 30
0.0
 10
-29.63707987467447
 20
-71.66578063964843
 30
0.0
 10
-29.63707987467447
 20
-72.21837395562065
 30
0.0
 10
-29.19059549967447
 20
-72.66485833062064
 30
0.0
 10
-28.63386806911892
 20
-72.66485833062064
 30
0.0
 10
-28.63386806911892
 20
-72.66485833062064
 30
0.0
 10
-16.60497266981336
 20
-72.66485833062064
 30
0.0
 10
-16.60497266981336
 20
-72.66485833062064
 30
0.0
  0
SPLINE
  5
187
100
AcDbEntity
  8
ALPHA
 62
     7
100
AcDbSpline
210
0.0
220
0.0
230
1.0
 70
     8
 71
     3
 72
    32
 73
    28
 74
     0
 42
0.0000001
 43
0.0000001
 40
0.0
 40
0.0
 40
0.0
 40
0.0
 40
1.0
 40
1.0
 40
1.0
 40
2.0
 40
2.0
 40
2.0
 40
3.0
 40
3.0
 40
3.0
 40
4.0
 40
4.0
 40
4.0
 40
5.0
 40
5.0
 40
5.0
 40
6.0
 40
6.0
 40
6.0
 40
7.0
 40
7.0
 40
7.0
 40
8.0
 40
8.0
 40
8.0
 40
9.0
 40
9.0
 40
9.0
 40
9.0
 10
-109.2930274115668
 20
44.47682868109808
 30
0.0
 10
-109.2930274115668
 20
44.47682868109808
 30
0.0
 10
-108.5419965955946
 20
44.47682868109808
 30
0.0
 10
-108.5419965955946
 20
44.47682868109808
 30
0.0
 10
-107.7137956407334
 20
44.47682868109808
 30
0.0
 10
-107.0413130018446
 20
45.14931131998697
 30
0.0
 10
-107.0413130018446
 20
45.98302442762586
 30
0.0
 10
-107.0413130018446
 20
45.98302442762586
 30
0.0
 10
-107.0413130018446
 20
49.49150967068142
 30
0.0
 10
-107.0413130018446
 20
49.49150967068142
 30
0.0
 10
-107.0413130018446
 20
50.32246670193142
 30
0.0
 10
-107.7137956407334
 20
50.99494934082031
 30
0.0
 10
-108.5419965955946
 20
50.99494934082031
 30
0.0
 10
-108.5419965955946
 20
50.99494934082031
 30
0.0
 10
-115.5603451199001
 20
50.99494934082031
 30
0.0
 10
-115.5603451199001
 20
50.99494934082031
 30
0.0
 10
-116.3899241129557
 20
50.99494934082031
 30
0.0
 10
-117.0624067518446
 20
50.32246670193142
 30
0.0
 10
-117.0624067518446
 20
49.49150967068142
 30
0.0
 10
-117.0624067518446
 20
49.49150967068142
 30
0.0
 10
-117.0624067518446
 20
45.98302442762586
 30
0.0
 10
-117.0624067518446
 20
45.98302442762586
 30
0.0
 10
-117.0624067518446
 20
45.14931131998697
 30
0.0
 10
-116.3899241129557
 20
44.47682868109808
 30
0.0
 10
-115.5603451199001
 20
44.47682868109808
 30
0.0
 10
-115.5603451199001
 20
44.47682868109808
 30
0.0
 10
-114.8106923421223
 20
44.47682868109808
 30
0.0
 10
-114.8106923421223
 20
44.47682868109808
 30
0.0
  0
SPLINE
  5
188
100
AcDbEntity
  8
ALPHA
 62
     7
100
AcDbSpline
210
0.0
220
0.0
230
-1.0
 70
     8
 71
     3
 72
    20
 73
    16
 74
     0
 42
0.0000001
 43
0.0000001
 40
0.0
 40
0.0
 40
0.0
 40
0.0
 40
1.0
 40
1.0
 40
1.0
 40
2.0
 40
2.0
 40
2.0
 40
3.0
 40
3.0
 40
3.0
 40
4.0
 40
4.0
 40
4.0
 40
5.0
 40
5.0
 40
5.0
 40
5.0
 10
-109.2930274115668
 20
42.47316114637587
 30
0.0
 10
-109.2930274115668
 20
42.47316114637587
 30
0.0
 10
-109.2930274115668
 20
45.23199361165364
 30
0.0
 10
-109.2930274115668
 20
45.23199361165364
 30
0.0
 10
-109.2930274115668
 20
46.75610385470919
 30
0.0
 10
-110.527749633789
 20
47.99082607693142
 30
0.0
 10
-112.0518598768446
 20
47.99082607693142
 30
0.0
 10
-112.0518598768446
 20
47.99082607693142
 30
0.0
 10
-112.0518598768446
 20
47.99082607693142
 30
0.0
 10
-112.0518598768446
 20
47.99082607693142
 30
0.0
 10
-113.5759701199001
 20
47.99082607693142
 30
0.0
 10
-114.8106923421223
 20
46.75610385470919
 30
0.0
 10
-114.8106923421223
 20
45.23199361165364
 30
0.0
 10
-114.8106923421223
 20
45.23199361165364
 30
0.0
 10
-114.8106923421223
 20
42.47316114637587
 30
0.0
 10
-114.8106923421223
 20
42.47316114637587
 30
0.0
  0
SPLINE
  5
189
100
AcDbEntity
  8
ALPHA
 62
     7
100
AcDbSpline
210
0.0
220
0.0
230
-1.0
 70
    11
 71
     3
 72
    29
 73
    25
 74
     0
 42
0.0000001
 43
0.0000001
 40
0.0
 40
0.0
 40
0.0
 40
0.0
 40
1.0
 40
1.0
 40
1.0
 40
2.0
 40
2.0
 40
2.0
 40
3.0
 40
3.0
 40
3.0
 40
4.0
 40
4.0
 40
4.0
 40
5.0
 40
5.0
 40
5.0
 40
6.0
 40
6.0
 40
6.0
 40
7.0
 40
7.0
 40
7.0
 40
8.0
 40
8.0
 40
8.0
 40
8.0
 10
-112.0518598768446
 20
43.92423536512587
 30
0.0
 10
-111.3600847032335
 20
43.92423536512587
 30
0.0
 10
-110.7992231580946
 20
44.4864749484592
 30
0.0
 10
-110.7992231580946
 20
45.17687208387586
 30
0.0
 10
-110.7992231580946
 20
45.17687208387586
 30
0.0
 10
-110.7992231580946
 20
46.18146192762586
 30
0.0
 10
-110.7992231580946
 20
46.18146192762586
 30
0.0
 10
-110.7992231580946
 20
46.87185906304253
 30
0.0
 10
-111.3600847032335
 20
47.43409864637587
 30
0.0
 10
-112.0518598768446
 20
47.43409864637587
 30
0.0
 10
-112.0518598768446
 20
47.43409864637587
 30
0.0
 10
-112.0518598768446
 20
47.43409864637587
 30
0.0
 10
-112.0518598768446
 20
47.43409864637587
 30
0.0
 10
-112.7422570122612
 20
47.43409864637587
 30
0.0
 10
-113.3044965955946
 20
46.87185906304253
 30
0.0
 10
-113.3044965955946
 20
46.18146192762586
 30
0.0
 10
-113.3044965955946
 20
46.18146192762586
 30
0.0
 10
-113.3044965955946
 20
45.17687208387586
 30
0.0
 10
-113.3044965955946
 20
45.17687208387586
 30
0.0
 10
-113.3044965955946
 20
44.4864749484592
 30
0.0
 10
-112.7422570122612
 20
43.92423536512587
 30
0.0
 10
-112.0518598768446
 20
43.92423536512587
 30
0.0
 10
-112.0518598768446
 20
43.92423536512587
 30
0.0
 10
-112.0518598768446
 20
43.92423536512587
 30
0.0
 10
-112.0518598768446
 20
43.92423536512587
 30
0.0
  0
SPLINE
  5
18A
100
AcDbEntity
  8
ALPHA
 62
     7
100
AcDbSpline
210
0.0
220
0.0
230
-1.0
 70
     8
 71
     3
 72
    32
 73
    28
 74
     0
 42
0.0000001
 43
0.0000001
 40
0.0
 40
0.0
 40
0.0
 40
0.0
 40
1.0
 40
1.0
 40
1.0
 40
2.0
 40
2.0
 40
2.0
 40
3.0
 40
3.0
 40
3.0
 40
4.0
 40
4.0
 40
4.0
 40
5.0
 40
5.0
 40
5.0
 40
6.0
 40
6.0
 40
6.0
 40
7.0
 40
7.0
 40
7.0
 40
8.0
 40
8.0
 40
8.0
 40
9.0
 40
9.0
 40
9.0
 40
9.0
 10
-127.8207509358723
 20
15.07362772623697
 30
0.0
 10
-127.8207509358723
 20
15.07362772623697
 30
0.0
 10
-127.8207509358723
 20
12.06537034776475
 30
0.0
 10
-127.8207509358723
 20
12.06537034776475
 30
0.0
 10
-127.8207509358723
 20
11.5086429172092
 30
0.0
 10
-127.3742665608723
 20
11.0621585422092
 30
0.0
 10
-126.8189171685112
 20
11.0621585422092
 30
0.0
 10
-126.8189171685112
 20
11.0621585422092
 30
0.0
 10
-112.7835981580946
 20
11.0621585422092
 30
0.0
 10
-112.7835981580946
 20
11.0621585422092
 30
0.0
 10
-112.2310048421223
 20
11.0621585422092
 30
0.0
 10
-111.780386352539
 20
11.5086429172092
 30
0.0
 10
-111.780386352539
 20
12.06537034776475
 30
0.0
 10
-111.780386352539
 20
12.06537034776475
 30
0.0
 10
-111.780386352539
 20
24.09426574707031
 30
0.0
 10
-111.780386352539
 20
24.09426574707031
 30
0.0
 10
-111.780386352539
 20
24.64685906304253
 30
0.0
 10
-112.2310048421223
 20
25.09334343804253
 30
0.0
 10
-112.7835981580946
 20
25.09334343804253
 30
0.0
 10
-112.7835981580946
 20
25.09334343804253
 30
0.0
 10
-126.8189171685112
 20
25.09334343804253
 30
0.0
 10
-126.8189171685112
 20
25.09334343804253
 30
0.0
 10
-127.3742665608723
 20
25.09334343804253
 30
0.0
 10
-127.8207509358723
 20
24.64685906304253
 30
0.0
 10
-127.8207509358723
 20
24.09426574707031
 30
0.0
 10
-127.8207509358723
 20
24.09426574707031
 30
0.0
 10
-127.8207509358723
 20
21.08738640679253
 30
0.0
 10
-127.8207509358723
 20
21.08738640679253
 30
0.0
  0
SPLINE
  5
18B
100
AcDbEntity
  8
ALPHA
 62
     7
100
AcDbSpline
210
0.0
220
0.0
230
1.0
 70
    11
 71
     3
 72
    26
 73
    22
 74
     0
 42
0.0000001
 43
0.0000001
 40
0.0
 40
0.0
 40
0.0
 40
0.0
 40
1.0
 40
1.0
 40
1.0
 40
2.0
 40
2.0
 40
2.0
 40
3.0
 40
3.0
 40
3.0
 40
4.0
 40
4.0
 40
4.0
 40
5.0
 40
5.0
 40
5.0
 40
6.0
 40
6.0
 40
6.0
 40
7.0
 40
7.0
 40
7.0
 40
7.0
 10
-124.8083594428168
 20
18.08050706651475
 30
0.0
 10
-124.8083594428168
 20
18.08050706651475
 30
0.0
 10
-127.816616821289
 20
21.08738640679253
 30
0.0
 10
-127.816616821289
 20
21.08738640679253
 30
0.0
 10
-127.816616821289
 20
21.08738640679253
 30
0.0
 10
-132.8285417344835
 20
21.08738640679253
 30
0.0
 10
-132.8285417344835
 20
21.08738640679253
 30
0.0
 10
-134.489077758789
 20
21.08738640679253
 30
0.0
 10
-135.8367991129556
 20
19.73828701443142
 30
0.0
 10
-135.8367991129556
 20
18.08050706651475
 30
0.0
 10
-135.8367991129556
 20
18.08050706651475
 30
0.0
 10
-135.8367991129556
 20
18.08050706651475
 30
0.0
 10
-135.8367991129556
 20
18.08050706651475
 30
0.0
 10
-135.8367991129556
 20
16.41721496582031
 30
0.0
 10
-134.489077758789
 20
15.07362772623697
 30
0.0
 10
-132.8285417344835
 20
15.07362772623697
 30
0.0
 10
-132.8285417344835
 20
15.07362772623697
 30
0.0
 10
-127.816616821289
 20
15.07362772623697
 30
0.0
 10
-127.816616821289
 20
15.07362772623697
 30
0.0
 10
-127.816616821289
 20
15.07362772623697
 30
0.0
 10
-124.8083594428168
 20
18.08050706651475
 30
0.0
 10
-124.8083594428168
 20
18.08050706651475
 30
0.0
  0
SPLINE
  5
18C
100
AcDbEntity
  8
ALPHA
 62
     7
100
AcDbSpline
210
0.0
220
0.0
230
-1.0
 70
     8
 71
     3
 72
    32
 73
    28
 74
     0
 42
0.0000001
 43
0.0000001
 40
0.0
 40
0.0
 40
0.0
 40
0.0
 40
1.0
 40
1.0
 40
1.0
 40
2.0
 40
2.0
 40
2.0
 40
3.0
 40
3.0
 40
3.0
 40
4.0
 40
4.0
 40
4.0
 40
5.0
 40
5.0
 40
5.0
 40
6.0
 40
6.0
 40
6.0
 40
7.0
 40
7.0
 40
7.0
 40
8.0
 40
8.0
 40
8.0
 40
9.0
 40
9.0
 40
9.0
 40
9.0
 10
-127.8207509358723
 20
-4.024775865342881
 30
0.0
 10
-127.8207509358723
 20
-4.024775865342881
 30
0.0
 10
-127.8207509358723
 20
-7.031655205620658
 30
0.0
 10
-127.8207509358723
 20
-7.031655205620658
 30
0.0
 10
-127.8207509358723
 20
-7.589760674370658
 30
0.0
 10
-127.3742665608723
 20
-8.036245049370659
 30
0.0
 10
-126.8189171685112
 20
-8.036245049370659
 30
0.0
 10
-126.8189171685112
 20
-8.036245049370659
 30
0.0
 10
-112.7835981580946
 20
-8.036245049370659
 30
0.0
 10
-112.7835981580946
 20
-8.036245049370659
 30
0.0
 10
-112.2310048421223
 20
-8.036245049370659
 30
0.0
 10
-111.780386352539
 20
-7.589760674370658
 30
0.0
 10
-111.780386352539
 20
-7.031655205620658
 30
0.0
 10
-111.780386352539
 20
-7.031655205620658
 30
0.0
 10
-111.780386352539
 20
4.997240193684895
 30
0.0
 10
-111.780386352539
 20
4.997240193684895
 30
0.0
 10
-111.780386352539
 20
5.549833509657117
 30
0.0
 10
-112.2310048421223
 20
5.996317884657117
 30
0.0
 10
-112.7835981580946
 20
5.996317884657117
 30
0.0
 10
-112.7835981580946
 20
5.996317884657117
 30
0.0
 10
-126.8189171685112
 20
5.996317884657117
 30
0.0
 10
-126.8189171685112
 20
5.996317884657117
 30
0.0
 10
-127.3742665608723
 20
5.996317884657117
 30
0.0
 10
-127.8207509358723
 20
5.549833509657117
 30
0.0
 10
-127.8207509358723
 20
4.997240193684895
 30
0.0
 10
-127.8207509358723
 20
4.997240193684895
 30
0.0
 10
-127.8207509358723
 20
1.988982815212673
 30
0.0
 10
-127.8207509358723
 20
1.988982815212673
 30
0.0
  0
SPLINE
  5
18D
100
AcDbEntity
  8
ALPHA
 62
     7
100
AcDbSpline
210
0.0
220
0.0
230
1.0
 70
    11
 71
     3
 72
    26
 73
    22
 74
     0
 42
0.0000001
 43
0.0000001
 40
0.0
 40
0.0
 40
0.0
 40
0.0
 40
1.0
 40
1.0
 40
1.0
 40
2.0
 40
2.0
 40
2.0
 40
3.0
 40
3.0
 40
3.0
 40
4.0
 40
4.0
 40
4.0
 40
5.0
 40
5.0
 40
5.0
 40
6.0
 40
6.0
 40
6.0
 40
7.0
 40
7.0
 40
7.0
 40
7.0
 10
-124.8083594428168
 20
-1.017896525065103
 30
0.0
 10
-124.8083594428168
 20
-1.017896525065103
 30
0.0
 10
-127.816616821289
 20
1.988982815212673
 30
0.0
 10
-127.816616821289
 20
1.988982815212673
 30
0.0
 10
-127.816616821289
 20
1.988982815212673
 30
0.0
 10
-132.8285417344835
 20
1.988982815212673
 30
0.0
 10
-132.8285417344835
 20
1.988982815212673
 30
0.0
 10
-134.489077758789
 20
1.988982815212673
 30
0.0
 10
-135.8367991129556
 20
0.6398834228515625
 30
0.0
 10
-135.8367991129556
 20
-1.017896525065103
 30
0.0
 10
-135.8367991129556
 20
-1.017896525065103
 30
0.0
 10
-135.8367991129556
 20
-1.017896525065103
 30
0.0
 10
-135.8367991129556
 20
-1.017896525065103
 30
0.0
 10
-135.8367991129556
 20
-2.679810587565103
 30
0.0
 10
-134.489077758789
 20
-4.024775865342881
 30
0.0
 10
-132.8285417344835
 20
-4.024775865342881
 30
0.0
 10
-132.8285417344835
 20
-4.024775865342881
 30
0.0
 10
-127.816616821289
 20
-4.024775865342881
 30
0.0
 10
-127.816616821289
 20
-4.024775865342881
 30
0.0
 10
-127.816616821289
 20
-4.024775865342881
 30
0.0
 10
-124.8083594428168
 20
-1.017896525065103
 30
0.0
 10
-124.8083594428168
 20
-1.017896525065103
 30
0.0
  0
SPLINE
  5
18E
100
AcDbEntity
  8
ALPHA
 62
     7
100
AcDbSpline
210
0.0
220
0.0
230
-1.0
 70
     8
 71
     3
 72
    32
 73
    28
 74
     0
 42
0.0000001
 43
0.0000001
 40
0.0
 40
0.0
 40
0.0
 40
0.0
 40
1.0
 40
1.0
 40
1.0
 40
2.0
 40
2.0
 40
2.0
 40
3.0
 40
3.0
 40
3.0
 40
4.0
 40
4.0
 40
4.0
 40
5.0
 40
5.0
 40
5.0
 40
6.0
 40
6.0
 40
6.0
 40
7.0
 40
7.0
 40
7.0
 40
8.0
 40
8.0
 40
8.0
 40
9.0
 40
9.0
 40
9.0
 40
9.0
 10
-127.8207509358723
 20
-23.12300720214843
 30
0.0
 10
-127.8207509358723
 20
-23.12300720214843
 30
0.0
 10
-127.8207509358723
 20
-26.12988654242621
 30
0.0
 10
-127.8207509358723
 20
-26.12988654242621
 30
0.0
 10
-127.8207509358723
 20
-26.68661397298176
 30
0.0
 10
-127.3742665608723
 20
-27.13309834798177
 30
0.0
 10
-126.8189171685112
 20
-27.13309834798177
 30
0.0
 10
-126.8189171685112
 20
-27.13309834798177
 30
0.0
 10
-112.7835981580946
 20
-27.13309834798177
 30
0.0
 10
-112.7835981580946
 20
-27.13309834798177
 30
0.0
 10
-112.2310048421223
 20
-27.13309834798177
 30
0.0
 10
-111.780386352539
 20
-26.68661397298176
 30
0.0
 10
-111.780386352539
 20
-26.12988654242621
 30
0.0
 10
-111.780386352539
 20
-26.12988654242621
 30
0.0
 10
-111.780386352539
 20
-14.10099114312066
 30
0.0
 10
-111.780386352539
 20
-14.10099114312066
 30
0.0
 10
-111.780386352539
 20
-13.54839782714843
 30
0.0
 10
-112.2310048421223
 20
-13.10191345214843
 30
0.0
 10
-112.7835981580946
 20
-13.10191345214843
 30
0.0
 10
-112.7835981580946
 20
-13.10191345214843
 30
0.0
 10
-126.8189171685112
 20
-13.10191345214843
 30
0.0
 10
-126.8189171685112
 20
-13.10191345214843
 30
0.0
 10
-127.3742665608723
 20
-13.10191345214843
 30
0.0
 10
-127.8207509358723
 20
-13.54839782714843
 30
0.0
 10
-127.8207509358723
 20
-14.10099114312066
 30
0.0
 10
-127.8207509358723
 20
-14.10099114312066
 30
0.0
 10
-127.8207509358723
 20
-17.10787048339843
 30
0.0
 10
-127.8207509358723
 20
-17.10787048339843
 30
0.0
  0
SPLINE
  5
18F
100
AcDbEntity
  8
ALPHA
 62
     7
100
AcDbSpline
210
0.0
220
0.0
230
1.0
 70
    11
 71
     3
 72
    26
 73
    22
 74
     0
 42
0.0000001
 43
0.0000001
 40
0.0
 40
0.0
 40
0.0
 40
0.0
 40
1.0
 40
1.0
 40
1.0
 40
2.0
 40
2.0
 40
2.0
 40
3.0
 40
3.0
 40
3.0
 40
4.0
 40
4.0
 40
4.0
 40
5.0
 40
5.0
 40
5.0
 40
6.0
 40
6.0
 40
6.0
 40
7.0
 40
7.0
 40
7.0
 40
7.0
 10
-124.8083594428168
 20
-20.11474982367621
 30
0.0
 10
-124.8083594428168
 20
-20.11474982367621
 30
0.0
 10
-127.816616821289
 20
-17.10787048339843
 30
0.0
 10
-127.816616821289
 20
-17.10787048339843
 30
0.0
 10
-127.816616821289
 20
-17.10787048339843
 30
0.0
 10
-132.8285417344835
 20
-17.10787048339843
 30
0.0
 10
-132.8285417344835
 20
-17.10787048339843
 30
0.0
 10
-134.489077758789
 20
-17.10787048339843
 30
0.0
 10
-135.8367991129556
 20
-18.45696987575954
 30
0.0
 10
-135.8367991129556
 20
-20.11474982367621
 30
0.0
 10
-135.8367991129556
 20
-20.11474982367621
 30
0.0
 10
-135.8367991129556
 20
-20.11474982367621
 30
0.0
 10
-135.8367991129556
 20
-20.11474982367621
 30
0.0
 10
-135.8367991129556
 20
-21.77804192437065
 30
0.0
 10
-134.489077758789
 20
-23.12300720214843
 30
0.0
 10
-132.8285417344835
 20
-23.12300720214843
 30
0.0
 10
-132.8285417344835
 20
-23.12300720214843
 30
0.0
 10
-127.816616821289
 20
-23.12300720214843
 30
0.0
 10
-127.816616821289
 20
-23.12300720214843
 30
0.0
 10
-127.816616821289
 20
-23.12300720214843
 30
0.0
 10
-124.8083594428168
 20
-20.11474982367621
 30
0.0
 10
-124.8083594428168
 20
-20.11474982367621
 30
0.0
  0
SPLINE
  5
190
100
AcDbEntity
  8
ALPHA
 62
     7
100
AcDbSpline
210
0.0
220
0.0
230
-1.0
 70
     8
 71
     3
 72
    32
 73
    28
 74
     0
 42
0.0000001
 43
0.0000001
 40
0.0
 40
0.0
 40
0.0
 40
0.0
 40
1.0
 40
1.0
 40
1.0
 40
2.0
 40
2.0
 40
2.0
 40
3.0
 40
3.0
 40
3.0
 40
4.0
 40
4.0
 40
4.0
 40
5.0
 40
5.0
 40
5.0
 40
6.0
 40
6.0
 40
6.0
 40
7.0
 40
7.0
 40
7.0
 40
8.0
 40
8.0
 40
8.0
 40
9.0
 40
9.0
 40
9.0
 40
9.0
 10
-127.8207509358723
 20
-42.21986050075954
 30
0.0
 10
-127.8207509358723
 20
-42.21986050075954
 30
0.0
 10
-127.8207509358723
 20
-45.22811787923177
 30
0.0
 10
-127.8207509358723
 20
-45.22811787923177
 30
0.0
 10
-127.8207509358723
 20
-45.78484530978732
 30
0.0
 10
-127.3742665608723
 20
-46.23132968478731
 30
0.0
 10
-126.8189171685112
 20
-46.23132968478731
 30
0.0
 10
-126.8189171685112
 20
-46.23132968478731
 30
0.0
 10
-112.7835981580946
 20
-46.23132968478731
 30
0.0
 10
-112.7835981580946
 20
-46.23132968478731
 30
0.0
 10
-112.2310048421223
 20
-46.23132968478731
 30
0.0
 10
-111.780386352539
 20
-45.78484530978732
 30
0.0
 10
-111.780386352539
 20
-45.22811787923177
 30
0.0
 10
-111.780386352539
 20
-45.22811787923177
 30
0.0
 10
-111.780386352539
 20
-33.19922247992621
 30
0.0
 10
-111.780386352539
 20
-33.19922247992621
 30
0.0
 10
-111.780386352539
 20
-32.64662916395399
 30
0.0
 10
-112.2310048421223
 20
-32.19876675075954
 30
0.0
 10
-112.7835981580946
 20
-32.19876675075954
 30
0.0
 10
-112.7835981580946
 20
-32.19876675075954
 30
0.0
 10
-126.8189171685112
 20
-32.19876675075954
 30
0.0
 10
-126.8189171685112
 20
-32.19876675075954
 30
0.0
 10
-127.3742665608723
 20
-32.19876675075954
 30
0.0
 10
-127.8207509358723
 20
-32.64662916395399
 30
0.0
 10
-127.8207509358723
 20
-33.19922247992621
 30
0.0
 10
-127.8207509358723
 20
-33.19922247992621
 30
0.0
 10
-127.8207509358723
 20
-36.20610182020399
 30
0.0
 10
-127.8207509358723
 20
-36.20610182020399
 30
0.0
  0
SPLINE
  5
191
100
AcDbEntity
  8
ALPHA
 62
     7
100
AcDbSpline
210
0.0
220
0.0
230
1.0
 70
    11
 71
     3
 72
    26
 73
    22
 74
     0
 42
0.0000001
 43
0.0000001
 40
0.0
 40
0.0
 40
0.0
 40
0.0
 40
1.0
 40
1.0
 40
1.0
 40
2.0
 40
2.0
 40
2.0
 40
3.0
 40
3.0
 40
3.0
 40
4.0
 40
4.0
 40
4.0
 40
5.0
 40
5.0
 40
5.0
 40
6.0
 40
6.0
 40
6.0
 40
7.0
 40
7.0
 40
7.0
 40
7.0
 10
-124.8083594428168
 20
-39.21298116048177
 30
0.0
 10
-124.8083594428168
 20
-39.21298116048177
 30
0.0
 10
-127.816616821289
 20
-36.20610182020399
 30
0.0
 10
-127.816616821289
 20
-36.20610182020399
 30
0.0
 10
-127.816616821289
 20
-36.20610182020399
 30
0.0
 10
-132.8285417344835
 20
-36.20610182020399
 30
0.0
 10
-132.8285417344835
 20
-36.20610182020399
 30
0.0
 10
-134.489077758789
 20
-36.20610182020399
 30
0.0
 10
-135.8367991129556
 20
-37.5552012125651
 30
0.0
 10
-135.8367991129556
 20
-39.21298116048177
 30
0.0
 10
-135.8367991129556
 20
-39.21298116048177
 30
0.0
 10
-135.8367991129556
 20
-39.21298116048177
 30
0.0
 10
-135.8367991129556
 20
-39.21298116048177
 30
0.0
 10
-135.8367991129556
 20
-40.87489522298176
 30
0.0
 10
-134.489077758789
 20
-42.21986050075954
 30
0.0
 10
-132.8285417344835
 20
-42.21986050075954
 30
0.0
 10
-132.8285417344835
 20
-42.21986050075954
 30
0.0
 10
-127.816616821289
 20
-42.21986050075954
 30
0.0
 10
-127.816616821289
 20
-42.21986050075954
 30
0.0
 10
-127.816616821289
 20
-42.21986050075954
 30
0.0
 10
-124.8083594428168
 20
-39.21298116048177
 30
0.0
 10
-124.8083594428168
 20
-39.21298116048177
 30
0.0
  0
SPLINE
  5
192
100
AcDbEntity
  8
ALPHA
 62
     7
100
AcDbSpline
210
0.0
220
0.0
230
-1.0
 70
     8
 71
     3
 72
    32
 73
    28
 74
     0
 42
0.0000001
 43
0.0000001
 40
0.0
 40
0.0
 40
0.0
 40
0.0
 40
1.0
 40
1.0
 40
1.0
 40
2.0
 40
2.0
 40
2.0
 40
3.0
 40
3.0
 40
3.0
 40
4.0
 40
4.0
 40
4.0
 40
5.0
 40
5.0
 40
5.0
 40
6.0
 40
6.0
 40
6.0
 40
7.0
 40
7.0
 40
7.0
 40
8.0
 40
8.0
 40
8.0
 40
9.0
 40
9.0
 40
9.0
 40
9.0
 10
-127.8207509358723
 20
-61.3180918375651
 30
0.0
 10
-127.8207509358723
 20
-61.3180918375651
 30
0.0
 10
-127.8207509358723
 20
-64.32497117784286
 30
0.0
 10
-127.8207509358723
 20
-64.32497117784286
 30
0.0
 10
-127.8207509358723
 20
-64.88169860839843
 30
0.0
 10
-127.3742665608723
 20
-65.32956102159288
 30
0.0
 10
-126.8189171685112
 20
-65.32956102159288
 30
0.0
 10
-126.8189171685112
 20
-65.32956102159288
 30
0.0
 10
-112.7835981580946
 20
-65.32956102159288
 30
0.0
 10
-112.7835981580946
 20
-65.32956102159288
 30
0.0
 10
-112.2310048421223
 20
-65.32956102159288
 30
0.0
 10
-111.780386352539
 20
-64.88169860839843
 30
0.0
 10
-111.780386352539
 20
-64.32497117784286
 30
0.0
 10
-111.780386352539
 20
-64.32497117784286
 30
0.0
 10
-111.780386352539
 20
-52.29607577853732
 30
0.0
 10
-111.780386352539
 20
-52.29607577853732
 30
0.0
 10
-111.780386352539
 20
-51.7434824625651
 30
0.0
 10
-112.2310048421223
 20
-51.2969980875651
 30
0.0
 10
-112.7835981580946
 20
-51.2969980875651
 30
0.0
 10
-112.7835981580946
 20
-51.2969980875651
 30
0.0
 10
-126.8189171685112
 20
-51.2969980875651
 30
0.0
 10
-126.8189171685112
 20
-51.2969980875651
 30
0.0
 10
-127.3742665608723
 20
-51.2969980875651
 30
0.0
 10
-127.8207509358723
 20
-51.7434824625651
 30
0.0
 10
-127.8207509358723
 20
-52.29607577853732
 30
0.0
 10
-127.8207509358723
 20
-52.29607577853732
 30
0.0
 10
-127.8207509358723
 20
-55.3029551188151
 30
0.0
 10
-127.8207509358723
 20
-55.3029551188151
 30
0.0
  0
SPLINE
  5
193
100
AcDbEntity
  8
ALPHA
 62
     7
100
AcDbSpline
210
0.0
220
0.0
230
1.0
 70
    11
 71
     3
 72
    26
 73
    22
 74
     0
 42
0.0000001
 43
0.0000001
 40
0.0
 40
0.0
 40
0.0
 40
0.0
 40
1.0
 40
1.0
 40
1.0
 40
2.0
 40
2.0
 40
2.0
 40
3.0
 40
3.0
 40
3.0
 40
4.0
 40
4.0
 40
4.0
 40
5.0
 40
5.0
 40
5.0
 40
6.0
 40
6.0
 40
6.0
 40
7.0
 40
7.0
 40
7.0
 40
7.0
 10
-124.8083594428168
 20
-58.31121249728732
 30
0.0
 10
-124.8083594428168
 20
-58.31121249728732
 30
0.0
 10
-127.816616821289
 20
-55.3029551188151
 30
0.0
 10
-127.816616821289
 20
-55.3029551188151
 30
0.0
 10
-127.816616821289
 20
-55.3029551188151
 30
0.0
 10
-132.8285417344835
 20
-55.3029551188151
 30
0.0
 10
-132.8285417344835
 20
-55.3029551188151
 30
0.0
 10
-134.489077758789
 20
-55.3029551188151
 30
0.0
 10
-135.8367991129556
 20
-56.65343254937066
 30
0.0
 10
-135.8367991129556
 20
-58.31121249728732
 30
0.0
 10
-135.8367991129556
 20
-58.31121249728732
 30
0.0
 10
-135.8367991129556
 20
-58.31121249728732
 30
0.0
 10
-135.8367991129556
 20
-58.31121249728732
 30
0.0
 10
-135.8367991129556
 20
-59.97312655978731
 30
0.0
 10
-134.489077758789
 20
-61.3180918375651
 30
0.0
 10
-132.8285417344835
 20
-61.3180918375651
 30
0.0
 10
-132.8285417344835
 20
-61.3180918375651
 30
0.0
 10
-127.816616821289
 20
-61.3180918375651
 30
0.0
 10
-127.816616821289
 20
-61.3180918375651
 30
0.0
 10
-127.816616821289
 20
-61.3180918375651
 30
0.0
 10
-124.8083594428168
 20
-58.31121249728732
 30
0.0
 10
-124.8083594428168
 20
-58.31121249728732
 30
0.0
  0
SPLINE
  5
194
100
AcDbEntity
  8
ALPHA
 62
     7
100
AcDbSpline
210
0.0
220
0.0
230
-1.0
 70
     8
 71
     3
 72
    32
 73
    28
 74
     0
 42
0.0000001
 43
0.0000001
 40
0.0
 40
0.0
 40
0.0
 40
0.0
 40
1.0
 40
1.0
 40
1.0
 40
2.0
 40
2.0
 40
2.0
 40
3.0
 40
3.0
 40
3.0
 40
4.0
 40
4.0
 40
4.0
 40
5.0
 40
5.0
 40
5.0
 40
6.0
 40
6.0
 40
6.0
 40
7.0
 40
7.0
 40
7.0
 40
8.0
 40
8.0
 40
8.0
 40
9.0
 40
9.0
 40
9.0
 40
9.0
 10
-127.8207509358723
 20
-80.41494513617621
 30
0.0
 10
-127.8207509358723
 20
-80.41494513617621
 30
0.0
 10
-127.8207509358723
 20
-83.42320251464842
 30
0.0
 10
-127.8207509358723
 20
-83.42320251464842
 30
0.0
 10
-127.8207509358723
 20
-83.97992994520398
 30
0.0
 10
-127.3742665608723
 20
-84.42641432020399
 30
0.0
 10
-126.8189171685112
 20
-84.42641432020399
 30
0.0
 10
-126.8189171685112
 20
-84.42641432020399
 30
0.0
 10
-112.7835981580946
 20
-84.42641432020399
 30
0.0
 10
-112.7835981580946
 20
-84.42641432020399
 30
0.0
 10
-112.2310048421223
 20
-84.42641432020399
 30
0.0
 10
-111.780386352539
 20
-83.97992994520398
 30
0.0
 10
-111.780386352539
 20
-83.42320251464842
 30
0.0
 10
-111.780386352539
 20
-83.42320251464842
 30
0.0
 10
-111.780386352539
 20
-71.39430711534287
 30
0.0
 10
-111.780386352539
 20
-71.39430711534287
 30
0.0
 10
-111.780386352539
 20
-70.84171379937065
 30
0.0
 10
-112.2310048421223
 20
-70.39522942437065
 30
0.0
 10
-112.7835981580946
 20
-70.39522942437065
 30
0.0
 10
-112.7835981580946
 20
-70.39522942437065
 30
0.0
 10
-126.8189171685112
 20
-70.39522942437065
 30
0.0
 10
-126.8189171685112
 20
-70.39522942437065
 30
0.0
 10
-127.3742665608723
 20
-70.39522942437065
 30
0.0
 10
-127.8207509358723
 20
-70.84171379937065
 30
0.0
 10
-127.8207509358723
 20
-71.39430711534287
 30
0.0
 10
-127.8207509358723
 20
-71.39430711534287
 30
0.0
 10
-127.8207509358723
 20
-74.40118645562065
 30
0.0
 10
-127.8207509358723
 20
-74.40118645562065
 30
0.0
  0
SPLINE
  5
195
100
AcDbEntity
  8
ALPHA
 62
     7
100
AcDbSpline
210
0.0
220
0.0
230
1.0
 70
    11
 71
     3
 72
    26
 73
    22
 74
     0
 42
0.0000001
 43
0.0000001
 40
0.0
 40
0.0
 40
0.0
 40
0.0
 40
1.0
 40
1.0
 40
1.0
 40
2.0
 40
2.0
 40
2.0
 40
3.0
 40
3.0
 40
3.0
 40
4.0
 40
4.0
 40
4.0
 40
5.0
 40
5.0
 40
5.0
 40
6.0
 40
6.0
 40
6.0
 40
7.0
 40
7.0
 40
7.0
 40
7.0
 10
-124.8083594428168
 20
-77.40806579589843
 30
0.0
 10
-124.8083594428168
 20
-77.40806579589843
 30
0.0
 10
-127.816616821289
 20
-74.40118645562065
 30
0.0
 10
-127.816616821289
 20
-74.40118645562065
 30
0.0
 10
-127.816616821289
 20
-74.40118645562065
 30
0.0
 10
-132.8285417344835
 20
-74.40118645562065
 30
0.0
 10
-132.8285417344835
 20
-74.40118645562065
 30
0.0
 10
-134.489077758789
 20
-74.40118645562065
 30
0.0
 10
-135.8367991129556
 20
-75.75028584798175
 30
0.0
 10
-135.8367991129556
 20
-77.40806579589843
 30
0.0
 10
-135.8367991129556
 20
-77.40806579589843
 30
0.0
 10
-135.8367991129556
 20
-77.40806579589843
 30
0.0
 10
-135.8367991129556
 20
-77.40806579589843
 30
0.0
 10
-135.8367991129556
 20
-79.07135789659287
 30
0.0
 10
-134.489077758789
 20
-80.41494513617621
 30
0.0
 10
-132.8285417344835
 20
-80.41494513617621
 30
0.0
 10
-132.8285417344835
 20
-80.41494513617621
 30
0.0
 10
-127.816616821289
 20
-80.41494513617621
 30
0.0
 10
-127.816616821289
 20
-80.41494513617621
 30
0.0
 10
-127.816616821289
 20
-80.41494513617621
 30
0.0
 10
-124.8083594428168
 20
-77.40806579589843
 30
0.0
 10
-124.8083594428168
 20
-77.40806579589843
 30
0.0
  0
SPLINE
  5
196
100
AcDbEntity
  8
ALPHA
 62
     7
100
AcDbSpline
210
0.0
220
0.0
230
-1.0
 70
     8
 71
     3
 72
    32
 73
    28
 74
     0
 42
0.0000001
 43
0.0000001
 40
0.0
 40
0.0
 40
0.0
 40
0.0
 40
1.0
 40
1.0
 40
1.0
 40
2.0
 40
2.0
 40
2.0
 40
3.0
 40
3.0
 40
3.0
 40
4.0
 40
4.0
 40
4.0
 40
5.0
 40
5.0
 40
5.0
 40
6.0
 40
6.0
 40
6.0
 40
7.0
 40
7.0
 40
7.0
 40
8.0
 40
8.0
 40
8.0
 40
9.0
 40
9.0
 40
9.0
 40
9.0
 10
-89.72075093587239
 20
15.07362772623697
 30
0.0
 10
-89.72075093587239
 20
15.07362772623697
 30
0.0
 10
-89.72075093587239
 20
12.06537034776475
 30
0.0
 10
-89.72075093587239
 20
12.06537034776475
 30
0.0
 10
-89.72075093587239
 20
11.5086429172092
 30
0.0
 10
-90.16723531087238
 20
11.0621585422092
 30
0.0
 10
-90.72534077962238
 20
11.0621585422092
 30
0.0
 10
-90.72534077962238
 20
11.0621585422092
 30
0.0
 10
-104.7565256754557
 20
11.0621585422092
 30
0.0
 10
-104.7565256754557
 20
11.0621585422092
 30
0.0
 10
-105.3091189914279
 20
11.0621585422092
 30
0.0
 10
-105.7611155192057
 20
11.5086429172092
 30
0.0
 10
-105.7611155192057
 20
12.06537034776475
 30
0.0
 10
-105.7611155192057
 20
12.06537034776475
 30
0.0
 10
-105.7611155192057
 20
24.09426574707031
 30
0.0
 10
-105.7611155192057
 20
24.09426574707031
 30
0.0
 10
-105.7611155192057
 20
24.64685906304253
 30
0.0
 10
-105.3091189914279
 20
25.09334343804253
 30
0.0
 10
-104.7565256754557
 20
25.09334343804253
 30
0.0
 10
-104.7565256754557
 20
25.09334343804253
 30
0.0
 10
-90.72534077962238
 20
25.09334343804253
 30
0.0
 10
-90.72534077962238
 20
25.09334343804253
 30
0.0
 10
-90.16723531087238
 20
25.09334343804253
 30
0.0
 10
-89.72075093587239
 20
24.64685906304253
 30
0.0
 10
-89.72075093587239
 20
24.09426574707031
 30
0.0
 10
-89.72075093587239
 20
24.09426574707031
 30
0.0
 10
-89.72075093587239
 20
21.08738640679253
 30
0.0
 10
-89.72075093587239
 20
21.08738640679253
 30
0.0
  0
SPLINE
  5
197
100
AcDbEntity
  8
ALPHA
 62
     7
100
AcDbSpline
210
0.0
220
0.0
230
1.0
 70
    11
 71
     3
 72
    26
 73
    22
 74
     0
 42
0.0000001
 43
0.0000001
 40
0.0
 40
0.0
 40
0.0
 40
0.0
 40
1.0
 40
1.0
 40
1.0
 40
2.0
 40
2.0
 40
2.0
 40
3.0
 40
3.0
 40
3.0
 40
4.0
 40
4.0
 40
4.0
 40
5.0
 40
5.0
 40
5.0
 40
6.0
 40
6.0
 40
6.0
 40
7.0
 40
7.0
 40
7.0
 40
7.0
 10
-92.73314242892794
 20
18.08050706651475
 30
0.0
 10
-92.73314242892794
 20
18.08050706651475
 30
0.0
 10
-89.72626308865017
 20
21.08738640679253
 30
0.0
 10
-89.72626308865017
 20
21.08738640679253
 30
0.0
 10
-89.72626308865017
 20
21.08738640679253
 30
0.0
 10
-84.71571621365017
 20
21.08738640679253
 30
0.0
 10
-84.71571621365017
 20
21.08738640679253
 30
0.0
 10
-83.05242411295571
 20
21.08738640679253
 30
0.0
 10
-81.70745883517794
 20
19.73828701443142
 30
0.0
 10
-81.70745883517794
 20
18.08050706651475
 30
0.0
 10
-81.70745883517794
 20
18.08050706651475
 30
0.0
 10
-81.70745883517794
 20
18.08050706651475
 30
0.0
 10
-81.70745883517794
 20
18.08050706651475
 30
0.0
 10
-81.70745883517794
 20
16.41721496582031
 30
0.0
 10
-83.05242411295571
 20
15.07362772623697
 30
0.0
 10
-84.71571621365017
 20
15.07362772623697
 30
0.0
 10
-84.71571621365017
 20
15.07362772623697
 30
0.0
 10
-89.72626308865017
 20
15.07362772623697
 30
0.0
 10
-89.72626308865017
 20
15.07362772623697
 30
0.0
 10
-89.72626308865017
 20
15.07362772623697
 30
0.0
 10
-92.73314242892794
 20
18.08050706651475
 30
0.0
 10
-92.73314242892794
 20
18.08050706651475
 30
0.0
  0
SPLINE
  5
198
100
AcDbEntity
  8
ALPHA
 62
     7
100
AcDbSpline
210
0.0
220
0.0
230
-1.0
 70
     8
 71
     3
 72
    32
 73
    28
 74
     0
 42
0.0000001
 43
0.0000001
 40
0.0
 40
0.0
 40
0.0
 40
0.0
 40
1.0
 40
1.0
 40
1.0
 40
2.0
 40
2.0
 40
2.0
 40
3.0
 40
3.0
 40
3.0
 40
4.0
 40
4.0
 40
4.0
 40
5.0
 40
5.0
 40
5.0
 40
6.0
 40
6.0
 40
6.0
 40
7.0
 40
7.0
 40
7.0
 40
8.0
 40
8.0
 40
8.0
 40
9.0
 40
9.0
 40
9.0
 40
9.0
 10
-89.72075093587239
 20
-4.024775865342881
 30
0.0
 10
-89.72075093587239
 20
-4.024775865342881
 30
0.0
 10
-89.72075093587239
 20
-7.031655205620658
 30
0.0
 10
-89.72075093587239
 20
-7.031655205620658
 30
0.0
 10
-89.72075093587239
 20
-7.589760674370658
 30
0.0
 10
-90.16723531087238
 20
-8.036245049370659
 30
0.0
 10
-90.72534077962238
 20
-8.036245049370659
 30
0.0
 10
-90.72534077962238
 20
-8.036245049370659
 30
0.0
 10
-104.7565256754557
 20
-8.036245049370659
 30
0.0
 10
-104.7565256754557
 20
-8.036245049370659
 30
0.0
 10
-105.3091189914279
 20
-8.036245049370659
 30
0.0
 10
-105.7611155192057
 20
-7.589760674370658
 30
0.0
 10
-105.7611155192057
 20
-7.031655205620658
 30
0.0
 10
-105.7611155192057
 20
-7.031655205620658
 30
0.0
 10
-105.7611155192057
 20
4.997240193684895
 30
0.0
 10
-105.7611155192057
 20
4.997240193684895
 30
0.0
 10
-105.7611155192057
 20
5.549833509657117
 30
0.0
 10
-105.3091189914279
 20
5.996317884657117
 30
0.0
 10
-104.7565256754557
 20
5.996317884657117
 30
0.0
 10
-104.7565256754557
 20
5.996317884657117
 30
0.0
 10
-90.72534077962238
 20
5.996317884657117
 30
0.0
 10
-90.72534077962238
 20
5.996317884657117
 30
0.0
 10
-90.16723531087238
 20
5.996317884657117
 30
0.0
 10
-89.72075093587239
 20
5.549833509657117
 30
0.0
 10
-89.72075093587239
 20
4.997240193684895
 30
0.0
 10
-89.72075093587239
 20
4.997240193684895
 30
0.0
 10
-89.72075093587239
 20
1.988982815212673
 30
0.0
 10
-89.72075093587239
 20
1.988982815212673
 30
0.0
  0
SPLINE
  5
199
100
AcDbEntity
  8
ALPHA
 62
     7
100
AcDbSpline
210
0.0
220
0.0
230
1.0
 70
    11
 71
     3
 72
    26
 73
    22
 74
     0
 42
0.0000001
 43
0.0000001
 40
0.0
 40
0.0
 40
0.0
 40
0.0
 40
1.0
 40
1.0
 40
1.0
 40
2.0
 40
2.0
 40
2.0
 40
3.0
 40
3.0
 40
3.0
 40
4.0
 40
4.0
 40
4.0
 40
5.0
 40
5.0
 40
5.0
 40
6.0
 40
6.0
 40
6.0
 40
7.0
 40
7.0
 40
7.0
 40
7.0
 10
-92.73314242892794
 20
-1.017896525065103
 30
0.0
 10
-92.73314242892794
 20
-1.017896525065103
 30
0.0
 10
-89.72626308865017
 20
1.988982815212673
 30
0.0
 10
-89.72626308865017
 20
1.988982815212673
 30
0.0
 10
-89.72626308865017
 20
1.988982815212673
 30
0.0
 10
-84.71571621365017
 20
1.988982815212673
 30
0.0
 10
-84.71571621365017
 20
1.988982815212673
 30
0.0
 10
-83.05242411295571
 20
1.988982815212673
 30
0.0
 10
-81.70745883517794
 20
0.6398834228515625
 30
0.0
 10
-81.70745883517794
 20
-1.017896525065103
 30
0.0
 10
-81.70745883517794
 20
-1.017896525065103
 30
0.0
 10
-81.70745883517794
 20
-1.017896525065103
 30
0.0
 10
-81.70745883517794
 20
-1.017896525065103
 30
0.0
 10
-81.70745883517794
 20
-2.679810587565103
 30
0.0
 10
-83.05242411295571
 20
-4.024775865342881
 30
0.0
 10
-84.71571621365017
 20
-4.024775865342881
 30
0.0
 10
-84.71571621365017
 20
-4.024775865342881
 30
0.0
 10
-89.72626308865017
 20
-4.024775865342881
 30
0.0
 10
-89.72626308865017
 20
-4.024775865342881
 30
0.0
 10
-89.72626308865017
 20
-4.024775865342881
 30
0.0
 10
-92.73314242892794
 20
-1.017896525065103
 30
0.0
 10
-92.73314242892794
 20
-1.017896525065103
 30
0.0
  0
SPLINE
  5
19A
100
AcDbEntity
  8
ALPHA
 62
     7
100
AcDbSpline
210
0.0
220
0.0
230
-1.0
 70
     8
 71
     3
 72
    32
 73
    28
 74
     0
 42
0.0000001
 43
0.0000001
 40
0.0
 40
0.0
 40
0.0
 40
0.0
 40
1.0
 40
1.0
 40
1.0
 40
2.0
 40
2.0
 40
2.0
 40
3.0
 40
3.0
 40
3.0
 40
4.0
 40
4.0
 40
4.0
 40
5.0
 40
5.0
 40
5.0
 40
6.0
 40
6.0
 40
6.0
 40
7.0
 40
7.0
 40
7.0
 40
8.0
 40
8.0
 40
8.0
 40
9.0
 40
9.0
 40
9.0
 40
9.0
 10
-89.72075093587239
 20
-23.12300720214843
 30
0.0
 10
-89.72075093587239
 20
-23.12300720214843
 30
0.0
 10
-89.72075093587239
 20
-26.12988654242621
 30
0.0
 10
-89.72075093587239
 20
-26.12988654242621
 30
0.0
 10
-89.72075093587239
 20
-26.68661397298176
 30
0.0
 10
-90.16723531087238
 20
-27.13309834798177
 30
0.0
 10
-90.72534077962238
 20
-27.13309834798177
 30
0.0
 10
-90.72534077962238
 20
-27.13309834798177
 30
0.0
 10
-104.7565256754557
 20
-27.13309834798177
 30
0.0
 10
-104.7565256754557
 20
-27.13309834798177
 30
0.0
 10
-105.3091189914279
 20
-27.13309834798177
 30
0.0
 10
-105.7611155192057
 20
-26.68661397298176
 30
0.0
 10
-105.7611155192057
 20
-26.12988654242621
 30
0.0
 10
-105.7611155192057
 20
-26.12988654242621
 30
0.0
 10
-105.7611155192057
 20
-14.10099114312066
 30
0.0
 10
-105.7611155192057
 20
-14.10099114312066
 30
0.0
 10
-105.7611155192057
 20
-13.54839782714843
 30
0.0
 10
-105.3091189914279
 20
-13.10191345214843
 30
0.0
 10
-104.7565256754557
 20
-13.10191345214843
 30
0.0
 10
-104.7565256754557
 20
-13.10191345214843
 30
0.0
 10
-90.72534077962238
 20
-13.10191345214843
 30
0.0
 10
-90.72534077962238
 20
-13.10191345214843
 30
0.0
 10
-90.16723531087238
 20
-13.10191345214843
 30
0.0
 10
-89.72075093587239
 20
-13.54839782714843
 30
0.0
 10
-89.72075093587239
 20
-14.10099114312066
 30
0.0
 10
-89.72075093587239
 20
-14.10099114312066
 30
0.0
 10
-89.72075093587239
 20
-17.10787048339843
 30
0.0
 10
-89.72075093587239
 20
-17.10787048339843
 30
0.0
  0
SPLINE
  5
19B
100
AcDbEntity
  8
ALPHA
 62
     7
100
AcDbSpline
210
0.0
220
0.0
230
1.0
 70
    11
 71
     3
 72
    26
 73
    22
 74
     0
 42
0.0000001
 43
0.0000001
 40
0.0
 40
0.0
 40
0.0
 40
0.0
 40
1.0
 40
1.0
 40
1.0
 40
2.0
 40
2.0
 40
2.0
 40
3.0
 40
3.0
 40
3.0
 40
4.0
 40
4.0
 40
4.0
 40
5.0
 40
5.0
 40
5.0
 40
6.0
 40
6.0
 40
6.0
 40
7.0
 40
7.0
 40
7.0
 40
7.0
 10
-92.73314242892794
 20
-20.11474982367621
 30
0.0
 10
-92.73314242892794
 20
-20.11474982367621
 30
0.0
 10
-89.72626308865017
 20
-17.10787048339843
 30
0.0
 10
-89.72626308865017
 20
-17.10787048339843
 30
0.0
 10
-89.72626308865017
 20
-17.10787048339843
 30
0.0
 10
-84.71571621365017
 20
-17.10787048339843
 30
0.0
 10
-84.71571621365017
 20
-17.10787048339843
 30
0.0
 10
-83.05242411295571
 20
-17.10787048339843
 30
0.0
 10
-81.70745883517794
 20
-18.45696987575954
 30
0.0
 10
-81.70745883517794
 20
-20.11474982367621
 30
0.0
 10
-81.70745883517794
 20
-20.11474982367621
 30
0.0
 10
-81.70745883517794
 20
-20.11474982367621
 30
0.0
 10
-81.70745883517794
 20
-20.11474982367621
 30
0.0
 10
-81.70745883517794
 20
-21.77804192437065
 30
0.0
 10
-83.05242411295571
 20
-23.12300720214843
 30
0.0
 10
-84.71571621365017
 20
-23.12300720214843
 30
0.0
 10
-84.71571621365017
 20
-23.12300720214843
 30
0.0
 10
-89.72626308865017
 20
-23.12300720214843
 30
0.0
 10
-89.72626308865017
 20
-23.12300720214843
 30
0.0
 10
-89.72626308865017
 20
-23.12300720214843
 30
0.0
 10
-92.73314242892794
 20
-20.11474982367621
 30
0.0
 10
-92.73314242892794
 20
-20.11474982367621
 30
0.0
  0
SPLINE
  5
19C
100
AcDbEntity
  8
ALPHA
 62
     7
100
AcDbSpline
210
0.0
220
0.0
230
-1.0
 70
     8
 71
     3
 72
    32
 73
    28
 74
     0
 42
0.0000001
 43
0.0000001
 40
0.0
 40
0.0
 40
0.0
 40
0.0
 40
1.0
 40
1.0
 40
1.0
 40
2.0
 40
2.0
 40
2.0
 40
3.0
 40
3.0
 40
3.0
 40
4.0
 40
4.0
 40
4.0
 40
5.0
 40
5.0
 40
5.0
 40
6.0
 40
6.0
 40
6.0
 40
7.0
 40
7.0
 40
7.0
 40
8.0
 40
8.0
 40
8.0
 40
9.0
 40
9.0
 40
9.0
 40
9.0
 10
-89.72075093587239
 20
-42.21986050075954
 30
0.0
 10
-89.72075093587239
 20
-42.21986050075954
 30
0.0
 10
-89.72075093587239
 20
-45.22811787923177
 30
0.0
 10
-89.72075093587239
 20
-45.22811787923177
 30
0.0
 10
-89.72075093587239
 20
-45.78484530978732
 30
0.0
 10
-90.16723531087238
 20
-46.23132968478731
 30
0.0
 10
-90.72534077962238
 20
-46.23132968478731
 30
0.0
 10
-90.72534077962238
 20
-46.23132968478731
 30
0.0
 10
-104.7565256754557
 20
-46.23132968478731
 30
0.0
 10
-104.7565256754557
 20
-46.23132968478731
 30
0.0
 10
-105.3091189914279
 20
-46.23132968478731
 30
0.0
 10
-105.7611155192057
 20
-45.78484530978732
 30
0.0
 10
-105.7611155192057
 20
-45.22811787923177
 30
0.0
 10
-105.7611155192057
 20
-45.22811787923177
 30
0.0
 10
-105.7611155192057
 20
-33.19922247992621
 30
0.0
 10
-105.7611155192057
 20
-33.19922247992621
 30
0.0
 10
-105.7611155192057
 20
-32.64662916395399
 30
0.0
 10
-105.3091189914279
 20
-32.19876675075954
 30
0.0
 10
-104.7565256754557
 20
-32.19876675075954
 30
0.0
 10
-104.7565256754557
 20
-32.19876675075954
 30
0.0
 10
-90.72534077962238
 20
-32.19876675075954
 30
0.0
 10
-90.72534077962238
 20
-32.19876675075954
 30
0.0
 10
-90.16723531087238
 20
-32.19876675075954
 30
0.0
 10
-89.72075093587239
 20
-32.64662916395399
 30
0.0
 10
-89.72075093587239
 20
-33.19922247992621
 30
0.0
 10
-89.72075093587239
 20
-33.19922247992621
 30
0.0
 10
-89.72075093587239
 20
-36.20610182020399
 30
0.0
 10
-89.72075093587239
 20
-36.20610182020399
 30
0.0
  0
SPLINE
  5
19D
100
AcDbEntity
  8
ALPHA
 62
     7
100
AcDbSpline
210
0.0
220
0.0
230
1.0
 70
    11
 71
     3
 72
    26
 73
    22
 74
     0
 42
0.0000001
 43
0.0000001
 40
0.0
 40
0.0
 40
0.0
 40
0.0
 40
1.0
 40
1.0
 40
1.0
 40
2.0
 40
2.0
 40
2.0
 40
3.0
 40
3.0
 40
3.0
 40
4.0
 40
4.0
 40
4.0
 40
5.0
 40
5.0
 40
5.0
 40
6.0
 40
6.0
 40
6.0
 40
7.0
 40
7.0
 40
7.0
 40
7.0
 10
-92.73314242892794
 20
-39.21298116048177
 30
0.0
 10
-92.73314242892794
 20
-39.21298116048177
 30
0.0
 10
-89.72626308865017
 20
-36.20610182020399
 30
0.0
 10
-89.72626308865017
 20
-36.20610182020399
 30
0.0
 10
-89.72626308865017
 20
-36.20610182020399
 30
0.0
 10
-84.71571621365017
 20
-36.20610182020399
 30
0.0
 10
-84.71571621365017
 20
-36.20610182020399
 30
0.0
 10
-83.05242411295571
 20
-36.20610182020399
 30
0.0
 10
-81.70745883517794
 20
-37.5552012125651
 30
0.0
 10
-81.70745883517794
 20
-39.21298116048177
 30
0.0
 10
-81.70745883517794
 20
-39.21298116048177
 30
0.0
 10
-81.70745883517794
 20
-39.21298116048177
 30
0.0
 10
-81.70745883517794
 20
-39.21298116048177
 30
0.0
 10
-81.70745883517794
 20
-40.87489522298176
 30
0.0
 10
-83.05242411295571
 20
-42.21986050075954
 30
0.0
 10
-84.71571621365017
 20
-42.21986050075954
 30
0.0
 10
-84.71571621365017
 20
-42.21986050075954
 30
0.0
 10
-89.72626308865017
 20
-42.21986050075954
 30
0.0
 10
-89.72626308865017
 20
-42.21986050075954
 30
0.0
 10
-89.72626308865017
 20
-42.21986050075954
 30
0.0
 10
-92.73314242892794
 20
-39.21298116048177
 30
0.0
 10
-92.73314242892794
 20
-39.21298116048177
 30
0.0
  0
SPLINE
  5
19E
100
AcDbEntity
  8
ALPHA
 62
     7
100
AcDbSpline
210
0.0
220
0.0
230
-1.0
 70
     8
 71
     3
 72
    32
 73
    28
 74
     0
 42
0.0000001
 43
0.0000001
 40
0.0
 40
0.0
 40
0.0
 40
0.0
 40
1.0
 40
1.0
 40
1.0
 40
2.0
 40
2.0
 40
2.0
 40
3.0
 40
3.0
 40
3.0
 40
4.0
 40
4.0
 40
4.0
 40
5.0
 40
5.0
 40
5.0
 40
6.0
 40
6.0
 40
6.0
 40
7.0
 40
7.0
 40
7.0
 40
8.0
 40
8.0
 40
8.0
 40
9.0
 40
9.0
 40
9.0
 40
9.0
 10
-89.72075093587239
 20
-61.3180918375651
 30
0.0
 10
-89.72075093587239
 20
-61.3180918375651
 30
0.0
 10
-89.72075093587239
 20
-64.32497117784286
 30
0.0
 10
-89.72075093587239
 20
-64.32497117784286
 30
0.0
 10
-89.72075093587239
 20
-64.88169860839843
 30
0.0
 10
-90.16723531087238
 20
-65.32956102159288
 30
0.0
 10
-90.72534077962238
 20
-65.32956102159288
 30
0.0
 10
-90.72534077962238
 20
-65.32956102159288
 30
0.0
 10
-104.7565256754557
 20
-65.32956102159288
 30
0.0
 10
-104.7565256754557
 20
-65.32956102159288
 30
0.0
 10
-105.3091189914279
 20
-65.32956102159288
 30
0.0
 10
-105.7611155192057
 20
-64.88169860839843
 30
0.0
 10
-105.7611155192057
 20
-64.32497117784286
 30
0.0
 10
-105.7611155192057
 20
-64.32497117784286
 30
0.0
 10
-105.7611155192057
 20
-52.29607577853732
 30
0.0
 10
-105.7611155192057
 20
-52.29607577853732
 30
0.0
 10
-105.7611155192057
 20
-51.7434824625651
 30
0.0
 10
-105.3091189914279
 20
-51.2969980875651
 30
0.0
 10
-104.7565256754557
 20
-51.2969980875651
 30
0.0
 10
-104.7565256754557
 20
-51.2969980875651
 30
0.0
 10
-90.72534077962238
 20
-51.2969980875651
 30
0.0
 10
-90.72534077962238
 20
-51.2969980875651
 30
0.0
 10
-90.16723531087238
 20
-51.2969980875651
 30
0.0
 10
-89.72075093587239
 20
-51.7434824625651
 30
0.0
 10
-89.72075093587239
 20
-52.29607577853732
 30
0.0
 10
-89.72075093587239
 20
-52.29607577853732
 30
0.0
 10
-89.72075093587239
 20
-55.3029551188151
 30
0.0
 10
-89.72075093587239
 20
-55.3029551188151
 30
0.0
  0
SPLINE
  5
19F
100
AcDbEntity
  8
ALPHA
 62
     7
100
AcDbSpline
210
0.0
220
0.0
230
1.0
 70
    11
 71
     3
 72
    26
 73
    22
 74
     0
 42
0.0000001
 43
0.0000001
 40
0.0
 40
0.0
 40
0.0
 40
0.0
 40
1.0
 40
1.0
 40
1.0
 40
2.0
 40
2.0
 40
2.0
 40
3.0
 40
3.0
 40
3.0
 40
4.0
 40
4.0
 40
4.0
 40
5.0
 40
5.0
 40
5.0
 40
6.0
 40
6.0
 40
6.0
 40
7.0
 40
7.0
 40
7.0
 40
7.0
 10
-92.73314242892794
 20
-58.31121249728732
 30
0.0
 10
-92.73314242892794
 20
-58.31121249728732
 30
0.0
 10
-89.72626308865017
 20
-55.3029551188151
 30
0.0
 10
-89.72626308865017
 20
-55.3029551188151
 30
0.0
 10
-89.72626308865017
 20
-55.3029551188151
 30
0.0
 10
-84.71571621365017
 20
-55.3029551188151
 30
0.0
 10
-84.71571621365017
 20
-55.3029551188151
 30
0.0
 10
-83.05242411295571
 20
-55.3029551188151
 30
0.0
 10
-81.70745883517794
 20
-56.65343254937066
 30
0.0
 10
-81.70745883517794
 20
-58.31121249728732
 30
0.0
 10
-81.70745883517794
 20
-58.31121249728732
 30
0.0
 10
-81.70745883517794
 20
-58.31121249728732
 30
0.0
 10
-81.70745883517794
 20
-58.31121249728732
 30
0.0
 10
-81.70745883517794
 20
-59.97312655978731
 30
0.0
 10
-83.05242411295571
 20
-61.3180918375651
 30
0.0
 10
-84.71571621365017
 20
-61.3180918375651
 30
0.0
 10
-84.71571621365017
 20
-61.3180918375651
 30
0.0
 10
-89.72626308865017
 20
-61.3180918375651
 30
0.0
 10
-89.72626308865017
 20
-61.3180918375651
 30
0.0
 10
-89.72626308865017
 20
-61.3180918375651
 30
0.0
 10
-92.73314242892794
 20
-58.31121249728732
 30
0.0
 10
-92.73314242892794
 20
-58.31121249728732
 30
0.0
  0
SPLINE
  5
1A0
100
AcDbEntity
  8
ALPHA
 62
     7
100
AcDbSpline
210
0.0
220
0.0
230
-1.0
 70
     8
 71
     3
 72
    32
 73
    28
 74
     0
 42
0.0000001
 43
0.0000001
 40
0.0
 40
0.0
 40
0.0
 40
0.0
 40
1.0
 40
1.0
 40
1.0
 40
2.0
 40
2.0
 40
2.0
 40
3.0
 40
3.0
 40
3.0
 40
4.0
 40
4.0
 40
4.0
 40
5.0
 40
5.0
 40
5.0
 40
6.0
 40
6.0
 40
6.0
 40
7.0
 40
7.0
 40
7.0
 40
8.0
 40
8.0
 40
8.0
 40
9.0
 40
9.0
 40
9.0
 40
9.0
 10
-89.72075093587239
 20
-80.41494513617621
 30
0.0
 10
-89.72075093587239
 20
-80.41494513617621
 30
0.0
 10
-89.72075093587239
 20
-83.42320251464842
 30
0.0
 10
-89.72075093587239
 20
-83.42320251464842
 30
0.0
 10
-89.72075093587239
 20
-83.97992994520398
 30
0.0
 10
-90.16723531087238
 20
-84.42641432020399
 30
0.0
 10
-90.72534077962238
 20
-84.42641432020399
 30
0.0
 10
-90.72534077962238
 20
-84.42641432020399
 30
0.0
 10
-104.7565256754557
 20
-84.42641432020399
 30
0.0
 10
-104.7565256754557
 20
-84.42641432020399
 30
0.0
 10
-105.3091189914279
 20
-84.42641432020399
 30
0.0
 10
-105.7611155192057
 20
-83.97992994520398
 30
0.0
 10
-105.7611155192057
 20
-83.42320251464842
 30
0.0
 10
-105.7611155192057
 20
-83.42320251464842
 30
0.0
 10
-105.7611155192057
 20
-71.39430711534287
 30
0.0
 10
-105.7611155192057
 20
-71.39430711534287
 30
0.0
 10
-105.7611155192057
 20
-70.84171379937065
 30
0.0
 10
-105.3091189914279
 20
-70.39522942437065
 30
0.0
 10
-104.7565256754557
 20
-70.39522942437065
 30
0.0
 10
-104.7565256754557
 20
-70.39522942437065
 30
0.0
 10
-90.72534077962238
 20
-70.39522942437065
 30
0.0
 10
-90.72534077962238
 20
-70.39522942437065
 30
0.0
 10
-90.16723531087238
 20
-70.39522942437065
 30
0.0
 10
-89.72075093587239
 20
-70.84171379937065
 30
0.0
 10
-89.72075093587239
 20
-71.39430711534287
 30
0.0
 10
-89.72075093587239
 20
-71.39430711534287
 30
0.0
 10
-89.72075093587239
 20
-74.40118645562065
 30
0.0
 10
-89.72075093587239
 20
-74.40118645562065
 30
0.0
  0
SPLINE
  5
1A1
100
AcDbEntity
  8
ALPHA
 62
     7
100
AcDbSpline
210
0.0
220
0.0
230
1.0
 70
    11
 71
     3
 72
    26
 73
    22
 74
     0
 42
0.0000001
 43
0.0000001
 40
0.0
 40
0.0
 40
0.0
 40
0.0
 40
1.0
 40
1.0
 40
1.0
 40
2.0
 40
2.0
 40
2.0
 40
3.0
 40
3.0
 40
3.0
 40
4.0
 40
4.0
 40
4.0
 40
5.0
 40
5.0
 40
5.0
 40
6.0
 40
6.0
 40
6.0
 40
7.0
 40
7.0
 40
7.0
 40
7.0
 10
-92.73314242892794
 20
-77.40806579589843
 30
0.0
 10
-92.73314242892794
 20
-77.40806579589843
 30
0.0
 10
-89.72626308865017
 20
-74.40118645562065
 30
0.0
 10
-89.72626308865017
 20
-74.40118645562065
 30
0.0
 10
-89.72626308865017
 20
-74.40118645562065
 30
0.0
 10
-84.71571621365017
 20
-74.40118645562065
 30
0.0
 10
-84.71571621365017
 20
-74.40118645562065
 30
0.0
 10
-83.05242411295571
 20
-74.40118645562065
 30
0.0
 10
-81.70745883517794
 20
-75.75028584798175
 30
0.0
 10
-81.70745883517794
 20
-77.40806579589843
 30
0.0
 10
-81.70745883517794
 20
-77.40806579589843
 30
0.0
 10
-81.70745883517794
 20
-77.40806579589843
 30
0.0
 10
-81.70745883517794
 20
-77.40806579589843
 30
0.0
 10
-81.70745883517794
 20
-79.07135789659287
 30
0.0
 10
-83.05242411295571
 20
-80.41494513617621
 30
0.0
 10
-84.71571621365017
 20
-80.41494513617621
 30
0.0
 10
-84.71571621365017
 20
-80.41494513617621
 30
0.0
 10
-89.72626308865017
 20
-80.41494513617621
 30
0.0
 10
-89.72626308865017
 20
-80.41494513617621
 30
0.0
 10
-89.72626308865017
 20
-80.41494513617621
 30
0.0
 10
-92.73314242892794
 20
-77.40806579589843
 30
0.0
 10
-92.73314242892794
 20
-77.40806579589843
 30
0.0
  0
SPLINE
  5
1A2
100
AcDbEntity
  8
ALPHA
 62
     7
100
AcDbSpline
210
0.0
220
0.0
230
-1.0
 70
     8
 71
     3
 72
    32
 73
    28
 74
     0
 42
0.0000001
 43
0.0000001
 40
0.0
 40
0.0
 40
0.0
 40
0.0
 40
1.0
 40
1.0
 40
1.0
 40
2.0
 40
2.0
 40
2.0
 40
3.0
 40
3.0
 40
3.0
 40
4.0
 40
4.0
 40
4.0
 40
5.0
 40
5.0
 40
5.0
 40
6.0
 40
6.0
 40
6.0
 40
7.0
 40
7.0
 40
7.0
 40
8.0
 40
8.0
 40
8.0
 40
9.0
 40
9.0
 40
9.0
 40
9.0
 10
89.68311326768661
 20
15.07362772623697
 30
0.0
 10
89.68311326768661
 20
15.07362772623697
 30
0.0
 10
89.68311326768661
 20
12.06537034776475
 30
0.0
 10
89.68311326768661
 20
12.06537034776475
 30
0.0
 10
89.68311326768661
 20
11.5086429172092
 30
0.0
 10
90.12959764268662
 20
11.0621585422092
 30
0.0
 10
90.68219095865885
 20
11.0621585422092
 30
0.0
 10
90.68219095865885
 20
11.0621585422092
 30
0.0
 10
104.7188880072699
 20
11.0621585422092
 30
0.0
 10
104.7188880072699
 20
11.0621585422092
 30
0.0
 10
105.2714813232421
 20
11.0621585422092
 30
0.0
 10
105.7220998128254
 20
11.5086429172092
 30
0.0
 10
105.7220998128254
 20
12.06537034776475
 30
0.0
 10
105.7220998128254
 20
12.06537034776475
 30
0.0
 10
105.7220998128254
 20
24.09426574707031
 30
0.0
 10
105.7220998128254
 20
24.09426574707031
 30
0.0
 10
105.7220998128254
 20
24.64685906304253
 30
0.0
 10
105.2714813232421
 20
25.09334343804253
 30
0.0
 10
104.7188880072699
 20
25.09334343804253
 30
0.0
 10
104.7188880072699
 20
25.09334343804253
 30
0.0
 10
90.68219095865885
 20
25.09334343804253
 30
0.0
 10
90.68219095865885
 20
25.09334343804253
 30
0.0
 10
90.12959764268662
 20
25.09334343804253
 30
0.0
 10
89.68311326768661
 20
24.64685906304253
 30
0.0
 10
89.68311326768661
 20
24.09426574707031
 30
0.0
 10
89.68311326768661
 20
24.09426574707031
 30
0.0
 10
89.68311326768661
 20
21.08738640679253
 30
0.0
 10
89.68311326768661
 20
21.08738640679253
 30
0.0
  0
SPLINE
  5
1A3
100
AcDbEntity
  8
ALPHA
 62
     7
100
AcDbSpline
210
0.0
220
0.0
230
1.0
 70
    11
 71
     3
 72
    26
 73
    22
 74
     0
 42
0.0000001
 43
0.0000001
 40
0.0
 40
0.0
 40
0.0
 40
0.0
 40
1.0
 40
1.0
 40
1.0
 40
2.0
 40
2.0
 40
2.0
 40
3.0
 40
3.0
 40
3.0
 40
4.0
 40
4.0
 40
4.0
 40
5.0
 40
5.0
 40
5.0
 40
6.0
 40
6.0
 40
6.0
 40
7.0
 40
7.0
 40
7.0
 40
7.0
 10
92.69412672254773
 20
18.08050706651475
 30
0.0
 10
92.69412672254773
 20
18.08050706651475
 30
0.0
 10
89.68724738226995
 20
21.08738640679253
 30
0.0
 10
89.68724738226995
 20
21.08738640679253
 30
0.0
 10
89.68724738226995
 20
21.08738640679253
 30
0.0
 10
84.67256639268661
 20
21.08738640679253
 30
0.0
 10
84.67256639268661
 20
21.08738640679253
 30
0.0
 10
83.01478644476995
 20
21.08738640679253
 30
0.0
 10
81.66568705240884
 20
19.73828701443142
 30
0.0
 10
81.66568705240884
 20
18.08050706651475
 30
0.0
 10
81.66568705240884
 20
18.08050706651475
 30
0.0
 10
81.66568705240884
 20
18.08050706651475
 30
0.0
 10
81.66568705240884
 20
18.08050706651475
 30
0.0
 10
81.66568705240884
 20
16.41721496582031
 30
0.0
 10
83.01478644476995
 20
15.07362772623697
 30
0.0
 10
84.67256639268661
 20
15.07362772623697
 30
0.0
 10
84.67256639268661
 20
15.07362772623697
 30
0.0
 10
89.68724738226995
 20
15.07362772623697
 30
0.0
 10
89.68724738226995
 20
15.07362772623697
 30
0.0
 10
89.68724738226995
 20
15.07362772623697
 30
0.0
 10
92.69412672254773
 20
18.08050706651475
 30
0.0
 10
92.69412672254773
 20
18.08050706651475
 30
0.0
  0
SPLINE
  5
1A4
100
AcDbEntity
  8
ALPHA
 62
     7
100
AcDbSpline
210
0.0
220
0.0
230
-1.0
 70
     8
 71
     3
 72
    32
 73
    28
 74
     0
 42
0.0000001
 43
0.0000001
 40
0.0
 40
0.0
 40
0.0
 40
0.0
 40
1.0
 40
1.0
 40
1.0
 40
2.0
 40
2.0
 40
2.0
 40
3.0
 40
3.0
 40
3.0
 40
4.0
 40
4.0
 40
4.0
 40
5.0
 40
5.0
 40
5.0
 40
6.0
 40
6.0
 40
6.0
 40
7.0
 40
7.0
 40
7.0
 40
8.0
 40
8.0
 40
8.0
 40
9.0
 40
9.0
 40
9.0
 40
9.0
 10
89.68311326768661
 20
-4.024775865342881
 30
0.0
 10
89.68311326768661
 20
-4.024775865342881
 30
0.0
 10
89.68311326768661
 20
-7.031655205620658
 30
0.0
 10
89.68311326768661
 20
-7.031655205620658
 30
0.0
 10
89.68311326768661
 20
-7.589760674370658
 30
0.0
 10
90.12959764268662
 20
-8.036245049370659
 30
0.0
 10
90.68219095865885
 20
-8.036245049370659
 30
0.0
 10
90.68219095865885
 20
-8.036245049370659
 30
0.0
 10
104.7188880072699
 20
-8.036245049370659
 30
0.0
 10
104.7188880072699
 20
-8.036245049370659
 30
0.0
 10
105.2714813232421
 20
-8.036245049370659
 30
0.0
 10
105.7220998128254
 20
-7.589760674370658
 30
0.0
 10
105.7220998128254
 20
-7.031655205620658
 30
0.0
 10
105.7220998128254
 20
-7.031655205620658
 30
0.0
 10
105.7220998128254
 20
4.997240193684895
 30
0.0
 10
105.7220998128254
 20
4.997240193684895
 30
0.0
 10
105.7220998128254
 20
5.549833509657117
 30
0.0
 10
105.2714813232421
 20
5.996317884657117
 30
0.0
 10
104.7188880072699
 20
5.996317884657117
 30
0.0
 10
104.7188880072699
 20
5.996317884657117
 30
0.0
 10
90.68219095865885
 20
5.996317884657117
 30
0.0
 10
90.68219095865885
 20
5.996317884657117
 30
0.0
 10
90.12959764268662
 20
5.996317884657117
 30
0.0
 10
89.68311326768661
 20
5.549833509657117
 30
0.0
 10
89.68311326768661
 20
4.997240193684895
 30
0.0
 10
89.68311326768661
 20
4.997240193684895
 30
0.0
 10
89.68311326768661
 20
1.988982815212673
 30
0.0
 10
89.68311326768661
 20
1.988982815212673
 30
0.0
  0
SPLINE
  5
1A5
100
AcDbEntity
  8
ALPHA
 62
     7
100
AcDbSpline
210
0.0
220
0.0
230
1.0
 70
    11
 71
     3
 72
    26
 73
    22
 74
     0
 42
0.0000001
 43
0.0000001
 40
0.0
 40
0.0
 40
0.0
 40
0.0
 40
1.0
 40
1.0
 40
1.0
 40
2.0
 40
2.0
 40
2.0
 40
3.0
 40
3.0
 40
3.0
 40
4.0
 40
4.0
 40
4.0
 40
5.0
 40
5.0
 40
5.0
 40
6.0
 40
6.0
 40
6.0
 40
7.0
 40
7.0
 40
7.0
 40
7.0
 10
92.69412672254773
 20
-1.017896525065103
 30
0.0
 10
92.69412672254773
 20
-1.017896525065103
 30
0.0
 10
89.68724738226995
 20
1.988982815212673
 30
0.0
 10
89.68724738226995
 20
1.988982815212673
 30
0.0
 10
89.68724738226995
 20
1.988982815212673
 30
0.0
 10
84.67256639268661
 20
1.988982815212673
 30
0.0
 10
84.67256639268661
 20
1.988982815212673
 30
0.0
 10
83.01478644476995
 20
1.988982815212673
 30
0.0
 10
81.66568705240884
 20
0.6398834228515625
 30
0.0
 10
81.66568705240884
 20
-1.017896525065103
 30
0.0
 10
81.66568705240884
 20
-1.017896525065103
 30
0.0
 10
81.66568705240884
 20
-1.017896525065103
 30
0.0
 10
81.66568705240884
 20
-1.017896525065103
 30
0.0
 10
81.66568705240884
 20
-2.679810587565103
 30
0.0
 10
83.01478644476995
 20
-4.024775865342881
 30
0.0
 10
84.67256639268661
 20
-4.024775865342881
 30
0.0
 10
84.67256639268661
 20
-4.024775865342881
 30
0.0
 10
89.68724738226995
 20
-4.024775865342881
 30
0.0
 10
89.68724738226995
 20
-4.024775865342881
 30
0.0
 10
89.68724738226995
 20
-4.024775865342881
 30
0.0
 10
92.69412672254773
 20
-1.017896525065103
 30
0.0
 10
92.69412672254773
 20
-1.017896525065103
 30
0.0
  0
SPLINE
  5
1A6
100
AcDbEntity
  8
ALPHA
 62
     7
100
AcDbSpline
210
0.0
220
0.0
230
-1.0
 70
     8
 71
     3
 72
    32
 73
    28
 74
     0
 42
0.0000001
 43
0.0000001
 40
0.0
 40
0.0
 40
0.0
 40
0.0
 40
1.0
 40
1.0
 40
1.0
 40
2.0
 40
2.0
 40
2.0
 40
3.0
 40
3.0
 40
3.0
 40
4.0
 40
4.0
 40
4.0
 40
5.0
 40
5.0
 40
5.0
 40
6.0
 40
6.0
 40
6.0
 40
7.0
 40
7.0
 40
7.0
 40
8.0
 40
8.0
 40
8.0
 40
9.0
 40
9.0
 40
9.0
 40
9.0
 10
89.68311326768661
 20
-23.12300720214843
 30
0.0
 10
89.68311326768661
 20
-23.12300720214843
 30
0.0
 10
89.68311326768661
 20
-26.12988654242621
 30
0.0
 10
89.68311326768661
 20
-26.12988654242621
 30
0.0
 10
89.68311326768661
 20
-26.68661397298176
 30
0.0
 10
90.12959764268662
 20
-27.13309834798177
 30
0.0
 10
90.68219095865885
 20
-27.13309834798177
 30
0.0
 10
90.68219095865885
 20
-27.13309834798177
 30
0.0
 10
104.7188880072699
 20
-27.13309834798177
 30
0.0
 10
104.7188880072699
 20
-27.13309834798177
 30
0.0
 10
105.2714813232421
 20
-27.13309834798177
 30
0.0
 10
105.7220998128254
 20
-26.68661397298176
 30
0.0
 10
105.7220998128254
 20
-26.12988654242621
 30
0.0
 10
105.7220998128254
 20
-26.12988654242621
 30
0.0
 10
105.7220998128254
 20
-14.10099114312066
 30
0.0
 10
105.7220998128254
 20
-14.10099114312066
 30
0.0
 10
105.7220998128254
 20
-13.54839782714843
 30
0.0
 10
105.2714813232421
 20
-13.10191345214843
 30
0.0
 10
104.7188880072699
 20
-13.10191345214843
 30
0.0
 10
104.7188880072699
 20
-13.10191345214843
 30
0.0
 10
90.68219095865885
 20
-13.10191345214843
 30
0.0
 10
90.68219095865885
 20
-13.10191345214843
 30
0.0
 10
90.12959764268662
 20
-13.10191345214843
 30
0.0
 10
89.68311326768661
 20
-13.54839782714843
 30
0.0
 10
89.68311326768661
 20
-14.10099114312066
 30
0.0
 10
89.68311326768661
 20
-14.10099114312066
 30
0.0
 10
89.68311326768661
 20
-17.10787048339843
 30
0.0
 10
89.68311326768661
 20
-17.10787048339843
 30
0.0
  0
SPLINE
  5
1A7
100
AcDbEntity
  8
ALPHA
 62
     7
100
AcDbSpline
210
0.0
220
0.0
230
1.0
 70
    11
 71
     3
 72
    26
 73
    22
 74
     0
 42
0.0000001
 43
0.0000001
 40
0.0
 40
0.0
 40
0.0
 40
0.0
 40
1.0
 40
1.0
 40
1.0
 40
2.0
 40
2.0
 40
2.0
 40
3.0
 40
3.0
 40
3.0
 40
4.0
 40
4.0
 40
4.0
 40
5.0
 40
5.0
 40
5.0
 40
6.0
 40
6.0
 40
6.0
 40
7.0
 40
7.0
 40
7.0
 40
7.0
 10
92.69412672254773
 20
-20.11474982367621
 30
0.0
 10
92.69412672254773
 20
-20.11474982367621
 30
0.0
 10
89.68724738226995
 20
-17.10787048339843
 30
0.0
 10
89.68724738226995
 20
-17.10787048339843
 30
0.0
 10
89.68724738226995
 20
-17.10787048339843
 30
0.0
 10
84.67256639268661
 20
-17.10787048339843
 30
0.0
 10
84.67256639268661
 20
-17.10787048339843
 30
0.0
 10
83.01478644476995
 20
-17.10787048339843
 30
0.0
 10
81.66568705240884
 20
-18.45696987575954
 30
0.0
 10
81.66568705240884
 20
-20.11474982367621
 30
0.0
 10
81.66568705240884
 20
-20.11474982367621
 30
0.0
 10
81.66568705240884
 20
-20.11474982367621
 30
0.0
 10
81.66568705240884
 20
-20.11474982367621
 30
0.0
 10
81.66568705240884
 20
-21.77804192437065
 30
0.0
 10
83.01478644476995
 20
-23.12300720214843
 30
0.0
 10
84.67256639268661
 20
-23.12300720214843
 30
0.0
 10
84.67256639268661
 20
-23.12300720214843
 30
0.0
 10
89.68724738226995
 20
-23.12300720214843
 30
0.0
 10
89.68724738226995
 20
-23.12300720214843
 30
0.0
 10
89.68724738226995
 20
-23.12300720214843
 30
0.0
 10
92.69412672254773
 20
-20.11474982367621
 30
0.0
 10
92.69412672254773
 20
-20.11474982367621
 30
0.0
  0
SPLINE
  5
1A8
100
AcDbEntity
  8
ALPHA
 62
     7
100
AcDbSpline
210
0.0
220
0.0
230
-1.0
 70
     8
 71
     3
 72
    32
 73
    28
 74
     0
 42
0.0000001
 43
0.0000001
 40
0.0
 40
0.0
 40
0.0
 40
0.0
 40
1.0
 40
1.0
 40
1.0
 40
2.0
 40
2.0
 40
2.0
 40
3.0
 40
3.0
 40
3.0
 40
4.0
 40
4.0
 40
4.0
 40
5.0
 40
5.0
 40
5.0
 40
6.0
 40
6.0
 40
6.0
 40
7.0
 40
7.0
 40
7.0
 40
8.0
 40
8.0
 40
8.0
 40
9.0
 40
9.0
 40
9.0
 40
9.0
 10
89.68311326768661
 20
-42.21986050075954
 30
0.0
 10
89.68311326768661
 20
-42.21986050075954
 30
0.0
 10
89.68311326768661
 20
-45.22811787923177
 30
0.0
 10
89.68311326768661
 20
-45.22811787923177
 30
0.0
 10
89.68311326768661
 20
-45.78484530978732
 30
0.0
 10
90.12959764268662
 20
-46.23132968478731
 30
0.0
 10
90.68219095865885
 20
-46.23132968478731
 30
0.0
 10
90.68219095865885
 20
-46.23132968478731
 30
0.0
 10
104.7188880072699
 20
-46.23132968478731
 30
0.0
 10
104.7188880072699
 20
-46.23132968478731
 30
0.0
 10
105.2714813232421
 20
-46.23132968478731
 30
0.0
 10
105.7220998128254
 20
-45.78484530978732
 30
0.0
 10
105.7220998128254
 20
-45.22811787923177
 30
0.0
 10
105.7220998128254
 20
-45.22811787923177
 30
0.0
 10
105.7220998128254
 20
-33.19922247992621
 30
0.0
 10
105.7220998128254
 20
-33.19922247992621
 30
0.0
 10
105.7220998128254
 20
-32.64662916395399
 30
0.0
 10
105.2714813232421
 20
-32.19876675075954
 30
0.0
 10
104.7188880072699
 20
-32.19876675075954
 30
0.0
 10
104.7188880072699
 20
-32.19876675075954
 30
0.0
 10
90.68219095865885
 20
-32.19876675075954
 30
0.0
 10
90.68219095865885
 20
-32.19876675075954
 30
0.0
 10
90.12959764268662
 20
-32.19876675075954
 30
0.0
 10
89.68311326768661
 20
-32.64662916395399
 30
0.0
 10
89.68311326768661
 20
-33.19922247992621
 30
0.0
 10
89.68311326768661
 20
-33.19922247992621
 30
0.0
 10
89.68311326768661
 20
-36.20610182020399
 30
0.0
 10
89.68311326768661
 20
-36.20610182020399
 30
0.0
  0
SPLINE
  5
1A9
100
AcDbEntity
  8
ALPHA
 62
     7
100
AcDbSpline
210
0.0
220
0.0
230
1.0
 70
    11
 71
     3
 72
    26
 73
    22
 74
     0
 42
0.0000001
 43
0.0000001
 40
0.0
 40
0.0
 40
0.0
 40
0.0
 40
1.0
 40
1.0
 40
1.0
 40
2.0
 40
2.0
 40
2.0
 40
3.0
 40
3.0
 40
3.0
 40
4.0
 40
4.0
 40
4.0
 40
5.0
 40
5.0
 40
5.0
 40
6.0
 40
6.0
 40
6.0
 40
7.0
 40
7.0
 40
7.0
 40
7.0
 10
92.69412672254773
 20
-39.21298116048177
 30
0.0
 10
92.69412672254773
 20
-39.21298116048177
 30
0.0
 10
89.68724738226995
 20
-36.20610182020399
 30
0.0
 10
89.68724738226995
 20
-36.20610182020399
 30
0.0
 10
89.68724738226995
 20
-36.20610182020399
 30
0.0
 10
84.67256639268661
 20
-36.20610182020399
 30
0.0
 10
84.67256639268661
 20
-36.20610182020399
 30
0.0
 10
83.01478644476995
 20
-36.20610182020399
 30
0.0
 10
81.66568705240884
 20
-37.5552012125651
 30
0.0
 10
81.66568705240884
 20
-39.21298116048177
 30
0.0
 10
81.66568705240884
 20
-39.21298116048177
 30
0.0
 10
81.66568705240884
 20
-39.21298116048177
 30
0.0
 10
81.66568705240884
 20
-39.21298116048177
 30
0.0
 10
81.66568705240884
 20
-40.87489522298176
 30
0.0
 10
83.01478644476995
 20
-42.21986050075954
 30
0.0
 10
84.67256639268661
 20
-42.21986050075954
 30
0.0
 10
84.67256639268661
 20
-42.21986050075954
 30
0.0
 10
89.68724738226995
 20
-42.21986050075954
 30
0.0
 10
89.68724738226995
 20
-42.21986050075954
 30
0.0
 10
89.68724738226995
 20
-42.21986050075954
 30
0.0
 10
92.69412672254773
 20
-39.21298116048177
 30
0.0
 10
92.69412672254773
 20
-39.21298116048177
 30
0.0
  0
SPLINE
  5
1AA
100
AcDbEntity
  8
ALPHA
 62
     7
100
AcDbSpline
210
0.0
220
0.0
230
-1.0
 70
     8
 71
     3
 72
    32
 73
    28
 74
     0
 42
0.0000001
 43
0.0000001
 40
0.0
 40
0.0
 40
0.0
 40
0.0
 40
1.0
 40
1.0
 40
1.0
 40
2.0
 40
2.0
 40
2.0
 40
3.0
 40
3.0
 40
3.0
 40
4.0
 40
4.0
 40
4.0
 40
5.0
 40
5.0
 40
5.0
 40
6.0
 40
6.0
 40
6.0
 40
7.0
 40
7.0
 40
7.0
 40
8.0
 40
8.0
 40
8.0
 40
9.0
 40
9.0
 40
9.0
 40
9.0
 10
89.68311326768661
 20
-61.3180918375651
 30
0.0
 10
89.68311326768661
 20
-61.3180918375651
 30
0.0
 10
89.68311326768661
 20
-64.32497117784286
 30
0.0
 10
89.68311326768661
 20
-64.32497117784286
 30
0.0
 10
89.68311326768661
 20
-64.88169860839843
 30
0.0
 10
90.12959764268662
 20
-65.32956102159288
 30
0.0
 10
90.68219095865885
 20
-65.32956102159288
 30
0.0
 10
90.68219095865885
 20
-65.32956102159288
 30
0.0
 10
104.7188880072699
 20
-65.32956102159288
 30
0.0
 10
104.7188880072699
 20
-65.32956102159288
 30
0.0
 10
105.2714813232421
 20
-65.32956102159288
 30
0.0
 10
105.7220998128254
 20
-64.88169860839843
 30
0.0
 10
105.7220998128254
 20
-64.32497117784286
 30
0.0
 10
105.7220998128254
 20
-64.32497117784286
 30
0.0
 10
105.7220998128254
 20
-52.29607577853732
 30
0.0
 10
105.7220998128254
 20
-52.29607577853732
 30
0.0
 10
105.7220998128254
 20
-51.7434824625651
 30
0.0
 10
105.2714813232421
 20
-51.2969980875651
 30
0.0
 10
104.7188880072699
 20
-51.2969980875651
 30
0.0
 10
104.7188880072699
 20
-51.2969980875651
 30
0.0
 10
90.68219095865885
 20
-51.2969980875651
 30
0.0
 10
90.68219095865885
 20
-51.2969980875651
 30
0.0
 10
90.12959764268662
 20
-51.2969980875651
 30
0.0
 10
89.68311326768661
 20
-51.7434824625651
 30
0.0
 10
89.68311326768661
 20
-52.29607577853732
 30
0.0
 10
89.68311326768661
 20
-52.29607577853732
 30
0.0
 10
89.68311326768661
 20
-55.3029551188151
 30
0.0
 10
89.68311326768661
 20
-55.3029551188151
 30
0.0
  0
SPLINE
  5
1AB
100
AcDbEntity
  8
ALPHA
 62
     7
100
AcDbSpline
210
0.0
220
0.0
230
1.0
 70
    11
 71
     3
 72
    26
 73
    22
 74
     0
 42
0.0000001
 43
0.0000001
 40
0.0
 40
0.0
 40
0.0
 40
0.0
 40
1.0
 40
1.0
 40
1.0
 40
2.0
 40
2.0
 40
2.0
 40
3.0
 40
3.0
 40
3.0
 40
4.0
 40
4.0
 40
4.0
 40
5.0
 40
5.0
 40
5.0
 40
6.0
 40
6.0
 40
6.0
 40
7.0
 40
7.0
 40
7.0
 40
7.0
 10
92.69412672254773
 20
-58.31121249728732
 30
0.0
 10
92.69412672254773
 20
-58.31121249728732
 30
0.0
 10
89.68724738226995
 20
-55.3029551188151
 30
0.0
 10
89.68724738226995
 20
-55.3029551188151
 30
0.0
 10
89.68724738226995
 20
-55.3029551188151
 30
0.0
 10
84.67256639268661
 20
-55.3029551188151
 30
0.0
 10
84.67256639268661
 20
-55.3029551188151
 30
0.0
 10
83.01478644476995
 20
-55.3029551188151
 30
0.0
 10
81.66568705240884
 20
-56.65343254937066
 30
0.0
 10
81.66568705240884
 20
-58.31121249728732
 30
0.0
 10
81.66568705240884
 20
-58.31121249728732
 30
0.0
 10
81.66568705240884
 20
-58.31121249728732
 30
0.0
 10
81.66568705240884
 20
-58.31121249728732
 30
0.0
 10
81.66568705240884
 20
-59.97312655978731
 30
0.0
 10
83.01478644476995
 20
-61.3180918375651
 30
0.0
 10
84.67256639268661
 20
-61.3180918375651
 30
0.0
 10
84.67256639268661
 20
-61.3180918375651
 30
0.0
 10
89.68724738226995
 20
-61.3180918375651
 30
0.0
 10
89.68724738226995
 20
-61.3180918375651
 30
0.0
 10
89.68724738226995
 20
-61.3180918375651
 30
0.0
 10
92.69412672254773
 20
-58.31121249728732
 30
0.0
 10
92.69412672254773
 20
-58.31121249728732
 30
0.0
  0
SPLINE
  5
1AC
100
AcDbEntity
  8
ALPHA
 62
     7
100
AcDbSpline
210
0.0
220
0.0
230
-1.0
 70
     8
 71
     3
 72
    32
 73
    28
 74
     0
 42
0.0000001
 43
0.0000001
 40
0.0
 40
0.0
 40
0.0
 40
0.0
 40
1.0
 40
1.0
 40
1.0
 40
2.0
 40
2.0
 40
2.0
 40
3.0
 40
3.0
 40
3.0
 40
4.0
 40
4.0
 40
4.0
 40
5.0
 40
5.0
 40
5.0
 40
6.0
 40
6.0
 40
6.0
 40
7.0
 40
7.0
 40
7.0
 40
8.0
 40
8.0
 40
8.0
 40
9.0
 40
9.0
 40
9.0
 40
9.0
 10
89.68311326768661
 20
-80.41494513617621
 30
0.0
 10
89.68311326768661
 20
-80.41494513617621
 30
0.0
 10
89.68311326768661
 20
-83.42320251464842
 30
0.0
 10
89.68311326768661
 20
-83.42320251464842
 30
0.0
 10
89.68311326768661
 20
-83.97992994520398
 30
0.0
 10
90.12959764268662
 20
-84.42641432020399
 30
0.0
 10
90.68219095865885
 20
-84.42641432020399
 30
0.0
 10
90.68219095865885
 20
-84.42641432020399
 30
0.0
 10
104.7188880072699
 20
-84.42641432020399
 30
0.0
 10
104.7188880072699
 20
-84.42641432020399
 30
0.0
 10
105.2714813232421
 20
-84.42641432020399
 30
0.0
 10
105.7220998128254
 20
-83.97992994520398
 30
0.0
 10
105.7220998128254
 20
-83.42320251464842
 30
0.0
 10
105.7220998128254
 20
-83.42320251464842
 30
0.0
 10
105.7220998128254
 20
-71.39430711534287
 30
0.0
 10
105.7220998128254
 20
-71.39430711534287
 30
0.0
 10
105.7220998128254
 20
-70.84171379937065
 30
0.0
 10
105.2714813232421
 20
-70.39522942437065
 30
0.0
 10
104.7188880072699
 20
-70.39522942437065
 30
0.0
 10
104.7188880072699
 20
-70.39522942437065
 30
0.0
 10
90.68219095865885
 20
-70.39522942437065
 30
0.0
 10
90.68219095865885
 20
-70.39522942437065
 30
0.0
 10
90.12959764268662
 20
-70.39522942437065
 30
0.0
 10
89.68311326768661
 20
-70.84171379937065
 30
0.0
 10
89.68311326768661
 20
-71.39430711534287
 30
0.0
 10
89.68311326768661
 20
-71.39430711534287
 30
0.0
 10
89.68311326768661
 20
-74.40118645562065
 30
0.0
 10
89.68311326768661
 20
-74.40118645562065
 30
0.0
  0
SPLINE
  5
1AD
100
AcDbEntity
  8
ALPHA
 62
     7
100
AcDbSpline
210
0.0
220
0.0
230
1.0
 70
    11
 71
     3
 72
    26
 73
    22
 74
     0
 42
0.0000001
 43
0.0000001
 40
0.0
 40
0.0
 40
0.0
 40
0.0
 40
1.0
 40
1.0
 40
1.0
 40
2.0
 40
2.0
 40
2.0
 40
3.0
 40
3.0
 40
3.0
 40
4.0
 40
4.0
 40
4.0
 40
5.0
 40
5.0
 40
5.0
 40
6.0
 40
6.0
 40
6.0
 40
7.0
 40
7.0
 40
7.0
 40
7.0
 10
92.69412672254773
 20
-77.40806579589843
 30
0.0
 10
92.69412672254773
 20
-77.40806579589843
 30
0.0
 10
89.68724738226995
 20
-74.40118645562065
 30
0.0
 10
89.68724738226995
 20
-74.40118645562065
 30
0.0
 10
89.68724738226995
 20
-74.40118645562065
 30
0.0
 10
84.67256639268661
 20
-74.40118645562065
 30
0.0
 10
84.67256639268661
 20
-74.40118645562065
 30
0.0
 10
83.01478644476995
 20
-74.40118645562065
 30
0.0
 10
81.66568705240884
 20
-75.75028584798175
 30
0.0
 10
81.66568705240884
 20
-77.40806579589843
 30
0.0
 10
81.66568705240884
 20
-77.40806579589843
 30
0.0
 10
81.66568705240884
 20
-77.40806579589843
 30
0.0
 10
81.66568705240884
 20
-77.40806579589843
 30
0.0
 10
81.66568705240884
 20
-79.07135789659287
 30
0.0
 10
83.01478644476995
 20
-80.41494513617621
 30
0.0
 10
84.67256639268661
 20
-80.41494513617621
 30
0.0
 10
84.67256639268661
 20
-80.41494513617621
 30
0.0
 10
89.68724738226995
 20
-80.41494513617621
 30
0.0
 10
89.68724738226995
 20
-80.41494513617621
 30
0.0
 10
89.68724738226995
 20
-80.41494513617621
 30
0.0
 10
92.69412672254773
 20
-77.40806579589843
 30
0.0
 10
92.69412672254773
 20
-77.40806579589843
 30
0.0
  0
SPLINE
  5
1AE
100
AcDbEntity
  8
ALPHA
 62
     7
100
AcDbSpline
210
0.0
220
0.0
230
-1.0
 70
     8
 71
     3
 72
    32
 73
    28
 74
     0
 42
0.0000001
 43
0.0000001
 40
0.0
 40
0.0
 40
0.0
 40
0.0
 40
1.0
 40
1.0
 40
1.0
 40
2.0
 40
2.0
 40
2.0
 40
3.0
 40
3.0
 40
3.0
 40
4.0
 40
4.0
 40
4.0
 40
5.0
 40
5.0
 40
5.0
 40
6.0
 40
6.0
 40
6.0
 40
7.0
 40
7.0
 40
7.0
 40
8.0
 40
8.0
 40
8.0
 40
9.0
 40
9.0
 40
9.0
 40
9.0
 10
127.7817352294921
 20
15.07362772623697
 30
0.0
 10
127.7817352294921
 20
15.07362772623697
 30
0.0
 10
127.7817352294921
 20
12.06537034776475
 30
0.0
 10
127.7817352294921
 20
12.06537034776475
 30
0.0
 10
127.7817352294921
 20
11.5086429172092
 30
0.0
 10
127.3352508544921
 20
11.0621585422092
 30
0.0
 10
126.7771453857421
 20
11.0621585422092
 30
0.0
 10
126.7771453857421
 20
11.0621585422092
 30
0.0
 10
112.7459604899088
 20
11.0621585422092
 30
0.0
 10
112.7459604899088
 20
11.0621585422092
 30
0.0
 10
112.1933671739366
 20
11.0621585422092
 30
0.0
 10
111.7413706461588
 20
11.5086429172092
 30
0.0
 10
111.7413706461588
 20
12.06537034776475
 30
0.0
 10
111.7413706461588
 20
12.06537034776475
 30
0.0
 10
111.7413706461588
 20
24.09426574707031
 30
0.0
 10
111.7413706461588
 20
24.09426574707031
 30
0.0
 10
111.7413706461588
 20
24.64685906304253
 30
0.0
 10
112.1933671739366
 20
25.09334343804253
 30
0.0
 10
112.7459604899088
 20
25.09334343804253
 30
0.0
 10
112.7459604899088
 20
25.09334343804253
 30
0.0
 10
126.7771453857421
 20
25.09334343804253
 30
0.0
 10
126.7771453857421
 20
25.09334343804253
 30
0.0
 10
127.3352508544921
 20
25.09334343804253
 30
0.0
 10
127.7817352294921
 20
24.64685906304253
 30
0.0
 10
127.7817352294921
 20
24.09426574707031
 30
0.0
 10
127.7817352294921
 20
24.09426574707031
 30
0.0
 10
127.7817352294921
 20
21.08738640679253
 30
0.0
 10
127.7817352294921
 20
21.08738640679253
 30
0.0
  0
SPLINE
  5
1AF
100
AcDbEntity
  8
ALPHA
 62
     7
100
AcDbSpline
210
0.0
220
0.0
230
1.0
 70
    11
 71
     3
 72
    26
 73
    22
 74
     0
 42
0.0000001
 43
0.0000001
 40
0.0
 40
0.0
 40
0.0
 40
0.0
 40
1.0
 40
1.0
 40
1.0
 40
2.0
 40
2.0
 40
2.0
 40
3.0
 40
3.0
 40
3.0
 40
4.0
 40
4.0
 40
4.0
 40
5.0
 40
5.0
 40
5.0
 40
6.0
 40
6.0
 40
6.0
 40
7.0
 40
7.0
 40
7.0
 40
7.0
 10
124.7693437364366
 20
18.08050706651475
 30
0.0
 10
124.7693437364366
 20
18.08050706651475
 30
0.0
 10
127.7776011149088
 20
21.08738640679253
 30
0.0
 10
127.7776011149088
 20
21.08738640679253
 30
0.0
 10
127.7776011149088
 20
21.08738640679253
 30
0.0
 10
132.7867699517144
 20
21.08738640679253
 30
0.0
 10
132.7867699517144
 20
21.08738640679253
 30
0.0
 10
134.4500620524088
 20
21.08738640679253
 30
0.0
 10
135.7950273301866
 20
19.73828701443142
 30
0.0
 10
135.7950273301866
 20
18.08050706651475
 30
0.0
 10
135.7950273301866
 20
18.08050706651475
 30
0.0
 10
135.7950273301866
 20
18.08050706651475
 30
0.0
 10
135.7950273301866
 20
18.08050706651475
 30
0.0
 10
135.7950273301866
 20
16.41721496582031
 30
0.0
 10
134.4500620524088
 20
15.07362772623697
 30
0.0
 10
132.7867699517144
 20
15.07362772623697
 30
0.0
 10
132.7867699517144
 20
15.07362772623697
 30
0.0
 10
127.7776011149088
 20
15.07362772623697
 30
0.0
 10
127.7776011149088
 20
15.07362772623697
 30
0.0
 10
127.7776011149088
 20
15.07362772623697
 30
0.0
 10
124.7693437364366
 20
18.08050706651475
 30
0.0
 10
124.7693437364366
 20
18.08050706651475
 30
0.0
  0
SPLINE
  5
1B0
100
AcDbEntity
  8
ALPHA
 62
     7
100
AcDbSpline
210
0.0
220
0.0
230
-1.0
 70
     8
 71
     3
 72
    32
 73
    28
 74
     0
 42
0.0000001
 43
0.0000001
 40
0.0
 40
0.0
 40
0.0
 40
0.0
 40
1.0
 40
1.0
 40
1.0
 40
2.0
 40
2.0
 40
2.0
 40
3.0
 40
3.0
 40
3.0
 40
4.0
 40
4.0
 40
4.0
 40
5.0
 40
5.0
 40
5.0
 40
6.0
 40
6.0
 40
6.0
 40
7.0
 40
7.0
 40
7.0
 40
8.0
 40
8.0
 40
8.0
 40
9.0
 40
9.0
 40
9.0
 40
9.0
 10
127.7817352294921
 20
-4.024775865342881
 30
0.0
 10
127.7817352294921
 20
-4.024775865342881
 30
0.0
 10
127.7817352294921
 20
-7.031655205620658
 30
0.0
 10
127.7817352294921
 20
-7.031655205620658
 30
0.0
 10
127.7817352294921
 20
-7.589760674370658
 30
0.0
 10
127.3352508544921
 20
-8.036245049370659
 30
0.0
 10
126.7771453857421
 20
-8.036245049370659
 30
0.0
 10
126.7771453857421
 20
-8.036245049370659
 30
0.0
 10
112.7459604899088
 20
-8.036245049370659
 30
0.0
 10
112.7459604899088
 20
-8.036245049370659
 30
0.0
 10
112.1933671739366
 20
-8.036245049370659
 30
0.0
 10
111.7413706461588
 20
-7.589760674370658
 30
0.0
 10
111.7413706461588
 20
-7.031655205620658
 30
0.0
 10
111.7413706461588
 20
-7.031655205620658
 30
0.0
 10
111.7413706461588
 20
4.997240193684895
 30
0.0
 10
111.7413706461588
 20
4.997240193684895
 30
0.0
 10
111.7413706461588
 20
5.549833509657117
 30
0.0
 10
112.1933671739366
 20
5.996317884657117
 30
0.0
 10
112.7459604899088
 20
5.996317884657117
 30
0.0
 10
112.7459604899088
 20
5.996317884657117
 30
0.0
 10
126.7771453857421
 20
5.996317884657117
 30
0.0
 10
126.7771453857421
 20
5.996317884657117
 30
0.0
 10
127.3352508544921
 20
5.996317884657117
 30
0.0
 10
127.7817352294921
 20
5.549833509657117
 30
0.0
 10
127.7817352294921
 20
4.997240193684895
 30
0.0
 10
127.7817352294921
 20
4.997240193684895
 30
0.0
 10
127.7817352294921
 20
1.988982815212673
 30
0.0
 10
127.7817352294921
 20
1.988982815212673
 30
0.0
  0
SPLINE
  5
1B1
100
AcDbEntity
  8
ALPHA
 62
     7
100
AcDbSpline
210
0.0
220
0.0
230
1.0
 70
    11
 71
     3
 72
    26
 73
    22
 74
     0
 42
0.0000001
 43
0.0000001
 40
0.0
 40
0.0
 40
0.0
 40
0.0
 40
1.0
 40
1.0
 40
1.0
 40
2.0
 40
2.0
 40
2.0
 40
3.0
 40
3.0
 40
3.0
 40
4.0
 40
4.0
 40
4.0
 40
5.0
 40
5.0
 40
5.0
 40
6.0
 40
6.0
 40
6.0
 40
7.0
 40
7.0
 40
7.0
 40
7.0
 10
124.7693437364366
 20
-1.017896525065103
 30
0.0
 10
124.7693437364366
 20
-1.017896525065103
 30
0.0
 10
127.7776011149088
 20
1.988982815212673
 30
0.0
 10
127.7776011149088
 20
1.988982815212673
 30
0.0
 10
127.7776011149088
 20
1.988982815212673
 30
0.0
 10
132.7867699517144
 20
1.988982815212673
 30
0.0
 10
132.7867699517144
 20
1.988982815212673
 30
0.0
 10
134.4500620524088
 20
1.988982815212673
 30
0.0
 10
135.7950273301866
 20
0.6398834228515625
 30
0.0
 10
135.7950273301866
 20
-1.017896525065103
 30
0.0
 10
135.7950273301866
 20
-1.017896525065103
 30
0.0
 10
135.7950273301866
 20
-1.017896525065103
 30
0.0
 10
135.7950273301866
 20
-1.017896525065103
 30
0.0
 10
135.7950273301866
 20
-2.679810587565103
 30
0.0
 10
134.4500620524088
 20
-4.024775865342881
 30
0.0
 10
132.7867699517144
 20
-4.024775865342881
 30
0.0
 10
132.7867699517144
 20
-4.024775865342881
 30
0.0
 10
127.7776011149088
 20
-4.024775865342881
 30
0.0
 10
127.7776011149088
 20
-4.024775865342881
 30
0.0
 10
127.7776011149088
 20
-4.024775865342881
 30
0.0
 10
124.7693437364366
 20
-1.017896525065103
 30
0.0
 10
124.7693437364366
 20
-1.017896525065103
 30
0.0
  0
SPLINE
  5
1B2
100
AcDbEntity
  8
ALPHA
 62
     7
100
AcDbSpline
210
0.0
220
0.0
230
-1.0
 70
     8
 71
     3
 72
    32
 73
    28
 74
     0
 42
0.0000001
 43
0.0000001
 40
0.0
 40
0.0
 40
0.0
 40
0.0
 40
1.0
 40
1.0
 40
1.0
 40
2.0
 40
2.0
 40
2.0
 40
3.0
 40
3.0
 40
3.0
 40
4.0
 40
4.0
 40
4.0
 40
5.0
 40
5.0
 40
5.0
 40
6.0
 40
6.0
 40
6.0
 40
7.0
 40
7.0
 40
7.0
 40
8.0
 40
8.0
 40
8.0
 40
9.0
 40
9.0
 40
9.0
 40
9.0
 10
127.7817352294921
 20
-23.12300720214843
 30
0.0
 10
127.7817352294921
 20
-23.12300720214843
 30
0.0
 10
127.7817352294921
 20
-26.12988654242621
 30
0.0
 10
127.7817352294921
 20
-26.12988654242621
 30
0.0
 10
127.7817352294921
 20
-26.68661397298176
 30
0.0
 10
127.3352508544921
 20
-27.13309834798177
 30
0.0
 10
126.7771453857421
 20
-27.13309834798177
 30
0.0
 10
126.7771453857421
 20
-27.13309834798177
 30
0.0
 10
112.7459604899088
 20
-27.13309834798177
 30
0.0
 10
112.7459604899088
 20
-27.13309834798177
 30
0.0
 10
112.1933671739366
 20
-27.13309834798177
 30
0.0
 10
111.7413706461588
 20
-26.68661397298176
 30
0.0
 10
111.7413706461588
 20
-26.12988654242621
 30
0.0
 10
111.7413706461588
 20
-26.12988654242621
 30
0.0
 10
111.7413706461588
 20
-14.10099114312066
 30
0.0
 10
111.7413706461588
 20
-14.10099114312066
 30
0.0
 10
111.7413706461588
 20
-13.54839782714843
 30
0.0
 10
112.1933671739366
 20
-13.10191345214843
 30
0.0
 10
112.7459604899088
 20
-13.10191345214843
 30
0.0
 10
112.7459604899088
 20
-13.10191345214843
 30
0.0
 10
126.7771453857421
 20
-13.10191345214843
 30
0.0
 10
126.7771453857421
 20
-13.10191345214843
 30
0.0
 10
127.3352508544921
 20
-13.10191345214843
 30
0.0
 10
127.7817352294921
 20
-13.54839782714843
 30
0.0
 10
127.7817352294921
 20
-14.10099114312066
 30
0.0
 10
127.7817352294921
 20
-14.10099114312066
 30
0.0
 10
127.7817352294921
 20
-17.10787048339843
 30
0.0
 10
127.7817352294921
 20
-17.10787048339843
 30
0.0
  0
SPLINE
  5
1B3
100
AcDbEntity
  8
ALPHA
 62
     7
100
AcDbSpline
210
0.0
220
0.0
230
1.0
 70
    11
 71
     3
 72
    26
 73
    22
 74
     0
 42
0.0000001
 43
0.0000001
 40
0.0
 40
0.0
 40
0.0
 40
0.0
 40
1.0
 40
1.0
 40
1.0
 40
2.0
 40
2.0
 40
2.0
 40
3.0
 40
3.0
 40
3.0
 40
4.0
 40
4.0
 40
4.0
 40
5.0
 40
5.0
 40
5.0
 40
6.0
 40
6.0
 40
6.0
 40
7.0
 40
7.0
 40
7.0
 40
7.0
 10
124.7693437364366
 20
-20.11474982367621
 30
0.0
 10
124.7693437364366
 20
-20.11474982367621
 30
0.0
 10
127.7776011149088
 20
-17.10787048339843
 30
0.0
 10
127.7776011149088
 20
-17.10787048339843
 30
0.0
 10
127.7776011149088
 20
-17.10787048339843
 30
0.0
 10
132.7867699517144
 20
-17.10787048339843
 30
0.0
 10
132.7867699517144
 20
-17.10787048339843
 30
0.0
 10
134.4500620524088
 20
-17.10787048339843
 30
0.0
 10
135.7950273301866
 20
-18.45696987575954
 30
0.0
 10
135.7950273301866
 20
-20.11474982367621
 30
0.0
 10
135.7950273301866
 20
-20.11474982367621
 30
0.0
 10
135.7950273301866
 20
-20.11474982367621
 30
0.0
 10
135.7950273301866
 20
-20.11474982367621
 30
0.0
 10
135.7950273301866
 20
-21.77804192437065
 30
0.0
 10
134.4500620524088
 20
-23.12300720214843
 30
0.0
 10
132.7867699517144
 20
-23.12300720214843
 30
0.0
 10
132.7867699517144
 20
-23.12300720214843
 30
0.0
 10
127.7776011149088
 20
-23.12300720214843
 30
0.0
 10
127.7776011149088
 20
-23.12300720214843
 30
0.0
 10
127.7776011149088
 20
-23.12300720214843
 30
0.0
 10
124.7693437364366
 20
-20.11474982367621
 30
0.0
 10
124.7693437364366
 20
-20.11474982367621
 30
0.0
  0
SPLINE
  5
1B4
100
AcDbEntity
  8
ALPHA
 62
     7
100
AcDbSpline
210
0.0
220
0.0
230
-1.0
 70
     8
 71
     3
 72
    32
 73
    28
 74
     0
 42
0.0000001
 43
0.0000001
 40
0.0
 40
0.0
 40
0.0
 40
0.0
 40
1.0
 40
1.0
 40
1.0
 40
2.0
 40
2.0
 40
2.0
 40
3.0
 40
3.0
 40
3.0
 40
4.0
 40
4.0
 40
4.0
 40
5.0
 40
5.0
 40
5.0
 40
6.0
 40
6.0
 40
6.0
 40
7.0
 40
7.0
 40
7.0
 40
8.0
 40
8.0
 40
8.0
 40
9.0
 40
9.0
 40
9.0
 40
9.0
 10
127.7817352294921
 20
-42.21986050075954
 30
0.0
 10
127.7817352294921
 20
-42.21986050075954
 30
0.0
 10
127.7817352294921
 20
-45.22811787923177
 30
0.0
 10
127.7817352294921
 20
-45.22811787923177
 30
0.0
 10
127.7817352294921
 20
-45.78484530978732
 30
0.0
 10
127.3352508544921
 20
-46.23132968478731
 30
0.0
 10
126.7771453857421
 20
-46.23132968478731
 30
0.0
 10
126.7771453857421
 20
-46.23132968478731
 30
0.0
 10
112.7459604899088
 20
-46.23132968478731
 30
0.0
 10
112.7459604899088
 20
-46.23132968478731
 30
0.0
 10
112.1933671739366
 20
-46.23132968478731
 30
0.0
 10
111.7413706461588
 20
-45.78484530978732
 30
0.0
 10
111.7413706461588
 20
-45.22811787923177
 30
0.0
 10
111.7413706461588
 20
-45.22811787923177
 30
0.0
 10
111.7413706461588
 20
-33.19922247992621
 30
0.0
 10
111.7413706461588
 20
-33.19922247992621
 30
0.0
 10
111.7413706461588
 20
-32.64662916395399
 30
0.0
 10
112.1933671739366
 20
-32.19876675075954
 30
0.0
 10
112.7459604899088
 20
-32.19876675075954
 30
0.0
 10
112.7459604899088
 20
-32.19876675075954
 30
0.0
 10
126.7771453857421
 20
-32.19876675075954
 30
0.0
 10
126.7771453857421
 20
-32.19876675075954
 30
0.0
 10
127.3352508544921
 20
-32.19876675075954
 30
0.0
 10
127.7817352294921
 20
-32.64662916395399
 30
0.0
 10
127.7817352294921
 20
-33.19922247992621
 30
0.0
 10
127.7817352294921
 20
-33.19922247992621
 30
0.0
 10
127.7817352294921
 20
-36.20610182020399
 30
0.0
 10
127.7817352294921
 20
-36.20610182020399
 30
0.0
  0
SPLINE
  5
1B5
100
AcDbEntity
  8
ALPHA
 62
     7
100
AcDbSpline
210
0.0
220
0.0
230
1.0
 70
    11
 71
     3
 72
    26
 73
    22
 74
     0
 42
0.0000001
 43
0.0000001
 40
0.0
 40
0.0
 40
0.0
 40
0.0
 40
1.0
 40
1.0
 40
1.0
 40
2.0
 40
2.0
 40
2.0
 40
3.0
 40
3.0
 40
3.0
 40
4.0
 40
4.0
 40
4.0
 40
5.0
 40
5.0
 40
5.0
 40
6.0
 40
6.0
 40
6.0
 40
7.0
 40
7.0
 40
7.0
 40
7.0
 10
124.7693437364366
 20
-39.21298116048177
 30
0.0
 10
124.7693437364366
 20
-39.21298116048177
 30
0.0
 10
127.7776011149088
 20
-36.20610182020399
 30
0.0
 10
127.7776011149088
 20
-36.20610182020399
 30
0.0
 10
127.7776011149088
 20
-36.20610182020399
 30
0.0
 10
132.7867699517144
 20
-36.20610182020399
 30
0.0
 10
132.7867699517144
 20
-36.20610182020399
 30
0.0
 10
134.4500620524088
 20
-36.20610182020399
 30
0.0
 10
135.7950273301866
 20
-37.5552012125651
 30
0.0
 10
135.7950273301866
 20
-39.21298116048177
 30
0.0
 10
135.7950273301866
 20
-39.21298116048177
 30
0.0
 10
135.7950273301866
 20
-39.21298116048177
 30
0.0
 10
135.7950273301866
 20
-39.21298116048177
 30
0.0
 10
135.7950273301866
 20
-40.87489522298176
 30
0.0
 10
134.4500620524088
 20
-42.21986050075954
 30
0.0
 10
132.7867699517144
 20
-42.21986050075954
 30
0.0
 10
132.7867699517144
 20
-42.21986050075954
 30
0.0
 10
127.7776011149088
 20
-42.21986050075954
 30
0.0
 10
127.7776011149088
 20
-42.21986050075954
 30
0.0
 10
127.7776011149088
 20
-42.21986050075954
 30
0.0
 10
124.7693437364366
 20
-39.21298116048177
 30
0.0
 10
124.7693437364366
 20
-39.21298116048177
 30
0.0
  0
SPLINE
  5
1B6
100
AcDbEntity
  8
ALPHA
 62
     7
100
AcDbSpline
210
0.0
220
0.0
230
-1.0
 70
     8
 71
     3
 72
    32
 73
    28
 74
     0
 42
0.0000001
 43
0.0000001
 40
0.0
 40
0.0
 40
0.0
 40
0.0
 40
1.0
 40
1.0
 40
1.0
 40
2.0
 40
2.0
 40
2.0
 40
3.0
 40
3.0
 40
3.0
 40
4.0
 40
4.0
 40
4.0
 40
5.0
 40
5.0
 40
5.0
 40
6.0
 40
6.0
 40
6.0
 40
7.0
 40
7.0
 40
7.0
 40
8.0
 40
8.0
 40
8.0
 40
9.0
 40
9.0
 40
9.0
 40
9.0
 10
127.7817352294921
 20
-61.3180918375651
 30
0.0
 10
127.7817352294921
 20
-61.3180918375651
 30
0.0
 10
127.7817352294921
 20
-64.32497117784286
 30
0.0
 10
127.7817352294921
 20
-64.32497117784286
 30
0.0
 10
127.7817352294921
 20
-64.88169860839843
 30
0.0
 10
127.3352508544921
 20
-65.32956102159288
 30
0.0
 10
126.7771453857421
 20
-65.32956102159288
 30
0.0
 10
126.7771453857421
 20
-65.32956102159288
 30
0.0
 10
112.7459604899088
 20
-65.32956102159288
 30
0.0
 10
112.7459604899088
 20
-65.32956102159288
 30
0.0
 10
112.1933671739366
 20
-65.32956102159288
 30
0.0
 10
111.7413706461588
 20
-64.88169860839843
 30
0.0
 10
111.7413706461588
 20
-64.32497117784286
 30
0.0
 10
111.7413706461588
 20
-64.32497117784286
 30
0.0
 10
111.7413706461588
 20
-52.29607577853732
 30
0.0
 10
111.7413706461588
 20
-52.29607577853732
 30
0.0
 10
111.7413706461588
 20
-51.7434824625651
 30
0.0
 10
112.1933671739366
 20
-51.2969980875651
 30
0.0
 10
112.7459604899088
 20
-51.2969980875651
 30
0.0
 10
112.7459604899088
 20
-51.2969980875651
 30
0.0
 10
126.7771453857421
 20
-51.2969980875651
 30
0.0
 10
126.7771453857421
 20
-51.2969980875651
 30
0.0
 10
127.3352508544921
 20
-51.2969980875651
 30
0.0
 10
127.7817352294921
 20
-51.7434824625651
 30
0.0
 10
127.7817352294921
 20
-52.29607577853732
 30
0.0
 10
127.7817352294921
 20
-52.29607577853732
 30
0.0
 10
127.7817352294921
 20
-55.3029551188151
 30
0.0
 10
127.7817352294921
 20
-55.3029551188151
 30
0.0
  0
SPLINE
  5
1B7
100
AcDbEntity
  8
ALPHA
 62
     7
100
AcDbSpline
210
0.0
220
0.0
230
1.0
 70
    11
 71
     3
 72
    26
 73
    22
 74
     0
 42
0.0000001
 43
0.0000001
 40
0.0
 40
0.0
 40
0.0
 40
0.0
 40
1.0
 40
1.0
 40
1.0
 40
2.0
 40
2.0
 40
2.0
 40
3.0
 40
3.0
 40
3.0
 40
4.0
 40
4.0
 40
4.0
 40
5.0
 40
5.0
 40
5.0
 40
6.0
 40
6.0
 40
6.0
 40
7.0
 40
7.0
 40
7.0
 40
7.0
 10
124.7693437364366
 20
-58.31121249728732
 30
0.0
 10
124.7693437364366
 20
-58.31121249728732
 30
0.0
 10
127.7776011149088
 20
-55.3029551188151
 30
0.0
 10
127.7776011149088
 20
-55.3029551188151
 30
0.0
 10
127.7776011149088
 20
-55.3029551188151
 30
0.0
 10
132.7867699517144
 20
-55.3029551188151
 30
0.0
 10
132.7867699517144
 20
-55.3029551188151
 30
0.0
 10
134.4500620524088
 20
-55.3029551188151
 30
0.0
 10
135.7950273301866
 20
-56.65343254937066
 30
0.0
 10
135.7950273301866
 20
-58.31121249728732
 30
0.0
 10
135.7950273301866
 20
-58.31121249728732
 30
0.0
 10
135.7950273301866
 20
-58.31121249728732
 30
0.0
 10
135.7950273301866
 20
-58.31121249728732
 30
0.0
 10
135.7950273301866
 20
-59.97312655978731
 30
0.0
 10
134.4500620524088
 20
-61.3180918375651
 30
0.0
 10
132.7867699517144
 20
-61.3180918375651
 30
0.0
 10
132.7867699517144
 20
-61.3180918375651
 30
0.0
 10
127.7776011149088
 20
-61.3180918375651
 30
0.0
 10
127.7776011149088
 20
-61.3180918375651
 30
0.0
 10
127.7776011149088
 20
-61.3180918375651
 30
0.0
 10
124.7693437364366
 20
-58.31121249728732
 30
0.0
 10
124.7693437364366
 20
-58.31121249728732
 30
0.0
  0
SPLINE
  5
1B8
100
AcDbEntity
  8
ALPHA
 62
     7
100
AcDbSpline
210
0.0
220
0.0
230
-1.0
 70
     8
 71
     3
 72
    32
 73
    28
 74
     0
 42
0.0000001
 43
0.0000001
 40
0.0
 40
0.0
 40
0.0
 40
0.0
 40
1.0
 40
1.0
 40
1.0
 40
2.0
 40
2.0
 40
2.0
 40
3.0
 40
3.0
 40
3.0
 40
4.0
 40
4.0
 40
4.0
 40
5.0
 40
5.0
 40
5.0
 40
6.0
 40
6.0
 40
6.0
 40
7.0
 40
7.0
 40
7.0
 40
8.0
 40
8.0
 40
8.0
 40
9.0
 40
9.0
 40
9.0
 40
9.0
 10
127.7817352294921
 20
-80.41494513617621
 30
0.0
 10
127.7817352294921
 20
-80.41494513617621
 30
0.0
 10
127.7817352294921
 20
-83.42320251464842
 30
0.0
 10
127.7817352294921
 20
-83.42320251464842
 30
0.0
 10
127.7817352294921
 20
-83.97992994520398
 30
0.0
 10
127.3352508544921
 20
-84.42641432020399
 30
0.0
 10
126.7771453857421
 20
-84.42641432020399
 30
0.0
 10
126.7771453857421
 20
-84.42641432020399
 30
0.0
 10
112.7459604899088
 20
-84.42641432020399
 30
0.0
 10
112.7459604899088
 20
-84.42641432020399
 30
0.0
 10
112.1933671739366
 20
-84.42641432020399
 30
0.0
 10
111.7413706461588
 20
-83.97992994520398
 30
0.0
 10
111.7413706461588
 20
-83.42320251464842
 30
0.0
 10
111.7413706461588
 20
-83.42320251464842
 30
0.0
 10
111.7413706461588
 20
-71.39430711534287
 30
0.0
 10
111.7413706461588
 20
-71.39430711534287
 30
0.0
 10
111.7413706461588
 20
-70.84171379937065
 30
0.0
 10
112.1933671739366
 20
-70.39522942437065
 30
0.0
 10
112.7459604899088
 20
-70.39522942437065
 30
0.0
 10
112.7459604899088
 20
-70.39522942437065
 30
0.0
 10
126.7771453857421
 20
-70.39522942437065
 30
0.0
 10
126.7771453857421
 20
-70.39522942437065
 30
0.0
 10
127.3352508544921
 20
-70.39522942437065
 30
0.0
 10
127.7817352294921
 20
-70.84171379937065
 30
0.0
 10
127.7817352294921
 20
-71.39430711534287
 30
0.0
 10
127.7817352294921
 20
-71.39430711534287
 30
0.0
 10
127.7817352294921
 20
-74.40118645562065
 30
0.0
 10
127.7817352294921
 20
-74.40118645562065
 30
0.0
  0
SPLINE
  5
1B9
100
AcDbEntity
  8
ALPHA
 62
     7
100
AcDbSpline
210
0.0
220
0.0
230
1.0
 70
    11
 71
     3
 72
    26
 73
    22
 74
     0
 42
0.0000001
 43
0.0000001
 40
0.0
 40
0.0
 40
0.0
 40
0.0
 40
1.0
 40
1.0
 40
1.0
 40
2.0
 40
2.0
 40
2.0
 40
3.0
 40
3.0
 40
3.0
 40
4.0
 40
4.0
 40
4.0
 40
5.0
 40
5.0
 40
5.0
 40
6.0
 40
6.0
 40
6.0
 40
7.0
 40
7.0
 40
7.0
 40
7.0
 10
124.7693437364366
 20
-77.40806579589843
 30
0.0
 10
124.7693437364366
 20
-77.40806579589843
 30
0.0
 10
127.7776011149088
 20
-74.40118645562065
 30
0.0
 10
127.7776011149088
 20
-74.40118645562065
 30
0.0
 10
127.7776011149088
 20
-74.40118645562065
 30
0.0
 10
132.7867699517144
 20
-74.40118645562065
 30
0.0
 10
132.7867699517144
 20
-74.40118645562065
 30
0.0
 10
134.4500620524088
 20
-74.40118645562065
 30
0.0
 10
135.7950273301866
 20
-75.75028584798175
 30
0.0
 10
135.7950273301866
 20
-77.40806579589843
 30
0.0
 10
135.7950273301866
 20
-77.40806579589843
 30
0.0
 10
135.7950273301866
 20
-77.40806579589843
 30
0.0
 10
135.7950273301866
 20
-77.40806579589843
 30
0.0
 10
135.7950273301866
 20
-79.07135789659287
 30
0.0
 10
134.4500620524088
 20
-80.41494513617621
 30
0.0
 10
132.7867699517144
 20
-80.41494513617621
 30
0.0
 10
132.7867699517144
 20
-80.41494513617621
 30
0.0
 10
127.7776011149088
 20
-80.41494513617621
 30
0.0
 10
127.7776011149088
 20
-80.41494513617621
 30
0.0
 10
127.7776011149088
 20
-80.41494513617621
 30
0.0
 10
124.7693437364366
 20
-77.40806579589843
 30
0.0
 10
124.7693437364366
 20
-77.40806579589843
 30
0.0
  0
POLYLINE
  5
1BA
100
AcDbEntity
  8
ALPHA
 62
     7
100
AcDb2dPolyline
 66
     1
 10
0.0
 20
0.0
 30
0.0
 70
     1
  0
VERTEX
  5
1BB
100
AcDbEntity
  8
ALPHA
 62
     7
100
AcDbVertex
100
AcDb2dVertex
 10
-53.427531
 20
-72.416811
 30
0.0
  0
VERTEX
  5
1BC
100
AcDbEntity
  8
ALPHA
 62
     7
100
AcDbVertex
100
AcDb2dVertex
 10
-53.427531
 20
-63.394795
 30
0.0
  0
VERTEX
  5
1BD
100
AcDbEntity
  8
ALPHA
 62
     7
100
AcDbVertex
100
AcDb2dVertex
 10
-68.468646
 20
-63.394795
 30
0.0
  0
VERTEX
  5
1BE
100
AcDbEntity
  8
ALPHA
 62
     7
100
AcDbVertex
100
AcDb2dVertex
 10
-68.468646
 20
-72.416811
 30
0.0
  0
SEQEND
  5
1BF
100
AcDbEntity
  8
ALPHA
 62
     7
  0
POLYLINE
  5
1C0
100
AcDbEntity
  8
ALPHA
 62
     7
100
AcDb2dPolyline
 66
     1
 10
0.0
 20
0.0
 30
0.0
 70
     1
  0
VERTEX
  5
1C1
100
AcDbEntity
  8
ALPHA
 62
     7
100
AcDbVertex
100
AcDb2dVertex
 10
-53.427531
 20
-34.221727
 30
0.0
  0
VERTEX
  5
1C2
100
AcDbEntity
  8
ALPHA
 62
     7
100
AcDbVertex
100
AcDb2dVertex
 10
-53.427531
 20
-25.199711
 30
0.0
  0
VERTEX
  5
1C3
100
AcDbEntity
  8
ALPHA
 62
     7
100
AcDbVertex
100
AcDb2dVertex
 10
-68.468646
 20
-25.199711
 30
0.0
  0
VERTEX
  5
1C4
100
AcDbEntity
  8
ALPHA
 62
     7
100
AcDbVertex
100
AcDb2dVertex
 10
-68.468646
 20
-34.221727
 30
0.0
  0
SEQEND
  5
1C5
100
AcDbEntity
  8
ALPHA
 62
     7
  0
POLYLINE
  5
1C6
100
AcDbEntity
  8
ALPHA
 62
     7
100
AcDb2dPolyline
 66
     1
 10
0.0
 20
0.0
 30
0.0
 70
     1
  0
VERTEX
  5
1C7
100
AcDbEntity
  8
ALPHA
 62
     7
100
AcDbVertex
100
AcDb2dVertex
 10
-34.330678
 20
-52.789413
 30
0.0
  0
VERTEX
  5
1C8
100
AcDbEntity
  8
ALPHA
 62
     7
100
AcDbVertex
100
AcDb2dVertex
 10
-34.330678
 20
-43.767397
 30
0.0
  0
VERTEX
  5
1C9
100
AcDbEntity
  8
ALPHA
 62
     7
100
AcDbVertex
100
AcDb2dVertex
 10
-49.370587
 20
-43.767397
 30
0.0
  0
VERTEX
  5
1CA
100
AcDbEntity
  8
ALPHA
 62
     7
100
AcDbVertex
100
AcDb2dVertex
 10
-49.370587
 20
-52.789413
 30
0.0
  0
SEQEND
  5
1CB
100
AcDbEntity
  8
ALPHA
 62
     7
  0
POLYLINE
  5
1CC
100
AcDbEntity
  8
ALPHA
 62
     7
100
AcDb2dPolyline
 66
     1
 10
0.0
 20
0.0
 30
0.0
 70
     1
  0
VERTEX
  5
1CD
100
AcDbEntity
  8
ALPHA
 62
     7
100
AcDbVertex
100
AcDb2dVertex
 10
-14.528269
 20
-34.221727
 30
0.0
  0
VERTEX
  5
1CE
100
AcDbEntity
  8
ALPHA
 62
     7
100
AcDbVertex
100
AcDb2dVertex
 10
-14.528269
 20
-25.199711
 30
0.0
  0
VERTEX
  5
1CF
100
AcDbEntity
  8
ALPHA
 62
     7
100
AcDbVertex
100
AcDb2dVertex
 10
-29.564044
 20
-25.199711
 30
0.0
  0
VERTEX
  5
1D0
100
AcDbEntity
  8
ALPHA
 62
     7
100
AcDbVertex
100
AcDb2dVertex
 10
-29.564044
 20
-34.221727
 30
0.0
  0
SEQEND
  5
1D1
100
AcDbEntity
  8
ALPHA
 62
     7
  0
POLYLINE
  5
1D2
100
AcDbEntity
  8
ALPHA
 62
     7
100
AcDb2dPolyline
 66
     1
 10
0.0
 20
0.0
 30
0.0
 70
     1
  0
VERTEX
  5
1D3
100
AcDbEntity
  8
ALPHA
 62
     7
100
AcDbVertex
100
AcDb2dVertex
 10
1.03805
 20
3.265046
 30
0.0
  0
VERTEX
  5
1D4
100
AcDbEntity
  8
ALPHA
 62
     7
100
AcDbVertex
100
AcDb2dVertex
 10
1.03805
 20
12.287234
 30
0.0
  0
VERTEX
  5
1D5
100
AcDbEntity
  8
ALPHA
 62
     7
100
AcDbVertex
100
AcDb2dVertex
 10
-14.003237
 20
12.287234
 30
0.0
  0
VERTEX
  5
1D6
100
AcDbEntity
  8
ALPHA
 62
     7
100
AcDbVertex
100
AcDb2dVertex
 10
-14.003237
 20
3.265046
 30
0.0
  0
SEQEND
  5
1D7
100
AcDbEntity
  8
ALPHA
 62
     7
  0
POLYLINE
  5
1D8
100
AcDbEntity
  8
ALPHA
 62
     7
100
AcDb2dPolyline
 66
     1
 10
0.0
 20
0.0
 30
0.0
 70
     1
  0
VERTEX
  5
1D9
100
AcDbEntity
  8
ALPHA
 62
     7
100
AcDbVertex
100
AcDb2dVertex
 10
22.254326
 20
3.265046
 30
0.0
  0
VERTEX
  5
1DA
100
AcDbEntity
  8
ALPHA
 62
     7
100
AcDbVertex
100
AcDb2dVertex
 10
22.254326
 20
12.287234
 30
0.0
  0
VERTEX
  5
1DB
100
AcDbEntity
  8
ALPHA
 62
     7
100
AcDbVertex
100
AcDb2dVertex
 10
7.218552
 20
12.287234
 30
0.0
  0
VERTEX
  5
1DC
100
AcDbEntity
  8
ALPHA
 62
     7
100
AcDbVertex
100
AcDb2dVertex
 10
7.218552
 20
3.265046
 30
0.0
  0
SEQEND
  5
1DD
100
AcDbEntity
  8
ALPHA
 62
     7
  0
POLYLINE
  5
1DE
100
AcDbEntity
  8
ALPHA
 62
     7
100
AcDb2dPolyline
 66
     1
 10
0.0
 20
0.0
 30
0.0
 70
     1
  0
VERTEX
  5
1DF
100
AcDbEntity
  8
ALPHA
 62
     7
100
AcDbVertex
100
AcDb2dVertex
 10
43.474737
 20
3.265046
 30
0.0
  0
VERTEX
  5
1E0
100
AcDbEntity
  8
ALPHA
 62
     7
100
AcDbVertex
100
AcDb2dVertex
 10
43.474737
 20
12.287234
 30
0.0
  0
VERTEX
  5
1E1
100
AcDbEntity
  8
ALPHA
 62
     7
100
AcDbVertex
100
AcDb2dVertex
 10
28.438962
 20
12.287234
 30
0.0
  0
VERTEX
  5
1E2
100
AcDbEntity
  8
ALPHA
 62
     7
100
AcDbVertex
100
AcDb2dVertex
 10
28.438962
 20
3.265046
 30
0.0
  0
SEQEND
  5
1E3
100
AcDbEntity
  8
ALPHA
 62
     7
  0
POLYLINE
  5
1E4
100
AcDbEntity
  8
ALPHA
 62
     7
100
AcDb2dPolyline
 66
     1
 10
0.0
 20
0.0
 30
0.0
 70
     1
  0
VERTEX
  5
1E5
100
AcDbEntity
  8
ALPHA
 62
     7
100
AcDbVertex
100
AcDb2dVertex
 10
64.695147
 20
3.265046
 30
0.0
  0
VERTEX
  5
1E6
100
AcDbEntity
  8
ALPHA
 62
     7
100
AcDbVertex
100
AcDb2dVertex
 10
64.695147
 20
12.287234
 30
0.0
  0
VERTEX
  5
1E7
100
AcDbEntity
  8
ALPHA
 62
     7
100
AcDbVertex
100
AcDb2dVertex
 10
49.659372
 20
12.287234
 30
0.0
  0
VERTEX
  5
1E8
100
AcDbEntity
  8
ALPHA
 62
     7
100
AcDbVertex
100
AcDb2dVertex
 10
49.659372
 20
3.265046
 30
0.0
  0
SEQEND
  5
1E9
100
AcDbEntity
  8
ALPHA
 62
     7
  0
POLYLINE
  5
1EA
100
AcDbEntity
  8
ALPHA
 62
     7
100
AcDb2dPolyline
 66
     1
 10
0.0
 20
0.0
 30
0.0
 70
     1
  0
VERTEX
  5
1EB
100
AcDbEntity
  8
ALPHA
 62
     7
100
AcDbVertex
100
AcDb2dVertex
 10
22.254326
 20
-73.125123
 30
0.0
  0
VERTEX
  5
1EC
100
AcDbEntity
  8
ALPHA
 62
     7
100
AcDbVertex
100
AcDb2dVertex
 10
22.254326
 20
-64.104485
 30
0.0
  0
VERTEX
  5
1ED
100
AcDbEntity
  8
ALPHA
 62
     7
100
AcDbVertex
100
AcDb2dVertex
 10
7.218552
 20
-64.104485
 30
0.0
  0
VERTEX
  5
1EE
100
AcDbEntity
  8
ALPHA
 62
     7
100
AcDbVertex
100
AcDb2dVertex
 10
7.218552
 20
-73.125123
 30
0.0
  0
SEQEND
  5
1EF
100
AcDbEntity
  8
ALPHA
 62
     7
  0
POLYLINE
  5
1F0
100
AcDbEntity
  8
ALPHA
 62
     7
100
AcDb2dPolyline
 66
     1
 10
0.0
 20
0.0
 30
0.0
 70
     1
  0
VERTEX
  5
1F1
100
AcDbEntity
  8
ALPHA
 62
     7
100
AcDbVertex
100
AcDb2dVertex
 10
43.474737
 20
-73.125123
 30
0.0
  0
VERTEX
  5
1F2
100
AcDbEntity
  8
ALPHA
 62
     7
100
AcDbVertex
100
AcDb2dVertex
 10
43.474737
 20
-64.104485
 30
0.0
  0
VERTEX
  5
1F3
100
AcDbEntity
  8
ALPHA
 62
     7
100
AcDbVertex
100
AcDb2dVertex
 10
28.438962
 20
-64.104485
 30
0.0
  0
VERTEX
  5
1F4
100
AcDbEntity
  8
ALPHA
 62
     7
100
AcDbVertex
100
AcDb2dVertex
 10
28.438962
 20
-73.125123
 30
0.0
  0
SEQEND
  5
1F5
100
AcDbEntity
  8
ALPHA
 62
     7
  0
POLYLINE
  5
1F6
100
AcDbEntity
  8
ALPHA
 62
     7
100
AcDb2dPolyline
 66
     1
 10
0.0
 20
0.0
 30
0.0
 70
     1
  0
VERTEX
  5
1F7
100
AcDbEntity
  8
ALPHA
 62
     7
100
AcDbVertex
100
AcDb2dVertex
 10
64.695147
 20
-73.125123
 30
0.0
  0
VERTEX
  5
1F8
100
AcDbEntity
  8
ALPHA
 62
     7
100
AcDbVertex
100
AcDb2dVertex
 10
64.695147
 20
-64.104485
 30
0.0
  0
VERTEX
  5
1F9
100
AcDbEntity
  8
ALPHA
 62
     7
100
AcDbVertex
100
AcDb2dVertex
 10
49.659372
 20
-64.104485
 30
0.0
  0
VERTEX
  5
1FA
100
AcDbEntity
  8
ALPHA
 62
     7
100
AcDbVertex
100
AcDb2dVertex
 10
49.659372
 20
-73.125123
 30
0.0
  0
SEQEND
  5
1FB
100
AcDbEntity
  8
ALPHA
 62
     7
  0
POLYLINE
  5
1FC
100
AcDbEntity
  8
ALPHA
 62
     7
100
AcDb2dPolyline
 66
     1
 10
0.0
 20
0.0
 30
0.0
 70
     1
  0
VERTEX
  5
1FD
100
AcDbEntity
  8
ALPHA
 62
     7
100
AcDbVertex
100
AcDb2dVertex
 10
22.254326
 20
-55.442137
 30
0.0
  0
VERTEX
  5
1FE
100
AcDbEntity
  8
ALPHA
 62
     7
100
AcDbVertex
100
AcDb2dVertex
 10
22.254326
 20
-46.420121
 30
0.0
  0
VERTEX
  5
1FF
100
AcDbEntity
  8
ALPHA
 62
     7
100
AcDbVertex
100
AcDb2dVertex
 10
7.218552
 20
-46.420121
 30
0.0
  0
VERTEX
  5
200
100
AcDbEntity
  8
ALPHA
 62
     7
100
AcDbVertex
100
AcDb2dVertex
 10
7.218552
 20
-55.442137
 30
0.0
  0
SEQEND
  5
201
100
AcDbEntity
  8
ALPHA
 62
     7
  0
POLYLINE
  5
202
100
AcDbEntity
  8
ALPHA
 62
     7
100
AcDb2dPolyline
 66
     1
 10
0.0
 20
0.0
 30
0.0
 70
     1
  0
VERTEX
  5
203
100
AcDbEntity
  8
ALPHA
 62
     7
100
AcDbVertex
100
AcDb2dVertex
 10
43.474737
 20
-55.442137
 30
0.0
  0
VERTEX
  5
204
100
AcDbEntity
  8
ALPHA
 62
     7
100
AcDbVertex
100
AcDb2dVertex
 10
43.474737
 20
-46.420121
 30
0.0
  0
VERTEX
  5
205
100
AcDbEntity
  8
ALPHA
 62
     7
100
AcDbVertex
100
AcDb2dVertex
 10
28.438962
 20
-46.420121
 30
0.0
  0
VERTEX
  5
206
100
AcDbEntity
  8
ALPHA
 62
     7
100
AcDbVertex
100
AcDb2dVertex
 10
28.438962
 20
-55.442137
 30
0.0
  0
SEQEND
  5
207
100
AcDbEntity
  8
ALPHA
 62
     7
  0
POLYLINE
  5
208
100
AcDbEntity
  8
ALPHA
 62
     7
100
AcDb2dPolyline
 66
     1
 10
0.0
 20
0.0
 30
0.0
 70
     1
  0
VERTEX
  5
209
100
AcDbEntity
  8
ALPHA
 62
     7
100
AcDbVertex
100
AcDb2dVertex
 10
64.695147
 20
-55.442137
 30
0.0
  0
VERTEX
  5
20A
100
AcDbEntity
  8
ALPHA
 62
     7
100
AcDbVertex
100
AcDb2dVertex
 10
64.695147
 20
-46.420121
 30
0.0
  0
VERTEX
  5
20B
100
AcDbEntity
  8
ALPHA
 62
     7
100
AcDbVertex
100
AcDb2dVertex
 10
49.659372
 20
-46.420121
 30
0.0
  0
VERTEX
  5
20C
100
AcDbEntity
  8
ALPHA
 62
     7
100
AcDbVertex
100
AcDb2dVertex
 10
49.659372
 20
-55.442137
 30
0.0
  0
SEQEND
  5
20D
100
AcDbEntity
  8
ALPHA
 62
     7
  0
POLYLINE
  5
20E
100
AcDbEntity
  8
ALPHA
 62
     7
100
AcDb2dPolyline
 66
     1
 10
0.0
 20
0.0
 30
0.0
 70
     1
  0
VERTEX
  5
20F
100
AcDbEntity
  8
ALPHA
 62
     7
100
AcDbVertex
100
AcDb2dVertex
 10
22.254326
 20
-35.98975
 30
0.0
  0
VERTEX
  5
210
100
AcDbEntity
  8
ALPHA
 62
     7
100
AcDbVertex
100
AcDb2dVertex
 10
22.254326
 20
-26.967734
 30
0.0
  0
VERTEX
  5
211
100
AcDbEntity
  8
ALPHA
 62
     7
100
AcDbVertex
100
AcDb2dVertex
 10
7.218552
 20
-26.967734
 30
0.0
  0
VERTEX
  5
212
100
AcDbEntity
  8
ALPHA
 62
     7
100
AcDbVertex
100
AcDb2dVertex
 10
7.218552
 20
-35.98975
 30
0.0
  0
SEQEND
  5
213
100
AcDbEntity
  8
ALPHA
 62
     7
  0
POLYLINE
  5
214
100
AcDbEntity
  8
ALPHA
 62
     7
100
AcDb2dPolyline
 66
     1
 10
0.0
 20
0.0
 30
0.0
 70
     1
  0
VERTEX
  5
215
100
AcDbEntity
  8
ALPHA
 62
     7
100
AcDbVertex
100
AcDb2dVertex
 10
43.474737
 20
-35.98975
 30
0.0
  0
VERTEX
  5
216
100
AcDbEntity
  8
ALPHA
 62
     7
100
AcDbVertex
100
AcDb2dVertex
 10
43.474737
 20
-26.967734
 30
0.0
  0
VERTEX
  5
217
100
AcDbEntity
  8
ALPHA
 62
     7
100
AcDbVertex
100
AcDb2dVertex
 10
28.438962
 20
-26.967734
 30
0.0
  0
VERTEX
  5
218
100
AcDbEntity
  8
ALPHA
 62
     7
100
AcDbVertex
100
AcDb2dVertex
 10
28.438962
 20
-35.98975
 30
0.0
  0
SEQEND
  5
219
100
AcDbEntity
  8
ALPHA
 62
     7
  0
POLYLINE
  5
21A
100
AcDbEntity
  8
ALPHA
 62
     7
100
AcDb2dPolyline
 66
     1
 10
0.0
 20
0.0
 30
0.0
 70
     1
  0
VERTEX
  5
21B
100
AcDbEntity
  8
ALPHA
 62
     7
100
AcDbVertex
100
AcDb2dVertex
 10
64.695147
 20
-35.98975
 30
0.0
  0
VERTEX
  5
21C
100
AcDbEntity
  8
ALPHA
 62
     7
100
AcDbVertex
100
AcDb2dVertex
 10
64.695147
 20
-26.967734
 30
0.0
  0
VERTEX
  5
21D
100
AcDbEntity
  8
ALPHA
 62
     7
100
AcDbVertex
100
AcDb2dVertex
 10
49.659372
 20
-26.967734
 30
0.0
  0
VERTEX
  5
21E
100
AcDbEntity
  8
ALPHA
 62
     7
100
AcDbVertex
100
AcDb2dVertex
 10
49.659372
 20
-35.98975
 30
0.0
  0
SEQEND
  5
21F
100
AcDbEntity
  8
ALPHA
 62
     7
  0
POLYLINE
  5
220
100
AcDbEntity
  8
ALPHA
 62
     7
100
AcDb2dPolyline
 66
     1
 10
0.0
 20
0.0
 30
0.0
 70
     1
  0
VERTEX
  5
221
100
AcDbEntity
  8
ALPHA
 62
     7
100
AcDbVertex
100
AcDb2dVertex
 10
22.254326
 20
-16.362352
 30
0.0
  0
VERTEX
  5
222
100
AcDbEntity
  8
ALPHA
 62
     7
100
AcDbVertex
100
AcDb2dVertex
 10
22.254326
 20
-7.340336
 30
0.0
  0
VERTEX
  5
223
100
AcDbEntity
  8
ALPHA
 62
     7
100
AcDbVertex
100
AcDb2dVertex
 10
7.218552
 20
-7.340336
 30
0.0
  0
VERTEX
  5
224
100
AcDbEntity
  8
ALPHA
 62
     7
100
AcDbVertex
100
AcDb2dVertex
 10
7.218552
 20
-16.362352
 30
0.0
  0
SEQEND
  5
225
100
AcDbEntity
  8
ALPHA
 62
     7
  0
POLYLINE
  5
226
100
AcDbEntity
  8
ALPHA
 62
     7
100
AcDb2dPolyline
 66
     1
 10
0.0
 20
0.0
 30
0.0
 70
     1
  0
VERTEX
  5
227
100
AcDbEntity
  8
ALPHA
 62
     7
100
AcDbVertex
100
AcDb2dVertex
 10
43.474737
 20
-16.362352
 30
0.0
  0
VERTEX
  5
228
100
AcDbEntity
  8
ALPHA
 62
     7
100
AcDbVertex
100
AcDb2dVertex
 10
43.474737
 20
-7.340336
 30
0.0
  0
VERTEX
  5
229
100
AcDbEntity
  8
ALPHA
 62
     7
100
AcDbVertex
100
AcDb2dVertex
 10
28.438962
 20
-7.340336
 30
0.0
  0
VERTEX
  5
22A
100
AcDbEntity
  8
ALPHA
 62
     7
100
AcDbVertex
100
AcDb2dVertex
 10
28.438962
 20
-16.362352
 30
0.0
  0
SEQEND
  5
22B
100
AcDbEntity
  8
ALPHA
 62
     7
  0
POLYLINE
  5
22C
100
AcDbEntity
  8
ALPHA
 62
     7
100
AcDb2dPolyline
 66
     1
 10
0.0
 20
0.0
 30
0.0
 70
     1
  0
VERTEX
  5
22D
100
AcDbEntity
  8
ALPHA
 62
     7
100
AcDbVertex
100
AcDb2dVertex
 10
64.695147
 20
-16.362352
 30
0.0
  0
VERTEX
  5
22E
100
AcDbEntity
  8
ALPHA
 62
     7
100
AcDbVertex
100
AcDb2dVertex
 10
64.695147
 20
-7.340336
 30
0.0
  0
VERTEX
  5
22F
100
AcDbEntity
  8
ALPHA
 62
     7
100
AcDbVertex
100
AcDb2dVertex
 10
49.659372
 20
-7.340336
 30
0.0
  0
VERTEX
  5
230
100
AcDbEntity
  8
ALPHA
 62
     7
100
AcDbVertex
100
AcDb2dVertex
 10
49.659372
 20
-16.362352
 30
0.0
  0
SEQEND
  5
231
100
AcDbEntity
  8
ALPHA
 62
     7
  0
ENDBLK
  5
233
100
AcDbEntity
  8
ALPHA
100
AcDbBlockEnd
  0
BLOCK
  5
37C
100
AcDbEntity
  8
ALPHA
 62
     7
100
AcDbBlockBegin
  2
AI9-BLK7
 70
     0
 10
0.0
 20
0.0
 30
0.0
  3
AI9-BLK7
  1

  0
HATCH
  5
37B
100
AcDbEntity
  8
ALPHA
 62
     7
100
AcDbHatch
 10
0.0
 20
0.0
 30
0.0
210
0.0
220
0.0
230
1.0
  2
SOLID
 70
     1
 71
     0
 91
        1
 92
        1
 93
        1
 72
     4
 94
        3
 73
     0
 74
     0
 95
       59
 96
       55
 40
0.0
 40
0.0
 40
0.0
 40
0.0
 40
1.0
 40
1.0
 40
1.0
 40
2.0
 40
2.0
 40
2.0
 40
3.0
 40
3.0
 40
3.0
 40
4.0
 40
4.0
 40
4.0
 40
5.0
 40
5.0
 40
5.0
 40
6.0
 40
6.0
 40
6.0
 40
7.0
 40
7.0
 40
7.0
 40
8.0
 40
8.0
 40
8.0
 40
9.0
 40
9.0
 40
9.0
 40
10.0
 40
10.0
 40
10.0
 40
11.0
 40
11.0
 40
11.0
 40
12.0
 40
12.0
 40
12.0
 40
13.0
 40
13.0
 40
13.0
 40
14.0
 40
14.0
 40
14.0
 40
15.0
 40
15.0
 40
15.0
 40
16.0
 40
16.0
 40
16.0
 40
17.0
 40
17.0
 40
17.0
 40
18.0
 40
18.0
 40
18.0
 40
18.0
 10
-0.073381
 20
0.079754
 10
-0.054949
 20
0.078376
 10
-0.038068
 20
0.078376
 10
-0.021015
 20
0.078376
 10
0.080443
 20
0.078376
 10
0.169326
 20
0.133325
 10
0.169326
 20
0.242018
 10
0.169326
 20
0.346404
 10
0.09319
 20
0.402904
 10
-0.00844
 20
0.402904
 10
-0.139699
 20
0.402904
 10
-0.196026
 20
0.302652
 10
-0.197404
 20
0.185518
 10
-0.197404
 20
0.185518
 10
-0.317466
 20
0.185518
 10
-0.317466
 20
0.185518
 10
-0.310403
 20
0.376032
 10
-0.208773
 20
0.508668
 10
-0.00844
 20
0.508668
 10
0.165192
 20
0.508668
 10
0.29645
 20
0.425469
 10
0.29645
 20
0.24064
 10
0.29645
 20
0.153134
 10
0.234266
 20
0.076826
 10
0.15813
 20
0.041686
 10
0.15813
 20
0.041686
 10
0.15813
 20
0.038757
 10
0.15813
 20
0.038757
 10
0.279397
 20
0.012058
 10
0.338653
 20
-0.08406
 10
0.338653
 20
-0.20395
 10
0.338653
 20
-0.404282
 10
0.182073
 20
-0.508668
 10
-0.005512
 20
-0.508668
 10
-0.208773
 20
-0.508668
 10
-0.342787
 20
-0.388779
 10
-0.338653
 20
-0.182762
 10
-0.338653
 20
-0.182762
 10
-0.218591
 20
-0.182762
 10
-0.218591
 20
-0.182762
 10
-0.214457
 20
-0.312642
 10
-0.142455
 20
-0.402904
 10
-0.005512
 20
-0.402904
 10
0.111621
 20
-0.402904
 10
0.211701
 20
-0.330901
 10
0.211701
 20
-0.209634
 10
0.211701
 20
-0.08406
 10
0.117133
 20
-0.017742
 10
-0.001378
 20
-0.017742
 10
-0.025321
 20
-0.017742
 10
-0.050815
 20
-0.01912
 10
-0.073381
 20
-0.021876
 10
-0.073381
 20
-0.021876
 10
-0.073381
 20
0.079754
 10
-0.073381
 20
0.079754
 97
        0
 75
     0
 76
     1
 98
        1
 10
0.0
 20
0.0
  0
ENDBLK
  5
37D
100
AcDbEntity
  8
ALPHA
100
AcDbBlockEnd
  0
BLOCK
  5
380
100
AcDbEntity
  8
ALPHA
 62
     7
100
AcDbBlockBegin
  2
AI9-BLK8
 70
     0
 10
0.0
 20
0.0
 30
0.0
  3
AI9-BLK8
  1

  0
HATCH
  5
37F
100
AcDbEntity
  8
ALPHA
 62
     7
100
AcDbHatch
 10
0.0
 20
0.0
 30
0.0
210
0.0
220
0.0
230
1.0
  2
SOLID
 70
     1
 71
     0
 91
        2
 92
       16
 93
        1
 72
     4
 94
        3
 73
     0
 74
     0
 95
       17
 96
       13
 40
0.0
 40
0.0
 40
0.0
 40
0.0
 40
1.0
 40
1.0
 40
1.0
 40
2.0
 40
2.0
 40
2.0
 40
3.0
 40
3.0
 40
3.0
 40
4.0
 40
4.0
 40
4.0
 40
4.0
 10
0.095343
 20
-0.160197
 10
0.095343
 20
-0.160197
 10
0.095343
 20
0.329523
 10
0.095343
 20
0.329523
 10
0.095343
 20
0.329523
 10
0.092415
 20
0.329523
 10
0.092415
 20
0.329523
 10
0.092415
 20
0.329523
 10
-0.240554
 20
-0.160197
 10
-0.240554
 20
-0.160197
 10
-0.240554
 20
-0.160197
 10
0.095343
 20
-0.160197
 10
0.095343
 20
-0.160197
 97
        0
 92
        1
 93
        1
 72
     4
 94
        3
 73
     0
 74
     0
 95
       38
 96
       34
 40
0.0
 40
0.0
 40
0.0
 40
0.0
 40
1.0
 40
1.0
 40
1.0
 40
2.0
 40
2.0
 40
2.0
 40
3.0
 40
3.0
 40
3.0
 40
4.0
 40
4.0
 40
4.0
 40
5.0
 40
5.0
 40
5.0
 40
6.0
 40
6.0
 40
6.0
 40
7.0
 40
7.0
 40
7.0
 40
8.0
 40
8.0
 40
8.0
 40
9.0
 40
9.0
 40
9.0
 40
10.0
 40
10.0
 40
10.0
 40
11.0
 40
11.0
 40
11.0
 40
11.0
 10
0.20817
 20
-0.160197
 10
0.20817
 20
-0.160197
 10
0.343562
 20
-0.160197
 10
0.343562
 20
-0.160197
 10
0.343562
 20
-0.160197
 10
0.343562
 20
-0.265961
 10
0.343562
 20
-0.265961
 10
0.343562
 20
-0.265961
 10
0.20817
 20
-0.265961
 10
0.20817
 20
-0.265961
 10
0.20817
 20
-0.265961
 10
0.20817
 20
-0.500228
 10
0.20817
 20
-0.500228
 10
0.20817
 20
-0.500228
 10
0.095343
 20
-0.500228
 10
0.095343
 20
-0.500228
 10
0.095343
 20
-0.500228
 10
0.095343
 20
-0.265961
 10
0.095343
 20
-0.265961
 10
0.095343
 20
-0.265961
 10
-0.343562
 20
-0.265961
 10
-0.343562
 20
-0.265961
 10
-0.343562
 20
-0.265961
 10
-0.343562
 20
-0.150206
 10
-0.343562
 20
-0.150206
 10
-0.343562
 20
-0.150206
 10
0.112224
 20
0.500228
 10
0.112224
 20
0.500228
 10
0.112224
 20
0.500228
 10
0.20817
 20
0.500228
 10
0.20817
 20
0.500228
 10
0.20817
 20
0.500228
 10
0.20817
 20
-0.160197
 10
0.20817
 20
-0.160197
 97
        0
 75
     0
 76
     1
 98
        1
 10
0.0
 20
0.0
  0
ENDBLK
  5
381
100
AcDbEntity
  8
ALPHA
100
AcDbBlockEnd
  0
BLOCK
  5
384
100
AcDbEntity
  8
ALPHA
 62
     7
100
AcDbBlockBegin
  2
AI9-BLK9
 70
     0
 10
0.0
 20
0.0
 30
0.0
  3
AI9-BLK9
  1

  0
HATCH
  5
383
100
AcDbEntity
  8
ALPHA
 62
     7
100
AcDbHatch
 10
0.0
 20
0.0
 30
0.0
210
0.0
220
0.0
230
1.0
  2
SOLID
 70
     1
 71
     0
 91
        1
 92
        1
 93
        1
 72
     4
 94
        3
 73
     0
 74
     0
 95
       26
 96
       22
 40
0.0
 40
0.0
 40
0.0
 40
0.0
 40
1.0
 40
1.0
 40
1.0
 40
2.0
 40
2.0
 40
2.0
 40
3.0
 40
3.0
 40
3.0
 40
4.0
 40
4.0
 40
4.0
 40
5.0
 40
5.0
 40
5.0
 40
6.0
 40
6.0
 40
6.0
 40
7.0
 40
7.0
 40
7.0
 40
7.0
 10
0.189825
 20
-0.500228
 10
0.189825
 20
-0.500228
 10
0.069935
 20
-0.500228
 10
0.069935
 20
-0.500228
 10
0.069935
 20
-0.500228
 10
0.069935
 20
0.216697
 10
0.069935
 20
0.216697
 10
0.069935
 20
0.216697
 10
-0.189825
 20
0.216697
 10
-0.189825
 20
0.216697
 10
-0.189825
 20
0.216697
 10
-0.189825
 20
0.312642
 10
-0.189825
 20
0.312642
 10
-0.052882
 20
0.312642
 10
0.071313
 20
0.349333
 10
0.098013
 20
0.500228
 10
0.098013
 20
0.500228
 10
0.189825
 20
0.500228
 10
0.189825
 20
0.500228
 10
0.189825
 20
0.500228
 10
0.189825
 20
-0.500228
 10
0.189825
 20
-0.500228
 97
        0
 75
     0
 76
     1
 98
        1
 10
0.0
 20
0.0
  0
ENDBLK
  5
385
100
AcDbEntity
  8
ALPHA
100
AcDbBlockEnd
  0
BLOCK
  5
D06
100
AcDbEntity
  8
0
100
AcDbBlockBegin
  2
*D8
 70
     1
 10
0.0
 20
0.0
 30
0.0
  3
*D8
  1

  0
LINE
  5
D07
100
AcDbEntity
  8
0
  6
BYBLOCK
 62
     0
100
AcDbLine
 10
74.836756
 20
161.297802
 30
0.0
 11
107.395223
 21
161.297802
 31
0.0
  0
LINE
  5
D08
100
AcDbEntity
  8
0
  6
BYBLOCK
 62
     0
100
AcDbLine
 10
40.036756
 20
103.897802
 30
0.0
 11
107.395223
 21
103.897802
 31
0.0
  0
LINE
  5
D09
100
AcDbEntity
  8
0
  6
BYBLOCK
 62
     0
100
AcDbLine
 10
107.215223
 20
158.297802
 30
0.0
 11
107.215223
 21
106.897802
 31
0.0
  0
MTEXT
  5
D0A
100
AcDbEntity
  8
0
  6
BYBLOCK
 62
     0
100
AcDbMText
 10
104.537364
 20
134.842562
 30
0.0
 40
2.5
 41
0.0
 71
     5
 72
     1
  1
\A1;57.4
 11
0.0
 21
1.0
 31
0.0
  0
SOLID
  5
D0B
100
AcDbEntity
  8
0
  6
BYBLOCK
 62
     0
100
AcDbTrace
 10
106.715223
 20
158.297802
 30
0.0
 11
107.715223
 21
158.297802
 31
0.0
 12
107.215223
 22
161.297802
 32
0.0
 13
107.215223
 23
161.297802
 33
0.0
  0
SOLID
  5
D0C
100
AcDbEntity
  8
0
  6
BYBLOCK
 62
     0
100
AcDbTrace
 10
106.715223
 20
106.897802
 30
0.0
 11
107.715223
 21
106.897802
 31
0.0
 12
107.215223
 22
103.897802
 32
0.0
 13
107.215223
 23
103.897802
 33
0.0
  0
POINT
  5
D0D
100
AcDbEntity
  8
DEFPOINTS
  6
BYBLOCK
 62
     0
100
AcDbPoint
 10
74.774256
 20
161.297802
 30
0.0
  0
POINT
  5
D0E
100
AcDbEntity
  8
DEFPOINTS
  6
BYBLOCK
 62
     0
100
AcDbPoint
 10
39.974256
 20
103.897802
 30
0.0
  0
POINT
  5
D0F
100
AcDbEntity
  8
DEFPOINTS
  6
BYBLOCK
 62
     0
100
AcDbPoint
 10
107.215223
 20
103.897802
 30
0.0
  0
ENDBLK
  5
D10
100
AcDbEntity
  8
0
100
AcDbBlockEnd
  0
ENDSEC
  0
SECTION
  2
ENTITIES
  0
INSERT
  5
CC
100
AcDbEntity
  8
0
100
AcDbBlockReference
  2
SCH_IS
 10
-68.718396
 20
-140.042541
 30
0.0
  0
INSERT
  5
EC
100
AcDbEntity
  8
COTATION1
100
AcDbBlockReference
  2
SCH_IS
 10
0.0
 20
0.0
 30
0.0
  0
ARC
  5
93C
100
AcDbEntity
  8
ALPHA
  6
CONTINUOUS
 62
     9
100
AcDbCircle
 10
39.474256
 20
303.897802
 30
0.0
 40
199.7
100
AcDbArc
 50
259.920613
 51
280.079387
  0
ARC
  5
93D
100
AcDbEntity
  8
ALPHA
  6
CONTINUOUS
 62
     7
100
AcDbCircle
 10
39.474256
 20
303.897802
 30
0.0
 40
200.0
100
AcDbArc
 50
259.902732
 51
280.097268
  0
LINE
  5
93E
100
AcDbEntity
  8
ALPHA
  6
CONTINUOUS
 62
     7
100
AcDbLine
 10
3.874256
 20
161.297802
 30
0.0
 11
75.074256
 21
161.297802
 31
0.0
  0
LINE
  5
93F
100
AcDbEntity
  8
ALPHA
  6
CONTINUOUS
 62
     7
100
AcDbLine
 10
73.974256
 20
148.797802
 30
0.0
 11
3.874256
 21
148.797802
 31
0.0
  0
LINE
  5
940
100
AcDbEntity
  8
ALPHA
  6
CONTINUOUS
 62
     7
100
AcDbLine
 10
3.874256
 20
148.297802
 30
0.0
 11
74.374256
 21
148.297802
 31
0.0
  0
LINE
  5
941
100
AcDbEntity
  8
ALPHA
  6
CONTINUOUS
 62
     7
100
AcDbLine
 10
43.949256
 20
144.897802
 30
0.0
 11
39.099256
 21
144.897802
 31
0.0
  0
LINE
  5
942
100
AcDbEntity
  8
ALPHA
  6
CONTINUOUS
 62
     7
100
AcDbLine
 10
43.449256
 20
144.397802
 30
0.0
 11
39.599256
 21
144.397802
 31
0.0
  0
LINE
  5
943
100
AcDbEntity
  8
ALPHA
  6
CONTINUOUS
 62
     7
100
AcDbLine
 10
39.599256
 20
139.097802
 30
0.0
 11
43.449256
 21
139.097802
 31
0.0
  0
LINE
  5
944
100
AcDbEntity
  8
ALPHA
  6
CONTINUOUS
 62
     7
100
AcDbLine
 10
39.099256
 20
138.597802
 30
0.0
 11
43.949256
 21
138.597802
 31
0.0
  0
POLYLINE
  5
945
100
AcDbEntity
  8
ALPHA
  6
CONTINUOUS
 62
     7
100
AcDb2dPolyline
 66
     1
 10
0.0
 20
0.0
 30
0.0
  0
VERTEX
  5
946
100
AcDbEntity
  8
ALPHA
  6
CONTINUOUS
 62
     7
100
AcDbVertex
100
AcDb2dVertex
 10
43.624256
 20
127.532404
 30
0.0
  0
VERTEX
  5
947
100
AcDbEntity
  8
ALPHA
  6
CONTINUOUS
 62
     7
100
AcDbVertex
100
AcDb2dVertex
 10
43.539282
 20
127.553054
 30
0.0
  0
VERTEX
  5
948
100
AcDbEntity
  8
ALPHA
  6
CONTINUOUS
 62
     7
100
AcDbVertex
100
AcDb2dVertex
 10
43.289973
 20
127.572101
 30
0.0
  0
VERTEX
  5
949
100
AcDbEntity
  8
ALPHA
  6
CONTINUOUS
 62
     7
100
AcDbVertex
100
AcDb2dVertex
 10
42.900352
 20
127.587799
 30
0.0
  0
VERTEX
  5
94A
100
AcDbEntity
  8
ALPHA
  6
CONTINUOUS
 62
     7
100
AcDbVertex
100
AcDb2dVertex
 10
42.394552
 20
127.599144
 30
0.0
  0
VERTEX
  5
94B
100
AcDbEntity
  8
ALPHA
  6
CONTINUOUS
 62
     7
100
AcDbVertex
100
AcDb2dVertex
 10
41.825047
 20
127.604981
 30
0.0
  0
VERTEX
  5
94C
100
AcDbEntity
  8
ALPHA
  6
CONTINUOUS
 62
     7
100
AcDbVertex
100
AcDb2dVertex
 10
41.223465
 20
127.604981
 30
0.0
  0
VERTEX
  5
94D
100
AcDbEntity
  8
ALPHA
  6
CONTINUOUS
 62
     7
100
AcDbVertex
100
AcDb2dVertex
 10
40.65396
 20
127.599144
 30
0.0
  0
VERTEX
  5
94E
100
AcDbEntity
  8
ALPHA
  6
CONTINUOUS
 62
     7
100
AcDbVertex
100
AcDb2dVertex
 10
40.14816
 20
127.587799
 30
0.0
  0
VERTEX
  5
94F
100
AcDbEntity
  8
ALPHA
  6
CONTINUOUS
 62
     7
100
AcDbVertex
100
AcDb2dVertex
 10
39.758539
 20
127.572101
 30
0.0
  0
VERTEX
  5
950
100
AcDbEntity
  8
ALPHA
  6
CONTINUOUS
 62
     7
100
AcDbVertex
100
AcDb2dVertex
 10
39.50923
 20
127.553054
 30
0.0
  0
VERTEX
  5
951
100
AcDbEntity
  8
ALPHA
  6
CONTINUOUS
 62
     7
100
AcDbVertex
100
AcDb2dVertex
 10
39.424256
 20
127.532404
 30
0.0
  0
SEQEND
  5
952
100
AcDbEntity
  8
ALPHA
 62
     7
  0
POLYLINE
  5
953
100
AcDbEntity
  8
ALPHA
  6
CONTINUOUS
 62
     7
100
AcDb2dPolyline
 66
     1
 10
0.0
 20
0.0
 30
0.0
  0
VERTEX
  5
954
100
AcDbEntity
  8
ALPHA
  6
CONTINUOUS
 62
     7
100
AcDbVertex
100
AcDb2dVertex
 10
39.424256
 20
127.532404
 30
0.0
  0
VERTEX
  5
955
100
AcDbEntity
  8
ALPHA
  6
CONTINUOUS
 62
     7
100
AcDbVertex
100
AcDb2dVertex
 10
39.50923
 20
127.511754
 30
0.0
  0
VERTEX
  5
956
100
AcDbEntity
  8
ALPHA
  6
CONTINUOUS
 62
     7
100
AcDbVertex
100
AcDb2dVertex
 10
39.758539
 20
127.492707
 30
0.0
  0
VERTEX
  5
957
100
AcDbEntity
  8
ALPHA
  6
CONTINUOUS
 62
     7
100
AcDbVertex
100
AcDb2dVertex
 10
40.14816
 20
127.477009
 30
0.0
  0
VERTEX
  5
958
100
AcDbEntity
  8
ALPHA
  6
CONTINUOUS
 62
     7
100
AcDbVertex
100
AcDb2dVertex
 10
40.65396
 20
127.465664
 30
0.0
  0
VERTEX
  5
959
100
AcDbEntity
  8
ALPHA
  6
CONTINUOUS
 62
     7
100
AcDbVertex
100
AcDb2dVertex
 10
41.223465
 20
127.459827
 30
0.0
  0
VERTEX
  5
95A
100
AcDbEntity
  8
ALPHA
  6
CONTINUOUS
 62
     7
100
AcDbVertex
100
AcDb2dVertex
 10
41.825047
 20
127.459827
 30
0.0
  0
VERTEX
  5
95B
100
AcDbEntity
  8
ALPHA
  6
CONTINUOUS
 62
     7
100
AcDbVertex
100
AcDb2dVertex
 10
42.394552
 20
127.465664
 30
0.0
  0
VERTEX
  5
95C
100
AcDbEntity
  8
ALPHA
  6
CONTINUOUS
 62
     7
100
AcDbVertex
100
AcDb2dVertex
 10
42.900352
 20
127.477009
 30
0.0
  0
VERTEX
  5
95D
100
AcDbEntity
  8
ALPHA
  6
CONTINUOUS
 62
     7
100
AcDbVertex
100
AcDb2dVertex
 10
43.289973
 20
127.492707
 30
0.0
  0
VERTEX
  5
95E
100
AcDbEntity
  8
ALPHA
  6
CONTINUOUS
 62
     7
100
AcDbVertex
100
AcDb2dVertex
 10
43.539282
 20
127.511754
 30
0.0
  0
VERTEX
  5
95F
100
AcDbEntity
  8
ALPHA
  6
CONTINUOUS
 62
     7
100
AcDbVertex
100
AcDb2dVertex
 10
43.624256
 20
127.532404
 30
0.0
  0
SEQEND
  5
960
100
AcDbEntity
  8
ALPHA
 62
     7
  0
LINE
  5
961
100
AcDbEntity
  8
ALPHA
  6
CONTINUOUS
 62
     9
100
AcDbLine
 10
74.424256
 20
128.087508
 30
0.0
 11
4.524256
 21
128.087508
 31
0.0
  0
LINE
  5
962
100
AcDbEntity
  8
ALPHA
  6
CONTINUOUS
 62
     9
100
AcDbLine
 10
74.424256
 20
127.787691
 30
0.0
 11
4.524256
 21
127.787691
 31
0.0
  0
LINE
  5
963
100
AcDbEntity
  8
ALPHA
  6
CONTINUOUS
 62
     7
100
AcDbLine
 10
4.524256
 20
127.413673
 30
0.0
 11
74.424256
 21
127.413673
 31
0.0
  0
LINE
  5
964
100
AcDbEntity
  8
ALPHA
  6
CONTINUOUS
 62
     9
100
AcDbLine
 10
74.424256
 20
112.197802
 30
0.0
 11
4.524256
 21
112.197802
 31
0.0
  0
LINE
  5
965
100
AcDbEntity
  8
ALPHA
  6
CONTINUOUS
 62
     7
100
AcDbLine
 10
74.424256
 20
111.897802
 30
0.0
 11
4.524256
 21
111.897802
 31
0.0
  0
DIMENSION
  5
966
100
AcDbEntity
  8
COTATION1
  6
CONTINUOUS
 62
     2
100
AcDbDimension
  2
*D8
 10
107.215223
 20
103.897802
 30
0.0
 11
104.537364
 21
134.842562
 31
0.0
 70
   160
  3
SC_STAND
100
AcDbAlignedDimension
 13
74.774256
 23
161.297802
 33
0.0
 14
39.974256
 24
103.897802
 34
0.0
 50
270.0
100
AcDbRotatedDimension
  0
ARC
  5
967
100
AcDbEntity
  8
ALPHA
  6
CONTINUOUS
 62
     9
100
AcDbCircle
 10
43.468422
 20
119.597802
 30
0.0
 40
19.2
100
AcDbArc
 50
164.207758
 51
195.792242
  0
ARC
  5
968
100
AcDbEntity
  8
ALPHA
  6
CONTINUOUS
 62
     9
100
AcDbCircle
 10
7.48009
 20
119.597802
 30
0.0
 40
19.2
100
AcDbArc
 50
344.207758
 51
15.792242
  0
ARC
  5
969
100
AcDbEntity
  8
ALPHA
  6
CONTINUOUS
 62
     9
100
AcDbCircle
 10
47.468422
 20
119.597802
 30
0.0
 40
19.2
100
AcDbArc
 50
164.207758
 51
195.792242
  0
ARC
  5
96A
100
AcDbEntity
  8
ALPHA
  6
CONTINUOUS
 62
     9
100
AcDbCircle
 10
11.48009
 20
119.597802
 30
0.0
 40
19.2
100
AcDbArc
 50
344.207758
 51
15.792242
  0
ARC
  5
96B
100
AcDbEntity
  8
ALPHA
  6
CONTINUOUS
 62
     9
100
AcDbCircle
 10
51.468422
 20
119.597802
 30
0.0
 40
19.2
100
AcDbArc
 50
164.207758
 51
195.792242
  0
ARC
  5
96C
100
AcDbEntity
  8
ALPHA
  6
CONTINUOUS
 62
     9
100
AcDbCircle
 10
15.48009
 20
119.597802
 30
0.0
 40
19.2
100
AcDbArc
 50
344.207758
 51
15.792242
  0
ARC
  5
96D
100
AcDbEntity
  8
ALPHA
  6
CONTINUOUS
 62
     9
100
AcDbCircle
 10
55.468422
 20
119.597802
 30
0.0
 40
19.2
100
AcDbArc
 50
164.207758
 51
195.792242
  0
ARC
  5
96E
100
AcDbEntity
  8
ALPHA
  6
CONTINUOUS
 62
     9
100
AcDbCircle
 10
19.48009
 20
119.597802
 30
0.0
 40
19.2
100
AcDbArc
 50
344.207758
 51
15.792242
  0
ARC
  5
96F
100
AcDbEntity
  8
ALPHA
  6
CONTINUOUS
 62
     9
100
AcDbCircle
 10
59.468422
 20
119.597802
 30
0.0
 40
19.2
100
AcDbArc
 50
164.207758
 51
195.792242
  0
ARC
  5
970
100
AcDbEntity
  8
ALPHA
  6
CONTINUOUS
 62
     9
100
AcDbCircle
 10
23.48009
 20
119.597802
 30
0.0
 40
19.2
100
AcDbArc
 50
344.207758
 51
15.792242
  0
ARC
  5
971
100
AcDbEntity
  8
ALPHA
  6
CONTINUOUS
 62
     9
100
AcDbCircle
 10
3.48009
 20
119.597802
 30
0.0
 40
19.2
100
AcDbArc
 50
344.207758
 51
15.792242
  0
ARC
  5
972
100
AcDbEntity
  8
ALPHA
  6
CONTINUOUS
 62
     9
100
AcDbCircle
 10
39.468422
 20
119.597802
 30
0.0
 40
19.2
100
AcDbArc
 50
164.207758
 51
195.792242
  0
ARC
  5
973
100
AcDbEntity
  8
ALPHA
  6
CONTINUOUS
 62
     9
100
AcDbCircle
 10
-0.51991
 20
119.597802
 30
0.0
 40
19.2
100
AcDbArc
 50
344.207758
 51
15.792242
  0
ARC
  5
974
100
AcDbEntity
  8
ALPHA
  6
CONTINUOUS
 62
     9
100
AcDbCircle
 10
35.468422
 20
119.597802
 30
0.0
 40
19.2
100
AcDbArc
 50
164.207758
 51
195.792242
  0
ARC
  5
975
100
AcDbEntity
  8
ALPHA
  6
CONTINUOUS
 62
     9
100
AcDbCircle
 10
-4.51991
 20
119.597802
 30
0.0
 40
19.2
100
AcDbArc
 50
344.207758
 51
15.792242
  0
ARC
  5
976
100
AcDbEntity
  8
ALPHA
  6
CONTINUOUS
 62
     9
100
AcDbCircle
 10
31.468422
 20
119.597802
 30
0.0
 40
19.2
100
AcDbArc
 50
164.207758
 51
195.792242
  0
ARC
  5
977
100
AcDbEntity
  8
ALPHA
  6
CONTINUOUS
 62
     9
100
AcDbCircle
 10
-8.51991
 20
119.597802
 30
0.0
 40
19.2
100
AcDbArc
 50
344.207758
 51
15.792242
  0
ARC
  5
978
100
AcDbEntity
  8
ALPHA
  6
CONTINUOUS
 62
     9
100
AcDbCircle
 10
27.468422
 20
119.597802
 30
0.0
 40
19.2
100
AcDbArc
 50
164.207758
 51
195.792242
  0
ARC
  5
979
100
AcDbEntity
  8
ALPHA
  6
CONTINUOUS
 62
     7
100
AcDbCircle
 10
43.468422
 20
119.597802
 30
0.0
 40
19.0
100
AcDbArc
 50
164.207758
 51
195.792242
  0
ARC
  5
97A
100
AcDbEntity
  8
ALPHA
  6
CONTINUOUS
 62
     7
100
AcDbCircle
 10
7.48009
 20
119.597802
 30
0.0
 40
19.0
100
AcDbArc
 50
344.207758
 51
15.792242
  0
ARC
  5
97B
100
AcDbEntity
  8
ALPHA
  6
CONTINUOUS
 62
     7
100
AcDbCircle
 10
47.468422
 20
119.597802
 30
0.0
 40
19.0
100
AcDbArc
 50
164.207758
 51
195.792242
  0
ARC
  5
97C
100
AcDbEntity
  8
ALPHA
  6
CONTINUOUS
 62
     7
100
AcDbCircle
 10
11.48009
 20
119.597802
 30
0.0
 40
19.0
100
AcDbArc
 50
344.207758
 51
15.792242
  0
ARC
  5
97D
100
AcDbEntity
  8
ALPHA
  6
CONTINUOUS
 62
     7
100
AcDbCircle
 10
51.468422
 20
119.597802
 30
0.0
 40
19.0
100
AcDbArc
 50
164.207758
 51
195.792242
  0
ARC
  5
97E
100
AcDbEntity
  8
ALPHA
  6
CONTINUOUS
 62
     7
100
AcDbCircle
 10
15.48009
 20
119.597802
 30
0.0
 40
19.0
100
AcDbArc
 50
344.207758
 51
15.792242
  0
ARC
  5
97F
100
AcDbEntity
  8
ALPHA
  6
CONTINUOUS
 62
     7
100
AcDbCircle
 10
55.468422
 20
119.597802
 30
0.0
 40
19.0
100
AcDbArc
 50
164.207758
 51
195.792242
  0
ARC
  5
980
100
AcDbEntity
  8
ALPHA
  6
CONTINUOUS
 62
     7
100
AcDbCircle
 10
19.48009
 20
119.597802
 30
0.0
 40
19.0
100
AcDbArc
 50
344.207758
 51
15.792242
  0
ARC
  5
981
100
AcDbEntity
  8
ALPHA
  6
CONTINUOUS
 62
     7
100
AcDbCircle
 10
59.468422
 20
119.597802
 30
0.0
 40
19.0
100
AcDbArc
 50
164.207758
 51
195.792242
  0
ARC
  5
982
100
AcDbEntity
  8
ALPHA
  6
CONTINUOUS
 62
     7
100
AcDbCircle
 10
23.48009
 20
119.597802
 30
0.0
 40
19.0
100
AcDbArc
 50
344.207758
 51
15.792242
  0
ARC
  5
983
100
AcDbEntity
  8
ALPHA
  6
CONTINUOUS
 62
     7
100
AcDbCircle
 10
3.48009
 20
119.597802
 30
0.0
 40
19.0
100
AcDbArc
 50
344.207758
 51
15.792242
  0
ARC
  5
984
100
AcDbEntity
  8
ALPHA
  6
CONTINUOUS
 62
     7
100
AcDbCircle
 10
39.468422
 20
119.597802
 30
0.0
 40
19.0
100
AcDbArc
 50
164.207758
 51
195.792242
  0
ARC
  5
985
100
AcDbEntity
  8
ALPHA
  6
CONTINUOUS
 62
     7
100
AcDbCircle
 10
-0.51991
 20
119.597802
 30
0.0
 40
19.0
100
AcDbArc
 50
344.207758
 51
15.792242
  0
ARC
  5
986
100
AcDbEntity
  8
ALPHA
  6
CONTINUOUS
 62
     7
100
AcDbCircle
 10
35.468422
 20
119.597802
 30
0.0
 40
19.0
100
AcDbArc
 50
164.207758
 51
195.792242
  0
ARC
  5
987
100
AcDbEntity
  8
ALPHA
  6
CONTINUOUS
 62
     7
100
AcDbCircle
 10
-4.51991
 20
119.597802
 30
0.0
 40
19.0
100
AcDbArc
 50
344.207758
 51
15.792242
  0
ARC
  5
988
100
AcDbEntity
  8
ALPHA
  6
CONTINUOUS
 62
     7
100
AcDbCircle
 10
31.468422
 20
119.597802
 30
0.0
 40
19.0
100
AcDbArc
 50
164.207758
 51
195.792242
  0
ARC
  5
989
100
AcDbEntity
  8
ALPHA
  6
CONTINUOUS
 62
     7
100
AcDbCircle
 10
-8.51991
 20
119.597802
 30
0.0
 40
19.0
100
AcDbArc
 50
344.207758
 51
15.792242
  0
ARC
  5
98A
100
AcDbEntity
  8
ALPHA
  6
CONTINUOUS
 62
     7
100
AcDbCircle
 10
27.468422
 20
119.597802
 30
0.0
 40
19.0
100
AcDbArc
 50
164.207758
 51
195.792242
  0
LINE
  5
98B
100
AcDbEntity
  8
ALPHA
  6
CONTINUOUS
 62
     9
100
AcDbLine
 10
4.524256
 20
112.197802
 30
0.0
 11
4.524256
 21
127.787691
 31
0.0
  0
LINE
  5
98C
100
AcDbEntity
  8
ALPHA
  6
CONTINUOUS
 62
     7
100
AcDbLine
 10
3.874256
 20
107.635426
 30
0.0
 11
3.874256
 21
161.297802
 31
0.0
  0
LINE
  5
98D
100
AcDbEntity
  8
ALPHA
  6
CONTINUOUS
 62
     9
100
AcDbLine
 10
4.524256
 20
111.897802
 30
0.0
 11
4.524256
 21
107.27993
 31
0.0
  0
ARC
  5
98E
100
AcDbEntity
  8
ALPHA
  6
CONTINUOUS
 62
     7
100
AcDbCircle
 10
4.524256
 20
107.635426
 30
0.0
 40
0.65
100
AcDbArc
 50
180.0
 51
259.902732
  0
POLYLINE
  5
98F
100
AcDbEntity
  8
ALPHA
  6
CONTINUOUS
 62
     7
100
AcDb2dPolyline
 66
     1
 10
0.0
 20
0.0
 30
0.0
  0
VERTEX
  5
990
100
AcDbEntity
  8
ALPHA
  6
CONTINUOUS
 62
     7
100
AcDbVertex
100
AcDb2dVertex
 10
4.149899
 20
107.104054
 30
0.0
  0
VERTEX
  5
991
100
AcDbEntity
  8
ALPHA
  6
CONTINUOUS
 62
     7
100
AcDbVertex
100
AcDb2dVertex
 10
4.269214
 20
107.153757
 30
0.0
  0
VERTEX
  5
992
100
AcDbEntity
  8
ALPHA
  6
CONTINUOUS
 62
     7
100
AcDbVertex
100
AcDb2dVertex
 10
4.395285
 20
107.21442
 30
0.0
  0
VERTEX
  5
993
100
AcDbEntity
  8
ALPHA
  6
CONTINUOUS
 62
     7
100
AcDbVertex
100
AcDb2dVertex
 10
4.524256
 20
107.27993
 30
0.0
  0
SEQEND
  5
994
100
AcDbEntity
  8
ALPHA
 62
     7
  0
ARC
  5
995
100
AcDbEntity
  8
ALPHA
  6
CONTINUOUS
 62
     7
100
AcDbCircle
 10
4.524256
 20
112.547802
 30
0.0
 40
0.65
100
AcDbArc
 50
180.0
 51
270.0
  0
POLYLINE
  5
996
100
AcDbEntity
  8
ALPHA
  6
CONTINUOUS
 62
     7
100
AcDb2dPolyline
 66
     1
 10
0.0
 20
0.0
 30
0.0
  0
VERTEX
  5
997
100
AcDbEntity
  8
ALPHA
  6
CONTINUOUS
 62
     7
100
AcDbVertex
100
AcDb2dVertex
 10
4.197901
 20
111.98567
 30
0.0
  0
VERTEX
  5
998
100
AcDbEntity
  8
ALPHA
  6
CONTINUOUS
 62
     7
100
AcDbVertex
100
AcDb2dVertex
 10
4.30411
 20
112.050923
 30
0.0
  0
VERTEX
  5
999
100
AcDbEntity
  8
ALPHA
  6
CONTINUOUS
 62
     7
100
AcDbVertex
100
AcDb2dVertex
 10
4.413494
 20
112.122878
 30
0.0
  0
VERTEX
  5
99A
100
AcDbEntity
  8
ALPHA
  6
CONTINUOUS
 62
     7
100
AcDbVertex
100
AcDb2dVertex
 10
4.524256
 20
112.197802
 30
0.0
  0
SEQEND
  5
99B
100
AcDbEntity
  8
ALPHA
 62
     7
  0
ARC
  5
99C
100
AcDbEntity
  8
ALPHA
  6
CONTINUOUS
 62
     9
100
AcDbCircle
 10
13.474256
 20
114.508598
 30
0.0
 40
0.499994
100
AcDbArc
 50
195.792242
 51
344.207758
  0
ARC
  5
99D
100
AcDbEntity
  8
ALPHA
  6
CONTINUOUS
 62
     7
100
AcDbCircle
 10
13.474256
 20
114.508598
 30
0.0
 40
0.3
100
AcDbArc
 50
195.792242
 51
344.207758
  0
ARC
  5
99E
100
AcDbEntity
  8
ALPHA
  6
CONTINUOUS
 62
     9
100
AcDbCircle
 10
9.474256
 20
114.508598
 30
0.0
 40
0.499994
100
AcDbArc
 50
195.792242
 51
344.207758
  0
ARC
  5
99F
100
AcDbEntity
  8
ALPHA
  6
CONTINUOUS
 62
     7
100
AcDbCircle
 10
9.474256
 20
114.508598
 30
0.0
 40
0.3
100
AcDbArc
 50
195.792242
 51
344.207758
  0
LINE
  5
9A0
100
AcDbEntity
  8
ALPHA
  6
CONTINUOUS
 62
     9
100
AcDbLine
 10
8.993129
 20
114.372523
 30
0.0
 11
9.18558
 21
114.426953
 31
0.0
  0
LINE
  5
9A1
100
AcDbEntity
  8
ALPHA
  6
CONTINUOUS
 62
     9
100
AcDbLine
 10
9.955383
 20
114.372523
 30
0.0
 11
9.762932
 21
114.426953
 31
0.0
  0
LINE
  5
9A2
100
AcDbEntity
  8
ALPHA
  6
CONTINUOUS
 62
     9
100
AcDbLine
 10
12.993129
 20
114.372523
 30
0.0
 11
13.18558
 21
114.426953
 31
0.0
  0
LINE
  5
9A3
100
AcDbEntity
  8
ALPHA
  6
CONTINUOUS
 62
     9
100
AcDbLine
 10
13.955383
 20
114.372523
 30
0.0
 11
13.762932
 21
114.426953
 31
0.0
  0
ARC
  5
9A4
100
AcDbEntity
  8
ALPHA
  6
CONTINUOUS
 62
     9
100
AcDbCircle
 10
17.474256
 20
114.508598
 30
0.0
 40
0.499994
100
AcDbArc
 50
195.792242
 51
344.207758
  0
ARC
  5
9A5
100
AcDbEntity
  8
ALPHA
  6
CONTINUOUS
 62
     7
100
AcDbCircle
 10
17.474256
 20
114.508598
 30
0.0
 40
0.3
100
AcDbArc
 50
195.792242
 51
344.207758
  0
LINE
  5
9A6
100
AcDbEntity
  8
ALPHA
  6
CONTINUOUS
 62
     9
100
AcDbLine
 10
16.993129
 20
114.372523
 30
0.0
 11
17.18558
 21
114.426953
 31
0.0
  0
LINE
  5
9A7
100
AcDbEntity
  8
ALPHA
  6
CONTINUOUS
 62
     9
100
AcDbLine
 10
17.955383
 20
114.372523
 30
0.0
 11
17.762932
 21
114.426953
 31
0.0
  0
ARC
  5
9A8
100
AcDbEntity
  8
ALPHA
  6
CONTINUOUS
 62
     9
100
AcDbCircle
 10
25.474256
 20
114.508598
 30
0.0
 40
0.499994
100
AcDbArc
 50
195.792242
 51
344.207758
  0
ARC
  5
9A9
100
AcDbEntity
  8
ALPHA
  6
CONTINUOUS
 62
     7
100
AcDbCircle
 10
25.474256
 20
114.508598
 30
0.0
 40
0.3
100
AcDbArc
 50
195.792242
 51
344.207758
  0
ARC
  5
9AA
100
AcDbEntity
  8
ALPHA
  6
CONTINUOUS
 62
     9
100
AcDbCircle
 10
21.474256
 20
114.508598
 30
0.0
 40
0.499994
100
AcDbArc
 50
195.792242
 51
344.207758
  0
ARC
  5
9AB
100
AcDbEntity
  8
ALPHA
  6
CONTINUOUS
 62
     7
100
AcDbCircle
 10
21.474256
 20
114.508598
 30
0.0
 40
0.3
100
AcDbArc
 50
195.792242
 51
344.207758
  0
LINE
  5
9AC
100
AcDbEntity
  8
ALPHA
  6
CONTINUOUS
 62
     9
100
AcDbLine
 10
20.993129
 20
114.372523
 30
0.0
 11
21.18558
 21
114.426953
 31
0.0
  0
LINE
  5
9AD
100
AcDbEntity
  8
ALPHA
  6
CONTINUOUS
 62
     9
100
AcDbLine
 10
21.955383
 20
114.372523
 30
0.0
 11
21.762932
 21
114.426953
 31
0.0
  0
LINE
  5
9AE
100
AcDbEntity
  8
ALPHA
  6
CONTINUOUS
 62
     9
100
AcDbLine
 10
24.993129
 20
114.372523
 30
0.0
 11
25.18558
 21
114.426953
 31
0.0
  0
LINE
  5
9AF
100
AcDbEntity
  8
ALPHA
  6
CONTINUOUS
 62
     9
100
AcDbLine
 10
25.955383
 20
114.372523
 30
0.0
 11
25.762932
 21
114.426953
 31
0.0
  0
ARC
  5
9B0
100
AcDbEntity
  8
ALPHA
  6
CONTINUOUS
 62
     9
100
AcDbCircle
 10
29.474256
 20
114.508598
 30
0.0
 40
0.499994
100
AcDbArc
 50
195.792242
 51
344.207758
  0
ARC
  5
9B1
100
AcDbEntity
  8
ALPHA
  6
CONTINUOUS
 62
     7
100
AcDbCircle
 10
29.474256
 20
114.508598
 30
0.0
 40
0.3
100
AcDbArc
 50
195.792242
 51
344.207758
  0
LINE
  5
9B2
100
AcDbEntity
  8
ALPHA
  6
CONTINUOUS
 62
     9
100
AcDbLine
 10
28.993129
 20
114.372523
 30
0.0
 11
29.18558
 21
114.426953
 31
0.0
  0
LINE
  5
9B3
100
AcDbEntity
  8
ALPHA
  6
CONTINUOUS
 62
     9
100
AcDbLine
 10
29.955383
 20
114.372523
 30
0.0
 11
29.762932
 21
114.426953
 31
0.0
  0
ARC
  5
9B4
100
AcDbEntity
  8
ALPHA
  6
CONTINUOUS
 62
     9
100
AcDbCircle
 10
33.474256
 20
114.508598
 30
0.0
 40
0.499994
100
AcDbArc
 50
195.792242
 51
344.207758
  0
ARC
  5
9B5
100
AcDbEntity
  8
ALPHA
  6
CONTINUOUS
 62
     7
100
AcDbCircle
 10
33.474256
 20
114.508598
 30
0.0
 40
0.3
100
AcDbArc
 50
195.792242
 51
344.207758
  0
LINE
  5
9B6
100
AcDbEntity
  8
ALPHA
  6
CONTINUOUS
 62
     9
100
AcDbLine
 10
32.993129
 20
114.372523
 30
0.0
 11
33.18558
 21
114.426953
 31
0.0
  0
LINE
  5
9B7
100
AcDbEntity
  8
ALPHA
  6
CONTINUOUS
 62
     9
100
AcDbLine
 10
33.955383
 20
114.372523
 30
0.0
 11
33.762932
 21
114.426953
 31
0.0
  0
ARC
  5
9B8
100
AcDbEntity
  8
ALPHA
  6
CONTINUOUS
 62
     9
100
AcDbCircle
 10
37.474256
 20
114.508598
 30
0.0
 40
0.499994
100
AcDbArc
 50
195.792242
 51
344.207758
  0
ARC
  5
9B9
100
AcDbEntity
  8
ALPHA
  6
CONTINUOUS
 62
     7
100
AcDbCircle
 10
37.474256
 20
114.508598
 30
0.0
 40
0.3
100
AcDbArc
 50
195.792242
 51
344.207758
  0
LINE
  5
9BA
100
AcDbEntity
  8
ALPHA
  6
CONTINUOUS
 62
     9
100
AcDbLine
 10
37.955383
 20
114.372523
 30
0.0
 11
37.762932
 21
114.426953
 31
0.0
  0
LINE
  5
9BB
100
AcDbEntity
  8
ALPHA
  6
CONTINUOUS
 62
     9
100
AcDbLine
 10
36.993129
 20
114.372523
 30
0.0
 11
37.18558
 21
114.426953
 31
0.0
  0
ARC
  5
9BC
100
AcDbEntity
  8
ALPHA
  6
CONTINUOUS
 62
     9
100
AcDbCircle
 10
41.474256
 20
114.508598
 30
0.0
 40
0.499994
100
AcDbArc
 50
195.792242
 51
344.207758
  0
ARC
  5
9BD
100
AcDbEntity
  8
ALPHA
  6
CONTINUOUS
 62
     7
100
AcDbCircle
 10
41.474256
 20
114.508598
 30
0.0
 40
0.3
100
AcDbArc
 50
195.792242
 51
344.207758
  0
LINE
  5
9BE
100
AcDbEntity
  8
ALPHA
  6
CONTINUOUS
 62
     9
100
AcDbLine
 10
41.955383
 20
114.372523
 30
0.0
 11
41.762932
 21
114.426953
 31
0.0
  0
LINE
  5
9BF
100
AcDbEntity
  8
ALPHA
  6
CONTINUOUS
 62
     9
100
AcDbLine
 10
40.993129
 20
114.372523
 30
0.0
 11
41.18558
 21
114.426953
 31
0.0
  0
ARC
  5
9C0
100
AcDbEntity
  8
ALPHA
  6
CONTINUOUS
 62
     7
100
AcDbCircle
 10
5.674256
 20
156.397802
 30
0.0
 40
0.6
100
AcDbArc
 50
180.0
 51
270.0
  0
ARC
  5
9C1
100
AcDbEntity
  8
ALPHA
  6
CONTINUOUS
 62
     7
100
AcDbCircle
 10
13.474256
 20
156.297802
 30
0.0
 40
0.5
100
AcDbArc
 50
270.0
 51
0.0
  0
ARC
  5
9C2
100
AcDbEntity
  8
ALPHA
  6
CONTINUOUS
 62
     7
100
AcDbCircle
 10
5.674256
 20
156.297802
 30
0.0
 40
0.5
100
AcDbArc
 50
180.0
 51
270.0
  0
LINE
  5
9C3
100
AcDbEntity
  8
ALPHA
  6
CONTINUOUS
 62
     7
100
AcDbLine
 10
14.074256
 20
161.297802
 30
0.0
 11
14.074256
 21
155.797802
 31
0.0
  0
LINE
  5
9C4
100
AcDbEntity
  8
ALPHA
  6
CONTINUOUS
 62
     9
100
AcDbLine
 10
11.974256
 20
155.797802
 30
0.0
 11
11.974256
 21
157.695699
 31
0.0
  0
LINE
  5
9C5
100
AcDbEntity
  8
ALPHA
  6
CONTINUOUS
 62
     9
100
AcDbLine
 10
7.174256
 20
155.797802
 30
0.0
 11
7.174256
 21
157.695699
 31
0.0
  0
LINE
  5
9C6
100
AcDbEntity
  8
ALPHA
  6
CONTINUOUS
 62
     7
100
AcDbLine
 10
5.074256
 20
155.797802
 30
0.0
 11
5.074256
 21
161.297802
 31
0.0
  0
LINE
  5
9C7
100
AcDbEntity
  8
ALPHA
  6
CONTINUOUS
 62
     9
100
AcDbLine
 10
4.674256
 20
161.297802
 30
0.0
 11
4.674256
 21
148.797802
 31
0.0
  0
LINE
  5
9C8
100
AcDbEntity
  8
ALPHA
  6
CONTINUOUS
 62
     7
100
AcDbLine
 10
18.779256
 20
144.897802
 30
0.0
 11
23.629256
 21
144.897802
 31
0.0
  0
LINE
  5
9C9
100
AcDbEntity
  8
ALPHA
  6
CONTINUOUS
 62
     7
100
AcDbLine
 10
19.279256
 20
144.397802
 30
0.0
 11
23.129256
 21
144.397802
 31
0.0
  0
LINE
  5
9CA
100
AcDbEntity
  8
ALPHA
  6
CONTINUOUS
 62
     7
100
AcDbLine
 10
23.129256
 20
139.097802
 30
0.0
 11
19.279256
 21
139.097802
 31
0.0
  0
LINE
  5
9CB
100
AcDbEntity
  8
ALPHA
  6
CONTINUOUS
 62
     7
100
AcDbLine
 10
23.629256
 20
138.597802
 30
0.0
 11
18.779256
 21
138.597802
 31
0.0
  0
POLYLINE
  5
9CC
100
AcDbEntity
  8
ALPHA
  6
CONTINUOUS
 62
     7
100
AcDb2dPolyline
 66
     1
 10
0.0
 20
0.0
 30
0.0
  0
VERTEX
  5
9CD
100
AcDbEntity
  8
ALPHA
  6
CONTINUOUS
 62
     7
100
AcDbVertex
100
AcDb2dVertex
 10
23.304256
 20
127.532404
 30
0.0
  0
VERTEX
  5
9CE
100
AcDbEntity
  8
ALPHA
  6
CONTINUOUS
 62
     7
100
AcDbVertex
100
AcDb2dVertex
 10
23.219282
 20
127.553054
 30
0.0
  0
VERTEX
  5
9CF
100
AcDbEntity
  8
ALPHA
  6
CONTINUOUS
 62
     7
100
AcDbVertex
100
AcDb2dVertex
 10
22.969973
 20
127.572101
 30
0.0
  0
VERTEX
  5
9D0
100
AcDbEntity
  8
ALPHA
  6
CONTINUOUS
 62
     7
100
AcDbVertex
100
AcDb2dVertex
 10
22.580352
 20
127.587799
 30
0.0
  0
VERTEX
  5
9D1
100
AcDbEntity
  8
ALPHA
  6
CONTINUOUS
 62
     7
100
AcDbVertex
100
AcDb2dVertex
 10
22.074552
 20
127.599144
 30
0.0
  0
VERTEX
  5
9D2
100
AcDbEntity
  8
ALPHA
  6
CONTINUOUS
 62
     7
100
AcDbVertex
100
AcDb2dVertex
 10
21.505047
 20
127.604981
 30
0.0
  0
VERTEX
  5
9D3
100
AcDbEntity
  8
ALPHA
  6
CONTINUOUS
 62
     7
100
AcDbVertex
100
AcDb2dVertex
 10
20.903465
 20
127.604981
 30
0.0
  0
VERTEX
  5
9D4
100
AcDbEntity
  8
ALPHA
  6
CONTINUOUS
 62
     7
100
AcDbVertex
100
AcDb2dVertex
 10
20.33396
 20
127.599144
 30
0.0
  0
VERTEX
  5
9D5
100
AcDbEntity
  8
ALPHA
  6
CONTINUOUS
 62
     7
100
AcDbVertex
100
AcDb2dVertex
 10
19.82816
 20
127.587799
 30
0.0
  0
VERTEX
  5
9D6
100
AcDbEntity
  8
ALPHA
  6
CONTINUOUS
 62
     7
100
AcDbVertex
100
AcDb2dVertex
 10
19.438539
 20
127.572101
 30
0.0
  0
VERTEX
  5
9D7
100
AcDbEntity
  8
ALPHA
  6
CONTINUOUS
 62
     7
100
AcDbVertex
100
AcDb2dVertex
 10
19.18923
 20
127.553054
 30
0.0
  0
VERTEX
  5
9D8
100
AcDbEntity
  8
ALPHA
  6
CONTINUOUS
 62
     7
100
AcDbVertex
100
AcDb2dVertex
 10
19.104256
 20
127.532404
 30
0.0
  0
SEQEND
  5
9D9
100
AcDbEntity
  8
ALPHA
 62
     7
  0
POLYLINE
  5
9DA
100
AcDbEntity
  8
ALPHA
  6
CONTINUOUS
 62
     7
100
AcDb2dPolyline
 66
     1
 10
0.0
 20
0.0
 30
0.0
  0
VERTEX
  5
9DB
100
AcDbEntity
  8
ALPHA
  6
CONTINUOUS
 62
     7
100
AcDbVertex
100
AcDb2dVertex
 10
19.104256
 20
127.532404
 30
0.0
  0
VERTEX
  5
9DC
100
AcDbEntity
  8
ALPHA
  6
CONTINUOUS
 62
     7
100
AcDbVertex
100
AcDb2dVertex
 10
19.18923
 20
127.511754
 30
0.0
  0
VERTEX
  5
9DD
100
AcDbEntity
  8
ALPHA
  6
CONTINUOUS
 62
     7
100
AcDbVertex
100
AcDb2dVertex
 10
19.438539
 20
127.492707
 30
0.0
  0
VERTEX
  5
9DE
100
AcDbEntity
  8
ALPHA
  6
CONTINUOUS
 62
     7
100
AcDbVertex
100
AcDb2dVertex
 10
19.82816
 20
127.477009
 30
0.0
  0
VERTEX
  5
9DF
100
AcDbEntity
  8
ALPHA
  6
CONTINUOUS
 62
     7
100
AcDbVertex
100
AcDb2dVertex
 10
20.33396
 20
127.465664
 30
0.0
  0
VERTEX
  5
9E0
100
AcDbEntity
  8
ALPHA
  6
CONTINUOUS
 62
     7
100
AcDbVertex
100
AcDb2dVertex
 10
20.903465
 20
127.459827
 30
0.0
  0
VERTEX
  5
9E1
100
AcDbEntity
  8
ALPHA
  6
CONTINUOUS
 62
     7
100
AcDbVertex
100
AcDb2dVertex
 10
21.505047
 20
127.459827
 30
0.0
  0
VERTEX
  5
9E2
100
AcDbEntity
  8
ALPHA
  6
CONTINUOUS
 62
     7
100
AcDbVertex
100
AcDb2dVertex
 10
22.074552
 20
127.465664
 30
0.0
  0
VERTEX
  5
9E3
100
AcDbEntity
  8
ALPHA
  6
CONTINUOUS
 62
     7
100
AcDbVertex
100
AcDb2dVertex
 10
22.580352
 20
127.477009
 30
0.0
  0
VERTEX
  5
9E4
100
AcDbEntity
  8
ALPHA
  6
CONTINUOUS
 62
     7
100
AcDbVertex
100
AcDb2dVertex
 10
22.969973
 20
127.492707
 30
0.0
  0
VERTEX
  5
9E5
100
AcDbEntity
  8
ALPHA
  6
CONTINUOUS
 62
     7
100
AcDbVertex
100
AcDb2dVertex
 10
23.219282
 20
127.511754
 30
0.0
  0
VERTEX
  5
9E6
100
AcDbEntity
  8
ALPHA
  6
CONTINUOUS
 62
     7
100
AcDbVertex
100
AcDb2dVertex
 10
23.304256
 20
127.532404
 30
0.0
  0
SEQEND
  5
9E7
100
AcDbEntity
  8
ALPHA
 62
     7
  0
LINE
  5
9E8
100
AcDbEntity
  8
ALPHA
  6
CONTINUOUS
 62
     7
100
AcDbLine
 10
19.289256
 20
144.397802
 30
0.0
 11
19.289256
 21
139.097802
 31
0.0
  0
LINE
  5
9E9
100
AcDbEntity
  8
ALPHA
  6
CONTINUOUS
 62
     7
100
AcDbLine
 10
19.279256
 20
139.097802
 30
0.0
 11
19.279256
 21
144.397802
 31
0.0
  0
LINE
  5
9EA
100
AcDbEntity
  8
ALPHA
  6
CONTINUOUS
 62
     7
100
AcDbLine
 10
18.779256
 20
138.597802
 30
0.0
 11
18.779256
 21
144.897802
 31
0.0
  0
LINE
  5
9EB
100
AcDbEntity
  8
ALPHA
  6
CONTINUOUS
 62
     7
100
AcDbLine
 10
18.549256
 20
144.897802
 30
0.0
 11
18.549256
 21
138.597802
 31
0.0
  0
LINE
  5
9EC
100
AcDbEntity
  8
ALPHA
  6
CONTINUOUS
 62
     7
100
AcDbLine
 10
18.049256
 20
144.397802
 30
0.0
 11
18.049256
 21
139.097802
 31
0.0
  0
LINE
  5
9ED
100
AcDbEntity
  8
ALPHA
  6
CONTINUOUS
 62
     7
100
AcDbLine
 10
14.209256
 20
144.397802
 30
0.0
 11
14.209256
 21
139.097802
 31
0.0
  0
LINE
  5
9EE
100
AcDbEntity
  8
ALPHA
  6
CONTINUOUS
 62
     7
100
AcDbLine
 10
14.199256
 20
139.097802
 30
0.0
 11
14.199256
 21
144.397802
 31
0.0
  0
LINE
  5
9EF
100
AcDbEntity
  8
ALPHA
  6
CONTINUOUS
 62
     7
100
AcDbLine
 10
13.699256
 20
138.597802
 30
0.0
 11
13.699256
 21
144.897802
 31
0.0
  0
LINE
  5
9F0
100
AcDbEntity
  8
ALPHA
  6
CONTINUOUS
 62
     9
100
AcDbLine
 10
4.524256
 20
128.087508
 30
0.0
 11
4.524256
 21
148.297802
 31
0.0
  0
POLYLINE
  5
9F1
100
AcDbEntity
  8
ALPHA
  6
CONTINUOUS
 62
     7
100
AcDb2dPolyline
 66
     1
 10
0.0
 20
0.0
 30
0.0
  0
VERTEX
  5
9F2
100
AcDbEntity
  8
ALPHA
  6
CONTINUOUS
 62
     7
100
AcDbVertex
100
AcDb2dVertex
 10
4.204306
 20
127.879111
 30
0.0
  0
VERTEX
  5
9F3
100
AcDbEntity
  8
ALPHA
  6
CONTINUOUS
 62
     7
100
AcDbVertex
100
AcDb2dVertex
 10
4.308551
 20
127.94348
 30
0.0
  0
VERTEX
  5
9F4
100
AcDbEntity
  8
ALPHA
  6
CONTINUOUS
 62
     7
100
AcDbVertex
100
AcDb2dVertex
 10
4.415757
 20
128.014103
 30
0.0
  0
VERTEX
  5
9F5
100
AcDbEntity
  8
ALPHA
  6
CONTINUOUS
 62
     7
100
AcDbVertex
100
AcDb2dVertex
 10
4.524256
 20
128.087508
 30
0.0
  0
SEQEND
  5
9F6
100
AcDbEntity
  8
ALPHA
 62
     7
  0
POLYLINE
  5
9F7
100
AcDbEntity
  8
ALPHA
  6
CONTINUOUS
 62
     7
100
AcDb2dPolyline
 66
     1
 10
0.0
 20
0.0
 30
0.0
  0
VERTEX
  5
9F8
100
AcDbEntity
  8
ALPHA
  6
CONTINUOUS
 62
     7
100
AcDbVertex
100
AcDb2dVertex
 10
4.204306
 20
127.879111
 30
0.0
  0
VERTEX
  5
9F9
100
AcDbEntity
  8
ALPHA
  6
CONTINUOUS
 62
     7
100
AcDbVertex
100
AcDb2dVertex
 10
4.308551
 20
127.82953
 30
0.0
  0
VERTEX
  5
9FA
100
AcDbEntity
  8
ALPHA
  6
CONTINUOUS
 62
     7
100
AcDbVertex
100
AcDb2dVertex
 10
4.415757
 20
127.799367
 30
0.0
  0
VERTEX
  5
9FB
100
AcDbEntity
  8
ALPHA
  6
CONTINUOUS
 62
     7
100
AcDbVertex
100
AcDb2dVertex
 10
4.524256
 20
127.787691
 30
0.0
  0
SEQEND
  5
9FC
100
AcDbEntity
  8
ALPHA
 62
     7
  0
POLYLINE
  5
9FD
100
AcDbEntity
  8
ALPHA
  6
CONTINUOUS
 62
     7
100
AcDb2dPolyline
 66
     1
 10
0.0
 20
0.0
 30
0.0
  0
VERTEX
  5
9FE
100
AcDbEntity
  8
ALPHA
  6
CONTINUOUS
 62
     7
100
AcDbVertex
100
AcDb2dVertex
 10
3.908679
 20
128.223937
 30
0.0
  0
VERTEX
  5
9FF
100
AcDbEntity
  8
ALPHA
  6
CONTINUOUS
 62
     7
100
AcDbVertex
100
AcDb2dVertex
 10
4.015569
 20
128.034739
 30
0.0
  0
VERTEX
  5
A00
100
AcDbEntity
  8
ALPHA
  6
CONTINUOUS
 62
     7
100
AcDbVertex
100
AcDb2dVertex
 10
4.204306
 20
127.879111
 30
0.0
  0
SEQEND
  5
A01
100
AcDbEntity
  8
ALPHA
 62
     7
  0
POLYLINE
  5
A02
100
AcDbEntity
  8
ALPHA
  6
CONTINUOUS
 62
     7
100
AcDb2dPolyline
 66
     1
 10
0.0
 20
0.0
 30
0.0
  0
VERTEX
  5
A03
100
AcDbEntity
  8
ALPHA
  6
CONTINUOUS
 62
     7
100
AcDbVertex
100
AcDb2dVertex
 10
3.874256
 20
128.041371
 30
0.0
  0
VERTEX
  5
A04
100
AcDbEntity
  8
ALPHA
  6
CONTINUOUS
 62
     7
100
AcDbVertex
100
AcDb2dVertex
 10
3.890051
 20
127.903836
 30
0.0
  0
VERTEX
  5
A05
100
AcDbEntity
  8
ALPHA
  6
CONTINUOUS
 62
     7
100
AcDbVertex
100
AcDb2dVertex
 10
3.939961
 20
127.766364
 30
0.0
  0
VERTEX
  5
A06
100
AcDbEntity
  8
ALPHA
  6
CONTINUOUS
 62
     7
100
AcDbVertex
100
AcDb2dVertex
 10
4.026485
 20
127.637714
 30
0.0
  0
VERTEX
  5
A07
100
AcDbEntity
  8
ALPHA
  6
CONTINUOUS
 62
     7
100
AcDbVertex
100
AcDb2dVertex
 10
4.151777
 20
127.526958
 30
0.0
  0
VERTEX
  5
A08
100
AcDbEntity
  8
ALPHA
  6
CONTINUOUS
 62
     7
100
AcDbVertex
100
AcDb2dVertex
 10
4.317926
 20
127.446137
 30
0.0
  0
VERTEX
  5
A09
100
AcDbEntity
  8
ALPHA
  6
CONTINUOUS
 62
     7
100
AcDbVertex
100
AcDb2dVertex
 10
4.524256
 20
127.413673
 30
0.0
  0
SEQEND
  5
A0A
100
AcDbEntity
  8
ALPHA
 62
     7
  0
LINE
  5
A0B
100
AcDbEntity
  8
ALPHA
  6
CONTINUOUS
 62
     7
100
AcDbLine
 10
3.874256
 20
128.4255
 30
0.0
 11
3.908679
 21
128.223937
 31
0.0
  0
ARC
  5
A0C
100
AcDbEntity
  8
ALPHA
  6
CONTINUOUS
 62
     9
100
AcDbCircle
 10
13.474256
 20
124.687006
 30
0.0
 40
0.499994
100
AcDbArc
 50
15.792242
 51
164.207758
  0
ARC
  5
A0D
100
AcDbEntity
  8
ALPHA
  6
CONTINUOUS
 62
     7
100
AcDbCircle
 10
13.474256
 20
124.687006
 30
0.0
 40
0.3
100
AcDbArc
 50
15.792242
 51
164.207758
  0
ARC
  5
A0E
100
AcDbEntity
  8
ALPHA
  6
CONTINUOUS
 62
     9
100
AcDbCircle
 10
9.474256
 20
124.687006
 30
0.0
 40
0.499994
100
AcDbArc
 50
15.792242
 51
164.207758
  0
ARC
  5
A0F
100
AcDbEntity
  8
ALPHA
  6
CONTINUOUS
 62
     7
100
AcDbCircle
 10
9.474256
 20
124.687006
 30
0.0
 40
0.3
100
AcDbArc
 50
15.792242
 51
164.207758
  0
LINE
  5
A10
100
AcDbEntity
  8
ALPHA
  6
CONTINUOUS
 62
     9
100
AcDbLine
 10
9.955383
 20
124.823081
 30
0.0
 11
9.762932
 21
124.768651
 31
0.0
  0
LINE
  5
A11
100
AcDbEntity
  8
ALPHA
  6
CONTINUOUS
 62
     9
100
AcDbLine
 10
8.993129
 20
124.823081
 30
0.0
 11
9.18558
 21
124.768651
 31
0.0
  0
LINE
  5
A12
100
AcDbEntity
  8
ALPHA
  6
CONTINUOUS
 62
     9
100
AcDbLine
 10
12.993129
 20
124.823081
 30
0.0
 11
13.18558
 21
124.768651
 31
0.0
  0
LINE
  5
A13
100
AcDbEntity
  8
ALPHA
  6
CONTINUOUS
 62
     9
100
AcDbLine
 10
13.955383
 20
124.823081
 30
0.0
 11
13.762932
 21
124.768651
 31
0.0
  0
ARC
  5
A14
100
AcDbEntity
  8
ALPHA
  6
CONTINUOUS
 62
     9
100
AcDbCircle
 10
17.474256
 20
124.687006
 30
0.0
 40
0.499994
100
AcDbArc
 50
15.792242
 51
164.207758
  0
ARC
  5
A15
100
AcDbEntity
  8
ALPHA
  6
CONTINUOUS
 62
     7
100
AcDbCircle
 10
17.474256
 20
124.687006
 30
0.0
 40
0.3
100
AcDbArc
 50
15.792242
 51
164.207758
  0
LINE
  5
A16
100
AcDbEntity
  8
ALPHA
  6
CONTINUOUS
 62
     9
100
AcDbLine
 10
17.955383
 20
124.823081
 30
0.0
 11
17.762932
 21
124.768651
 31
0.0
  0
LINE
  5
A17
100
AcDbEntity
  8
ALPHA
  6
CONTINUOUS
 62
     9
100
AcDbLine
 10
16.993129
 20
124.823081
 30
0.0
 11
17.18558
 21
124.768651
 31
0.0
  0
POLYLINE
  5
A18
100
AcDbEntity
  8
ALPHA
  6
CONTINUOUS
 62
     7
100
AcDb2dPolyline
 66
     1
 10
0.0
 20
0.0
 30
0.0
  0
VERTEX
  5
A19
100
AcDbEntity
  8
ALPHA
  6
CONTINUOUS
 62
     7
100
AcDbVertex
100
AcDb2dVertex
 10
18.224256
 20
127.532404
 30
0.0
  0
VERTEX
  5
A1A
100
AcDbEntity
  8
ALPHA
  6
CONTINUOUS
 62
     7
100
AcDbVertex
100
AcDb2dVertex
 10
18.139282
 20
127.553054
 30
0.0
  0
VERTEX
  5
A1B
100
AcDbEntity
  8
ALPHA
  6
CONTINUOUS
 62
     7
100
AcDbVertex
100
AcDb2dVertex
 10
17.889973
 20
127.572101
 30
0.0
  0
VERTEX
  5
A1C
100
AcDbEntity
  8
ALPHA
  6
CONTINUOUS
 62
     7
100
AcDbVertex
100
AcDb2dVertex
 10
17.500352
 20
127.587799
 30
0.0
  0
VERTEX
  5
A1D
100
AcDbEntity
  8
ALPHA
  6
CONTINUOUS
 62
     7
100
AcDbVertex
100
AcDb2dVertex
 10
16.994552
 20
127.599144
 30
0.0
  0
VERTEX
  5
A1E
100
AcDbEntity
  8
ALPHA
  6
CONTINUOUS
 62
     7
100
AcDbVertex
100
AcDb2dVertex
 10
16.425047
 20
127.604981
 30
0.0
  0
VERTEX
  5
A1F
100
AcDbEntity
  8
ALPHA
  6
CONTINUOUS
 62
     7
100
AcDbVertex
100
AcDb2dVertex
 10
15.823465
 20
127.604981
 30
0.0
  0
VERTEX
  5
A20
100
AcDbEntity
  8
ALPHA
  6
CONTINUOUS
 62
     7
100
AcDbVertex
100
AcDb2dVertex
 10
15.25396
 20
127.599144
 30
0.0
  0
VERTEX
  5
A21
100
AcDbEntity
  8
ALPHA
  6
CONTINUOUS
 62
     7
100
AcDbVertex
100
AcDb2dVertex
 10
14.74816
 20
127.587799
 30
0.0
  0
VERTEX
  5
A22
100
AcDbEntity
  8
ALPHA
  6
CONTINUOUS
 62
     7
100
AcDbVertex
100
AcDb2dVertex
 10
14.358539
 20
127.572101
 30
0.0
  0
VERTEX
  5
A23
100
AcDbEntity
  8
ALPHA
  6
CONTINUOUS
 62
     7
100
AcDbVertex
100
AcDb2dVertex
 10
14.10923
 20
127.553054
 30
0.0
  0
VERTEX
  5
A24
100
AcDbEntity
  8
ALPHA
  6
CONTINUOUS
 62
     7
100
AcDbVertex
100
AcDb2dVertex
 10
14.024256
 20
127.532404
 30
0.0
  0
SEQEND
  5
A25
100
AcDbEntity
  8
ALPHA
 62
     7
  0
POLYLINE
  5
A26
100
AcDbEntity
  8
ALPHA
  6
CONTINUOUS
 62
     7
100
AcDb2dPolyline
 66
     1
 10
0.0
 20
0.0
 30
0.0
  0
VERTEX
  5
A27
100
AcDbEntity
  8
ALPHA
  6
CONTINUOUS
 62
     7
100
AcDbVertex
100
AcDb2dVertex
 10
14.024256
 20
127.532404
 30
0.0
  0
VERTEX
  5
A28
100
AcDbEntity
  8
ALPHA
  6
CONTINUOUS
 62
     7
100
AcDbVertex
100
AcDb2dVertex
 10
14.10923
 20
127.511754
 30
0.0
  0
VERTEX
  5
A29
100
AcDbEntity
  8
ALPHA
  6
CONTINUOUS
 62
     7
100
AcDbVertex
100
AcDb2dVertex
 10
14.358539
 20
127.492707
 30
0.0
  0
VERTEX
  5
A2A
100
AcDbEntity
  8
ALPHA
  6
CONTINUOUS
 62
     7
100
AcDbVertex
100
AcDb2dVertex
 10
14.74816
 20
127.477009
 30
0.0
  0
VERTEX
  5
A2B
100
AcDbEntity
  8
ALPHA
  6
CONTINUOUS
 62
     7
100
AcDbVertex
100
AcDb2dVertex
 10
15.25396
 20
127.465664
 30
0.0
  0
VERTEX
  5
A2C
100
AcDbEntity
  8
ALPHA
  6
CONTINUOUS
 62
     7
100
AcDbVertex
100
AcDb2dVertex
 10
15.823465
 20
127.459827
 30
0.0
  0
VERTEX
  5
A2D
100
AcDbEntity
  8
ALPHA
  6
CONTINUOUS
 62
     7
100
AcDbVertex
100
AcDb2dVertex
 10
16.425047
 20
127.459827
 30
0.0
  0
VERTEX
  5
A2E
100
AcDbEntity
  8
ALPHA
  6
CONTINUOUS
 62
     7
100
AcDbVertex
100
AcDb2dVertex
 10
16.994552
 20
127.465664
 30
0.0
  0
VERTEX
  5
A2F
100
AcDbEntity
  8
ALPHA
  6
CONTINUOUS
 62
     7
100
AcDbVertex
100
AcDb2dVertex
 10
17.500352
 20
127.477009
 30
0.0
  0
VERTEX
  5
A30
100
AcDbEntity
  8
ALPHA
  6
CONTINUOUS
 62
     7
100
AcDbVertex
100
AcDb2dVertex
 10
17.889973
 20
127.492707
 30
0.0
  0
VERTEX
  5
A31
100
AcDbEntity
  8
ALPHA
  6
CONTINUOUS
 62
     7
100
AcDbVertex
100
AcDb2dVertex
 10
18.139282
 20
127.511754
 30
0.0
  0
VERTEX
  5
A32
100
AcDbEntity
  8
ALPHA
  6
CONTINUOUS
 62
     7
100
AcDbVertex
100
AcDb2dVertex
 10
18.224256
 20
127.532404
 30
0.0
  0
SEQEND
  5
A33
100
AcDbEntity
  8
ALPHA
 62
     7
  0
LINE
  5
A34
100
AcDbEntity
  8
ALPHA
  6
CONTINUOUS
 62
     7
100
AcDbLine
 10
18.549256
 20
138.597802
 30
0.0
 11
13.699256
 21
138.597802
 31
0.0
  0
LINE
  5
A35
100
AcDbEntity
  8
ALPHA
  6
CONTINUOUS
 62
     7
100
AcDbLine
 10
13.699256
 20
138.597802
 30
0.0
 11
14.199256
 21
139.097802
 31
0.0
  0
LINE
  5
A36
100
AcDbEntity
  8
ALPHA
  6
CONTINUOUS
 62
     7
100
AcDbLine
 10
18.049256
 20
139.097802
 30
0.0
 11
14.199256
 21
139.097802
 31
0.0
  0
LINE
  5
A37
100
AcDbEntity
  8
ALPHA
  6
CONTINUOUS
 62
     7
100
AcDbLine
 10
18.549256
 20
138.597802
 30
0.0
 11
18.049256
 21
139.097802
 31
0.0
  0
LINE
  5
A38
100
AcDbEntity
  8
ALPHA
  6
CONTINUOUS
 62
     7
100
AcDbLine
 10
18.779256
 20
138.597802
 30
0.0
 11
19.279256
 21
139.097802
 31
0.0
  0
LINE
  5
A39
100
AcDbEntity
  8
ALPHA
  6
CONTINUOUS
 62
     7
100
AcDbLine
 10
14.074256
 20
155.797802
 30
0.0
 11
5.074256
 21
155.797802
 31
0.0
  0
LINE
  5
A3A
100
AcDbEntity
  8
ALPHA
  6
CONTINUOUS
 62
     7
100
AcDbLine
 10
3.674256
 20
152.247802
 30
0.0
 11
3.674256
 21
151.133443
 31
0.0
  0
LINE
  5
A3B
100
AcDbEntity
  8
ALPHA
  6
CONTINUOUS
 62
     7
100
AcDbLine
 10
3.674256
 20
151.133443
 30
0.0
 11
3.874256
 21
150.787032
 31
0.0
  0
LINE
  5
A3C
100
AcDbEntity
  8
ALPHA
  6
CONTINUOUS
 62
     7
100
AcDbLine
 10
4.674256
 20
148.797802
 30
0.0
 11
4.674256
 21
148.297802
 31
0.0
  0
LINE
  5
A3D
100
AcDbEntity
  8
ALPHA
  6
CONTINUOUS
 62
     7
100
AcDbLine
 10
4.574256
 20
148.297802
 30
0.0
 11
4.574256
 21
148.797802
 31
0.0
  0
LINE
  5
A3E
100
AcDbEntity
  8
ALPHA
  6
CONTINUOUS
 62
     7
100
AcDbLine
 10
3.874256
 20
152.247802
 30
0.0
 11
3.674256
 21
152.247802
 31
0.0
  0
LINE
  5
A3F
100
AcDbEntity
  8
ALPHA
  6
CONTINUOUS
 62
     7
100
AcDbLine
 10
13.699256
 20
144.897802
 30
0.0
 11
18.549256
 21
144.897802
 31
0.0
  0
LINE
  5
A40
100
AcDbEntity
  8
ALPHA
  6
CONTINUOUS
 62
     7
100
AcDbLine
 10
13.699256
 20
144.897802
 30
0.0
 11
14.199256
 21
144.397802
 31
0.0
  0
LINE
  5
A41
100
AcDbEntity
  8
ALPHA
  6
CONTINUOUS
 62
     7
100
AcDbLine
 10
14.199256
 20
144.397802
 30
0.0
 11
18.049256
 21
144.397802
 31
0.0
  0
LINE
  5
A42
100
AcDbEntity
  8
ALPHA
  6
CONTINUOUS
 62
     7
100
AcDbLine
 10
18.779256
 20
144.897802
 30
0.0
 11
19.279256
 21
144.397802
 31
0.0
  0
LINE
  5
A43
100
AcDbEntity
  8
ALPHA
  6
CONTINUOUS
 62
     7
100
AcDbLine
 10
18.549256
 20
144.897802
 30
0.0
 11
18.049256
 21
144.397802
 31
0.0
  0
LINE
  5
A44
100
AcDbEntity
  8
ALPHA
  6
CONTINUOUS
 62
     9
100
AcDbLine
 10
13.874256
 20
155.997802
 30
0.0
 11
14.074256
 21
155.997802
 31
0.0
  0
LINE
  5
A45
100
AcDbEntity
  8
ALPHA
  6
CONTINUOUS
 62
     7
100
AcDbLine
 10
39.609256
 20
144.397802
 30
0.0
 11
39.609256
 21
139.097802
 31
0.0
  0
LINE
  5
A46
100
AcDbEntity
  8
ALPHA
  6
CONTINUOUS
 62
     7
100
AcDbLine
 10
39.599256
 20
144.397802
 30
0.0
 11
39.599256
 21
139.097802
 31
0.0
  0
LINE
  5
A47
100
AcDbEntity
  8
ALPHA
  6
CONTINUOUS
 62
     7
100
AcDbLine
 10
39.099256
 20
144.897802
 30
0.0
 11
39.099256
 21
138.597802
 31
0.0
  0
LINE
  5
A48
100
AcDbEntity
  8
ALPHA
  6
CONTINUOUS
 62
     7
100
AcDbLine
 10
38.869256
 20
138.597802
 30
0.0
 11
38.869256
 21
144.897802
 31
0.0
  0
LINE
  5
A49
100
AcDbEntity
  8
ALPHA
  6
CONTINUOUS
 62
     7
100
AcDbLine
 10
38.369256
 20
139.097802
 30
0.0
 11
38.369256
 21
144.397802
 31
0.0
  0
LINE
  5
A4A
100
AcDbEntity
  8
ALPHA
  6
CONTINUOUS
 62
     7
100
AcDbLine
 10
34.529256
 20
144.397802
 30
0.0
 11
34.529256
 21
139.097802
 31
0.0
  0
LINE
  5
A4B
100
AcDbEntity
  8
ALPHA
  6
CONTINUOUS
 62
     7
100
AcDbLine
 10
34.519256
 20
144.397802
 30
0.0
 11
34.519256
 21
139.097802
 31
0.0
  0
LINE
  5
A4C
100
AcDbEntity
  8
ALPHA
  6
CONTINUOUS
 62
     7
100
AcDbLine
 10
34.019256
 20
144.897802
 30
0.0
 11
34.019256
 21
138.597802
 31
0.0
  0
LINE
  5
A4D
100
AcDbEntity
  8
ALPHA
  6
CONTINUOUS
 62
     7
100
AcDbLine
 10
33.789256
 20
138.597802
 30
0.0
 11
33.789256
 21
144.897802
 31
0.0
  0
LINE
  5
A4E
100
AcDbEntity
  8
ALPHA
  6
CONTINUOUS
 62
     7
100
AcDbLine
 10
33.289256
 20
139.097802
 30
0.0
 11
33.289256
 21
144.397802
 31
0.0
  0
LINE
  5
A4F
100
AcDbEntity
  8
ALPHA
  6
CONTINUOUS
 62
     7
100
AcDbLine
 10
29.449256
 20
144.397802
 30
0.0
 11
29.449256
 21
139.097802
 31
0.0
  0
LINE
  5
A50
100
AcDbEntity
  8
ALPHA
  6
CONTINUOUS
 62
     7
100
AcDbLine
 10
29.439256
 20
144.397802
 30
0.0
 11
29.439256
 21
139.097802
 31
0.0
  0
LINE
  5
A51
100
AcDbEntity
  8
ALPHA
  6
CONTINUOUS
 62
     7
100
AcDbLine
 10
28.939256
 20
144.897802
 30
0.0
 11
28.939256
 21
138.597802
 31
0.0
  0
LINE
  5
A52
100
AcDbEntity
  8
ALPHA
  6
CONTINUOUS
 62
     7
100
AcDbLine
 10
23.629256
 20
144.897802
 30
0.0
 11
23.629256
 21
138.597802
 31
0.0
  0
LINE
  5
A53
100
AcDbEntity
  8
ALPHA
  6
CONTINUOUS
 62
     7
100
AcDbLine
 10
23.129256
 20
144.397802
 30
0.0
 11
23.129256
 21
139.097802
 31
0.0
  0
LINE
  5
A54
100
AcDbEntity
  8
ALPHA
  6
CONTINUOUS
 62
     7
100
AcDbLine
 10
29.439256
 20
139.097802
 30
0.0
 11
33.289256
 21
139.097802
 31
0.0
  0
LINE
  5
A55
100
AcDbEntity
  8
ALPHA
  6
CONTINUOUS
 62
     7
100
AcDbLine
 10
28.939256
 20
138.597802
 30
0.0
 11
33.789256
 21
138.597802
 31
0.0
  0
POLYLINE
  5
A56
100
AcDbEntity
  8
ALPHA
  6
CONTINUOUS
 62
     7
100
AcDb2dPolyline
 66
     1
 10
0.0
 20
0.0
 30
0.0
  0
VERTEX
  5
A57
100
AcDbEntity
  8
ALPHA
  6
CONTINUOUS
 62
     7
100
AcDbVertex
100
AcDb2dVertex
 10
33.464256
 20
127.532404
 30
0.0
  0
VERTEX
  5
A58
100
AcDbEntity
  8
ALPHA
  6
CONTINUOUS
 62
     7
100
AcDbVertex
100
AcDb2dVertex
 10
33.379282
 20
127.553054
 30
0.0
  0
VERTEX
  5
A59
100
AcDbEntity
  8
ALPHA
  6
CONTINUOUS
 62
     7
100
AcDbVertex
100
AcDb2dVertex
 10
33.129973
 20
127.572101
 30
0.0
  0
VERTEX
  5
A5A
100
AcDbEntity
  8
ALPHA
  6
CONTINUOUS
 62
     7
100
AcDbVertex
100
AcDb2dVertex
 10
32.740352
 20
127.587799
 30
0.0
  0
VERTEX
  5
A5B
100
AcDbEntity
  8
ALPHA
  6
CONTINUOUS
 62
     7
100
AcDbVertex
100
AcDb2dVertex
 10
32.234552
 20
127.599144
 30
0.0
  0
VERTEX
  5
A5C
100
AcDbEntity
  8
ALPHA
  6
CONTINUOUS
 62
     7
100
AcDbVertex
100
AcDb2dVertex
 10
31.665047
 20
127.604981
 30
0.0
  0
VERTEX
  5
A5D
100
AcDbEntity
  8
ALPHA
  6
CONTINUOUS
 62
     7
100
AcDbVertex
100
AcDb2dVertex
 10
31.063465
 20
127.604981
 30
0.0
  0
VERTEX
  5
A5E
100
AcDbEntity
  8
ALPHA
  6
CONTINUOUS
 62
     7
100
AcDbVertex
100
AcDb2dVertex
 10
30.49396
 20
127.599144
 30
0.0
  0
VERTEX
  5
A5F
100
AcDbEntity
  8
ALPHA
  6
CONTINUOUS
 62
     7
100
AcDbVertex
100
AcDb2dVertex
 10
29.98816
 20
127.587799
 30
0.0
  0
VERTEX
  5
A60
100
AcDbEntity
  8
ALPHA
  6
CONTINUOUS
 62
     7
100
AcDbVertex
100
AcDb2dVertex
 10
29.598539
 20
127.572101
 30
0.0
  0
VERTEX
  5
A61
100
AcDbEntity
  8
ALPHA
  6
CONTINUOUS
 62
     7
100
AcDbVertex
100
AcDb2dVertex
 10
29.34923
 20
127.553054
 30
0.0
  0
VERTEX
  5
A62
100
AcDbEntity
  8
ALPHA
  6
CONTINUOUS
 62
     7
100
AcDbVertex
100
AcDb2dVertex
 10
29.264256
 20
127.532404
 30
0.0
  0
SEQEND
  5
A63
100
AcDbEntity
  8
ALPHA
 62
     7
  0
POLYLINE
  5
A64
100
AcDbEntity
  8
ALPHA
  6
CONTINUOUS
 62
     7
100
AcDb2dPolyline
 66
     1
 10
0.0
 20
0.0
 30
0.0
  0
VERTEX
  5
A65
100
AcDbEntity
  8
ALPHA
  6
CONTINUOUS
 62
     7
100
AcDbVertex
100
AcDb2dVertex
 10
29.264256
 20
127.532404
 30
0.0
  0
VERTEX
  5
A66
100
AcDbEntity
  8
ALPHA
  6
CONTINUOUS
 62
     7
100
AcDbVertex
100
AcDb2dVertex
 10
29.34923
 20
127.511754
 30
0.0
  0
VERTEX
  5
A67
100
AcDbEntity
  8
ALPHA
  6
CONTINUOUS
 62
     7
100
AcDbVertex
100
AcDb2dVertex
 10
29.598539
 20
127.492707
 30
0.0
  0
VERTEX
  5
A68
100
AcDbEntity
  8
ALPHA
  6
CONTINUOUS
 62
     7
100
AcDbVertex
100
AcDb2dVertex
 10
29.98816
 20
127.477009
 30
0.0
  0
VERTEX
  5
A69
100
AcDbEntity
  8
ALPHA
  6
CONTINUOUS
 62
     7
100
AcDbVertex
100
AcDb2dVertex
 10
30.49396
 20
127.465664
 30
0.0
  0
VERTEX
  5
A6A
100
AcDbEntity
  8
ALPHA
  6
CONTINUOUS
 62
     7
100
AcDbVertex
100
AcDb2dVertex
 10
31.063465
 20
127.459827
 30
0.0
  0
VERTEX
  5
A6B
100
AcDbEntity
  8
ALPHA
  6
CONTINUOUS
 62
     7
100
AcDbVertex
100
AcDb2dVertex
 10
31.665047
 20
127.459827
 30
0.0
  0
VERTEX
  5
A6C
100
AcDbEntity
  8
ALPHA
  6
CONTINUOUS
 62
     7
100
AcDbVertex
100
AcDb2dVertex
 10
32.234552
 20
127.465664
 30
0.0
  0
VERTEX
  5
A6D
100
AcDbEntity
  8
ALPHA
  6
CONTINUOUS
 62
     7
100
AcDbVertex
100
AcDb2dVertex
 10
32.740352
 20
127.477009
 30
0.0
  0
VERTEX
  5
A6E
100
AcDbEntity
  8
ALPHA
  6
CONTINUOUS
 62
     7
100
AcDbVertex
100
AcDb2dVertex
 10
33.129973
 20
127.492707
 30
0.0
  0
VERTEX
  5
A6F
100
AcDbEntity
  8
ALPHA
  6
CONTINUOUS
 62
     7
100
AcDbVertex
100
AcDb2dVertex
 10
33.379282
 20
127.511754
 30
0.0
  0
VERTEX
  5
A70
100
AcDbEntity
  8
ALPHA
  6
CONTINUOUS
 62
     7
100
AcDbVertex
100
AcDb2dVertex
 10
33.464256
 20
127.532404
 30
0.0
  0
SEQEND
  5
A71
100
AcDbEntity
  8
ALPHA
 62
     7
  0
ARC
  5
A72
100
AcDbEntity
  8
ALPHA
  6
CONTINUOUS
 62
     9
100
AcDbCircle
 10
25.474256
 20
124.687006
 30
0.0
 40
0.499994
100
AcDbArc
 50
15.792242
 51
164.207758
  0
ARC
  5
A73
100
AcDbEntity
  8
ALPHA
  6
CONTINUOUS
 62
     7
100
AcDbCircle
 10
25.474256
 20
124.687006
 30
0.0
 40
0.3
100
AcDbArc
 50
15.792242
 51
164.207758
  0
ARC
  5
A74
100
AcDbEntity
  8
ALPHA
  6
CONTINUOUS
 62
     9
100
AcDbCircle
 10
21.474256
 20
124.687006
 30
0.0
 40
0.499994
100
AcDbArc
 50
15.792242
 51
164.207758
  0
ARC
  5
A75
100
AcDbEntity
  8
ALPHA
  6
CONTINUOUS
 62
     7
100
AcDbCircle
 10
21.474256
 20
124.687006
 30
0.0
 40
0.3
100
AcDbArc
 50
15.792242
 51
164.207758
  0
LINE
  5
A76
100
AcDbEntity
  8
ALPHA
  6
CONTINUOUS
 62
     9
100
AcDbLine
 10
21.955383
 20
124.823081
 30
0.0
 11
21.762932
 21
124.768651
 31
0.0
  0
LINE
  5
A77
100
AcDbEntity
  8
ALPHA
  6
CONTINUOUS
 62
     9
100
AcDbLine
 10
20.993129
 20
124.823081
 30
0.0
 11
21.18558
 21
124.768651
 31
0.0
  0
LINE
  5
A78
100
AcDbEntity
  8
ALPHA
  6
CONTINUOUS
 62
     9
100
AcDbLine
 10
24.993129
 20
124.823081
 30
0.0
 11
25.18558
 21
124.768651
 31
0.0
  0
LINE
  5
A79
100
AcDbEntity
  8
ALPHA
  6
CONTINUOUS
 62
     9
100
AcDbLine
 10
25.955383
 20
124.823081
 30
0.0
 11
25.762932
 21
124.768651
 31
0.0
  0
ARC
  5
A7A
100
AcDbEntity
  8
ALPHA
  6
CONTINUOUS
 62
     9
100
AcDbCircle
 10
29.474256
 20
124.687006
 30
0.0
 40
0.499994
100
AcDbArc
 50
15.792242
 51
164.207758
  0
ARC
  5
A7B
100
AcDbEntity
  8
ALPHA
  6
CONTINUOUS
 62
     7
100
AcDbCircle
 10
29.474256
 20
124.687006
 30
0.0
 40
0.3
100
AcDbArc
 50
15.792242
 51
164.207758
  0
LINE
  5
A7C
100
AcDbEntity
  8
ALPHA
  6
CONTINUOUS
 62
     9
100
AcDbLine
 10
29.955383
 20
124.823081
 30
0.0
 11
29.762932
 21
124.768651
 31
0.0
  0
LINE
  5
A7D
100
AcDbEntity
  8
ALPHA
  6
CONTINUOUS
 62
     9
100
AcDbLine
 10
28.993129
 20
124.823081
 30
0.0
 11
29.18558
 21
124.768651
 31
0.0
  0
LINE
  5
A7E
100
AcDbEntity
  8
ALPHA
  6
CONTINUOUS
 62
     7
100
AcDbLine
 10
23.629256
 20
138.597802
 30
0.0
 11
23.129256
 21
139.097802
 31
0.0
  0
LINE
  5
A7F
100
AcDbEntity
  8
ALPHA
  6
CONTINUOUS
 62
     7
100
AcDbLine
 10
28.939256
 20
138.597802
 30
0.0
 11
29.439256
 21
139.097802
 31
0.0
  0
POLYLINE
  5
A80
100
AcDbEntity
  8
ALPHA
  6
CONTINUOUS
 62
     7
100
AcDb2dPolyline
 66
     1
 10
0.0
 20
0.0
 30
0.0
  0
VERTEX
  5
A81
100
AcDbEntity
  8
ALPHA
  6
CONTINUOUS
 62
     7
100
AcDbVertex
100
AcDb2dVertex
 10
38.544256
 20
127.532404
 30
0.0
  0
VERTEX
  5
A82
100
AcDbEntity
  8
ALPHA
  6
CONTINUOUS
 62
     7
100
AcDbVertex
100
AcDb2dVertex
 10
38.459282
 20
127.553054
 30
0.0
  0
VERTEX
  5
A83
100
AcDbEntity
  8
ALPHA
  6
CONTINUOUS
 62
     7
100
AcDbVertex
100
AcDb2dVertex
 10
38.209973
 20
127.572101
 30
0.0
  0
VERTEX
  5
A84
100
AcDbEntity
  8
ALPHA
  6
CONTINUOUS
 62
     7
100
AcDbVertex
100
AcDb2dVertex
 10
37.820352
 20
127.587799
 30
0.0
  0
VERTEX
  5
A85
100
AcDbEntity
  8
ALPHA
  6
CONTINUOUS
 62
     7
100
AcDbVertex
100
AcDb2dVertex
 10
37.314552
 20
127.599144
 30
0.0
  0
VERTEX
  5
A86
100
AcDbEntity
  8
ALPHA
  6
CONTINUOUS
 62
     7
100
AcDbVertex
100
AcDb2dVertex
 10
36.745047
 20
127.604981
 30
0.0
  0
VERTEX
  5
A87
100
AcDbEntity
  8
ALPHA
  6
CONTINUOUS
 62
     7
100
AcDbVertex
100
AcDb2dVertex
 10
36.143465
 20
127.604981
 30
0.0
  0
VERTEX
  5
A88
100
AcDbEntity
  8
ALPHA
  6
CONTINUOUS
 62
     7
100
AcDbVertex
100
AcDb2dVertex
 10
35.57396
 20
127.599144
 30
0.0
  0
VERTEX
  5
A89
100
AcDbEntity
  8
ALPHA
  6
CONTINUOUS
 62
     7
100
AcDbVertex
100
AcDb2dVertex
 10
35.06816
 20
127.587799
 30
0.0
  0
VERTEX
  5
A8A
100
AcDbEntity
  8
ALPHA
  6
CONTINUOUS
 62
     7
100
AcDbVertex
100
AcDb2dVertex
 10
34.678539
 20
127.572101
 30
0.0
  0
VERTEX
  5
A8B
100
AcDbEntity
  8
ALPHA
  6
CONTINUOUS
 62
     7
100
AcDbVertex
100
AcDb2dVertex
 10
34.42923
 20
127.553054
 30
0.0
  0
VERTEX
  5
A8C
100
AcDbEntity
  8
ALPHA
  6
CONTINUOUS
 62
     7
100
AcDbVertex
100
AcDb2dVertex
 10
34.344256
 20
127.532404
 30
0.0
  0
SEQEND
  5
A8D
100
AcDbEntity
  8
ALPHA
 62
     7
  0
POLYLINE
  5
A8E
100
AcDbEntity
  8
ALPHA
  6
CONTINUOUS
 62
     7
100
AcDb2dPolyline
 66
     1
 10
0.0
 20
0.0
 30
0.0
  0
VERTEX
  5
A8F
100
AcDbEntity
  8
ALPHA
  6
CONTINUOUS
 62
     7
100
AcDbVertex
100
AcDb2dVertex
 10
34.344256
 20
127.532404
 30
0.0
  0
VERTEX
  5
A90
100
AcDbEntity
  8
ALPHA
  6
CONTINUOUS
 62
     7
100
AcDbVertex
100
AcDb2dVertex
 10
34.42923
 20
127.511754
 30
0.0
  0
VERTEX
  5
A91
100
AcDbEntity
  8
ALPHA
  6
CONTINUOUS
 62
     7
100
AcDbVertex
100
AcDb2dVertex
 10
34.678539
 20
127.492707
 30
0.0
  0
VERTEX
  5
A92
100
AcDbEntity
  8
ALPHA
  6
CONTINUOUS
 62
     7
100
AcDbVertex
100
AcDb2dVertex
 10
35.06816
 20
127.477009
 30
0.0
  0
VERTEX
  5
A93
100
AcDbEntity
  8
ALPHA
  6
CONTINUOUS
 62
     7
100
AcDbVertex
100
AcDb2dVertex
 10
35.57396
 20
127.465664
 30
0.0
  0
VERTEX
  5
A94
100
AcDbEntity
  8
ALPHA
  6
CONTINUOUS
 62
     7
100
AcDbVertex
100
AcDb2dVertex
 10
36.143465
 20
127.459827
 30
0.0
  0
VERTEX
  5
A95
100
AcDbEntity
  8
ALPHA
  6
CONTINUOUS
 62
     7
100
AcDbVertex
100
AcDb2dVertex
 10
36.745047
 20
127.459827
 30
0.0
  0
VERTEX
  5
A96
100
AcDbEntity
  8
ALPHA
  6
CONTINUOUS
 62
     7
100
AcDbVertex
100
AcDb2dVertex
 10
37.314552
 20
127.465664
 30
0.0
  0
VERTEX
  5
A97
100
AcDbEntity
  8
ALPHA
  6
CONTINUOUS
 62
     7
100
AcDbVertex
100
AcDb2dVertex
 10
37.820352
 20
127.477009
 30
0.0
  0
VERTEX
  5
A98
100
AcDbEntity
  8
ALPHA
  6
CONTINUOUS
 62
     7
100
AcDbVertex
100
AcDb2dVertex
 10
38.209973
 20
127.492707
 30
0.0
  0
VERTEX
  5
A99
100
AcDbEntity
  8
ALPHA
  6
CONTINUOUS
 62
     7
100
AcDbVertex
100
AcDb2dVertex
 10
38.459282
 20
127.511754
 30
0.0
  0
VERTEX
  5
A9A
100
AcDbEntity
  8
ALPHA
  6
CONTINUOUS
 62
     7
100
AcDbVertex
100
AcDb2dVertex
 10
38.544256
 20
127.532404
 30
0.0
  0
SEQEND
  5
A9B
100
AcDbEntity
  8
ALPHA
 62
     7
  0
ARC
  5
A9C
100
AcDbEntity
  8
ALPHA
  6
CONTINUOUS
 62
     9
100
AcDbCircle
 10
33.474256
 20
124.687006
 30
0.0
 40
0.499994
100
AcDbArc
 50
15.792242
 51
164.207758
  0
ARC
  5
A9D
100
AcDbEntity
  8
ALPHA
  6
CONTINUOUS
 62
     7
100
AcDbCircle
 10
33.474256
 20
124.687006
 30
0.0
 40
0.3
100
AcDbArc
 50
15.792242
 51
164.207758
  0
LINE
  5
A9E
100
AcDbEntity
  8
ALPHA
  6
CONTINUOUS
 62
     9
100
AcDbLine
 10
33.955383
 20
124.823081
 30
0.0
 11
33.762932
 21
124.768651
 31
0.0
  0
LINE
  5
A9F
100
AcDbEntity
  8
ALPHA
  6
CONTINUOUS
 62
     9
100
AcDbLine
 10
32.993129
 20
124.823081
 30
0.0
 11
33.18558
 21
124.768651
 31
0.0
  0
ARC
  5
AA0
100
AcDbEntity
  8
ALPHA
  6
CONTINUOUS
 62
     9
100
AcDbCircle
 10
37.474256
 20
124.687006
 30
0.0
 40
0.499994
100
AcDbArc
 50
15.792242
 51
164.207758
  0
ARC
  5
AA1
100
AcDbEntity
  8
ALPHA
  6
CONTINUOUS
 62
     7
100
AcDbCircle
 10
37.474256
 20
124.687006
 30
0.0
 40
0.3
100
AcDbArc
 50
15.792242
 51
164.207758
  0
LINE
  5
AA2
100
AcDbEntity
  8
ALPHA
  6
CONTINUOUS
 62
     9
100
AcDbLine
 10
36.993129
 20
124.823081
 30
0.0
 11
37.18558
 21
124.768651
 31
0.0
  0
LINE
  5
AA3
100
AcDbEntity
  8
ALPHA
  6
CONTINUOUS
 62
     9
100
AcDbLine
 10
37.955383
 20
124.823081
 30
0.0
 11
37.762932
 21
124.768651
 31
0.0
  0
ARC
  5
AA4
100
AcDbEntity
  8
ALPHA
  6
CONTINUOUS
 62
     9
100
AcDbCircle
 10
41.474256
 20
124.687006
 30
0.0
 40
0.499994
100
AcDbArc
 50
15.792242
 51
164.207758
  0
ARC
  5
AA5
100
AcDbEntity
  8
ALPHA
  6
CONTINUOUS
 62
     7
100
AcDbCircle
 10
41.474256
 20
124.687006
 30
0.0
 40
0.3
100
AcDbArc
 50
15.792242
 51
164.207758
  0
LINE
  5
AA6
100
AcDbEntity
  8
ALPHA
  6
CONTINUOUS
 62
     9
100
AcDbLine
 10
40.993129
 20
124.823081
 30
0.0
 11
41.18558
 21
124.768651
 31
0.0
  0
LINE
  5
AA7
100
AcDbEntity
  8
ALPHA
  6
CONTINUOUS
 62
     9
100
AcDbLine
 10
41.955383
 20
124.823081
 30
0.0
 11
41.762932
 21
124.768651
 31
0.0
  0
LINE
  5
AA8
100
AcDbEntity
  8
ALPHA
  6
CONTINUOUS
 62
     7
100
AcDbLine
 10
34.519256
 20
139.097802
 30
0.0
 11
38.369256
 21
139.097802
 31
0.0
  0
LINE
  5
AA9
100
AcDbEntity
  8
ALPHA
  6
CONTINUOUS
 62
     7
100
AcDbLine
 10
34.019256
 20
138.597802
 30
0.0
 11
38.869256
 21
138.597802
 31
0.0
  0
LINE
  5
AAA
100
AcDbEntity
  8
ALPHA
  6
CONTINUOUS
 62
     7
100
AcDbLine
 10
34.019256
 20
138.597802
 30
0.0
 11
34.519256
 21
139.097802
 31
0.0
  0
LINE
  5
AAB
100
AcDbEntity
  8
ALPHA
  6
CONTINUOUS
 62
     7
100
AcDbLine
 10
33.789256
 20
138.597802
 30
0.0
 11
33.289256
 21
139.097802
 31
0.0
  0
LINE
  5
AAC
100
AcDbEntity
  8
ALPHA
  6
CONTINUOUS
 62
     7
100
AcDbLine
 10
38.869256
 20
138.597802
 30
0.0
 11
38.369256
 21
139.097802
 31
0.0
  0
LINE
  5
AAD
100
AcDbEntity
  8
ALPHA
  6
CONTINUOUS
 62
     7
100
AcDbLine
 10
39.099256
 20
138.597802
 30
0.0
 11
39.599256
 21
139.097802
 31
0.0
  0
LINE
  5
AAE
100
AcDbEntity
  8
ALPHA
  6
CONTINUOUS
 62
     7
100
AcDbLine
 10
33.789256
 20
144.897802
 30
0.0
 11
28.939256
 21
144.897802
 31
0.0
  0
LINE
  5
AAF
100
AcDbEntity
  8
ALPHA
  6
CONTINUOUS
 62
     7
100
AcDbLine
 10
33.289256
 20
144.397802
 30
0.0
 11
29.439256
 21
144.397802
 31
0.0
  0
LINE
  5
AB0
100
AcDbEntity
  8
ALPHA
  6
CONTINUOUS
 62
     7
100
AcDbLine
 10
23.629256
 20
144.897802
 30
0.0
 11
23.129256
 21
144.397802
 31
0.0
  0
LINE
  5
AB1
100
AcDbEntity
  8
ALPHA
  6
CONTINUOUS
 62
     7
100
AcDbLine
 10
28.939256
 20
144.897802
 30
0.0
 11
29.439256
 21
144.397802
 31
0.0
  0
LINE
  5
AB2
100
AcDbEntity
  8
ALPHA
  6
CONTINUOUS
 62
     7
100
AcDbLine
 10
38.869256
 20
144.897802
 30
0.0
 11
34.019256
 21
144.897802
 31
0.0
  0
LINE
  5
AB3
100
AcDbEntity
  8
ALPHA
  6
CONTINUOUS
 62
     7
100
AcDbLine
 10
38.369256
 20
144.397802
 30
0.0
 11
34.519256
 21
144.397802
 31
0.0
  0
LINE
  5
AB4
100
AcDbEntity
  8
ALPHA
  6
CONTINUOUS
 62
     7
100
AcDbLine
 10
34.019256
 20
144.897802
 30
0.0
 11
34.519256
 21
144.397802
 31
0.0
  0
LINE
  5
AB5
100
AcDbEntity
  8
ALPHA
  6
CONTINUOUS
 62
     7
100
AcDbLine
 10
33.789256
 20
144.897802
 30
0.0
 11
33.289256
 21
144.397802
 31
0.0
  0
LINE
  5
AB6
100
AcDbEntity
  8
ALPHA
  6
CONTINUOUS
 62
     7
100
AcDbLine
 10
39.099256
 20
144.897802
 30
0.0
 11
39.599256
 21
144.397802
 31
0.0
  0
LINE
  5
AB7
100
AcDbEntity
  8
ALPHA
  6
CONTINUOUS
 62
     7
100
AcDbLine
 10
38.869256
 20
144.897802
 30
0.0
 11
38.369256
 21
144.397802
 31
0.0
  0
LINE
  5
AB8
100
AcDbEntity
  8
ALPHA
  6
CONTINUOUS
 62
     7
100
AcDbLine
 10
6.124256
 20
160.797802
 30
0.0
 11
13.024256
 21
160.797802
 31
0.0
  0
LINE
  5
AB9
100
AcDbEntity
  8
ALPHA
  6
CONTINUOUS
 62
     9
100
AcDbLine
 10
6.124256
 20
160.597802
 30
0.0
 11
13.024256
 21
160.597802
 31
0.0
  0
LINE
  5
ABA
100
AcDbEntity
  8
ALPHA
  6
CONTINUOUS
 62
     9
100
AcDbLine
 10
8.249256
 20
157.50776
 30
0.0
 11
7.174256
 21
157.50776
 31
0.0
  0
LINE
  5
ABB
100
AcDbEntity
  8
ALPHA
  6
CONTINUOUS
 62
     9
100
AcDbLine
 10
13.974256
 20
156.297802
 30
0.0
 11
5.174256
 21
156.297802
 31
0.0
  0
POLYLINE
  5
ABC
100
AcDbEntity
  8
ALPHA
  6
CONTINUOUS
 62
     7
100
AcDb2dPolyline
 66
     1
 10
0.0
 20
0.0
 30
0.0
  0
VERTEX
  5
ABD
100
AcDbEntity
  8
ALPHA
  6
CONTINUOUS
 62
     7
100
AcDbVertex
100
AcDb2dVertex
 10
7.535767
 20
157.695699
 30
0.0
  0
VERTEX
  5
ABE
100
AcDbEntity
  8
ALPHA
  6
CONTINUOUS
 62
     7
100
AcDbVertex
100
AcDb2dVertex
 10
7.771382
 20
157.64853
 30
0.0
  0
VERTEX
  5
ABF
100
AcDbEntity
  8
ALPHA
  6
CONTINUOUS
 62
     7
100
AcDbVertex
100
AcDb2dVertex
 10
8.009796
 20
157.582244
 30
0.0
  0
VERTEX
  5
AC0
100
AcDbEntity
  8
ALPHA
  6
CONTINUOUS
 62
     7
100
AcDbVertex
100
AcDb2dVertex
 10
8.249256
 20
157.50776
 30
0.0
  0
SEQEND
  5
AC1
100
AcDbEntity
  8
ALPHA
 62
     7
  0
LINE
  5
AC2
100
AcDbEntity
  8
ALPHA
  6
CONTINUOUS
 62
     7
100
AcDbLine
 10
6.249256
 20
158.375742
 30
0.0
 11
6.249256
 21
160.597802
 31
0.0
  0
LINE
  5
AC3
100
AcDbEntity
  8
ALPHA
  6
CONTINUOUS
 62
     7
100
AcDbLine
 10
6.124256
 20
161.297802
 30
0.0
 11
6.124256
 21
159.147802
 31
0.0
  0
ARC
  5
AC4
100
AcDbEntity
  8
ALPHA
  6
CONTINUOUS
 62
     7
100
AcDbCircle
 10
5.374256
 20
158.947802
 30
0.0
 40
0.2
100
AcDbArc
 50
90.0
 51
180.0
  0
LINE
  5
AC5
100
AcDbEntity
  8
ALPHA
  6
CONTINUOUS
 62
     7
100
AcDbLine
 10
5.074256
 20
159.147802
 30
0.0
 11
6.249256
 21
159.147802
 31
0.0
  0
POLYLINE
  5
AC6
100
AcDbEntity
  8
ALPHA
  6
CONTINUOUS
 62
     9
100
AcDb2dPolyline
 66
     1
 10
0.0
 20
0.0
 30
0.0
  0
VERTEX
  5
AC7
100
AcDbEntity
  8
ALPHA
  6
CONTINUOUS
 62
     9
100
AcDbVertex
100
AcDb2dVertex
 10
7.174256
 20
157.695699
 30
0.0
  0
VERTEX
  5
AC8
100
AcDbEntity
  8
ALPHA
  6
CONTINUOUS
 62
     9
100
AcDbVertex
100
AcDb2dVertex
 10
7.01855
 20
157.698155
 30
0.0
  0
VERTEX
  5
AC9
100
AcDbEntity
  8
ALPHA
  6
CONTINUOUS
 62
     9
100
AcDbVertex
100
AcDb2dVertex
 10
6.852623
 20
157.706243
 30
0.0
  0
VERTEX
  5
ACA
100
AcDbEntity
  8
ALPHA
  6
CONTINUOUS
 62
     9
100
AcDbVertex
100
AcDb2dVertex
 10
6.673476
 20
157.721564
 30
0.0
  0
VERTEX
  5
ACB
100
AcDbEntity
  8
ALPHA
  6
CONTINUOUS
 62
     9
100
AcDbVertex
100
AcDb2dVertex
 10
6.47994
 20
157.7464
 30
0.0
  0
VERTEX
  5
ACC
100
AcDbEntity
  8
ALPHA
  6
CONTINUOUS
 62
     9
100
AcDbVertex
100
AcDb2dVertex
 10
6.273284
 20
157.783676
 30
0.0
  0
VERTEX
  5
ACD
100
AcDbEntity
  8
ALPHA
  6
CONTINUOUS
 62
     9
100
AcDbVertex
100
AcDb2dVertex
 10
6.058341
 20
157.836792
 30
0.0
  0
VERTEX
  5
ACE
100
AcDbEntity
  8
ALPHA
  6
CONTINUOUS
 62
     9
100
AcDbVertex
100
AcDb2dVertex
 10
5.84595
 20
157.908715
 30
0.0
  0
VERTEX
  5
ACF
100
AcDbEntity
  8
ALPHA
  6
CONTINUOUS
 62
     9
100
AcDbVertex
100
AcDb2dVertex
 10
5.653541
 20
158.000331
 30
0.0
  0
VERTEX
  5
AD0
100
AcDbEntity
  8
ALPHA
  6
CONTINUOUS
 62
     9
100
AcDbVertex
100
AcDb2dVertex
 10
5.501021
 20
158.109337
 30
0.0
  0
VERTEX
  5
AD1
100
AcDbEntity
  8
ALPHA
  6
CONTINUOUS
 62
     9
100
AcDbVertex
100
AcDb2dVertex
 10
5.405577
 20
158.229158
 30
0.0
  0
VERTEX
  5
AD2
100
AcDbEntity
  8
ALPHA
  6
CONTINUOUS
 62
     9
100
AcDbVertex
100
AcDb2dVertex
 10
5.374256
 20
158.350845
 30
0.0
  0
SEQEND
  5
AD3
100
AcDbEntity
  8
ALPHA
 62
     9
  0
POLYLINE
  5
AD4
100
AcDbEntity
  8
ALPHA
  6
CONTINUOUS
 62
     9
100
AcDb2dPolyline
 66
     1
 10
0.0
 20
0.0
 30
0.0
  0
VERTEX
  5
AD5
100
AcDbEntity
  8
ALPHA
  6
CONTINUOUS
 62
     9
100
AcDbVertex
100
AcDb2dVertex
 10
7.174256
 20
157.50776
 30
0.0
  0
VERTEX
  5
AD6
100
AcDbEntity
  8
ALPHA
  6
CONTINUOUS
 62
     9
100
AcDbVertex
100
AcDb2dVertex
 10
7.001165
 20
157.510219
 30
0.0
  0
VERTEX
  5
AD7
100
AcDbEntity
  8
ALPHA
  6
CONTINUOUS
 62
     9
100
AcDbVertex
100
AcDb2dVertex
 10
6.816819
 20
157.518308
 30
0.0
  0
VERTEX
  5
AD8
100
AcDbEntity
  8
ALPHA
  6
CONTINUOUS
 62
     9
100
AcDbVertex
100
AcDb2dVertex
 10
6.617785
 20
157.53363
 30
0.0
  0
VERTEX
  5
AD9
100
AcDbEntity
  8
ALPHA
  6
CONTINUOUS
 62
     9
100
AcDbVertex
100
AcDb2dVertex
 10
6.402766
 20
157.558465
 30
0.0
  0
VERTEX
  5
ADA
100
AcDbEntity
  8
ALPHA
  6
CONTINUOUS
 62
     9
100
AcDbVertex
100
AcDb2dVertex
 10
6.173175
 20
157.595738
 30
0.0
  0
VERTEX
  5
ADB
100
AcDbEntity
  8
ALPHA
  6
CONTINUOUS
 62
     9
100
AcDbVertex
100
AcDb2dVertex
 10
5.934384
 20
157.648845
 30
0.0
  0
VERTEX
  5
ADC
100
AcDbEntity
  8
ALPHA
  6
CONTINUOUS
 62
     9
100
AcDbVertex
100
AcDb2dVertex
 10
5.698437
 20
157.720749
 30
0.0
  0
VERTEX
  5
ADD
100
AcDbEntity
  8
ALPHA
  6
CONTINUOUS
 62
     9
100
AcDbVertex
100
AcDb2dVertex
 10
5.484691
 20
157.812331
 30
0.0
  0
VERTEX
  5
ADE
100
AcDbEntity
  8
ALPHA
  6
CONTINUOUS
 62
     9
100
AcDbVertex
100
AcDb2dVertex
 10
5.315232
 20
157.921295
 30
0.0
  0
VERTEX
  5
ADF
100
AcDbEntity
  8
ALPHA
  6
CONTINUOUS
 62
     9
100
AcDbVertex
100
AcDb2dVertex
 10
5.20914
 20
158.041078
 30
0.0
  0
VERTEX
  5
AE0
100
AcDbEntity
  8
ALPHA
  6
CONTINUOUS
 62
     9
100
AcDbVertex
100
AcDb2dVertex
 10
5.174256
 20
158.162907
 30
0.0
  0
SEQEND
  5
AE1
100
AcDbEntity
  8
ALPHA
 62
     9
  0
LINE
  5
AE2
100
AcDbEntity
  8
ALPHA
  6
CONTINUOUS
 62
     9
100
AcDbLine
 10
7.535767
 20
157.695699
 30
0.0
 11
7.174256
 21
157.695699
 31
0.0
  0
LINE
  5
AE3
100
AcDbEntity
  8
ALPHA
  6
CONTINUOUS
 62
     9
100
AcDbLine
 10
5.074256
 20
156.739223
 30
0.0
 11
5.174256
 21
156.739223
 31
0.0
  0
POLYLINE
  5
AE4
100
AcDbEntity
  8
ALPHA
  6
CONTINUOUS
 62
     7
100
AcDb2dPolyline
 66
     1
 10
0.0
 20
0.0
 30
0.0
  0
VERTEX
  5
AE5
100
AcDbEntity
  8
ALPHA
  6
CONTINUOUS
 62
     7
100
AcDbVertex
100
AcDb2dVertex
 10
7.535767
 20
157.695699
 30
0.0
  0
VERTEX
  5
AE6
100
AcDbEntity
  8
ALPHA
  6
CONTINUOUS
 62
     7
100
AcDbVertex
100
AcDb2dVertex
 10
7.235536
 20
157.748237
 30
0.0
  0
VERTEX
  5
AE7
100
AcDbEntity
  8
ALPHA
  6
CONTINUOUS
 62
     7
100
AcDbVertex
100
AcDb2dVertex
 10
6.959666
 20
157.819337
 30
0.0
  0
VERTEX
  5
AE8
100
AcDbEntity
  8
ALPHA
  6
CONTINUOUS
 62
     7
100
AcDbVertex
100
AcDb2dVertex
 10
6.719189
 20
157.906956
 30
0.0
  0
VERTEX
  5
AE9
100
AcDbEntity
  8
ALPHA
  6
CONTINUOUS
 62
     7
100
AcDbVertex
100
AcDb2dVertex
 10
6.520269
 20
158.009848
 30
0.0
  0
VERTEX
  5
AEA
100
AcDbEntity
  8
ALPHA
  6
CONTINUOUS
 62
     7
100
AcDbVertex
100
AcDb2dVertex
 10
6.3722
 20
158.124455
 30
0.0
  0
VERTEX
  5
AEB
100
AcDbEntity
  8
ALPHA
  6
CONTINUOUS
 62
     7
100
AcDbVertex
100
AcDb2dVertex
 10
6.280415
 20
158.247749
 30
0.0
  0
VERTEX
  5
AEC
100
AcDbEntity
  8
ALPHA
  6
CONTINUOUS
 62
     7
100
AcDbVertex
100
AcDb2dVertex
 10
6.249256
 20
158.375742
 30
0.0
  0
SEQEND
  5
AED
100
AcDbEntity
  8
ALPHA
 62
     7
  0
POLYLINE
  5
AEE
100
AcDbEntity
  8
ALPHA
  6
CONTINUOUS
 62
     9
100
AcDb2dPolyline
 66
     1
 10
0.0
 20
0.0
 30
0.0
  0
VERTEX
  5
AEF
100
AcDbEntity
  8
ALPHA
  6
CONTINUOUS
 62
     9
100
AcDbVertex
100
AcDb2dVertex
 10
5.074256
 20
156.397802
 30
0.0
  0
VERTEX
  5
AF0
100
AcDbEntity
  8
ALPHA
  6
CONTINUOUS
 62
     9
100
AcDbVertex
100
AcDb2dVertex
 10
5.108608
 20
156.276601
 30
0.0
  0
VERTEX
  5
AF1
100
AcDbEntity
  8
ALPHA
  6
CONTINUOUS
 62
     9
100
AcDbVertex
100
AcDb2dVertex
 10
5.183704
 20
156.226037
 30
0.0
  0
SEQEND
  5
AF2
100
AcDbEntity
  8
ALPHA
 62
     9
  0
LINE
  5
AF3
100
AcDbEntity
  8
ALPHA
  6
CONTINUOUS
 62
     9
100
AcDbLine
 10
5.374256
 20
158.350845
 30
0.0
 11
5.374256
 21
159.147802
 31
0.0
  0
LINE
  5
AF4
100
AcDbEntity
  8
ALPHA
  6
CONTINUOUS
 62
     7
100
AcDbLine
 10
5.174256
 20
156.297802
 30
0.0
 11
5.174256
 21
159.147802
 31
0.0
  0
POLYLINE
  5
AF5
100
AcDbEntity
  8
ALPHA
  6
CONTINUOUS
 62
     9
100
AcDb2dPolyline
 66
     1
 10
0.0
 20
0.0
 30
0.0
  0
VERTEX
  5
AF6
100
AcDbEntity
  8
ALPHA
  6
CONTINUOUS
 62
     9
100
AcDbVertex
100
AcDb2dVertex
 10
5.174256
 20
158.162907
 30
0.0
  0
VERTEX
  5
AF7
100
AcDbEntity
  8
ALPHA
  6
CONTINUOUS
 62
     9
100
AcDbVertex
100
AcDb2dVertex
 10
5.184045
 20
158.220983
 30
0.0
  0
VERTEX
  5
AF8
100
AcDbEntity
  8
ALPHA
  6
CONTINUOUS
 62
     9
100
AcDbVertex
100
AcDb2dVertex
 10
5.212453
 20
158.273374
 30
0.0
  0
VERTEX
  5
AF9
100
AcDbEntity
  8
ALPHA
  6
CONTINUOUS
 62
     9
100
AcDbVertex
100
AcDb2dVertex
 10
5.256699
 20
158.314952
 30
0.0
  0
VERTEX
  5
AFA
100
AcDbEntity
  8
ALPHA
  6
CONTINUOUS
 62
     9
100
AcDbVertex
100
AcDb2dVertex
 10
5.312453
 20
158.341647
 30
0.0
  0
VERTEX
  5
AFB
100
AcDbEntity
  8
ALPHA
  6
CONTINUOUS
 62
     9
100
AcDbVertex
100
AcDb2dVertex
 10
5.374256
 20
158.350845
 30
0.0
  0
SEQEND
  5
AFC
100
AcDbEntity
  8
ALPHA
 62
     9
  0
ARC
  5
AFD
100
AcDbEntity
  8
ALPHA
  6
CONTINUOUS
 62
     7
100
AcDbCircle
 10
6.449256
 20
160.597802
 30
0.0
 40
0.2
100
AcDbArc
 50
90.0
 51
180.0
  0
LINE
  5
AFE
100
AcDbEntity
  8
ALPHA
  6
CONTINUOUS
 62
     7
100
AcDbLine
 10
12.899256
 20
159.147802
 30
0.0
 11
14.074256
 21
159.147802
 31
0.0
  0
POLYLINE
  5
AFF
100
AcDbEntity
  8
ALPHA
  6
CONTINUOUS
 62
     9
100
AcDb2dPolyline
 66
     1
 10
0.0
 20
0.0
 30
0.0
  0
VERTEX
  5
B00
100
AcDbEntity
  8
ALPHA
  6
CONTINUOUS
 62
     9
100
AcDbVertex
100
AcDb2dVertex
 10
13.974256
 20
158.162907
 30
0.0
  0
VERTEX
  5
B01
100
AcDbEntity
  8
ALPHA
  6
CONTINUOUS
 62
     9
100
AcDbVertex
100
AcDb2dVertex
 10
13.93925
 20
158.040867
 30
0.0
  0
VERTEX
  5
B02
100
AcDbEntity
  8
ALPHA
  6
CONTINUOUS
 62
     9
100
AcDbVertex
100
AcDb2dVertex
 10
13.83285
 20
157.92094
 30
0.0
  0
VERTEX
  5
B03
100
AcDbEntity
  8
ALPHA
  6
CONTINUOUS
 62
     9
100
AcDbVertex
100
AcDb2dVertex
 10
13.663055
 20
157.811936
 30
0.0
  0
VERTEX
  5
B04
100
AcDbEntity
  8
ALPHA
  6
CONTINUOUS
 62
     9
100
AcDbVertex
100
AcDb2dVertex
 10
13.449103
 20
157.720401
 30
0.0
  0
VERTEX
  5
B05
100
AcDbEntity
  8
ALPHA
  6
CONTINUOUS
 62
     9
100
AcDbVertex
100
AcDb2dVertex
 10
13.213141
 20
157.648589
 30
0.0
  0
VERTEX
  5
B06
100
AcDbEntity
  8
ALPHA
  6
CONTINUOUS
 62
     9
100
AcDbVertex
100
AcDb2dVertex
 10
12.974484
 20
157.595576
 30
0.0
  0
VERTEX
  5
B07
100
AcDbEntity
  8
ALPHA
  6
CONTINUOUS
 62
     9
100
AcDbVertex
100
AcDb2dVertex
 10
12.745095
 20
157.558376
 30
0.0
  0
VERTEX
  5
B08
100
AcDbEntity
  8
ALPHA
  6
CONTINUOUS
 62
     9
100
AcDbVertex
100
AcDb2dVertex
 10
12.53029
 20
157.533589
 30
0.0
  0
VERTEX
  5
B09
100
AcDbEntity
  8
ALPHA
  6
CONTINUOUS
 62
     9
100
AcDbVertex
100
AcDb2dVertex
 10
12.331449
 20
157.518294
 30
0.0
  0
VERTEX
  5
B0A
100
AcDbEntity
  8
ALPHA
  6
CONTINUOUS
 62
     9
100
AcDbVertex
100
AcDb2dVertex
 10
12.147251
 20
157.510216
 30
0.0
  0
VERTEX
  5
B0B
100
AcDbEntity
  8
ALPHA
  6
CONTINUOUS
 62
     9
100
AcDbVertex
100
AcDb2dVertex
 10
11.974256
 20
157.50776
 30
0.0
  0
SEQEND
  5
B0C
100
AcDbEntity
  8
ALPHA
 62
     9
  0
POLYLINE
  5
B0D
100
AcDbEntity
  8
ALPHA
  6
CONTINUOUS
 62
     9
100
AcDb2dPolyline
 66
     1
 10
0.0
 20
0.0
 30
0.0
  0
VERTEX
  5
B0E
100
AcDbEntity
  8
ALPHA
  6
CONTINUOUS
 62
     9
100
AcDbVertex
100
AcDb2dVertex
 10
13.774256
 20
158.350845
 30
0.0
  0
VERTEX
  5
B0F
100
AcDbEntity
  8
ALPHA
  6
CONTINUOUS
 62
     9
100
AcDbVertex
100
AcDb2dVertex
 10
13.742832
 20
158.22896
 30
0.0
  0
VERTEX
  5
B10
100
AcDbEntity
  8
ALPHA
  6
CONTINUOUS
 62
     9
100
AcDbVertex
100
AcDb2dVertex
 10
13.647118
 20
158.108995
 30
0.0
  0
VERTEX
  5
B11
100
AcDbEntity
  8
ALPHA
  6
CONTINUOUS
 62
     9
100
AcDbVertex
100
AcDb2dVertex
 10
13.494302
 20
157.999947
 30
0.0
  0
VERTEX
  5
B12
100
AcDbEntity
  8
ALPHA
  6
CONTINUOUS
 62
     9
100
AcDbVertex
100
AcDb2dVertex
 10
13.301709
 20
157.908375
 30
0.0
  0
VERTEX
  5
B13
100
AcDbEntity
  8
ALPHA
  6
CONTINUOUS
 62
     9
100
AcDbVertex
100
AcDb2dVertex
 10
13.0893
 20
157.836542
 30
0.0
  0
VERTEX
  5
B14
100
AcDbEntity
  8
ALPHA
  6
CONTINUOUS
 62
     9
100
AcDbVertex
100
AcDb2dVertex
 10
12.874474
 20
157.783518
 30
0.0
  0
VERTEX
  5
B15
100
AcDbEntity
  8
ALPHA
  6
CONTINUOUS
 62
     9
100
AcDbVertex
100
AcDb2dVertex
 10
12.667996
 20
157.746312
 30
0.0
  0
VERTEX
  5
B16
100
AcDbEntity
  8
ALPHA
  6
CONTINUOUS
 62
     9
100
AcDbVertex
100
AcDb2dVertex
 10
12.47465
 20
157.721523
 30
0.0
  0
VERTEX
  5
B17
100
AcDbEntity
  8
ALPHA
  6
CONTINUOUS
 62
     9
100
AcDbVertex
100
AcDb2dVertex
 10
12.295675
 20
157.706229
 30
0.0
  0
VERTEX
  5
B18
100
AcDbEntity
  8
ALPHA
  6
CONTINUOUS
 62
     9
100
AcDbVertex
100
AcDb2dVertex
 10
12.12988
 20
157.698152
 30
0.0
  0
VERTEX
  5
B19
100
AcDbEntity
  8
ALPHA
  6
CONTINUOUS
 62
     9
100
AcDbVertex
100
AcDb2dVertex
 10
11.974256
 20
157.695699
 30
0.0
  0
SEQEND
  5
B1A
100
AcDbEntity
  8
ALPHA
 62
     9
  0
LINE
  5
B1B
100
AcDbEntity
  8
ALPHA
  6
CONTINUOUS
 62
     7
100
AcDbLine
 10
13.024256
 20
161.297802
 30
0.0
 11
13.024256
 21
159.147802
 31
0.0
  0
LINE
  5
B1C
100
AcDbEntity
  8
ALPHA
  6
CONTINUOUS
 62
     7
100
AcDbLine
 10
12.899256
 20
160.597802
 30
0.0
 11
12.899256
 21
158.375742
 31
0.0
  0
LINE
  5
B1D
100
AcDbEntity
  8
ALPHA
  6
CONTINUOUS
 62
     9
100
AcDbLine
 10
10.899256
 20
157.50776
 30
0.0
 11
10.899256
 21
160.797802
 31
0.0
  0
LINE
  5
B1E
100
AcDbEntity
  8
ALPHA
  6
CONTINUOUS
 62
     9
100
AcDbLine
 10
8.249256
 20
160.797802
 30
0.0
 11
8.249256
 21
157.50776
 31
0.0
  0
LINE
  5
B1F
100
AcDbEntity
  8
ALPHA
  6
CONTINUOUS
 62
     9
100
AcDbLine
 10
11.974256
 20
157.695699
 30
0.0
 11
11.612745
 21
157.695699
 31
0.0
  0
LINE
  5
B20
100
AcDbEntity
  8
ALPHA
  6
CONTINUOUS
 62
     9
100
AcDbLine
 10
11.974256
 20
157.50776
 30
0.0
 11
10.899256
 21
157.50776
 31
0.0
  0
POLYLINE
  5
B21
100
AcDbEntity
  8
ALPHA
  6
CONTINUOUS
 62
     7
100
AcDb2dPolyline
 66
     1
 10
0.0
 20
0.0
 30
0.0
  0
VERTEX
  5
B22
100
AcDbEntity
  8
ALPHA
  6
CONTINUOUS
 62
     7
100
AcDbVertex
100
AcDb2dVertex
 10
10.899256
 20
157.50776
 30
0.0
  0
VERTEX
  5
B23
100
AcDbEntity
  8
ALPHA
  6
CONTINUOUS
 62
     7
100
AcDbVertex
100
AcDb2dVertex
 10
11.138716
 20
157.582244
 30
0.0
  0
VERTEX
  5
B24
100
AcDbEntity
  8
ALPHA
  6
CONTINUOUS
 62
     7
100
AcDbVertex
100
AcDb2dVertex
 10
11.37713
 20
157.64853
 30
0.0
  0
VERTEX
  5
B25
100
AcDbEntity
  8
ALPHA
  6
CONTINUOUS
 62
     7
100
AcDbVertex
100
AcDb2dVertex
 10
11.612745
 20
157.695699
 30
0.0
  0
SEQEND
  5
B26
100
AcDbEntity
  8
ALPHA
 62
     7
  0
POLYLINE
  5
B27
100
AcDbEntity
  8
ALPHA
  6
CONTINUOUS
 62
     7
100
AcDb2dPolyline
 66
     1
 10
0.0
 20
0.0
 30
0.0
  0
VERTEX
  5
B28
100
AcDbEntity
  8
ALPHA
  6
CONTINUOUS
 62
     7
100
AcDbVertex
100
AcDb2dVertex
 10
12.899256
 20
158.375742
 30
0.0
  0
VERTEX
  5
B29
100
AcDbEntity
  8
ALPHA
  6
CONTINUOUS
 62
     7
100
AcDbVertex
100
AcDb2dVertex
 10
12.868097
 20
158.247749
 30
0.0
  0
VERTEX
  5
B2A
100
AcDbEntity
  8
ALPHA
  6
CONTINUOUS
 62
     7
100
AcDbVertex
100
AcDb2dVertex
 10
12.776312
 20
158.124455
 30
0.0
  0
VERTEX
  5
B2B
100
AcDbEntity
  8
ALPHA
  6
CONTINUOUS
 62
     7
100
AcDbVertex
100
AcDb2dVertex
 10
12.628243
 20
158.009848
 30
0.0
  0
VERTEX
  5
B2C
100
AcDbEntity
  8
ALPHA
  6
CONTINUOUS
 62
     7
100
AcDbVertex
100
AcDb2dVertex
 10
12.429323
 20
157.906956
 30
0.0
  0
VERTEX
  5
B2D
100
AcDbEntity
  8
ALPHA
  6
CONTINUOUS
 62
     7
100
AcDbVertex
100
AcDb2dVertex
 10
12.188846
 20
157.819337
 30
0.0
  0
VERTEX
  5
B2E
100
AcDbEntity
  8
ALPHA
  6
CONTINUOUS
 62
     7
100
AcDbVertex
100
AcDb2dVertex
 10
11.912976
 20
157.748237
 30
0.0
  0
VERTEX
  5
B2F
100
AcDbEntity
  8
ALPHA
  6
CONTINUOUS
 62
     7
100
AcDbVertex
100
AcDb2dVertex
 10
11.612745
 20
157.695699
 30
0.0
  0
SEQEND
  5
B30
100
AcDbEntity
  8
ALPHA
 62
     7
  0
ARC
  5
B31
100
AcDbEntity
  8
ALPHA
  6
CONTINUOUS
 62
     7
100
AcDbCircle
 10
12.699256
 20
160.597802
 30
0.0
 40
0.2
100
AcDbArc
 50
0.0
 51
90.0
  0
ARC
  5
B32
100
AcDbEntity
  8
ALPHA
  6
CONTINUOUS
 62
     7
100
AcDbCircle
 10
13.774256
 20
158.947802
 30
0.0
 40
0.2
100
AcDbArc
 50
0.0
 51
90.0
  0
POLYLINE
  5
B33
100
AcDbEntity
  8
ALPHA
  6
CONTINUOUS
 62
     9
100
AcDb2dPolyline
 66
     1
 10
0.0
 20
0.0
 30
0.0
  0
VERTEX
  5
B34
100
AcDbEntity
  8
ALPHA
  6
CONTINUOUS
 62
     9
100
AcDbVertex
100
AcDb2dVertex
 10
13.974256
 20
158.162907
 30
0.0
  0
VERTEX
  5
B35
100
AcDbEntity
  8
ALPHA
  6
CONTINUOUS
 62
     9
100
AcDbVertex
100
AcDb2dVertex
 10
13.964467
 20
158.220983
 30
0.0
  0
VERTEX
  5
B36
100
AcDbEntity
  8
ALPHA
  6
CONTINUOUS
 62
     9
100
AcDbVertex
100
AcDb2dVertex
 10
13.936059
 20
158.273375
 30
0.0
  0
VERTEX
  5
B37
100
AcDbEntity
  8
ALPHA
  6
CONTINUOUS
 62
     9
100
AcDbVertex
100
AcDb2dVertex
 10
13.891813
 20
158.314952
 30
0.0
  0
VERTEX
  5
B38
100
AcDbEntity
  8
ALPHA
  6
CONTINUOUS
 62
     9
100
AcDbVertex
100
AcDb2dVertex
 10
13.836059
 20
158.341647
 30
0.0
  0
VERTEX
  5
B39
100
AcDbEntity
  8
ALPHA
  6
CONTINUOUS
 62
     9
100
AcDbVertex
100
AcDb2dVertex
 10
13.774256
 20
158.350845
 30
0.0
  0
SEQEND
  5
B3A
100
AcDbEntity
  8
ALPHA
 62
     9
  0
LINE
  5
B3B
100
AcDbEntity
  8
ALPHA
  6
CONTINUOUS
 62
     7
100
AcDbLine
 10
13.974256
 20
158.947802
 30
0.0
 11
13.974256
 21
156.297802
 31
0.0
  0
LINE
  5
B3C
100
AcDbEntity
  8
ALPHA
  6
CONTINUOUS
 62
     9
100
AcDbLine
 10
13.774256
 20
159.147802
 30
0.0
 11
13.774256
 21
158.350845
 31
0.0
  0
ARC
  5
B3D
100
AcDbEntity
  8
ALPHA
  6
CONTINUOUS
 62
     9
100
AcDbCircle
 10
63.468422
 20
119.597802
 30
0.0
 40
19.2
100
AcDbArc
 50
164.207758
 51
195.792242
  0
ARC
  5
B3E
100
AcDbEntity
  8
ALPHA
  6
CONTINUOUS
 62
     9
100
AcDbCircle
 10
27.48009
 20
119.597802
 30
0.0
 40
19.2
100
AcDbArc
 50
344.207758
 51
15.792242
  0
ARC
  5
B3F
100
AcDbEntity
  8
ALPHA
  6
CONTINUOUS
 62
     9
100
AcDbCircle
 10
67.468422
 20
119.597802
 30
0.0
 40
19.2
100
AcDbArc
 50
164.207758
 51
195.792242
  0
ARC
  5
B40
100
AcDbEntity
  8
ALPHA
  6
CONTINUOUS
 62
     9
100
AcDbCircle
 10
31.48009
 20
119.597802
 30
0.0
 40
19.2
100
AcDbArc
 50
344.207758
 51
15.792242
  0
ARC
  5
B41
100
AcDbEntity
  8
ALPHA
  6
CONTINUOUS
 62
     9
100
AcDbCircle
 10
71.468422
 20
119.597802
 30
0.0
 40
19.2
100
AcDbArc
 50
164.207758
 51
195.792242
  0
ARC
  5
B42
100
AcDbEntity
  8
ALPHA
  6
CONTINUOUS
 62
     9
100
AcDbCircle
 10
35.48009
 20
119.597802
 30
0.0
 40
19.2
100
AcDbArc
 50
344.207758
 51
15.792242
  0
ARC
  5
B43
100
AcDbEntity
  8
ALPHA
  6
CONTINUOUS
 62
     9
100
AcDbCircle
 10
75.468422
 20
119.597802
 30
0.0
 40
19.2
100
AcDbArc
 50
164.207758
 51
195.792242
  0
ARC
  5
B44
100
AcDbEntity
  8
ALPHA
  6
CONTINUOUS
 62
     9
100
AcDbCircle
 10
39.48009
 20
119.597802
 30
0.0
 40
19.2
100
AcDbArc
 50
344.207758
 51
15.792242
  0
ARC
  5
B45
100
AcDbEntity
  8
ALPHA
  6
CONTINUOUS
 62
     9
100
AcDbCircle
 10
79.468422
 20
119.597802
 30
0.0
 40
19.2
100
AcDbArc
 50
164.207758
 51
195.792242
  0
ARC
  5
B46
100
AcDbEntity
  8
ALPHA
  6
CONTINUOUS
 62
     9
100
AcDbCircle
 10
43.48009
 20
119.597802
 30
0.0
 40
19.2
100
AcDbArc
 50
344.207758
 51
15.792242
  0
ARC
  5
B47
100
AcDbEntity
  8
ALPHA
  6
CONTINUOUS
 62
     9
100
AcDbCircle
 10
83.468422
 20
119.597802
 30
0.0
 40
19.2
100
AcDbArc
 50
164.207758
 51
195.792242
  0
ARC
  5
B48
100
AcDbEntity
  8
ALPHA
  6
CONTINUOUS
 62
     9
100
AcDbCircle
 10
47.48009
 20
119.597802
 30
0.0
 40
19.2
100
AcDbArc
 50
344.207758
 51
15.792242
  0
ARC
  5
B49
100
AcDbEntity
  8
ALPHA
  6
CONTINUOUS
 62
     9
100
AcDbCircle
 10
87.468422
 20
119.597802
 30
0.0
 40
19.2
100
AcDbArc
 50
164.207758
 51
195.792242
  0
ARC
  5
B4A
100
AcDbEntity
  8
ALPHA
  6
CONTINUOUS
 62
     9
100
AcDbCircle
 10
51.48009
 20
119.597802
 30
0.0
 40
19.2
100
AcDbArc
 50
344.207758
 51
15.792242
  0
ARC
  5
B4B
100
AcDbEntity
  8
ALPHA
  6
CONTINUOUS
 62
     7
100
AcDbCircle
 10
63.468422
 20
119.597802
 30
0.0
 40
19.0
100
AcDbArc
 50
164.207758
 51
195.792242
  0
ARC
  5
B4C
100
AcDbEntity
  8
ALPHA
  6
CONTINUOUS
 62
     7
100
AcDbCircle
 10
27.48009
 20
119.597802
 30
0.0
 40
19.0
100
AcDbArc
 50
344.207758
 51
15.792242
  0
ARC
  5
B4D
100
AcDbEntity
  8
ALPHA
  6
CONTINUOUS
 62
     7
100
AcDbCircle
 10
67.468422
 20
119.597802
 30
0.0
 40
19.0
100
AcDbArc
 50
164.207758
 51
195.792242
  0
ARC
  5
B4E
100
AcDbEntity
  8
ALPHA
  6
CONTINUOUS
 62
     7
100
AcDbCircle
 10
31.48009
 20
119.597802
 30
0.0
 40
19.0
100
AcDbArc
 50
344.207758
 51
15.792242
  0
ARC
  5
B4F
100
AcDbEntity
  8
ALPHA
  6
CONTINUOUS
 62
     7
100
AcDbCircle
 10
71.468422
 20
119.597802
 30
0.0
 40
19.0
100
AcDbArc
 50
164.207758
 51
195.792242
  0
ARC
  5
B50
100
AcDbEntity
  8
ALPHA
  6
CONTINUOUS
 62
     7
100
AcDbCircle
 10
35.48009
 20
119.597802
 30
0.0
 40
19.0
100
AcDbArc
 50
344.207758
 51
15.792242
  0
ARC
  5
B51
100
AcDbEntity
  8
ALPHA
  6
CONTINUOUS
 62
     7
100
AcDbCircle
 10
75.468422
 20
119.597802
 30
0.0
 40
19.0
100
AcDbArc
 50
164.207758
 51
195.792242
  0
ARC
  5
B52
100
AcDbEntity
  8
ALPHA
  6
CONTINUOUS
 62
     7
100
AcDbCircle
 10
39.48009
 20
119.597802
 30
0.0
 40
19.0
100
AcDbArc
 50
344.207758
 51
15.792242
  0
ARC
  5
B53
100
AcDbEntity
  8
ALPHA
  6
CONTINUOUS
 62
     7
100
AcDbCircle
 10
79.468422
 20
119.597802
 30
0.0
 40
19.0
100
AcDbArc
 50
164.207758
 51
195.792242
  0
ARC
  5
B54
100
AcDbEntity
  8
ALPHA
  6
CONTINUOUS
 62
     7
100
AcDbCircle
 10
43.48009
 20
119.597802
 30
0.0
 40
19.0
100
AcDbArc
 50
344.207758
 51
15.792242
  0
ARC
  5
B55
100
AcDbEntity
  8
ALPHA
  6
CONTINUOUS
 62
     7
100
AcDbCircle
 10
83.468422
 20
119.597802
 30
0.0
 40
19.0
100
AcDbArc
 50
164.207758
 51
195.792242
  0
ARC
  5
B56
100
AcDbEntity
  8
ALPHA
  6
CONTINUOUS
 62
     7
100
AcDbCircle
 10
47.48009
 20
119.597802
 30
0.0
 40
19.0
100
AcDbArc
 50
344.207758
 51
15.792242
  0
ARC
  5
B57
100
AcDbEntity
  8
ALPHA
  6
CONTINUOUS
 62
     7
100
AcDbCircle
 10
87.468422
 20
119.597802
 30
0.0
 40
19.0
100
AcDbArc
 50
164.207758
 51
195.792242
  0
ARC
  5
B58
100
AcDbEntity
  8
ALPHA
  6
CONTINUOUS
 62
     7
100
AcDbCircle
 10
51.48009
 20
119.597802
 30
0.0
 40
19.0
100
AcDbArc
 50
344.207758
 51
15.792242
  0
LINE
  5
B59
100
AcDbEntity
  8
ALPHA
  6
CONTINUOUS
 62
     7
100
AcDbLine
 10
75.074256
 20
107.635426
 30
0.0
 11
75.074256
 21
161.297802
 31
0.0
  0
LINE
  5
B5A
100
AcDbEntity
  8
ALPHA
  6
CONTINUOUS
 62
     9
100
AcDbLine
 10
74.424256
 20
127.787691
 30
0.0
 11
74.424256
 21
112.197802
 31
0.0
  0
ARC
  5
B5B
100
AcDbEntity
  8
ALPHA
  6
CONTINUOUS
 62
     9
100
AcDbCircle
 10
45.474256
 20
114.508598
 30
0.0
 40
0.499994
100
AcDbArc
 50
195.792242
 51
344.207758
  0
ARC
  5
B5C
100
AcDbEntity
  8
ALPHA
  6
CONTINUOUS
 62
     7
100
AcDbCircle
 10
45.474256
 20
114.508598
 30
0.0
 40
0.3
100
AcDbArc
 50
195.792242
 51
344.207758
  0
LINE
  5
B5D
100
AcDbEntity
  8
ALPHA
  6
CONTINUOUS
 62
     9
100
AcDbLine
 10
44.993129
 20
114.372523
 30
0.0
 11
45.18558
 21
114.426953
 31
0.0
  0
LINE
  5
B5E
100
AcDbEntity
  8
ALPHA
  6
CONTINUOUS
 62
     9
100
AcDbLine
 10
45.955383
 20
114.372523
 30
0.0
 11
45.762932
 21
114.426953
 31
0.0
  0
ARC
  5
B5F
100
AcDbEntity
  8
ALPHA
  6
CONTINUOUS
 62
     9
100
AcDbCircle
 10
49.474256
 20
114.508598
 30
0.0
 40
0.499994
100
AcDbArc
 50
195.792242
 51
344.207758
  0
ARC
  5
B60
100
AcDbEntity
  8
ALPHA
  6
CONTINUOUS
 62
     7
100
AcDbCircle
 10
49.474256
 20
114.508598
 30
0.0
 40
0.3
100
AcDbArc
 50
195.792242
 51
344.207758
  0
LINE
  5
B61
100
AcDbEntity
  8
ALPHA
  6
CONTINUOUS
 62
     9
100
AcDbLine
 10
49.955383
 20
114.372523
 30
0.0
 11
49.762932
 21
114.426953
 31
0.0
  0
LINE
  5
B62
100
AcDbEntity
  8
ALPHA
  6
CONTINUOUS
 62
     9
100
AcDbLine
 10
48.993129
 20
114.372523
 30
0.0
 11
49.18558
 21
114.426953
 31
0.0
  0
ARC
  5
B63
100
AcDbEntity
  8
ALPHA
  6
CONTINUOUS
 62
     9
100
AcDbCircle
 10
53.474256
 20
114.508598
 30
0.0
 40
0.499994
100
AcDbArc
 50
195.792242
 51
344.207758
  0
ARC
  5
B64
100
AcDbEntity
  8
ALPHA
  6
CONTINUOUS
 62
     7
100
AcDbCircle
 10
53.474256
 20
114.508598
 30
0.0
 40
0.3
100
AcDbArc
 50
195.792242
 51
344.207758
  0
LINE
  5
B65
100
AcDbEntity
  8
ALPHA
  6
CONTINUOUS
 62
     9
100
AcDbLine
 10
53.955383
 20
114.372523
 30
0.0
 11
53.762932
 21
114.426953
 31
0.0
  0
LINE
  5
B66
100
AcDbEntity
  8
ALPHA
  6
CONTINUOUS
 62
     9
100
AcDbLine
 10
52.993129
 20
114.372523
 30
0.0
 11
53.18558
 21
114.426953
 31
0.0
  0
LINE
  5
B67
100
AcDbEntity
  8
ALPHA
  6
CONTINUOUS
 62
     7
100
AcDbLine
 10
61.114256
 20
120.097802
 30
0.0
 11
61.214173
 21
114.373536
 31
0.0
  0
LINE
  5
B68
100
AcDbEntity
  8
ALPHA
  6
CONTINUOUS
 62
     7
100
AcDbLine
 10
57.714256
 20
120.097802
 30
0.0
 11
57.612103
 21
114.245439
 31
0.0
  0
ARC
  5
B69
100
AcDbEntity
  8
ALPHA
  6
CONTINUOUS
 62
     9
100
AcDbCircle
 10
57.474256
 20
114.508598
 30
0.0
 40
0.499994
100
AcDbArc
 50
195.792242
 51
344.207758
  0
ARC
  5
B6A
100
AcDbEntity
  8
ALPHA
  6
CONTINUOUS
 62
     7
100
AcDbCircle
 10
57.474256
 20
114.508598
 30
0.0
 40
0.3
100
AcDbArc
 50
195.792242
 51
344.207758
  0
LINE
  5
B6B
100
AcDbEntity
  8
ALPHA
  6
CONTINUOUS
 62
     9
100
AcDbLine
 10
56.993129
 20
114.372523
 30
0.0
 11
57.18558
 21
114.426953
 31
0.0
  0
LINE
  5
B6C
100
AcDbEntity
  8
ALPHA
  6
CONTINUOUS
 62
     9
100
AcDbLine
 10
57.955383
 20
114.372523
 30
0.0
 11
57.762932
 21
114.426953
 31
0.0
  0
ARC
  5
B6D
100
AcDbEntity
  8
ALPHA
  6
CONTINUOUS
 62
     9
100
AcDbCircle
 10
61.474256
 20
114.508598
 30
0.0
 40
0.499994
100
AcDbArc
 50
195.792242
 51
344.207758
  0
ARC
  5
B6E
100
AcDbEntity
  8
ALPHA
  6
CONTINUOUS
 62
     7
100
AcDbCircle
 10
61.474256
 20
114.508598
 30
0.0
 40
0.3
100
AcDbArc
 50
195.792242
 51
344.207758
  0
LINE
  5
B6F
100
AcDbEntity
  8
ALPHA
  6
CONTINUOUS
 62
     9
100
AcDbLine
 10
61.955383
 20
114.372523
 30
0.0
 11
61.762932
 21
114.426953
 31
0.0
  0
LINE
  5
B70
100
AcDbEntity
  8
ALPHA
  6
CONTINUOUS
 62
     9
100
AcDbLine
 10
60.993129
 20
114.372523
 30
0.0
 11
61.18558
 21
114.426953
 31
0.0
  0
ARC
  5
B71
100
AcDbEntity
  8
ALPHA
  6
CONTINUOUS
 62
     9
100
AcDbCircle
 10
65.474256
 20
114.508598
 30
0.0
 40
0.499994
100
AcDbArc
 50
195.792242
 51
344.207758
  0
ARC
  5
B72
100
AcDbEntity
  8
ALPHA
  6
CONTINUOUS
 62
     7
100
AcDbCircle
 10
65.474256
 20
114.508598
 30
0.0
 40
0.3
100
AcDbArc
 50
195.792242
 51
344.207758
  0
LINE
  5
B73
100
AcDbEntity
  8
ALPHA
  6
CONTINUOUS
 62
     9
100
AcDbLine
 10
65.955383
 20
114.372523
 30
0.0
 11
65.762932
 21
114.426953
 31
0.0
  0
LINE
  5
B74
100
AcDbEntity
  8
ALPHA
  6
CONTINUOUS
 62
     9
100
AcDbLine
 10
64.993129
 20
114.372523
 30
0.0
 11
65.18558
 21
114.426953
 31
0.0
  0
LINE
  5
B75
100
AcDbEntity
  8
ALPHA
  6
CONTINUOUS
 62
     7
100
AcDbLine
 10
58.379256
 20
121.387692
 30
0.0
 11
58.379256
 21
120.097802
 31
0.0
  0
LINE
  5
B76
100
AcDbEntity
  8
ALPHA
  6
CONTINUOUS
 62
     7
100
AcDbLine
 10
58.46203
 20
120.097802
 30
0.0
 11
57.714256
 21
120.097802
 31
0.0
  0
LINE
  5
B77
100
AcDbEntity
  8
ALPHA
  6
CONTINUOUS
 62
     7
100
AcDbLine
 10
62.195621
 20
122.787143
 30
0.0
 11
62.136918
 21
116.060416
 31
0.0
  0
LINE
  5
B78
100
AcDbEntity
  8
ALPHA
  6
CONTINUOUS
 62
     7
100
AcDbLine
 10
61.114256
 20
120.097802
 30
0.0
 11
60.485843
 21
120.097802
 31
0.0
  0
POLYLINE
  5
B79
100
AcDbEntity
  8
ALPHA
  6
CONTINUOUS
 62
     9
100
AcDb2dPolyline
 66
     1
 10
0.0
 20
0.0
 30
0.0
  0
VERTEX
  5
B7A
100
AcDbEntity
  8
ALPHA
  6
CONTINUOUS
 62
     9
100
AcDbVertex
100
AcDb2dVertex
 10
74.43873
 20
105.991821
 30
0.0
  0
VERTEX
  5
B7B
100
AcDbEntity
  8
ALPHA
  6
CONTINUOUS
 62
     9
100
AcDbVertex
100
AcDb2dVertex
 10
74.440096
 20
106.035367
 30
0.0
  0
VERTEX
  5
B7C
100
AcDbEntity
  8
ALPHA
  6
CONTINUOUS
 62
     9
100
AcDbVertex
100
AcDb2dVertex
 10
74.44118
 20
106.093658
 30
0.0
  0
VERTEX
  5
B7D
100
AcDbEntity
  8
ALPHA
  6
CONTINUOUS
 62
     9
100
AcDbVertex
100
AcDb2dVertex
 10
74.442045
 20
106.170521
 30
0.0
  0
VERTEX
  5
B7E
100
AcDbEntity
  8
ALPHA
  6
CONTINUOUS
 62
     9
100
AcDbVertex
100
AcDb2dVertex
 10
74.442727
 20
106.26853
 30
0.0
  0
VERTEX
  5
B7F
100
AcDbEntity
  8
ALPHA
  6
CONTINUOUS
 62
     9
100
AcDbVertex
100
AcDb2dVertex
 10
74.443253
 20
106.386193
 30
0.0
  0
VERTEX
  5
B80
100
AcDbEntity
  8
ALPHA
  6
CONTINUOUS
 62
     9
100
AcDbVertex
100
AcDb2dVertex
 10
74.443659
 20
106.521876
 30
0.0
  0
VERTEX
  5
B81
100
AcDbEntity
  8
ALPHA
  6
CONTINUOUS
 62
     9
100
AcDbVertex
100
AcDb2dVertex
 10
74.444234
 20
106.843665
 30
0.0
  0
SEQEND
  5
B82
100
AcDbEntity
  8
ALPHA
 62
     9
  0
LINE
  5
B83
100
AcDbEntity
  8
ALPHA
  6
CONTINUOUS
 62
     7
100
AcDbLine
 10
74.97612
 20
106.406616
 30
0.0
 11
74.97612
 21
107.289519
 31
0.0
  0
POLYLINE
  5
B84
100
AcDbEntity
  8
ALPHA
  6
CONTINUOUS
 62
     9
100
AcDb2dPolyline
 66
     1
 10
0.0
 20
0.0
 30
0.0
  0
VERTEX
  5
B85
100
AcDbEntity
  8
ALPHA
  6
CONTINUOUS
 62
     9
100
AcDbVertex
100
AcDb2dVertex
 10
74.444234
 20
106.843665
 30
0.0
  0
VERTEX
  5
B86
100
AcDbEntity
  8
ALPHA
  6
CONTINUOUS
 62
     9
100
AcDbVertex
100
AcDb2dVertex
 10
73.866536
 20
106.741879
 30
0.0
  0
VERTEX
  5
B87
100
AcDbEntity
  8
ALPHA
  6
CONTINUOUS
 62
     9
100
AcDbVertex
100
AcDb2dVertex
 10
73.353624
 20
106.653058
 30
0.0
  0
VERTEX
  5
B88
100
AcDbEntity
  8
ALPHA
  6
CONTINUOUS
 62
     9
100
AcDbVertex
100
AcDb2dVertex
 10
72.918666
 20
106.578861
 30
0.0
  0
VERTEX
  5
B89
100
AcDbEntity
  8
ALPHA
  6
CONTINUOUS
 62
     9
100
AcDbVertex
100
AcDb2dVertex
 10
72.570303
 20
106.520168
 30
0.0
  0
VERTEX
  5
B8A
100
AcDbEntity
  8
ALPHA
  6
CONTINUOUS
 62
     9
100
AcDbVertex
100
AcDb2dVertex
 10
72.316312
 20
106.477778
 30
0.0
  0
SEQEND
  5
B8B
100
AcDbEntity
  8
ALPHA
 62
     9
  0
ARC
  5
B8C
100
AcDbEntity
  8
ALPHA
  6
CONTINUOUS
 62
     7
100
AcDbCircle
 10
71.758768
 20
105.507503
 30
0.0
 40
0.999999
100
AcDbArc
 50
69.415165
 51
99.242633
  0
ARC
  5
B8D
100
AcDbEntity
  8
ALPHA
  6
CONTINUOUS
 62
     7
100
AcDbCircle
 10
74.47612
 20
106.406621
 30
0.0
 40
0.5
100
AcDbArc
 50
264.609047
 51
0.0
  0
ARC
  5
B8E
100
AcDbEntity
  8
ALPHA
  6
CONTINUOUS
 62
     7
100
AcDbCircle
 10
75.274704
 20
114.869024
 30
0.0
 40
9.0
100
AcDbArc
 50
249.415162
 51
264.573379
  0
POLYLINE
  5
B8F
100
AcDbEntity
  8
ALPHA
  6
CONTINUOUS
 62
     9
100
AcDb2dPolyline
 66
     1
 10
0.0
 20
0.0
 30
0.0
  0
VERTEX
  5
B90
100
AcDbEntity
  8
ALPHA
  6
CONTINUOUS
 62
     9
100
AcDbVertex
100
AcDb2dVertex
 10
74.429059
 20
105.90884
 30
0.0
  0
VERTEX
  5
B91
100
AcDbEntity
  8
ALPHA
  6
CONTINUOUS
 62
     9
100
AcDbVertex
100
AcDb2dVertex
 10
74.429342
 20
105.909402
 30
0.0
  0
VERTEX
  5
B92
100
AcDbEntity
  8
ALPHA
  6
CONTINUOUS
 62
     9
100
AcDbVertex
100
AcDb2dVertex
 10
74.430683
 20
105.913774
 30
0.0
  0
VERTEX
  5
B93
100
AcDbEntity
  8
ALPHA
  6
CONTINUOUS
 62
     9
100
AcDbVertex
100
AcDb2dVertex
 10
74.432757
 20
105.922829
 30
0.0
  0
VERTEX
  5
B94
100
AcDbEntity
  8
ALPHA
  6
CONTINUOUS
 62
     9
100
AcDbVertex
100
AcDb2dVertex
 10
74.434983
 20
105.937633
 30
0.0
  0
VERTEX
  5
B95
100
AcDbEntity
  8
ALPHA
  6
CONTINUOUS
 62
     9
100
AcDbVertex
100
AcDb2dVertex
 10
74.437023
 20
105.959973
 30
0.0
  0
VERTEX
  5
B96
100
AcDbEntity
  8
ALPHA
  6
CONTINUOUS
 62
     9
100
AcDbVertex
100
AcDb2dVertex
 10
74.43873
 20
105.991821
 30
0.0
  0
SEQEND
  5
B97
100
AcDbEntity
  8
ALPHA
 62
     9
  0
LINE
  5
B98
100
AcDbEntity
  8
ALPHA
  6
CONTINUOUS
 62
     9
100
AcDbLine
 10
72.316312
 20
106.477778
 30
0.0
 11
72.11036
 21
106.44365
 31
0.0
  0
ARC
  5
B99
100
AcDbEntity
  8
ALPHA
  6
CONTINUOUS
 62
     9
100
AcDbCircle
 10
69.474256
 20
114.508598
 30
0.0
 40
0.499994
100
AcDbArc
 50
195.792242
 51
344.207758
  0
ARC
  5
B9A
100
AcDbEntity
  8
ALPHA
  6
CONTINUOUS
 62
     7
100
AcDbCircle
 10
69.474256
 20
114.508598
 30
0.0
 40
0.3
100
AcDbArc
 50
195.792242
 51
344.207758
  0
LINE
  5
B9B
100
AcDbEntity
  8
ALPHA
  6
CONTINUOUS
 62
     9
100
AcDbLine
 10
69.955383
 20
114.372523
 30
0.0
 11
69.762932
 21
114.426953
 31
0.0
  0
LINE
  5
B9C
100
AcDbEntity
  8
ALPHA
  6
CONTINUOUS
 62
     9
100
AcDbLine
 10
68.993129
 20
114.372523
 30
0.0
 11
69.18558
 21
114.426953
 31
0.0
  0
LINE
  5
B9D
100
AcDbEntity
  8
ALPHA
  6
CONTINUOUS
 62
     9
100
AcDbLine
 10
74.424256
 20
107.27993
 30
0.0
 11
74.424256
 21
111.897802
 31
0.0
  0
ARC
  5
B9E
100
AcDbEntity
  8
ALPHA
  6
CONTINUOUS
 62
     7
100
AcDbCircle
 10
74.424256
 20
107.635426
 30
0.0
 40
0.65
100
AcDbArc
 50
280.097268
 51
0.0
  0
LINE
  5
B9F
100
AcDbEntity
  8
ALPHA
  6
CONTINUOUS
 62
     9
100
AcDbLine
 10
74.606163
 20
106.858129
 30
0.0
 11
74.754315
 21
106.918291
 31
0.0
  0
POLYLINE
  5
BA0
100
AcDbEntity
  8
ALPHA
  6
CONTINUOUS
 62
     7
100
AcDb2dPolyline
 66
     1
 10
0.0
 20
0.0
 30
0.0
  0
VERTEX
  5
BA1
100
AcDbEntity
  8
ALPHA
  6
CONTINUOUS
 62
     7
100
AcDbVertex
100
AcDb2dVertex
 10
74.798613
 20
107.104054
 30
0.0
  0
VERTEX
  5
BA2
100
AcDbEntity
  8
ALPHA
  6
CONTINUOUS
 62
     7
100
AcDbVertex
100
AcDb2dVertex
 10
74.679298
 20
107.153757
 30
0.0
  0
VERTEX
  5
BA3
100
AcDbEntity
  8
ALPHA
  6
CONTINUOUS
 62
     7
100
AcDbVertex
100
AcDb2dVertex
 10
74.553227
 20
107.21442
 30
0.0
  0
VERTEX
  5
BA4
100
AcDbEntity
  8
ALPHA
  6
CONTINUOUS
 62
     7
100
AcDbVertex
100
AcDb2dVertex
 10
74.424256
 20
107.27993
 30
0.0
  0
SEQEND
  5
BA5
100
AcDbEntity
  8
ALPHA
 62
     7
  0
POLYLINE
  5
BA6
100
AcDbEntity
  8
ALPHA
  6
CONTINUOUS
 62
     9
100
AcDb2dPolyline
 66
     1
 10
0.0
 20
0.0
 30
0.0
  0
VERTEX
  5
BA7
100
AcDbEntity
  8
ALPHA
  6
CONTINUOUS
 62
     9
100
AcDbVertex
100
AcDb2dVertex
 10
74.444234
 20
106.843663
 30
0.0
  0
VERTEX
  5
BA8
100
AcDbEntity
  8
ALPHA
  6
CONTINUOUS
 62
     9
100
AcDbVertex
100
AcDb2dVertex
 10
74.490623
 20
106.927681
 30
0.0
  0
VERTEX
  5
BA9
100
AcDbEntity
  8
ALPHA
  6
CONTINUOUS
 62
     9
100
AcDbVertex
100
AcDb2dVertex
 10
74.530566
 20
106.979577
 30
0.0
  0
VERTEX
  5
BAA
100
AcDbEntity
  8
ALPHA
  6
CONTINUOUS
 62
     9
100
AcDbVertex
100
AcDb2dVertex
 10
74.543218
 20
106.987361
 30
0.0
  0
SEQEND
  5
BAB
100
AcDbEntity
  8
ALPHA
 62
     9
  0
LINE
  5
BAC
100
AcDbEntity
  8
ALPHA
  6
CONTINUOUS
 62
     9
100
AcDbLine
 10
74.444234
 20
106.843663
 30
0.0
 11
74.606163
 21
106.858129
 31
0.0
  0
POLYLINE
  5
BAD
100
AcDbEntity
  8
ALPHA
  6
CONTINUOUS
 62
     9
100
AcDb2dPolyline
 66
     1
 10
0.0
 20
0.0
 30
0.0
  0
VERTEX
  5
BAE
100
AcDbEntity
  8
ALPHA
  6
CONTINUOUS
 62
     9
100
AcDbVertex
100
AcDb2dVertex
 10
74.754315
 20
106.918291
 30
0.0
  0
VERTEX
  5
BAF
100
AcDbEntity
  8
ALPHA
  6
CONTINUOUS
 62
     9
100
AcDbVertex
100
AcDb2dVertex
 10
74.872999
 20
107.017778
 30
0.0
  0
VERTEX
  5
BB0
100
AcDbEntity
  8
ALPHA
  6
CONTINUOUS
 62
     9
100
AcDbVertex
100
AcDb2dVertex
 10
74.94964
 20
107.146049
 30
0.0
  0
SEQEND
  5
BB1
100
AcDbEntity
  8
ALPHA
 62
     9
  0
LINE
  5
BB2
100
AcDbEntity
  8
ALPHA
  6
CONTINUOUS
 62
     9
100
AcDbLine
 10
74.94964
 20
107.146049
 30
0.0
 11
74.976122
 21
107.289519
 31
0.0
  0
ARC
  5
BB3
100
AcDbEntity
  8
ALPHA
  6
CONTINUOUS
 62
     7
100
AcDbCircle
 10
74.424256
 20
112.547802
 30
0.0
 40
0.65
100
AcDbArc
 50
270.0
 51
0.0
  0
POLYLINE
  5
BB4
100
AcDbEntity
  8
ALPHA
  6
CONTINUOUS
 62
     7
100
AcDb2dPolyline
 66
     1
 10
0.0
 20
0.0
 30
0.0
  0
VERTEX
  5
BB5
100
AcDbEntity
  8
ALPHA
  6
CONTINUOUS
 62
     7
100
AcDbVertex
100
AcDb2dVertex
 10
74.750611
 20
111.98567
 30
0.0
  0
VERTEX
  5
BB6
100
AcDbEntity
  8
ALPHA
  6
CONTINUOUS
 62
     7
100
AcDbVertex
100
AcDb2dVertex
 10
74.644402
 20
112.050923
 30
0.0
  0
VERTEX
  5
BB7
100
AcDbEntity
  8
ALPHA
  6
CONTINUOUS
 62
     7
100
AcDbVertex
100
AcDb2dVertex
 10
74.535018
 20
112.122878
 30
0.0
  0
VERTEX
  5
BB8
100
AcDbEntity
  8
ALPHA
  6
CONTINUOUS
 62
     7
100
AcDbVertex
100
AcDb2dVertex
 10
74.424256
 20
112.197802
 30
0.0
  0
SEQEND
  5
BB9
100
AcDbEntity
  8
ALPHA
 62
     7
  0
LINE
  5
BBA
100
AcDbEntity
  8
ALPHA
  6
CONTINUOUS
 62
     9
100
AcDbLine
 10
74.274256
 20
161.297802
 30
0.0
 11
74.274256
 21
154.797802
 31
0.0
  0
LINE
  5
BBB
100
AcDbEntity
  8
ALPHA
  6
CONTINUOUS
 62
     7
100
AcDbLine
 10
69.349256
 20
144.897802
 30
0.0
 11
64.499256
 21
144.897802
 31
0.0
  0
LINE
  5
BBC
100
AcDbEntity
  8
ALPHA
  6
CONTINUOUS
 62
     7
100
AcDbLine
 10
68.849256
 20
144.397802
 30
0.0
 11
64.999256
 21
144.397802
 31
0.0
  0
LINE
  5
BBD
100
AcDbEntity
  8
ALPHA
  6
CONTINUOUS
 62
     7
100
AcDbLine
 10
68.849256
 20
142.177802
 30
0.0
 11
64.999256
 21
142.177802
 31
0.0
  0
LINE
  5
BBE
100
AcDbEntity
  8
ALPHA
  6
CONTINUOUS
 62
     7
100
AcDbLine
 10
68.849256
 20
141.578002
 30
0.0
 11
64.999256
 21
141.578002
 31
0.0
  0
LINE
  5
BBF
100
AcDbEntity
  8
ALPHA
  6
CONTINUOUS
 62
     9
100
AcDbLine
 10
68.849256
 20
141.278002
 30
0.0
 11
64.999256
 21
141.278002
 31
0.0
  0
LINE
  5
BC0
100
AcDbEntity
  8
ALPHA
  6
CONTINUOUS
 62
     7
100
AcDbLine
 10
64.999256
 20
139.097802
 30
0.0
 11
68.849256
 21
139.097802
 31
0.0
  0
LINE
  5
BC1
100
AcDbEntity
  8
ALPHA
  6
CONTINUOUS
 62
     7
100
AcDbLine
 10
64.499256
 20
138.597802
 30
0.0
 11
69.349256
 21
138.597802
 31
0.0
  0
POLYLINE
  5
BC2
100
AcDbEntity
  8
ALPHA
  6
CONTINUOUS
 62
     7
100
AcDb2dPolyline
 66
     1
 10
0.0
 20
0.0
 30
0.0
  0
VERTEX
  5
BC3
100
AcDbEntity
  8
ALPHA
  6
CONTINUOUS
 62
     7
100
AcDbVertex
100
AcDb2dVertex
 10
69.024256
 20
127.532404
 30
0.0
  0
VERTEX
  5
BC4
100
AcDbEntity
  8
ALPHA
  6
CONTINUOUS
 62
     7
100
AcDbVertex
100
AcDb2dVertex
 10
68.939282
 20
127.553054
 30
0.0
  0
VERTEX
  5
BC5
100
AcDbEntity
  8
ALPHA
  6
CONTINUOUS
 62
     7
100
AcDbVertex
100
AcDb2dVertex
 10
68.689973
 20
127.572101
 30
0.0
  0
VERTEX
  5
BC6
100
AcDbEntity
  8
ALPHA
  6
CONTINUOUS
 62
     7
100
AcDbVertex
100
AcDb2dVertex
 10
68.300352
 20
127.587799
 30
0.0
  0
VERTEX
  5
BC7
100
AcDbEntity
  8
ALPHA
  6
CONTINUOUS
 62
     7
100
AcDbVertex
100
AcDb2dVertex
 10
67.794552
 20
127.599144
 30
0.0
  0
VERTEX
  5
BC8
100
AcDbEntity
  8
ALPHA
  6
CONTINUOUS
 62
     7
100
AcDbVertex
100
AcDb2dVertex
 10
67.225047
 20
127.604981
 30
0.0
  0
VERTEX
  5
BC9
100
AcDbEntity
  8
ALPHA
  6
CONTINUOUS
 62
     7
100
AcDbVertex
100
AcDb2dVertex
 10
66.623465
 20
127.604981
 30
0.0
  0
VERTEX
  5
BCA
100
AcDbEntity
  8
ALPHA
  6
CONTINUOUS
 62
     7
100
AcDbVertex
100
AcDb2dVertex
 10
66.05396
 20
127.599144
 30
0.0
  0
VERTEX
  5
BCB
100
AcDbEntity
  8
ALPHA
  6
CONTINUOUS
 62
     7
100
AcDbVertex
100
AcDb2dVertex
 10
65.54816
 20
127.587799
 30
0.0
  0
VERTEX
  5
BCC
100
AcDbEntity
  8
ALPHA
  6
CONTINUOUS
 62
     7
100
AcDbVertex
100
AcDb2dVertex
 10
65.158539
 20
127.572101
 30
0.0
  0
VERTEX
  5
BCD
100
AcDbEntity
  8
ALPHA
  6
CONTINUOUS
 62
     7
100
AcDbVertex
100
AcDb2dVertex
 10
64.90923
 20
127.553054
 30
0.0
  0
VERTEX
  5
BCE
100
AcDbEntity
  8
ALPHA
  6
CONTINUOUS
 62
     7
100
AcDbVertex
100
AcDb2dVertex
 10
64.824256
 20
127.532404
 30
0.0
  0
SEQEND
  5
BCF
100
AcDbEntity
  8
ALPHA
 62
     7
  0
POLYLINE
  5
BD0
100
AcDbEntity
  8
ALPHA
  6
CONTINUOUS
 62
     7
100
AcDb2dPolyline
 66
     1
 10
0.0
 20
0.0
 30
0.0
  0
VERTEX
  5
BD1
100
AcDbEntity
  8
ALPHA
  6
CONTINUOUS
 62
     7
100
AcDbVertex
100
AcDb2dVertex
 10
64.824256
 20
127.532404
 30
0.0
  0
VERTEX
  5
BD2
100
AcDbEntity
  8
ALPHA
  6
CONTINUOUS
 62
     7
100
AcDbVertex
100
AcDb2dVertex
 10
64.90923
 20
127.511754
 30
0.0
  0
VERTEX
  5
BD3
100
AcDbEntity
  8
ALPHA
  6
CONTINUOUS
 62
     7
100
AcDbVertex
100
AcDb2dVertex
 10
65.158539
 20
127.492707
 30
0.0
  0
VERTEX
  5
BD4
100
AcDbEntity
  8
ALPHA
  6
CONTINUOUS
 62
     7
100
AcDbVertex
100
AcDb2dVertex
 10
65.54816
 20
127.477009
 30
0.0
  0
VERTEX
  5
BD5
100
AcDbEntity
  8
ALPHA
  6
CONTINUOUS
 62
     7
100
AcDbVertex
100
AcDb2dVertex
 10
66.05396
 20
127.465664
 30
0.0
  0
VERTEX
  5
BD6
100
AcDbEntity
  8
ALPHA
  6
CONTINUOUS
 62
     7
100
AcDbVertex
100
AcDb2dVertex
 10
66.623465
 20
127.459827
 30
0.0
  0
VERTEX
  5
BD7
100
AcDbEntity
  8
ALPHA
  6
CONTINUOUS
 62
     7
100
AcDbVertex
100
AcDb2dVertex
 10
67.225047
 20
127.459827
 30
0.0
  0
VERTEX
  5
BD8
100
AcDbEntity
  8
ALPHA
  6
CONTINUOUS
 62
     7
100
AcDbVertex
100
AcDb2dVertex
 10
67.794552
 20
127.465664
 30
0.0
  0
VERTEX
  5
BD9
100
AcDbEntity
  8
ALPHA
  6
CONTINUOUS
 62
     7
100
AcDbVertex
100
AcDb2dVertex
 10
68.300352
 20
127.477009
 30
0.0
  0
VERTEX
  5
BDA
100
AcDbEntity
  8
ALPHA
  6
CONTINUOUS
 62
     7
100
AcDbVertex
100
AcDb2dVertex
 10
68.689973
 20
127.492707
 30
0.0
  0
VERTEX
  5
BDB
100
AcDbEntity
  8
ALPHA
  6
CONTINUOUS
 62
     7
100
AcDbVertex
100
AcDb2dVertex
 10
68.939282
 20
127.511754
 30
0.0
  0
VERTEX
  5
BDC
100
AcDbEntity
  8
ALPHA
  6
CONTINUOUS
 62
     7
100
AcDbVertex
100
AcDb2dVertex
 10
69.024256
 20
127.532404
 30
0.0
  0
SEQEND
  5
BDD
100
AcDbEntity
  8
ALPHA
 62
     7
  0
LINE
  5
BDE
100
AcDbEntity
  8
ALPHA
  6
CONTINUOUS
 62
     7
100
AcDbLine
 10
64.999256
 20
144.397802
 30
0.0
 11
64.999256
 21
139.097802
 31
0.0
  0
LINE
  5
BDF
100
AcDbEntity
  8
ALPHA
  6
CONTINUOUS
 62
     7
100
AcDbLine
 10
64.499256
 20
144.897802
 30
0.0
 11
64.499256
 21
138.597802
 31
0.0
  0
LINE
  5
BE0
100
AcDbEntity
  8
ALPHA
  6
CONTINUOUS
 62
     7
100
AcDbLine
 10
64.269256
 20
138.597802
 30
0.0
 11
64.269256
 21
144.897802
 31
0.0
  0
LINE
  5
BE1
100
AcDbEntity
  8
ALPHA
  6
CONTINUOUS
 62
     7
100
AcDbLine
 10
63.769256
 20
139.097802
 30
0.0
 11
63.769256
 21
144.397802
 31
0.0
  0
LINE
  5
BE2
100
AcDbEntity
  8
ALPHA
  6
CONTINUOUS
 62
     7
100
AcDbLine
 10
63.67612
 20
141.278002
 30
0.0
 11
63.67612
 21
139.097802
 31
0.0
  0
LINE
  5
BE3
100
AcDbEntity
  8
ALPHA
  6
CONTINUOUS
 62
     7
100
AcDbLine
 10
60.379256
 20
144.397802
 30
0.0
 11
60.379256
 21
139.097802
 31
0.0
  0
LINE
  5
BE4
100
AcDbEntity
  8
ALPHA
  6
CONTINUOUS
 62
     7
100
AcDbLine
 10
59.919256
 20
144.397802
 30
0.0
 11
59.919256
 21
139.097802
 31
0.0
  0
LINE
  5
BE5
100
AcDbEntity
  8
ALPHA
  6
CONTINUOUS
 62
     7
100
AcDbLine
 10
59.419256
 20
144.897802
 30
0.0
 11
59.419256
 21
138.597802
 31
0.0
  0
LINE
  5
BE6
100
AcDbEntity
  8
ALPHA
  6
CONTINUOUS
 62
     7
100
AcDbLine
 10
59.189256
 20
138.597802
 30
0.0
 11
59.189256
 21
144.897802
 31
0.0
  0
LINE
  5
BE7
100
AcDbEntity
  8
ALPHA
  6
CONTINUOUS
 62
     7
100
AcDbLine
 10
58.689256
 20
139.097802
 30
0.0
 11
58.689256
 21
144.397802
 31
0.0
  0
LINE
  5
BE8
100
AcDbEntity
  8
ALPHA
  6
CONTINUOUS
 62
     7
100
AcDbLine
 10
54.849256
 20
144.397802
 30
0.0
 11
54.849256
 21
139.097802
 31
0.0
  0
LINE
  5
BE9
100
AcDbEntity
  8
ALPHA
  6
CONTINUOUS
 62
     7
100
AcDbLine
 10
54.839256
 20
144.397802
 30
0.0
 11
54.839256
 21
139.097802
 31
0.0
  0
LINE
  5
BEA
100
AcDbEntity
  8
ALPHA
  6
CONTINUOUS
 62
     7
100
AcDbLine
 10
54.339256
 20
144.897802
 30
0.0
 11
54.339256
 21
138.597802
 31
0.0
  0
LINE
  5
BEB
100
AcDbEntity
  8
ALPHA
  6
CONTINUOUS
 62
     7
100
AcDbLine
 10
54.109256
 20
138.597802
 30
0.0
 11
54.109256
 21
144.897802
 31
0.0
  0
LINE
  5
BEC
100
AcDbEntity
  8
ALPHA
  6
CONTINUOUS
 62
     7
100
AcDbLine
 10
53.609256
 20
139.097802
 30
0.0
 11
53.609256
 21
144.397802
 31
0.0
  0
LINE
  5
BED
100
AcDbEntity
  8
ALPHA
  6
CONTINUOUS
 62
     7
100
AcDbLine
 10
49.769256
 20
144.397802
 30
0.0
 11
49.769256
 21
139.097802
 31
0.0
  0
LINE
  5
BEE
100
AcDbEntity
  8
ALPHA
  6
CONTINUOUS
 62
     7
100
AcDbLine
 10
49.759256
 20
144.397802
 30
0.0
 11
49.759256
 21
139.097802
 31
0.0
  0
LINE
  5
BEF
100
AcDbEntity
  8
ALPHA
  6
CONTINUOUS
 62
     7
100
AcDbLine
 10
49.259256
 20
144.897802
 30
0.0
 11
49.259256
 21
138.597802
 31
0.0
  0
LINE
  5
BF0
100
AcDbEntity
  8
ALPHA
  6
CONTINUOUS
 62
     7
100
AcDbLine
 10
49.029256
 20
138.597802
 30
0.0
 11
49.029256
 21
144.897802
 31
0.0
  0
LINE
  5
BF1
100
AcDbEntity
  8
ALPHA
  6
CONTINUOUS
 62
     7
100
AcDbLine
 10
48.529256
 20
139.097802
 30
0.0
 11
48.529256
 21
144.397802
 31
0.0
  0
LINE
  5
BF2
100
AcDbEntity
  8
ALPHA
  6
CONTINUOUS
 62
     7
100
AcDbLine
 10
44.689256
 20
144.397802
 30
0.0
 11
44.689256
 21
139.097802
 31
0.0
  0
LINE
  5
BF3
100
AcDbEntity
  8
ALPHA
  6
CONTINUOUS
 62
     7
100
AcDbLine
 10
44.679256
 20
144.397802
 30
0.0
 11
44.679256
 21
139.097802
 31
0.0
  0
LINE
  5
BF4
100
AcDbEntity
  8
ALPHA
  6
CONTINUOUS
 62
     7
100
AcDbLine
 10
44.179256
 20
144.897802
 30
0.0
 11
44.179256
 21
138.597802
 31
0.0
  0
LINE
  5
BF5
100
AcDbEntity
  8
ALPHA
  6
CONTINUOUS
 62
     7
100
AcDbLine
 10
43.949256
 20
138.597802
 30
0.0
 11
43.949256
 21
144.897802
 31
0.0
  0
LINE
  5
BF6
100
AcDbEntity
  8
ALPHA
  6
CONTINUOUS
 62
     7
100
AcDbLine
 10
43.449256
 20
139.097802
 30
0.0
 11
43.449256
 21
144.397802
 31
0.0
  0
LINE
  5
BF7
100
AcDbEntity
  8
ALPHA
  6
CONTINUOUS
 62
     7
100
AcDbLine
 10
54.339256
 20
138.597802
 30
0.0
 11
54.839256
 21
139.097802
 31
0.0
  0
LINE
  5
BF8
100
AcDbEntity
  8
ALPHA
  6
CONTINUOUS
 62
     7
100
AcDbLine
 10
54.339256
 20
138.597802
 30
0.0
 11
59.189256
 21
138.597802
 31
0.0
  0
POLYLINE
  5
BF9
100
AcDbEntity
  8
ALPHA
  6
CONTINUOUS
 62
     7
100
AcDb2dPolyline
 66
     1
 10
0.0
 20
0.0
 30
0.0
  0
VERTEX
  5
BFA
100
AcDbEntity
  8
ALPHA
  6
CONTINUOUS
 62
     7
100
AcDbVertex
100
AcDb2dVertex
 10
48.704256
 20
127.532404
 30
0.0
  0
VERTEX
  5
BFB
100
AcDbEntity
  8
ALPHA
  6
CONTINUOUS
 62
     7
100
AcDbVertex
100
AcDb2dVertex
 10
48.619282
 20
127.553054
 30
0.0
  0
VERTEX
  5
BFC
100
AcDbEntity
  8
ALPHA
  6
CONTINUOUS
 62
     7
100
AcDbVertex
100
AcDb2dVertex
 10
48.369973
 20
127.572101
 30
0.0
  0
VERTEX
  5
BFD
100
AcDbEntity
  8
ALPHA
  6
CONTINUOUS
 62
     7
100
AcDbVertex
100
AcDb2dVertex
 10
47.980352
 20
127.587799
 30
0.0
  0
VERTEX
  5
BFE
100
AcDbEntity
  8
ALPHA
  6
CONTINUOUS
 62
     7
100
AcDbVertex
100
AcDb2dVertex
 10
47.474552
 20
127.599144
 30
0.0
  0
VERTEX
  5
BFF
100
AcDbEntity
  8
ALPHA
  6
CONTINUOUS
 62
     7
100
AcDbVertex
100
AcDb2dVertex
 10
46.905047
 20
127.604981
 30
0.0
  0
VERTEX
  5
C00
100
AcDbEntity
  8
ALPHA
  6
CONTINUOUS
 62
     7
100
AcDbVertex
100
AcDb2dVertex
 10
46.303465
 20
127.604981
 30
0.0
  0
VERTEX
  5
C01
100
AcDbEntity
  8
ALPHA
  6
CONTINUOUS
 62
     7
100
AcDbVertex
100
AcDb2dVertex
 10
45.73396
 20
127.599144
 30
0.0
  0
VERTEX
  5
C02
100
AcDbEntity
  8
ALPHA
  6
CONTINUOUS
 62
     7
100
AcDbVertex
100
AcDb2dVertex
 10
45.22816
 20
127.587799
 30
0.0
  0
VERTEX
  5
C03
100
AcDbEntity
  8
ALPHA
  6
CONTINUOUS
 62
     7
100
AcDbVertex
100
AcDb2dVertex
 10
44.838539
 20
127.572101
 30
0.0
  0
VERTEX
  5
C04
100
AcDbEntity
  8
ALPHA
  6
CONTINUOUS
 62
     7
100
AcDbVertex
100
AcDb2dVertex
 10
44.58923
 20
127.553054
 30
0.0
  0
VERTEX
  5
C05
100
AcDbEntity
  8
ALPHA
  6
CONTINUOUS
 62
     7
100
AcDbVertex
100
AcDb2dVertex
 10
44.504256
 20
127.532404
 30
0.0
  0
SEQEND
  5
C06
100
AcDbEntity
  8
ALPHA
 62
     7
  0
POLYLINE
  5
C07
100
AcDbEntity
  8
ALPHA
  6
CONTINUOUS
 62
     7
100
AcDb2dPolyline
 66
     1
 10
0.0
 20
0.0
 30
0.0
  0
VERTEX
  5
C08
100
AcDbEntity
  8
ALPHA
  6
CONTINUOUS
 62
     7
100
AcDbVertex
100
AcDb2dVertex
 10
44.504256
 20
127.532404
 30
0.0
  0
VERTEX
  5
C09
100
AcDbEntity
  8
ALPHA
  6
CONTINUOUS
 62
     7
100
AcDbVertex
100
AcDb2dVertex
 10
44.58923
 20
127.511754
 30
0.0
  0
VERTEX
  5
C0A
100
AcDbEntity
  8
ALPHA
  6
CONTINUOUS
 62
     7
100
AcDbVertex
100
AcDb2dVertex
 10
44.838539
 20
127.492707
 30
0.0
  0
VERTEX
  5
C0B
100
AcDbEntity
  8
ALPHA
  6
CONTINUOUS
 62
     7
100
AcDbVertex
100
AcDb2dVertex
 10
45.22816
 20
127.477009
 30
0.0
  0
VERTEX
  5
C0C
100
AcDbEntity
  8
ALPHA
  6
CONTINUOUS
 62
     7
100
AcDbVertex
100
AcDb2dVertex
 10
45.73396
 20
127.465664
 30
0.0
  0
VERTEX
  5
C0D
100
AcDbEntity
  8
ALPHA
  6
CONTINUOUS
 62
     7
100
AcDbVertex
100
AcDb2dVertex
 10
46.303465
 20
127.459827
 30
0.0
  0
VERTEX
  5
C0E
100
AcDbEntity
  8
ALPHA
  6
CONTINUOUS
 62
     7
100
AcDbVertex
100
AcDb2dVertex
 10
46.905047
 20
127.459827
 30
0.0
  0
VERTEX
  5
C0F
100
AcDbEntity
  8
ALPHA
  6
CONTINUOUS
 62
     7
100
AcDbVertex
100
AcDb2dVertex
 10
47.474552
 20
127.465664
 30
0.0
  0
VERTEX
  5
C10
100
AcDbEntity
  8
ALPHA
  6
CONTINUOUS
 62
     7
100
AcDbVertex
100
AcDb2dVertex
 10
47.980352
 20
127.477009
 30
0.0
  0
VERTEX
  5
C11
100
AcDbEntity
  8
ALPHA
  6
CONTINUOUS
 62
     7
100
AcDbVertex
100
AcDb2dVertex
 10
48.369973
 20
127.492707
 30
0.0
  0
VERTEX
  5
C12
100
AcDbEntity
  8
ALPHA
  6
CONTINUOUS
 62
     7
100
AcDbVertex
100
AcDb2dVertex
 10
48.619282
 20
127.511754
 30
0.0
  0
VERTEX
  5
C13
100
AcDbEntity
  8
ALPHA
  6
CONTINUOUS
 62
     7
100
AcDbVertex
100
AcDb2dVertex
 10
48.704256
 20
127.532404
 30
0.0
  0
SEQEND
  5
C14
100
AcDbEntity
  8
ALPHA
 62
     7
  0
ARC
  5
C15
100
AcDbEntity
  8
ALPHA
  6
CONTINUOUS
 62
     9
100
AcDbCircle
 10
45.474256
 20
124.687006
 30
0.0
 40
0.499994
100
AcDbArc
 50
15.792242
 51
164.207758
  0
ARC
  5
C16
100
AcDbEntity
  8
ALPHA
  6
CONTINUOUS
 62
     7
100
AcDbCircle
 10
45.474256
 20
124.687006
 30
0.0
 40
0.3
100
AcDbArc
 50
15.792242
 51
164.207758
  0
LINE
  5
C17
100
AcDbEntity
  8
ALPHA
  6
CONTINUOUS
 62
     9
100
AcDbLine
 10
44.993129
 20
124.823081
 30
0.0
 11
45.18558
 21
124.768651
 31
0.0
  0
LINE
  5
C18
100
AcDbEntity
  8
ALPHA
  6
CONTINUOUS
 62
     9
100
AcDbLine
 10
45.955383
 20
124.823081
 30
0.0
 11
45.762932
 21
124.768651
 31
0.0
  0
ARC
  5
C19
100
AcDbEntity
  8
ALPHA
  6
CONTINUOUS
 62
     9
100
AcDbCircle
 10
49.474256
 20
124.687006
 30
0.0
 40
0.499994
100
AcDbArc
 50
15.792242
 51
164.207758
  0
ARC
  5
C1A
100
AcDbEntity
  8
ALPHA
  6
CONTINUOUS
 62
     7
100
AcDbCircle
 10
49.474256
 20
124.687006
 30
0.0
 40
0.3
100
AcDbArc
 50
15.792242
 51
164.207758
  0
LINE
  5
C1B
100
AcDbEntity
  8
ALPHA
  6
CONTINUOUS
 62
     9
100
AcDbLine
 10
48.993129
 20
124.823081
 30
0.0
 11
49.18558
 21
124.768651
 31
0.0
  0
LINE
  5
C1C
100
AcDbEntity
  8
ALPHA
  6
CONTINUOUS
 62
     9
100
AcDbLine
 10
49.955383
 20
124.823081
 30
0.0
 11
49.762932
 21
124.768651
 31
0.0
  0
ARC
  5
C1D
100
AcDbEntity
  8
ALPHA
  6
CONTINUOUS
 62
     9
100
AcDbCircle
 10
53.474256
 20
124.687006
 30
0.0
 40
0.499994
100
AcDbArc
 50
15.792242
 51
164.207758
  0
ARC
  5
C1E
100
AcDbEntity
  8
ALPHA
  6
CONTINUOUS
 62
     7
100
AcDbCircle
 10
53.474256
 20
124.687006
 30
0.0
 40
0.3
100
AcDbArc
 50
15.792242
 51
164.207758
  0
LINE
  5
C1F
100
AcDbEntity
  8
ALPHA
  6
CONTINUOUS
 62
     9
100
AcDbLine
 10
52.993129
 20
124.823081
 30
0.0
 11
53.18558
 21
124.768651
 31
0.0
  0
LINE
  5
C20
100
AcDbEntity
  8
ALPHA
  6
CONTINUOUS
 62
     9
100
AcDbLine
 10
53.955383
 20
124.823081
 30
0.0
 11
53.762932
 21
124.768651
 31
0.0
  0
POLYLINE
  5
C21
100
AcDbEntity
  8
ALPHA
  6
CONTINUOUS
 62
     7
100
AcDb2dPolyline
 66
     1
 10
0.0
 20
0.0
 30
0.0
  0
VERTEX
  5
C22
100
AcDbEntity
  8
ALPHA
  6
CONTINUOUS
 62
     7
100
AcDbVertex
100
AcDb2dVertex
 10
53.784256
 20
127.532404
 30
0.0
  0
VERTEX
  5
C23
100
AcDbEntity
  8
ALPHA
  6
CONTINUOUS
 62
     7
100
AcDbVertex
100
AcDb2dVertex
 10
53.699282
 20
127.553054
 30
0.0
  0
VERTEX
  5
C24
100
AcDbEntity
  8
ALPHA
  6
CONTINUOUS
 62
     7
100
AcDbVertex
100
AcDb2dVertex
 10
53.449973
 20
127.572101
 30
0.0
  0
VERTEX
  5
C25
100
AcDbEntity
  8
ALPHA
  6
CONTINUOUS
 62
     7
100
AcDbVertex
100
AcDb2dVertex
 10
53.060352
 20
127.587799
 30
0.0
  0
VERTEX
  5
C26
100
AcDbEntity
  8
ALPHA
  6
CONTINUOUS
 62
     7
100
AcDbVertex
100
AcDb2dVertex
 10
52.554552
 20
127.599144
 30
0.0
  0
VERTEX
  5
C27
100
AcDbEntity
  8
ALPHA
  6
CONTINUOUS
 62
     7
100
AcDbVertex
100
AcDb2dVertex
 10
51.985047
 20
127.604981
 30
0.0
  0
VERTEX
  5
C28
100
AcDbEntity
  8
ALPHA
  6
CONTINUOUS
 62
     7
100
AcDbVertex
100
AcDb2dVertex
 10
51.383465
 20
127.604981
 30
0.0
  0
VERTEX
  5
C29
100
AcDbEntity
  8
ALPHA
  6
CONTINUOUS
 62
     7
100
AcDbVertex
100
AcDb2dVertex
 10
50.81396
 20
127.599144
 30
0.0
  0
VERTEX
  5
C2A
100
AcDbEntity
  8
ALPHA
  6
CONTINUOUS
 62
     7
100
AcDbVertex
100
AcDb2dVertex
 10
50.30816
 20
127.587799
 30
0.0
  0
VERTEX
  5
C2B
100
AcDbEntity
  8
ALPHA
  6
CONTINUOUS
 62
     7
100
AcDbVertex
100
AcDb2dVertex
 10
49.918539
 20
127.572101
 30
0.0
  0
VERTEX
  5
C2C
100
AcDbEntity
  8
ALPHA
  6
CONTINUOUS
 62
     7
100
AcDbVertex
100
AcDb2dVertex
 10
49.66923
 20
127.553054
 30
0.0
  0
VERTEX
  5
C2D
100
AcDbEntity
  8
ALPHA
  6
CONTINUOUS
 62
     7
100
AcDbVertex
100
AcDb2dVertex
 10
49.584256
 20
127.532404
 30
0.0
  0
SEQEND
  5
C2E
100
AcDbEntity
  8
ALPHA
 62
     7
  0
POLYLINE
  5
C2F
100
AcDbEntity
  8
ALPHA
  6
CONTINUOUS
 62
     7
100
AcDb2dPolyline
 66
     1
 10
0.0
 20
0.0
 30
0.0
  0
VERTEX
  5
C30
100
AcDbEntity
  8
ALPHA
  6
CONTINUOUS
 62
     7
100
AcDbVertex
100
AcDb2dVertex
 10
49.584256
 20
127.532404
 30
0.0
  0
VERTEX
  5
C31
100
AcDbEntity
  8
ALPHA
  6
CONTINUOUS
 62
     7
100
AcDbVertex
100
AcDb2dVertex
 10
49.66923
 20
127.511754
 30
0.0
  0
VERTEX
  5
C32
100
AcDbEntity
  8
ALPHA
  6
CONTINUOUS
 62
     7
100
AcDbVertex
100
AcDb2dVertex
 10
49.918539
 20
127.492707
 30
0.0
  0
VERTEX
  5
C33
100
AcDbEntity
  8
ALPHA
  6
CONTINUOUS
 62
     7
100
AcDbVertex
100
AcDb2dVertex
 10
50.30816
 20
127.477009
 30
0.0
  0
VERTEX
  5
C34
100
AcDbEntity
  8
ALPHA
  6
CONTINUOUS
 62
     7
100
AcDbVertex
100
AcDb2dVertex
 10
50.81396
 20
127.465664
 30
0.0
  0
VERTEX
  5
C35
100
AcDbEntity
  8
ALPHA
  6
CONTINUOUS
 62
     7
100
AcDbVertex
100
AcDb2dVertex
 10
51.383465
 20
127.459827
 30
0.0
  0
VERTEX
  5
C36
100
AcDbEntity
  8
ALPHA
  6
CONTINUOUS
 62
     7
100
AcDbVertex
100
AcDb2dVertex
 10
51.985047
 20
127.459827
 30
0.0
  0
VERTEX
  5
C37
100
AcDbEntity
  8
ALPHA
  6
CONTINUOUS
 62
     7
100
AcDbVertex
100
AcDb2dVertex
 10
52.554552
 20
127.465664
 30
0.0
  0
VERTEX
  5
C38
100
AcDbEntity
  8
ALPHA
  6
CONTINUOUS
 62
     7
100
AcDbVertex
100
AcDb2dVertex
 10
53.060352
 20
127.477009
 30
0.0
  0
VERTEX
  5
C39
100
AcDbEntity
  8
ALPHA
  6
CONTINUOUS
 62
     7
100
AcDbVertex
100
AcDb2dVertex
 10
53.449973
 20
127.492707
 30
0.0
  0
VERTEX
  5
C3A
100
AcDbEntity
  8
ALPHA
  6
CONTINUOUS
 62
     7
100
AcDbVertex
100
AcDb2dVertex
 10
53.699282
 20
127.511754
 30
0.0
  0
VERTEX
  5
C3B
100
AcDbEntity
  8
ALPHA
  6
CONTINUOUS
 62
     7
100
AcDbVertex
100
AcDb2dVertex
 10
53.784256
 20
127.532404
 30
0.0
  0
SEQEND
  5
C3C
100
AcDbEntity
  8
ALPHA
 62
     7
  0
LINE
  5
C3D
100
AcDbEntity
  8
ALPHA
  6
CONTINUOUS
 62
     7
100
AcDbLine
 10
49.029256
 20
138.597802
 30
0.0
 11
48.529256
 21
139.097802
 31
0.0
  0
LINE
  5
C3E
100
AcDbEntity
  8
ALPHA
  6
CONTINUOUS
 62
     7
100
AcDbLine
 10
44.179256
 20
138.597802
 30
0.0
 11
49.029256
 21
138.597802
 31
0.0
  0
LINE
  5
C3F
100
AcDbEntity
  8
ALPHA
  6
CONTINUOUS
 62
     7
100
AcDbLine
 10
44.679256
 20
139.097802
 30
0.0
 11
48.529256
 21
139.097802
 31
0.0
  0
LINE
  5
C40
100
AcDbEntity
  8
ALPHA
  6
CONTINUOUS
 62
     7
100
AcDbLine
 10
43.949256
 20
138.597802
 30
0.0
 11
43.449256
 21
139.097802
 31
0.0
  0
LINE
  5
C41
100
AcDbEntity
  8
ALPHA
  6
CONTINUOUS
 62
     7
100
AcDbLine
 10
44.179256
 20
138.597802
 30
0.0
 11
44.679256
 21
139.097802
 31
0.0
  0
LINE
  5
C42
100
AcDbEntity
  8
ALPHA
  6
CONTINUOUS
 62
     7
100
AcDbLine
 10
49.759256
 20
139.097802
 30
0.0
 11
53.609256
 21
139.097802
 31
0.0
  0
LINE
  5
C43
100
AcDbEntity
  8
ALPHA
  6
CONTINUOUS
 62
     7
100
AcDbLine
 10
49.259256
 20
138.597802
 30
0.0
 11
54.109256
 21
138.597802
 31
0.0
  0
LINE
  5
C44
100
AcDbEntity
  8
ALPHA
  6
CONTINUOUS
 62
     7
100
AcDbLine
 10
49.259256
 20
138.597802
 30
0.0
 11
49.759256
 21
139.097802
 31
0.0
  0
LINE
  5
C45
100
AcDbEntity
  8
ALPHA
  6
CONTINUOUS
 62
     7
100
AcDbLine
 10
54.109256
 20
138.597802
 30
0.0
 11
53.609256
 21
139.097802
 31
0.0
  0
POLYLINE
  5
C46
100
AcDbEntity
  8
ALPHA
  6
CONTINUOUS
 62
     7
100
AcDb2dPolyline
 66
     1
 10
0.0
 20
0.0
 30
0.0
  0
VERTEX
  5
C47
100
AcDbEntity
  8
ALPHA
  6
CONTINUOUS
 62
     7
100
AcDbVertex
100
AcDb2dVertex
 10
63.944256
 20
127.532404
 30
0.0
  0
VERTEX
  5
C48
100
AcDbEntity
  8
ALPHA
  6
CONTINUOUS
 62
     7
100
AcDbVertex
100
AcDb2dVertex
 10
63.859282
 20
127.553054
 30
0.0
  0
VERTEX
  5
C49
100
AcDbEntity
  8
ALPHA
  6
CONTINUOUS
 62
     7
100
AcDbVertex
100
AcDb2dVertex
 10
63.609973
 20
127.572101
 30
0.0
  0
VERTEX
  5
C4A
100
AcDbEntity
  8
ALPHA
  6
CONTINUOUS
 62
     7
100
AcDbVertex
100
AcDb2dVertex
 10
63.220352
 20
127.587799
 30
0.0
  0
VERTEX
  5
C4B
100
AcDbEntity
  8
ALPHA
  6
CONTINUOUS
 62
     7
100
AcDbVertex
100
AcDb2dVertex
 10
62.714552
 20
127.599144
 30
0.0
  0
VERTEX
  5
C4C
100
AcDbEntity
  8
ALPHA
  6
CONTINUOUS
 62
     7
100
AcDbVertex
100
AcDb2dVertex
 10
62.145047
 20
127.604981
 30
0.0
  0
VERTEX
  5
C4D
100
AcDbEntity
  8
ALPHA
  6
CONTINUOUS
 62
     7
100
AcDbVertex
100
AcDb2dVertex
 10
61.543465
 20
127.604981
 30
0.0
  0
VERTEX
  5
C4E
100
AcDbEntity
  8
ALPHA
  6
CONTINUOUS
 62
     7
100
AcDbVertex
100
AcDb2dVertex
 10
60.97396
 20
127.599144
 30
0.0
  0
VERTEX
  5
C4F
100
AcDbEntity
  8
ALPHA
  6
CONTINUOUS
 62
     7
100
AcDbVertex
100
AcDb2dVertex
 10
60.46816
 20
127.587799
 30
0.0
  0
VERTEX
  5
C50
100
AcDbEntity
  8
ALPHA
  6
CONTINUOUS
 62
     7
100
AcDbVertex
100
AcDb2dVertex
 10
60.078539
 20
127.572101
 30
0.0
  0
VERTEX
  5
C51
100
AcDbEntity
  8
ALPHA
  6
CONTINUOUS
 62
     7
100
AcDbVertex
100
AcDb2dVertex
 10
59.82923
 20
127.553054
 30
0.0
  0
VERTEX
  5
C52
100
AcDbEntity
  8
ALPHA
  6
CONTINUOUS
 62
     7
100
AcDbVertex
100
AcDb2dVertex
 10
59.744256
 20
127.532404
 30
0.0
  0
SEQEND
  5
C53
100
AcDbEntity
  8
ALPHA
 62
     7
  0
POLYLINE
  5
C54
100
AcDbEntity
  8
ALPHA
  6
CONTINUOUS
 62
     7
100
AcDb2dPolyline
 66
     1
 10
0.0
 20
0.0
 30
0.0
  0
VERTEX
  5
C55
100
AcDbEntity
  8
ALPHA
  6
CONTINUOUS
 62
     7
100
AcDbVertex
100
AcDb2dVertex
 10
59.744256
 20
127.532404
 30
0.0
  0
VERTEX
  5
C56
100
AcDbEntity
  8
ALPHA
  6
CONTINUOUS
 62
     7
100
AcDbVertex
100
AcDb2dVertex
 10
59.82923
 20
127.511754
 30
0.0
  0
VERTEX
  5
C57
100
AcDbEntity
  8
ALPHA
  6
CONTINUOUS
 62
     7
100
AcDbVertex
100
AcDb2dVertex
 10
60.078539
 20
127.492707
 30
0.0
  0
VERTEX
  5
C58
100
AcDbEntity
  8
ALPHA
  6
CONTINUOUS
 62
     7
100
AcDbVertex
100
AcDb2dVertex
 10
60.46816
 20
127.477009
 30
0.0
  0
VERTEX
  5
C59
100
AcDbEntity
  8
ALPHA
  6
CONTINUOUS
 62
     7
100
AcDbVertex
100
AcDb2dVertex
 10
60.97396
 20
127.465664
 30
0.0
  0
VERTEX
  5
C5A
100
AcDbEntity
  8
ALPHA
  6
CONTINUOUS
 62
     7
100
AcDbVertex
100
AcDb2dVertex
 10
61.543465
 20
127.459827
 30
0.0
  0
VERTEX
  5
C5B
100
AcDbEntity
  8
ALPHA
  6
CONTINUOUS
 62
     7
100
AcDbVertex
100
AcDb2dVertex
 10
62.145047
 20
127.459827
 30
0.0
  0
VERTEX
  5
C5C
100
AcDbEntity
  8
ALPHA
  6
CONTINUOUS
 62
     7
100
AcDbVertex
100
AcDb2dVertex
 10
62.714552
 20
127.465664
 30
0.0
  0
VERTEX
  5
C5D
100
AcDbEntity
  8
ALPHA
  6
CONTINUOUS
 62
     7
100
AcDbVertex
100
AcDb2dVertex
 10
63.220352
 20
127.477009
 30
0.0
  0
VERTEX
  5
C5E
100
AcDbEntity
  8
ALPHA
  6
CONTINUOUS
 62
     7
100
AcDbVertex
100
AcDb2dVertex
 10
63.609973
 20
127.492707
 30
0.0
  0
VERTEX
  5
C5F
100
AcDbEntity
  8
ALPHA
  6
CONTINUOUS
 62
     7
100
AcDbVertex
100
AcDb2dVertex
 10
63.859282
 20
127.511754
 30
0.0
  0
VERTEX
  5
C60
100
AcDbEntity
  8
ALPHA
  6
CONTINUOUS
 62
     7
100
AcDbVertex
100
AcDb2dVertex
 10
63.944256
 20
127.532404
 30
0.0
  0
SEQEND
  5
C61
100
AcDbEntity
  8
ALPHA
 62
     7
  0
ARC
  5
C62
100
AcDbEntity
  8
ALPHA
  6
CONTINUOUS
 62
     9
100
AcDbCircle
 10
57.474256
 20
124.687006
 30
0.0
 40
0.499994
100
AcDbArc
 50
15.792242
 51
164.207758
  0
ARC
  5
C63
100
AcDbEntity
  8
ALPHA
  6
CONTINUOUS
 62
     7
100
AcDbCircle
 10
57.474256
 20
124.687006
 30
0.0
 40
0.3
100
AcDbArc
 50
15.792242
 51
164.207758
  0
LINE
  5
C64
100
AcDbEntity
  8
ALPHA
  6
CONTINUOUS
 62
     9
100
AcDbLine
 10
56.993129
 20
124.823081
 30
0.0
 11
57.18558
 21
124.768651
 31
0.0
  0
LINE
  5
C65
100
AcDbEntity
  8
ALPHA
  6
CONTINUOUS
 62
     9
100
AcDbLine
 10
57.955383
 20
124.823081
 30
0.0
 11
57.762932
 21
124.768651
 31
0.0
  0
POLYLINE
  5
C66
100
AcDbEntity
  8
ALPHA
  6
CONTINUOUS
 62
     7
100
AcDb2dPolyline
 66
     1
 10
0.0
 20
0.0
 30
0.0
  0
VERTEX
  5
C67
100
AcDbEntity
  8
ALPHA
  6
CONTINUOUS
 62
     7
100
AcDbVertex
100
AcDb2dVertex
 10
58.864256
 20
127.532404
 30
0.0
  0
VERTEX
  5
C68
100
AcDbEntity
  8
ALPHA
  6
CONTINUOUS
 62
     7
100
AcDbVertex
100
AcDb2dVertex
 10
58.779282
 20
127.553054
 30
0.0
  0
VERTEX
  5
C69
100
AcDbEntity
  8
ALPHA
  6
CONTINUOUS
 62
     7
100
AcDbVertex
100
AcDb2dVertex
 10
58.529973
 20
127.572101
 30
0.0
  0
VERTEX
  5
C6A
100
AcDbEntity
  8
ALPHA
  6
CONTINUOUS
 62
     7
100
AcDbVertex
100
AcDb2dVertex
 10
58.140352
 20
127.587799
 30
0.0
  0
VERTEX
  5
C6B
100
AcDbEntity
  8
ALPHA
  6
CONTINUOUS
 62
     7
100
AcDbVertex
100
AcDb2dVertex
 10
57.634552
 20
127.599144
 30
0.0
  0
VERTEX
  5
C6C
100
AcDbEntity
  8
ALPHA
  6
CONTINUOUS
 62
     7
100
AcDbVertex
100
AcDb2dVertex
 10
57.065047
 20
127.604981
 30
0.0
  0
VERTEX
  5
C6D
100
AcDbEntity
  8
ALPHA
  6
CONTINUOUS
 62
     7
100
AcDbVertex
100
AcDb2dVertex
 10
56.463465
 20
127.604981
 30
0.0
  0
VERTEX
  5
C6E
100
AcDbEntity
  8
ALPHA
  6
CONTINUOUS
 62
     7
100
AcDbVertex
100
AcDb2dVertex
 10
55.89396
 20
127.599144
 30
0.0
  0
VERTEX
  5
C6F
100
AcDbEntity
  8
ALPHA
  6
CONTINUOUS
 62
     7
100
AcDbVertex
100
AcDb2dVertex
 10
55.38816
 20
127.587799
 30
0.0
  0
VERTEX
  5
C70
100
AcDbEntity
  8
ALPHA
  6
CONTINUOUS
 62
     7
100
AcDbVertex
100
AcDb2dVertex
 10
54.998539
 20
127.572101
 30
0.0
  0
VERTEX
  5
C71
100
AcDbEntity
  8
ALPHA
  6
CONTINUOUS
 62
     7
100
AcDbVertex
100
AcDb2dVertex
 10
54.74923
 20
127.553054
 30
0.0
  0
VERTEX
  5
C72
100
AcDbEntity
  8
ALPHA
  6
CONTINUOUS
 62
     7
100
AcDbVertex
100
AcDb2dVertex
 10
54.664256
 20
127.532404
 30
0.0
  0
SEQEND
  5
C73
100
AcDbEntity
  8
ALPHA
 62
     7
  0
POLYLINE
  5
C74
100
AcDbEntity
  8
ALPHA
  6
CONTINUOUS
 62
     7
100
AcDb2dPolyline
 66
     1
 10
0.0
 20
0.0
 30
0.0
  0
VERTEX
  5
C75
100
AcDbEntity
  8
ALPHA
  6
CONTINUOUS
 62
     7
100
AcDbVertex
100
AcDb2dVertex
 10
54.664256
 20
127.532404
 30
0.0
  0
VERTEX
  5
C76
100
AcDbEntity
  8
ALPHA
  6
CONTINUOUS
 62
     7
100
AcDbVertex
100
AcDb2dVertex
 10
54.74923
 20
127.511754
 30
0.0
  0
VERTEX
  5
C77
100
AcDbEntity
  8
ALPHA
  6
CONTINUOUS
 62
     7
100
AcDbVertex
100
AcDb2dVertex
 10
54.998539
 20
127.492707
 30
0.0
  0
VERTEX
  5
C78
100
AcDbEntity
  8
ALPHA
  6
CONTINUOUS
 62
     7
100
AcDbVertex
100
AcDb2dVertex
 10
55.38816
 20
127.477009
 30
0.0
  0
VERTEX
  5
C79
100
AcDbEntity
  8
ALPHA
  6
CONTINUOUS
 62
     7
100
AcDbVertex
100
AcDb2dVertex
 10
55.89396
 20
127.465664
 30
0.0
  0
VERTEX
  5
C7A
100
AcDbEntity
  8
ALPHA
  6
CONTINUOUS
 62
     7
100
AcDbVertex
100
AcDb2dVertex
 10
56.463465
 20
127.459827
 30
0.0
  0
VERTEX
  5
C7B
100
AcDbEntity
  8
ALPHA
  6
CONTINUOUS
 62
     7
100
AcDbVertex
100
AcDb2dVertex
 10
57.065047
 20
127.459827
 30
0.0
  0
VERTEX
  5
C7C
100
AcDbEntity
  8
ALPHA
  6
CONTINUOUS
 62
     7
100
AcDbVertex
100
AcDb2dVertex
 10
57.634552
 20
127.465664
 30
0.0
  0
VERTEX
  5
C7D
100
AcDbEntity
  8
ALPHA
  6
CONTINUOUS
 62
     7
100
AcDbVertex
100
AcDb2dVertex
 10
58.140352
 20
127.477009
 30
0.0
  0
VERTEX
  5
C7E
100
AcDbEntity
  8
ALPHA
  6
CONTINUOUS
 62
     7
100
AcDbVertex
100
AcDb2dVertex
 10
58.529973
 20
127.492707
 30
0.0
  0
VERTEX
  5
C7F
100
AcDbEntity
  8
ALPHA
  6
CONTINUOUS
 62
     7
100
AcDbVertex
100
AcDb2dVertex
 10
58.779282
 20
127.511754
 30
0.0
  0
VERTEX
  5
C80
100
AcDbEntity
  8
ALPHA
  6
CONTINUOUS
 62
     7
100
AcDbVertex
100
AcDb2dVertex
 10
58.864256
 20
127.532404
 30
0.0
  0
SEQEND
  5
C81
100
AcDbEntity
  8
ALPHA
 62
     7
  0
ARC
  5
C82
100
AcDbEntity
  8
ALPHA
  6
CONTINUOUS
 62
     9
100
AcDbCircle
 10
61.474256
 20
124.687006
 30
0.0
 40
0.499994
100
AcDbArc
 50
15.792242
 51
164.207758
  0
ARC
  5
C83
100
AcDbEntity
  8
ALPHA
  6
CONTINUOUS
 62
     7
100
AcDbCircle
 10
61.474256
 20
124.687006
 30
0.0
 40
0.3
100
AcDbArc
 50
15.792242
 51
164.207758
  0
LINE
  5
C84
100
AcDbEntity
  8
ALPHA
  6
CONTINUOUS
 62
     9
100
AcDbLine
 10
60.993129
 20
124.823081
 30
0.0
 11
61.18558
 21
124.768651
 31
0.0
  0
LINE
  5
C85
100
AcDbEntity
  8
ALPHA
  6
CONTINUOUS
 62
     9
100
AcDbLine
 10
61.955383
 20
124.823081
 30
0.0
 11
61.762932
 21
124.768651
 31
0.0
  0
ARC
  5
C86
100
AcDbEntity
  8
ALPHA
  6
CONTINUOUS
 62
     9
100
AcDbCircle
 10
65.474256
 20
124.687006
 30
0.0
 40
0.499994
100
AcDbArc
 50
15.792242
 51
164.207758
  0
ARC
  5
C87
100
AcDbEntity
  8
ALPHA
  6
CONTINUOUS
 62
     7
100
AcDbCircle
 10
65.474256
 20
124.687006
 30
0.0
 40
0.3
100
AcDbArc
 50
15.792242
 51
164.207758
  0
LINE
  5
C88
100
AcDbEntity
  8
ALPHA
  6
CONTINUOUS
 62
     9
100
AcDbLine
 10
64.993129
 20
124.823081
 30
0.0
 11
65.18558
 21
124.768651
 31
0.0
  0
LINE
  5
C89
100
AcDbEntity
  8
ALPHA
  6
CONTINUOUS
 62
     9
100
AcDbLine
 10
65.955383
 20
124.823081
 30
0.0
 11
65.762932
 21
124.768651
 31
0.0
  0
LINE
  5
C8A
100
AcDbEntity
  8
ALPHA
  6
CONTINUOUS
 62
     7
100
AcDbLine
 10
59.919256
 20
139.097802
 30
0.0
 11
63.769256
 21
139.097802
 31
0.0
  0
LINE
  5
C8B
100
AcDbEntity
  8
ALPHA
  6
CONTINUOUS
 62
     7
100
AcDbLine
 10
59.419256
 20
138.597802
 30
0.0
 11
64.269256
 21
138.597802
 31
0.0
  0
LINE
  5
C8C
100
AcDbEntity
  8
ALPHA
  6
CONTINUOUS
 62
     7
100
AcDbLine
 10
54.839256
 20
139.097802
 30
0.0
 11
58.689256
 21
139.097802
 31
0.0
  0
LINE
  5
C8D
100
AcDbEntity
  8
ALPHA
  6
CONTINUOUS
 62
     7
100
AcDbLine
 10
59.189256
 20
138.597802
 30
0.0
 11
58.689256
 21
139.097802
 31
0.0
  0
LINE
  5
C8E
100
AcDbEntity
  8
ALPHA
  6
CONTINUOUS
 62
     7
100
AcDbLine
 10
59.419256
 20
138.597802
 30
0.0
 11
59.919256
 21
139.097802
 31
0.0
  0
LINE
  5
C8F
100
AcDbEntity
  8
ALPHA
  6
CONTINUOUS
 62
     7
100
AcDbLine
 10
64.269256
 20
138.597802
 30
0.0
 11
63.769256
 21
139.097802
 31
0.0
  0
LINE
  5
C90
100
AcDbEntity
  8
ALPHA
  6
CONTINUOUS
 62
     7
100
AcDbLine
 10
64.499256
 20
138.597802
 30
0.0
 11
64.999256
 21
139.097802
 31
0.0
  0
LINE
  5
C91
100
AcDbEntity
  8
ALPHA
  6
CONTINUOUS
 62
     7
100
AcDbLine
 10
54.339256
 20
144.897802
 30
0.0
 11
54.839256
 21
144.397802
 31
0.0
  0
LINE
  5
C92
100
AcDbEntity
  8
ALPHA
  6
CONTINUOUS
 62
     7
100
AcDbLine
 10
59.189256
 20
144.897802
 30
0.0
 11
54.339256
 21
144.897802
 31
0.0
  0
LINE
  5
C93
100
AcDbEntity
  8
ALPHA
  6
CONTINUOUS
 62
     7
100
AcDbLine
 10
49.029256
 20
144.897802
 30
0.0
 11
44.179256
 21
144.897802
 31
0.0
  0
LINE
  5
C94
100
AcDbEntity
  8
ALPHA
  6
CONTINUOUS
 62
     7
100
AcDbLine
 10
49.029256
 20
144.897802
 30
0.0
 11
48.529256
 21
144.397802
 31
0.0
  0
LINE
  5
C95
100
AcDbEntity
  8
ALPHA
  6
CONTINUOUS
 62
     7
100
AcDbLine
 10
48.529256
 20
144.397802
 30
0.0
 11
44.679256
 21
144.397802
 31
0.0
  0
LINE
  5
C96
100
AcDbEntity
  8
ALPHA
  6
CONTINUOUS
 62
     7
100
AcDbLine
 10
44.179256
 20
144.897802
 30
0.0
 11
44.679256
 21
144.397802
 31
0.0
  0
LINE
  5
C97
100
AcDbEntity
  8
ALPHA
  6
CONTINUOUS
 62
     7
100
AcDbLine
 10
43.949256
 20
144.897802
 30
0.0
 11
43.449256
 21
144.397802
 31
0.0
  0
LINE
  5
C98
100
AcDbEntity
  8
ALPHA
  6
CONTINUOUS
 62
     7
100
AcDbLine
 10
54.109256
 20
144.897802
 30
0.0
 11
49.259256
 21
144.897802
 31
0.0
  0
LINE
  5
C99
100
AcDbEntity
  8
ALPHA
  6
CONTINUOUS
 62
     7
100
AcDbLine
 10
53.609256
 20
144.397802
 30
0.0
 11
49.759256
 21
144.397802
 31
0.0
  0
LINE
  5
C9A
100
AcDbEntity
  8
ALPHA
  6
CONTINUOUS
 62
     7
100
AcDbLine
 10
49.259256
 20
144.897802
 30
0.0
 11
49.759256
 21
144.397802
 31
0.0
  0
LINE
  5
C9B
100
AcDbEntity
  8
ALPHA
  6
CONTINUOUS
 62
     7
100
AcDbLine
 10
54.109256
 20
144.897802
 30
0.0
 11
53.609256
 21
144.397802
 31
0.0
  0
LINE
  5
C9C
100
AcDbEntity
  8
ALPHA
  6
CONTINUOUS
 62
     7
100
AcDbLine
 10
64.269256
 20
144.897802
 30
0.0
 11
59.419256
 21
144.897802
 31
0.0
  0
LINE
  5
C9D
100
AcDbEntity
  8
ALPHA
  6
CONTINUOUS
 62
     7
100
AcDbLine
 10
63.769256
 20
144.397802
 30
0.0
 11
59.919256
 21
144.397802
 31
0.0
  0
LINE
  5
C9E
100
AcDbEntity
  8
ALPHA
  6
CONTINUOUS
 62
     7
100
AcDbLine
 10
58.689256
 20
144.397802
 30
0.0
 11
54.839256
 21
144.397802
 31
0.0
  0
LINE
  5
C9F
100
AcDbEntity
  8
ALPHA
  6
CONTINUOUS
 62
     7
100
AcDbLine
 10
59.419256
 20
144.897802
 30
0.0
 11
59.919256
 21
144.397802
 31
0.0
  0
LINE
  5
CA0
100
AcDbEntity
  8
ALPHA
  6
CONTINUOUS
 62
     7
100
AcDbLine
 10
59.189256
 20
144.897802
 30
0.0
 11
58.689256
 21
144.397802
 31
0.0
  0
LINE
  5
CA1
100
AcDbEntity
  8
ALPHA
  6
CONTINUOUS
 62
     7
100
AcDbLine
 10
63.344256
 20
144.397802
 30
0.0
 11
63.344256
 21
142.177802
 31
0.0
  0
ARC
  5
CA2
100
AcDbEntity
  8
ALPHA
  6
CONTINUOUS
 62
     7
100
AcDbCircle
 10
63.97612
 20
141.278002
 30
0.0
 40
0.3
100
AcDbArc
 50
134.282154
 51
180.0
  0
LINE
  5
CA3
100
AcDbEntity
  8
ALPHA
  6
CONTINUOUS
 62
     7
100
AcDbLine
 10
63.769256
 20
142.177802
 30
0.0
 11
63.344256
 21
142.177802
 31
0.0
  0
LINE
  5
CA4
100
AcDbEntity
  8
ALPHA
  6
CONTINUOUS
 62
     9
100
AcDbLine
 10
63.769256
 20
141.278002
 30
0.0
 11
63.67612
 21
141.278002
 31
0.0
  0
LINE
  5
CA5
100
AcDbEntity
  8
ALPHA
  6
CONTINUOUS
 62
     7
100
AcDbLine
 10
64.499256
 20
144.897802
 30
0.0
 11
64.999256
 21
144.397802
 31
0.0
  0
LINE
  5
CA6
100
AcDbEntity
  8
ALPHA
  6
CONTINUOUS
 62
     7
100
AcDbLine
 10
64.269256
 20
144.897802
 30
0.0
 11
63.769256
 21
144.397802
 31
0.0
  0
LINE
  5
CA7
100
AcDbEntity
  8
ALPHA
  6
CONTINUOUS
 62
     9
100
AcDbLine
 10
74.424256
 20
128.087508
 30
0.0
 11
74.424256
 21
154.497802
 31
0.0
  0
LINE
  5
CA8
100
AcDbEntity
  8
ALPHA
  6
CONTINUOUS
 62
     7
100
AcDbLine
 10
69.349256
 20
138.597802
 30
0.0
 11
69.349256
 21
144.897802
 31
0.0
  0
LINE
  5
CA9
100
AcDbEntity
  8
ALPHA
  6
CONTINUOUS
 62
     7
100
AcDbLine
 10
68.849256
 20
139.097802
 30
0.0
 11
68.849256
 21
144.397802
 31
0.0
  0
ARC
  5
CAA
100
AcDbEntity
  8
ALPHA
  6
CONTINUOUS
 62
     9
100
AcDbCircle
 10
69.474256
 20
124.687006
 30
0.0
 40
0.499994
100
AcDbArc
 50
15.792242
 51
164.207758
  0
ARC
  5
CAB
100
AcDbEntity
  8
ALPHA
  6
CONTINUOUS
 62
     7
100
AcDbCircle
 10
69.474256
 20
124.687006
 30
0.0
 40
0.3
100
AcDbArc
 50
15.792242
 51
164.207758
  0
LINE
  5
CAC
100
AcDbEntity
  8
ALPHA
  6
CONTINUOUS
 62
     9
100
AcDbLine
 10
68.993129
 20
124.823081
 30
0.0
 11
69.18558
 21
124.768651
 31
0.0
  0
LINE
  5
CAD
100
AcDbEntity
  8
ALPHA
  6
CONTINUOUS
 62
     9
100
AcDbLine
 10
69.955383
 20
124.823081
 30
0.0
 11
69.762932
 21
124.768651
 31
0.0
  0
POLYLINE
  5
CAE
100
AcDbEntity
  8
ALPHA
  6
CONTINUOUS
 62
     7
100
AcDb2dPolyline
 66
     1
 10
0.0
 20
0.0
 30
0.0
  0
VERTEX
  5
CAF
100
AcDbEntity
  8
ALPHA
  6
CONTINUOUS
 62
     7
100
AcDbVertex
100
AcDb2dVertex
 10
75.074256
 20
128.041371
 30
0.0
  0
VERTEX
  5
CB0
100
AcDbEntity
  8
ALPHA
  6
CONTINUOUS
 62
     7
100
AcDbVertex
100
AcDb2dVertex
 10
75.058461
 20
127.903836
 30
0.0
  0
VERTEX
  5
CB1
100
AcDbEntity
  8
ALPHA
  6
CONTINUOUS
 62
     7
100
AcDbVertex
100
AcDb2dVertex
 10
75.008551
 20
127.766364
 30
0.0
  0
VERTEX
  5
CB2
100
AcDbEntity
  8
ALPHA
  6
CONTINUOUS
 62
     7
100
AcDbVertex
100
AcDb2dVertex
 10
74.922027
 20
127.637714
 30
0.0
  0
VERTEX
  5
CB3
100
AcDbEntity
  8
ALPHA
  6
CONTINUOUS
 62
     7
100
AcDbVertex
100
AcDb2dVertex
 10
74.796735
 20
127.526958
 30
0.0
  0
VERTEX
  5
CB4
100
AcDbEntity
  8
ALPHA
  6
CONTINUOUS
 62
     7
100
AcDbVertex
100
AcDb2dVertex
 10
74.630586
 20
127.446137
 30
0.0
  0
VERTEX
  5
CB5
100
AcDbEntity
  8
ALPHA
  6
CONTINUOUS
 62
     7
100
AcDbVertex
100
AcDb2dVertex
 10
74.424256
 20
127.413673
 30
0.0
  0
SEQEND
  5
CB6
100
AcDbEntity
  8
ALPHA
 62
     7
  0
POLYLINE
  5
CB7
100
AcDbEntity
  8
ALPHA
  6
CONTINUOUS
 62
     7
100
AcDb2dPolyline
 66
     1
 10
0.0
 20
0.0
 30
0.0
  0
VERTEX
  5
CB8
100
AcDbEntity
  8
ALPHA
  6
CONTINUOUS
 62
     7
100
AcDbVertex
100
AcDb2dVertex
 10
74.744206
 20
127.879111
 30
0.0
  0
VERTEX
  5
CB9
100
AcDbEntity
  8
ALPHA
  6
CONTINUOUS
 62
     7
100
AcDbVertex
100
AcDb2dVertex
 10
74.63996
 20
127.94348
 30
0.0
  0
VERTEX
  5
CBA
100
AcDbEntity
  8
ALPHA
  6
CONTINUOUS
 62
     7
100
AcDbVertex
100
AcDb2dVertex
 10
74.532754
 20
128.014103
 30
0.0
  0
VERTEX
  5
CBB
100
AcDbEntity
  8
ALPHA
  6
CONTINUOUS
 62
     7
100
AcDbVertex
100
AcDb2dVertex
 10
74.424256
 20
128.087508
 30
0.0
  0
SEQEND
  5
CBC
100
AcDbEntity
  8
ALPHA
 62
     7
  0
POLYLINE
  5
CBD
100
AcDbEntity
  8
ALPHA
  6
CONTINUOUS
 62
     7
100
AcDb2dPolyline
 66
     1
 10
0.0
 20
0.0
 30
0.0
  0
VERTEX
  5
CBE
100
AcDbEntity
  8
ALPHA
  6
CONTINUOUS
 62
     7
100
AcDbVertex
100
AcDb2dVertex
 10
74.424256
 20
127.787691
 30
0.0
  0
VERTEX
  5
CBF
100
AcDbEntity
  8
ALPHA
  6
CONTINUOUS
 62
     7
100
AcDbVertex
100
AcDb2dVertex
 10
74.532754
 20
127.799367
 30
0.0
  0
VERTEX
  5
CC0
100
AcDbEntity
  8
ALPHA
  6
CONTINUOUS
 62
     7
100
AcDbVertex
100
AcDb2dVertex
 10
74.63996
 20
127.82953
 30
0.0
  0
VERTEX
  5
CC1
100
AcDbEntity
  8
ALPHA
  6
CONTINUOUS
 62
     7
100
AcDbVertex
100
AcDb2dVertex
 10
74.744206
 20
127.879111
 30
0.0
  0
SEQEND
  5
CC2
100
AcDbEntity
  8
ALPHA
 62
     7
  0
LINE
  5
CC3
100
AcDbEntity
  8
ALPHA
  6
CONTINUOUS
 62
     7
100
AcDbLine
 10
75.039832
 20
128.223937
 30
0.0
 11
75.074256
 21
128.4255
 31
0.0
  0
POLYLINE
  5
CC4
100
AcDbEntity
  8
ALPHA
  6
CONTINUOUS
 62
     7
100
AcDb2dPolyline
 66
     1
 10
0.0
 20
0.0
 30
0.0
  0
VERTEX
  5
CC5
100
AcDbEntity
  8
ALPHA
  6
CONTINUOUS
 62
     7
100
AcDbVertex
100
AcDb2dVertex
 10
74.744206
 20
127.879111
 30
0.0
  0
VERTEX
  5
CC6
100
AcDbEntity
  8
ALPHA
  6
CONTINUOUS
 62
     7
100
AcDbVertex
100
AcDb2dVertex
 10
74.932943
 20
128.034739
 30
0.0
  0
VERTEX
  5
CC7
100
AcDbEntity
  8
ALPHA
  6
CONTINUOUS
 62
     7
100
AcDbVertex
100
AcDb2dVertex
 10
75.039832
 20
128.223937
 30
0.0
  0
SEQEND
  5
CC8
100
AcDbEntity
  8
ALPHA
 62
     7
  0
LINE
  5
CC9
100
AcDbEntity
  8
ALPHA
  6
CONTINUOUS
 62
     7
100
AcDbLine
 10
69.349256
 20
138.597802
 30
0.0
 11
68.849256
 21
139.097802
 31
0.0
  0
LINE
  5
CCA
100
AcDbEntity
  8
ALPHA
  6
CONTINUOUS
 62
     7
100
AcDbLine
 10
69.349256
 20
144.897802
 30
0.0
 11
68.849256
 21
144.397802
 31
0.0
  0
LINE
  5
CCB
100
AcDbEntity
  8
ALPHA
  6
CONTINUOUS
 62
     7
100
AcDbLine
 10
75.274256
 20
152.247802
 30
0.0
 11
75.274256
 21
151.133443
 31
0.0
  0
LINE
  5
CCC
100
AcDbEntity
  8
ALPHA
  6
CONTINUOUS
 62
     7
100
AcDbLine
 10
74.374256
 20
148.297802
 30
0.0
 11
74.374256
 21
154.797802
 31
0.0
  0
LINE
  5
CCD
100
AcDbEntity
  8
ALPHA
  6
CONTINUOUS
 62
     7
100
AcDbLine
 10
74.274256
 20
149.097802
 30
0.0
 11
74.274256
 21
154.797802
 31
0.0
  0
LINE
  5
CCE
100
AcDbEntity
  8
ALPHA
  6
CONTINUOUS
 62
     7
100
AcDbLine
 10
73.49171
 20
148.797802
 30
0.0
 11
73.487346
 21
148.297802
 31
0.0
  0
LINE
  5
CCF
100
AcDbEntity
  8
ALPHA
  6
CONTINUOUS
 62
     7
100
AcDbLine
 10
73.474256
 20
148.297802
 30
0.0
 11
73.474256
 21
148.797802
 31
0.0
  0
LINE
  5
CD0
100
AcDbEntity
  8
ALPHA
  6
CONTINUOUS
 62
     7
100
AcDbLine
 10
73.374256
 20
148.797802
 30
0.0
 11
73.374256
 21
148.297802
 31
0.0
  0
LINE
  5
CD1
100
AcDbEntity
  8
ALPHA
  6
CONTINUOUS
 62
     7
100
AcDbLine
 10
73.974256
 20
148.797802
 30
0.0
 11
74.274256
 21
149.097802
 31
0.0
  0
LINE
  5
CD2
100
AcDbEntity
  8
ALPHA
  6
CONTINUOUS
 62
     7
100
AcDbLine
 10
75.274256
 20
151.133443
 30
0.0
 11
75.074256
 21
150.787032
 31
0.0
  0
LINE
  5
CD3
100
AcDbEntity
  8
ALPHA
  6
CONTINUOUS
 62
     7
100
AcDbLine
 10
75.074256
 20
154.797802
 30
0.0
 11
74.274256
 21
154.797802
 31
0.0
  0
LINE
  5
CD4
100
AcDbEntity
  8
ALPHA
  6
CONTINUOUS
 62
     7
100
AcDbLine
 10
74.374256
 20
154.497802
 30
0.0
 11
75.074256
 21
154.497802
 31
0.0
  0
LINE
  5
CD5
100
AcDbEntity
  8
ALPHA
  6
CONTINUOUS
 62
     7
100
AcDbLine
 10
74.374256
 20
152.597802
 30
0.0
 11
74.274256
 21
152.597802
 31
0.0
  0
LINE
  5
CD6
100
AcDbEntity
  8
ALPHA
  6
CONTINUOUS
 62
     7
100
AcDbLine
 10
75.074256
 20
152.247802
 30
0.0
 11
75.274256
 21
152.247802
 31
0.0
  0
ENDSEC
  0
SECTION
  2
OBJECTS
  0
DICTIONARY
  5
F8
100
AcDbDictionary
  3
ACAD_GROUP
350
F9
  3
ACAD_MLINESTYLE
350
106
  3
ACDBVARIABLEDICTIONARY
350
143
  0
DICTIONARY
  5
F9
102
{ACAD_REACTORS
330
F8
102
}
100
AcDbDictionary
  0
DICTIONARY
  5
106
102
{ACAD_REACTORS
330
F8
102
}
100
AcDbDictionary
  3
STANDARD
350
107
  0
DICTIONARY
  5
143
102
{ACAD_REACTORS
330
F8
102
}
100
AcDbDictionary
  3
DIMADEC
350
144
  0
MLINESTYLE
  5
107
102
{ACAD_REACTORS
330
106
102
}
100
AcDbMlineStyle
  2
STANDARD
 70
     0
  3

 62
   256
 51
90.0
 52
90.0
 71
     2
 49
0.5
 62
   256
  6
BYLAYER
 49
-0.5
 62
   256
  6
BYLAYER
  0
DICTIONARYVAR
  5
144
102
{ACAD_REACTORS
330
143
102
}
100
DictionaryVariables
280
     0
  1
0
  0
ENDSEC
  0
EOF
