  0
SECTION
  2
HEADER
  9
$ACADVER
  1
AC1014
  9
$ACADMAINTVER
 70
     0
  9
$DWGCODEPAGE
  3
ANSI_1252
  9
$INSBASE
 10
77.341563
 20
104.775
 30
0.0
  9
$EXTMIN
 10
29.635724
 20
76.783657
 30
0.0
  9
$EXTMAX
 10
102.350669
 20
129.826518
 30
0.0
  9
$LIMMIN
 10
0.0
 20
0.0
  9
$LIMMAX
 10
210.0
 20
297.0
  9
$ORTHOMODE
 70
     0
  9
$REGENMODE
 70
     1
  9
$FILLMODE
 70
     1
  9
$QTEXTMODE
 70
     0
  9
$MIRRTEXT
 70
     1
  9
$DRAGMODE
 70
     2
  9
$LTSCALE
 40
19.36
  9
$OSMODE
 70
     0
  9
$ATTMODE
 70
     1
  9
$TEXTSIZE
 40
0.2
  9
$TRACEWID
 40
0.05
  9
$TEXTSTYLE
  7
ROMANS
  9
$CLAYER
  8
0
  9
$CELTYPE
  6
BYLAYER
  9
$CECOLOR
 62
   256
  9
$CELTSCALE
 40
1.0
  9
$DELOBJ
 70
     1
  9
$DISPSILH
 70
     0
  9
$DIMSCALE
 40
1.0
  9
$DIMASZ
 40
3.0
  9
$DIMEXO
 40
0.0625
  9
$DIMDLI
 40
0.38
  9
$DIMRND
 40
0.01
  9
$DIMDLE
 40
0.0
  9
$DIMEXE
 40
0.18
  9
$DIMTP
 40
0.0
  9
$DIMTM
 40
0.0
  9
$DIMTXT
 40
2.5
  9
$DIMCEN
 40
0.09
  9
$DIMTSZ
 40
0.0
  9
$DIMTOL
 70
     0
  9
$DIMLIM
 70
     0
  9
$DIMTIH
 70
     0
  9
$DIMTOH
 70
     0
  9
$DIMSE1
 70
     0
  9
$DIMSE2
 70
     0
  9
$DIMTAD
 70
     1
  9
$DIMZIN
 70
    12
  9
$DIMBLK
  1

  9
$DIMASO
 70
     1
  9
$DIMSHO
 70
     1
  9
$DIMPOST
  1

  9
$DIMAPOST
  1

  9
$DIMALT
 70
     0
  9
$DIMALTD
 70
     2
  9
$DIMALTF
 40
25.4
  9
$DIMLFAC
 40
1.0
  9
$DIMTOFL
 70
     1
  9
$DIMTVP
 40
0.0
  9
$DIMTIX
 70
     0
  9
$DIMSOXD
 70
     0
  9
$DIMSAH
 70
     0
  9
$DIMBLK1
  1

  9
$DIMBLK2
  1

  9
$DIMSTYLE
  2
SC_STAND
  9
$DIMCLRD
 70
     0
  9
$DIMCLRE
 70
     0
  9
$DIMCLRT
 70
     0
  9
$DIMTFAC
 40
1.0
  9
$DIMGAP
 40
1.0
  9
$DIMJUST
 70
     0
  9
$DIMSD1
 70
     0
  9
$DIMSD2
 70
     0
  9
$DIMTOLJ
 70
     1
  9
$DIMTZIN
 70
    12
  9
$DIMALTZ
 70
    12
  9
$DIMALTTZ
 70
    12
  9
$DIMFIT
 70
     5
  9
$DIMUPT
 70
     0
  9
$DIMUNIT
 70
     2
  9
$DIMDEC
 70
     4
  9
$DIMTDEC
 70
     4
  9
$DIMALTU
 70
     2
  9
$DIMALTTD
 70
     2
  9
$DIMTXSTY
  7
ROMANS
  9
$DIMAUNIT
 70
     0
  9
$LUNITS
 70
     2
  9
$LUPREC
 70
     4
  9
$SKETCHINC
 40
0.1
  9
$FILLETRAD
 40
0.0
  9
$AUNITS
 70
     0
  9
$AUPREC
 70
     0
  9
$MENU
  1
acad
  9
$ELEVATION
 40
0.0
  9
$PELEVATION
 40
0.0
  9
$THICKNESS
 40
0.0
  9
$LIMCHECK
 70
     0
  9
$BLIPMODE
 70
     1
  9
$CHAMFERA
 40
0.0
  9
$CHAMFERB
 40
0.0
  9
$CHAMFERC
 40
0.0
  9
$CHAMFERD
 40
0.0
  9
$SKPOLY
 70
     0
  9
$TDCREATE
 40
2450574.676448727
  9
$TDUPDATE
 40
2451387.895683356
  9
$TDINDWG
 40
0.0005677199
  9
$TDUSRTIMER
 40
0.0005677199
  9
$USRTIMER
 70
     1
  9
$ANGBASE
 50
0.0
  9
$ANGDIR
 70
     0
  9
$PDMODE
 70
     0
  9
$PDSIZE
 40
0.0
  9
$PLINEWID
 40
0.0
  9
$COORDS
 70
     1
  9
$SPLFRAME
 70
     0
  9
$SPLINETYPE
 70
     6
  9
$SPLINESEGS
 70
     8
  9
$ATTDIA
 70
     0
  9
$ATTREQ
 70
     1
  9
$HANDLING
 70
     1
  9
$HANDSEED
  5
3F0
  9
$SURFTAB1
 70
     6
  9
$SURFTAB2
 70
     6
  9
$SURFTYPE
 70
     6
  9
$SURFU
 70
     6
  9
$SURFV
 70
     6
  9
$UCSNAME
  2

  9
$UCSORG
 10
0.0
 20
0.0
 30
0.0
  9
$UCSXDIR
 10
1.0
 20
0.0
 30
0.0
  9
$UCSYDIR
 10
0.0
 20
1.0
 30
0.0
  9
$PUCSNAME
  2

  9
$PUCSORG
 10
0.0
 20
0.0
 30
0.0
  9
$PUCSXDIR
 10
1.0
 20
0.0
 30
0.0
  9
$PUCSYDIR
 10
0.0
 20
1.0
 30
0.0
  9
$USERI1
 70
     0
  9
$USERI2
 70
     0
  9
$USERI3
 70
     0
  9
$USERI4
 70
     0
  9
$USERI5
 70
     0
  9
$USERR1
 40
0.0
  9
$USERR2
 40
0.0
  9
$USERR3
 40
0.0
  9
$USERR4
 40
0.0
  9
$USERR5
 40
0.0
  9
$WORLDVIEW
 70
     1
  9
$SHADEDGE
 70
     3
  9
$SHADEDIF
 70
    70
  9
$TILEMODE
 70
     1
  9
$MAXACTVP
 70
    16
  9
$PINSBASE
 10
0.0
 20
0.0
 30
0.0
  9
$PLIMCHECK
 70
     0
  9
$PEXTMIN
 10
1.000000E+20
 20
1.000000E+20
 30
1.000000E+20
  9
$PEXTMAX
 10
-1.000000E+20
 20
-1.000000E+20
 30
-1.000000E+20
  9
$PLIMMIN
 10
0.0
 20
0.0
  9
$PLIMMAX
 10
12.0
 20
9.0
  9
$UNITMODE
 70
     0
  9
$VISRETAIN
 70
     0
  9
$PLINEGEN
 70
     0
  9
$PSLTSCALE
 70
     1
  9
$TREEDEPTH
 70
  3020
  9
$PICKSTYLE
 70
     1
  9
$CMLSTYLE
  2
STANDARD
  9
$CMLJUST
 70
     0
  9
$CMLSCALE
 40
1.0
  9
$PROXYGRAPHICS
 70
     1
  9
$MEASUREMENT
 70
     0
  0
ENDSEC
  0
SECTION
  2
CLASSES
  0
CLASS
  1
DICTIONARYVAR
  2
AcDbDictionaryVar
  3
"AutoCAD"
 90
        0
280
     0
281
     0
  0
CLASS
  1
LWPOLYLINE
  2
AcDbPolyline
  3
"AutoCAD"
 90
        0
280
     0
281
     1
  0
ENDSEC
  0
SECTION
  2
TABLES
  0
TABLE
  2
VPORT
  5
394
100
AcDbSymbolTable
 70
     1
  0
VPORT
  5
3EB
100
AcDbSymbolTableRecord
100
AcDbViewportTableRecord
  2
*ACTIVE
 70
     0
 10
0.0
 20
0.0
 11
1.0
 21
1.0
 12
283.244621
 22
169.500718
 13
0.0
 23
0.0
 14
1.0
 24
1.0
 15
10.0
 25
10.0
 16
0.0
 26
0.0
 36
1.0
 17
0.0
 27
0.0
 37
0.0
 40
339.001436
 41
1.671053
 42
50.0
 43
0.0
 44
0.0
 50
0.0
 51
0.0
 71
     0
 72
   100
 73
     1
 74
     1
 75
     0
 76
     1
 77
     0
 78
     0
  0
ENDTAB
  0
TABLE
  2
LTYPE
  5
391
100
AcDbSymbolTable
 70
    23
  0
LTYPE
  5
39D
100
AcDbSymbolTableRecord
100
AcDbLinetypeTableRecord
  2
BYBLOCK
 70
     0
  3

 72
    65
 73
     0
 40
0.0
  0
LTYPE
  5
39E
100
AcDbSymbolTableRecord
100
AcDbLinetypeTableRecord
  2
BYLAYER
 70
     0
  3

 72
    65
 73
     0
 40
0.0
  0
LTYPE
  5
39F
100
AcDbSymbolTableRecord
100
AcDbLinetypeTableRecord
  2
CONTINUOUS
 70
     0
  3
Solid line
 72
    65
 73
     0
 40
0.0
  0
LTYPE
  5
3B2
100
AcDbSymbolTableRecord
100
AcDbLinetypeTableRecord
  2
AXES
 70
     0
  3
____ _ ____ _ ____ _ ____ _ ____ _ ____ _ ____ 
 72
    65
 73
     4
 40
2.0
 49
1.25
 74
     0
 49
-0.25
 74
     0
 49
0.25
 74
     0
 49
-0.25
 74
     0
  0
LTYPE
  5
3B3
100
AcDbSymbolTableRecord
100
AcDbLinetypeTableRecord
  2
AXES2
 70
     0
  3
___ _ ___ _ ___ _ ___ _ ___ _ ___ _ ___ _ ___ _
 72
    65
 73
     4
 40
1.125
 49
0.75
 74
     0
 49
-0.125
 74
     0
 49
0.125
 74
     0
 49
-0.125
 74
     0
  0
LTYPE
  5
3B4
100
AcDbSymbolTableRecord
100
AcDbLinetypeTableRecord
  2
AXESX2
 70
     0
  3
________  __  ________  __  ________  __  _____
 72
    65
 73
     4
 40
4.0
 49
2.5
 74
     0
 49
-0.5
 74
     0
 49
0.5
 74
     0
 49
-0.5
 74
     0
  0
LTYPE
  5
3B5
100
AcDbSymbolTableRecord
100
AcDbLinetypeTableRecord
  2
TIRETPT
 70
     0
  3
__ . __ . __ . __ . __ . __ . __ . __ . __ . __
 72
    65
 73
     4
 40
1.0
 49
0.5
 74
     0
 49
-0.25
 74
     0
 49
0.0
 74
     0
 49
-0.25
 74
     0
  0
LTYPE
  5
3B6
100
AcDbSymbolTableRecord
100
AcDbLinetypeTableRecord
  2
TIRETPT2
 70
     0
  3
_._._._._._._._._._._._._._._._._._._._._._._._
 72
    65
 73
     4
 40
0.5
 49
0.25
 74
     0
 49
-0.125
 74
     0
 49
0.0
 74
     0
 49
-0.125
 74
     0
  0
LTYPE
  5
3B7
100
AcDbSymbolTableRecord
100
AcDbLinetypeTableRecord
  2
TIRETPTX2
 70
     0
  3
____  .  ____  .  ____  .  ____  .  ____  .  __
 72
    65
 73
     4
 40
2.0
 49
1.0
 74
     0
 49
-0.5
 74
     0
 49
0.0
 74
     0
 49
-0.5
 74
     0
  0
LTYPE
  5
3B8
100
AcDbSymbolTableRecord
100
AcDbLinetypeTableRecord
  2
DISCONTINU
 70
     0
  3
__ __ __ __ __ __ __ __ __ __ __ __ __ __ __ __
 72
    65
 73
     2
 40
0.75
 49
0.5
 74
     0
 49
-0.25
 74
     0
  0
LTYPE
  5
3B9
100
AcDbSymbolTableRecord
100
AcDbLinetypeTableRecord
  2
DISCONTINU2
 70
     0
  3
_ _ _ _ _ _ _ _ _ _ _ _ _ _ _ _ _ _ _ _ _ _ _ _
 72
    65
 73
     2
 40
0.375
 49
0.25
 74
     0
 49
-0.125
 74
     0
  0
LTYPE
  5
3BA
100
AcDbSymbolTableRecord
100
AcDbLinetypeTableRecord
  2
DISCONTINUX2
 70
     0
  3
____  ____  ____  ____  ____  ____  ____  ____ 
 72
    65
 73
     2
 40
1.5
 49
1.0
 74
     0
 49
-0.5
 74
     0
  0
LTYPE
  5
3BB
100
AcDbSymbolTableRecord
100
AcDbLinetypeTableRecord
  2
DIVISE
 70
     0
  3
____ . . ____ . . ____ . . ____ . . ____ . . __
 72
    65
 73
     6
 40
1.25
 49
0.5
 74
     0
 49
-0.25
 74
     0
 49
0.0
 74
     0
 49
-0.25
 74
     0
 49
0.0
 74
     0
 49
-0.25
 74
     0
  0
LTYPE
  5
3BC
100
AcDbSymbolTableRecord
100
AcDbLinetypeTableRecord
  2
DIVISE2
 70
     0
  3
__..__..__..__..__..__..__..__..__..__..__..__.
 72
    65
 73
     6
 40
0.625
 49
0.25
 74
     0
 49
-0.125
 74
     0
 49
0.0
 74
     0
 49
-0.125
 74
     0
 49
0.0
 74
     0
 49
-0.125
 74
     0
  0
LTYPE
  5
3BD
100
AcDbSymbolTableRecord
100
AcDbLinetypeTableRecord
  2
DIVISEX2
 70
     0
  3
________  .  .  ________  .  .  ________  .  . 
 72
    65
 73
     6
 40
2.5
 49
1.0
 74
     0
 49
-0.5
 74
     0
 49
0.0
 74
     0
 49
-0.5
 74
     0
 49
0.0
 74
     0
 49
-0.5
 74
     0
  0
LTYPE
  5
3BE
100
AcDbSymbolTableRecord
100
AcDbLinetypeTableRecord
  2
POINTILLE
 70
     0
  3
. . . . . . . . . . . . . . . . . . . . . . . .
 72
    65
 73
     2
 40
0.25
 49
0.0
 74
     0
 49
-0.25
 74
     0
  0
LTYPE
  5
3BF
100
AcDbSymbolTableRecord
100
AcDbLinetypeTableRecord
  2
POINTILLE2
 70
     0
  3
...............................................
 72
    65
 73
     2
 40
0.125
 49
0.0
 74
     0
 49
-0.125
 74
     0
  0
LTYPE
  5
3C0
100
AcDbSymbolTableRecord
100
AcDbLinetypeTableRecord
  2
POINTILLEX2
 70
     0
  3
.  .  .  .  .  .  .  .  .  .  .  .  .  .  .  . 
 72
    65
 73
     2
 40
0.5
 49
0.0
 74
     0
 49
-0.5
 74
     0
  0
LTYPE
  5
3C1
100
AcDbSymbolTableRecord
100
AcDbLinetypeTableRecord
  2
CACHE
 70
     0
  3
__ __ __ __ __ __ __ __ __ __ __ __ __ __ __ __
 72
    65
 73
     2
 40
0.375
 49
0.25
 74
     0
 49
-0.125
 74
     0
  0
LTYPE
  5
3C2
100
AcDbSymbolTableRecord
100
AcDbLinetypeTableRecord
  2
CACHE2
 70
     0
  3
_ _ _ _ _ _ _ _ _ _ _ _ _ _ _ _ _ _ _ _ _ _ _ _
 72
    65
 73
     2
 40
0.1875
 49
0.125
 74
     0
 49
-0.0625
 74
     0
  0
LTYPE
  5
3C3
100
AcDbSymbolTableRecord
100
AcDbLinetypeTableRecord
  2
CACHEX2
 70
     0
  3
____ ____ ____ ____ ____ ____ ____ ____ ____ __
 72
    65
 73
     2
 40
0.75
 49
0.5
 74
     0
 49
-0.25
 74
     0
  0
LTYPE
  5
3C4
100
AcDbSymbolTableRecord
100
AcDbLinetypeTableRecord
  2
FANTOME
 70
     0
  3
______  __  __  ______  __  __  ______  __  __ 
 72
    65
 73
     6
 40
2.5
 49
1.25
 74
     0
 49
-0.25
 74
     0
 49
0.25
 74
     0
 49
-0.25
 74
     0
 49
0.25
 74
     0
 49
-0.25
 74
     0
  0
LTYPE
  5
3C5
100
AcDbSymbolTableRecord
100
AcDbLinetypeTableRecord
  2
FANTOME2
 70
     0
  3
___ _ _ ___ _ _ ___ _ _ ___ _ _ ___ _ _ ___ _ _
 72
    65
 73
     6
 40
1.25
 49
0.625
 74
     0
 49
-0.125
 74
     0
 49
0.125
 74
     0
 49
-0.125
 74
     0
 49
0.125
 74
     0
 49
-0.125
 74
     0
  0
LTYPE
  5
3C6
100
AcDbSymbolTableRecord
100
AcDbLinetypeTableRecord
  2
FANTOMEX2
 70
     0
  3
____________    ____    ____    ____________   
 72
    65
 73
     6
 40
5.0
 49
2.5
 74
     0
 49
-0.5
 74
     0
 49
0.5
 74
     0
 49
-0.5
 74
     0
 49
0.5
 74
     0
 49
-0.5
 74
     0
  0
LTYPE
  5
3C7
100
AcDbSymbolTableRecord
100
AcDbLinetypeTableRecord
  2
0
 70
     0
  3
MEDUSA PEN 0
 72
    65
 73
     0
 40
0.0
  0
ENDTAB
  0
TABLE
  2
LAYER
  5
38E
100
AcDbSymbolTable
 70
    21
  0
LAYER
  5
39A
100
AcDbSymbolTableRecord
100
AcDbLayerTableRecord
  2
0
 70
     0
 62
     7
  6
CONTINUOUS
  0
LAYER
  5
3CE
100
AcDbSymbolTableRecord
100
AcDbLayerTableRecord
  2
AXE
 70
     0
 62
    80
  6
AXES2
  0
LAYER
  5
3CF
100
AcDbSymbolTableRecord
100
AcDbLayerTableRecord
  2
CONSTRUCTION
 70
     0
 62
     6
  6
CONTINUOUS
  0
LAYER
  5
3D0
100
AcDbSymbolTableRecord
100
AcDbLayerTableRecord
  2
COTATION1
 70
     0
 62
     2
  6
CONTINUOUS
  0
LAYER
  5
3D1
100
AcDbSymbolTableRecord
100
AcDbLayerTableRecord
  2
HACHURES
 70
     0
 62
     9
  6
CONTINUOUS
  0
LAYER
  5
3D2
100
AcDbSymbolTableRecord
100
AcDbLayerTableRecord
  2
FMULT
 70
     0
 62
     6
  6
CONTINUOUS
  0
LAYER
  5
3D3
100
AcDbSymbolTableRecord
100
AcDbLayerTableRecord
  2
TEXTE
 70
     0
 62
   131
  6
CONTINUOUS
  0
LAYER
  5
3D4
100
AcDbSymbolTableRecord
100
AcDbLayerTableRecord
  2
FDP_CARTOUCHE
 70
     0
 62
     4
  6
CONTINUOUS
  0
LAYER
  5
3D5
100
AcDbSymbolTableRecord
100
AcDbLayerTableRecord
  2
FDP_TEXTES
 70
     0
 62
     5
  6
CONTINUOUS
  0
LAYER
  5
3D6
100
AcDbSymbolTableRecord
100
AcDbLayerTableRecord
  2
FDP_LOGO_MG
 70
     0
 62
    30
  6
CONTINUOUS
  0
LAYER
  5
3D7
100
AcDbSymbolTableRecord
100
AcDbLayerTableRecord
  2
FDP_LOGO_SCH
 70
     0
 62
     3
  6
CONTINUOUS
  0
LAYER
  5
3D8
100
AcDbSymbolTableRecord
100
AcDbLayerTableRecord
  2
FDP_FDP
 70
     0
 62
     5
  6
CONTINUOUS
  0
LAYER
  5
3D9
100
AcDbSymbolTableRecord
100
AcDbLayerTableRecord
  2
COTATION2
 70
     0
 62
     2
  6
CONTINUOUS
  0
LAYER
  5
3DA
100
AcDbSymbolTableRecord
100
AcDbLayerTableRecord
  2
COTATION3
 70
     0
 62
     2
  6
CONTINUOUS
  0
LAYER
  5
3DB
100
AcDbSymbolTableRecord
100
AcDbLayerTableRecord
  2
COTATION4
 70
     0
 62
     2
  6
CONTINUOUS
  0
LAYER
  5
3DC
100
AcDbSymbolTableRecord
100
AcDbLayerTableRecord
  2
ASHADE
 70
     0
 62
     7
  6
CONTINUOUS
  0
LAYER
  5
3DD
100
AcDbSymbolTableRecord
100
AcDbLayerTableRecord
  2
POINTILLE_COURT
 70
     0
 62
    40
  6
CACHE2
  0
LAYER
  5
3DE
100
AcDbSymbolTableRecord
100
AcDbLayerTableRecord
  2
POINTILLE_MOYEN
 70
     0
 62
   140
  6
CACHE
  0
LAYER
  5
3DF
100
AcDbSymbolTableRecord
100
AcDbLayerTableRecord
  2
POINTILLE_LONG
 70
     0
 62
   240
  6
CACHEX2
  0
LAYER
  5
3E0
100
AcDbSymbolTableRecord
100
AcDbLayerTableRecord
  2
ALPHA
 70
     0
 62
   255
  6
CONTINUOUS
  0
LAYER
  5
3E1
100
AcDbSymbolTableRecord
100
AcDbLayerTableRecord
  2
DEFPOINTS
 70
     0
 62
     7
  6
CONTINUOUS
  0
ENDTAB
  0
TABLE
  2
STYLE
  5
38F
100
AcDbSymbolTable
 70
     4
  0
STYLE
  5
39B
100
AcDbSymbolTableRecord
100
AcDbTextStyleTableRecord
  2
STANDARD
 70
     0
 40
0.0
 41
1.0
 50
0.0
 71
     0
 42
0.2
  3
txt
  4

  0
STYLE
  5
3AF
100
AcDbSymbolTableRecord
100
AcDbTextStyleTableRecord
  2
ROMANS
 70
     0
 40
0.0
 41
1.0
 50
0.0
 71
     0
 42
2.9
  3
romans.shx
  4

  0
STYLE
  5
3B0
100
AcDbSymbolTableRecord
100
AcDbTextStyleTableRecord
  2
INFOCAR
 70
     0
 40
0.0
 41
1.34
 50
0.0
 71
     0
 42
2.0
  3
ROMANS.SHX
  4

  0
STYLE
  5
3B1
100
AcDbSymbolTableRecord
100
AcDbTextStyleTableRecord
  2
CARTOUCHE
 70
     0
 40
0.0
 41
1.0
 50
0.0
 71
     0
 42
0.2
  3
ROMANS.SHX
  4

  0
ENDTAB
  0
TABLE
  2
VIEW
  5
392
100
AcDbSymbolTable
 70
     0
  0
ENDTAB
  0
TABLE
  2
UCS
  5
393
100
AcDbSymbolTable
 70
     0
  0
ENDTAB
  0
TABLE
  2
APPID
  5
395
100
AcDbSymbolTable
 70
     3
  0
APPID
  5
39C
100
AcDbSymbolTableRecord
100
AcDbRegAppTableRecord
  2
ACAD
 70
     0
  0
APPID
  5
3CA
100
AcDbSymbolTableRecord
100
AcDbRegAppTableRecord
  2
AVE_RENDER
 70
     0
  0
APPID
  5
3CB
100
AcDbSymbolTableRecord
100
AcDbRegAppTableRecord
  2
AVE_MATERIAL
 70
     0
  0
ENDTAB
  0
TABLE
  2
DIMSTYLE
  5
396
100
AcDbSymbolTable
 70
     2
  0
DIMSTYLE
105
3CC
100
AcDbSymbolTableRecord
100
AcDbDimStyleTableRecord
  2
STANDARD
 70
     0
  3

  4

  5

  6

  7

 40
1.0
 41
0.18
 42
0.0625
 43
0.38
 44
0.18
 45
0.0
 46
0.0
 47
0.0
 48
0.0
140
0.18
141
0.09
142
0.0
143
25.4
144
1.0
145
0.0
146
1.0
147
0.09
 71
     0
 72
     0
 73
     1
 74
     1
 75
     0
 76
     0
 77
     0
 78
     0
170
     0
171
     2
172
     0
173
     0
174
     0
175
     0
176
     0
177
     0
178
     0
270
     2
271
     4
272
     4
273
     2
274
     2
340
3AF
275
     0
280
     0
281
     0
282
     0
283
     1
284
    12
285
    12
286
    12
287
     5
288
     0
  0
DIMSTYLE
105
3CD
102
{ACAD_REACTORS
330
35B
330
368
102
}
100
AcDbSymbolTableRecord
100
AcDbDimStyleTableRecord
  2
SC_STAND
 70
     0
  3

  4

  5

  6

  7

 40
1.0
 41
3.0
 42
0.0625
 43
0.38
 44
0.18
 45
0.01
 46
0.0
 47
0.0
 48
0.0
140
2.5
141
0.09
142
0.0
143
25.4
144
1.0
145
0.0
146
1.0
147
1.0
 71
     0
 72
     0
 73
     0
 74
     0
 75
     0
 76
     0
 77
     1
 78
    12
170
     0
171
     2
172
     1
173
     0
174
     0
175
     0
176
     0
177
     0
178
     0
270
     2
271
     4
272
     4
273
     2
274
     2
340
3AF
275
     0
280
     0
281
     0
282
     0
283
     1
284
    12
285
    12
286
    12
287
     5
288
     0
  0
ENDTAB
  0
TABLE
  2
BLOCK_RECORD
  5
38D
100
AcDbSymbolTable
 70
     7
  0
BLOCK_RECORD
  5
3A3
100
AcDbSymbolTableRecord
100
AcDbBlockTableRecord
  2
*MODEL_SPACE
  0
BLOCK_RECORD
  5
3A0
100
AcDbSymbolTableRecord
100
AcDbBlockTableRecord
  2
*PAPER_SPACE
  0
BLOCK_RECORD
  5
3A8
100
AcDbSymbolTableRecord
100
AcDbBlockTableRecord
  2
AVE_RENDER
  0
BLOCK_RECORD
  5
3A9
100
AcDbSymbolTableRecord
100
AcDbBlockTableRecord
  2
AVE_GLOBAL
  0
BLOCK_RECORD
  5
3AA
100
AcDbSymbolTableRecord
100
AcDbBlockTableRecord
  2
SCH_ISO
  0
BLOCK_RECORD
  5
3AD
100
AcDbSymbolTableRecord
100
AcDbBlockTableRecord
  2
*D5
  0
BLOCK_RECORD
  5
3AE
100
AcDbSymbolTableRecord
100
AcDbBlockTableRecord
  2
*D6
  0
ENDTAB
  0
ENDSEC
  0
SECTION
  2
BLOCKS
  0
BLOCK
  5
3E4
100
AcDbEntity
  8
0
100
AcDbBlockBegin
  2
*MODEL_SPACE
 70
     0
 10
0.0
 20
0.0
 30
0.0
  3
*MODEL_SPACE
  1

  0
ENDBLK
  5
3E5
100
AcDbEntity
  8
0
100
AcDbBlockEnd
  0
BLOCK
  5
3E2
100
AcDbEntity
 67
     1
  8
0
100
AcDbBlockBegin
  2
*PAPER_SPACE
 70
     0
 10
0.0
 20
0.0
 30
0.0
  3
*PAPER_SPACE
  1

  0
ENDBLK
  5
3E3
100
AcDbEntity
 67
     1
  8
0
100
AcDbBlockEnd
  0
BLOCK
  5
30A
100
AcDbEntity
  8
0
100
AcDbBlockBegin
  2
AVE_RENDER
 70
     0
 10
0.0
 20
0.0
 30
0.0
  3
AVE_RENDER
  1
AVE_RENDER
  0
ENDBLK
  5
30B
100
AcDbEntity
  8
0
100
AcDbBlockEnd
  0
BLOCK
  5
30D
100
AcDbEntity
  8
0
100
AcDbBlockBegin
  2
AVE_GLOBAL
 70
     0
 10
0.0
 20
0.0
 30
0.0
  3
AVE_GLOBAL
  1
AVE_GLOBAL
  0
ENDBLK
  5
30E
100
AcDbEntity
  8
0
100
AcDbBlockEnd
  0
BLOCK
  5
349
100
AcDbEntity
  8
0
100
AcDbBlockBegin
  2
SCH_ISO
 70
     0
 10
0.0
 20
0.0
 30
0.0
  3
SCH_ISO
  1

  0
INSERT
  5
340
100
AcDbEntity
  8
ASHADE
 62
     1
100
AcDbBlockReference
  2
AVE_RENDER
 10
0.0
 20
0.0
 30
0.0
1001
AVE_RENDER
1002
{
1070
     6
1000
Pref
1070
    50
1070
    20
1070
     1
1070
     0
1000

1070
    10
1070
     1
1070
    30
1040
25.4
1070
     1
1040
0.3
1040
0.7
1040
0.0
1040
10.0
1010
-1.0
1020
-1.0
1030
-1.0
1040
0.3
1070
    49
1070
     0
1070
     0
1010
1.0
1020
1.0
1030
1.0
1040
45.0
1070
     1
1070
     0
1000
WCS
1040
0.0
1002
}
  0
INSERT
  5
341
100
AcDbEntity
  8
ASHADE
 62
     3
100
AcDbBlockReference
  2
AVE_RENDER
 10
0.0
 20
0.0
 30
0.0
1001
AVE_RENDER
1002
{
1070
     0
1000
Full Opt
1070
     0
1070
     1
1070
     1
1070
     1
1070
     0
1070
     0
1070
     0
1070
     1
1070
     1
1040
0.0001
1040
0.0001
1002
}
  0
INSERT
  5
342
100
AcDbEntity
  8
ASHADE
 62
     4
100
AcDbBlockReference
  2
AVE_RENDER
 10
0.0
 20
0.0
 30
0.0
1001
AVE_RENDER
1002
{
1070
     0
1000
Quick Opt
1070
     0
1070
     1
1070
     1
1070
     1
1070
     0
1070
     0
1070
     1
1002
}
  0
INSERT
  5
343
100
AcDbEntity
  8
ASHADE
 62
     5
100
AcDbBlockReference
  2
AVE_RENDER
 10
0.0
 20
0.0
 30
0.0
1001
AVE_RENDER
1002
{
1070
     1
1000
Scanl Opt
1070
     2
1070
     0
1070
     2
1040
2.0
1040
4.0
1070
     0
1070
     1
1070
     0
1040
0.03
1002
}
  0
INSERT
  5
344
100
AcDbEntity
  8
ASHADE
 62
     6
100
AcDbBlockReference
  2
AVE_RENDER
 10
0.0
 20
0.0
 30
0.0
1001
AVE_RENDER
1002
{
1070
     2
1000
Raytr Opt
1070
     2
1070
     0
1070
     2
1040
2.0
1040
4.0
1070
     0
1070
     1
1070
     1
1040
0.03
1070
     3
1040
0.03
1002
}
  0
INSERT
  5
345
100
AcDbEntity
  8
ASHADE
 62
     7
100
AcDbBlockReference
  2
AVE_RENDER
 10
0.0
 20
0.0
 30
0.0
1001
AVE_RENDER
1002
{
1070
     0
1000
RFile Opt
1070
     5
1070
   640
1070
   480
1070
 10000
1070
     3
1070
    32
1070
    24
1070
     0
1070
     0
1070
     0
1070
     1
1070
     0
1070
     0
1070
     0
1002
}
  0
INSERT
  5
346
100
AcDbEntity
  8
ASHADE
 62
     8
100
AcDbBlockReference
  2
AVE_RENDER
 10
0.0
 20
0.0
 30
0.0
1001
AVE_RENDER
1002
{
1070
     0
1000
Fog Opt
1070
     0
1070
     0
1040
0.0
1040
1.0
1040
0.0
1040
1.0
1010
0.5
1020
0.5
1030
0.5
1002
}
  0
INSERT
  5
347
100
AcDbEntity
  8
ASHADE
 62
     9
100
AcDbBlockReference
  2
AVE_RENDER
 10
0.0
 20
0.0
 30
0.0
1001
AVE_RENDER
1002
{
1070
     0
1000
BG Opt
1070
     0
1070
     1
1010
0.0
1020
0.0
1030
0.0
1010
1.0
1020
0.0
1030
0.0
1010
0.0
1020
1.0
1030
0.0
1010
0.0
1020
0.0
1030
1.0
1040
0.5
1040
0.33
1040
0.0
1000

1070
     1
1000

1070
     1
1070
     1
1040
1.0
1040
1.0
1040
0.0
1040
0.0
1070
     0
1002
}
  0
INSERT
  5
348
100
AcDbEntity
  8
ASHADE
 62
     1
100
AcDbBlockReference
  2
AVE_GLOBAL
 10
0.0
 20
0.0
 30
0.0
1001
AVE_MATERIAL
1002
{
1000
*GLOBAL*
1000
1
1000
Finition globale.
1002
{
1002
}
1002
{
1070
    63
1002
{
1002
{
1010
-1.0
1020
-1.0
1030
-1.0
1002
}
1040
0.1
1000

1040
0.0
1002
{
1002
}
1040
0.0
1002
{
1002
}
1040
0.0
1002
}
1002
{
1002
{
1010
-1.0
1020
-1.0
1030
-1.0
1002
}
1040
0.7
1000

1040
0.0
1002
{
1002
}
1040
0.0
1002
{
1002
}
1040
0.0
1002
}
1002
{
1002
{
1010
-1.0
1020
-1.0
1030
-1.0
1002
}
1040
0.2
1000

1040
0.0
1002
{
1002
}
1040
0.0
1002
{
1002
}
1040
0.0
1002
}
1002
{
1070
     0
1002
{
1070
     1
1002
{
1040
1.0
1040
1.0
1000

1040
0.0
1002
{
1002
}
1040
0.0
1002
{
1002
}
1040
0.0
1002
}
1002
}
1040
1.0
1040
0.0
1040
0.0
1002
}
1002
{
1040
1.0
1040
1.0
1000

1040
0.0
1002
{
1002
}
1040
0.0
1002
{
1002
}
1040
0.0
1002
}
1002
{
1040
0.5
1040
1.0
1000

1040
0.0
1002
{
1002
}
1040
0.0
1002
{
1002
}
1040
0.0
1002
}
1002
{
1070
     0
1040
0.0
1002
{
1002
}
1040
1.0
1002
{
1002
}
1040
0.0
1002
}
1002
{
1040
0.0
1002
{
1002
{
1010
0.0
1020
0.0
1030
0.0
1002
}
1040
1.0
1000

1040
0.0
1002
{
1002
}
1040
0.0
1002
{
1002
}
1040
0.0
1002
}
1002
}
1002
{
1002
{
1070
     1
1002
{
1040
0.0
1040
1.0
1000

1040
0.0
1002
{
1002
}
1040
0.0
1002
{
1002
}
1040
0.0
1002
}
1002
}
1040
0.0
1002
{
1002
}
1010
1.0
1020
0.0
1030
0.0
1010
0.0
1020
1.0
1030
0.0
1010
0.0
1020
0.0
1030
1.0
1070
     0
1002
}
1002
{
1002
{
1040
1.0
1040
1.0
1002
{
1070
     1
1002
{
1040
1.0
1040
1.0
1000

1040
0.0
1002
{
1002
}
1040
0.0
1002
{
1002
}
1040
0.0
1002
}
1002
}
1002
}
1070
     0
1040
0.0
1002
{
1002
}
1002
}
1002
{
1002
}
1002
}
1002
{
1071
        3
1070
     3
1070
     0
1002
{
1070
     2
1070
     0
1070
     0
1040
0.0
1002
}
1070
     0
1070
     2
1002
{
1002
}
1002
}
1002
{
1040
8030.0
1040
190.300003
1040
0.305
1040
228.0
1040
545.0
1040
14.0
1040
17.4
1040
0.456
1002
}
1002
}
  0
ENDBLK
  5
34A
100
AcDbEntity
  8
0
100
AcDbBlockEnd
  0
BLOCK
  5
374
100
AcDbEntity
  8
0
100
AcDbBlockBegin
  2
*D5
 70
     1
 10
0.0
 20
0.0
 30
0.0
  3
*D5
  1

  0
LINE
  5
375
100
AcDbEntity
  8
0
  6
BYBLOCK
 62
     0
100
AcDbLine
 10
45.247977
 20
94.096161
 30
0.0
 11
45.247977
 21
77.103657
 31
0.0
  0
LINE
  5
376
100
AcDbEntity
  8
0
  6
BYBLOCK
 62
     0
100
AcDbLine
 10
60.250669
 20
97.374787
 30
0.0
 11
60.250669
 21
77.103657
 31
0.0
  0
LINE
  5
377
100
AcDbEntity
  8
0
  6
BYBLOCK
 62
     0
100
AcDbLine
 10
48.247977
 20
77.283657
 30
0.0
 11
57.250669
 21
77.283657
 31
0.0
  0
SOLID
  5
378
100
AcDbEntity
  8
0
  6
BYBLOCK
 62
     0
100
AcDbTrace
 10
48.247977
 20
77.783657
 30
0.0
 11
48.247977
 21
76.783657
 31
0.0
 12
45.247977
 22
77.283657
 32
0.0
 13
45.247977
 23
77.283657
 33
0.0
  0
SOLID
  5
379
100
AcDbEntity
  8
0
  6
BYBLOCK
 62
     0
100
AcDbTrace
 10
57.250669
 20
77.783657
 30
0.0
 11
57.250669
 21
76.783657
 31
0.0
 12
60.250669
 22
77.283657
 32
0.0
 13
60.250669
 23
77.283657
 33
0.0
  0
TEXT
  5
37A
100
AcDbEntity
  8
0
  6
BYBLOCK
 62
     0
100
AcDbText
 10
50.189799
 20
78.533657
 30
0.0
 40
2.5
  1
15
  7
ROMANS
 72
     1
 11
52.749323
 21
79.783657
 31
0.0
100
AcDbText
 73
     2
  0
POINT
  5
37B
100
AcDbEntity
  8
DEFPOINTS
  6
BYBLOCK
 62
     0
100
AcDbPoint
 10
45.247977
 20
94.158661
 30
0.0
  0
POINT
  5
37C
100
AcDbEntity
  8
DEFPOINTS
  6
BYBLOCK
 62
     0
100
AcDbPoint
 10
60.250669
 20
97.437287
 30
0.0
  0
POINT
  5
37D
100
AcDbEntity
  8
DEFPOINTS
  6
BYBLOCK
 62
     0
100
AcDbPoint
 10
60.250669
 20
77.283657
 30
0.0
  0
ENDBLK
  5
37E
100
AcDbEntity
  8
0
100
AcDbBlockEnd
  0
BLOCK
  5
37F
100
AcDbEntity
  8
0
100
AcDbBlockBegin
  2
*D6
 70
     1
 10
0.0
 20
0.0
 30
0.0
  3
*D6
  1

  0
LINE
  5
380
100
AcDbEntity
  8
0
  6
BYBLOCK
 62
     0
100
AcDbLine
 10
60.188169
 20
98.433661
 30
0.0
 11
33.205724
 21
98.433661
 31
0.0
  0
LINE
  5
381
100
AcDbEntity
  8
0
  6
BYBLOCK
 62
     0
100
AcDbLine
 10
60.188169
 20
113.183661
 30
0.0
 11
33.205724
 21
113.183661
 31
0.0
  0
LINE
  5
382
100
AcDbEntity
  8
0
  6
BYBLOCK
 62
     0
100
AcDbLine
 10
33.385724
 20
95.433661
 30
0.0
 11
33.385724
 21
92.433661
 31
0.0
  0
LINE
  5
383
100
AcDbEntity
  8
0
  6
BYBLOCK
 62
     0
100
AcDbLine
 10
33.385724
 20
116.183661
 30
0.0
 11
33.385724
 21
119.183661
 31
0.0
  0
LINE
  5
384
100
AcDbEntity
  8
0
  6
BYBLOCK
 62
     0
100
AcDbLine
 10
33.385724
 20
119.183661
 30
0.0
 11
33.385724
 21
129.826518
 31
0.0
  0
SOLID
  5
385
100
AcDbEntity
  8
0
  6
BYBLOCK
 62
     0
100
AcDbTrace
 10
32.885724
 20
95.433661
 30
0.0
 11
33.885724
 21
95.433661
 31
0.0
 12
33.385724
 22
98.433661
 32
0.0
 13
33.385724
 23
98.433661
 33
0.0
  0
SOLID
  5
386
100
AcDbEntity
  8
0
  6
BYBLOCK
 62
     0
100
AcDbTrace
 10
32.885724
 20
116.183661
 30
0.0
 11
33.885724
 21
116.183661
 31
0.0
 12
33.385724
 22
113.183661
 32
0.0
 13
33.385724
 23
113.183661
 33
0.0
  0
LINE
  5
387
100
AcDbEntity
  8
0
  6
BYBLOCK
 62
     0
100
AcDbLine
 10
33.385724
 20
98.433661
 30
0.0
 11
33.385724
 21
113.183661
 31
0.0
  0
TEXT
  5
388
100
AcDbEntity
  8
0
  6
BYBLOCK
 62
     0
100
AcDbText
 10
32.135724
 20
119.469375
 30
0.0
 40
2.5
  1
14.75
 50
90.0
  7
ROMANS
 72
     1
 11
30.885724
 21
125.00509
 31
0.0
100
AcDbText
 73
     2
  0
POINT
  5
389
100
AcDbEntity
  8
DEFPOINTS
  6
BYBLOCK
 62
     0
100
AcDbPoint
 10
60.250669
 20
98.433661
 30
0.0
  0
POINT
  5
38A
100
AcDbEntity
  8
DEFPOINTS
  6
BYBLOCK
 62
     0
100
AcDbPoint
 10
60.250669
 20
113.183661
 30
0.0
  0
POINT
  5
38B
100
AcDbEntity
  8
DEFPOINTS
  6
BYBLOCK
 62
     0
100
AcDbPoint
 10
33.385724
 20
113.183661
 30
0.0
  0
ENDBLK
  5
38C
100
AcDbEntity
  8
0
100
AcDbBlockEnd
  0
ENDSEC
  0
SECTION
  2
ENTITIES
  0
ARC
  5
1D
100
AcDbEntity
  8
ALPHA
100
AcDbCircle
 10
46.590976
 20
97.165512
 30
0.0
 40
0.2
100
AcDbArc
 50
270.0
 51
347.328221
  0
ARC
  5
1E
100
AcDbEntity
  8
ALPHA
100
AcDbCircle
 10
8.150026
 20
105.808661
 30
0.0
 40
39.600643
100
AcDbArc
 50
347.328221
 51
12.671779
  0
ARC
  5
1F
100
AcDbEntity
  8
ALPHA
100
AcDbCircle
 10
46.590976
 20
114.45181
 30
0.0
 40
0.2
100
AcDbArc
 50
12.671779
 51
90.0
  0
ARC
  5
20
100
AcDbEntity
  8
ALPHA
100
AcDbCircle
 10
45.447977
 20
94.158661
 30
0.0
 40
0.2
100
AcDbArc
 50
180.0
 51
270.0
  0
ARC
  5
21
100
AcDbEntity
  8
ALPHA
100
AcDbCircle
 10
45.447977
 20
117.458661
 30
0.0
 40
0.2
100
AcDbArc
 50
90.0
 51
180.0
  0
ARC
  5
22
100
AcDbEntity
  8
ALPHA
100
AcDbCircle
 10
82.850306
 20
106.708661
 30
0.0
 40
0.2
100
AcDbArc
 50
90.0
 51
177.0
  0
ARC
  5
23
100
AcDbEntity
  8
ALPHA
100
AcDbCircle
 10
90.540462
 20
104.058661
 30
0.0
 40
0.2
100
AcDbArc
 50
195.122647
 51
270.0
  0
ARC
  5
24
100
AcDbEntity
  8
ALPHA
100
AcDbCircle
 10
100.050669
 20
111.808661
 30
0.0
 40
0.6
100
AcDbArc
 50
90.0
 51
270.0
  0
ARC
  5
25
100
AcDbEntity
  8
ALPHA
100
AcDbCircle
 10
100.650669
 20
111.808661
 30
0.0
 40
0.6
100
AcDbArc
 50
270.0
 51
90.0
  0
ARC
  5
26
100
AcDbEntity
  8
ALPHA
100
AcDbCircle
 10
100.050669
 20
99.808661
 30
0.0
 40
0.6
100
AcDbArc
 50
90.0
 51
270.0
  0
ARC
  5
27
100
AcDbEntity
  8
ALPHA
100
AcDbCircle
 10
100.650669
 20
99.808661
 30
0.0
 40
0.6
100
AcDbArc
 50
270.0
 51
90.0
  0
ARC
  5
28
100
AcDbEntity
  8
ALPHA
100
AcDbCircle
 10
100.250669
 20
105.708661
 30
0.0
 40
0.9
100
AcDbArc
 50
318.189685
 51
41.810315
  0
ARC
  5
29
100
AcDbEntity
  8
ALPHA
100
AcDbCircle
 10
100.250669
 20
105.708661
 30
0.0
 40
0.9
100
AcDbArc
 50
138.189685
 51
221.810315
  0
ARC
  5
2A
100
AcDbEntity
  8
ALPHA
100
AcDbCircle
 10
97.350669
 20
105.708661
 30
0.0
 40
0.9
100
AcDbArc
 50
318.189685
 51
41.810315
  0
ARC
  5
2B
100
AcDbEntity
  8
ALPHA
100
AcDbCircle
 10
97.350669
 20
105.708661
 30
0.0
 40
0.9
100
AcDbArc
 50
138.189685
 51
221.810315
  0
ARC
  5
2C
100
AcDbEntity
  8
ALPHA
100
AcDbCircle
 10
71.900669
 20
112.815346
 30
0.0
 40
0.35
100
AcDbArc
 50
0.0
 51
180.0
  0
ARC
  5
2D
100
AcDbEntity
  8
ALPHA
100
AcDbCircle
 10
71.900669
 20
98.563489
 30
0.0
 40
0.35
100
AcDbArc
 50
180.0
 51
0.0
  0
LINE
  5
2E
100
AcDbEntity
  8
ALPHA
100
AcDbLine
 10
102.350669
 20
110.908661
 30
0.0
 11
102.350669
 21
112.708661
 31
0.0
  0
LINE
  5
2F
100
AcDbEntity
  8
ALPHA
100
AcDbLine
 10
102.350669
 20
98.908661
 30
0.0
 11
102.350669
 21
100.708661
 31
0.0
  0
LINE
  5
30
100
AcDbEntity
  8
ALPHA
100
AcDbLine
 10
102.250669
 20
104.808661
 30
0.0
 11
102.250669
 21
106.608661
 31
0.0
  0
LINE
  5
31
100
AcDbEntity
  8
ALPHA
100
AcDbLine
 10
101.850669
 20
110.408661
 30
0.0
 11
101.850669
 21
113.208661
 31
0.0
  0
LINE
  5
32
100
AcDbEntity
  8
ALPHA
100
AcDbLine
 10
101.850669
 20
98.408661
 30
0.0
 11
101.850669
 21
101.208661
 31
0.0
  0
LINE
  5
33
100
AcDbEntity
  8
ALPHA
100
AcDbLine
 10
101.750669
 20
104.308661
 30
0.0
 11
101.750669
 21
107.108661
 31
0.0
  0
LINE
  5
34
100
AcDbEntity
  8
ALPHA
100
AcDbLine
 10
102.350669
 20
112.708661
 30
0.0
 11
101.850669
 21
113.208661
 31
0.0
  0
LINE
  5
35
100
AcDbEntity
  8
ALPHA
100
AcDbLine
 10
102.350669
 20
98.908661
 30
0.0
 11
101.850669
 21
98.408661
 31
0.0
  0
LINE
  5
36
100
AcDbEntity
  8
ALPHA
100
AcDbLine
 10
93.750669
 20
114.658661
 30
0.0
 11
94.125947
 21
114.008661
 31
0.0
  0
LINE
  5
37
100
AcDbEntity
  8
ALPHA
100
AcDbLine
 10
102.250669
 20
106.608661
 30
0.0
 11
101.750669
 21
107.108661
 31
0.0
  0
LINE
  5
38
100
AcDbEntity
  8
ALPHA
100
AcDbLine
 10
101.750669
 20
104.308661
 30
0.0
 11
102.250669
 21
104.808661
 31
0.0
  0
LINE
  5
39
100
AcDbEntity
  8
ALPHA
100
AcDbLine
 10
94.550669
 20
109.608661
 30
0.0
 11
94.550669
 21
114.008661
 31
0.0
  0
LINE
  5
3A
100
AcDbEntity
  8
ALPHA
100
AcDbLine
 10
94.550669
 20
103.858661
 30
0.0
 11
94.550669
 21
108.008661
 31
0.0
  0
LINE
  5
3B
100
AcDbEntity
  8
ALPHA
100
AcDbLine
 10
94.550669
 20
97.608661
 30
0.0
 11
94.550669
 21
102.008661
 31
0.0
  0
LINE
  5
3C
100
AcDbEntity
  8
ALPHA
100
AcDbLine
 10
94.150669
 20
114.008661
 30
0.0
 11
94.150669
 21
114.758661
 31
0.0
  0
LINE
  5
3D
100
AcDbEntity
  8
ALPHA
100
AcDbLine
 10
94.150669
 20
108.858661
 30
0.0
 11
94.150669
 21
109.608661
 31
0.0
  0
LINE
  5
3E
100
AcDbEntity
  8
ALPHA
100
AcDbLine
 10
94.150669
 20
108.008661
 30
0.0
 11
94.150669
 21
108.758661
 31
0.0
  0
LINE
  5
3F
100
AcDbEntity
  8
ALPHA
100
AcDbLine
 10
94.150669
 20
102.858661
 30
0.0
 11
94.150669
 21
103.858661
 31
0.0
  0
LINE
  5
40
100
AcDbEntity
  8
ALPHA
100
AcDbLine
 10
94.150669
 20
102.008661
 30
0.0
 11
94.150669
 21
102.758661
 31
0.0
  0
LINE
  5
41
100
AcDbEntity
  8
ALPHA
100
AcDbLine
 10
94.150669
 20
96.858661
 30
0.0
 11
94.150669
 21
97.608661
 31
0.0
  0
LINE
  5
42
100
AcDbEntity
  8
ALPHA
100
AcDbLine
 10
93.750669
 20
107.258661
 30
0.0
 11
93.750669
 21
108.758661
 31
0.0
  0
LINE
  5
43
100
AcDbEntity
  8
ALPHA
100
AcDbLine
 10
93.350669
 20
108.858661
 30
0.0
 11
93.350669
 21
109.608661
 31
0.0
  0
LINE
  5
44
100
AcDbEntity
  8
ALPHA
100
AcDbLine
 10
93.350669
 20
96.858661
 30
0.0
 11
93.350669
 21
97.608661
 31
0.0
  0
LINE
  5
45
100
AcDbEntity
  8
ALPHA
100
AcDbLine
 10
93.350669
 20
102.758661
 30
0.0
 11
93.350669
 21
102.008661
 31
0.0
  0
LINE
  5
46
100
AcDbEntity
  8
ALPHA
100
AcDbLine
 10
93.350669
 20
114.758661
 30
0.0
 11
93.350669
 21
114.008661
 31
0.0
  0
LINE
  5
47
100
AcDbEntity
  8
ALPHA
100
AcDbLine
 10
92.981609
 20
110.708661
 30
0.0
 11
92.981609
 21
112.908661
 31
0.0
  0
LINE
  5
48
100
AcDbEntity
  8
ALPHA
100
AcDbLine
 10
92.981609
 20
98.708661
 30
0.0
 11
92.981609
 21
100.908661
 31
0.0
  0
LINE
  5
49
100
AcDbEntity
  8
ALPHA
100
AcDbLine
 10
92.750669
 20
110.708661
 30
0.0
 11
92.750669
 21
112.908661
 31
0.0
  0
LINE
  5
4A
100
AcDbEntity
  8
ALPHA
100
AcDbLine
 10
92.750669
 20
98.708661
 30
0.0
 11
92.750669
 21
100.908661
 31
0.0
  0
LINE
  5
4B
100
AcDbEntity
  8
ALPHA
100
AcDbLine
 10
93.372483
 20
107.258661
 30
0.0
 11
93.299112
 21
108.658661
 31
0.0
  0
LINE
  5
4C
100
AcDbEntity
  8
ALPHA
100
AcDbLine
 10
94.666139
 20
107.108661
 30
0.0
 11
94.550669
 21
106.908661
 31
0.0
  0
LINE
  5
4D
100
AcDbEntity
  8
ALPHA
100
AcDbLine
 10
91.628856
 20
107.258661
 30
0.0
 11
91.702226
 21
108.658661
 31
0.0
  0
LINE
  5
4E
100
AcDbEntity
  8
ALPHA
100
AcDbLine
 10
91.450669
 20
102.858661
 30
0.0
 11
91.450669
 21
103.858661
 31
0.0
  0
LINE
  5
4F
100
AcDbEntity
  8
ALPHA
100
AcDbLine
 10
91.300669
 20
107.258661
 30
0.0
 11
91.300669
 21
107.608661
 31
0.0
  0
LINE
  5
50
100
AcDbEntity
  8
ALPHA
100
AcDbLine
 10
91.150669
 20
107.258661
 30
0.0
 11
91.150669
 21
108.758661
 31
0.0
  0
LINE
  5
51
100
AcDbEntity
  8
ALPHA
100
AcDbLine
 10
93.750669
 20
102.658661
 30
0.0
 11
94.125947
 21
102.008661
 31
0.0
  0
LINE
  5
52
100
AcDbEntity
  8
ALPHA
100
AcDbLine
 10
102.350669
 20
100.708661
 30
0.0
 11
101.850669
 21
101.208661
 31
0.0
  0
LINE
  5
53
100
AcDbEntity
  8
ALPHA
100
AcDbLine
 10
102.350669
 20
110.908661
 30
0.0
 11
101.850669
 21
110.408661
 31
0.0
  0
LINE
  5
54
100
AcDbEntity
  8
ALPHA
100
AcDbLine
 10
90.350669
 20
102.308661
 30
0.0
 11
90.350669
 21
97.308661
 31
0.0
  0
LINE
  5
55
100
AcDbEntity
  8
ALPHA
100
AcDbLine
 10
90.350669
 20
108.308661
 30
0.0
 11
90.350669
 21
103.308661
 31
0.0
  0
LINE
  5
56
100
AcDbEntity
  8
ALPHA
100
AcDbLine
 10
90.350669
 20
114.308661
 30
0.0
 11
90.350669
 21
109.308661
 31
0.0
  0
LINE
  5
57
100
AcDbEntity
  8
ALPHA
100
AcDbLine
 10
89.150669
 20
100.983661
 30
0.0
 11
89.150669
 21
98.633661
 31
0.0
  0
LINE
  5
58
100
AcDbEntity
  8
ALPHA
100
AcDbLine
 10
89.150669
 20
106.983661
 30
0.0
 11
89.150669
 21
104.633661
 31
0.0
  0
LINE
  5
59
100
AcDbEntity
  8
ALPHA
100
AcDbLine
 10
89.150669
 20
112.983661
 30
0.0
 11
89.150669
 21
110.633661
 31
0.0
  0
LINE
  5
5A
100
AcDbEntity
  8
ALPHA
100
AcDbLine
 10
88.500669
 20
106.908661
 30
0.0
 11
88.500669
 21
106.983661
 31
0.0
  0
LINE
  5
5B
100
AcDbEntity
  8
ALPHA
100
AcDbLine
 10
87.700669
 20
106.983661
 30
0.0
 11
87.700669
 21
106.908661
 31
0.0
  0
LINE
  5
5C
100
AcDbEntity
  8
ALPHA
100
AcDbLine
 10
53.250669
 20
117.658661
 30
0.0
 11
45.447977
 21
117.658661
 31
0.0
  0
LINE
  5
5D
100
AcDbEntity
  8
ALPHA
100
AcDbLine
 10
45.293468
 20
116.448661
 30
0.0
 11
45.260099
 21
116.448661
 31
0.0
  0
LINE
  5
5E
100
AcDbEntity
  8
ALPHA
100
AcDbLine
 10
85.38631
 20
110.708661
 30
0.0
 11
85.38631
 21
112.908661
 31
0.0
  0
LINE
  5
5F
100
AcDbEntity
  8
ALPHA
100
AcDbLine
 10
85.38631
 20
98.708661
 30
0.0
 11
85.38631
 21
100.908661
 31
0.0
  0
LINE
  5
60
100
AcDbEntity
  8
ALPHA
100
AcDbLine
 10
85.350669
 20
108.308661
 30
0.0
 11
85.350669
 21
109.308661
 31
0.0
  0
LINE
  5
61
100
AcDbEntity
  8
ALPHA
100
AcDbLine
 10
85.350669
 20
102.308661
 30
0.0
 11
85.350669
 21
103.308661
 31
0.0
  0
LINE
  5
62
100
AcDbEntity
  8
ALPHA
100
AcDbLine
 10
78.050669
 20
114.758661
 30
0.0
 11
94.150669
 21
114.758661
 31
0.0
  0
LINE
  5
63
100
AcDbEntity
  8
ALPHA
100
AcDbLine
 10
53.250669
 20
114.708661
 30
0.0
 11
55.750669
 21
114.708661
 31
0.0
  0
LINE
  5
64
100
AcDbEntity
  8
ALPHA
100
AcDbLine
 10
78.350669
 20
114.708661
 30
0.0
 11
74.350669
 21
114.708661
 31
0.0
  0
LINE
  5
65
100
AcDbEntity
  8
ALPHA
100
AcDbLine
 10
93.350669
 20
114.658661
 30
0.0
 11
93.750669
 21
114.658661
 31
0.0
  0
LINE
  5
66
100
AcDbEntity
  8
ALPHA
100
AcDbLine
 10
46.204221
 20
114.65181
 30
0.0
 11
46.590976
 21
114.65181
 31
0.0
  0
LINE
  5
67
100
AcDbEntity
  8
ALPHA
100
AcDbLine
 10
46.725574
 20
114.599323
 30
0.0
 11
45.977372
 21
114.599323
 31
0.0
  0
LINE
  5
68
100
AcDbEntity
  8
ALPHA
100
AcDbLine
 10
55.750669
 20
114.581346
 30
0.0
 11
59.050669
 21
114.581346
 31
0.0
  0
LINE
  5
69
100
AcDbEntity
  8
ALPHA
100
AcDbLine
 10
82.541285
 20
104.633661
 30
0.0
 11
82.65058
 21
106.719128
 31
0.0
  0
LINE
  5
6A
100
AcDbEntity
  8
ALPHA
100
AcDbLine
 10
82.550669
 20
110.708661
 30
0.0
 11
82.550669
 21
112.908661
 31
0.0
  0
LINE
  5
6B
100
AcDbEntity
  8
ALPHA
100
AcDbLine
 10
82.550669
 20
98.708661
 30
0.0
 11
82.550669
 21
100.908661
 31
0.0
  0
LINE
  5
6C
100
AcDbEntity
  8
ALPHA
100
AcDbLine
 10
82.350669
 20
110.633661
 30
0.0
 11
82.350669
 21
112.983661
 31
0.0
  0
LINE
  5
6D
100
AcDbEntity
  8
ALPHA
100
AcDbLine
 10
82.350669
 20
104.633661
 30
0.0
 11
82.350669
 21
106.983661
 31
0.0
  0
LINE
  5
6E
100
AcDbEntity
  8
ALPHA
100
AcDbLine
 10
82.350669
 20
98.633661
 30
0.0
 11
82.350669
 21
100.983661
 31
0.0
  0
LWPOLYLINE
  5
6F
100
AcDbEntity
  8
ALPHA
100
AcDbPolyline
 90
       17
 70
     0
 43
0.0
 10
46.204221
 20
114.65181
 10
46.190788
 20
114.652234
 10
46.175846
 20
114.653662
 10
46.159741
 20
114.656267
 10
46.142755
 20
114.660169
 10
46.125031
 20
114.665472
 10
46.106858
 20
114.67221
 10
46.088227
 20
114.680506
 10
46.069188
 20
114.690494
 10
46.049892
 20
114.702279
 10
46.030597
 20
114.715905
 10
46.011315
 20
114.731622
 10
45.992133
 20
114.749748
 10
45.973355
 20
114.770549
 10
45.955447
 20
114.794287
 10
45.939031
 20
114.821305
 10
45.925119
 20
114.85181
  0
LINE
  5
82
100
AcDbEntity
  8
ALPHA
100
AcDbLine
 10
74.350669
 20
114.308661
 30
0.0
 11
90.350669
 21
114.308661
 31
0.0
  0
LINE
  5
83
100
AcDbEntity
  8
ALPHA
100
AcDbLine
 10
59.050669
 20
114.180035
 30
0.0
 11
60.250669
 21
114.180035
 31
0.0
  0
LINE
  5
84
100
AcDbEntity
  8
ALPHA
100
AcDbLine
 10
72.350669
 20
114.083661
 30
0.0
 11
74.350669
 21
114.083661
 31
0.0
  0
LINE
  5
85
100
AcDbEntity
  8
ALPHA
100
AcDbLine
 10
94.550669
 20
114.008661
 30
0.0
 11
93.350669
 21
114.008661
 31
0.0
  0
LINE
  5
86
100
AcDbEntity
  8
ALPHA
100
AcDbLine
 10
71.550669
 20
113.908661
 30
0.0
 11
70.350669
 21
113.908661
 31
0.0
  0
LINE
  5
87
100
AcDbEntity
  8
ALPHA
100
AcDbLine
 10
55.750669
 20
113.503364
 30
0.0
 11
60.250669
 21
113.503364
 31
0.0
  0
LINE
  5
88
100
AcDbEntity
  8
ALPHA
100
AcDbLine
 10
55.750669
 20
113.338936
 30
0.0
 11
60.250669
 21
113.338936
 31
0.0
  0
LINE
  5
89
100
AcDbEntity
  8
ALPHA
100
AcDbLine
 10
101.850669
 20
113.208661
 30
0.0
 11
94.550669
 21
113.208661
 31
0.0
  0
LINE
  5
8A
100
AcDbEntity
  8
ALPHA
100
AcDbLine
 10
66.375669
 20
113.183661
 30
0.0
 11
60.250669
 21
113.183661
 31
0.0
  0
LINE
  5
8B
100
AcDbEntity
  8
ALPHA
100
AcDbLine
 10
70.350669
 20
113.183661
 30
0.0
 11
66.375669
 21
113.183661
 31
0.0
  0
LINE
  5
8C
100
AcDbEntity
  8
ALPHA
100
AcDbLine
 10
72.350669
 20
113.183661
 30
0.0
 11
72.250669
 21
113.183661
 31
0.0
  0
LINE
  5
8D
100
AcDbEntity
  8
ALPHA
100
AcDbLine
 10
60.250669
 20
113.133661
 30
0.0
 11
66.375669
 21
113.133661
 31
0.0
  0
LINE
  5
8E
100
AcDbEntity
  8
ALPHA
100
AcDbLine
 10
82.350669
 20
112.983661
 30
0.0
 11
89.150669
 21
112.983661
 31
0.0
  0
LINE
  5
8F
100
AcDbEntity
  8
ALPHA
100
AcDbLine
 10
92.750669
 20
112.908661
 30
0.0
 11
94.550669
 21
112.908661
 31
0.0
  0
LINE
  5
90
100
AcDbEntity
  8
ALPHA
100
AcDbLine
 10
89.150669
 20
112.908661
 30
0.0
 11
82.550669
 21
112.908661
 31
0.0
  0
LINE
  5
91
100
AcDbEntity
  8
ALPHA
100
AcDbLine
 10
55.750669
 20
112.643
 30
0.0
 11
60.250669
 21
112.643
 31
0.0
  0
LINE
  5
92
100
AcDbEntity
  8
ALPHA
100
AcDbLine
 10
60.250669
 20
112.565948
 30
0.0
 11
65.750669
 21
112.565948
 31
0.0
  0
LINE
  5
93
100
AcDbEntity
  8
ALPHA
100
AcDbLine
 10
72.250669
 20
112.458661
 30
0.0
 11
74.350669
 21
112.458661
 31
0.0
  0
LINE
  5
94
100
AcDbEntity
  8
ALPHA
100
AcDbLine
 10
100.650669
 20
112.408661
 30
0.0
 11
100.050669
 21
112.408661
 31
0.0
  0
LWPOLYLINE
  5
95
100
AcDbEntity
  8
ALPHA
100
AcDbPolyline
 90
        4
 70
     0
 43
0.0
 10
70.350669
 20
111.417708
 10
67.543111
 20
111.593503
 10
62.887261
 20
111.865012
 10
60.250669
 20
112.007276
  0
LINE
  5
9B
100
AcDbEntity
  8
ALPHA
100
AcDbLine
 10
60.250669
 20
112.112069
 30
0.0
 11
66.375669
 21
112.112069
 31
0.0
  0
LINE
  5
9C
100
AcDbEntity
  8
ALPHA
100
AcDbLine
 10
71.550669
 20
111.908661
 30
0.0
 11
70.350669
 21
111.908661
 31
0.0
  0
LINE
  5
9D
100
AcDbEntity
  8
ALPHA
100
AcDbLine
 10
55.750669
 20
111.509697
 30
0.0
 11
60.250669
 21
111.509697
 31
0.0
  0
LINE
  5
9E
100
AcDbEntity
  8
ALPHA
100
AcDbLine
 10
55.750669
 20
111.394563
 30
0.0
 11
60.250669
 21
111.394563
 31
0.0
  0
LINE
  5
9F
100
AcDbEntity
  8
ALPHA
100
AcDbLine
 10
100.050669
 20
111.208661
 30
0.0
 11
100.650669
 21
111.208661
 31
0.0
  0
LINE
  5
A0
100
AcDbEntity
  8
ALPHA
100
AcDbLine
 10
90.350669
 20
110.708661
 30
0.0
 11
94.550669
 21
110.708661
 31
0.0
  0
LINE
  5
A1
100
AcDbEntity
  8
ALPHA
100
AcDbLine
 10
89.150669
 20
110.708661
 30
0.0
 11
82.350669
 21
110.708661
 31
0.0
  0
LINE
  5
A2
100
AcDbEntity
  8
ALPHA
100
AcDbLine
 10
89.150669
 20
110.633661
 30
0.0
 11
82.350669
 21
110.633661
 31
0.0
  0
LINE
  5
A3
100
AcDbEntity
  8
ALPHA
100
AcDbLine
 10
101.850669
 20
110.408661
 30
0.0
 11
94.550669
 21
110.408661
 31
0.0
  0
LINE
  5
A4
100
AcDbEntity
  8
ALPHA
100
AcDbLine
 10
55.750669
 20
110.280969
 30
0.0
 11
60.250669
 21
110.280969
 31
0.0
  0
LWPOLYLINE
  5
A5
100
AcDbEntity
  8
ALPHA
100
AcDbPolyline
 90
        3
 70
     0
 43
0.0
 10
63.82774
 20
110.091075
 10
67.543111
 20
110.383181
 10
70.350669
 20
110.591843
  0
LINE
  5
AA
100
AcDbEntity
  8
ALPHA
100
AcDbLine
 10
78.550669
 20
114.308661
 30
0.0
 11
78.550669
 21
114.758661
 31
0.0
  0
LINE
  5
AB
100
AcDbEntity
  8
ALPHA
100
AcDbLine
 10
78.550669
 20
97.308661
 30
0.0
 11
78.550669
 21
96.858661
 31
0.0
  0
LINE
  5
AC
100
AcDbEntity
  8
ALPHA
100
AcDbLine
 10
78.350669
 20
114.308661
 30
0.0
 11
78.350669
 21
114.708661
 31
0.0
  0
LINE
  5
AD
100
AcDbEntity
  8
ALPHA
100
AcDbLine
 10
78.350669
 20
96.908661
 30
0.0
 11
78.350669
 21
97.308661
 31
0.0
  0
LWPOLYLINE
  5
AE
100
AcDbEntity
  8
ALPHA
100
AcDbPolyline
 90
        6
 70
     0
 43
0.0
 10
71.900669
 20
110.002174
 10
72.008825
 20
109.990061
 10
72.106394
 20
109.954908
 10
72.183825
 20
109.900156
 10
72.233539
 20
109.831164
 10
72.250669
 20
109.754686
  0
LWPOLYLINE
  5
B6
100
AcDbEntity
  8
ALPHA
100
AcDbPolyline
 90
        6
 70
     0
 43
0.0
 10
71.900669
 20
109.507199
 10
71.792513
 20
109.519312
 10
71.694944
 20
109.554465
 10
71.617513
 20
109.609217
 10
71.567799
 20
109.678208
 10
71.550669
 20
109.754686
  0
LINE
  5
BE
100
AcDbEntity
  8
ALPHA
100
AcDbLine
 10
60.250669
 20
111.085053
 30
0.0
 11
68.961778
 21
110.488618
 31
0.0
  0
LINE
  5
BF
100
AcDbEntity
  8
ALPHA
100
AcDbLine
 10
72.250669
 20
110.192113
 30
0.0
 11
74.350669
 21
110.192113
 31
0.0
  0
LINE
  5
C0
100
AcDbEntity
  8
ALPHA
100
AcDbLine
 10
65.750669
 20
110.091075
 30
0.0
 11
60.250669
 21
110.091075
 31
0.0
  0
LINE
  5
C1
100
AcDbEntity
  8
ALPHA
100
AcDbLine
 10
94.550669
 20
109.608661
 30
0.0
 11
93.350669
 21
109.608661
 31
0.0
  0
LINE
  5
C2
100
AcDbEntity
  8
ALPHA
100
AcDbLine
 10
70.350669
 20
109.508661
 30
0.0
 11
66.850669
 21
109.508661
 31
0.0
  0
LINE
  5
C3
100
AcDbEntity
  8
ALPHA
100
AcDbLine
 10
67.440252
 20
109.308661
 30
0.0
 11
67.304836
 21
109.308661
 31
0.0
  0
LINE
  5
C4
100
AcDbEntity
  8
ALPHA
100
AcDbLine
 10
68.740252
 20
109.308661
 30
0.0
 11
68.090252
 21
109.308661
 31
0.0
  0
LINE
  5
C5
100
AcDbEntity
  8
ALPHA
100
AcDbLine
 10
69.498586
 20
109.308661
 30
0.0
 11
69.363169
 21
109.308661
 31
0.0
  0
LINE
  5
C6
100
AcDbEntity
  8
ALPHA
100
AcDbLine
 10
90.350669
 20
109.308661
 30
0.0
 11
85.350669
 21
109.308661
 31
0.0
  0
LINE
  5
C7
100
AcDbEntity
  8
ALPHA
100
AcDbLine
 10
67.440252
 20
109.095895
 30
0.0
 11
67.304836
 21
109.095895
 31
0.0
  0
LINE
  5
C8
100
AcDbEntity
  8
ALPHA
100
AcDbLine
 10
69.525669
 20
109.095895
 30
0.0
 11
69.336086
 21
109.095895
 31
0.0
  0
LINE
  5
C9
100
AcDbEntity
  8
ALPHA
100
AcDbLine
 10
68.577752
 20
109.053342
 30
0.0
 11
68.090252
 21
109.053342
 31
0.0
  0
LINE
  5
CA
100
AcDbEntity
  8
ALPHA
100
AcDbLine
 10
94.150669
 20
108.858661
 30
0.0
 11
85.350669
 21
108.858661
 31
0.0
  0
LINE
  5
CB
100
AcDbEntity
  8
ALPHA
100
AcDbLine
 10
59.050669
 20
108.830266
 30
0.0
 11
60.250669
 21
108.830266
 31
0.0
  0
LINE
  5
CC
100
AcDbEntity
  8
ALPHA
100
AcDbLine
 10
85.350669
 20
108.758661
 30
0.0
 11
94.150669
 21
108.758661
 31
0.0
  0
LINE
  5
CD
100
AcDbEntity
  8
ALPHA
100
AcDbLine
 10
93.299112
 20
108.658661
 30
0.0
 11
91.702226
 21
108.658661
 31
0.0
  0
LINE
  5
CE
100
AcDbEntity
  8
ALPHA
100
AcDbLine
 10
59.050669
 20
108.558661
 30
0.0
 11
60.250669
 21
108.558661
 31
0.0
  0
LINE
  5
CF
100
AcDbEntity
  8
ALPHA
100
AcDbLine
 10
90.350669
 20
108.308661
 30
0.0
 11
85.350669
 21
108.308661
 31
0.0
  0
LINE
  5
D0
100
AcDbEntity
  8
ALPHA
100
AcDbLine
 10
69.525669
 20
108.244831
 30
0.0
 11
69.336086
 21
108.244831
 31
0.0
  0
LINE
  5
D1
100
AcDbEntity
  8
ALPHA
100
AcDbLine
 10
78.050669
 20
96.908661
 30
0.0
 11
78.050669
 21
96.858661
 31
0.0
  0
LINE
  5
D2
100
AcDbEntity
  8
ALPHA
100
AcDbLine
 10
78.050669
 20
114.758661
 30
0.0
 11
78.050669
 21
114.708661
 31
0.0
  0
LINE
  5
D3
100
AcDbEntity
  8
ALPHA
100
AcDbLine
 10
65.750669
 20
112.565948
 30
0.0
 11
66.375669
 21
112.112069
 31
0.0
  0
LINE
  5
D4
100
AcDbEntity
  8
ALPHA
100
AcDbLine
 10
69.606919
 20
109.053342
 30
0.0
 11
69.525669
 21
109.095895
 31
0.0
  0
LINE
  5
D5
100
AcDbEntity
  8
ALPHA
100
AcDbLine
 10
69.634003
 20
109.266108
 30
0.0
 11
69.498586
 21
109.308661
 31
0.0
  0
LINE
  5
D6
100
AcDbEntity
  8
ALPHA
100
AcDbLine
 10
69.363169
 20
108.032065
 30
0.0
 11
69.227753
 21
108.074618
 31
0.0
  0
LINE
  5
D7
100
AcDbEntity
  8
ALPHA
100
AcDbLine
 10
69.498586
 20
108.032065
 30
0.0
 11
69.363169
 21
108.032065
 31
0.0
  0
LINE
  5
D8
100
AcDbEntity
  8
ALPHA
100
AcDbLine
 10
94.550669
 20
108.008661
 30
0.0
 11
94.150669
 21
108.008661
 31
0.0
  0
LINE
  5
D9
100
AcDbEntity
  8
ALPHA
100
AcDbLine
 10
93.335797
 20
107.958661
 30
0.0
 11
93.750669
 21
107.958661
 31
0.0
  0
LINE
  5
DA
100
AcDbEntity
  8
ALPHA
100
AcDbLine
 10
91.150669
 20
107.958661
 30
0.0
 11
91.665541
 21
107.958661
 31
0.0
  0
LINE
  5
DB
100
AcDbEntity
  8
ALPHA
100
AcDbLine
 10
74.350669
 20
107.924228
 30
0.0
 11
70.350669
 21
107.924228
 31
0.0
  0
LINE
  5
DC
100
AcDbEntity
  8
ALPHA
100
AcDbLine
 10
47.050669
 20
107.808661
 30
0.0
 11
47.699499
 21
107.808661
 31
0.0
  0
LINE
  5
DD
100
AcDbEntity
  8
ALPHA
100
AcDbLine
 10
93.343658
 20
107.808661
 30
0.0
 11
91.65768
 21
107.808661
 31
0.0
  0
LINE
  5
DE
100
AcDbEntity
  8
ALPHA
100
AcDbLine
 10
69.146502
 20
107.776746
 30
0.0
 11
69.011086
 21
107.776746
 31
0.0
  0
LINE
  5
DF
100
AcDbEntity
  8
ALPHA
100
AcDbLine
 10
91.300669
 20
107.608661
 30
0.0
 11
91.647198
 21
107.608661
 31
0.0
  0
LINE
  5
E0
100
AcDbEntity
  8
ALPHA
100
AcDbLine
 10
68.577752
 20
107.56398
 30
0.0
 11
68.090252
 21
107.56398
 31
0.0
  0
LINE
  5
E1
100
AcDbEntity
  8
ALPHA
100
AcDbLine
 10
69.525669
 20
107.521427
 30
0.0
 11
69.363169
 21
107.521427
 31
0.0
  0
LINE
  5
E2
100
AcDbEntity
  8
ALPHA
100
AcDbLine
 10
93.364622
 20
107.408661
 30
0.0
 11
91.636717
 21
107.408661
 31
0.0
  0
LINE
  5
E3
100
AcDbEntity
  8
ALPHA
100
AcDbLine
 10
55.750669
 20
107.308661
 30
0.0
 11
59.050669
 21
107.308661
 31
0.0
  0
LINE
  5
E4
100
AcDbEntity
  8
ALPHA
100
AcDbLine
 10
68.740252
 20
107.308661
 30
0.0
 11
68.090252
 21
107.308661
 31
0.0
  0
LINE
  5
E5
100
AcDbEntity
  8
ALPHA
100
AcDbLine
 10
69.498586
 20
107.308661
 30
0.0
 11
69.390252
 21
107.308661
 31
0.0
  0
LINE
  5
E6
100
AcDbEntity
  8
ALPHA
100
AcDbLine
 10
93.750669
 20
107.258661
 30
0.0
 11
91.150669
 21
107.258661
 31
0.0
  0
LINE
  5
E7
100
AcDbEntity
  8
ALPHA
100
AcDbLine
 10
94.666139
 20
107.108661
 30
0.0
 11
101.750669
 21
107.108661
 31
0.0
  0
LINE
  5
E8
100
AcDbEntity
  8
ALPHA
100
AcDbLine
 10
70.350669
 20
107.108661
 30
0.0
 11
66.850669
 21
107.108661
 31
0.0
  0
LINE
  5
E9
100
AcDbEntity
  8
ALPHA
100
AcDbLine
 10
82.350669
 20
106.983661
 30
0.0
 11
89.150669
 21
106.983661
 31
0.0
  0
LINE
  5
EA
100
AcDbEntity
  8
ALPHA
100
AcDbLine
 10
82.850306
 20
106.908661
 30
0.0
 11
89.150669
 21
106.908661
 31
0.0
  0
LINE
  5
EB
100
AcDbEntity
  8
ALPHA
100
AcDbLine
 10
99.579849
 20
106.308661
 30
0.0
 11
100.92149
 21
106.308661
 31
0.0
  0
LINE
  5
EC
100
AcDbEntity
  8
ALPHA
100
AcDbLine
 10
96.679849
 20
106.308661
 30
0.0
 11
98.02149
 21
106.308661
 31
0.0
  0
LINE
  5
ED
100
AcDbEntity
  8
ALPHA
100
AcDbLine
 10
74.350669
 20
96.908661
 30
0.0
 11
74.350669
 21
114.708661
 31
0.0
  0
LINE
  5
EE
100
AcDbEntity
  8
ALPHA
100
AcDbLine
 10
70.350658
 20
108.523081
 30
0.0
 11
70.338169
 21
108.542704
 31
0.0
  0
LINE
  5
EF
100
AcDbEntity
  8
ALPHA
100
AcDbLine
 10
70.350669
 20
107.368399
 30
0.0
 11
70.256919
 21
107.478874
 31
0.0
  0
LINE
  5
F0
100
AcDbEntity
  8
ALPHA
100
AcDbLine
 10
69.688169
 20
108.968235
 30
0.0
 11
69.606919
 21
109.053342
 31
0.0
  0
LINE
  5
F1
100
AcDbEntity
  8
ALPHA
100
AcDbLine
 10
69.254836
 20
108.287384
 30
0.0
 11
69.173586
 21
108.372491
 31
0.0
  0
LINE
  5
F2
100
AcDbEntity
  8
ALPHA
100
AcDbLine
 10
69.769419
 20
109.138448
 30
0.0
 11
69.634003
 21
109.266108
 31
0.0
  0
LINE
  5
F3
100
AcDbEntity
  8
ALPHA
100
AcDbLine
 10
69.227753
 20
108.074618
 30
0.0
 11
69.092336
 21
108.202278
 31
0.0
  0
LINE
  5
F4
100
AcDbEntity
  8
ALPHA
100
AcDbLine
 10
70.311086
 20
108.287384
 30
0.0
 11
70.256919
 21
108.329938
 31
0.0
  0
LINE
  5
F5
100
AcDbEntity
  8
ALPHA
100
AcDbLine
 10
66.375669
 20
109.637195
 30
0.0
 11
65.750669
 21
110.091075
 31
0.0
  0
LINE
  5
F6
100
AcDbEntity
  8
ALPHA
100
AcDbLine
 10
69.336086
 20
108.244831
 30
0.0
 11
69.254836
 21
108.287384
 31
0.0
  0
LINE
  5
F7
100
AcDbEntity
  8
ALPHA
100
AcDbLine
 10
69.363169
 20
107.521427
 30
0.0
 11
69.281919
 21
107.56398
 31
0.0
  0
LINE
  5
F8
100
AcDbEntity
  8
ALPHA
100
AcDbLine
 10
68.090252
 20
107.56398
 30
0.0
 11
67.981919
 21
107.606533
 31
0.0
  0
LINE
  5
F9
100
AcDbEntity
  8
ALPHA
100
AcDbLine
 10
69.390252
 20
107.308661
 30
0.0
 11
69.254836
 21
107.351214
 31
0.0
  0
LINE
  5
FA
100
AcDbEntity
  8
ALPHA
100
AcDbLine
 10
68.090252
 20
107.308661
 30
0.0
 11
67.954836
 21
107.351214
 31
0.0
  0
LINE
  5
FB
100
AcDbEntity
  8
ALPHA
100
AcDbLine
 10
98.02149
 20
105.108661
 30
0.0
 11
96.679849
 21
105.108661
 31
0.0
  0
LINE
  5
FC
100
AcDbEntity
  8
ALPHA
100
AcDbLine
 10
100.92149
 20
105.108661
 30
0.0
 11
99.579849
 21
105.108661
 31
0.0
  0
LINE
  5
FD
100
AcDbEntity
  8
ALPHA
100
AcDbLine
 10
89.150669
 20
104.633661
 30
0.0
 11
82.350669
 21
104.633661
 31
0.0
  0
LINE
  5
FE
100
AcDbEntity
  8
ALPHA
100
AcDbLine
 10
70.350669
 20
104.508661
 30
0.0
 11
67.250669
 21
104.508661
 31
0.0
  0
LINE
  5
FF
100
AcDbEntity
  8
ALPHA
100
AcDbLine
 10
94.550669
 20
104.308661
 30
0.0
 11
101.750669
 21
104.308661
 31
0.0
  0
LINE
  5
100
100
AcDbEntity
  8
ALPHA
100
AcDbLine
 10
55.750669
 20
104.308661
 30
0.0
 11
59.050669
 21
104.308661
 31
0.0
  0
LINE
  5
101
100
AcDbEntity
  8
ALPHA
100
AcDbLine
 10
72.350669
 20
112.458661
 30
0.0
 11
72.350669
 21
114.083583
 31
0.0
  0
LINE
  5
102
100
AcDbEntity
  8
ALPHA
100
AcDbLine
 10
72.350669
 20
97.533739
 30
0.0
 11
72.350669
 21
99.158661
 31
0.0
  0
LINE
  5
103
100
AcDbEntity
  8
ALPHA
100
AcDbLine
 10
72.250669
 20
109.754686
 30
0.0
 11
72.250669
 21
113.183661
 31
0.0
  0
LINE
  5
104
100
AcDbEntity
  8
ALPHA
100
AcDbLine
 10
72.250669
 20
98.433661
 30
0.0
 11
72.250669
 21
101.624149
 31
0.0
  0
LINE
  5
105
100
AcDbEntity
  8
ALPHA
100
AcDbLine
 10
70.338169
 20
108.542704
 30
0.0
 11
70.311086
 21
108.670363
 31
0.0
  0
LINE
  5
106
100
AcDbEntity
  8
ALPHA
100
AcDbLine
 10
70.175669
 20
108.50015
 30
0.0
 11
70.148586
 21
108.62781
 31
0.0
  0
LINE
  5
107
100
AcDbEntity
  8
ALPHA
100
AcDbLine
 10
70.338169
 20
107.69164
 30
0.0
 11
70.311086
 21
107.819299
 31
0.0
  0
LINE
  5
108
100
AcDbEntity
  8
ALPHA
100
AcDbLine
 10
70.175669
 20
107.649086
 30
0.0
 11
70.148586
 21
107.776746
 31
0.0
  0
LINE
  5
109
100
AcDbEntity
  8
ALPHA
100
AcDbLine
 10
69.769419
 20
108.712916
 30
0.0
 11
69.742336
 21
108.840576
 31
0.0
  0
LWPOLYLINE
  5
10A
100
AcDbEntity
  8
ALPHA
100
AcDbPolyline
 90
        6
 70
     0
 43
0.0
 10
72.250669
 20
101.624149
 10
72.233539
 20
101.700627
 10
72.183825
 20
101.769618
 10
72.106394
 20
101.82437
 10
72.008825
 20
101.859523
 10
71.900669
 20
101.871636
  0
LWPOLYLINE
  5
112
100
AcDbEntity
  8
ALPHA
100
AcDbPolyline
 90
        6
 70
     0
 43
0.0
 10
71.550669
 20
101.624149
 10
71.567799
 20
101.547671
 10
71.617513
 20
101.478679
 10
71.694944
 20
101.423927
 10
71.792513
 20
101.388774
 10
71.900669
 20
101.376661
  0
LINE
  5
11A
100
AcDbEntity
  8
ALPHA
100
AcDbLine
 10
69.904836
 20
108.75547
 30
0.0
 11
69.850669
 21
108.968235
 31
0.0
  0
LINE
  5
11B
100
AcDbEntity
  8
ALPHA
100
AcDbLine
 10
69.742336
 20
108.840576
 30
0.0
 11
69.688169
 21
108.968235
 31
0.0
  0
LINE
  5
11C
100
AcDbEntity
  8
ALPHA
100
AcDbLine
 10
69.200669
 20
107.649086
 30
0.0
 11
69.146502
 21
107.776746
 31
0.0
  0
LINE
  5
11D
100
AcDbEntity
  8
ALPHA
100
AcDbLine
 10
70.256919
 20
108.329938
 30
0.0
 11
70.175669
 21
108.50015
 31
0.0
  0
LINE
  5
11E
100
AcDbEntity
  8
ALPHA
100
AcDbLine
 10
69.850669
 20
108.968235
 30
0.0
 11
69.769419
 21
109.138448
 31
0.0
  0
LINE
  5
11F
100
AcDbEntity
  8
ALPHA
100
AcDbLine
 10
70.256919
 20
107.478874
 30
0.0
 11
70.175669
 21
107.649086
 31
0.0
  0
LINE
  5
120
100
AcDbEntity
  8
ALPHA
100
AcDbLine
 10
69.119419
 20
107.478874
 30
0.0
 11
69.038169
 21
107.649086
 31
0.0
  0
LINE
  5
121
100
AcDbEntity
  8
ALPHA
100
AcDbLine
 10
70.350662
 20
107.672011
 30
0.0
 11
70.338169
 21
107.69164
 31
0.0
  0
LINE
  5
122
100
AcDbEntity
  8
ALPHA
100
AcDbLine
 10
69.173586
 20
108.372491
 30
0.0
 11
69.119419
 21
108.457597
 31
0.0
  0
LINE
  5
123
100
AcDbEntity
  8
ALPHA
100
AcDbLine
 10
69.092336
 20
108.202278
 30
0.0
 11
69.011086
 21
108.329938
 31
0.0
  0
LINE
  5
124
100
AcDbEntity
  8
ALPHA
100
AcDbLine
 10
69.281919
 20
107.56398
 30
0.0
 11
69.200669
 21
107.649086
 31
0.0
  0
LINE
  5
125
100
AcDbEntity
  8
ALPHA
100
AcDbLine
 10
67.981919
 20
107.606533
 30
0.0
 11
67.900669
 21
107.69164
 31
0.0
  0
LINE
  5
126
100
AcDbEntity
  8
ALPHA
100
AcDbLine
 10
69.254836
 20
107.351214
 30
0.0
 11
69.119419
 21
107.478874
 31
0.0
  0
LINE
  5
127
100
AcDbEntity
  8
ALPHA
100
AcDbLine
 10
67.954836
 20
107.351214
 30
0.0
 11
67.846502
 21
107.436321
 31
0.0
  0
LINE
  5
128
100
AcDbEntity
  8
ALPHA
100
AcDbLine
 10
90.350669
 20
103.858661
 30
0.0
 11
94.550669
 21
103.858661
 31
0.0
  0
LINE
  5
129
100
AcDbEntity
  8
ALPHA
100
AcDbLine
 10
47.050669
 20
103.808661
 30
0.0
 11
47.699499
 21
103.808661
 31
0.0
  0
LINE
  5
12A
100
AcDbEntity
  8
ALPHA
100
AcDbLine
 10
70.350669
 20
103.693094
 30
0.0
 11
74.350669
 21
103.693094
 31
0.0
  0
LINE
  5
12B
100
AcDbEntity
  8
ALPHA
100
AcDbLine
 10
90.350669
 20
103.308661
 30
0.0
 11
85.350669
 21
103.308661
 31
0.0
  0
LINE
  5
12C
100
AcDbEntity
  8
ALPHA
100
AcDbLine
 10
59.050669
 20
103.058661
 30
0.0
 11
60.250669
 21
103.058661
 31
0.0
  0
LINE
  5
12D
100
AcDbEntity
  8
ALPHA
100
AcDbLine
 10
94.150669
 20
102.858661
 30
0.0
 11
85.350669
 21
102.858661
 31
0.0
  0
LINE
  5
12E
100
AcDbEntity
  8
ALPHA
100
AcDbLine
 10
59.050669
 20
102.787056
 30
0.0
 11
60.250669
 21
102.787056
 31
0.0
  0
LINE
  5
12F
100
AcDbEntity
  8
ALPHA
100
AcDbLine
 10
85.350669
 20
102.758661
 30
0.0
 11
94.150669
 21
102.758661
 31
0.0
  0
LINE
  5
130
100
AcDbEntity
  8
ALPHA
100
AcDbLine
 10
93.350669
 20
102.658661
 30
0.0
 11
93.750669
 21
102.658661
 31
0.0
  0
LINE
  5
131
100
AcDbEntity
  8
ALPHA
100
AcDbLine
 10
90.350669
 20
102.308661
 30
0.0
 11
85.350669
 21
102.308661
 31
0.0
  0
LINE
  5
132
100
AcDbEntity
  8
ALPHA
100
AcDbLine
 10
94.550669
 20
102.008661
 30
0.0
 11
93.350669
 21
102.008661
 31
0.0
  0
LWPOLYLINE
  5
133
100
AcDbEntity
  8
ALPHA
100
AcDbPolyline
 90
        6
 70
     0
 43
0.0
 10
71.900669
 20
101.871636
 10
71.792513
 20
101.859523
 10
71.694944
 20
101.82437
 10
71.617513
 20
101.769618
 10
71.567799
 20
101.700627
 10
71.550669
 20
101.624149
  0
LINE
  5
13B
100
AcDbEntity
  8
ALPHA
100
AcDbLine
 10
69.498586
 20
107.308661
 30
0.0
 11
69.634003
 21
107.351214
 31
0.0
  0
LINE
  5
13C
100
AcDbEntity
  8
ALPHA
100
AcDbLine
 10
69.498586
 20
108.032065
 30
0.0
 11
69.634003
 21
108.074618
 31
0.0
  0
LINE
  5
13D
100
AcDbEntity
  8
ALPHA
100
AcDbLine
 10
69.525669
 20
107.521427
 30
0.0
 11
69.606919
 21
107.56398
 31
0.0
  0
LWPOLYLINE
  5
13E
100
AcDbEntity
  8
ALPHA
100
AcDbPolyline
 90
        6
 70
     0
 43
0.0
 10
72.250669
 20
109.754686
 10
72.233539
 20
109.678208
 10
72.183825
 20
109.609217
 10
72.106394
 20
109.554465
 10
72.008825
 20
109.519312
 10
71.900669
 20
109.507199
  0
LWPOLYLINE
  5
146
100
AcDbEntity
  8
ALPHA
100
AcDbPolyline
 90
        6
 70
     0
 43
0.0
 10
71.550669
 20
109.754686
 10
71.567799
 20
109.831164
 10
71.617513
 20
109.900156
 10
71.694944
 20
109.954908
 10
71.792513
 20
109.990061
 10
71.900669
 20
110.002174
  0
LINE
  5
14E
100
AcDbEntity
  8
ALPHA
100
AcDbLine
 10
71.550669
 20
109.754686
 30
0.0
 11
71.550669
 21
113.908661
 31
0.0
  0
LINE
  5
14F
100
AcDbEntity
  8
ALPHA
100
AcDbLine
 10
71.550669
 20
97.708661
 30
0.0
 11
71.550669
 21
101.624149
 31
0.0
  0
LINE
  5
150
100
AcDbEntity
  8
ALPHA
100
AcDbLine
 10
70.350669
 20
97.708661
 30
0.0
 11
70.350669
 21
113.908661
 31
0.0
  0
LINE
  5
151
100
AcDbEntity
  8
ALPHA
100
AcDbLine
 10
70.311086
 20
108.670363
 30
0.0
 11
70.311086
 21
108.798023
 31
0.0
  0
LINE
  5
152
100
AcDbEntity
  8
ALPHA
100
AcDbLine
 10
70.311086
 20
107.819299
 30
0.0
 11
70.311086
 21
107.904406
 31
0.0
  0
LINE
  5
153
100
AcDbEntity
  8
ALPHA
100
AcDbLine
 10
70.148586
 20
108.62781
 30
0.0
 11
70.148586
 21
108.840576
 31
0.0
  0
LINE
  5
154
100
AcDbEntity
  8
ALPHA
100
AcDbLine
 10
70.148586
 20
107.776746
 30
0.0
 11
70.148586
 21
107.946959
 31
0.0
  0
LINE
  5
155
100
AcDbEntity
  8
ALPHA
100
AcDbLine
 10
69.931919
 20
108.457597
 30
0.0
 11
69.904836
 21
108.75547
 31
0.0
  0
LINE
  5
156
100
AcDbEntity
  8
ALPHA
100
AcDbLine
 10
67.684002
 20
107.776746
 30
0.0
 11
67.656919
 21
107.989512
 31
0.0
  0
LINE
  5
157
100
AcDbEntity
  8
ALPHA
100
AcDbLine
 10
67.846502
 20
107.819299
 30
0.0
 11
67.819419
 21
107.989512
 31
0.0
  0
LINE
  5
158
100
AcDbEntity
  8
ALPHA
100
AcDbLine
 10
69.119419
 20
108.457597
 30
0.0
 11
69.092336
 21
108.585257
 31
0.0
  0
LINE
  5
159
100
AcDbEntity
  8
ALPHA
100
AcDbLine
 10
69.038169
 20
107.649086
 30
0.0
 11
69.011086
 21
107.776746
 31
0.0
  0
LINE
  5
15A
100
AcDbEntity
  8
ALPHA
100
AcDbLine
 10
69.011086
 20
108.329938
 30
0.0
 11
68.956919
 21
108.542704
 31
0.0
  0
LINE
  5
15B
100
AcDbEntity
  8
ALPHA
100
AcDbLine
 10
67.738169
 20
107.606533
 30
0.0
 11
67.684002
 21
107.776746
 31
0.0
  0
LINE
  5
15C
100
AcDbEntity
  8
ALPHA
100
AcDbLine
 10
67.900669
 20
107.69164
 30
0.0
 11
67.846502
 21
107.819299
 31
0.0
  0
LINE
  5
15D
100
AcDbEntity
  8
ALPHA
100
AcDbLine
 10
67.846502
 20
107.436321
 30
0.0
 11
67.738169
 21
107.606533
 31
0.0
  0
LINE
  5
15E
100
AcDbEntity
  8
ALPHA
100
AcDbLine
 10
72.250669
 20
101.425209
 30
0.0
 11
74.350669
 21
101.425209
 31
0.0
  0
LINE
  5
15F
100
AcDbEntity
  8
ALPHA
100
AcDbLine
 10
55.750669
 20
101.336353
 30
0.0
 11
60.250669
 21
101.336353
 31
0.0
  0
LINE
  5
160
100
AcDbEntity
  8
ALPHA
100
AcDbLine
 10
101.850669
 20
101.208661
 30
0.0
 11
94.550669
 21
101.208661
 31
0.0
  0
LINE
  5
161
100
AcDbEntity
  8
ALPHA
100
AcDbLine
 10
82.350669
 20
100.983661
 30
0.0
 11
89.150669
 21
100.983661
 31
0.0
  0
LINE
  5
162
100
AcDbEntity
  8
ALPHA
100
AcDbLine
 10
92.750669
 20
100.908661
 30
0.0
 11
94.550669
 21
100.908661
 31
0.0
  0
LINE
  5
163
100
AcDbEntity
  8
ALPHA
100
AcDbLine
 10
89.150669
 20
100.908661
 30
0.0
 11
82.550669
 21
100.908661
 31
0.0
  0
LINE
  5
164
100
AcDbEntity
  8
ALPHA
100
AcDbLine
 10
100.650669
 20
100.408661
 30
0.0
 11
100.050669
 21
100.408661
 31
0.0
  0
LINE
  5
165
100
AcDbEntity
  8
ALPHA
100
AcDbLine
 10
55.750669
 20
100.222759
 30
0.0
 11
60.250669
 21
100.222759
 31
0.0
  0
LINE
  5
166
100
AcDbEntity
  8
ALPHA
100
AcDbLine
 10
55.750669
 20
100.107625
 30
0.0
 11
60.250669
 21
100.107625
 31
0.0
  0
LWPOLYLINE
  5
167
100
AcDbEntity
  8
ALPHA
100
AcDbPolyline
 90
        6
 70
     0
 43
0.0
 10
71.900669
 20
101.376661
 10
72.008825
 20
101.388774
 10
72.106394
 20
101.423927
 10
72.183825
 20
101.478679
 10
72.233539
 20
101.547671
 10
72.250669
 20
101.624149
  0
LINE
  5
16F
100
AcDbEntity
  8
ALPHA
100
AcDbLine
 10
69.227753
 20
109.266108
 30
0.0
 11
69.363169
 21
109.308661
 31
0.0
  0
LINE
  5
170
100
AcDbEntity
  8
ALPHA
100
AcDbLine
 10
67.954836
 20
109.266108
 30
0.0
 11
68.090252
 21
109.308661
 31
0.0
  0
LINE
  5
171
100
AcDbEntity
  8
ALPHA
100
AcDbLine
 10
67.981919
 20
109.010789
 30
0.0
 11
68.090252
 21
109.053342
 31
0.0
  0
LINE
  5
172
100
AcDbEntity
  8
ALPHA
100
AcDbLine
 10
69.525669
 20
108.244831
 30
0.0
 11
69.606919
 21
108.287384
 31
0.0
  0
LINE
  5
173
100
AcDbEntity
  8
ALPHA
100
AcDbLine
 10
69.254836
 20
109.053342
 30
0.0
 11
69.336086
 21
109.095895
 31
0.0
  0
LINE
  5
174
100
AcDbEntity
  8
ALPHA
100
AcDbLine
 10
70.256919
 20
108.244831
 30
0.0
 11
70.311086
 21
108.287384
 31
0.0
  0
LINE
  5
175
100
AcDbEntity
  8
ALPHA
100
AcDbLine
 10
69.634003
 20
107.351214
 30
0.0
 11
69.769419
 21
107.478874
 31
0.0
  0
LINE
  5
176
100
AcDbEntity
  8
ALPHA
100
AcDbLine
 10
69.092336
 20
109.138448
 30
0.0
 11
69.227753
 21
109.266108
 31
0.0
  0
LINE
  5
177
100
AcDbEntity
  8
ALPHA
100
AcDbLine
 10
69.606919
 20
107.56398
 30
0.0
 11
69.688169
 21
107.649086
 31
0.0
  0
LINE
  5
178
100
AcDbEntity
  8
ALPHA
100
AcDbLine
 10
69.634003
 20
108.074618
 30
0.0
 11
69.796502
 21
108.244831
 31
0.0
  0
LINE
  5
179
100
AcDbEntity
  8
ALPHA
100
AcDbLine
 10
69.606919
 20
108.287384
 30
0.0
 11
69.688169
 21
108.372491
 31
0.0
  0
LINE
  5
17A
100
AcDbEntity
  8
ALPHA
100
AcDbLine
 10
69.173586
 20
108.968235
 30
0.0
 11
69.254836
 21
109.053342
 31
0.0
  0
LINE
  5
17B
100
AcDbEntity
  8
ALPHA
100
AcDbLine
 10
70.256919
 20
109.138448
 30
0.0
 11
70.350669
 21
109.248923
 31
0.0
  0
LINE
  5
17C
100
AcDbEntity
  8
ALPHA
100
AcDbLine
 10
70.338169
 20
108.032065
 30
0.0
 11
70.350678
 21
108.051719
 31
0.0
  0
LINE
  5
17D
100
AcDbEntity
  8
ALPHA
100
AcDbLine
 10
70.338169
 20
108.925682
 30
0.0
 11
70.350682
 21
108.945343
 31
0.0
  0
LINE
  5
17E
100
AcDbEntity
  8
ALPHA
100
AcDbLine
 10
69.688169
 20
108.372491
 30
0.0
 11
69.742336
 21
108.457597
 31
0.0
  0
LINE
  5
17F
100
AcDbEntity
  8
ALPHA
100
AcDbLine
 10
70.175669
 20
108.074618
 30
0.0
 11
70.256919
 21
108.244831
 31
0.0
  0
LINE
  5
180
100
AcDbEntity
  8
ALPHA
100
AcDbLine
 10
69.769419
 20
107.478874
 30
0.0
 11
69.850669
 21
107.649086
 31
0.0
  0
LINE
  5
181
100
AcDbEntity
  8
ALPHA
100
AcDbLine
 10
70.175669
 20
108.968235
 30
0.0
 11
70.256919
 21
109.138448
 31
0.0
  0
LINE
  5
182
100
AcDbEntity
  8
ALPHA
100
AcDbLine
 10
69.011086
 20
108.968235
 30
0.0
 11
69.092336
 21
109.138448
 31
0.0
  0
LINE
  5
183
100
AcDbEntity
  8
ALPHA
100
AcDbLine
 10
69.688169
 20
107.649086
 30
0.0
 11
69.742336
 21
107.776746
 31
0.0
  0
LINE
  5
184
100
AcDbEntity
  8
ALPHA
100
AcDbLine
 10
69.119419
 20
108.840576
 30
0.0
 11
69.173586
 21
108.968235
 31
0.0
  0
LINE
  5
185
100
AcDbEntity
  8
ALPHA
100
AcDbLine
 10
69.850669
 20
107.649086
 30
0.0
 11
69.904836
 21
107.861852
 31
0.0
  0
LINE
  5
186
100
AcDbEntity
  8
ALPHA
100
AcDbLine
 10
68.956919
 20
108.75547
 30
0.0
 11
69.011086
 21
108.968235
 31
0.0
  0
LINE
  5
187
100
AcDbEntity
  8
ALPHA
100
AcDbLine
 10
70.311086
 20
107.904406
 30
0.0
 11
70.338169
 21
108.032065
 31
0.0
  0
LINE
  5
188
100
AcDbEntity
  8
ALPHA
100
AcDbLine
 10
70.148586
 20
107.946959
 30
0.0
 11
70.175669
 21
108.074618
 31
0.0
  0
LINE
  5
189
100
AcDbEntity
  8
ALPHA
100
AcDbLine
 10
70.311086
 20
108.798023
 30
0.0
 11
70.338169
 21
108.925682
 31
0.0
  0
LINE
  5
18A
100
AcDbEntity
  8
ALPHA
100
AcDbLine
 10
70.148586
 20
108.840576
 30
0.0
 11
70.175669
 21
108.968235
 31
0.0
  0
LINE
  5
18B
100
AcDbEntity
  8
ALPHA
100
AcDbLine
 10
69.742336
 20
107.776746
 30
0.0
 11
69.769419
 21
107.904406
 31
0.0
  0
LINE
  5
18C
100
AcDbEntity
  8
ALPHA
100
AcDbLine
 10
69.742336
 20
108.457597
 30
0.0
 11
69.769419
 21
108.585257
 31
0.0
  0
LINE
  5
18D
100
AcDbEntity
  8
ALPHA
100
AcDbLine
 10
69.092336
 20
108.712916
 30
0.0
 11
69.119419
 21
108.840576
 31
0.0
  0
LINE
  5
18E
100
AcDbEntity
  8
ALPHA
100
AcDbLine
 10
69.769419
 20
107.904406
 30
0.0
 11
69.796502
 21
108.159725
 31
0.0
  0
LINE
  5
18F
100
AcDbEntity
  8
ALPHA
100
AcDbLine
 10
69.904836
 20
107.861852
 30
0.0
 11
69.931919
 21
108.159725
 31
0.0
  0
LINE
  5
190
100
AcDbEntity
  8
ALPHA
100
AcDbLine
 10
69.931919
 20
108.159725
 30
0.0
 11
69.931919
 21
108.457597
 31
0.0
  0
LINE
  5
191
100
AcDbEntity
  8
ALPHA
100
AcDbLine
 10
69.796502
 20
108.159725
 30
0.0
 11
69.796502
 21
108.244831
 31
0.0
  0
LINE
  5
192
100
AcDbEntity
  8
ALPHA
100
AcDbLine
 10
69.769419
 20
108.585257
 30
0.0
 11
69.769419
 21
108.712916
 31
0.0
  0
LINE
  5
193
100
AcDbEntity
  8
ALPHA
100
AcDbLine
 10
69.092336
 20
108.585257
 30
0.0
 11
69.092336
 21
108.712916
 31
0.0
  0
LINE
  5
194
100
AcDbEntity
  8
ALPHA
100
AcDbLine
 10
68.956919
 20
108.542704
 30
0.0
 11
68.956919
 21
108.75547
 31
0.0
  0
LINE
  5
195
100
AcDbEntity
  8
ALPHA
100
AcDbLine
 10
68.740252
 20
107.308661
 30
0.0
 11
68.740252
 21
109.308661
 31
0.0
  0
LINE
  5
196
100
AcDbEntity
  8
ALPHA
100
AcDbLine
 10
68.577752
 20
107.56398
 30
0.0
 11
68.577752
 21
109.053342
 31
0.0
  0
LWPOLYLINE
  5
197
100
AcDbEntity
  8
ALPHA
100
AcDbPolyline
 90
      186
 70
     0
 43
0.0
 10
70.350672
 20
100.52775
 10
70.3429
 20
100.530217
 10
70.335122
 20
100.532734
 10
70.327336
 20
100.5353
 10
70.319543
 20
100.537915
 10
70.311742
 20
100.540581
 10
70.295046
 20
100.546449
 10
70.278318
 20
100.55255
 10
70.261561
 20
100.558889
 10
70.24478
 20
100.565468
 10
70.227977
 20
100.57229
 10
70.211157
 20
100.579358
 10
70.19432
 20
100.586676
 10
70.177465
 20
100.594249
 10
70.160594
 20
100.602083
 10
70.143705
 20
100.610181
 10
70.126801
 20
100.618548
 10
70.109885
 20
100.627189
 10
70.092962
 20
100.636107
 10
70.076035
 20
100.645304
 10
70.05911
 20
100.654786
 10
70.042192
 20
100.664555
 10
70.025287
 20
100.674613
 10
70.008401
 20
100.684962
 10
69.991542
 20
100.695604
 10
69.974716
 20
100.706542
 10
69.95793
 20
100.717777
 10
69.941186
 20
100.729314
 10
69.924489
 20
100.741158
 10
69.907842
 20
100.753314
 10
69.891247
 20
100.765786
 10
69.874711
 20
100.778577
 10
69.858242
 20
100.791688
 10
69.841853
 20
100.805116
 10
69.825556
 20
100.818858
 10
69.809362
 20
100.832912
 10
69.793283
 20
100.847277
 10
69.777328
 20
100.86195
 10
69.761504
 20
100.876932
 10
69.745819
 20
100.892222
 10
69.730282
 20
100.907818
 10
69.714901
 20
100.923719
 10
69.699685
 20
100.939921
 10
69.684647
 20
100.956418
 10
69.669795
 20
100.973205
 10
69.655141
 20
100.990278
 10
69.640694
 20
101.007631
 10
69.626464
 20
101.025258
 10
69.612459
 20
101.043153
 10
69.598686
 20
101.061311
 10
69.585155
 20
101.079726
 10
69.571874
 20
101.098392
 10
69.55885
 20
101.117303
 10
69.546091
 20
101.13645
 10
69.533603
 20
101.155827
 10
69.521394
 20
101.175427
 10
69.509472
 20
101.195242
 10
69.497842
 20
101.215263
 10
69.48651
 20
101.235484
 10
69.475483
 20
101.255895
 10
69.464765
 20
101.276488
 10
69.454363
 20
101.297254
 10
69.444282
 20
101.318183
 10
69.434525
 20
101.339267
 10
69.425097
 20
101.360495
 10
69.416004
 20
101.381858
 10
69.407248
 20
101.403345
 10
69.398833
 20
101.424947
 10
69.390761
 20
101.446652
 10
69.383034
 20
101.468449
 10
69.375655
 20
101.490328
 10
69.368627
 20
101.512279
 10
69.361948
 20
101.534298
 10
69.355617
 20
101.556382
 10
69.349635
 20
101.578528
 10
69.343999
 20
101.600732
 10
69.33871
 20
101.622991
 10
69.333768
 20
101.645297
 10
69.329171
 20
101.667643
 10
69.324922
 20
101.690021
 10
69.321018
 20
101.712421
 10
69.317462
 20
101.734838
 10
69.314251
 20
101.757263
 10
69.311385
 20
101.779689
 10
69.308861
 20
101.802111
 10
69.306679
 20
101.82452
 10
69.304838
 20
101.84691
 10
69.303335
 20
101.869276
 10
69.302168
 20
101.891613
 10
69.301337
 20
101.913916
 10
69.300838
 20
101.93618
 10
69.300669
 20
101.9584
 10
69.300829
 20
101.980572
 10
69.301315
 20
102.002689
 10
69.302126
 20
102.024747
 10
69.303257
 20
102.046741
 10
69.304709
 20
102.068665
 10
69.306476
 20
102.090515
 10
69.308557
 20
102.112286
 10
69.310949
 20
102.133972
 10
69.313649
 20
102.155568
 10
69.316654
 20
102.177069
 10
69.319962
 20
102.198475
 10
69.323571
 20
102.219785
 10
69.32748
 20
102.240999
 10
69.331685
 20
102.262116
 10
69.336185
 20
102.283134
 10
69.340976
 20
102.304048
 10
69.346056
 20
102.324851
 10
69.351419
 20
102.345536
 10
69.357064
 20
102.366098
 10
69.362987
 20
102.38653
 10
69.369185
 20
102.406832
 10
69.375657
 20
102.427004
 10
69.382402
 20
102.447048
 10
69.389418
 20
102.466964
 10
69.396704
 20
102.486751
 10
69.404256
 20
102.506406
 10
69.412069
 20
102.525923
 10
69.420141
 20
102.545296
 10
69.428468
 20
102.564519
 10
69.437046
 20
102.583588
 10
69.445874
 20
102.602503
 10
69.45495
 20
102.621264
 10
69.464273
 20
102.639871
 10
69.473842
 20
102.658325
 10
69.483656
 20
102.676626
 10
69.49371
 20
102.69477
 10
69.504004
 20
102.712754
 10
69.514532
 20
102.730574
 10
69.525292
 20
102.748226
 10
69.53628
 20
102.765706
 10
69.547495
 20
102.783013
 10
69.558934
 20
102.800144
 10
69.570593
 20
102.817097
 10
69.582471
 20
102.833872
 10
69.594565
 20
102.850465
 10
69.606874
 20
102.866876
 10
69.619396
 20
102.883104
 10
69.63213
 20
102.899149
 10
69.645074
 20
102.915008
 10
69.658228
 20
102.930682
 10
69.671586
 20
102.946167
 10
69.685144
 20
102.961458
 10
69.698899
 20
102.976551
 10
69.712845
 20
102.991443
 10
69.72698
 20
103.006131
 10
69.741301
 20
103.020614
 10
69.755811
 20
103.034893
 10
69.770508
 20
103.048968
 10
69.785393
 20
103.062841
 10
69.800466
 20
103.076512
 10
69.815721
 20
103.089975
 10
69.831153
 20
103.103228
 10
69.846756
 20
103.116265
 10
69.862525
 20
103.129082
 10
69.878454
 20
103.141675
 10
69.894542
 20
103.154043
 10
69.91079
 20
103.166187
 10
69.927198
 20
103.178108
 10
69.943766
 20
103.189806
 10
69.960493
 20
103.20128
 10
69.977375
 20
103.212529
 10
69.994408
 20
103.223548
 10
70.011586
 20
103.234336
 10
70.028905
 20
103.244888
 10
70.046361
 20
103.255203
 10
70.06395
 20
103.265277
 10
70.081671
 20
103.275111
 10
70.09952
 20
103.284704
 10
70.117495
 20
103.294054
 10
70.135594
 20
103.303159
 10
70.153815
 20
103.31202
 10
70.172155
 20
103.320634
 10
70.190612
 20
103.329001
 10
70.209185
 20
103.337119
 10
70.227871
 20
103.344987
 10
70.246664
 20
103.352603
 10
70.265556
 20
103.359964
 10
70.28454
 20
103.367067
 10
70.303611
 20
103.373911
 10
70.312982
 20
103.377168
 10
70.322372
 20
103.380362
 10
70.331782
 20
103.383494
 10
70.341211
 20
103.386562
 10
70.350659
 20
103.389568
  0
LINE
  5
253
100
AcDbEntity
  8
ALPHA
100
AcDbLine
 10
71.550669
 20
99.708661
 30
0.0
 11
70.350669
 21
99.708661
 31
0.0
  0
LINE
  5
254
100
AcDbEntity
  8
ALPHA
100
AcDbLine
 10
100.050669
 20
99.208661
 30
0.0
 11
100.650669
 21
99.208661
 31
0.0
  0
LINE
  5
255
100
AcDbEntity
  8
ALPHA
100
AcDbLine
 10
72.250669
 20
99.158661
 30
0.0
 11
74.350669
 21
99.158661
 31
0.0
  0
LINE
  5
256
100
AcDbEntity
  8
ALPHA
100
AcDbLine
 10
55.750669
 20
98.974322
 30
0.0
 11
60.250669
 21
98.974322
 31
0.0
  0
LINE
  5
257
100
AcDbEntity
  8
ALPHA
100
AcDbLine
 10
90.350669
 20
98.708661
 30
0.0
 11
94.550669
 21
98.708661
 31
0.0
  0
LINE
  5
258
100
AcDbEntity
  8
ALPHA
100
AcDbLine
 10
89.150669
 20
98.708661
 30
0.0
 11
82.350669
 21
98.708661
 31
0.0
  0
LINE
  5
259
100
AcDbEntity
  8
ALPHA
100
AcDbLine
 10
89.150669
 20
98.633661
 30
0.0
 11
82.350669
 21
98.633661
 31
0.0
  0
LINE
  5
25A
100
AcDbEntity
  8
ALPHA
100
AcDbLine
 10
66.375669
 20
98.483661
 30
0.0
 11
60.250669
 21
98.483661
 31
0.0
  0
LINE
  5
25B
100
AcDbEntity
  8
ALPHA
100
AcDbLine
 10
66.375669
 20
98.433661
 30
0.0
 11
60.250669
 21
98.433661
 31
0.0
  0
LINE
  5
25C
100
AcDbEntity
  8
ALPHA
100
AcDbLine
 10
70.350669
 20
98.433661
 30
0.0
 11
66.375669
 21
98.433661
 31
0.0
  0
LINE
  5
25D
100
AcDbEntity
  8
ALPHA
100
AcDbLine
 10
72.350669
 20
98.433661
 30
0.0
 11
72.250669
 21
98.433661
 31
0.0
  0
LINE
  5
25E
100
AcDbEntity
  8
ALPHA
100
AcDbLine
 10
101.850669
 20
98.408661
 30
0.0
 11
94.550669
 21
98.408661
 31
0.0
  0
LINE
  5
25F
100
AcDbEntity
  8
ALPHA
100
AcDbLine
 10
55.750669
 20
98.278386
 30
0.0
 11
60.250669
 21
98.278386
 31
0.0
  0
LINE
  5
260
100
AcDbEntity
  8
ALPHA
100
AcDbLine
 10
55.750669
 20
98.113958
 30
0.0
 11
60.250669
 21
98.113958
 31
0.0
  0
LINE
  5
261
100
AcDbEntity
  8
ALPHA
100
AcDbLine
 10
67.846502
 20
109.181001
 30
0.0
 11
67.954836
 21
109.266108
 31
0.0
  0
LINE
  5
262
100
AcDbEntity
  8
ALPHA
100
AcDbLine
 10
67.900669
 20
108.925682
 30
0.0
 11
67.981919
 21
109.010789
 31
0.0
  0
LINE
  5
263
100
AcDbEntity
  8
ALPHA
100
AcDbLine
 10
67.738169
 20
109.010789
 30
0.0
 11
67.846502
 21
109.181001
 31
0.0
  0
LINE
  5
264
100
AcDbEntity
  8
ALPHA
100
AcDbLine
 10
67.846502
 20
108.798023
 30
0.0
 11
67.900669
 21
108.925682
 31
0.0
  0
LINE
  5
265
100
AcDbEntity
  8
ALPHA
100
AcDbLine
 10
67.684002
 20
108.840576
 30
0.0
 11
67.738169
 21
109.010789
 31
0.0
  0
LINE
  5
266
100
AcDbEntity
  8
ALPHA
100
AcDbLine
 10
67.819419
 20
108.62781
 30
0.0
 11
67.846502
 21
108.798023
 31
0.0
  0
LINE
  5
267
100
AcDbEntity
  8
ALPHA
100
AcDbLine
 10
67.656919
 20
108.62781
 30
0.0
 11
67.684002
 21
108.840576
 31
0.0
  0
LINE
  5
268
100
AcDbEntity
  8
ALPHA
100
AcDbLine
 10
67.819419
 20
107.989512
 30
0.0
 11
67.819419
 21
108.62781
 31
0.0
  0
LINE
  5
269
100
AcDbEntity
  8
ALPHA
100
AcDbLine
 10
67.656919
 20
107.989512
 30
0.0
 11
67.656919
 21
108.62781
 31
0.0
  0
LINE
  5
26A
100
AcDbEntity
  8
ALPHA
100
AcDbLine
 10
67.440252
 20
109.095895
 30
0.0
 11
67.440252
 21
109.308661
 31
0.0
  0
LINE
  5
26B
100
AcDbEntity
  8
ALPHA
100
AcDbLine
 10
67.304836
 20
109.095895
 30
0.0
 11
67.304836
 21
109.308661
 31
0.0
  0
LINE
  5
26C
100
AcDbEntity
  8
ALPHA
100
AcDbLine
 10
67.250669
 20
107.108661
 30
0.0
 11
67.250669
 21
104.508661
 31
0.0
  0
LINE
  5
26D
100
AcDbEntity
  8
ALPHA
100
AcDbLine
 10
66.850669
 20
107.108661
 30
0.0
 11
66.850669
 21
109.508661
 31
0.0
  0
LINE
  5
26E
100
AcDbEntity
  8
ALPHA
100
AcDbLine
 10
66.375669
 20
98.433661
 30
0.0
 11
66.375669
 21
113.183661
 31
0.0
  0
LINE
  5
26F
100
AcDbEntity
  8
ALPHA
100
AcDbLine
 10
71.550669
 20
97.708661
 30
0.0
 11
70.350669
 21
97.708661
 31
0.0
  0
LINE
  5
270
100
AcDbEntity
  8
ALPHA
100
AcDbLine
 10
94.550669
 20
97.608661
 30
0.0
 11
93.350669
 21
97.608661
 31
0.0
  0
LINE
  5
271
100
AcDbEntity
  8
ALPHA
100
AcDbLine
 10
72.350669
 20
97.533661
 30
0.0
 11
74.350669
 21
97.533661
 31
0.0
  0
LINE
  5
272
100
AcDbEntity
  8
ALPHA
100
AcDbLine
 10
59.050669
 20
97.437287
 30
0.0
 11
60.250669
 21
97.437287
 31
0.0
  0
LINE
  5
273
100
AcDbEntity
  8
ALPHA
100
AcDbLine
 10
74.350669
 20
97.308661
 30
0.0
 11
90.350669
 21
97.308661
 31
0.0
  0
LINE
  5
274
100
AcDbEntity
  8
ALPHA
100
AcDbLine
 10
55.750669
 20
97.035976
 30
0.0
 11
59.050669
 21
97.035976
 31
0.0
  0
LINE
  5
275
100
AcDbEntity
  8
ALPHA
100
AcDbLine
 10
46.725574
 20
97.017999
 30
0.0
 11
45.977372
 21
97.017999
 31
0.0
  0
LINE
  5
276
100
AcDbEntity
  8
ALPHA
100
AcDbLine
 10
46.590976
 20
96.965512
 30
0.0
 11
46.204221
 21
96.965512
 31
0.0
  0
LINE
  5
277
100
AcDbEntity
  8
ALPHA
100
AcDbLine
 10
53.250669
 20
96.908661
 30
0.0
 11
55.750669
 21
96.908661
 31
0.0
  0
LINE
  5
278
100
AcDbEntity
  8
ALPHA
100
AcDbLine
 10
78.350669
 20
96.908661
 30
0.0
 11
74.350669
 21
96.908661
 31
0.0
  0
LINE
  5
279
100
AcDbEntity
  8
ALPHA
100
AcDbLine
 10
78.050669
 20
96.858661
 30
0.0
 11
94.150669
 21
96.858661
 31
0.0
  0
LWPOLYLINE
  5
27A
100
AcDbEntity
  8
ALPHA
100
AcDbPolyline
 90
       17
 70
     0
 43
0.0
 10
46.204221
 20
96.965512
 10
46.190788
 20
96.965088
 10
46.175846
 20
96.96366
 10
46.159741
 20
96.961054
 10
46.142755
 20
96.957153
 10
46.125031
 20
96.95185
 10
46.106858
 20
96.945112
 10
46.088227
 20
96.936816
 10
46.069188
 20
96.926828
 10
46.049892
 20
96.915043
 10
46.030597
 20
96.901417
 10
46.011315
 20
96.8857
 10
45.992133
 20
96.867574
 10
45.973355
 20
96.846773
 10
45.955447
 20
96.823035
 10
45.939031
 20
96.796017
 10
45.925119
 20
96.765512
  0
LINE
  5
28D
100
AcDbEntity
  8
ALPHA
100
AcDbLine
 10
65.750669
 20
98.483661
 30
0.0
 11
65.750669
 21
110.091075
 31
0.0
  0
LINE
  5
28E
100
AcDbEntity
  8
ALPHA
100
AcDbLine
 10
65.750669
 20
113.133661
 30
0.0
 11
65.750669
 21
112.565948
 31
0.0
  0
LINE
  5
28F
100
AcDbEntity
  8
ALPHA
100
AcDbLine
 10
45.293468
 20
95.168661
 30
0.0
 11
45.260099
 21
95.168661
 31
0.0
  0
LINE
  5
290
100
AcDbEntity
  8
ALPHA
100
AcDbLine
 10
45.447977
 20
93.958661
 30
0.0
 11
53.250669
 21
93.958661
 31
0.0
  0
LINE
  5
291
100
AcDbEntity
  8
ALPHA
100
AcDbLine
 10
60.250669
 20
108.558661
 30
0.0
 11
60.250669
 21
114.180035
 31
0.0
  0
LINE
  5
292
100
AcDbEntity
  8
ALPHA
100
AcDbLine
 10
60.250669
 20
97.437287
 30
0.0
 11
60.250669
 21
103.058661
 31
0.0
  0
LINE
  5
293
100
AcDbEntity
  8
ALPHA
100
AcDbLine
 10
59.050669
 20
102.787056
 30
0.0
 11
59.050669
 21
108.830266
 31
0.0
  0
LINE
  5
294
100
AcDbEntity
  8
ALPHA
100
AcDbLine
 10
59.050669
 20
97.437287
 30
0.0
 11
59.050669
 21
97.035976
 31
0.0
  0
LINE
  5
295
100
AcDbEntity
  8
ALPHA
100
AcDbLine
 10
59.050669
 20
114.581346
 30
0.0
 11
59.050669
 21
114.180035
 31
0.0
  0
LINE
  5
296
100
AcDbEntity
  8
ALPHA
100
AcDbLine
 10
55.750669
 20
97.035976
 30
0.0
 11
55.750669
 21
96.908702
 31
0.0
  0
LINE
  5
297
100
AcDbEntity
  8
ALPHA
100
AcDbLine
 10
55.750669
 20
98.974322
 30
0.0
 11
55.750669
 21
98.113958
 31
0.0
  0
LINE
  5
298
100
AcDbEntity
  8
ALPHA
100
AcDbLine
 10
55.750669
 20
101.336353
 30
0.0
 11
55.750669
 21
100.107625
 31
0.0
  0
LINE
  5
299
100
AcDbEntity
  8
ALPHA
100
AcDbLine
 10
55.750669
 20
107.308661
 30
0.0
 11
55.750669
 21
104.308661
 31
0.0
  0
LINE
  5
29A
100
AcDbEntity
  8
ALPHA
100
AcDbLine
 10
55.750669
 20
111.509697
 30
0.0
 11
55.750669
 21
110.280969
 31
0.0
  0
LINE
  5
29B
100
AcDbEntity
  8
ALPHA
100
AcDbLine
 10
55.750669
 20
113.503364
 30
0.0
 11
55.750669
 21
112.643
 31
0.0
  0
LINE
  5
29C
100
AcDbEntity
  8
ALPHA
100
AcDbLine
 10
55.750669
 20
114.70862
 30
0.0
 11
55.750669
 21
114.581346
 31
0.0
  0
LINE
  5
29D
100
AcDbEntity
  8
ALPHA
100
AcDbLine
 10
45.335148
 20
116.242795
 30
0.0
 11
45.250718
 21
116.448661
 31
0.0
  0
LWPOLYLINE
  5
29E
100
AcDbEntity
  8
ALPHA
100
AcDbPolyline
 90
        3
 70
     0
 43
0.0
 10
45.247977
 20
116.558661
 10
45.351028
 20
116.308652
 10
45.396119
 20
116.198245
  0
LINE
  5
2A3
100
AcDbEntity
  8
ALPHA
100
AcDbLine
 10
45.28517
 20
95.14853
 30
0.0
 11
45.247977
 21
95.058661
 31
0.0
  0
LINE
  5
2A4
100
AcDbEntity
  8
ALPHA
100
AcDbLine
 10
45.396119
 20
95.419075
 30
0.0
 11
45.28517
 21
95.14853
 31
0.0
  0
LINE
  5
2A5
100
AcDbEntity
  8
ALPHA
100
AcDbLine
 10
45.250718
 20
95.168661
 30
0.0
 11
45.335148
 21
95.374527
 31
0.0
  0
LINE
  5
2A6
100
AcDbEntity
  8
ALPHA
100
AcDbLine
 10
53.250669
 20
93.958661
 30
0.0
 11
53.250669
 21
117.658661
 31
0.0
  0
LWPOLYLINE
  5
2A7
100
AcDbEntity
  8
ALPHA
100
AcDbPolyline
 90
        4
 70
     0
 43
0.0
 10
45.977372
 20
114.599323
 10
45.699601
 20
115.328421
 10
45.483132
 20
115.876845
 10
45.335148
 20
116.242795
  0
LWPOLYLINE
  5
2AD
100
AcDbEntity
  8
ALPHA
100
AcDbPolyline
 90
        3
 70
     0
 43
0.0
 10
45.654634
 20
115.552627
 10
45.828192
 20
115.106137
 10
45.925119
 20
114.85181
  0
LINE
  5
2B2
100
AcDbEntity
  8
ALPHA
100
AcDbLine
 10
45.510082
 20
115.916354
 30
0.0
 11
45.654634
 21
115.552627
 31
0.0
  0
LINE
  5
2B3
100
AcDbEntity
  8
ALPHA
100
AcDbLine
 10
45.396119
 20
116.198245
 30
0.0
 11
45.510082
 21
115.916354
 31
0.0
  0
LINE
  5
2B4
100
AcDbEntity
  8
ALPHA
100
AcDbLine
 10
45.510082
 20
95.700967
 30
0.0
 11
45.396119
 21
95.419075
 31
0.0
  0
LWPOLYLINE
  5
2B5
100
AcDbEntity
  8
ALPHA
100
AcDbPolyline
 90
        3
 70
     0
 43
0.0
 10
45.335148
 20
95.374527
 10
45.483132
 20
95.740477
 10
45.699601
 20
96.288901
  0
LINE
  5
2BA
100
AcDbEntity
  8
ALPHA
100
AcDbLine
 10
45.654634
 20
96.064693
 30
0.0
 11
45.510082
 21
95.700967
 31
0.0
  0
LINE
  5
2BB
100
AcDbEntity
  8
ALPHA
100
AcDbLine
 10
45.828192
 20
96.511183
 30
0.0
 11
45.654634
 21
96.064693
 31
0.0
  0
LINE
  5
2BC
100
AcDbEntity
  8
ALPHA
100
AcDbLine
 10
45.925119
 20
96.765512
 30
0.0
 11
45.828192
 21
96.511183
 31
0.0
  0
LINE
  5
2BD
100
AcDbEntity
  8
ALPHA
100
AcDbLine
 10
45.699601
 20
96.288901
 30
0.0
 11
45.977372
 21
97.017999
 31
0.0
  0
LWPOLYLINE
  5
2BE
100
AcDbEntity
  8
ALPHA
100
AcDbPolyline
 90
       16
 70
     0
 43
0.0
 10
45.252765
 20
111.294462
 10
45.262433
 20
111.224274
 10
45.287186
 20
111.037999
 10
45.319964
 20
110.780626
 10
45.355454
 20
110.487322
 10
45.390599
 20
110.177669
 10
45.423609
 20
109.865228
 10
45.453614
 20
109.558644
 10
45.480306
 20
109.263337
 10
45.503705
 20
108.982447
 10
45.523996
 20
108.717543
 10
45.541438
 20
108.469215
 10
45.556323
 20
108.237439
 10
45.568943
 20
108.021783
 10
45.579579
 20
107.821612
 10
45.588505
 20
107.636188
  0
LINE
  5
2D0
100
AcDbEntity
  8
ALPHA
100
AcDbLine
 10
45.253946
 20
100.331467
 30
0.0
 11
45.253049
 21
100.325034
 31
0.0
  0
LWPOLYLINE
  5
2D1
100
AcDbEntity
  8
ALPHA
100
AcDbPolyline
 90
        6
 70
     0
 43
0.0
 10
45.252353
 20
100.319944
 10
45.252208
 20
100.318807
 10
45.251877
 20
100.315992
 10
45.251233
 20
100.309048
 10
45.250742
 20
100.299384
 10
45.25067
 20
100.294052
  0
LWPOLYLINE
  5
2D9
100
AcDbEntity
  8
ALPHA
100
AcDbPolyline
 90
       18
 70
     0
 43
0.0
 10
45.607609
 20
104.461505
 10
45.596179
 20
104.157334
 10
45.588739
 20
103.986263
 10
45.579862
 20
103.801326
 10
45.569284
 20
103.601668
 10
45.556731
 20
103.386548
 10
45.541922
 20
103.155326
 10
45.524566
 20
102.907563
 10
45.50437
 20
102.643215
 10
45.481074
 20
102.36285
 10
45.45449
 20
102.067998
 10
45.424589
 20
101.761738
 10
45.391667
 20
101.449408
 10
45.356569
 20
101.139511
 10
45.321059
 20
100.845492
 10
45.288123
 20
100.586518
 10
45.263087
 20
100.39785
 10
45.25243
 20
100.320532
  0
LINE
  5
2ED
100
AcDbEntity
  8
ALPHA
100
AcDbLine
 10
45.615557
 20
104.720898
 30
0.0
 11
45.607609
 21
104.461505
 31
0.0
  0
LINE
  5
2EE
100
AcDbEntity
  8
ALPHA
100
AcDbLine
 10
45.621029
 20
104.941965
 30
0.0
 11
45.615557
 21
104.720898
 31
0.0
  0
LINE
  5
2EF
100
AcDbEntity
  8
ALPHA
100
AcDbLine
 10
45.624739
 20
105.130195
 30
0.0
 11
45.621029
 21
104.941965
 31
0.0
  0
LINE
  5
2F0
100
AcDbEntity
  8
ALPHA
100
AcDbLine
 10
45.628059
 20
105.358757
 30
0.0
 11
45.624739
 21
105.130195
 31
0.0
  0
LINE
  5
2F1
100
AcDbEntity
  8
ALPHA
100
AcDbLine
 10
45.629996
 20
105.576999
 30
0.0
 11
45.628059
 21
105.358757
 31
0.0
  0
LINE
  5
2F2
100
AcDbEntity
  8
ALPHA
100
AcDbLine
 10
45.630648
 20
105.743385
 30
0.0
 11
45.629996
 21
105.576999
 31
0.0
  0
LINE
  5
2F3
100
AcDbEntity
  8
ALPHA
100
AcDbLine
 10
45.630509
 20
105.929885
 30
0.0
 11
45.630648
 21
105.743385
 31
0.0
  0
LINE
  5
2F4
100
AcDbEntity
  8
ALPHA
100
AcDbLine
 10
47.050669
 20
107.808661
 30
0.0
 11
47.050669
 21
103.808661
 31
0.0
  0
LINE
  5
2F5
100
AcDbEntity
  8
ALPHA
100
AcDbLine
 10
45.977372
 20
97.017999
 30
0.0
 11
45.977372
 21
114.599323
 31
0.0
  0
LINE
  5
2F6
100
AcDbEntity
  8
ALPHA
100
AcDbLine
 10
45.250669
 20
111.312436
 30
0.0
 11
45.250669
 21
116.425788
 31
0.0
  0
LINE
  5
2F7
100
AcDbEntity
  8
ALPHA
100
AcDbLine
 10
45.250669
 20
95.191534
 30
0.0
 11
45.250669
 21
100.304932
 31
0.0
  0
LINE
  5
2F8
100
AcDbEntity
  8
ALPHA
100
AcDbLine
 10
45.247977
 20
95.058661
 30
0.0
 11
45.247977
 21
94.158661
 31
0.0
  0
LINE
  5
2F9
100
AcDbEntity
  8
ALPHA
100
AcDbLine
 10
45.247977
 20
117.458661
 30
0.0
 11
45.247977
 21
116.558661
 31
0.0
  0
LINE
  5
2FA
100
AcDbEntity
  8
ALPHA
100
AcDbLine
 10
45.629271
 20
106.138975
 30
0.0
 11
45.630509
 21
105.929885
 31
0.0
  0
LINE
  5
2FB
100
AcDbEntity
  8
ALPHA
100
AcDbLine
 10
45.627168
 20
106.329583
 30
0.0
 11
45.629271
 21
106.138975
 31
0.0
  0
LINE
  5
2FC
100
AcDbEntity
  8
ALPHA
100
AcDbLine
 10
45.623025
 20
106.579661
 30
0.0
 11
45.627168
 21
106.329583
 31
0.0
  0
LWPOLYLINE
  5
2FD
100
AcDbEntity
  8
ALPHA
100
AcDbPolyline
 90
        4
 70
     0
 43
0.0
 10
45.250671
 20
111.323329
 10
45.250818
 20
111.315678
 10
45.251463
 20
111.305546
 10
45.252572
 20
111.295822
  0
LINE
  5
303
100
AcDbEntity
  8
ALPHA
100
AcDbLine
 10
45.618483
 20
106.784292
 30
0.0
 11
45.623025
 21
106.579661
 31
0.0
  0
LINE
  5
304
100
AcDbEntity
  8
ALPHA
100
AcDbLine
 10
45.611841
 20
107.024423
 30
0.0
 11
45.618483
 21
106.784292
 31
0.0
  0
LINE
  5
305
100
AcDbEntity
  8
ALPHA
100
AcDbLine
 10
45.602247
 20
107.30612
 30
0.0
 11
45.611841
 21
107.024423
 31
0.0
  0
LINE
  5
306
100
AcDbEntity
  8
ALPHA
100
AcDbLine
 10
45.588505
 20
107.636188
 30
0.0
 11
45.602247
 21
107.30612
 31
0.0
  0
INSERT
  5
34C
100
AcDbEntity
  8
0
100
AcDbBlockReference
  2
SCH_ISO
 10
0.0
 20
0.0
 30
0.0
  0
DIMENSION
  5
35B
100
AcDbEntity
  8
COTATION1
100
AcDbDimension
  2
*D6
 10
33.385724
 20
113.183661
 30
0.0
 11
30.885724
 21
125.00509
 31
0.0
  3
SC_STAND
100
AcDbAlignedDimension
 13
60.250669
 23
98.433661
 33
0.0
 14
60.250669
 24
113.183661
 34
0.0
 50
90.0
100
AcDbRotatedDimension
  0
DIMENSION
  5
368
100
AcDbEntity
  8
COTATION1
100
AcDbDimension
  2
*D5
 10
60.250669
 20
77.283657
 30
0.0
 11
52.749323
 21
79.783657
 31
0.0
  3
SC_STAND
100
AcDbAlignedDimension
 13
45.247977
 23
94.158661
 33
0.0
 14
60.250669
 24
97.437287
 34
0.0
100
AcDbRotatedDimension
  0
ENDSEC
  0
SECTION
  2
OBJECTS
  0
DICTIONARY
  5
398
100
AcDbDictionary
  3
ACAD_GROUP
350
399
  3
ACAD_MLINESTYLE
350
3A6
  3
ACDBVARIABLEDICTIONARY
350
3E6
  0
DICTIONARY
  5
399
102
{ACAD_REACTORS
330
398
102
}
100
AcDbDictionary
  0
DICTIONARY
  5
3A6
102
{ACAD_REACTORS
330
398
102
}
100
AcDbDictionary
  3
STANDARD
350
3A7
  0
DICTIONARY
  5
3E6
102
{ACAD_REACTORS
330
398
102
}
100
AcDbDictionary
  3
DIMADEC
350
3E7
  0
MLINESTYLE
  5
3A7
102
{ACAD_REACTORS
330
3A6
102
}
100
AcDbMlineStyle
  2
STANDARD
 70
     0
  3

 62
   256
 51
90.0
 52
90.0
 71
     2
 49
0.5
 62
   256
  6
BYLAYER
 49
-0.5
 62
   256
  6
BYLAYER
  0
DICTIONARYVAR
  5
3E7
102
{ACAD_REACTORS
330
3E6
102
}
100
DictionaryVariables
280
     0
  1
0
  0
ENDSEC
  0
EOF
