  0
SECTION
  2
HEADER
  9
$ACADVER
  1
AC1012
  9
$DWGCODEPAGE
  3
ANSI_1252
  9
$INSBASE
 10
0.0
 20
0.0
 30
0.0
  9
$EXTMIN
 10
-2.24706
 20
1.725808
 30
-0.001526
  9
$EXTMAX
 10
70.098909
 20
60.682069
 30
0.0
  9
$LIMMIN
 10
19.077216
 20
43.616976
  9
$LIMMAX
 10
194.084622
 20
146.65737
  9
$ORTHOMODE
 70
     0
  9
$REGENMODE
 70
     1
  9
$FILLMODE
 70
     1
  9
$QTEXTMODE
 70
     0
  9
$MIRRTEXT
 70
     1
  9
$DRAGMODE
 70
     2
  9
$LTSCALE
 40
10.0
  9
$OSMODE
 70
    37
  9
$ATTMODE
 70
     1
  9
$TEXTSIZE
 40
0.2
  9
$TRACEWID
 40
0.05
  9
$TEXTSTYLE
  7
STANDARD
  9
$CLAYER
  8
ALPHA
  9
$CELTYPE
  6
CONTINUOUS
  9
$CECOLOR
 62
   256
  9
$CELTSCALE
 40
1.0
  9
$DELOBJ
 70
     1
  9
$DISPSILH
 70
     0
  9
$DIMSCALE
 40
1.0
  9
$DIMASZ
 40
0.18
  9
$DIMEXO
 40
0.0625
  9
$DIMDLI
 40
0.38
  9
$DIMRND
 40
0.0
  9
$DIMDLE
 40
0.0
  9
$DIMEXE
 40
0.18
  9
$DIMTP
 40
0.0
  9
$DIMTM
 40
0.0
  9
$DIMTXT
 40
0.18
  9
$DIMCEN
 40
0.09
  9
$DIMTSZ
 40
0.0
  9
$DIMTOL
 70
     0
  9
$DIMLIM
 70
     0
  9
$DIMTIH
 70
     1
  9
$DIMTOH
 70
     1
  9
$DIMSE1
 70
     0
  9
$DIMSE2
 70
     0
  9
$DIMTAD
 70
     0
  9
$DIMZIN
 70
     0
  9
$DIMBLK
  1

  9
$DIMASO
 70
     1
  9
$DIMSHO
 70
     1
  9
$DIMPOST
  1

  9
$DIMAPOST
  1

  9
$DIMALT
 70
     0
  9
$DIMALTD
 70
     2
  9
$DIMALTF
 40
25.4
  9
$DIMLFAC
 40
1.0
  9
$DIMTOFL
 70
     0
  9
$DIMTVP
 40
0.0
  9
$DIMTIX
 70
     0
  9
$DIMSOXD
 70
     0
  9
$DIMSAH
 70
     0
  9
$DIMBLK1
  1

  9
$DIMBLK2
  1

  9
$DIMSTYLE
  2
STANDARD
  9
$DIMCLRD
 70
     0
  9
$DIMCLRE
 70
     0
  9
$DIMCLRT
 70
     0
  9
$DIMTFAC
 40
1.0
  9
$DIMGAP
 40
0.09
  9
$DIMJUST
 70
     0
  9
$DIMSD1
 70
     0
  9
$DIMSD2
 70
     0
  9
$DIMTOLJ
 70
     1
  9
$DIMTZIN
 70
     0
  9
$DIMALTZ
 70
     0
  9
$DIMALTTZ
 70
     0
  9
$DIMFIT
 70
     3
  9
$DIMUPT
 70
     0
  9
$DIMUNIT
 70
     2
  9
$DIMDEC
 70
     4
  9
$DIMTDEC
 70
     4
  9
$DIMALTU
 70
     2
  9
$DIMALTTD
 70
     2
  9
$DIMTXSTY
  7
STANDARD
  9
$DIMAUNIT
 70
     0
  9
$LUNITS
 70
     2
  9
$LUPREC
 70
     4
  9
$SKETCHINC
 40
0.1
  9
$FILLETRAD
 40
0.0
  9
$AUNITS
 70
     0
  9
$AUPREC
 70
     0
  9
$MENU
  1
acad
  9
$ELEVATION
 40
0.0
  9
$PELEVATION
 40
0.0
  9
$THICKNESS
 40
0.0
  9
$LIMCHECK
 70
     0
  9
$BLIPMODE
 70
     0
  9
$CHAMFERA
 40
0.0
  9
$CHAMFERB
 40
0.0
  9
$CHAMFERC
 40
0.0
  9
$CHAMFERD
 40
0.0
  9
$SKPOLY
 70
     0
  9
$TDCREATE
 40
2453634.413430799
  9
$TDUPDATE
 40
2453893.693618842
  9
$TDINDWG
 40
0.5280702199
  9
$TDUSRTIMER
 40
0.5280691319
  9
$USRTIMER
 70
     1
  9
$ANGBASE
 50
0.0
  9
$ANGDIR
 70
     0
  9
$PDMODE
 70
     0
  9
$PDSIZE
 40
0.0
  9
$PLINEWID
 40
0.0
  9
$COORDS
 70
     1
  9
$SPLFRAME
 70
     0
  9
$SPLINETYPE
 70
     6
  9
$SPLINESEGS
 70
     8
  9
$ATTDIA
 70
     0
  9
$ATTREQ
 70
     1
  9
$HANDLING
 70
     1
  9
$HANDSEED
  5
3090
  9
$SURFTAB1
 70
     6
  9
$SURFTAB2
 70
     6
  9
$SURFTYPE
 70
     6
  9
$SURFU
 70
     6
  9
$SURFV
 70
     6
  9
$UCSNAME
  2

  9
$UCSORG
 10
0.0
 20
0.0
 30
0.0
  9
$UCSXDIR
 10
1.0
 20
0.0
 30
0.0
  9
$UCSYDIR
 10
0.0
 20
1.0
 30
0.0
  9
$PUCSNAME
  2

  9
$PUCSORG
 10
0.0
 20
0.0
 30
0.0
  9
$PUCSXDIR
 10
1.0
 20
0.0
 30
0.0
  9
$PUCSYDIR
 10
0.0
 20
1.0
 30
0.0
  9
$USERI1
 70
     0
  9
$USERI2
 70
     0
  9
$USERI3
 70
     0
  9
$USERI4
 70
     0
  9
$USERI5
 70
     0
  9
$USERR1
 40
0.0
  9
$USERR2
 40
0.0
  9
$USERR3
 40
0.0
  9
$USERR4
 40
0.0
  9
$USERR5
 40
0.0
  9
$WORLDVIEW
 70
     1
  9
$SHADEDGE
 70
     3
  9
$SHADEDIF
 70
    70
  9
$TILEMODE
 70
     1
  9
$MAXACTVP
 70
    16
  9
$PINSBASE
 10
0.0
 20
0.0
 30
0.0
  9
$PLIMCHECK
 70
     0
  9
$PEXTMIN
 10
1.000000E+20
 20
1.000000E+20
 30
1.000000E+20
  9
$PEXTMAX
 10
-1.000000E+20
 20
-1.000000E+20
 30
-1.000000E+20
  9
$PLIMMIN
 10
0.0
 20
0.0
  9
$PLIMMAX
 10
12.0
 20
9.0
  9
$UNITMODE
 70
     0
  9
$VISRETAIN
 70
     0
  9
$PLINEGEN
 70
     1
  9
$PSLTSCALE
 70
     0
  9
$TREEDEPTH
 70
  3020
  9
$PICKSTYLE
 70
     0
  9
$CMLSTYLE
  2
STANDARD
  9
$CMLJUST
 70
     0
  9
$CMLSCALE
 40
1.0
  9
$SAVEIMAGES
 70
     0
  0
ENDSEC
  0
SECTION
  2
CLASSES
  0
CLASS
  1
LWPOLYLINE
  2
AcDbPolyline
  3
"AutoCAD"
 90
    32768
280
     0
281
     1
  0
CLASS
  1
IMAGE
  2
AcDbRasterImage
  3
ISM
 90
    32895
280
     0
281
     1
  0
CLASS
  1
OLE2FRAME
  2
AcDbOle2Frame
  3
""
 90
    32768
280
     0
281
     1
  0
CLASS
  1
HATCH
  2
AcDbHatch
  3
"ACAD_SEDONA"
 90
    32768
280
     0
281
     1
  0
CLASS
  1
DICTIONARYVAR
  2
AcDbDictionaryVar
  3
"AutoCAD"
 90
    32768
280
     0
281
     0
  0
CLASS
  1
RASTERVARIABLES
  2
AcDbRasterVariables
  3
ISM
 90
    32768
280
     0
281
     0
  0
CLASS
  1
IMAGEDEF
  2
AcDbRasterImageDef
  3
ISM
 90
    32768
280
     0
281
     0
  0
CLASS
  1
IMAGEDEF_REACTOR
  2
AcDbRasterImageDefReactor
  3
ISM
 90
    32769
280
     0
281
     0
  0
CLASS
  1
SPATIAL_FILTER
  2
AcDbSpatialFilter
  3
"Acad"
 90
    32768
280
     0
281
     0
  0
CLASS
  1
XRECORD
  2
AcDbXrecord
  3
"<Built In>"
 90
    32768
280
     0
281
     0
  0
CLASS
  1
SORTENTSTABLE
  2
AcDbSortentsTable
  3
"AutoCAD"
 90
    32768
280
     0
281
     0
  0
CLASS
  1
LAYER_INDEX
  2
AcDbLayerIndex
  3
"Acad"
 90
    32768
280
     0
281
     0
  0
CLASS
  1
SPATIAL_INDEX
  2
AcDbSpatialIndex
  3
"Acad"
 90
    32768
280
     0
281
     0
  0
CLASS
  1
OBJECT_PTR
  2
CAseDLPNTableRecord
  3
ASE-LPNTableRecord
 90
    32769
280
     0
281
     0
  0
CLASS
  1
LAYOUT
  2
AcDbLayout
  3
AutoCAD 2000
 90
    32768
280
     0
281
     0
  0
CLASS
  1
PLOTSETTINGS
  2
AcDbPlotSettings
  3
AutoCAD 2000
 90
    32768
280
     0
281
     0
  0
CLASS
  1
ACDBDICTIONARYWDFLT
  2
AcDbDictionaryWithDefault
  3
AutoCAD 2000
 90
    32768
280
     0
281
     0
  0
CLASS
  1
ACDBPLACEHOLDER
  2
AcDbPlaceHolder
  3
AutoCAD 2000
 90
    32768
280
     0
281
     0
  0
CLASS
  1
VBA_PROJECT
  2
AcDbVbaProject
  3
acad
 90
    32768
280
     0
281
     0
  0
CLASS
  1
WIPEOUT
  2
AcDbWipeout
  3
WipeOut|AutoCAD Express Tool|expresstools@autodesk.com
 90
    32895
280
     0
281
     1
  0
CLASS
  1
WIPEOUTVARIABLES
  2
AcDbWipeoutVariables
  3
WipeOut|AutoCAD Express Tool|expresstools@autodesk.com
 90
    32768
280
     0
281
     0
  0
CLASS
  1
RTEXT
  2
RText
  3
RText|AutoCAD Express Tool|expresstools@autodesk.com
 90
    32768
280
     0
281
     1
  0
CLASS
  1
ARCALIGNEDTEXT
  2
AcDbArcAlignedText
  3
ATEXT|AutoCAD Express Tool|expresstools@autodesk.com
 90
    32768
280
     0
281
     1
  0
CLASS
  1
TABLESTYLE
  2
AcDbTableStyle
  3
ObjectDBX Classes
 90
    34815
280
     0
281
     0
  0
CLASS
  1
ACAD_PROXY_OBJECT_WRAPPER
  2
AcDbProxyObjectWrapper
  3
AutoCAD 2000
 90
    32768
280
     0
281
     0
  0
CLASS
  1
LONG_TRANSACTION
  2
AcDbLongTransaction
  3
AutoCAD 2000
 90
    32768
280
     0
281
     0
  0
CLASS
  1
LWPOLYLINE
  2
AcDbPolyline
  3
"AutoCAD"
 90
    32768
280
     0
281
     1
  0
CLASS
  1
HATCH
  2
AcDbHatch
  3
"ACAD_SEDONA"
 90
    32768
280
     0
281
     1
  0
CLASS
  1
XRECORD
  2
AcDbXrecord
  3
"<Built In>"
 90
    32768
280
     0
281
     0
  0
ENDSEC
  0
SECTION
  2
TABLES
  0
TABLE
  2
VPORT
  5
7
100
AcDbSymbolTable
 70
     2
  0
VPORT
  5
308F
100
AcDbSymbolTableRecord
100
AcDbViewportTableRecord
  2
*ACTIVE
 70
     0
 10
0.0
 20
0.0
 11
1.0
 21
1.0
 12
33.925925
 22
31.203938
 13
0.0
 23
0.0
 14
1.0
 24
1.0
 15
0.0
 25
0.0
 16
0.0
 26
0.0
 36
1.0
 17
0.0
 27
0.0
 37
0.0
 40
59.569325
 41
1.673611
 42
50.0
 43
0.0
 44
0.0
 50
0.0
 51
0.0
 71
     0
 72
   100
 73
     1
 74
     2
 75
     0
 76
     0
 77
     0
 78
     0
  0
ENDTAB
  0
TABLE
  2
LTYPE
  5
4
100
AcDbSymbolTable
 70
     3
  0
LTYPE
  5
11
102
{ACAD_XDICTIONARY
360
3048
102
}
100
AcDbSymbolTableRecord
100
AcDbLinetypeTableRecord
  2
BYBLOCK
 70
     0
  3

 72
    65
 73
     0
 40
0.0
  0
LTYPE
  5
12
102
{ACAD_XDICTIONARY
360
304A
102
}
100
AcDbSymbolTableRecord
100
AcDbLinetypeTableRecord
  2
BYLAYER
 70
     0
  3

 72
    65
 73
     0
 40
0.0
  0
LTYPE
  5
13
102
{ACAD_XDICTIONARY
360
304C
102
}
100
AcDbSymbolTableRecord
100
AcDbLinetypeTableRecord
  2
CONTINUOUS
 70
     0
  3
Solid line
 72
    65
 73
     0
 40
0.0
  0
LTYPE
  5
725
100
AcDbSymbolTableRecord
100
AcDbLinetypeTableRecord
  2
AXES2
 70
     0
  3
___ _ ___ _ ___ _ ___ _ ___ _ ___ _ ___ _ ___ _
 72
    65
 73
     4
 40
1.125
 49
0.75
 74
     0
 49
-0.125
 74
     0
 49
0.125
 74
     0
 49
-0.125
 74
     0
  0
LTYPE
  5
726
100
AcDbSymbolTableRecord
100
AcDbLinetypeTableRecord
  2
CACHE2
 70
     0
  3
Caché (x.5) _ _ _ _ _ _ _ _ _ _ _ _ _ _ _ _ _
 72
    65
 73
     2
 40
0.1875
 49
0.125
 74
     0
 49
-0.0625
 74
     0
  0
ENDTAB
  0
TABLE
  2
LAYER
  5
2
102
{ACAD_XDICTIONARY
360
2A3D
102
}
100
AcDbSymbolTable
 70
     5
  0
LAYER
  5
14
100
AcDbSymbolTableRecord
100
AcDbLayerTableRecord
  2
0
 70
     0
 62
     7
  6
CONTINUOUS
  0
LAYER
  5
6EC
102
{ACAD_XDICTIONARY
360
3046
102
}
100
AcDbSymbolTableRecord
100
AcDbLayerTableRecord
  2
DEFPOINTS
 70
     0
 62
     7
  6
CONTINUOUS
  0
LAYER
  5
727
100
AcDbSymbolTableRecord
100
AcDbLayerTableRecord
  2
COTATION1
 70
     0
 62
     2
  6
CONTINUOUS
  0
LAYER
  5
728
100
AcDbSymbolTableRecord
100
AcDbLayerTableRecord
  2
AXE
 70
     0
 62
    80
  6
AXES2
  0
LAYER
  5
729
100
AcDbSymbolTableRecord
100
AcDbLayerTableRecord
  2
ALPHA
 70
     0
 62
   254
  6
CONTINUOUS
  0
ENDTAB
  0
TABLE
  2
STYLE
  5
3
100
AcDbSymbolTable
 70
     2
  0
STYLE
  5
17
102
{ACAD_XDICTIONARY
360
3050
102
}
100
AcDbSymbolTableRecord
100
AcDbTextStyleTableRecord
  2
STANDARD
 70
     0
 40
0.0
 41
1.0
 50
0.0
 71
     0
 42
0.0
  3
txt
  4

  0
STYLE
  5
72B
100
AcDbSymbolTableRecord
100
AcDbTextStyleTableRecord
  2
ROMANS
 70
     0
 40
0.0
 41
1.0
 50
0.0
 71
     0
 42
6.0
  3
romans
  4

  0
ENDTAB
  0
TABLE
  2
VIEW
  5
5
100
AcDbSymbolTable
 70
     0
  0
ENDTAB
  0
TABLE
  2
UCS
  5
6
100
AcDbSymbolTable
 70
     0
  0
ENDTAB
  0
TABLE
  2
APPID
  5
8
100
AcDbSymbolTable
 70
     4
  0
APPID
  5
16
100
AcDbSymbolTableRecord
100
AcDbRegAppTableRecord
  2
ACAD
 70
     0
  0
APPID
  5
2875
102
{ACAD_XDICTIONARY
360
304E
102
}
100
AcDbSymbolTableRecord
100
AcDbRegAppTableRecord
  2
ACAD_EXEMPT_FROM_CAD_STAND
 70
     0
  0
APPID
  5
2A3B
100
AcDbSymbolTableRecord
100
AcDbRegAppTableRecord
  2
ACAD_PSEXT
 70
     0
  0
APPID
  5
2A3C
100
AcDbSymbolTableRecord
100
AcDbRegAppTableRecord
  2
DCO15
 70
     0
  0
ENDTAB
  0
TABLE
  2
DIMSTYLE
  5
9
100
AcDbSymbolTable
 70
     2
  0
DIMSTYLE
105
18
102
{ACAD_XDICTIONARY
360
3044
102
}
100
AcDbSymbolTableRecord
100
AcDbDimStyleTableRecord
  2
STANDARD
 70
     0
  3

  4

  5

  6

  7

 40
1.0
 41
0.18
 42
0.0625
 43
0.38
 44
0.18
 45
0.0
 46
0.0
 47
0.0
 48
0.0
140
0.18
141
0.09
142
0.0
143
25.4
144
1.0
145
0.0
146
1.0
147
0.09
 71
     0
 72
     0
 73
     1
 74
     1
 75
     0
 76
     0
 77
     0
 78
     0
170
     0
171
     2
172
     0
173
     0
174
     0
175
     0
176
     0
177
     0
178
     0
270
     2
271
     4
272
     4
273
     2
274
     2
340
17
275
     0
280
     0
281
     0
282
     0
283
     1
284
     0
285
     0
286
     0
287
     3
288
     0
  0
DIMSTYLE
105
72C
102
{ACAD_XDICTIONARY
360
3080
102
}
102
{ACAD_REACTORS
330
2D22
330
2D23
330
2D28
102
}
100
AcDbSymbolTableRecord
100
AcDbDimStyleTableRecord
  2
SC_DEFAUT
 70
     0
  3

  4

  5
OPEN30
  6

  7

 40
1.0
 41
5.0
 42
2.0
 43
0.38
 44
2.5
 45
0.0
 46
0.0
 47
0.0
 48
0.0
140
2.5
141
0.0
142
0.0
143
25.4
144
1.0
145
0.0
146
1.0
147
2.0
 71
     0
 72
     0
 73
     1
 74
     1
 75
     0
 76
     0
 77
     1
 78
    12
170
     0
171
     2
172
     0
173
     0
174
     0
175
     0
176
     0
177
     0
178
     0
270
     2
271
     1
272
     1
273
     2
274
     2
340
72B
275
     0
280
     0
281
     0
282
     0
283
     1
284
    12
285
    12
286
    12
287
     5
288
     0
  0
ENDTAB
  0
TABLE
  2
BLOCK_RECORD
  5
1
100
AcDbSymbolTable
 70
     4
  0
BLOCK_RECORD
  5
A
102
{ACAD_XDICTIONARY
360
7D7
102
}
100
AcDbSymbolTableRecord
100
AcDbBlockTableRecord
  2
*MODEL_SPACE
  0
BLOCK_RECORD
  5
B
102
{ACAD_XDICTIONARY
360
3076
102
}
100
AcDbSymbolTableRecord
100
AcDbBlockTableRecord
  2
*PAPER_SPACE
  0
BLOCK_RECORD
  5
6FA
100
AcDbSymbolTableRecord
100
AcDbBlockTableRecord
  2
_OPEN30
  0
BLOCK_RECORD
  5
2D29
100
AcDbSymbolTableRecord
100
AcDbBlockTableRecord
  2
*D1
  0
BLOCK_RECORD
  5
2D36
100
AcDbSymbolTableRecord
100
AcDbBlockTableRecord
  2
*D2
  0
BLOCK_RECORD
  5
2D43
100
AcDbSymbolTableRecord
100
AcDbBlockTableRecord
  2
*D3
  0
ENDTAB
  0
ENDSEC
  0
SECTION
  2
BLOCKS
  0
BLOCK
  5
D
100
AcDbEntity
  8
0
100
AcDbBlockBegin
  2
*MODEL_SPACE
 70
     0
 10
0.0
 20
0.0
 30
0.0
  3
*MODEL_SPACE
  1

  0
ENDBLK
  5
E
100
AcDbEntity
  8
0
100
AcDbBlockEnd
  0
BLOCK
  5
F
100
AcDbEntity
 67
     1
  8
0
100
AcDbBlockBegin
  2
*PAPER_SPACE
 70
     0
 10
0.0
 20
0.0
 30
0.0
  3
*PAPER_SPACE
  1

  0
ENDBLK
  5
10
100
AcDbEntity
 67
     1
  8
0
100
AcDbBlockEnd
  0
BLOCK
  5
6FB
100
AcDbEntity
  8
0
100
AcDbBlockBegin
  2
_OPEN30
 70
     0
 10
0.0
 20
0.0
 30
0.0
  3
_OPEN30
  1

  0
LINE
  5
6FC
100
AcDbEntity
  8
COTATION1
 62
     0
100
AcDbLine
 10
-1.0
 20
0.267949
 30
0.0
 11
0.0
 21
0.0
 31
0.0
1001
ACAD
1000
RTLwPs
1070
   158
  0
LINE
  5
6FD
100
AcDbEntity
  8
COTATION1
 62
     0
100
AcDbLine
 10
0.0
 20
0.0
 30
0.0
 11
-1.0
 21
-0.267949
 31
0.0
1001
ACAD
1000
RTLwPs
1070
   158
  0
LINE
  5
6FE
100
AcDbEntity
  8
COTATION1
 62
     0
100
AcDbLine
 10
0.0
 20
0.0
 30
0.0
 11
-1.0
 21
0.0
 31
0.0
1001
ACAD
1000
RTLwPs
1070
   158
  0
ENDBLK
  5
6FF
100
AcDbEntity
  8
0
100
AcDbBlockEnd
  0
BLOCK
  5
2D34
100
AcDbEntity
  8
0
100
AcDbBlockBegin
  2
*D1
 70
     1
 10
0.0
 20
0.0
 30
0.0
  3
*D1
  1

1001
ACAD
1000
RTLwPs
1070
   128
  0
LINE
  5
3019
100
AcDbEntity
  8
COTATION1
 62
     0
100
AcDbLine
 10
25.608931
 20
45.43023
 30
0.0
 11
25.608931
 21
55.93023
 31
0.0
1001
ACAD
1000
RTLwPs
1070
   158
  0
LINE
  5
301A
100
AcDbEntity
  8
COTATION1
 62
     0
100
AcDbLine
 10
38.108931
 20
45.43023
 30
0.0
 11
38.108931
 21
55.93023
 31
0.0
1001
ACAD
1000
RTLwPs
1070
   158
  0
LINE
  5
301B
100
AcDbEntity
  8
COTATION1
 62
     0
100
AcDbLine
 10
20.608931
 20
53.43023
 30
0.0
 11
15.608931
 21
53.43023
 31
0.0
1001
ACAD
1000
RTLwPs
1070
   158
  0
LINE
  5
301C
100
AcDbEntity
  8
COTATION1
 62
     0
100
AcDbLine
 10
43.108931
 20
53.43023
 30
0.0
 11
48.108931
 21
53.43023
 31
0.0
1001
ACAD
1000
RTLwPs
1070
   158
  0
MTEXT
  5
301D
100
AcDbEntity
  8
COTATION1
 62
     0
100
AcDbMText
 10
31.858931
 20
59.43023
 30
0.0
 40
2.5
 41
0.0
 71
     5
 72
     1
  1
\A1;12.5 mini
  7
ROMANS
1001
ACAD
1000
MTEXTBEGIN
1070
    73
1070
     1
1070
    44
1040
1.0
1070
    74
1070
     0
1000
MTEXTEND
1000
MTEXTBEGIN
1070
    73
1070
     1
1070
    44
1040
1.0
1070
    74
1070
     0
1000
MTEXTEND
  0
INSERT
  5
301E
100
AcDbEntity
  8
COTATION1
 62
     0
100
AcDbBlockReference
  2
_OPEN30
 10
25.608931
 20
53.43023
 30
0.0
 41
5.0
 42
5.0
 43
5.0
1001
ACAD
1000
RTLwPs
1070
   158
  0
INSERT
  5
301F
100
AcDbEntity
  8
COTATION1
 62
     0
100
AcDbBlockReference
  2
_OPEN30
 10
38.108931
 20
53.43023
 30
0.0
 41
5.0
 42
5.0
 43
5.0
 50
180.0
1001
ACAD
1000
RTLwPs
1070
   158
  0
POINT
  5
3020
100
AcDbEntity
  8
DEFPOINTS
 62
     0
100
AcDbPoint
 10
25.608931
 20
43.43023
 30
0.0
1001
ACAD
1000
RTLwPs
1070
   128
  0
POINT
  5
3021
100
AcDbEntity
  8
DEFPOINTS
 62
     0
100
AcDbPoint
 10
38.108931
 20
43.43023
 30
0.0
1001
ACAD
1000
RTLwPs
1070
   128
  0
POINT
  5
3022
100
AcDbEntity
  8
DEFPOINTS
 62
     0
100
AcDbPoint
 10
38.108931
 20
53.43023
 30
0.0
1001
ACAD
1000
RTLwPs
1070
   128
  0
ENDBLK
  5
2D35
100
AcDbEntity
  8
0
100
AcDbBlockEnd
1001
ACAD
1000
RTLwPs
1070
   128
  0
BLOCK
  5
2D41
100
AcDbEntity
  8
0
100
AcDbBlockBegin
  2
*D2
 70
     1
 10
0.0
 20
0.0
 30
0.0
  3
*D2
  1

1001
ACAD
1000
RTLwPs
1070
   128
  0
LINE
  5
3023
100
AcDbEntity
  8
COTATION1
 62
     0
100
AcDbLine
 10
16.508931
 20
36.33023
 30
0.0
 11
4.008931
 21
36.33023
 31
0.0
1001
ACAD
1000
RTLwPs
1070
   158
  0
LINE
  5
3024
100
AcDbEntity
  8
COTATION1
 62
     0
100
AcDbLine
 10
16.508931
 20
23.83023
 30
0.0
 11
4.008931
 21
23.83023
 31
0.0
1001
ACAD
1000
RTLwPs
1070
   158
  0
LINE
  5
3025
100
AcDbEntity
  8
COTATION1
 62
     0
100
AcDbLine
 10
6.508931
 20
41.33023
 30
0.0
 11
6.508931
 21
46.33023
 31
0.0
1001
ACAD
1000
RTLwPs
1070
   158
  0
LINE
  5
3026
100
AcDbEntity
  8
COTATION1
 62
     0
100
AcDbLine
 10
6.508931
 20
18.83023
 30
0.0
 11
6.508931
 21
13.83023
 31
0.0
1001
ACAD
1000
RTLwPs
1070
   158
  0
INSERT
  5
3027
100
AcDbEntity
  8
COTATION1
 62
     0
100
AcDbBlockReference
  2
_OPEN30
 10
6.508931
 20
36.33023
 30
0.0
 41
5.0
 42
5.0
 43
5.0
 50
270.0
1001
ACAD
1000
RTLwPs
1070
   158
  0
INSERT
  5
3028
100
AcDbEntity
  8
COTATION1
 62
     0
100
AcDbBlockReference
  2
_OPEN30
 10
6.508931
 20
23.83023
 30
0.0
 41
5.0
 42
5.0
 43
5.0
 50
90.0
1001
ACAD
1000
RTLwPs
1070
   158
  0
MTEXT
  5
3029
100
AcDbEntity
  8
COTATION1
 62
     0
100
AcDbMText
 10
6.508931
 20
30.08023
 30
0.0
 40
2.5
 41
0.0
 71
     5
 72
     1
  1
\A1;12.5 mini
  7
ROMANS
1001
ACAD
1000
MTEXTBEGIN
1070
    73
1070
     1
1070
    44
1040
1.0
1070
    74
1070
     0
1000
MTEXTEND
1000
MTEXTBEGIN
1070
    73
1070
     1
1070
    44
1040
1.0
1070
    74
1070
     0
1000
MTEXTEND
  0
POINT
  5
302A
100
AcDbEntity
  8
DEFPOINTS
 62
     0
100
AcDbPoint
 10
18.508931
 20
36.33023
 30
0.0
1001
ACAD
1000
RTLwPs
1070
   128
  0
POINT
  5
302B
100
AcDbEntity
  8
DEFPOINTS
 62
     0
100
AcDbPoint
 10
18.508931
 20
23.83023
 30
0.0
1001
ACAD
1000
RTLwPs
1070
   128
  0
POINT
  5
302C
100
AcDbEntity
  8
DEFPOINTS
 62
     0
100
AcDbPoint
 10
6.508931
 20
23.83023
 30
0.0
1001
ACAD
1000
RTLwPs
1070
   128
  0
ENDBLK
  5
2D42
100
AcDbEntity
  8
0
100
AcDbBlockEnd
1001
ACAD
1000
RTLwPs
1070
   128
  0
BLOCK
  5
2D4A
100
AcDbEntity
  8
0
100
AcDbBlockBegin
  2
*D3
 70
     1
 10
0.0
 20
0.0
 30
0.0
  3
*D3
  1

1001
ACAD
1000
RTLwPs
1070
   128
  0
LINE
  5
3084
100
AcDbEntity
  8
COTATION1
 62
     0
100
AcDbLine
 10
69.974048
 20
9.286564
 30
0.0
 11
50.235953
 21
9.286564
 31
0.0
  0
LINE
  5
3085
100
AcDbEntity
  8
COTATION1
 62
     0
100
AcDbLine
 10
50.235953
 20
9.286564
 30
0.0
 11
43.936679
 21
16.841142
 31
0.0
  0
MTEXT
  5
3086
100
AcDbEntity
  8
COTATION1
 62
     0
100
AcDbMText
 10
61.105
 20
12.536564
 30
0.0
 40
2.5
 41
0.0
 71
     5
 72
     1
  1
\A1;\U+22058.2 mini
  7
ROMANS
  0
INSERT
  5
3087
100
AcDbEntity
  8
COTATION1
 62
     0
100
AcDbBlockReference
  2
_OPEN30
 10
40.73462
 20
20.6813
 30
0.0
 41
5.0
 42
5.0
 43
5.0
 50
129.822538
  0
POINT
  5
3088
100
AcDbEntity
  8
DEFPOINTS
 62
     0
100
AcDbPoint
 10
40.73462
 20
20.6813
 30
0.0
  0
POINT
  5
3089
100
AcDbEntity
  8
DEFPOINTS
 62
     0
100
AcDbPoint
 10
35.483242
 20
26.97916
 30
0.0
  0
ENDBLK
  5
2D4B
100
AcDbEntity
  8
0
100
AcDbBlockEnd
1001
ACAD
1000
RTLwPs
1070
   128
  0
ENDSEC
  0
SECTION
  2
ENTITIES
  0
LINE
  5
2D1A
100
AcDbEntity
  8
AXE
100
AcDbLine
 10
25.608931
 20
43.43023
 30
0.0
 11
25.608931
 21
16.73023
 31
0.0
  0
CIRCLE
  5
2D1B
100
AcDbEntity
  8
ALPHA
  6
CONTINUOUS
100
AcDbCircle
 10
25.608931
 20
23.83023
 30
0.0
 40
4.1
1001
ACAD
1000
RTLwPs
1070
   128
  0
LINE
  5
2D1C
100
AcDbEntity
  8
AXE
100
AcDbLine
 10
38.108931
 20
43.43023
 30
0.0
 11
38.108931
 21
16.73023
 31
0.0
  0
LINE
  5
2D1D
100
AcDbEntity
  8
AXE
100
AcDbLine
 10
18.508931
 20
23.83023
 30
0.0
 11
45.208931
 21
23.83023
 31
0.0
  0
CIRCLE
  5
2D1E
100
AcDbEntity
  8
ALPHA
  6
CONTINUOUS
100
AcDbCircle
 10
38.108931
 20
23.83023
 30
0.0
 40
4.1
1001
ACAD
1000
RTLwPs
1070
   128
  0
CIRCLE
  5
2D1F
100
AcDbEntity
  8
ALPHA
  6
CONTINUOUS
100
AcDbCircle
 10
25.608931
 20
36.33023
 30
0.0
 40
4.1
1001
ACAD
1000
RTLwPs
1070
   128
  0
LINE
  5
2D20
100
AcDbEntity
  8
AXE
100
AcDbLine
 10
18.508931
 20
36.33023
 30
0.0
 11
45.208931
 21
36.33023
 31
0.0
  0
CIRCLE
  5
2D21
100
AcDbEntity
  8
ALPHA
  6
CONTINUOUS
100
AcDbCircle
 10
38.108931
 20
36.33023
 30
0.0
 40
4.1
1001
ACAD
1000
RTLwPs
1070
   128
  0
DIMENSION
  5
2D22
100
AcDbEntity
  8
COTATION1
100
AcDbDimension
  2
*D1
 10
38.108931
 20
53.43023
 30
0.0
 11
31.858931
 21
59.43023
 31
0.0
 70
    32
  1
<> mini
  3
SC_DEFAUT
100
AcDbAlignedDimension
 13
25.608931
 23
43.43023
 33
0.0
 14
38.108931
 24
43.43023
 34
0.0
100
AcDbRotatedDimension
  0
DIMENSION
  5
2D23
100
AcDbEntity
  8
COTATION1
100
AcDbDimension
  2
*D2
 10
6.508931
 20
23.83023
 30
0.0
 11
6.508931
 21
30.08023
 31
0.0
 70
    32
  1
<> mini
  3
SC_DEFAUT
100
AcDbAlignedDimension
 13
18.508931
 23
36.33023
 33
0.0
 14
18.508931
 24
23.83023
 34
0.0
 50
90.0
100
AcDbRotatedDimension
  0
LINE
  5
2D24
100
AcDbEntity
  8
AXE
100
AcDbLine
 10
18.508931
 20
30.08023
 30
0.0
 11
57.208931
 21
30.08023
 31
0.0
  0
LINE
  5
2D25
100
AcDbEntity
  8
AXE
100
AcDbLine
 10
31.858931
 20
43.43023
 30
0.0
 11
31.858931
 21
1.73023
 31
0.0
  0
TEXT
  5
2D26
100
AcDbEntity
  8
AXE
100
AcDbText
 10
50.693059
 20
31.0845
 30
0.0
 40
8.0
  1
X
  7
ROMANS
 72
     2
 11
57.169249
 21
31.0845
 31
0.0
100
AcDbText
  0
TEXT
  5
2D27
100
AcDbEntity
  8
AXE
100
AcDbText
 10
24.382741
 20
1.73023
 30
0.0
 40
8.0
  1
Y
  7
ROMANS
 72
     2
 11
30.858931
 21
1.73023
 31
0.0
100
AcDbText
  0
DIMENSION
  5
2D28
100
AcDbEntity
  8
COTATION1
100
AcDbDimension
  2
*D3
 10
35.483242
 20
26.97916
 30
0.0
 11
50.235953
 21
9.286564
 31
0.0
 70
   163
  1
<> mini
  3
SC_DEFAUT
100
AcDbDiametricDimension
 15
40.73462
 25
20.6813
 35
0.0
 40
0.0
1001
ACAD
1000
DSTYLE
1002
{
1070
   287
1070
     4
1070
   279
1070
     1
1002
}
  0
ENDSEC
  0
SECTION
  2
OBJECTS
  0
DICTIONARY
  5
19
102
{ACAD_XDICTIONARY
360
3078
102
}
100
AcDbDictionary
  3
ACAD_COLOR
350
6DB
  3
ACAD_GROUP
350
1A
  3
ACAD_LAYOUT
350
1E
  3
ACAD_MATERIAL
350
6DA
  3
ACAD_MLINESTYLE
350
1B
  3
ACAD_PLOTSETTINGS
350
22
  3
ACAD_PLOTSTYLENAME
350
1F
  3
ACAD_TABLESTYLE
350
6DC
  3
ACAD_WIPEOUT_VARS
350
23
  3
ACDBHEADERROUNDTRIPXREC
350
3054
  3
ACDBVARIABLEDICTIONARY
350
7DA
  3
ASE_INDEX_DICTIONARY
350
2A5C
  0
DICTIONARY
  5
3048
100
AcDbDictionary
  3
ACAD_XREC_ROUNDTRIP
360
3049
  0
DICTIONARY
  5
304A
100
AcDbDictionary
  3
ACAD_XREC_ROUNDTRIP
360
304B
  0
DICTIONARY
  5
304C
100
AcDbDictionary
  3
ACAD_XREC_ROUNDTRIP
360
304D
  0
DICTIONARY
  5
2A3D
100
AcDbDictionary
  3
ACAD_LAYERSTATES
360
2A3E
  0
DICTIONARY
  5
3046
100
AcDbDictionary
  3
ACAD_XREC_ROUNDTRIP
360
3047
  0
DICTIONARY
  5
3050
100
AcDbDictionary
  3
ACAD_XREC_ROUNDTRIP
360
3051
  0
DICTIONARY
  5
304E
100
AcDbDictionary
  3
ACAD_XREC_ROUNDTRIP
360
304F
  0
DICTIONARY
  5
3044
100
AcDbDictionary
  3
ACAD_XREC_ROUNDTRIP
360
3045
  0
DICTIONARY
  5
3080
100
AcDbDictionary
  3
ACAD_XREC_ROUNDTRIP
360
3081
  0
DICTIONARY
  5
7D7
100
AcDbDictionary
  3
ACAD_LAYOUTSELFREF
360
3075
  3
ACAD_SORTENTS
360
7D8
  0
DICTIONARY
  5
3076
100
AcDbDictionary
  3
ACAD_LAYOUTSELFREF
360
3077
  0
DICTIONARY
  5
3078
100
AcDbDictionary
  3
ACAD_XREC_ROUNDTRIP
360
3079
  0
DICTIONARY
  5
6DB
102
{ACAD_REACTORS
330
19
102
}
100
AcDbDictionary
  0
DICTIONARY
  5
1A
102
{ACAD_REACTORS
330
19
102
}
100
AcDbDictionary
  0
DICTIONARY
  5
1E
102
{ACAD_XDICTIONARY
360
307C
102
}
102
{ACAD_REACTORS
330
19
102
}
100
AcDbDictionary
  3
LAYOUT1
350
21
  3
MODEL
350
20
  0
DICTIONARY
  5
6DA
102
{ACAD_REACTORS
330
19
102
}
100
AcDbDictionary
  0
DICTIONARY
  5
1B
102
{ACAD_XDICTIONARY
360
307A
102
}
102
{ACAD_REACTORS
330
19
102
}
100
AcDbDictionary
  3
STANDARD
350
1C
  0
DICTIONARY
  5
22
102
{ACAD_REACTORS
330
19
102
}
100
AcDbDictionary
  0
ACAD_ZOMBIE_OBJECT
  5
1F
102
{ACAD_REACTORS
330
19
102
}
100
AcDbZombieObject
 90
      499
 91
      517
 93
       86
310
405010041939BDC9B585B0
350
1D
340
1D
 94
        0
  0
DICTIONARY
  5
6DC
102
{ACAD_XDICTIONARY
360
307E
102
}
102
{ACAD_REACTORS
330
19
102
}
100
AcDbDictionary
  3
STANDARD
350
6DD
  0
ACAD_ZOMBIE_OBJECT
  5
23
102
{ACAD_REACTORS
330
19
102
}
100
AcDbZombieObject
 90
      499
 91
      521
 93
       10
310
406A
 94
        0
  0
DICTIONARY
  5
3054
102
{ACAD_REACTORS
330
19
102
}
100
AcDbDictionary
  3
CEPSNTYPE
350
305E
  3
DIMSTYLEDATA
350
3062
  3
FINGERPRINTGUID
350
305F
  3
HYPERLINKBASE
350
3057
  3
INSUNITS
350
305D
  3
LAYOUTDICT
350
3059
  3
LWETCUNION
350
305C
  3
PLOTSETDICT
350
305A
  3
PLOTSTYLNAMDICT
350
305B
  3
PSVPSCALE
350
3061
  3
PUCSBASE
350
3065
  3
PUCSORGBACK
350
306B
  3
PUCSORGBOTTOM
350
3067
  3
PUCSORGFRONT
350
306A
  3
PUCSORGLEFT
350
3068
  3
PUCSORGRIGHT
350
3069
  3
PUCSORGTOP
350
3066
  3
PUCSORTHOREF
350
3063
  3
PUCSORTHOVIEW
350
3064
  3
STYLESHEET
350
3058
  3
TSTACKALIGN
350
3055
  3
TSTACKSIZE
350
3056
  3
UCSBASE
350
306E
  3
UCSORGBACK
350
3074
  3
UCSORGBOTTOM
350
3070
  3
UCSORGFRONT
350
3073
  3
UCSORGLEFT
350
3071
  3
UCSORGRIGHT
350
3072
  3
UCSORGTOP
350
306F
  3
UCSORTHOREF
350
306C
  3
UCSORTHOVIEW
350
306D
  3
VERSIONGUID
350
3060
  0
DICTIONARY
  5
7DA
102
{ACAD_REACTORS
330
19
102
}
100
AcDbDictionary
  3
CTABLESTYLE
350
7DB
  3
DIMASSOC
350
1A71
  3
PROJECTNAME
350
1A72
  0
DICTIONARY
  5
2A5C
102
{ACAD_XDICTIONARY
360
3082
102
}
102
{ACAD_REACTORS
330
19
102
}
100
AcDbDictionary
  3
ASEBLOCKHIERARCHYINDEXRECORD
350
2A5D
1001
DCO15
1040
1558932042.078
  0
XRECORD
  5
3049
102
{ACAD_REACTORS
330
3048
102
}
100
AcDbXrecord
102
EXTNAMES
  1
BYBLOCK
  2
ByBlock
  0
XRECORD
  5
304B
102
{ACAD_REACTORS
330
304A
102
}
100
AcDbXrecord
102
EXTNAMES
  1
BYLAYER
  2
ByLayer
  0
XRECORD
  5
304D
102
{ACAD_REACTORS
330
304C
102
}
100
AcDbXrecord
102
EXTNAMES
  1
CONTINUOUS
  2
Continuous
  0
DICTIONARY
  5
2A3E
102
{ACAD_REACTORS
330
2A3D
102
}
100
AcDbDictionary
  0
XRECORD
  5
3047
102
{ACAD_REACTORS
330
3046
102
}
100
AcDbXrecord
102
EXTNAMES
  1
DEFPOINTS
  2
Defpoints
102
PLOTBIT
280
     0
  0
XRECORD
  5
3051
102
{ACAD_REACTORS
330
3050
102
}
100
AcDbXrecord
102
EXTNAMES
  1
STANDARD
  2
Standard
  0
XRECORD
  5
304F
102
{ACAD_REACTORS
330
304E
102
}
100
AcDbXrecord
102
EXTNAMES
  1
ACAD_EXEMPT_FROM_CAD_STAND
  2
ACAD_EXEMPT_FROM_CAD_STANDARDS
  0
XRECORD
  5
3045
102
{ACAD_REACTORS
330
3044
102
}
100
AcDbXrecord
102
EXTNAMES
  1
STANDARD
  2
Standard
  0
XRECORD
  5
3081
102
{ACAD_REACTORS
330
3080
102
}
100
AcDbXrecord
102
ACADR14ROUNDTRIP
1000
DSTYLE
1002
{
1070
   279
 70
     2
1070
   341
340
6FA
1070
   342
340
6FA
1002
}
  0
XRECORD
  5
3075
102
{ACAD_REACTORS
330
7D7
102
}
100
AcDbXrecord
340
A
  0
SORTENTSTABLE
  5
7D8
102
{ACAD_REACTORS
330
7D7
102
}
100
AcDbSortentsTable
330
A
331
2D1B
  5
2D28
331
2D1D
  5
2DB0
331
2D1F
  5
2DB3
331
2D21
  5
2DB7
331
2D23
  5
2DB9
331
2D25
  5
2DBB
331
2D27
  5
2E54
331
2D1A
  5
2D27
331
2D1C
  5
2DAE
331
2D1E
  5
2DB1
331
2D20
  5
2DB5
331
2D22
  5
2DB8
331
2D24
  5
2DBA
331
2D26
  5
2DBC
331
2D28
  5
2E56
  0
XRECORD
  5
3077
102
{ACAD_REACTORS
330
3076
102
}
100
AcDbXrecord
340
B
  0
XRECORD
  5
3079
102
{ACAD_REACTORS
330
3078
102
}
100
AcDbXrecord
102
EXTNAMES
  1
ACDBVARIABLEDICTIONARY
  2
AcDbVariableDictionary
  0
DICTIONARY
  5
307C
100
AcDbDictionary
  3
ACAD_XREC_ROUNDTRIP
360
307D
  0
ACAD_ZOMBIE_OBJECT
  5
21
102
{ACAD_XDICTIONARY
360
303D
102
}
102
{ACAD_REACTORS
330
1E
102
}
100
AcDbZombieObject
 90
      499
 91
      515
 93
      812
310
AAAAAAAAAA5A69074C61796F757431406A800000000000000000000000000000000000000000000A1000000000000008902A6A6A10232D5E076BC5510408CB5781DAF154410232D5E076BC5510408CB5781DAF15C410232D5E076BC5710408CB5781DAF15C40
330
B
330
0
340
0
340
0
 94
        0
  0
ACAD_ZOMBIE_OBJECT
  5
20
102
{ACAD_XDICTIONARY
360
303B
102
}
102
{ACAD_REACTORS
330
1E
102
}
100
AcDbZombieObject
 90
      499
 91
      515
 93
      420
310
A00012AAAAAAAA5A69054D6F64656CAA80000000000000000000000000000000000000000000000000000000000000002AAAAAAAA0
330
A
330
0
340
0
340
0
 94
        0
  0
DICTIONARY
  5
307A
100
AcDbDictionary
  3
ACAD_XREC_ROUNDTRIP
360
307B
  0
MLINESTYLE
  5
1C
102
{ACAD_REACTORS
330
1B
102
}
100
AcDbMlineStyle
  2
STANDARD
 70
     0
  3

 62
     0
 51
90.0
 52
90.0
 71
     2
 49
0.5
 62
   256
  6
BYLAYER
 49
-0.5
 62
   256
  6
BYLAYER
  0
ACAD_ZOMBIE_OBJECT
  5
1D
102
{ACAD_REACTORS
330
1F
102
}
100
AcDbZombieObject
 90
      499
 91
      518
 93
        0
 94
        0
  0
DICTIONARY
  5
307E
100
AcDbDictionary
  3
ACAD_XREC_ROUNDTRIP
360
307F
  0
ACAD_ZOMBIE_OBJECT
  5
6DD
102
{ACAD_REACTORS
330
6DC
102
}
100
AcDbZombieObject
 90
      499
 91
      525
 93
     1841
310
4214DD185B99185C9928000000000000F83F0000000000003E0FC00000000000004901028000000C1008070000C3001FDFF8000000C1003FBFF000000182007F7FE00000030400FEFFC00000060801FDFF8000000C1003FBFF000000182000000000000000C2020B0000001820100E000186003FBFF000000182007F7FE000
310
00030400FEFFC00000060801FDFF8000000C1003FBFF000000182007F7FE0000003040000000000000012404160000003040201C00030C007F7FE00000030400FEFFC00000060801FDFF8000000C1003FBFF000000182007F7FE00000030400FEFFC000000608000
340
17
340
17
340
17
 94
        0
1001
ACAD
1000
AcadProxyRoundTripData
1071
      524
1071
   393239
1070
     0
  0
XRECORD
  5
305E
102
{ACAD_REACTORS
330
3054
102
}
100
AcDbXrecord
 90
        0
  0
XRECORD
  5
3062
102
{ACAD_REACTORS
330
3054
102
}
100
AcDbXrecord
1000
DSTYLE
1002
{
1070
   278
 70
     0
1070
   371
 70
     0
1070
   372
 70
     0
1002
}
  0
XRECORD
  5
305F
102
{ACAD_REACTORS
330
3054
102
}
100
AcDbXrecord
  1

  0
XRECORD
  5
3057
102
{ACAD_REACTORS
330
3054
102
}
100
AcDbXrecord
  1

  0
XRECORD
  5
305D
102
{ACAD_REACTORS
330
3054
102
}
100
AcDbXrecord
 90
        0
  0
XRECORD
  5
3059
102
{ACAD_REACTORS
330
3054
102
}
100
AcDbXrecord
340
1E
  0
XRECORD
  5
305C
102
{ACAD_REACTORS
330
3054
102
}
100
AcDbXrecord
 90
    10752
  0
XRECORD
  5
305A
102
{ACAD_REACTORS
330
3054
102
}
100
AcDbXrecord
340
22
  0
XRECORD
  5
305B
102
{ACAD_REACTORS
330
3054
102
}
100
AcDbXrecord
340
1F
  0
XRECORD
  5
3061
102
{ACAD_REACTORS
330
3054
102
}
100
AcDbXrecord
 40
0.0
  0
XRECORD
  5
3065
102
{ACAD_REACTORS
330
3054
102
}
100
AcDbXrecord
340
0
  0
XRECORD
  5
306B
102
{ACAD_REACTORS
330
3054
102
}
100
AcDbXrecord
 10
0.0
 20
0.0
 30
0.0
  0
XRECORD
  5
3067
102
{ACAD_REACTORS
330
3054
102
}
100
AcDbXrecord
 10
0.0
 20
0.0
 30
0.0
  0
XRECORD
  5
306A
102
{ACAD_REACTORS
330
3054
102
}
100
AcDbXrecord
 10
0.0
 20
0.0
 30
0.0
  0
XRECORD
  5
3068
102
{ACAD_REACTORS
330
3054
102
}
100
AcDbXrecord
 10
0.0
 20
0.0
 30
0.0
  0
XRECORD
  5
3069
102
{ACAD_REACTORS
330
3054
102
}
100
AcDbXrecord
 10
0.0
 20
0.0
 30
0.0
  0
XRECORD
  5
3066
102
{ACAD_REACTORS
330
3054
102
}
100
AcDbXrecord
 10
0.0
 20
0.0
 30
0.0
  0
XRECORD
  5
3063
102
{ACAD_REACTORS
330
3054
102
}
100
AcDbXrecord
340
0
  0
XRECORD
  5
3064
102
{ACAD_REACTORS
330
3054
102
}
100
AcDbXrecord
 70
     0
  0
XRECORD
  5
3058
102
{ACAD_REACTORS
330
3054
102
}
100
AcDbXrecord
  1

  0
XRECORD
  5
3055
102
{ACAD_REACTORS
330
3054
102
}
100
AcDbXrecord
 90
        1
  0
XRECORD
  5
3056
102
{ACAD_REACTORS
330
3054
102
}
100
AcDbXrecord
 90
       70
  0
XRECORD
  5
306E
102
{ACAD_REACTORS
330
3054
102
}
100
AcDbXrecord
340
0
  0
XRECORD
  5
3074
102
{ACAD_REACTORS
330
3054
102
}
100
AcDbXrecord
 10
0.0
 20
0.0
 30
0.0
  0
XRECORD
  5
3070
102
{ACAD_REACTORS
330
3054
102
}
100
AcDbXrecord
 10
0.0
 20
0.0
 30
0.0
  0
XRECORD
  5
3073
102
{ACAD_REACTORS
330
3054
102
}
100
AcDbXrecord
 10
0.0
 20
0.0
 30
0.0
  0
XRECORD
  5
3071
102
{ACAD_REACTORS
330
3054
102
}
100
AcDbXrecord
 10
0.0
 20
0.0
 30
0.0
  0
XRECORD
  5
3072
102
{ACAD_REACTORS
330
3054
102
}
100
AcDbXrecord
 10
0.0
 20
0.0
 30
0.0
  0
XRECORD
  5
306F
102
{ACAD_REACTORS
330
3054
102
}
100
AcDbXrecord
 10
0.0
 20
0.0
 30
0.0
  0
XRECORD
  5
306C
102
{ACAD_REACTORS
330
3054
102
}
100
AcDbXrecord
340
0
  0
XRECORD
  5
306D
102
{ACAD_REACTORS
330
3054
102
}
100
AcDbXrecord
 70
     0
  0
XRECORD
  5
3060
102
{ACAD_REACTORS
330
3054
102
}
100
AcDbXrecord
  1
{201B15B3-5329-4E07-B933-B65DA6C73B59}
  0
DICTIONARYVAR
  5
7DB
102
{ACAD_REACTORS
330
7DA
102
}
100
DictionaryVariables
280
     0
  1
STANDARD
  0
DICTIONARYVAR
  5
1A71
102
{ACAD_REACTORS
330
7DA
102
}
100
DictionaryVariables
280
     0
  1
1
  0
DICTIONARYVAR
  5
1A72
102
{ACAD_REACTORS
330
7DA
102
}
100
DictionaryVariables
280
     0
  1

  0
DICTIONARY
  5
3082
100
AcDbDictionary
  3
ACAD_XREC_ROUNDTRIP
360
3083
  0
XRECORD
  5
2A5D
102
{ACAD_REACTORS
330
2A5C
102
}
100
AcDbXrecord
330
301E
330
301F
330
3027
330
3028
330
0
  0
XRECORD
  5
307D
102
{ACAD_REACTORS
330
307C
102
}
100
AcDbXrecord
102
EXTNAMES
  1
LAYOUT1
  2
Layout1
  1
MODEL
  2
Model
  0
DICTIONARY
  5
303D
100
AcDbDictionary
  3
ACAD_XREC_ROUNDTRIP
360
303E
  0
DICTIONARY
  5
303B
100
AcDbDictionary
  3
ACAD_XREC_ROUNDTRIP
360
303C
  0
XRECORD
  5
307B
102
{ACAD_REACTORS
330
307A
102
}
100
AcDbXrecord
102
EXTNAMES
  1
STANDARD
  2
Standard
  0
XRECORD
  5
307F
102
{ACAD_REACTORS
330
307E
102
}
100
AcDbXrecord
102
EXTNAMES
  1
STANDARD
  2
Standard
  0
XRECORD
  5
3083
102
{ACAD_REACTORS
330
3082
102
}
100
AcDbXrecord
102
EXTNAMES
  1
ASEBLOCKHIERARCHYINDEXRECORD
  2
ASEBlockHierarchyIndexRecord
  0
XRECORD
  5
303E
102
{ACAD_REACTORS
330
303D
102
}
100
AcDbXrecord
102
SHADEPLOT
 70
     0
102
SHADEPLOTRESLEVEL
 70
     2
102
SHADEPLOTCUSTOMDPI
 70
   300
  0
XRECORD
  5
303C
102
{ACAD_REACTORS
330
303B
102
}
100
AcDbXrecord
102
SHADEPLOT
 70
     0
102
SHADEPLOTRESLEVEL
 70
     2
102
SHADEPLOTCUSTOMDPI
 70
   300
  0
ENDSEC
  0
EOF
