  0
SECTION
  2
HEADER
  9
$ACADVER
  1
AC1014
  9
$ACADMAINTVER
 70
     0
  9
$DWGCODEPAGE
  3
ANSI_1252
  9
$INSBASE
 10
93.894301
 20
236.06014
 30
0.0
  9
$EXTMIN
 10
3.54006
 20
102.929829
 30
0.0
  9
$EXTMAX
 10
61.002192
 20
222.780011
 30
0.0
  9
$LIMMIN
 10
0.0
 20
0.0
  9
$LIMMAX
 10
210.0
 20
297.0
  9
$ORTHOMODE
 70
     1
  9
$REGENMODE
 70
     1
  9
$FILLMODE
 70
     1
  9
$QTEXTMODE
 70
     0
  9
$MIRRTEXT
 70
     0
  9
$DRAGMODE
 70
     1
  9
$LTSCALE
 40
7.0
  9
$OSMODE
 70
  4095
  9
$ATTMODE
 70
     1
  9
$TEXTSIZE
 40
2.5
  9
$TRACEWID
 40
0.05
  9
$TEXTSTYLE
  7
STANDARD
  9
$CLAYER
  8
COTATION1
  9
$CELTYPE
  6
BYLAYER
  9
$CECOLOR
 62
   256
  9
$CELTSCALE
 40
1.0
  9
$DELOBJ
 70
     1
  9
$DISPSILH
 70
     0
  9
$DIMSCALE
 40
1.0
  9
$DIMASZ
 40
3.0
  9
$DIMEXO
 40
0.0625
  9
$DIMDLI
 40
0.38
  9
$DIMRND
 40
0.01
  9
$DIMDLE
 40
0.0
  9
$DIMEXE
 40
0.18
  9
$DIMTP
 40
0.0
  9
$DIMTM
 40
0.0
  9
$DIMTXT
 40
2.5
  9
$DIMCEN
 40
0.09
  9
$DIMTSZ
 40
0.0
  9
$DIMTOL
 70
     0
  9
$DIMLIM
 70
     0
  9
$DIMTIH
 70
     0
  9
$DIMTOH
 70
     0
  9
$DIMSE1
 70
     0
  9
$DIMSE2
 70
     0
  9
$DIMTAD
 70
     1
  9
$DIMZIN
 70
    12
  9
$DIMBLK
  1

  9
$DIMASO
 70
     1
  9
$DIMSHO
 70
     0
  9
$DIMPOST
  1

  9
$DIMAPOST
  1

  9
$DIMALT
 70
     0
  9
$DIMALTD
 70
     2
  9
$DIMALTF
 40
25.4
  9
$DIMLFAC
 40
1.0
  9
$DIMTOFL
 70
     1
  9
$DIMTVP
 40
0.0
  9
$DIMTIX
 70
     0
  9
$DIMSOXD
 70
     0
  9
$DIMSAH
 70
     0
  9
$DIMBLK1
  1

  9
$DIMBLK2
  1

  9
$DIMSTYLE
  2
SC_STAND
  9
$DIMCLRD
 70
     0
  9
$DIMCLRE
 70
     0
  9
$DIMCLRT
 70
     0
  9
$DIMTFAC
 40
1.0
  9
$DIMGAP
 40
1.0
  9
$DIMJUST
 70
     0
  9
$DIMSD1
 70
     0
  9
$DIMSD2
 70
     0
  9
$DIMTOLJ
 70
     1
  9
$DIMTZIN
 70
    12
  9
$DIMALTZ
 70
    12
  9
$DIMALTTZ
 70
    12
  9
$DIMFIT
 70
     5
  9
$DIMUPT
 70
     0
  9
$DIMUNIT
 70
     2
  9
$DIMDEC
 70
     3
  9
$DIMTDEC
 70
     3
  9
$DIMALTU
 70
     2
  9
$DIMALTTD
 70
     2
  9
$DIMTXSTY
  7
STANDARD
  9
$DIMAUNIT
 70
     0
  9
$LUNITS
 70
     2
  9
$LUPREC
 70
     3
  9
$SKETCHINC
 40
0.1
  9
$FILLETRAD
 40
0.0625
  9
$AUNITS
 70
     0
  9
$AUPREC
 70
     0
  9
$MENU
  1
ACAD
  9
$ELEVATION
 40
0.0
  9
$PELEVATION
 40
0.0
  9
$THICKNESS
 40
0.0
  9
$LIMCHECK
 70
     0
  9
$BLIPMODE
 70
     1
  9
$CHAMFERA
 40
0.0
  9
$CHAMFERB
 40
0.0
  9
$CHAMFERC
 40
0.0
  9
$CHAMFERD
 40
0.0
  9
$SKPOLY
 70
     0
  9
$TDCREATE
 40
2450953.590960648
  9
$TDUPDATE
 40
2453109.716101157
  9
$TDINDWG
 40
0.0036493403
  9
$TDUSRTIMER
 40
0.0036493403
  9
$USRTIMER
 70
     1
  9
$ANGBASE
 50
0.0
  9
$ANGDIR
 70
     0
  9
$PDMODE
 70
     0
  9
$PDSIZE
 40
0.0
  9
$PLINEWID
 40
0.0
  9
$COORDS
 70
     0
  9
$SPLFRAME
 70
     0
  9
$SPLINETYPE
 70
     6
  9
$SPLINESEGS
 70
     8
  9
$ATTDIA
 70
     0
  9
$ATTREQ
 70
     1
  9
$HANDLING
 70
     1
  9
$HANDSEED
  5
A86
  9
$SURFTAB1
 70
     6
  9
$SURFTAB2
 70
     6
  9
$SURFTYPE
 70
     6
  9
$SURFU
 70
     6
  9
$SURFV
 70
     6
  9
$UCSNAME
  2

  9
$UCSORG
 10
0.0
 20
0.0
 30
0.0
  9
$UCSXDIR
 10
1.0
 20
0.0
 30
0.0
  9
$UCSYDIR
 10
0.0
 20
1.0
 30
0.0
  9
$PUCSNAME
  2

  9
$PUCSORG
 10
0.0
 20
0.0
 30
0.0
  9
$PUCSXDIR
 10
1.0
 20
0.0
 30
0.0
  9
$PUCSYDIR
 10
0.0
 20
1.0
 30
0.0
  9
$USERI1
 70
     0
  9
$USERI2
 70
     0
  9
$USERI3
 70
     0
  9
$USERI4
 70
     0
  9
$USERI5
 70
     0
  9
$USERR1
 40
0.0
  9
$USERR2
 40
0.0
  9
$USERR3
 40
0.0
  9
$USERR4
 40
0.0
  9
$USERR5
 40
0.0
  9
$WORLDVIEW
 70
     1
  9
$SHADEDGE
 70
     3
  9
$SHADEDIF
 70
    70
  9
$TILEMODE
 70
     1
  9
$MAXACTVP
 70
    32
  9
$PINSBASE
 10
0.0
 20
0.0
 30
0.0
  9
$PLIMCHECK
 70
     0
  9
$PEXTMIN
 10
-3.174999
 20
-3.175
 30
0.0
  9
$PEXTMAX
 10
203.812116
 20
370.276807
 30
0.0
  9
$PLIMMIN
 10
-3.175
 20
-3.175
  9
$PLIMMAX
 10
203.812115
 20
370.276807
  9
$UNITMODE
 70
     0
  9
$VISRETAIN
 70
     0
  9
$PLINEGEN
 70
     0
  9
$PSLTSCALE
 70
     1
  9
$TREEDEPTH
 70
  3020
  9
$PICKSTYLE
 70
     1
  9
$CMLSTYLE
  2
STANDARD
  9
$CMLJUST
 70
     0
  9
$CMLSCALE
 40
1.0
  9
$PROXYGRAPHICS
 70
     1
  9
$MEASUREMENT
 70
     0
  0
ENDSEC
  0
SECTION
  2
CLASSES
  0
CLASS
  1
DICTIONARYVAR
  2
AcDbDictionaryVar
  3
"AutoCAD"
 90
        0
280
     0
281
     0
  0
CLASS
  1
HATCH
  2
AcDbHatch
  3
"ACAD_SEDONA"
 90
        0
280
     0
281
     1
  0
ENDSEC
  0
SECTION
  2
TABLES
  0
TABLE
  2
VPORT
  5
F4
100
AcDbSymbolTable
 70
     1
  0
VPORT
  5
A82
100
AcDbSymbolTableRecord
100
AcDbViewportTableRecord
  2
*ACTIVE
 70
     0
 10
0.0
 20
0.0
 11
1.0
 21
1.0
 12
32.269364
 22
162.854668
 13
0.0
 23
0.0
 14
1.0
 24
1.0
 15
10.0
 25
10.0
 16
0.0
 26
0.0
 36
1.0
 17
0.0
 27
0.0
 37
0.0
 40
120.800925
 41
1.446134
 42
50.0
 43
0.0
 44
0.0
 50
0.0
 51
0.0
 71
     0
 72
   100
 73
     1
 74
     1
 75
     0
 76
     1
 77
     0
 78
     0
  0
ENDTAB
  0
TABLE
  2
LTYPE
  5
F1
100
AcDbSymbolTable
 70
     5
  0
LTYPE
  5
FD
100
AcDbSymbolTableRecord
100
AcDbLinetypeTableRecord
  2
BYBLOCK
 70
     0
  3

 72
    65
 73
     0
 40
0.0
  0
LTYPE
  5
FE
100
AcDbSymbolTableRecord
100
AcDbLinetypeTableRecord
  2
BYLAYER
 70
     0
  3

 72
    65
 73
     0
 40
0.0
  0
LTYPE
  5
FF
100
AcDbSymbolTableRecord
100
AcDbLinetypeTableRecord
  2
CONTINUOUS
 70
     0
  3
Solid line
 72
    65
 73
     0
 40
0.0
  0
LTYPE
  5
110
100
AcDbSymbolTableRecord
100
AcDbLinetypeTableRecord
  2
CACHE
 70
     0
  3
__ __ __ __ __ __ __ __ __ __ __ __ __ __ __ __
 72
    65
 73
     2
 40
0.375
 49
0.25
 74
     0
 49
-0.125
 74
     0
  0
LTYPE
  5
112
100
AcDbSymbolTableRecord
100
AcDbLinetypeTableRecord
  2
AXES2
 70
     0
  3
___ _ ___ _ ___ _ ___ _ ___ _ ___ _ ___ _ ___ _
 72
    65
 73
     4
 40
1.125
 49
0.75
 74
     0
 49
-0.125
 74
     0
 49
0.125
 74
     0
 49
-0.125
 74
     0
  0
LTYPE
  5
120
100
AcDbSymbolTableRecord
100
AcDbLinetypeTableRecord
  2
CACHE2
 70
     0
  3
_ _ _ _ _ _ _ _ _ _ _ _ _ _ _ _ _ _ _ _ _ _ _ _
 72
    65
 73
     2
 40
0.1875
 49
0.125
 74
     0
 49
-0.0625
 74
     0
  0
LTYPE
  5
121
100
AcDbSymbolTableRecord
100
AcDbLinetypeTableRecord
  2
CACHEX2
 70
     0
  3
____ ____ ____ ____ ____ ____ ____ ____ ____ __
 72
    65
 73
     2
 40
0.75
 49
0.5
 74
     0
 49
-0.25
 74
     0
  0
ENDTAB
  0
TABLE
  2
LAYER
  5
EE
100
AcDbSymbolTable
 70
     6
  0
LAYER
  5
FA
100
AcDbSymbolTableRecord
100
AcDbLayerTableRecord
  2
0
 70
     0
 62
     7
  6
CONTINUOUS
  0
LAYER
  5
12C
100
AcDbSymbolTableRecord
100
AcDbLayerTableRecord
  2
ALPHA
 70
     0
 62
   255
  6
CONTINUOUS
  0
LAYER
  5
12F
100
AcDbSymbolTableRecord
100
AcDbLayerTableRecord
  2
COTATION1
 70
     0
 62
     2
  6
CONTINUOUS
  0
LAYER
  5
13B
100
AcDbSymbolTableRecord
100
AcDbLayerTableRecord
  2
ASHADE
 70
     0
 62
     7
  6
CONTINUOUS
  0
LAYER
  5
13E
100
AcDbSymbolTableRecord
100
AcDbLayerTableRecord
  2
DEFPOINTS
 70
     0
 62
     7
  6
CONTINUOUS
  0
LAYER
  5
59C
100
AcDbSymbolTableRecord
100
AcDbLayerTableRecord
  2
COTE_CONST
 70
     0
 62
     7
  6
CONTINUOUS
  0
ENDTAB
  0
TABLE
  2
STYLE
  5
EF
100
AcDbSymbolTable
 70
     2
  0
STYLE
  5
FB
100
AcDbSymbolTableRecord
100
AcDbTextStyleTableRecord
  2
STANDARD
 70
     0
 40
0.0
 41
1.0
 50
0.0
 71
     0
 42
2.5
  3
txt
  4

  0
STYLE
  5
386
100
AcDbSymbolTableRecord
100
AcDbTextStyleTableRecord
  2
STD
 70
     0
 40
0.0
 41
1.0
 50
0.0
 71
     0
 42
0.0
  3
txt
  4

  0
ENDTAB
  0
TABLE
  2
VIEW
  5
F2
100
AcDbSymbolTable
 70
     0
  0
ENDTAB
  0
TABLE
  2
UCS
  5
F3
100
AcDbSymbolTable
 70
     0
  0
ENDTAB
  0
TABLE
  2
APPID
  5
F5
100
AcDbSymbolTable
 70
     3
  0
APPID
  5
FC
100
AcDbSymbolTableRecord
100
AcDbRegAppTableRecord
  2
ACAD
 70
     0
  0
APPID
  5
127
100
AcDbSymbolTableRecord
100
AcDbRegAppTableRecord
  2
AVE_RENDER
 70
     0
  0
APPID
  5
128
100
AcDbSymbolTableRecord
100
AcDbRegAppTableRecord
  2
AVE_MATERIAL
 70
     0
  0
ENDTAB
  0
TABLE
  2
DIMSTYLE
  5
F6
100
AcDbSymbolTable
 70
     2
  0
DIMSTYLE
105
129
100
AcDbSymbolTableRecord
100
AcDbDimStyleTableRecord
  2
STANDARD
 70
     0
  3

  4

  5

  6

  7

 40
1.0
 41
0.18
 42
0.0625
 43
0.38
 44
0.18
 45
0.0
 46
0.0
 47
0.0
 48
0.0
140
0.18
141
0.09
142
0.0
143
25.4
144
1.0
145
0.0
146
1.0
147
0.09
 71
     0
 72
     0
 73
     1
 74
     1
 75
     0
 76
     0
 77
     0
 78
     0
170
     0
171
     2
172
     0
173
     0
174
     0
175
     0
176
     0
177
     0
178
     0
270
     2
271
     3
272
     3
273
     2
274
     2
340
FB
275
     0
280
     0
281
     0
282
     0
283
     1
284
    12
285
    12
286
    12
287
     5
288
     0
  0
DIMSTYLE
105
12A
100
AcDbSymbolTableRecord
100
AcDbDimStyleTableRecord
  2
SC_STAND
 70
     0
  3

  4

  5

  6

  7

 40
1.0
 41
3.0
 42
0.0625
 43
0.38
 44
0.18
 45
0.01
 46
0.0
 47
0.0
 48
0.0
140
2.5
141
0.09
142
0.0
143
25.4
144
1.0
145
0.0
146
1.0
147
1.0
 71
     0
 72
     0
 73
     0
 74
     0
 75
     0
 76
     0
 77
     1
 78
    12
170
     0
171
     2
172
     1
173
     0
174
     0
175
     0
176
     0
177
     0
178
     0
270
     2
271
     3
272
     3
273
     2
274
     2
340
FB
275
     0
280
     0
281
     0
282
     0
283
     1
284
    12
285
    12
286
    12
287
     5
288
     0
  0
ENDTAB
  0
TABLE
  2
BLOCK_RECORD
  5
ED
100
AcDbSymbolTable
 70
     9
  0
BLOCK_RECORD
  5
103
100
AcDbSymbolTableRecord
100
AcDbBlockTableRecord
  2
*MODEL_SPACE
  0
BLOCK_RECORD
  5
100
100
AcDbSymbolTableRecord
100
AcDbBlockTableRecord
  2
*PAPER_SPACE
  0
BLOCK_RECORD
  5
108
100
AcDbSymbolTableRecord
100
AcDbBlockTableRecord
  2
AVE_RENDER
  0
BLOCK_RECORD
  5
109
100
AcDbSymbolTableRecord
100
AcDbBlockTableRecord
  2
AVE_GLOBAL
  0
BLOCK_RECORD
  5
10A
100
AcDbSymbolTableRecord
100
AcDbBlockTableRecord
  2
SCH_IS
  0
BLOCK_RECORD
  5
14D
100
AcDbSymbolTableRecord
100
AcDbBlockTableRecord
  2
AI9-BLK1
  0
BLOCK_RECORD
  5
37A
100
AcDbSymbolTableRecord
100
AcDbBlockTableRecord
  2
AI9-BLK7
  0
BLOCK_RECORD
  5
37E
100
AcDbSymbolTableRecord
100
AcDbBlockTableRecord
  2
AI9-BLK8
  0
BLOCK_RECORD
  5
382
100
AcDbSymbolTableRecord
100
AcDbBlockTableRecord
  2
AI9-BLK9
  0
BLOCK_RECORD
  5
A47
100
AcDbSymbolTableRecord
100
AcDbBlockTableRecord
  2
*D8
  0
ENDTAB
  0
ENDSEC
  0
SECTION
  2
BLOCKS
  0
BLOCK
  5
141
100
AcDbEntity
  8
0
100
AcDbBlockBegin
  2
*MODEL_SPACE
 70
     0
 10
0.0
 20
0.0
 30
0.0
  3
*MODEL_SPACE
  1

  0
ENDBLK
  5
142
100
AcDbEntity
  8
0
100
AcDbBlockEnd
  0
BLOCK
  5
13F
100
AcDbEntity
 67
     1
  8
0
100
AcDbBlockBegin
  2
*PAPER_SPACE
 70
     0
 10
0.0
 20
0.0
 30
0.0
  3
*PAPER_SPACE
  1

  0
ENDBLK
  5
140
100
AcDbEntity
 67
     1
  8
0
100
AcDbBlockEnd
  0
BLOCK
  5
8D
100
AcDbEntity
  8
0
100
AcDbBlockBegin
  2
AVE_RENDER
 70
     0
 10
0.0
 20
0.0
 30
0.0
  3
AVE_RENDER
  1
AVE_RENDER
  0
ENDBLK
  5
8E
100
AcDbEntity
  8
0
100
AcDbBlockEnd
  0
BLOCK
  5
90
100
AcDbEntity
  8
0
100
AcDbBlockBegin
  2
AVE_GLOBAL
 70
     0
 10
0.0
 20
0.0
 30
0.0
  3
AVE_GLOBAL
  1
AVE_GLOBAL
  0
ENDBLK
  5
91
100
AcDbEntity
  8
0
100
AcDbBlockEnd
  0
BLOCK
  5
C9
100
AcDbEntity
  8
0
100
AcDbBlockBegin
  2
SCH_IS
 70
     0
 10
0.0
 20
0.0
 30
0.0
  3
SCH_IS
  1

  0
INSERT
  5
C0
100
AcDbEntity
  8
ASHADE
 62
     1
100
AcDbBlockReference
  2
AVE_RENDER
 10
0.0
 20
0.0
 30
0.0
1001
AVE_RENDER
1002
{
1070
     6
1000
Pref
1070
    50
1070
    20
1070
     1
1070
     0
1000

1070
    10
1070
     1
1070
    30
1040
25.4
1070
     1
1040
0.3
1040
0.7
1040
0.0
1040
10.0
1010
-1.0
1020
-1.0
1030
-1.0
1040
0.3
1070
    49
1070
     0
1070
     0
1010
1.0
1020
1.0
1030
1.0
1040
45.0
1070
     1
1070
     0
1000
WCS
1040
0.0
1002
}
  0
INSERT
  5
C1
100
AcDbEntity
  8
ASHADE
 62
     3
100
AcDbBlockReference
  2
AVE_RENDER
 10
0.0
 20
0.0
 30
0.0
1001
AVE_RENDER
1002
{
1070
     0
1000
Full Opt
1070
     0
1070
     1
1070
     1
1070
     1
1070
     0
1070
     0
1070
     0
1070
     1
1070
     1
1040
0.0001
1040
0.0001
1002
}
  0
INSERT
  5
C2
100
AcDbEntity
  8
ASHADE
 62
     4
100
AcDbBlockReference
  2
AVE_RENDER
 10
0.0
 20
0.0
 30
0.0
1001
AVE_RENDER
1002
{
1070
     0
1000
Quick Opt
1070
     0
1070
     1
1070
     1
1070
     1
1070
     0
1070
     0
1070
     1
1002
}
  0
INSERT
  5
C3
100
AcDbEntity
  8
ASHADE
 62
     5
100
AcDbBlockReference
  2
AVE_RENDER
 10
0.0
 20
0.0
 30
0.0
1001
AVE_RENDER
1002
{
1070
     1
1000
Scanl Opt
1070
     2
1070
     0
1070
     2
1040
2.0
1040
4.0
1070
     0
1070
     1
1070
     0
1040
0.03
1002
}
  0
INSERT
  5
C4
100
AcDbEntity
  8
ASHADE
 62
     6
100
AcDbBlockReference
  2
AVE_RENDER
 10
0.0
 20
0.0
 30
0.0
1001
AVE_RENDER
1002
{
1070
     2
1000
Raytr Opt
1070
     2
1070
     0
1070
     2
1040
2.0
1040
4.0
1070
     0
1070
     1
1070
     1
1040
0.03
1070
     3
1040
0.03
1002
}
  0
INSERT
  5
C5
100
AcDbEntity
  8
ASHADE
 62
     7
100
AcDbBlockReference
  2
AVE_RENDER
 10
0.0
 20
0.0
 30
0.0
1001
AVE_RENDER
1002
{
1070
     0
1000
RFile Opt
1070
     5
1070
   640
1070
   480
1070
 10000
1070
     3
1070
    32
1070
    24
1070
     0
1070
     0
1070
     0
1070
     1
1070
     0
1070
     0
1070
     0
1002
}
  0
INSERT
  5
C6
100
AcDbEntity
  8
ASHADE
 62
     8
100
AcDbBlockReference
  2
AVE_RENDER
 10
0.0
 20
0.0
 30
0.0
1001
AVE_RENDER
1002
{
1070
     0
1000
Fog Opt
1070
     0
1070
     0
1040
0.0
1040
1.0
1040
0.0
1040
1.0
1010
0.5
1020
0.5
1030
0.5
1002
}
  0
INSERT
  5
C7
100
AcDbEntity
  8
ASHADE
 62
     9
100
AcDbBlockReference
  2
AVE_RENDER
 10
0.0
 20
0.0
 30
0.0
1001
AVE_RENDER
1002
{
1070
     0
1000
BG Opt
1070
     0
1070
     1
1010
0.0
1020
0.0
1030
0.0
1010
1.0
1020
0.0
1030
0.0
1010
0.0
1020
1.0
1030
0.0
1010
0.0
1020
0.0
1030
1.0
1040
0.5
1040
0.33
1040
0.0
1000

1070
     1
1000

1070
     1
1070
     1
1040
1.0
1040
1.0
1040
0.0
1040
0.0
1070
     0
1002
}
  0
INSERT
  5
C8
100
AcDbEntity
  8
ASHADE
 62
     1
100
AcDbBlockReference
  2
AVE_GLOBAL
 10
0.0
 20
0.0
 30
0.0
1001
AVE_MATERIAL
1002
{
1000
*GLOBAL*
1000
1
1000
Finition globale.
1002
{
1002
}
1002
{
1070
    63
1002
{
1002
{
1010
-1.0
1020
-1.0
1030
-1.0
1002
}
1040
0.1
1000

1040
0.0
1002
{
1002
}
1040
0.0
1002
{
1002
}
1040
0.0
1002
}
1002
{
1002
{
1010
-1.0
1020
-1.0
1030
-1.0
1002
}
1040
0.7
1000

1040
0.0
1002
{
1002
}
1040
0.0
1002
{
1002
}
1040
0.0
1002
}
1002
{
1002
{
1010
-1.0
1020
-1.0
1030
-1.0
1002
}
1040
0.2
1000

1040
0.0
1002
{
1002
}
1040
0.0
1002
{
1002
}
1040
0.0
1002
}
1002
{
1070
     0
1002
{
1070
     1
1002
{
1040
1.0
1040
1.0
1000

1040
0.0
1002
{
1002
}
1040
0.0
1002
{
1002
}
1040
0.0
1002
}
1002
}
1040
1.0
1040
0.0
1040
0.0
1002
}
1002
{
1040
1.0
1040
1.0
1000

1040
0.0
1002
{
1002
}
1040
0.0
1002
{
1002
}
1040
0.0
1002
}
1002
{
1040
0.5
1040
1.0
1000

1040
0.0
1002
{
1002
}
1040
0.0
1002
{
1002
}
1040
0.0
1002
}
1002
{
1070
     0
1040
0.0
1002
{
1002
}
1040
1.0
1002
{
1002
}
1040
0.0
1002
}
1002
{
1040
0.0
1002
{
1002
{
1010
0.0
1020
0.0
1030
0.0
1002
}
1040
1.0
1000

1040
0.0
1002
{
1002
}
1040
0.0
1002
{
1002
}
1040
0.0
1002
}
1002
}
1002
{
1002
{
1070
     1
1002
{
1040
0.0
1040
1.0
1000

1040
0.0
1002
{
1002
}
1040
0.0
1002
{
1002
}
1040
0.0
1002
}
1002
}
1040
0.0
1002
{
1002
}
1010
1.0
1020
0.0
1030
0.0
1010
0.0
1020
1.0
1030
0.0
1010
0.0
1020
0.0
1030
1.0
1070
     0
1002
}
1002
{
1002
{
1040
1.0
1040
1.0
1002
{
1070
     1
1002
{
1040
1.0
1040
1.0
1000

1040
0.0
1002
{
1002
}
1040
0.0
1002
{
1002
}
1040
0.0
1002
}
1002
}
1002
}
1070
     0
1040
0.0
1002
{
1002
}
1002
}
1002
{
1002
}
1002
}
1002
{
1071
        3
1070
     3
1070
     0
1002
{
1070
     2
1070
     0
1070
     0
1040
0.0
1002
}
1070
     0
1070
     2
1002
{
1002
}
1002
}
1002
{
1040
8030.0
1040
190.300003
1040
0.305
1040
228.0
1040
545.0
1040
14.0
1040
17.4
1040
0.456
1002
}
1002
}
  0
ENDBLK
  5
CA
100
AcDbEntity
  8
0
100
AcDbBlockEnd
  0
BLOCK
  5
232
100
AcDbEntity
  8
ALPHA
 62
     7
100
AcDbBlockBegin
  2
AI9-BLK1
 70
     0
 10
0.0
 20
0.0
 30
0.0
  3
AI9-BLK1
  1

  0
SPLINE
  5
14E
100
AcDbEntity
  8
ALPHA
 62
     7
100
AcDbSpline
210
0.0
220
0.0
230
-1.0
 70
    11
 71
     3
 72
    29
 73
    25
 74
     0
 42
0.0000001
 43
0.0000001
 40
0.0
 40
0.0
 40
0.0
 40
0.0
 40
1.0
 40
1.0
 40
1.0
 40
2.0
 40
2.0
 40
2.0
 40
3.0
 40
3.0
 40
3.0
 40
4.0
 40
4.0
 40
4.0
 40
5.0
 40
5.0
 40
5.0
 40
6.0
 40
6.0
 40
6.0
 40
7.0
 40
7.0
 40
7.0
 40
8.0
 40
8.0
 40
8.0
 40
8.0
 10
146.0000891791449
 20
-98.25020446777344
 30
0.0
 10
146.0000891791449
 20
-99.90660637749565
 30
0.0
 10
144.6571909586588
 20
-101.2501936170789
 30
0.0
 10
143.0001000298393
 20
-101.2501936170789
 30
0.0
 10
143.0001000298393
 20
-101.2501936170789
 30
0.0
 10
-143.0000139024522
 20
-101.2501936170789
 30
0.0
 10
-143.0000139024522
 20
-101.2501936170789
 30
0.0
 10
-144.656760321723
 20
-101.2501936170789
 30
0.0
 10
-146.0000030517577
 20
-99.90660637749565
 30
0.0
 10
-146.0000030517577
 20
-98.25020446777344
 30
0.0
 10
-146.0000030517577
 20
-98.25020446777344
 30
0.0
 10
-146.0000030517577
 20
98.25011834038628
 30
0.0
 10
-146.0000030517577
 20
98.25011834038628
 30
0.0
 10
-146.0000030517577
 20
99.90686475965711
 30
0.0
 10
-144.656760321723
 20
101.2501074896918
 30
0.0
 10
-143.0000139024522
 20
101.2501074896918
 30
0.0
 10
-143.0000139024522
 20
101.2501074896918
 30
0.0
 10
143.0001000298393
 20
101.2501074896918
 30
0.0
 10
143.0001000298393
 20
101.2501074896918
 30
0.0
 10
144.6571909586588
 20
101.2501074896918
 30
0.0
 10
146.0000891791449
 20
99.90686475965711
 30
0.0
 10
146.0000891791449
 20
98.25011834038628
 30
0.0
 10
146.0000891791449
 20
98.25011834038628
 30
0.0
 10
146.0000891791449
 20
-98.25020446777344
 30
0.0
 10
146.0000891791449
 20
-98.25020446777344
 30
0.0
  0
SPLINE
  5
14F
100
AcDbEntity
  8
ALPHA
 62
     7
100
AcDbSpline
210
0.0
220
0.0
230
-1.0
 70
    11
 71
     3
 72
    29
 73
    25
 74
     0
 42
0.0000001
 43
0.0000001
 40
0.0
 40
0.0
 40
0.0
 40
0.0
 40
1.0
 40
1.0
 40
1.0
 40
2.0
 40
2.0
 40
2.0
 40
3.0
 40
3.0
 40
3.0
 40
4.0
 40
4.0
 40
4.0
 40
5.0
 40
5.0
 40
5.0
 40
6.0
 40
6.0
 40
6.0
 40
7.0
 40
7.0
 40
7.0
 40
8.0
 40
8.0
 40
8.0
 40
8.0
 10
76.18936326768663
 20
40.38818935818142
 30
0.0
 10
77.01894226074218
 20
40.38818935818142
 30
0.0
 10
77.69142489963107
 20
41.0606719970703
 30
0.0
 10
77.69142489963107
 20
41.88887295193142
 30
0.0
 10
77.69142489963107
 20
41.88887295193142
 30
0.0
 10
77.87056986490885
 20
67.24339769151474
 30
0.0
 10
77.87056986490885
 20
67.24339769151474
 30
0.0
 10
77.87056986490885
 20
68.0757327609592
 30
0.0
 10
77.19808722601996
 20
68.74683736165363
 30
0.0
 10
76.36437411838106
 20
68.74683736165363
 30
0.0
 10
76.36437411838106
 20
68.74683736165363
 30
0.0
 10
-76.01202697753905
 20
68.92460428873697
 30
0.0
 10
-76.01202697753905
 20
68.92460428873697
 30
0.0
 10
-76.84022793240017
 20
68.92460428873697
 30
0.0
 10
-77.51271057128906
 20
68.25074361165363
 30
0.0
 10
-77.51271057128906
 20
67.42116461859808
 30
0.0
 10
-77.51271057128906
 20
67.42116461859808
 30
0.0
 10
-77.69185553656683
 20
41.88887295193142
 30
0.0
 10
-77.69185553656683
 20
41.88887295193142
 30
0.0
 10
-77.69185553656683
 20
41.0606719970703
 30
0.0
 10
-77.01937289767794
 20
40.38818935818142
 30
0.0
 10
-76.1870378282335
 20
40.38818935818142
 30
0.0
 10
-76.1870378282335
 20
40.38818935818142
 30
0.0
 10
76.18936326768663
 20
40.38818935818142
 30
0.0
 10
76.18936326768663
 20
40.38818935818142
 30
0.0
  0
POLYLINE
  5
150
100
AcDbEntity
  8
ALPHA
 62
     7
100
AcDb2dPolyline
 66
     1
 10
0.0
 20
0.0
 30
0.0
 70
     1
  0
VERTEX
  5
151
100
AcDbEntity
  8
ALPHA
 62
     7
100
AcDbVertex
100
AcDb2dVertex
 10
77.691425
 20
-84.679973
 30
0.0
  0
VERTEX
  5
152
100
AcDbEntity
  8
ALPHA
 62
     7
100
AcDbVertex
100
AcDb2dVertex
 10
77.691425
 20
25.69279
 30
0.0
  0
VERTEX
  5
153
100
AcDbEntity
  8
ALPHA
 62
     7
100
AcDbVertex
100
AcDb2dVertex
 10
-77.691856
 20
25.69279
 30
0.0
  0
VERTEX
  5
154
100
AcDbEntity
  8
ALPHA
 62
     7
100
AcDbVertex
100
AcDb2dVertex
 10
-77.691856
 20
-84.679973
 30
0.0
  0
SEQEND
  5
155
100
AcDbEntity
  8
ALPHA
 62
     7
  0
POLYLINE
  5
156
100
AcDbEntity
  8
ALPHA
 62
     7
100
AcDb2dPolyline
 66
     1
 10
0.0
 20
0.0
 30
0.0
 70
     1
  0
VERTEX
  5
157
100
AcDbEntity
  8
ALPHA
 62
     7
100
AcDbVertex
100
AcDb2dVertex
 10
-36.28198
 20
-29.293862
 30
0.0
  0
VERTEX
  5
158
100
AcDbEntity
  8
ALPHA
 62
     7
100
AcDbVertex
100
AcDb2dVertex
 10
-41.795511
 20
-25.282393
 30
0.0
  0
VERTEX
  5
159
100
AcDbEntity
  8
ALPHA
 62
     7
100
AcDbVertex
100
AcDb2dVertex
 10
-41.795511
 20
-25.282393
 30
0.0
  0
VERTEX
  5
15A
100
AcDbEntity
  8
ALPHA
 62
     7
100
AcDbVertex
100
AcDb2dVertex
 10
-47.307664
 20
-29.293862
 30
0.0
  0
VERTEX
  5
15B
100
AcDbEntity
  8
ALPHA
 62
     7
100
AcDbVertex
100
AcDb2dVertex
 10
-44.558477
 20
-29.297996
 30
0.0
  0
VERTEX
  5
15C
100
AcDbEntity
  8
ALPHA
 62
     7
100
AcDbVertex
100
AcDb2dVertex
 10
-44.558477
 20
-32.304876
 30
0.0
  0
VERTEX
  5
15D
100
AcDbEntity
  8
ALPHA
 62
     7
100
AcDbVertex
100
AcDb2dVertex
 10
-39.046325
 20
-32.304876
 30
0.0
  0
VERTEX
  5
15E
100
AcDbEntity
  8
ALPHA
 62
     7
100
AcDbVertex
100
AcDb2dVertex
 10
-39.046325
 20
-29.297996
 30
0.0
  0
SEQEND
  5
15F
100
AcDbEntity
  8
ALPHA
 62
     7
  0
POLYLINE
  5
160
100
AcDbEntity
  8
ALPHA
 62
     7
100
AcDb2dPolyline
 66
     1
 10
0.0
 20
0.0
 30
0.0
 70
     1
  0
VERTEX
  5
161
100
AcDbEntity
  8
ALPHA
 62
     7
100
AcDbVertex
100
AcDb2dVertex
 10
-23.222312
 20
-53.379214
 30
0.0
  0
VERTEX
  5
162
100
AcDbEntity
  8
ALPHA
 62
     7
100
AcDbVertex
100
AcDb2dVertex
 10
-19.210843
 20
-47.865683
 30
0.0
  0
VERTEX
  5
163
100
AcDbEntity
  8
ALPHA
 62
     7
100
AcDbVertex
100
AcDb2dVertex
 10
-19.210843
 20
-47.865683
 30
0.0
  0
VERTEX
  5
164
100
AcDbEntity
  8
ALPHA
 62
     7
100
AcDbVertex
100
AcDb2dVertex
 10
-23.222312
 20
-42.349396
 30
0.0
  0
VERTEX
  5
165
100
AcDbEntity
  8
ALPHA
 62
     7
100
AcDbVertex
100
AcDb2dVertex
 10
-23.231958
 20
-45.102716
 30
0.0
  0
VERTEX
  5
166
100
AcDbEntity
  8
ALPHA
 62
     7
100
AcDbVertex
100
AcDb2dVertex
 10
-26.238838
 20
-45.102716
 30
0.0
  0
VERTEX
  5
167
100
AcDbEntity
  8
ALPHA
 62
     7
100
AcDbVertex
100
AcDb2dVertex
 10
-26.238838
 20
-50.614869
 30
0.0
  0
VERTEX
  5
168
100
AcDbEntity
  8
ALPHA
 62
     7
100
AcDbVertex
100
AcDb2dVertex
 10
-23.231958
 20
-50.614869
 30
0.0
  0
SEQEND
  5
169
100
AcDbEntity
  8
ALPHA
 62
     7
  0
POLYLINE
  5
16A
100
AcDbEntity
  8
ALPHA
 62
     7
100
AcDb2dPolyline
 66
     1
 10
0.0
 20
0.0
 30
0.0
 70
     1
  0
VERTEX
  5
16B
100
AcDbEntity
  8
ALPHA
 62
     7
100
AcDbVertex
100
AcDb2dVertex
 10
-60.367159
 20
-42.349396
 30
0.0
  0
VERTEX
  5
16C
100
AcDbEntity
  8
ALPHA
 62
     7
100
AcDbVertex
100
AcDb2dVertex
 10
-64.378629
 20
-47.865683
 30
0.0
  0
VERTEX
  5
16D
100
AcDbEntity
  8
ALPHA
 62
     7
100
AcDbVertex
100
AcDb2dVertex
 10
-64.378629
 20
-47.865683
 30
0.0
  0
VERTEX
  5
16E
100
AcDbEntity
  8
ALPHA
 62
     7
100
AcDbVertex
100
AcDb2dVertex
 10
-60.367159
 20
-53.379214
 30
0.0
  0
VERTEX
  5
16F
100
AcDbEntity
  8
ALPHA
 62
     7
100
AcDbVertex
100
AcDb2dVertex
 10
-60.363025
 20
-50.62865
 30
0.0
  0
VERTEX
  5
170
100
AcDbEntity
  8
ALPHA
 62
     7
100
AcDbVertex
100
AcDb2dVertex
 10
-57.356146
 20
-50.62865
 30
0.0
  0
VERTEX
  5
171
100
AcDbEntity
  8
ALPHA
 62
     7
100
AcDbVertex
100
AcDb2dVertex
 10
-57.356146
 20
-45.112363
 30
0.0
  0
VERTEX
  5
172
100
AcDbEntity
  8
ALPHA
 62
     7
100
AcDbVertex
100
AcDb2dVertex
 10
-60.363025
 20
-45.112363
 30
0.0
  0
SEQEND
  5
173
100
AcDbEntity
  8
ALPHA
 62
     7
  0
POLYLINE
  5
174
100
AcDbEntity
  8
ALPHA
 62
     7
100
AcDb2dPolyline
 66
     1
 10
0.0
 20
0.0
 30
0.0
 70
     1
  0
VERTEX
  5
175
100
AcDbEntity
  8
ALPHA
 62
     7
100
AcDbVertex
100
AcDb2dVertex
 10
-47.307664
 20
-66.438882
 30
0.0
  0
VERTEX
  5
176
100
AcDbEntity
  8
ALPHA
 62
     7
100
AcDbVertex
100
AcDb2dVertex
 10
-41.795511
 20
-70.444839
 30
0.0
  0
VERTEX
  5
177
100
AcDbEntity
  8
ALPHA
 62
     7
100
AcDbVertex
100
AcDb2dVertex
 10
-41.795511
 20
-70.444839
 30
0.0
  0
VERTEX
  5
178
100
AcDbEntity
  8
ALPHA
 62
     7
100
AcDbVertex
100
AcDb2dVertex
 10
-36.28198
 20
-66.438882
 30
0.0
  0
VERTEX
  5
179
100
AcDbEntity
  8
ALPHA
 62
     7
100
AcDbVertex
100
AcDb2dVertex
 10
-39.032544
 20
-66.429236
 30
0.0
  0
VERTEX
  5
17A
100
AcDbEntity
  8
ALPHA
 62
     7
100
AcDbVertex
100
AcDb2dVertex
 10
-39.032544
 20
-63.422356
 30
0.0
  0
VERTEX
  5
17B
100
AcDbEntity
  8
ALPHA
 62
     7
100
AcDbVertex
100
AcDb2dVertex
 10
-44.544697
 20
-63.422356
 30
0.0
  0
VERTEX
  5
17C
100
AcDbEntity
  8
ALPHA
 62
     7
100
AcDbVertex
100
AcDb2dVertex
 10
-44.544697
 20
-66.429236
 30
0.0
  0
SEQEND
  5
17D
100
AcDbEntity
  8
ALPHA
 62
     7
  0
SPLINE
  5
17E
100
AcDbEntity
  8
ALPHA
 62
     7
100
AcDbSpline
210
0.0
220
0.0
230
-1.0
 70
     8
 71
     3
 72
    17
 73
    13
 74
     0
 42
0.0000001
 43
0.0000001
 40
0.0
 40
0.0
 40
0.0
 40
0.0
 40
1.0
 40
1.0
 40
1.0
 40
2.0
 40
2.0
 40
2.0
 40
3.0
 40
3.0
 40
3.0
 40
4.0
 40
4.0
 40
4.0
 40
4.0
 10
-48.39906989203559
 20
-38.33792690700954
 30
0.0
 10
-48.39906989203559
 20
-38.33792690700954
 30
0.0
 10
-48.39906989203559
 20
-34.95759921603732
 30
0.0
 10
-48.39906989203559
 20
-34.95759921603732
 30
0.0
 10
-48.39906989203559
 20
-34.95759921603732
 30
0.0
 10
-48.40320400661892
 20
-34.95346510145399
 30
0.0
 10
-48.40320400661892
 20
-34.95346510145399
 30
0.0
 10
-49.89975348578559
 20
-33.34667256673176
 30
0.0
 10
-50.81614888509114
 20
-31.18590867784288
 30
0.0
 10
-50.81614888509114
 20
-28.81017083062065
 30
0.0
 10
-50.81614888509114
 20
-24.42525329589843
 30
0.0
 10
-47.6893802218967
 20
-20.76931796603732
 30
0.0
 10
-43.54010721842447
 20
-19.95903150770399
 30
0.0
  0
SPLINE
  5
17F
100
AcDbEntity
  8
ALPHA
 62
     7
100
AcDbSpline
210
0.0
220
0.0
230
1.0
 70
     8
 71
     3
 72
    17
 73
    13
 74
     0
 42
0.0000001
 43
0.0000001
 40
0.0
 40
0.0
 40
0.0
 40
0.0
 40
1.0
 40
1.0
 40
1.0
 40
2.0
 40
2.0
 40
2.0
 40
3.0
 40
3.0
 40
3.0
 40
4.0
 40
4.0
 40
4.0
 40
4.0
 10
-40.0495364718967
 20
-19.95903150770399
 30
0.0
 10
-35.9043975830078
 20
-20.76931796603732
 30
0.0
 10
-32.77349480523003
 20
-24.42525329589843
 30
0.0
 10
-32.77349480523003
 20
-28.81017083062065
 30
0.0
 10
-32.77349480523003
 20
-31.28237135145399
 30
0.0
 10
-33.76292622884114
 20
-33.51617126464843
 30
0.0
 10
-35.37109680175781
 20
-35.14639044867621
 30
0.0
 10
-35.37109680175781
 20
-35.14639044867621
 30
0.0
 10
-35.36558464898003
 20
-35.15603671603732
 30
0.0
 10
-35.36558464898003
 20
-35.15603671603732
 30
0.0
 10
-35.36558464898003
 20
-35.15603671603732
 30
0.0
 10
-35.36558464898003
 20
-38.33792690700954
 30
0.0
 10
-35.36558464898003
 20
-38.33792690700954
 30
0.0
  0
SPLINE
  5
180
100
AcDbEntity
  8
ALPHA
 62
     7
100
AcDbSpline
210
0.0
220
0.0
230
-1.0
 70
     8
 71
     3
 72
    17
 73
    13
 74
     0
 42
0.0000001
 43
0.0000001
 40
0.0
 40
0.0
 40
0.0
 40
0.0
 40
1.0
 40
1.0
 40
1.0
 40
2.0
 40
2.0
 40
2.0
 40
3.0
 40
3.0
 40
3.0
 40
4.0
 40
4.0
 40
4.0
 40
4.0
 10
-32.35870530870225
 20
-41.3503184000651
 30
0.0
 10
-32.35870530870225
 20
-41.3503184000651
 30
0.0
 10
-28.9742435031467
 20
-41.3503184000651
 30
0.0
 10
-28.9742435031467
 20
-41.3503184000651
 30
0.0
 10
-28.9742435031467
 20
-41.3503184000651
 30
0.0
 10
-28.9742435031467
 20
-41.34480624728732
 30
0.0
 10
-28.9742435031467
 20
-41.34480624728732
 30
0.0
 10
-27.3619388156467
 20
-39.84825676812065
 30
0.0
 10
-25.20255296495225
 20
-38.9318613688151
 30
0.0
 10
-22.83094923231336
 20
-38.9318613688151
 30
0.0
 10
-18.44740973578558
 20
-38.9318613688151
 30
0.0
 10
-14.79009636773003
 20
-42.05863003200954
 30
0.0
 10
-13.9798099093967
 20
-46.20790303548176
 30
0.0
  0
SPLINE
  5
181
100
AcDbEntity
  8
ALPHA
 62
     7
100
AcDbSpline
210
0.0
220
0.0
230
1.0
 70
     8
 71
     3
 72
    17
 73
    13
 74
     0
 42
0.0000001
 43
0.0000001
 40
0.0
 40
0.0
 40
0.0
 40
0.0
 40
1.0
 40
1.0
 40
1.0
 40
2.0
 40
2.0
 40
2.0
 40
3.0
 40
3.0
 40
3.0
 40
4.0
 40
4.0
 40
4.0
 40
4.0
 10
-13.9798099093967
 20
-49.69847378200954
 30
0.0
 10
-14.79009636773003
 20
-53.84361267089843
 30
0.0
 10
-18.44740973578558
 20
-56.97589348687065
 30
0.0
 10
-22.83094923231336
 20
-56.97589348687065
 30
0.0
 10
-25.29901563856336
 20
-56.97589348687065
 30
0.0
 10
-27.53694966634114
 20
-55.9850840250651
 30
0.0
 10
-29.16716885036892
 20
-54.37829149034287
 30
0.0
 10
-29.16716885036892
 20
-54.37829149034287
 30
0.0
 10
-29.17681511773003
 20
-54.38242560492621
 30
0.0
 10
-29.17681511773003
 20
-54.38242560492621
 30
0.0
 10
-29.17681511773003
 20
-54.38242560492621
 30
0.0
 10
-32.35870530870225
 20
-54.38242560492621
 30
0.0
 10
-32.35870530870225
 20
-54.38242560492621
 30
0.0
  0
SPLINE
  5
182
100
AcDbEntity
  8
ALPHA
 62
     7
100
AcDbSpline
210
0.0
220
0.0
230
1.0
 70
     8
 71
     3
 72
    17
 73
    13
 74
     0
 42
0.0000001
 43
0.0000001
 40
0.0
 40
0.0
 40
0.0
 40
0.0
 40
1.0
 40
1.0
 40
1.0
 40
2.0
 40
2.0
 40
2.0
 40
3.0
 40
3.0
 40
3.0
 40
4.0
 40
4.0
 40
4.0
 40
4.0
 10
-35.36558464898003
 20
-57.38930494520399
 30
0.0
 10
-35.36558464898003
 20
-57.38930494520399
 30
0.0
 10
-35.36558464898003
 20
-60.77514478895398
 30
0.0
 10
-35.36558464898003
 20
-60.77514478895398
 30
0.0
 10
-35.36558464898003
 20
-60.77514478895398
 30
0.0
 10
-35.36558464898003
 20
-60.77514478895398
 30
0.0
 10
-35.36558464898003
 20
-60.77514478895398
 30
0.0
 10
-33.86490105523003
 20
-62.38607143825954
 30
0.0
 10
-32.94850565592447
 20
-64.54683532714843
 30
0.0
 10
-32.94850565592447
 20
-66.91843905978732
 30
0.0
 10
-32.94850565592447
 20
-71.30197855631509
 30
0.0
 10
-36.07940843370225
 20
-74.95791388617622
 30
0.0
 10
-40.22868143717447
 20
-75.76957838270399
 30
0.0
  0
SPLINE
  5
183
100
AcDbEntity
  8
ALPHA
 62
     7
100
AcDbSpline
210
0.0
220
0.0
230
-1.0
 70
     8
 71
     3
 72
    17
 73
    13
 74
     0
 42
0.0000001
 43
0.0000001
 40
0.0
 40
0.0
 40
0.0
 40
0.0
 40
1.0
 40
1.0
 40
1.0
 40
2.0
 40
2.0
 40
2.0
 40
3.0
 40
3.0
 40
3.0
 40
4.0
 40
4.0
 40
4.0
 40
4.0
 10
-43.71511806911892
 20
-75.76957838270399
 30
0.0
 10
-47.86439107259114
 20
-74.95791388617622
 30
0.0
 10
-50.99667188856336
 20
-71.30197855631509
 30
0.0
 10
-50.99667188856336
 20
-66.91843905978732
 30
0.0
 10
-50.99667188856336
 20
-64.44899461534287
 30
0.0
 10
-50.00172831217447
 20
-62.2110605875651
 30
0.0
 10
-48.39493577745225
 20
-60.58084140353732
 30
0.0
 10
-48.39493577745225
 20
-60.58084140353732
 30
0.0
 10
-48.39906989203559
 20
-60.57257317437065
 30
0.0
 10
-48.39906989203559
 20
-60.57257317437065
 30
0.0
 10
-48.39906989203559
 20
-60.57257317437065
 30
0.0
 10
-48.39906989203559
 20
-57.38930494520399
 30
0.0
 10
-48.39906989203559
 20
-57.38930494520399
 30
0.0
  0
SPLINE
  5
184
100
AcDbEntity
  8
ALPHA
 62
     7
100
AcDbSpline
210
0.0
220
0.0
230
1.0
 70
     8
 71
     3
 72
    17
 73
    13
 74
     0
 42
0.0000001
 43
0.0000001
 40
0.0
 40
0.0
 40
0.0
 40
0.0
 40
1.0
 40
1.0
 40
1.0
 40
2.0
 40
2.0
 40
2.0
 40
3.0
 40
3.0
 40
3.0
 40
4.0
 40
4.0
 40
4.0
 40
4.0
 10
-51.4100833468967
 20
-54.38242560492621
 30
0.0
 10
-51.4100833468967
 20
-54.38242560492621
 30
0.0
 10
-54.79023878309462
 20
-54.38242560492621
 30
0.0
 10
-54.79023878309462
 20
-54.38242560492621
 30
0.0
 10
-54.79023878309462
 20
-54.38242560492621
 30
0.0
 10
-54.79575093587239
 20
-54.38242560492621
 30
0.0
 10
-54.79575093587239
 20
-54.38242560492621
 30
0.0
 10
-56.40254347059461
 20
-55.88448723687065
 30
0.0
 10
-58.56192932128905
 20
-56.80088263617621
 30
0.0
 10
-60.93904520670572
 20
-56.80088263617621
 30
0.0
 10
-65.3225847032335
 20
-56.80088263617621
 30
0.0
 10
-68.97989807128905
 20
-53.66860182020399
 30
0.0
 10
-69.7901845296224
 20
-49.51932881673176
 30
0.0
  0
SPLINE
  5
185
100
AcDbEntity
  8
ALPHA
 62
     7
100
AcDbSpline
210
0.0
220
0.0
230
-1.0
 70
     8
 71
     3
 72
    17
 73
    13
 74
     0
 42
0.0000001
 43
0.0000001
 40
0.0
 40
0.0
 40
0.0
 40
0.0
 40
1.0
 40
1.0
 40
1.0
 40
2.0
 40
2.0
 40
2.0
 40
3.0
 40
3.0
 40
3.0
 40
4.0
 40
4.0
 40
4.0
 40
4.0
 10
-69.7901845296224
 20
-46.03289218478732
 30
0.0
 10
-68.97989807128905
 20
-41.88361918131509
 30
0.0
 10
-65.3225847032335
 20
-38.75271640353732
 30
0.0
 10
-60.93904520670572
 20
-38.75271640353732
 30
0.0
 10
-58.46546664767794
 20
-38.75271640353732
 30
0.0
 10
-56.2316667344835
 20
-39.74765997992621
 30
0.0
 10
-54.60161980523003
 20
-41.35445251464843
 30
0.0
 10
-54.60161980523003
 20
-41.35445251464843
 30
0.0
 10
-54.59335157606336
 20
-41.3503184000651
 30
0.0
 10
-54.59335157606336
 20
-41.3503184000651
 30
0.0
 10
-54.59335157606336
 20
-41.3503184000651
 30
0.0
 10
-51.4100833468967
 20
-41.3503184000651
 30
0.0
 10
-51.4100833468967
 20
-41.3503184000651
 30
0.0
  0
SPLINE
  5
186
100
AcDbEntity
  8
ALPHA
 62
     7
100
AcDbSpline
210
0.0
220
0.0
230
-1.0
 70
    11
 71
     3
 72
    29
 73
    25
 74
     0
 42
0.0000001
 43
0.0000001
 40
0.0
 40
0.0
 40
0.0
 40
0.0
 40
1.0
 40
1.0
 40
1.0
 40
2.0
 40
2.0
 40
2.0
 40
3.0
 40
3.0
 40
3.0
 40
4.0
 40
4.0
 40
4.0
 40
5.0
 40
5.0
 40
5.0
 40
6.0
 40
6.0
 40
6.0
 40
7.0
 40
7.0
 40
7.0
 40
8.0
 40
8.0
 40
8.0
 40
8.0
 10
-16.60497266981336
 20
-72.66485833062064
 30
0.0
 10
-16.05237935384114
 20
-72.66485833062064
 30
0.0
 10
-15.60589497884114
 20
-72.21837395562065
 30
0.0
 10
-15.60589497884114
 20
-71.66578063964843
 30
0.0
 10
-15.60589497884114
 20
-71.66578063964843
 30
0.0
 10
-15.60589497884114
 20
-64.64743211534288
 30
0.0
 10
-15.60589497884114
 20
-64.64743211534288
 30
0.0
 10
-15.60589497884114
 20
-64.09483879937065
 30
0.0
 10
-16.05237935384114
 20
-63.64422030978732
 30
0.0
 10
-16.60497266981336
 20
-63.64422030978732
 30
0.0
 10
-16.60497266981336
 20
-63.64422030978732
 30
0.0
 10
-28.63386806911892
 20
-63.64422030978732
 30
0.0
 10
-28.63386806911892
 20
-63.64422030978732
 30
0.0
 10
-29.19059549967447
 20
-63.64422030978732
 30
0.0
 10
-29.63707987467447
 20
-64.09483879937065
 30
0.0
 10
-29.63707987467447
 20
-64.64743211534288
 30
0.0
 10
-29.63707987467447
 20
-64.64743211534288
 30
0.0
 10
-29.63707987467447
 20
-71.66578063964843
 30
0.0
 10
-29.63707987467447
 20
-71.66578063964843
 30
0.0
 10
-29.63707987467447
 20
-72.21837395562065
 30
0.0
 10
-29.19059549967447
 20
-72.66485833062064
 30
0.0
 10
-28.63386806911892
 20
-72.66485833062064
 30
0.0
 10
-28.63386806911892
 20
-72.66485833062064
 30
0.0
 10
-16.60497266981336
 20
-72.66485833062064
 30
0.0
 10
-16.60497266981336
 20
-72.66485833062064
 30
0.0
  0
SPLINE
  5
187
100
AcDbEntity
  8
ALPHA
 62
     7
100
AcDbSpline
210
0.0
220
0.0
230
1.0
 70
     8
 71
     3
 72
    32
 73
    28
 74
     0
 42
0.0000001
 43
0.0000001
 40
0.0
 40
0.0
 40
0.0
 40
0.0
 40
1.0
 40
1.0
 40
1.0
 40
2.0
 40
2.0
 40
2.0
 40
3.0
 40
3.0
 40
3.0
 40
4.0
 40
4.0
 40
4.0
 40
5.0
 40
5.0
 40
5.0
 40
6.0
 40
6.0
 40
6.0
 40
7.0
 40
7.0
 40
7.0
 40
8.0
 40
8.0
 40
8.0
 40
9.0
 40
9.0
 40
9.0
 40
9.0
 10
-109.2930274115668
 20
44.47682868109808
 30
0.0
 10
-109.2930274115668
 20
44.47682868109808
 30
0.0
 10
-108.5419965955946
 20
44.47682868109808
 30
0.0
 10
-108.5419965955946
 20
44.47682868109808
 30
0.0
 10
-107.7137956407334
 20
44.47682868109808
 30
0.0
 10
-107.0413130018446
 20
45.14931131998697
 30
0.0
 10
-107.0413130018446
 20
45.98302442762586
 30
0.0
 10
-107.0413130018446
 20
45.98302442762586
 30
0.0
 10
-107.0413130018446
 20
49.49150967068142
 30
0.0
 10
-107.0413130018446
 20
49.49150967068142
 30
0.0
 10
-107.0413130018446
 20
50.32246670193142
 30
0.0
 10
-107.7137956407334
 20
50.99494934082031
 30
0.0
 10
-108.5419965955946
 20
50.99494934082031
 30
0.0
 10
-108.5419965955946
 20
50.99494934082031
 30
0.0
 10
-115.5603451199001
 20
50.99494934082031
 30
0.0
 10
-115.5603451199001
 20
50.99494934082031
 30
0.0
 10
-116.3899241129557
 20
50.99494934082031
 30
0.0
 10
-117.0624067518446
 20
50.32246670193142
 30
0.0
 10
-117.0624067518446
 20
49.49150967068142
 30
0.0
 10
-117.0624067518446
 20
49.49150967068142
 30
0.0
 10
-117.0624067518446
 20
45.98302442762586
 30
0.0
 10
-117.0624067518446
 20
45.98302442762586
 30
0.0
 10
-117.0624067518446
 20
45.14931131998697
 30
0.0
 10
-116.3899241129557
 20
44.47682868109808
 30
0.0
 10
-115.5603451199001
 20
44.47682868109808
 30
0.0
 10
-115.5603451199001
 20
44.47682868109808
 30
0.0
 10
-114.8106923421223
 20
44.47682868109808
 30
0.0
 10
-114.8106923421223
 20
44.47682868109808
 30
0.0
  0
SPLINE
  5
188
100
AcDbEntity
  8
ALPHA
 62
     7
100
AcDbSpline
210
0.0
220
0.0
230
-1.0
 70
     8
 71
     3
 72
    20
 73
    16
 74
     0
 42
0.0000001
 43
0.0000001
 40
0.0
 40
0.0
 40
0.0
 40
0.0
 40
1.0
 40
1.0
 40
1.0
 40
2.0
 40
2.0
 40
2.0
 40
3.0
 40
3.0
 40
3.0
 40
4.0
 40
4.0
 40
4.0
 40
5.0
 40
5.0
 40
5.0
 40
5.0
 10
-109.2930274115668
 20
42.47316114637587
 30
0.0
 10
-109.2930274115668
 20
42.47316114637587
 30
0.0
 10
-109.2930274115668
 20
45.23199361165364
 30
0.0
 10
-109.2930274115668
 20
45.23199361165364
 30
0.0
 10
-109.2930274115668
 20
46.75610385470919
 30
0.0
 10
-110.527749633789
 20
47.99082607693142
 30
0.0
 10
-112.0518598768446
 20
47.99082607693142
 30
0.0
 10
-112.0518598768446
 20
47.99082607693142
 30
0.0
 10
-112.0518598768446
 20
47.99082607693142
 30
0.0
 10
-112.0518598768446
 20
47.99082607693142
 30
0.0
 10
-113.5759701199001
 20
47.99082607693142
 30
0.0
 10
-114.8106923421223
 20
46.75610385470919
 30
0.0
 10
-114.8106923421223
 20
45.23199361165364
 30
0.0
 10
-114.8106923421223
 20
45.23199361165364
 30
0.0
 10
-114.8106923421223
 20
42.47316114637587
 30
0.0
 10
-114.8106923421223
 20
42.47316114637587
 30
0.0
  0
SPLINE
  5
189
100
AcDbEntity
  8
ALPHA
 62
     7
100
AcDbSpline
210
0.0
220
0.0
230
-1.0
 70
    11
 71
     3
 72
    29
 73
    25
 74
     0
 42
0.0000001
 43
0.0000001
 40
0.0
 40
0.0
 40
0.0
 40
0.0
 40
1.0
 40
1.0
 40
1.0
 40
2.0
 40
2.0
 40
2.0
 40
3.0
 40
3.0
 40
3.0
 40
4.0
 40
4.0
 40
4.0
 40
5.0
 40
5.0
 40
5.0
 40
6.0
 40
6.0
 40
6.0
 40
7.0
 40
7.0
 40
7.0
 40
8.0
 40
8.0
 40
8.0
 40
8.0
 10
-112.0518598768446
 20
43.92423536512587
 30
0.0
 10
-111.3600847032335
 20
43.92423536512587
 30
0.0
 10
-110.7992231580946
 20
44.4864749484592
 30
0.0
 10
-110.7992231580946
 20
45.17687208387586
 30
0.0
 10
-110.7992231580946
 20
45.17687208387586
 30
0.0
 10
-110.7992231580946
 20
46.18146192762586
 30
0.0
 10
-110.7992231580946
 20
46.18146192762586
 30
0.0
 10
-110.7992231580946
 20
46.87185906304253
 30
0.0
 10
-111.3600847032335
 20
47.43409864637587
 30
0.0
 10
-112.0518598768446
 20
47.43409864637587
 30
0.0
 10
-112.0518598768446
 20
47.43409864637587
 30
0.0
 10
-112.0518598768446
 20
47.43409864637587
 30
0.0
 10
-112.0518598768446
 20
47.43409864637587
 30
0.0
 10
-112.7422570122612
 20
47.43409864637587
 30
0.0
 10
-113.3044965955946
 20
46.87185906304253
 30
0.0
 10
-113.3044965955946
 20
46.18146192762586
 30
0.0
 10
-113.3044965955946
 20
46.18146192762586
 30
0.0
 10
-113.3044965955946
 20
45.17687208387586
 30
0.0
 10
-113.3044965955946
 20
45.17687208387586
 30
0.0
 10
-113.3044965955946
 20
44.4864749484592
 30
0.0
 10
-112.7422570122612
 20
43.92423536512587
 30
0.0
 10
-112.0518598768446
 20
43.92423536512587
 30
0.0
 10
-112.0518598768446
 20
43.92423536512587
 30
0.0
 10
-112.0518598768446
 20
43.92423536512587
 30
0.0
 10
-112.0518598768446
 20
43.92423536512587
 30
0.0
  0
SPLINE
  5
18A
100
AcDbEntity
  8
ALPHA
 62
     7
100
AcDbSpline
210
0.0
220
0.0
230
-1.0
 70
     8
 71
     3
 72
    32
 73
    28
 74
     0
 42
0.0000001
 43
0.0000001
 40
0.0
 40
0.0
 40
0.0
 40
0.0
 40
1.0
 40
1.0
 40
1.0
 40
2.0
 40
2.0
 40
2.0
 40
3.0
 40
3.0
 40
3.0
 40
4.0
 40
4.0
 40
4.0
 40
5.0
 40
5.0
 40
5.0
 40
6.0
 40
6.0
 40
6.0
 40
7.0
 40
7.0
 40
7.0
 40
8.0
 40
8.0
 40
8.0
 40
9.0
 40
9.0
 40
9.0
 40
9.0
 10
-127.8207509358723
 20
15.07362772623697
 30
0.0
 10
-127.8207509358723
 20
15.07362772623697
 30
0.0
 10
-127.8207509358723
 20
12.06537034776475
 30
0.0
 10
-127.8207509358723
 20
12.06537034776475
 30
0.0
 10
-127.8207509358723
 20
11.5086429172092
 30
0.0
 10
-127.3742665608723
 20
11.0621585422092
 30
0.0
 10
-126.8189171685112
 20
11.0621585422092
 30
0.0
 10
-126.8189171685112
 20
11.0621585422092
 30
0.0
 10
-112.7835981580946
 20
11.0621585422092
 30
0.0
 10
-112.7835981580946
 20
11.0621585422092
 30
0.0
 10
-112.2310048421223
 20
11.0621585422092
 30
0.0
 10
-111.780386352539
 20
11.5086429172092
 30
0.0
 10
-111.780386352539
 20
12.06537034776475
 30
0.0
 10
-111.780386352539
 20
12.06537034776475
 30
0.0
 10
-111.780386352539
 20
24.09426574707031
 30
0.0
 10
-111.780386352539
 20
24.09426574707031
 30
0.0
 10
-111.780386352539
 20
24.64685906304253
 30
0.0
 10
-112.2310048421223
 20
25.09334343804253
 30
0.0
 10
-112.7835981580946
 20
25.09334343804253
 30
0.0
 10
-112.7835981580946
 20
25.09334343804253
 30
0.0
 10
-126.8189171685112
 20
25.09334343804253
 30
0.0
 10
-126.8189171685112
 20
25.09334343804253
 30
0.0
 10
-127.3742665608723
 20
25.09334343804253
 30
0.0
 10
-127.8207509358723
 20
24.64685906304253
 30
0.0
 10
-127.8207509358723
 20
24.09426574707031
 30
0.0
 10
-127.8207509358723
 20
24.09426574707031
 30
0.0
 10
-127.8207509358723
 20
21.08738640679253
 30
0.0
 10
-127.8207509358723
 20
21.08738640679253
 30
0.0
  0
SPLINE
  5
18B
100
AcDbEntity
  8
ALPHA
 62
     7
100
AcDbSpline
210
0.0
220
0.0
230
1.0
 70
    11
 71
     3
 72
    26
 73
    22
 74
     0
 42
0.0000001
 43
0.0000001
 40
0.0
 40
0.0
 40
0.0
 40
0.0
 40
1.0
 40
1.0
 40
1.0
 40
2.0
 40
2.0
 40
2.0
 40
3.0
 40
3.0
 40
3.0
 40
4.0
 40
4.0
 40
4.0
 40
5.0
 40
5.0
 40
5.0
 40
6.0
 40
6.0
 40
6.0
 40
7.0
 40
7.0
 40
7.0
 40
7.0
 10
-124.8083594428168
 20
18.08050706651475
 30
0.0
 10
-124.8083594428168
 20
18.08050706651475
 30
0.0
 10
-127.816616821289
 20
21.08738640679253
 30
0.0
 10
-127.816616821289
 20
21.08738640679253
 30
0.0
 10
-127.816616821289
 20
21.08738640679253
 30
0.0
 10
-132.8285417344835
 20
21.08738640679253
 30
0.0
 10
-132.8285417344835
 20
21.08738640679253
 30
0.0
 10
-134.489077758789
 20
21.08738640679253
 30
0.0
 10
-135.8367991129556
 20
19.73828701443142
 30
0.0
 10
-135.8367991129556
 20
18.08050706651475
 30
0.0
 10
-135.8367991129556
 20
18.08050706651475
 30
0.0
 10
-135.8367991129556
 20
18.08050706651475
 30
0.0
 10
-135.8367991129556
 20
18.08050706651475
 30
0.0
 10
-135.8367991129556
 20
16.41721496582031
 30
0.0
 10
-134.489077758789
 20
15.07362772623697
 30
0.0
 10
-132.8285417344835
 20
15.07362772623697
 30
0.0
 10
-132.8285417344835
 20
15.07362772623697
 30
0.0
 10
-127.816616821289
 20
15.07362772623697
 30
0.0
 10
-127.816616821289
 20
15.07362772623697
 30
0.0
 10
-127.816616821289
 20
15.07362772623697
 30
0.0
 10
-124.8083594428168
 20
18.08050706651475
 30
0.0
 10
-124.8083594428168
 20
18.08050706651475
 30
0.0
  0
SPLINE
  5
18C
100
AcDbEntity
  8
ALPHA
 62
     7
100
AcDbSpline
210
0.0
220
0.0
230
-1.0
 70
     8
 71
     3
 72
    32
 73
    28
 74
     0
 42
0.0000001
 43
0.0000001
 40
0.0
 40
0.0
 40
0.0
 40
0.0
 40
1.0
 40
1.0
 40
1.0
 40
2.0
 40
2.0
 40
2.0
 40
3.0
 40
3.0
 40
3.0
 40
4.0
 40
4.0
 40
4.0
 40
5.0
 40
5.0
 40
5.0
 40
6.0
 40
6.0
 40
6.0
 40
7.0
 40
7.0
 40
7.0
 40
8.0
 40
8.0
 40
8.0
 40
9.0
 40
9.0
 40
9.0
 40
9.0
 10
-127.8207509358723
 20
-4.024775865342881
 30
0.0
 10
-127.8207509358723
 20
-4.024775865342881
 30
0.0
 10
-127.8207509358723
 20
-7.031655205620658
 30
0.0
 10
-127.8207509358723
 20
-7.031655205620658
 30
0.0
 10
-127.8207509358723
 20
-7.589760674370658
 30
0.0
 10
-127.3742665608723
 20
-8.036245049370659
 30
0.0
 10
-126.8189171685112
 20
-8.036245049370659
 30
0.0
 10
-126.8189171685112
 20
-8.036245049370659
 30
0.0
 10
-112.7835981580946
 20
-8.036245049370659
 30
0.0
 10
-112.7835981580946
 20
-8.036245049370659
 30
0.0
 10
-112.2310048421223
 20
-8.036245049370659
 30
0.0
 10
-111.780386352539
 20
-7.589760674370658
 30
0.0
 10
-111.780386352539
 20
-7.031655205620658
 30
0.0
 10
-111.780386352539
 20
-7.031655205620658
 30
0.0
 10
-111.780386352539
 20
4.997240193684895
 30
0.0
 10
-111.780386352539
 20
4.997240193684895
 30
0.0
 10
-111.780386352539
 20
5.549833509657117
 30
0.0
 10
-112.2310048421223
 20
5.996317884657117
 30
0.0
 10
-112.7835981580946
 20
5.996317884657117
 30
0.0
 10
-112.7835981580946
 20
5.996317884657117
 30
0.0
 10
-126.8189171685112
 20
5.996317884657117
 30
0.0
 10
-126.8189171685112
 20
5.996317884657117
 30
0.0
 10
-127.3742665608723
 20
5.996317884657117
 30
0.0
 10
-127.8207509358723
 20
5.549833509657117
 30
0.0
 10
-127.8207509358723
 20
4.997240193684895
 30
0.0
 10
-127.8207509358723
 20
4.997240193684895
 30
0.0
 10
-127.8207509358723
 20
1.988982815212673
 30
0.0
 10
-127.8207509358723
 20
1.988982815212673
 30
0.0
  0
SPLINE
  5
18D
100
AcDbEntity
  8
ALPHA
 62
     7
100
AcDbSpline
210
0.0
220
0.0
230
1.0
 70
    11
 71
     3
 72
    26
 73
    22
 74
     0
 42
0.0000001
 43
0.0000001
 40
0.0
 40
0.0
 40
0.0
 40
0.0
 40
1.0
 40
1.0
 40
1.0
 40
2.0
 40
2.0
 40
2.0
 40
3.0
 40
3.0
 40
3.0
 40
4.0
 40
4.0
 40
4.0
 40
5.0
 40
5.0
 40
5.0
 40
6.0
 40
6.0
 40
6.0
 40
7.0
 40
7.0
 40
7.0
 40
7.0
 10
-124.8083594428168
 20
-1.017896525065103
 30
0.0
 10
-124.8083594428168
 20
-1.017896525065103
 30
0.0
 10
-127.816616821289
 20
1.988982815212673
 30
0.0
 10
-127.816616821289
 20
1.988982815212673
 30
0.0
 10
-127.816616821289
 20
1.988982815212673
 30
0.0
 10
-132.8285417344835
 20
1.988982815212673
 30
0.0
 10
-132.8285417344835
 20
1.988982815212673
 30
0.0
 10
-134.489077758789
 20
1.988982815212673
 30
0.0
 10
-135.8367991129556
 20
0.6398834228515625
 30
0.0
 10
-135.8367991129556
 20
-1.017896525065103
 30
0.0
 10
-135.8367991129556
 20
-1.017896525065103
 30
0.0
 10
-135.8367991129556
 20
-1.017896525065103
 30
0.0
 10
-135.8367991129556
 20
-1.017896525065103
 30
0.0
 10
-135.8367991129556
 20
-2.679810587565103
 30
0.0
 10
-134.489077758789
 20
-4.024775865342881
 30
0.0
 10
-132.8285417344835
 20
-4.024775865342881
 30
0.0
 10
-132.8285417344835
 20
-4.024775865342881
 30
0.0
 10
-127.816616821289
 20
-4.024775865342881
 30
0.0
 10
-127.816616821289
 20
-4.024775865342881
 30
0.0
 10
-127.816616821289
 20
-4.024775865342881
 30
0.0
 10
-124.8083594428168
 20
-1.017896525065103
 30
0.0
 10
-124.8083594428168
 20
-1.017896525065103
 30
0.0
  0
SPLINE
  5
18E
100
AcDbEntity
  8
ALPHA
 62
     7
100
AcDbSpline
210
0.0
220
0.0
230
-1.0
 70
     8
 71
     3
 72
    32
 73
    28
 74
     0
 42
0.0000001
 43
0.0000001
 40
0.0
 40
0.0
 40
0.0
 40
0.0
 40
1.0
 40
1.0
 40
1.0
 40
2.0
 40
2.0
 40
2.0
 40
3.0
 40
3.0
 40
3.0
 40
4.0
 40
4.0
 40
4.0
 40
5.0
 40
5.0
 40
5.0
 40
6.0
 40
6.0
 40
6.0
 40
7.0
 40
7.0
 40
7.0
 40
8.0
 40
8.0
 40
8.0
 40
9.0
 40
9.0
 40
9.0
 40
9.0
 10
-127.8207509358723
 20
-23.12300720214843
 30
0.0
 10
-127.8207509358723
 20
-23.12300720214843
 30
0.0
 10
-127.8207509358723
 20
-26.12988654242621
 30
0.0
 10
-127.8207509358723
 20
-26.12988654242621
 30
0.0
 10
-127.8207509358723
 20
-26.68661397298176
 30
0.0
 10
-127.3742665608723
 20
-27.13309834798177
 30
0.0
 10
-126.8189171685112
 20
-27.13309834798177
 30
0.0
 10
-126.8189171685112
 20
-27.13309834798177
 30
0.0
 10
-112.7835981580946
 20
-27.13309834798177
 30
0.0
 10
-112.7835981580946
 20
-27.13309834798177
 30
0.0
 10
-112.2310048421223
 20
-27.13309834798177
 30
0.0
 10
-111.780386352539
 20
-26.68661397298176
 30
0.0
 10
-111.780386352539
 20
-26.12988654242621
 30
0.0
 10
-111.780386352539
 20
-26.12988654242621
 30
0.0
 10
-111.780386352539
 20
-14.10099114312066
 30
0.0
 10
-111.780386352539
 20
-14.10099114312066
 30
0.0
 10
-111.780386352539
 20
-13.54839782714843
 30
0.0
 10
-112.2310048421223
 20
-13.10191345214843
 30
0.0
 10
-112.7835981580946
 20
-13.10191345214843
 30
0.0
 10
-112.7835981580946
 20
-13.10191345214843
 30
0.0
 10
-126.8189171685112
 20
-13.10191345214843
 30
0.0
 10
-126.8189171685112
 20
-13.10191345214843
 30
0.0
 10
-127.3742665608723
 20
-13.10191345214843
 30
0.0
 10
-127.8207509358723
 20
-13.54839782714843
 30
0.0
 10
-127.8207509358723
 20
-14.10099114312066
 30
0.0
 10
-127.8207509358723
 20
-14.10099114312066
 30
0.0
 10
-127.8207509358723
 20
-17.10787048339843
 30
0.0
 10
-127.8207509358723
 20
-17.10787048339843
 30
0.0
  0
SPLINE
  5
18F
100
AcDbEntity
  8
ALPHA
 62
     7
100
AcDbSpline
210
0.0
220
0.0
230
1.0
 70
    11
 71
     3
 72
    26
 73
    22
 74
     0
 42
0.0000001
 43
0.0000001
 40
0.0
 40
0.0
 40
0.0
 40
0.0
 40
1.0
 40
1.0
 40
1.0
 40
2.0
 40
2.0
 40
2.0
 40
3.0
 40
3.0
 40
3.0
 40
4.0
 40
4.0
 40
4.0
 40
5.0
 40
5.0
 40
5.0
 40
6.0
 40
6.0
 40
6.0
 40
7.0
 40
7.0
 40
7.0
 40
7.0
 10
-124.8083594428168
 20
-20.11474982367621
 30
0.0
 10
-124.8083594428168
 20
-20.11474982367621
 30
0.0
 10
-127.816616821289
 20
-17.10787048339843
 30
0.0
 10
-127.816616821289
 20
-17.10787048339843
 30
0.0
 10
-127.816616821289
 20
-17.10787048339843
 30
0.0
 10
-132.8285417344835
 20
-17.10787048339843
 30
0.0
 10
-132.8285417344835
 20
-17.10787048339843
 30
0.0
 10
-134.489077758789
 20
-17.10787048339843
 30
0.0
 10
-135.8367991129556
 20
-18.45696987575954
 30
0.0
 10
-135.8367991129556
 20
-20.11474982367621
 30
0.0
 10
-135.8367991129556
 20
-20.11474982367621
 30
0.0
 10
-135.8367991129556
 20
-20.11474982367621
 30
0.0
 10
-135.8367991129556
 20
-20.11474982367621
 30
0.0
 10
-135.8367991129556
 20
-21.77804192437065
 30
0.0
 10
-134.489077758789
 20
-23.12300720214843
 30
0.0
 10
-132.8285417344835
 20
-23.12300720214843
 30
0.0
 10
-132.8285417344835
 20
-23.12300720214843
 30
0.0
 10
-127.816616821289
 20
-23.12300720214843
 30
0.0
 10
-127.816616821289
 20
-23.12300720214843
 30
0.0
 10
-127.816616821289
 20
-23.12300720214843
 30
0.0
 10
-124.8083594428168
 20
-20.11474982367621
 30
0.0
 10
-124.8083594428168
 20
-20.11474982367621
 30
0.0
  0
SPLINE
  5
190
100
AcDbEntity
  8
ALPHA
 62
     7
100
AcDbSpline
210
0.0
220
0.0
230
-1.0
 70
     8
 71
     3
 72
    32
 73
    28
 74
     0
 42
0.0000001
 43
0.0000001
 40
0.0
 40
0.0
 40
0.0
 40
0.0
 40
1.0
 40
1.0
 40
1.0
 40
2.0
 40
2.0
 40
2.0
 40
3.0
 40
3.0
 40
3.0
 40
4.0
 40
4.0
 40
4.0
 40
5.0
 40
5.0
 40
5.0
 40
6.0
 40
6.0
 40
6.0
 40
7.0
 40
7.0
 40
7.0
 40
8.0
 40
8.0
 40
8.0
 40
9.0
 40
9.0
 40
9.0
 40
9.0
 10
-127.8207509358723
 20
-42.21986050075954
 30
0.0
 10
-127.8207509358723
 20
-42.21986050075954
 30
0.0
 10
-127.8207509358723
 20
-45.22811787923177
 30
0.0
 10
-127.8207509358723
 20
-45.22811787923177
 30
0.0
 10
-127.8207509358723
 20
-45.78484530978732
 30
0.0
 10
-127.3742665608723
 20
-46.23132968478731
 30
0.0
 10
-126.8189171685112
 20
-46.23132968478731
 30
0.0
 10
-126.8189171685112
 20
-46.23132968478731
 30
0.0
 10
-112.7835981580946
 20
-46.23132968478731
 30
0.0
 10
-112.7835981580946
 20
-46.23132968478731
 30
0.0
 10
-112.2310048421223
 20
-46.23132968478731
 30
0.0
 10
-111.780386352539
 20
-45.78484530978732
 30
0.0
 10
-111.780386352539
 20
-45.22811787923177
 30
0.0
 10
-111.780386352539
 20
-45.22811787923177
 30
0.0
 10
-111.780386352539
 20
-33.19922247992621
 30
0.0
 10
-111.780386352539
 20
-33.19922247992621
 30
0.0
 10
-111.780386352539
 20
-32.64662916395399
 30
0.0
 10
-112.2310048421223
 20
-32.19876675075954
 30
0.0
 10
-112.7835981580946
 20
-32.19876675075954
 30
0.0
 10
-112.7835981580946
 20
-32.19876675075954
 30
0.0
 10
-126.8189171685112
 20
-32.19876675075954
 30
0.0
 10
-126.8189171685112
 20
-32.19876675075954
 30
0.0
 10
-127.3742665608723
 20
-32.19876675075954
 30
0.0
 10
-127.8207509358723
 20
-32.64662916395399
 30
0.0
 10
-127.8207509358723
 20
-33.19922247992621
 30
0.0
 10
-127.8207509358723
 20
-33.19922247992621
 30
0.0
 10
-127.8207509358723
 20
-36.20610182020399
 30
0.0
 10
-127.8207509358723
 20
-36.20610182020399
 30
0.0
  0
SPLINE
  5
191
100
AcDbEntity
  8
ALPHA
 62
     7
100
AcDbSpline
210
0.0
220
0.0
230
1.0
 70
    11
 71
     3
 72
    26
 73
    22
 74
     0
 42
0.0000001
 43
0.0000001
 40
0.0
 40
0.0
 40
0.0
 40
0.0
 40
1.0
 40
1.0
 40
1.0
 40
2.0
 40
2.0
 40
2.0
 40
3.0
 40
3.0
 40
3.0
 40
4.0
 40
4.0
 40
4.0
 40
5.0
 40
5.0
 40
5.0
 40
6.0
 40
6.0
 40
6.0
 40
7.0
 40
7.0
 40
7.0
 40
7.0
 10
-124.8083594428168
 20
-39.21298116048177
 30
0.0
 10
-124.8083594428168
 20
-39.21298116048177
 30
0.0
 10
-127.816616821289
 20
-36.20610182020399
 30
0.0
 10
-127.816616821289
 20
-36.20610182020399
 30
0.0
 10
-127.816616821289
 20
-36.20610182020399
 30
0.0
 10
-132.8285417344835
 20
-36.20610182020399
 30
0.0
 10
-132.8285417344835
 20
-36.20610182020399
 30
0.0
 10
-134.489077758789
 20
-36.20610182020399
 30
0.0
 10
-135.8367991129556
 20
-37.5552012125651
 30
0.0
 10
-135.8367991129556
 20
-39.21298116048177
 30
0.0
 10
-135.8367991129556
 20
-39.21298116048177
 30
0.0
 10
-135.8367991129556
 20
-39.21298116048177
 30
0.0
 10
-135.8367991129556
 20
-39.21298116048177
 30
0.0
 10
-135.8367991129556
 20
-40.87489522298176
 30
0.0
 10
-134.489077758789
 20
-42.21986050075954
 30
0.0
 10
-132.8285417344835
 20
-42.21986050075954
 30
0.0
 10
-132.8285417344835
 20
-42.21986050075954
 30
0.0
 10
-127.816616821289
 20
-42.21986050075954
 30
0.0
 10
-127.816616821289
 20
-42.21986050075954
 30
0.0
 10
-127.816616821289
 20
-42.21986050075954
 30
0.0
 10
-124.8083594428168
 20
-39.21298116048177
 30
0.0
 10
-124.8083594428168
 20
-39.21298116048177
 30
0.0
  0
SPLINE
  5
192
100
AcDbEntity
  8
ALPHA
 62
     7
100
AcDbSpline
210
0.0
220
0.0
230
-1.0
 70
     8
 71
     3
 72
    32
 73
    28
 74
     0
 42
0.0000001
 43
0.0000001
 40
0.0
 40
0.0
 40
0.0
 40
0.0
 40
1.0
 40
1.0
 40
1.0
 40
2.0
 40
2.0
 40
2.0
 40
3.0
 40
3.0
 40
3.0
 40
4.0
 40
4.0
 40
4.0
 40
5.0
 40
5.0
 40
5.0
 40
6.0
 40
6.0
 40
6.0
 40
7.0
 40
7.0
 40
7.0
 40
8.0
 40
8.0
 40
8.0
 40
9.0
 40
9.0
 40
9.0
 40
9.0
 10
-127.8207509358723
 20
-61.3180918375651
 30
0.0
 10
-127.8207509358723
 20
-61.3180918375651
 30
0.0
 10
-127.8207509358723
 20
-64.32497117784286
 30
0.0
 10
-127.8207509358723
 20
-64.32497117784286
 30
0.0
 10
-127.8207509358723
 20
-64.88169860839843
 30
0.0
 10
-127.3742665608723
 20
-65.32956102159288
 30
0.0
 10
-126.8189171685112
 20
-65.32956102159288
 30
0.0
 10
-126.8189171685112
 20
-65.32956102159288
 30
0.0
 10
-112.7835981580946
 20
-65.32956102159288
 30
0.0
 10
-112.7835981580946
 20
-65.32956102159288
 30
0.0
 10
-112.2310048421223
 20
-65.32956102159288
 30
0.0
 10
-111.780386352539
 20
-64.88169860839843
 30
0.0
 10
-111.780386352539
 20
-64.32497117784286
 30
0.0
 10
-111.780386352539
 20
-64.32497117784286
 30
0.0
 10
-111.780386352539
 20
-52.29607577853732
 30
0.0
 10
-111.780386352539
 20
-52.29607577853732
 30
0.0
 10
-111.780386352539
 20
-51.7434824625651
 30
0.0
 10
-112.2310048421223
 20
-51.2969980875651
 30
0.0
 10
-112.7835981580946
 20
-51.2969980875651
 30
0.0
 10
-112.7835981580946
 20
-51.2969980875651
 30
0.0
 10
-126.8189171685112
 20
-51.2969980875651
 30
0.0
 10
-126.8189171685112
 20
-51.2969980875651
 30
0.0
 10
-127.3742665608723
 20
-51.2969980875651
 30
0.0
 10
-127.8207509358723
 20
-51.7434824625651
 30
0.0
 10
-127.8207509358723
 20
-52.29607577853732
 30
0.0
 10
-127.8207509358723
 20
-52.29607577853732
 30
0.0
 10
-127.8207509358723
 20
-55.3029551188151
 30
0.0
 10
-127.8207509358723
 20
-55.3029551188151
 30
0.0
  0
SPLINE
  5
193
100
AcDbEntity
  8
ALPHA
 62
     7
100
AcDbSpline
210
0.0
220
0.0
230
1.0
 70
    11
 71
     3
 72
    26
 73
    22
 74
     0
 42
0.0000001
 43
0.0000001
 40
0.0
 40
0.0
 40
0.0
 40
0.0
 40
1.0
 40
1.0
 40
1.0
 40
2.0
 40
2.0
 40
2.0
 40
3.0
 40
3.0
 40
3.0
 40
4.0
 40
4.0
 40
4.0
 40
5.0
 40
5.0
 40
5.0
 40
6.0
 40
6.0
 40
6.0
 40
7.0
 40
7.0
 40
7.0
 40
7.0
 10
-124.8083594428168
 20
-58.31121249728732
 30
0.0
 10
-124.8083594428168
 20
-58.31121249728732
 30
0.0
 10
-127.816616821289
 20
-55.3029551188151
 30
0.0
 10
-127.816616821289
 20
-55.3029551188151
 30
0.0
 10
-127.816616821289
 20
-55.3029551188151
 30
0.0
 10
-132.8285417344835
 20
-55.3029551188151
 30
0.0
 10
-132.8285417344835
 20
-55.3029551188151
 30
0.0
 10
-134.489077758789
 20
-55.3029551188151
 30
0.0
 10
-135.8367991129556
 20
-56.65343254937066
 30
0.0
 10
-135.8367991129556
 20
-58.31121249728732
 30
0.0
 10
-135.8367991129556
 20
-58.31121249728732
 30
0.0
 10
-135.8367991129556
 20
-58.31121249728732
 30
0.0
 10
-135.8367991129556
 20
-58.31121249728732
 30
0.0
 10
-135.8367991129556
 20
-59.97312655978731
 30
0.0
 10
-134.489077758789
 20
-61.3180918375651
 30
0.0
 10
-132.8285417344835
 20
-61.3180918375651
 30
0.0
 10
-132.8285417344835
 20
-61.3180918375651
 30
0.0
 10
-127.816616821289
 20
-61.3180918375651
 30
0.0
 10
-127.816616821289
 20
-61.3180918375651
 30
0.0
 10
-127.816616821289
 20
-61.3180918375651
 30
0.0
 10
-124.8083594428168
 20
-58.31121249728732
 30
0.0
 10
-124.8083594428168
 20
-58.31121249728732
 30
0.0
  0
SPLINE
  5
194
100
AcDbEntity
  8
ALPHA
 62
     7
100
AcDbSpline
210
0.0
220
0.0
230
-1.0
 70
     8
 71
     3
 72
    32
 73
    28
 74
     0
 42
0.0000001
 43
0.0000001
 40
0.0
 40
0.0
 40
0.0
 40
0.0
 40
1.0
 40
1.0
 40
1.0
 40
2.0
 40
2.0
 40
2.0
 40
3.0
 40
3.0
 40
3.0
 40
4.0
 40
4.0
 40
4.0
 40
5.0
 40
5.0
 40
5.0
 40
6.0
 40
6.0
 40
6.0
 40
7.0
 40
7.0
 40
7.0
 40
8.0
 40
8.0
 40
8.0
 40
9.0
 40
9.0
 40
9.0
 40
9.0
 10
-127.8207509358723
 20
-80.41494513617621
 30
0.0
 10
-127.8207509358723
 20
-80.41494513617621
 30
0.0
 10
-127.8207509358723
 20
-83.42320251464842
 30
0.0
 10
-127.8207509358723
 20
-83.42320251464842
 30
0.0
 10
-127.8207509358723
 20
-83.97992994520398
 30
0.0
 10
-127.3742665608723
 20
-84.42641432020399
 30
0.0
 10
-126.8189171685112
 20
-84.42641432020399
 30
0.0
 10
-126.8189171685112
 20
-84.42641432020399
 30
0.0
 10
-112.7835981580946
 20
-84.42641432020399
 30
0.0
 10
-112.7835981580946
 20
-84.42641432020399
 30
0.0
 10
-112.2310048421223
 20
-84.42641432020399
 30
0.0
 10
-111.780386352539
 20
-83.97992994520398
 30
0.0
 10
-111.780386352539
 20
-83.42320251464842
 30
0.0
 10
-111.780386352539
 20
-83.42320251464842
 30
0.0
 10
-111.780386352539
 20
-71.39430711534287
 30
0.0
 10
-111.780386352539
 20
-71.39430711534287
 30
0.0
 10
-111.780386352539
 20
-70.84171379937065
 30
0.0
 10
-112.2310048421223
 20
-70.39522942437065
 30
0.0
 10
-112.7835981580946
 20
-70.39522942437065
 30
0.0
 10
-112.7835981580946
 20
-70.39522942437065
 30
0.0
 10
-126.8189171685112
 20
-70.39522942437065
 30
0.0
 10
-126.8189171685112
 20
-70.39522942437065
 30
0.0
 10
-127.3742665608723
 20
-70.39522942437065
 30
0.0
 10
-127.8207509358723
 20
-70.84171379937065
 30
0.0
 10
-127.8207509358723
 20
-71.39430711534287
 30
0.0
 10
-127.8207509358723
 20
-71.39430711534287
 30
0.0
 10
-127.8207509358723
 20
-74.40118645562065
 30
0.0
 10
-127.8207509358723
 20
-74.40118645562065
 30
0.0
  0
SPLINE
  5
195
100
AcDbEntity
  8
ALPHA
 62
     7
100
AcDbSpline
210
0.0
220
0.0
230
1.0
 70
    11
 71
     3
 72
    26
 73
    22
 74
     0
 42
0.0000001
 43
0.0000001
 40
0.0
 40
0.0
 40
0.0
 40
0.0
 40
1.0
 40
1.0
 40
1.0
 40
2.0
 40
2.0
 40
2.0
 40
3.0
 40
3.0
 40
3.0
 40
4.0
 40
4.0
 40
4.0
 40
5.0
 40
5.0
 40
5.0
 40
6.0
 40
6.0
 40
6.0
 40
7.0
 40
7.0
 40
7.0
 40
7.0
 10
-124.8083594428168
 20
-77.40806579589843
 30
0.0
 10
-124.8083594428168
 20
-77.40806579589843
 30
0.0
 10
-127.816616821289
 20
-74.40118645562065
 30
0.0
 10
-127.816616821289
 20
-74.40118645562065
 30
0.0
 10
-127.816616821289
 20
-74.40118645562065
 30
0.0
 10
-132.8285417344835
 20
-74.40118645562065
 30
0.0
 10
-132.8285417344835
 20
-74.40118645562065
 30
0.0
 10
-134.489077758789
 20
-74.40118645562065
 30
0.0
 10
-135.8367991129556
 20
-75.75028584798175
 30
0.0
 10
-135.8367991129556
 20
-77.40806579589843
 30
0.0
 10
-135.8367991129556
 20
-77.40806579589843
 30
0.0
 10
-135.8367991129556
 20
-77.40806579589843
 30
0.0
 10
-135.8367991129556
 20
-77.40806579589843
 30
0.0
 10
-135.8367991129556
 20
-79.07135789659287
 30
0.0
 10
-134.489077758789
 20
-80.41494513617621
 30
0.0
 10
-132.8285417344835
 20
-80.41494513617621
 30
0.0
 10
-132.8285417344835
 20
-80.41494513617621
 30
0.0
 10
-127.816616821289
 20
-80.41494513617621
 30
0.0
 10
-127.816616821289
 20
-80.41494513617621
 30
0.0
 10
-127.816616821289
 20
-80.41494513617621
 30
0.0
 10
-124.8083594428168
 20
-77.40806579589843
 30
0.0
 10
-124.8083594428168
 20
-77.40806579589843
 30
0.0
  0
SPLINE
  5
196
100
AcDbEntity
  8
ALPHA
 62
     7
100
AcDbSpline
210
0.0
220
0.0
230
-1.0
 70
     8
 71
     3
 72
    32
 73
    28
 74
     0
 42
0.0000001
 43
0.0000001
 40
0.0
 40
0.0
 40
0.0
 40
0.0
 40
1.0
 40
1.0
 40
1.0
 40
2.0
 40
2.0
 40
2.0
 40
3.0
 40
3.0
 40
3.0
 40
4.0
 40
4.0
 40
4.0
 40
5.0
 40
5.0
 40
5.0
 40
6.0
 40
6.0
 40
6.0
 40
7.0
 40
7.0
 40
7.0
 40
8.0
 40
8.0
 40
8.0
 40
9.0
 40
9.0
 40
9.0
 40
9.0
 10
-89.72075093587239
 20
15.07362772623697
 30
0.0
 10
-89.72075093587239
 20
15.07362772623697
 30
0.0
 10
-89.72075093587239
 20
12.06537034776475
 30
0.0
 10
-89.72075093587239
 20
12.06537034776475
 30
0.0
 10
-89.72075093587239
 20
11.5086429172092
 30
0.0
 10
-90.16723531087238
 20
11.0621585422092
 30
0.0
 10
-90.72534077962238
 20
11.0621585422092
 30
0.0
 10
-90.72534077962238
 20
11.0621585422092
 30
0.0
 10
-104.7565256754557
 20
11.0621585422092
 30
0.0
 10
-104.7565256754557
 20
11.0621585422092
 30
0.0
 10
-105.3091189914279
 20
11.0621585422092
 30
0.0
 10
-105.7611155192057
 20
11.5086429172092
 30
0.0
 10
-105.7611155192057
 20
12.06537034776475
 30
0.0
 10
-105.7611155192057
 20
12.06537034776475
 30
0.0
 10
-105.7611155192057
 20
24.09426574707031
 30
0.0
 10
-105.7611155192057
 20
24.09426574707031
 30
0.0
 10
-105.7611155192057
 20
24.64685906304253
 30
0.0
 10
-105.3091189914279
 20
25.09334343804253
 30
0.0
 10
-104.7565256754557
 20
25.09334343804253
 30
0.0
 10
-104.7565256754557
 20
25.09334343804253
 30
0.0
 10
-90.72534077962238
 20
25.09334343804253
 30
0.0
 10
-90.72534077962238
 20
25.09334343804253
 30
0.0
 10
-90.16723531087238
 20
25.09334343804253
 30
0.0
 10
-89.72075093587239
 20
24.64685906304253
 30
0.0
 10
-89.72075093587239
 20
24.09426574707031
 30
0.0
 10
-89.72075093587239
 20
24.09426574707031
 30
0.0
 10
-89.72075093587239
 20
21.08738640679253
 30
0.0
 10
-89.72075093587239
 20
21.08738640679253
 30
0.0
  0
SPLINE
  5
197
100
AcDbEntity
  8
ALPHA
 62
     7
100
AcDbSpline
210
0.0
220
0.0
230
1.0
 70
    11
 71
     3
 72
    26
 73
    22
 74
     0
 42
0.0000001
 43
0.0000001
 40
0.0
 40
0.0
 40
0.0
 40
0.0
 40
1.0
 40
1.0
 40
1.0
 40
2.0
 40
2.0
 40
2.0
 40
3.0
 40
3.0
 40
3.0
 40
4.0
 40
4.0
 40
4.0
 40
5.0
 40
5.0
 40
5.0
 40
6.0
 40
6.0
 40
6.0
 40
7.0
 40
7.0
 40
7.0
 40
7.0
 10
-92.73314242892794
 20
18.08050706651475
 30
0.0
 10
-92.73314242892794
 20
18.08050706651475
 30
0.0
 10
-89.72626308865017
 20
21.08738640679253
 30
0.0
 10
-89.72626308865017
 20
21.08738640679253
 30
0.0
 10
-89.72626308865017
 20
21.08738640679253
 30
0.0
 10
-84.71571621365017
 20
21.08738640679253
 30
0.0
 10
-84.71571621365017
 20
21.08738640679253
 30
0.0
 10
-83.05242411295571
 20
21.08738640679253
 30
0.0
 10
-81.70745883517794
 20
19.73828701443142
 30
0.0
 10
-81.70745883517794
 20
18.08050706651475
 30
0.0
 10
-81.70745883517794
 20
18.08050706651475
 30
0.0
 10
-81.70745883517794
 20
18.08050706651475
 30
0.0
 10
-81.70745883517794
 20
18.08050706651475
 30
0.0
 10
-81.70745883517794
 20
16.41721496582031
 30
0.0
 10
-83.05242411295571
 20
15.07362772623697
 30
0.0
 10
-84.71571621365017
 20
15.07362772623697
 30
0.0
 10
-84.71571621365017
 20
15.07362772623697
 30
0.0
 10
-89.72626308865017
 20
15.07362772623697
 30
0.0
 10
-89.72626308865017
 20
15.07362772623697
 30
0.0
 10
-89.72626308865017
 20
15.07362772623697
 30
0.0
 10
-92.73314242892794
 20
18.08050706651475
 30
0.0
 10
-92.73314242892794
 20
18.08050706651475
 30
0.0
  0
SPLINE
  5
198
100
AcDbEntity
  8
ALPHA
 62
     7
100
AcDbSpline
210
0.0
220
0.0
230
-1.0
 70
     8
 71
     3
 72
    32
 73
    28
 74
     0
 42
0.0000001
 43
0.0000001
 40
0.0
 40
0.0
 40
0.0
 40
0.0
 40
1.0
 40
1.0
 40
1.0
 40
2.0
 40
2.0
 40
2.0
 40
3.0
 40
3.0
 40
3.0
 40
4.0
 40
4.0
 40
4.0
 40
5.0
 40
5.0
 40
5.0
 40
6.0
 40
6.0
 40
6.0
 40
7.0
 40
7.0
 40
7.0
 40
8.0
 40
8.0
 40
8.0
 40
9.0
 40
9.0
 40
9.0
 40
9.0
 10
-89.72075093587239
 20
-4.024775865342881
 30
0.0
 10
-89.72075093587239
 20
-4.024775865342881
 30
0.0
 10
-89.72075093587239
 20
-7.031655205620658
 30
0.0
 10
-89.72075093587239
 20
-7.031655205620658
 30
0.0
 10
-89.72075093587239
 20
-7.589760674370658
 30
0.0
 10
-90.16723531087238
 20
-8.036245049370659
 30
0.0
 10
-90.72534077962238
 20
-8.036245049370659
 30
0.0
 10
-90.72534077962238
 20
-8.036245049370659
 30
0.0
 10
-104.7565256754557
 20
-8.036245049370659
 30
0.0
 10
-104.7565256754557
 20
-8.036245049370659
 30
0.0
 10
-105.3091189914279
 20
-8.036245049370659
 30
0.0
 10
-105.7611155192057
 20
-7.589760674370658
 30
0.0
 10
-105.7611155192057
 20
-7.031655205620658
 30
0.0
 10
-105.7611155192057
 20
-7.031655205620658
 30
0.0
 10
-105.7611155192057
 20
4.997240193684895
 30
0.0
 10
-105.7611155192057
 20
4.997240193684895
 30
0.0
 10
-105.7611155192057
 20
5.549833509657117
 30
0.0
 10
-105.3091189914279
 20
5.996317884657117
 30
0.0
 10
-104.7565256754557
 20
5.996317884657117
 30
0.0
 10
-104.7565256754557
 20
5.996317884657117
 30
0.0
 10
-90.72534077962238
 20
5.996317884657117
 30
0.0
 10
-90.72534077962238
 20
5.996317884657117
 30
0.0
 10
-90.16723531087238
 20
5.996317884657117
 30
0.0
 10
-89.72075093587239
 20
5.549833509657117
 30
0.0
 10
-89.72075093587239
 20
4.997240193684895
 30
0.0
 10
-89.72075093587239
 20
4.997240193684895
 30
0.0
 10
-89.72075093587239
 20
1.988982815212673
 30
0.0
 10
-89.72075093587239
 20
1.988982815212673
 30
0.0
  0
SPLINE
  5
199
100
AcDbEntity
  8
ALPHA
 62
     7
100
AcDbSpline
210
0.0
220
0.0
230
1.0
 70
    11
 71
     3
 72
    26
 73
    22
 74
     0
 42
0.0000001
 43
0.0000001
 40
0.0
 40
0.0
 40
0.0
 40
0.0
 40
1.0
 40
1.0
 40
1.0
 40
2.0
 40
2.0
 40
2.0
 40
3.0
 40
3.0
 40
3.0
 40
4.0
 40
4.0
 40
4.0
 40
5.0
 40
5.0
 40
5.0
 40
6.0
 40
6.0
 40
6.0
 40
7.0
 40
7.0
 40
7.0
 40
7.0
 10
-92.73314242892794
 20
-1.017896525065103
 30
0.0
 10
-92.73314242892794
 20
-1.017896525065103
 30
0.0
 10
-89.72626308865017
 20
1.988982815212673
 30
0.0
 10
-89.72626308865017
 20
1.988982815212673
 30
0.0
 10
-89.72626308865017
 20
1.988982815212673
 30
0.0
 10
-84.71571621365017
 20
1.988982815212673
 30
0.0
 10
-84.71571621365017
 20
1.988982815212673
 30
0.0
 10
-83.05242411295571
 20
1.988982815212673
 30
0.0
 10
-81.70745883517794
 20
0.6398834228515625
 30
0.0
 10
-81.70745883517794
 20
-1.017896525065103
 30
0.0
 10
-81.70745883517794
 20
-1.017896525065103
 30
0.0
 10
-81.70745883517794
 20
-1.017896525065103
 30
0.0
 10
-81.70745883517794
 20
-1.017896525065103
 30
0.0
 10
-81.70745883517794
 20
-2.679810587565103
 30
0.0
 10
-83.05242411295571
 20
-4.024775865342881
 30
0.0
 10
-84.71571621365017
 20
-4.024775865342881
 30
0.0
 10
-84.71571621365017
 20
-4.024775865342881
 30
0.0
 10
-89.72626308865017
 20
-4.024775865342881
 30
0.0
 10
-89.72626308865017
 20
-4.024775865342881
 30
0.0
 10
-89.72626308865017
 20
-4.024775865342881
 30
0.0
 10
-92.73314242892794
 20
-1.017896525065103
 30
0.0
 10
-92.73314242892794
 20
-1.017896525065103
 30
0.0
  0
SPLINE
  5
19A
100
AcDbEntity
  8
ALPHA
 62
     7
100
AcDbSpline
210
0.0
220
0.0
230
-1.0
 70
     8
 71
     3
 72
    32
 73
    28
 74
     0
 42
0.0000001
 43
0.0000001
 40
0.0
 40
0.0
 40
0.0
 40
0.0
 40
1.0
 40
1.0
 40
1.0
 40
2.0
 40
2.0
 40
2.0
 40
3.0
 40
3.0
 40
3.0
 40
4.0
 40
4.0
 40
4.0
 40
5.0
 40
5.0
 40
5.0
 40
6.0
 40
6.0
 40
6.0
 40
7.0
 40
7.0
 40
7.0
 40
8.0
 40
8.0
 40
8.0
 40
9.0
 40
9.0
 40
9.0
 40
9.0
 10
-89.72075093587239
 20
-23.12300720214843
 30
0.0
 10
-89.72075093587239
 20
-23.12300720214843
 30
0.0
 10
-89.72075093587239
 20
-26.12988654242621
 30
0.0
 10
-89.72075093587239
 20
-26.12988654242621
 30
0.0
 10
-89.72075093587239
 20
-26.68661397298176
 30
0.0
 10
-90.16723531087238
 20
-27.13309834798177
 30
0.0
 10
-90.72534077962238
 20
-27.13309834798177
 30
0.0
 10
-90.72534077962238
 20
-27.13309834798177
 30
0.0
 10
-104.7565256754557
 20
-27.13309834798177
 30
0.0
 10
-104.7565256754557
 20
-27.13309834798177
 30
0.0
 10
-105.3091189914279
 20
-27.13309834798177
 30
0.0
 10
-105.7611155192057
 20
-26.68661397298176
 30
0.0
 10
-105.7611155192057
 20
-26.12988654242621
 30
0.0
 10
-105.7611155192057
 20
-26.12988654242621
 30
0.0
 10
-105.7611155192057
 20
-14.10099114312066
 30
0.0
 10
-105.7611155192057
 20
-14.10099114312066
 30
0.0
 10
-105.7611155192057
 20
-13.54839782714843
 30
0.0
 10
-105.3091189914279
 20
-13.10191345214843
 30
0.0
 10
-104.7565256754557
 20
-13.10191345214843
 30
0.0
 10
-104.7565256754557
 20
-13.10191345214843
 30
0.0
 10
-90.72534077962238
 20
-13.10191345214843
 30
0.0
 10
-90.72534077962238
 20
-13.10191345214843
 30
0.0
 10
-90.16723531087238
 20
-13.10191345214843
 30
0.0
 10
-89.72075093587239
 20
-13.54839782714843
 30
0.0
 10
-89.72075093587239
 20
-14.10099114312066
 30
0.0
 10
-89.72075093587239
 20
-14.10099114312066
 30
0.0
 10
-89.72075093587239
 20
-17.10787048339843
 30
0.0
 10
-89.72075093587239
 20
-17.10787048339843
 30
0.0
  0
SPLINE
  5
19B
100
AcDbEntity
  8
ALPHA
 62
     7
100
AcDbSpline
210
0.0
220
0.0
230
1.0
 70
    11
 71
     3
 72
    26
 73
    22
 74
     0
 42
0.0000001
 43
0.0000001
 40
0.0
 40
0.0
 40
0.0
 40
0.0
 40
1.0
 40
1.0
 40
1.0
 40
2.0
 40
2.0
 40
2.0
 40
3.0
 40
3.0
 40
3.0
 40
4.0
 40
4.0
 40
4.0
 40
5.0
 40
5.0
 40
5.0
 40
6.0
 40
6.0
 40
6.0
 40
7.0
 40
7.0
 40
7.0
 40
7.0
 10
-92.73314242892794
 20
-20.11474982367621
 30
0.0
 10
-92.73314242892794
 20
-20.11474982367621
 30
0.0
 10
-89.72626308865017
 20
-17.10787048339843
 30
0.0
 10
-89.72626308865017
 20
-17.10787048339843
 30
0.0
 10
-89.72626308865017
 20
-17.10787048339843
 30
0.0
 10
-84.71571621365017
 20
-17.10787048339843
 30
0.0
 10
-84.71571621365017
 20
-17.10787048339843
 30
0.0
 10
-83.05242411295571
 20
-17.10787048339843
 30
0.0
 10
-81.70745883517794
 20
-18.45696987575954
 30
0.0
 10
-81.70745883517794
 20
-20.11474982367621
 30
0.0
 10
-81.70745883517794
 20
-20.11474982367621
 30
0.0
 10
-81.70745883517794
 20
-20.11474982367621
 30
0.0
 10
-81.70745883517794
 20
-20.11474982367621
 30
0.0
 10
-81.70745883517794
 20
-21.77804192437065
 30
0.0
 10
-83.05242411295571
 20
-23.12300720214843
 30
0.0
 10
-84.71571621365017
 20
-23.12300720214843
 30
0.0
 10
-84.71571621365017
 20
-23.12300720214843
 30
0.0
 10
-89.72626308865017
 20
-23.12300720214843
 30
0.0
 10
-89.72626308865017
 20
-23.12300720214843
 30
0.0
 10
-89.72626308865017
 20
-23.12300720214843
 30
0.0
 10
-92.73314242892794
 20
-20.11474982367621
 30
0.0
 10
-92.73314242892794
 20
-20.11474982367621
 30
0.0
  0
SPLINE
  5
19C
100
AcDbEntity
  8
ALPHA
 62
     7
100
AcDbSpline
210
0.0
220
0.0
230
-1.0
 70
     8
 71
     3
 72
    32
 73
    28
 74
     0
 42
0.0000001
 43
0.0000001
 40
0.0
 40
0.0
 40
0.0
 40
0.0
 40
1.0
 40
1.0
 40
1.0
 40
2.0
 40
2.0
 40
2.0
 40
3.0
 40
3.0
 40
3.0
 40
4.0
 40
4.0
 40
4.0
 40
5.0
 40
5.0
 40
5.0
 40
6.0
 40
6.0
 40
6.0
 40
7.0
 40
7.0
 40
7.0
 40
8.0
 40
8.0
 40
8.0
 40
9.0
 40
9.0
 40
9.0
 40
9.0
 10
-89.72075093587239
 20
-42.21986050075954
 30
0.0
 10
-89.72075093587239
 20
-42.21986050075954
 30
0.0
 10
-89.72075093587239
 20
-45.22811787923177
 30
0.0
 10
-89.72075093587239
 20
-45.22811787923177
 30
0.0
 10
-89.72075093587239
 20
-45.78484530978732
 30
0.0
 10
-90.16723531087238
 20
-46.23132968478731
 30
0.0
 10
-90.72534077962238
 20
-46.23132968478731
 30
0.0
 10
-90.72534077962238
 20
-46.23132968478731
 30
0.0
 10
-104.7565256754557
 20
-46.23132968478731
 30
0.0
 10
-104.7565256754557
 20
-46.23132968478731
 30
0.0
 10
-105.3091189914279
 20
-46.23132968478731
 30
0.0
 10
-105.7611155192057
 20
-45.78484530978732
 30
0.0
 10
-105.7611155192057
 20
-45.22811787923177
 30
0.0
 10
-105.7611155192057
 20
-45.22811787923177
 30
0.0
 10
-105.7611155192057
 20
-33.19922247992621
 30
0.0
 10
-105.7611155192057
 20
-33.19922247992621
 30
0.0
 10
-105.7611155192057
 20
-32.64662916395399
 30
0.0
 10
-105.3091189914279
 20
-32.19876675075954
 30
0.0
 10
-104.7565256754557
 20
-32.19876675075954
 30
0.0
 10
-104.7565256754557
 20
-32.19876675075954
 30
0.0
 10
-90.72534077962238
 20
-32.19876675075954
 30
0.0
 10
-90.72534077962238
 20
-32.19876675075954
 30
0.0
 10
-90.16723531087238
 20
-32.19876675075954
 30
0.0
 10
-89.72075093587239
 20
-32.64662916395399
 30
0.0
 10
-89.72075093587239
 20
-33.19922247992621
 30
0.0
 10
-89.72075093587239
 20
-33.19922247992621
 30
0.0
 10
-89.72075093587239
 20
-36.20610182020399
 30
0.0
 10
-89.72075093587239
 20
-36.20610182020399
 30
0.0
  0
SPLINE
  5
19D
100
AcDbEntity
  8
ALPHA
 62
     7
100
AcDbSpline
210
0.0
220
0.0
230
1.0
 70
    11
 71
     3
 72
    26
 73
    22
 74
     0
 42
0.0000001
 43
0.0000001
 40
0.0
 40
0.0
 40
0.0
 40
0.0
 40
1.0
 40
1.0
 40
1.0
 40
2.0
 40
2.0
 40
2.0
 40
3.0
 40
3.0
 40
3.0
 40
4.0
 40
4.0
 40
4.0
 40
5.0
 40
5.0
 40
5.0
 40
6.0
 40
6.0
 40
6.0
 40
7.0
 40
7.0
 40
7.0
 40
7.0
 10
-92.73314242892794
 20
-39.21298116048177
 30
0.0
 10
-92.73314242892794
 20
-39.21298116048177
 30
0.0
 10
-89.72626308865017
 20
-36.20610182020399
 30
0.0
 10
-89.72626308865017
 20
-36.20610182020399
 30
0.0
 10
-89.72626308865017
 20
-36.20610182020399
 30
0.0
 10
-84.71571621365017
 20
-36.20610182020399
 30
0.0
 10
-84.71571621365017
 20
-36.20610182020399
 30
0.0
 10
-83.05242411295571
 20
-36.20610182020399
 30
0.0
 10
-81.70745883517794
 20
-37.5552012125651
 30
0.0
 10
-81.70745883517794
 20
-39.21298116048177
 30
0.0
 10
-81.70745883517794
 20
-39.21298116048177
 30
0.0
 10
-81.70745883517794
 20
-39.21298116048177
 30
0.0
 10
-81.70745883517794
 20
-39.21298116048177
 30
0.0
 10
-81.70745883517794
 20
-40.87489522298176
 30
0.0
 10
-83.05242411295571
 20
-42.21986050075954
 30
0.0
 10
-84.71571621365017
 20
-42.21986050075954
 30
0.0
 10
-84.71571621365017
 20
-42.21986050075954
 30
0.0
 10
-89.72626308865017
 20
-42.21986050075954
 30
0.0
 10
-89.72626308865017
 20
-42.21986050075954
 30
0.0
 10
-89.72626308865017
 20
-42.21986050075954
 30
0.0
 10
-92.73314242892794
 20
-39.21298116048177
 30
0.0
 10
-92.73314242892794
 20
-39.21298116048177
 30
0.0
  0
SPLINE
  5
19E
100
AcDbEntity
  8
ALPHA
 62
     7
100
AcDbSpline
210
0.0
220
0.0
230
-1.0
 70
     8
 71
     3
 72
    32
 73
    28
 74
     0
 42
0.0000001
 43
0.0000001
 40
0.0
 40
0.0
 40
0.0
 40
0.0
 40
1.0
 40
1.0
 40
1.0
 40
2.0
 40
2.0
 40
2.0
 40
3.0
 40
3.0
 40
3.0
 40
4.0
 40
4.0
 40
4.0
 40
5.0
 40
5.0
 40
5.0
 40
6.0
 40
6.0
 40
6.0
 40
7.0
 40
7.0
 40
7.0
 40
8.0
 40
8.0
 40
8.0
 40
9.0
 40
9.0
 40
9.0
 40
9.0
 10
-89.72075093587239
 20
-61.3180918375651
 30
0.0
 10
-89.72075093587239
 20
-61.3180918375651
 30
0.0
 10
-89.72075093587239
 20
-64.32497117784286
 30
0.0
 10
-89.72075093587239
 20
-64.32497117784286
 30
0.0
 10
-89.72075093587239
 20
-64.88169860839843
 30
0.0
 10
-90.16723531087238
 20
-65.32956102159288
 30
0.0
 10
-90.72534077962238
 20
-65.32956102159288
 30
0.0
 10
-90.72534077962238
 20
-65.32956102159288
 30
0.0
 10
-104.7565256754557
 20
-65.32956102159288
 30
0.0
 10
-104.7565256754557
 20
-65.32956102159288
 30
0.0
 10
-105.3091189914279
 20
-65.32956102159288
 30
0.0
 10
-105.7611155192057
 20
-64.88169860839843
 30
0.0
 10
-105.7611155192057
 20
-64.32497117784286
 30
0.0
 10
-105.7611155192057
 20
-64.32497117784286
 30
0.0
 10
-105.7611155192057
 20
-52.29607577853732
 30
0.0
 10
-105.7611155192057
 20
-52.29607577853732
 30
0.0
 10
-105.7611155192057
 20
-51.7434824625651
 30
0.0
 10
-105.3091189914279
 20
-51.2969980875651
 30
0.0
 10
-104.7565256754557
 20
-51.2969980875651
 30
0.0
 10
-104.7565256754557
 20
-51.2969980875651
 30
0.0
 10
-90.72534077962238
 20
-51.2969980875651
 30
0.0
 10
-90.72534077962238
 20
-51.2969980875651
 30
0.0
 10
-90.16723531087238
 20
-51.2969980875651
 30
0.0
 10
-89.72075093587239
 20
-51.7434824625651
 30
0.0
 10
-89.72075093587239
 20
-52.29607577853732
 30
0.0
 10
-89.72075093587239
 20
-52.29607577853732
 30
0.0
 10
-89.72075093587239
 20
-55.3029551188151
 30
0.0
 10
-89.72075093587239
 20
-55.3029551188151
 30
0.0
  0
SPLINE
  5
19F
100
AcDbEntity
  8
ALPHA
 62
     7
100
AcDbSpline
210
0.0
220
0.0
230
1.0
 70
    11
 71
     3
 72
    26
 73
    22
 74
     0
 42
0.0000001
 43
0.0000001
 40
0.0
 40
0.0
 40
0.0
 40
0.0
 40
1.0
 40
1.0
 40
1.0
 40
2.0
 40
2.0
 40
2.0
 40
3.0
 40
3.0
 40
3.0
 40
4.0
 40
4.0
 40
4.0
 40
5.0
 40
5.0
 40
5.0
 40
6.0
 40
6.0
 40
6.0
 40
7.0
 40
7.0
 40
7.0
 40
7.0
 10
-92.73314242892794
 20
-58.31121249728732
 30
0.0
 10
-92.73314242892794
 20
-58.31121249728732
 30
0.0
 10
-89.72626308865017
 20
-55.3029551188151
 30
0.0
 10
-89.72626308865017
 20
-55.3029551188151
 30
0.0
 10
-89.72626308865017
 20
-55.3029551188151
 30
0.0
 10
-84.71571621365017
 20
-55.3029551188151
 30
0.0
 10
-84.71571621365017
 20
-55.3029551188151
 30
0.0
 10
-83.05242411295571
 20
-55.3029551188151
 30
0.0
 10
-81.70745883517794
 20
-56.65343254937066
 30
0.0
 10
-81.70745883517794
 20
-58.31121249728732
 30
0.0
 10
-81.70745883517794
 20
-58.31121249728732
 30
0.0
 10
-81.70745883517794
 20
-58.31121249728732
 30
0.0
 10
-81.70745883517794
 20
-58.31121249728732
 30
0.0
 10
-81.70745883517794
 20
-59.97312655978731
 30
0.0
 10
-83.05242411295571
 20
-61.3180918375651
 30
0.0
 10
-84.71571621365017
 20
-61.3180918375651
 30
0.0
 10
-84.71571621365017
 20
-61.3180918375651
 30
0.0
 10
-89.72626308865017
 20
-61.3180918375651
 30
0.0
 10
-89.72626308865017
 20
-61.3180918375651
 30
0.0
 10
-89.72626308865017
 20
-61.3180918375651
 30
0.0
 10
-92.73314242892794
 20
-58.31121249728732
 30
0.0
 10
-92.73314242892794
 20
-58.31121249728732
 30
0.0
  0
SPLINE
  5
1A0
100
AcDbEntity
  8
ALPHA
 62
     7
100
AcDbSpline
210
0.0
220
0.0
230
-1.0
 70
     8
 71
     3
 72
    32
 73
    28
 74
     0
 42
0.0000001
 43
0.0000001
 40
0.0
 40
0.0
 40
0.0
 40
0.0
 40
1.0
 40
1.0
 40
1.0
 40
2.0
 40
2.0
 40
2.0
 40
3.0
 40
3.0
 40
3.0
 40
4.0
 40
4.0
 40
4.0
 40
5.0
 40
5.0
 40
5.0
 40
6.0
 40
6.0
 40
6.0
 40
7.0
 40
7.0
 40
7.0
 40
8.0
 40
8.0
 40
8.0
 40
9.0
 40
9.0
 40
9.0
 40
9.0
 10
-89.72075093587239
 20
-80.41494513617621
 30
0.0
 10
-89.72075093587239
 20
-80.41494513617621
 30
0.0
 10
-89.72075093587239
 20
-83.42320251464842
 30
0.0
 10
-89.72075093587239
 20
-83.42320251464842
 30
0.0
 10
-89.72075093587239
 20
-83.97992994520398
 30
0.0
 10
-90.16723531087238
 20
-84.42641432020399
 30
0.0
 10
-90.72534077962238
 20
-84.42641432020399
 30
0.0
 10
-90.72534077962238
 20
-84.42641432020399
 30
0.0
 10
-104.7565256754557
 20
-84.42641432020399
 30
0.0
 10
-104.7565256754557
 20
-84.42641432020399
 30
0.0
 10
-105.3091189914279
 20
-84.42641432020399
 30
0.0
 10
-105.7611155192057
 20
-83.97992994520398
 30
0.0
 10
-105.7611155192057
 20
-83.42320251464842
 30
0.0
 10
-105.7611155192057
 20
-83.42320251464842
 30
0.0
 10
-105.7611155192057
 20
-71.39430711534287
 30
0.0
 10
-105.7611155192057
 20
-71.39430711534287
 30
0.0
 10
-105.7611155192057
 20
-70.84171379937065
 30
0.0
 10
-105.3091189914279
 20
-70.39522942437065
 30
0.0
 10
-104.7565256754557
 20
-70.39522942437065
 30
0.0
 10
-104.7565256754557
 20
-70.39522942437065
 30
0.0
 10
-90.72534077962238
 20
-70.39522942437065
 30
0.0
 10
-90.72534077962238
 20
-70.39522942437065
 30
0.0
 10
-90.16723531087238
 20
-70.39522942437065
 30
0.0
 10
-89.72075093587239
 20
-70.84171379937065
 30
0.0
 10
-89.72075093587239
 20
-71.39430711534287
 30
0.0
 10
-89.72075093587239
 20
-71.39430711534287
 30
0.0
 10
-89.72075093587239
 20
-74.40118645562065
 30
0.0
 10
-89.72075093587239
 20
-74.40118645562065
 30
0.0
  0
SPLINE
  5
1A1
100
AcDbEntity
  8
ALPHA
 62
     7
100
AcDbSpline
210
0.0
220
0.0
230
1.0
 70
    11
 71
     3
 72
    26
 73
    22
 74
     0
 42
0.0000001
 43
0.0000001
 40
0.0
 40
0.0
 40
0.0
 40
0.0
 40
1.0
 40
1.0
 40
1.0
 40
2.0
 40
2.0
 40
2.0
 40
3.0
 40
3.0
 40
3.0
 40
4.0
 40
4.0
 40
4.0
 40
5.0
 40
5.0
 40
5.0
 40
6.0
 40
6.0
 40
6.0
 40
7.0
 40
7.0
 40
7.0
 40
7.0
 10
-92.73314242892794
 20
-77.40806579589843
 30
0.0
 10
-92.73314242892794
 20
-77.40806579589843
 30
0.0
 10
-89.72626308865017
 20
-74.40118645562065
 30
0.0
 10
-89.72626308865017
 20
-74.40118645562065
 30
0.0
 10
-89.72626308865017
 20
-74.40118645562065
 30
0.0
 10
-84.71571621365017
 20
-74.40118645562065
 30
0.0
 10
-84.71571621365017
 20
-74.40118645562065
 30
0.0
 10
-83.05242411295571
 20
-74.40118645562065
 30
0.0
 10
-81.70745883517794
 20
-75.75028584798175
 30
0.0
 10
-81.70745883517794
 20
-77.40806579589843
 30
0.0
 10
-81.70745883517794
 20
-77.40806579589843
 30
0.0
 10
-81.70745883517794
 20
-77.40806579589843
 30
0.0
 10
-81.70745883517794
 20
-77.40806579589843
 30
0.0
 10
-81.70745883517794
 20
-79.07135789659287
 30
0.0
 10
-83.05242411295571
 20
-80.41494513617621
 30
0.0
 10
-84.71571621365017
 20
-80.41494513617621
 30
0.0
 10
-84.71571621365017
 20
-80.41494513617621
 30
0.0
 10
-89.72626308865017
 20
-80.41494513617621
 30
0.0
 10
-89.72626308865017
 20
-80.41494513617621
 30
0.0
 10
-89.72626308865017
 20
-80.41494513617621
 30
0.0
 10
-92.73314242892794
 20
-77.40806579589843
 30
0.0
 10
-92.73314242892794
 20
-77.40806579589843
 30
0.0
  0
SPLINE
  5
1A2
100
AcDbEntity
  8
ALPHA
 62
     7
100
AcDbSpline
210
0.0
220
0.0
230
-1.0
 70
     8
 71
     3
 72
    32
 73
    28
 74
     0
 42
0.0000001
 43
0.0000001
 40
0.0
 40
0.0
 40
0.0
 40
0.0
 40
1.0
 40
1.0
 40
1.0
 40
2.0
 40
2.0
 40
2.0
 40
3.0
 40
3.0
 40
3.0
 40
4.0
 40
4.0
 40
4.0
 40
5.0
 40
5.0
 40
5.0
 40
6.0
 40
6.0
 40
6.0
 40
7.0
 40
7.0
 40
7.0
 40
8.0
 40
8.0
 40
8.0
 40
9.0
 40
9.0
 40
9.0
 40
9.0
 10
89.68311326768661
 20
15.07362772623697
 30
0.0
 10
89.68311326768661
 20
15.07362772623697
 30
0.0
 10
89.68311326768661
 20
12.06537034776475
 30
0.0
 10
89.68311326768661
 20
12.06537034776475
 30
0.0
 10
89.68311326768661
 20
11.5086429172092
 30
0.0
 10
90.12959764268662
 20
11.0621585422092
 30
0.0
 10
90.68219095865885
 20
11.0621585422092
 30
0.0
 10
90.68219095865885
 20
11.0621585422092
 30
0.0
 10
104.7188880072699
 20
11.0621585422092
 30
0.0
 10
104.7188880072699
 20
11.0621585422092
 30
0.0
 10
105.2714813232421
 20
11.0621585422092
 30
0.0
 10
105.7220998128254
 20
11.5086429172092
 30
0.0
 10
105.7220998128254
 20
12.06537034776475
 30
0.0
 10
105.7220998128254
 20
12.06537034776475
 30
0.0
 10
105.7220998128254
 20
24.09426574707031
 30
0.0
 10
105.7220998128254
 20
24.09426574707031
 30
0.0
 10
105.7220998128254
 20
24.64685906304253
 30
0.0
 10
105.2714813232421
 20
25.09334343804253
 30
0.0
 10
104.7188880072699
 20
25.09334343804253
 30
0.0
 10
104.7188880072699
 20
25.09334343804253
 30
0.0
 10
90.68219095865885
 20
25.09334343804253
 30
0.0
 10
90.68219095865885
 20
25.09334343804253
 30
0.0
 10
90.12959764268662
 20
25.09334343804253
 30
0.0
 10
89.68311326768661
 20
24.64685906304253
 30
0.0
 10
89.68311326768661
 20
24.09426574707031
 30
0.0
 10
89.68311326768661
 20
24.09426574707031
 30
0.0
 10
89.68311326768661
 20
21.08738640679253
 30
0.0
 10
89.68311326768661
 20
21.08738640679253
 30
0.0
  0
SPLINE
  5
1A3
100
AcDbEntity
  8
ALPHA
 62
     7
100
AcDbSpline
210
0.0
220
0.0
230
1.0
 70
    11
 71
     3
 72
    26
 73
    22
 74
     0
 42
0.0000001
 43
0.0000001
 40
0.0
 40
0.0
 40
0.0
 40
0.0
 40
1.0
 40
1.0
 40
1.0
 40
2.0
 40
2.0
 40
2.0
 40
3.0
 40
3.0
 40
3.0
 40
4.0
 40
4.0
 40
4.0
 40
5.0
 40
5.0
 40
5.0
 40
6.0
 40
6.0
 40
6.0
 40
7.0
 40
7.0
 40
7.0
 40
7.0
 10
92.69412672254773
 20
18.08050706651475
 30
0.0
 10
92.69412672254773
 20
18.08050706651475
 30
0.0
 10
89.68724738226995
 20
21.08738640679253
 30
0.0
 10
89.68724738226995
 20
21.08738640679253
 30
0.0
 10
89.68724738226995
 20
21.08738640679253
 30
0.0
 10
84.67256639268661
 20
21.08738640679253
 30
0.0
 10
84.67256639268661
 20
21.08738640679253
 30
0.0
 10
83.01478644476995
 20
21.08738640679253
 30
0.0
 10
81.66568705240884
 20
19.73828701443142
 30
0.0
 10
81.66568705240884
 20
18.08050706651475
 30
0.0
 10
81.66568705240884
 20
18.08050706651475
 30
0.0
 10
81.66568705240884
 20
18.08050706651475
 30
0.0
 10
81.66568705240884
 20
18.08050706651475
 30
0.0
 10
81.66568705240884
 20
16.41721496582031
 30
0.0
 10
83.01478644476995
 20
15.07362772623697
 30
0.0
 10
84.67256639268661
 20
15.07362772623697
 30
0.0
 10
84.67256639268661
 20
15.07362772623697
 30
0.0
 10
89.68724738226995
 20
15.07362772623697
 30
0.0
 10
89.68724738226995
 20
15.07362772623697
 30
0.0
 10
89.68724738226995
 20
15.07362772623697
 30
0.0
 10
92.69412672254773
 20
18.08050706651475
 30
0.0
 10
92.69412672254773
 20
18.08050706651475
 30
0.0
  0
SPLINE
  5
1A4
100
AcDbEntity
  8
ALPHA
 62
     7
100
AcDbSpline
210
0.0
220
0.0
230
-1.0
 70
     8
 71
     3
 72
    32
 73
    28
 74
     0
 42
0.0000001
 43
0.0000001
 40
0.0
 40
0.0
 40
0.0
 40
0.0
 40
1.0
 40
1.0
 40
1.0
 40
2.0
 40
2.0
 40
2.0
 40
3.0
 40
3.0
 40
3.0
 40
4.0
 40
4.0
 40
4.0
 40
5.0
 40
5.0
 40
5.0
 40
6.0
 40
6.0
 40
6.0
 40
7.0
 40
7.0
 40
7.0
 40
8.0
 40
8.0
 40
8.0
 40
9.0
 40
9.0
 40
9.0
 40
9.0
 10
89.68311326768661
 20
-4.024775865342881
 30
0.0
 10
89.68311326768661
 20
-4.024775865342881
 30
0.0
 10
89.68311326768661
 20
-7.031655205620658
 30
0.0
 10
89.68311326768661
 20
-7.031655205620658
 30
0.0
 10
89.68311326768661
 20
-7.589760674370658
 30
0.0
 10
90.12959764268662
 20
-8.036245049370659
 30
0.0
 10
90.68219095865885
 20
-8.036245049370659
 30
0.0
 10
90.68219095865885
 20
-8.036245049370659
 30
0.0
 10
104.7188880072699
 20
-8.036245049370659
 30
0.0
 10
104.7188880072699
 20
-8.036245049370659
 30
0.0
 10
105.2714813232421
 20
-8.036245049370659
 30
0.0
 10
105.7220998128254
 20
-7.589760674370658
 30
0.0
 10
105.7220998128254
 20
-7.031655205620658
 30
0.0
 10
105.7220998128254
 20
-7.031655205620658
 30
0.0
 10
105.7220998128254
 20
4.997240193684895
 30
0.0
 10
105.7220998128254
 20
4.997240193684895
 30
0.0
 10
105.7220998128254
 20
5.549833509657117
 30
0.0
 10
105.2714813232421
 20
5.996317884657117
 30
0.0
 10
104.7188880072699
 20
5.996317884657117
 30
0.0
 10
104.7188880072699
 20
5.996317884657117
 30
0.0
 10
90.68219095865885
 20
5.996317884657117
 30
0.0
 10
90.68219095865885
 20
5.996317884657117
 30
0.0
 10
90.12959764268662
 20
5.996317884657117
 30
0.0
 10
89.68311326768661
 20
5.549833509657117
 30
0.0
 10
89.68311326768661
 20
4.997240193684895
 30
0.0
 10
89.68311326768661
 20
4.997240193684895
 30
0.0
 10
89.68311326768661
 20
1.988982815212673
 30
0.0
 10
89.68311326768661
 20
1.988982815212673
 30
0.0
  0
SPLINE
  5
1A5
100
AcDbEntity
  8
ALPHA
 62
     7
100
AcDbSpline
210
0.0
220
0.0
230
1.0
 70
    11
 71
     3
 72
    26
 73
    22
 74
     0
 42
0.0000001
 43
0.0000001
 40
0.0
 40
0.0
 40
0.0
 40
0.0
 40
1.0
 40
1.0
 40
1.0
 40
2.0
 40
2.0
 40
2.0
 40
3.0
 40
3.0
 40
3.0
 40
4.0
 40
4.0
 40
4.0
 40
5.0
 40
5.0
 40
5.0
 40
6.0
 40
6.0
 40
6.0
 40
7.0
 40
7.0
 40
7.0
 40
7.0
 10
92.69412672254773
 20
-1.017896525065103
 30
0.0
 10
92.69412672254773
 20
-1.017896525065103
 30
0.0
 10
89.68724738226995
 20
1.988982815212673
 30
0.0
 10
89.68724738226995
 20
1.988982815212673
 30
0.0
 10
89.68724738226995
 20
1.988982815212673
 30
0.0
 10
84.67256639268661
 20
1.988982815212673
 30
0.0
 10
84.67256639268661
 20
1.988982815212673
 30
0.0
 10
83.01478644476995
 20
1.988982815212673
 30
0.0
 10
81.66568705240884
 20
0.6398834228515625
 30
0.0
 10
81.66568705240884
 20
-1.017896525065103
 30
0.0
 10
81.66568705240884
 20
-1.017896525065103
 30
0.0
 10
81.66568705240884
 20
-1.017896525065103
 30
0.0
 10
81.66568705240884
 20
-1.017896525065103
 30
0.0
 10
81.66568705240884
 20
-2.679810587565103
 30
0.0
 10
83.01478644476995
 20
-4.024775865342881
 30
0.0
 10
84.67256639268661
 20
-4.024775865342881
 30
0.0
 10
84.67256639268661
 20
-4.024775865342881
 30
0.0
 10
89.68724738226995
 20
-4.024775865342881
 30
0.0
 10
89.68724738226995
 20
-4.024775865342881
 30
0.0
 10
89.68724738226995
 20
-4.024775865342881
 30
0.0
 10
92.69412672254773
 20
-1.017896525065103
 30
0.0
 10
92.69412672254773
 20
-1.017896525065103
 30
0.0
  0
SPLINE
  5
1A6
100
AcDbEntity
  8
ALPHA
 62
     7
100
AcDbSpline
210
0.0
220
0.0
230
-1.0
 70
     8
 71
     3
 72
    32
 73
    28
 74
     0
 42
0.0000001
 43
0.0000001
 40
0.0
 40
0.0
 40
0.0
 40
0.0
 40
1.0
 40
1.0
 40
1.0
 40
2.0
 40
2.0
 40
2.0
 40
3.0
 40
3.0
 40
3.0
 40
4.0
 40
4.0
 40
4.0
 40
5.0
 40
5.0
 40
5.0
 40
6.0
 40
6.0
 40
6.0
 40
7.0
 40
7.0
 40
7.0
 40
8.0
 40
8.0
 40
8.0
 40
9.0
 40
9.0
 40
9.0
 40
9.0
 10
89.68311326768661
 20
-23.12300720214843
 30
0.0
 10
89.68311326768661
 20
-23.12300720214843
 30
0.0
 10
89.68311326768661
 20
-26.12988654242621
 30
0.0
 10
89.68311326768661
 20
-26.12988654242621
 30
0.0
 10
89.68311326768661
 20
-26.68661397298176
 30
0.0
 10
90.12959764268662
 20
-27.13309834798177
 30
0.0
 10
90.68219095865885
 20
-27.13309834798177
 30
0.0
 10
90.68219095865885
 20
-27.13309834798177
 30
0.0
 10
104.7188880072699
 20
-27.13309834798177
 30
0.0
 10
104.7188880072699
 20
-27.13309834798177
 30
0.0
 10
105.2714813232421
 20
-27.13309834798177
 30
0.0
 10
105.7220998128254
 20
-26.68661397298176
 30
0.0
 10
105.7220998128254
 20
-26.12988654242621
 30
0.0
 10
105.7220998128254
 20
-26.12988654242621
 30
0.0
 10
105.7220998128254
 20
-14.10099114312066
 30
0.0
 10
105.7220998128254
 20
-14.10099114312066
 30
0.0
 10
105.7220998128254
 20
-13.54839782714843
 30
0.0
 10
105.2714813232421
 20
-13.10191345214843
 30
0.0
 10
104.7188880072699
 20
-13.10191345214843
 30
0.0
 10
104.7188880072699
 20
-13.10191345214843
 30
0.0
 10
90.68219095865885
 20
-13.10191345214843
 30
0.0
 10
90.68219095865885
 20
-13.10191345214843
 30
0.0
 10
90.12959764268662
 20
-13.10191345214843
 30
0.0
 10
89.68311326768661
 20
-13.54839782714843
 30
0.0
 10
89.68311326768661
 20
-14.10099114312066
 30
0.0
 10
89.68311326768661
 20
-14.10099114312066
 30
0.0
 10
89.68311326768661
 20
-17.10787048339843
 30
0.0
 10
89.68311326768661
 20
-17.10787048339843
 30
0.0
  0
SPLINE
  5
1A7
100
AcDbEntity
  8
ALPHA
 62
     7
100
AcDbSpline
210
0.0
220
0.0
230
1.0
 70
    11
 71
     3
 72
    26
 73
    22
 74
     0
 42
0.0000001
 43
0.0000001
 40
0.0
 40
0.0
 40
0.0
 40
0.0
 40
1.0
 40
1.0
 40
1.0
 40
2.0
 40
2.0
 40
2.0
 40
3.0
 40
3.0
 40
3.0
 40
4.0
 40
4.0
 40
4.0
 40
5.0
 40
5.0
 40
5.0
 40
6.0
 40
6.0
 40
6.0
 40
7.0
 40
7.0
 40
7.0
 40
7.0
 10
92.69412672254773
 20
-20.11474982367621
 30
0.0
 10
92.69412672254773
 20
-20.11474982367621
 30
0.0
 10
89.68724738226995
 20
-17.10787048339843
 30
0.0
 10
89.68724738226995
 20
-17.10787048339843
 30
0.0
 10
89.68724738226995
 20
-17.10787048339843
 30
0.0
 10
84.67256639268661
 20
-17.10787048339843
 30
0.0
 10
84.67256639268661
 20
-17.10787048339843
 30
0.0
 10
83.01478644476995
 20
-17.10787048339843
 30
0.0
 10
81.66568705240884
 20
-18.45696987575954
 30
0.0
 10
81.66568705240884
 20
-20.11474982367621
 30
0.0
 10
81.66568705240884
 20
-20.11474982367621
 30
0.0
 10
81.66568705240884
 20
-20.11474982367621
 30
0.0
 10
81.66568705240884
 20
-20.11474982367621
 30
0.0
 10
81.66568705240884
 20
-21.77804192437065
 30
0.0
 10
83.01478644476995
 20
-23.12300720214843
 30
0.0
 10
84.67256639268661
 20
-23.12300720214843
 30
0.0
 10
84.67256639268661
 20
-23.12300720214843
 30
0.0
 10
89.68724738226995
 20
-23.12300720214843
 30
0.0
 10
89.68724738226995
 20
-23.12300720214843
 30
0.0
 10
89.68724738226995
 20
-23.12300720214843
 30
0.0
 10
92.69412672254773
 20
-20.11474982367621
 30
0.0
 10
92.69412672254773
 20
-20.11474982367621
 30
0.0
  0
SPLINE
  5
1A8
100
AcDbEntity
  8
ALPHA
 62
     7
100
AcDbSpline
210
0.0
220
0.0
230
-1.0
 70
     8
 71
     3
 72
    32
 73
    28
 74
     0
 42
0.0000001
 43
0.0000001
 40
0.0
 40
0.0
 40
0.0
 40
0.0
 40
1.0
 40
1.0
 40
1.0
 40
2.0
 40
2.0
 40
2.0
 40
3.0
 40
3.0
 40
3.0
 40
4.0
 40
4.0
 40
4.0
 40
5.0
 40
5.0
 40
5.0
 40
6.0
 40
6.0
 40
6.0
 40
7.0
 40
7.0
 40
7.0
 40
8.0
 40
8.0
 40
8.0
 40
9.0
 40
9.0
 40
9.0
 40
9.0
 10
89.68311326768661
 20
-42.21986050075954
 30
0.0
 10
89.68311326768661
 20
-42.21986050075954
 30
0.0
 10
89.68311326768661
 20
-45.22811787923177
 30
0.0
 10
89.68311326768661
 20
-45.22811787923177
 30
0.0
 10
89.68311326768661
 20
-45.78484530978732
 30
0.0
 10
90.12959764268662
 20
-46.23132968478731
 30
0.0
 10
90.68219095865885
 20
-46.23132968478731
 30
0.0
 10
90.68219095865885
 20
-46.23132968478731
 30
0.0
 10
104.7188880072699
 20
-46.23132968478731
 30
0.0
 10
104.7188880072699
 20
-46.23132968478731
 30
0.0
 10
105.2714813232421
 20
-46.23132968478731
 30
0.0
 10
105.7220998128254
 20
-45.78484530978732
 30
0.0
 10
105.7220998128254
 20
-45.22811787923177
 30
0.0
 10
105.7220998128254
 20
-45.22811787923177
 30
0.0
 10
105.7220998128254
 20
-33.19922247992621
 30
0.0
 10
105.7220998128254
 20
-33.19922247992621
 30
0.0
 10
105.7220998128254
 20
-32.64662916395399
 30
0.0
 10
105.2714813232421
 20
-32.19876675075954
 30
0.0
 10
104.7188880072699
 20
-32.19876675075954
 30
0.0
 10
104.7188880072699
 20
-32.19876675075954
 30
0.0
 10
90.68219095865885
 20
-32.19876675075954
 30
0.0
 10
90.68219095865885
 20
-32.19876675075954
 30
0.0
 10
90.12959764268662
 20
-32.19876675075954
 30
0.0
 10
89.68311326768661
 20
-32.64662916395399
 30
0.0
 10
89.68311326768661
 20
-33.19922247992621
 30
0.0
 10
89.68311326768661
 20
-33.19922247992621
 30
0.0
 10
89.68311326768661
 20
-36.20610182020399
 30
0.0
 10
89.68311326768661
 20
-36.20610182020399
 30
0.0
  0
SPLINE
  5
1A9
100
AcDbEntity
  8
ALPHA
 62
     7
100
AcDbSpline
210
0.0
220
0.0
230
1.0
 70
    11
 71
     3
 72
    26
 73
    22
 74
     0
 42
0.0000001
 43
0.0000001
 40
0.0
 40
0.0
 40
0.0
 40
0.0
 40
1.0
 40
1.0
 40
1.0
 40
2.0
 40
2.0
 40
2.0
 40
3.0
 40
3.0
 40
3.0
 40
4.0
 40
4.0
 40
4.0
 40
5.0
 40
5.0
 40
5.0
 40
6.0
 40
6.0
 40
6.0
 40
7.0
 40
7.0
 40
7.0
 40
7.0
 10
92.69412672254773
 20
-39.21298116048177
 30
0.0
 10
92.69412672254773
 20
-39.21298116048177
 30
0.0
 10
89.68724738226995
 20
-36.20610182020399
 30
0.0
 10
89.68724738226995
 20
-36.20610182020399
 30
0.0
 10
89.68724738226995
 20
-36.20610182020399
 30
0.0
 10
84.67256639268661
 20
-36.20610182020399
 30
0.0
 10
84.67256639268661
 20
-36.20610182020399
 30
0.0
 10
83.01478644476995
 20
-36.20610182020399
 30
0.0
 10
81.66568705240884
 20
-37.5552012125651
 30
0.0
 10
81.66568705240884
 20
-39.21298116048177
 30
0.0
 10
81.66568705240884
 20
-39.21298116048177
 30
0.0
 10
81.66568705240884
 20
-39.21298116048177
 30
0.0
 10
81.66568705240884
 20
-39.21298116048177
 30
0.0
 10
81.66568705240884
 20
-40.87489522298176
 30
0.0
 10
83.01478644476995
 20
-42.21986050075954
 30
0.0
 10
84.67256639268661
 20
-42.21986050075954
 30
0.0
 10
84.67256639268661
 20
-42.21986050075954
 30
0.0
 10
89.68724738226995
 20
-42.21986050075954
 30
0.0
 10
89.68724738226995
 20
-42.21986050075954
 30
0.0
 10
89.68724738226995
 20
-42.21986050075954
 30
0.0
 10
92.69412672254773
 20
-39.21298116048177
 30
0.0
 10
92.69412672254773
 20
-39.21298116048177
 30
0.0
  0
SPLINE
  5
1AA
100
AcDbEntity
  8
ALPHA
 62
     7
100
AcDbSpline
210
0.0
220
0.0
230
-1.0
 70
     8
 71
     3
 72
    32
 73
    28
 74
     0
 42
0.0000001
 43
0.0000001
 40
0.0
 40
0.0
 40
0.0
 40
0.0
 40
1.0
 40
1.0
 40
1.0
 40
2.0
 40
2.0
 40
2.0
 40
3.0
 40
3.0
 40
3.0
 40
4.0
 40
4.0
 40
4.0
 40
5.0
 40
5.0
 40
5.0
 40
6.0
 40
6.0
 40
6.0
 40
7.0
 40
7.0
 40
7.0
 40
8.0
 40
8.0
 40
8.0
 40
9.0
 40
9.0
 40
9.0
 40
9.0
 10
89.68311326768661
 20
-61.3180918375651
 30
0.0
 10
89.68311326768661
 20
-61.3180918375651
 30
0.0
 10
89.68311326768661
 20
-64.32497117784286
 30
0.0
 10
89.68311326768661
 20
-64.32497117784286
 30
0.0
 10
89.68311326768661
 20
-64.88169860839843
 30
0.0
 10
90.12959764268662
 20
-65.32956102159288
 30
0.0
 10
90.68219095865885
 20
-65.32956102159288
 30
0.0
 10
90.68219095865885
 20
-65.32956102159288
 30
0.0
 10
104.7188880072699
 20
-65.32956102159288
 30
0.0
 10
104.7188880072699
 20
-65.32956102159288
 30
0.0
 10
105.2714813232421
 20
-65.32956102159288
 30
0.0
 10
105.7220998128254
 20
-64.88169860839843
 30
0.0
 10
105.7220998128254
 20
-64.32497117784286
 30
0.0
 10
105.7220998128254
 20
-64.32497117784286
 30
0.0
 10
105.7220998128254
 20
-52.29607577853732
 30
0.0
 10
105.7220998128254
 20
-52.29607577853732
 30
0.0
 10
105.7220998128254
 20
-51.7434824625651
 30
0.0
 10
105.2714813232421
 20
-51.2969980875651
 30
0.0
 10
104.7188880072699
 20
-51.2969980875651
 30
0.0
 10
104.7188880072699
 20
-51.2969980875651
 30
0.0
 10
90.68219095865885
 20
-51.2969980875651
 30
0.0
 10
90.68219095865885
 20
-51.2969980875651
 30
0.0
 10
90.12959764268662
 20
-51.2969980875651
 30
0.0
 10
89.68311326768661
 20
-51.7434824625651
 30
0.0
 10
89.68311326768661
 20
-52.29607577853732
 30
0.0
 10
89.68311326768661
 20
-52.29607577853732
 30
0.0
 10
89.68311326768661
 20
-55.3029551188151
 30
0.0
 10
89.68311326768661
 20
-55.3029551188151
 30
0.0
  0
SPLINE
  5
1AB
100
AcDbEntity
  8
ALPHA
 62
     7
100
AcDbSpline
210
0.0
220
0.0
230
1.0
 70
    11
 71
     3
 72
    26
 73
    22
 74
     0
 42
0.0000001
 43
0.0000001
 40
0.0
 40
0.0
 40
0.0
 40
0.0
 40
1.0
 40
1.0
 40
1.0
 40
2.0
 40
2.0
 40
2.0
 40
3.0
 40
3.0
 40
3.0
 40
4.0
 40
4.0
 40
4.0
 40
5.0
 40
5.0
 40
5.0
 40
6.0
 40
6.0
 40
6.0
 40
7.0
 40
7.0
 40
7.0
 40
7.0
 10
92.69412672254773
 20
-58.31121249728732
 30
0.0
 10
92.69412672254773
 20
-58.31121249728732
 30
0.0
 10
89.68724738226995
 20
-55.3029551188151
 30
0.0
 10
89.68724738226995
 20
-55.3029551188151
 30
0.0
 10
89.68724738226995
 20
-55.3029551188151
 30
0.0
 10
84.67256639268661
 20
-55.3029551188151
 30
0.0
 10
84.67256639268661
 20
-55.3029551188151
 30
0.0
 10
83.01478644476995
 20
-55.3029551188151
 30
0.0
 10
81.66568705240884
 20
-56.65343254937066
 30
0.0
 10
81.66568705240884
 20
-58.31121249728732
 30
0.0
 10
81.66568705240884
 20
-58.31121249728732
 30
0.0
 10
81.66568705240884
 20
-58.31121249728732
 30
0.0
 10
81.66568705240884
 20
-58.31121249728732
 30
0.0
 10
81.66568705240884
 20
-59.97312655978731
 30
0.0
 10
83.01478644476995
 20
-61.3180918375651
 30
0.0
 10
84.67256639268661
 20
-61.3180918375651
 30
0.0
 10
84.67256639268661
 20
-61.3180918375651
 30
0.0
 10
89.68724738226995
 20
-61.3180918375651
 30
0.0
 10
89.68724738226995
 20
-61.3180918375651
 30
0.0
 10
89.68724738226995
 20
-61.3180918375651
 30
0.0
 10
92.69412672254773
 20
-58.31121249728732
 30
0.0
 10
92.69412672254773
 20
-58.31121249728732
 30
0.0
  0
SPLINE
  5
1AC
100
AcDbEntity
  8
ALPHA
 62
     7
100
AcDbSpline
210
0.0
220
0.0
230
-1.0
 70
     8
 71
     3
 72
    32
 73
    28
 74
     0
 42
0.0000001
 43
0.0000001
 40
0.0
 40
0.0
 40
0.0
 40
0.0
 40
1.0
 40
1.0
 40
1.0
 40
2.0
 40
2.0
 40
2.0
 40
3.0
 40
3.0
 40
3.0
 40
4.0
 40
4.0
 40
4.0
 40
5.0
 40
5.0
 40
5.0
 40
6.0
 40
6.0
 40
6.0
 40
7.0
 40
7.0
 40
7.0
 40
8.0
 40
8.0
 40
8.0
 40
9.0
 40
9.0
 40
9.0
 40
9.0
 10
89.68311326768661
 20
-80.41494513617621
 30
0.0
 10
89.68311326768661
 20
-80.41494513617621
 30
0.0
 10
89.68311326768661
 20
-83.42320251464842
 30
0.0
 10
89.68311326768661
 20
-83.42320251464842
 30
0.0
 10
89.68311326768661
 20
-83.97992994520398
 30
0.0
 10
90.12959764268662
 20
-84.42641432020399
 30
0.0
 10
90.68219095865885
 20
-84.42641432020399
 30
0.0
 10
90.68219095865885
 20
-84.42641432020399
 30
0.0
 10
104.7188880072699
 20
-84.42641432020399
 30
0.0
 10
104.7188880072699
 20
-84.42641432020399
 30
0.0
 10
105.2714813232421
 20
-84.42641432020399
 30
0.0
 10
105.7220998128254
 20
-83.97992994520398
 30
0.0
 10
105.7220998128254
 20
-83.42320251464842
 30
0.0
 10
105.7220998128254
 20
-83.42320251464842
 30
0.0
 10
105.7220998128254
 20
-71.39430711534287
 30
0.0
 10
105.7220998128254
 20
-71.39430711534287
 30
0.0
 10
105.7220998128254
 20
-70.84171379937065
 30
0.0
 10
105.2714813232421
 20
-70.39522942437065
 30
0.0
 10
104.7188880072699
 20
-70.39522942437065
 30
0.0
 10
104.7188880072699
 20
-70.39522942437065
 30
0.0
 10
90.68219095865885
 20
-70.39522942437065
 30
0.0
 10
90.68219095865885
 20
-70.39522942437065
 30
0.0
 10
90.12959764268662
 20
-70.39522942437065
 30
0.0
 10
89.68311326768661
 20
-70.84171379937065
 30
0.0
 10
89.68311326768661
 20
-71.39430711534287
 30
0.0
 10
89.68311326768661
 20
-71.39430711534287
 30
0.0
 10
89.68311326768661
 20
-74.40118645562065
 30
0.0
 10
89.68311326768661
 20
-74.40118645562065
 30
0.0
  0
SPLINE
  5
1AD
100
AcDbEntity
  8
ALPHA
 62
     7
100
AcDbSpline
210
0.0
220
0.0
230
1.0
 70
    11
 71
     3
 72
    26
 73
    22
 74
     0
 42
0.0000001
 43
0.0000001
 40
0.0
 40
0.0
 40
0.0
 40
0.0
 40
1.0
 40
1.0
 40
1.0
 40
2.0
 40
2.0
 40
2.0
 40
3.0
 40
3.0
 40
3.0
 40
4.0
 40
4.0
 40
4.0
 40
5.0
 40
5.0
 40
5.0
 40
6.0
 40
6.0
 40
6.0
 40
7.0
 40
7.0
 40
7.0
 40
7.0
 10
92.69412672254773
 20
-77.40806579589843
 30
0.0
 10
92.69412672254773
 20
-77.40806579589843
 30
0.0
 10
89.68724738226995
 20
-74.40118645562065
 30
0.0
 10
89.68724738226995
 20
-74.40118645562065
 30
0.0
 10
89.68724738226995
 20
-74.40118645562065
 30
0.0
 10
84.67256639268661
 20
-74.40118645562065
 30
0.0
 10
84.67256639268661
 20
-74.40118645562065
 30
0.0
 10
83.01478644476995
 20
-74.40118645562065
 30
0.0
 10
81.66568705240884
 20
-75.75028584798175
 30
0.0
 10
81.66568705240884
 20
-77.40806579589843
 30
0.0
 10
81.66568705240884
 20
-77.40806579589843
 30
0.0
 10
81.66568705240884
 20
-77.40806579589843
 30
0.0
 10
81.66568705240884
 20
-77.40806579589843
 30
0.0
 10
81.66568705240884
 20
-79.07135789659287
 30
0.0
 10
83.01478644476995
 20
-80.41494513617621
 30
0.0
 10
84.67256639268661
 20
-80.41494513617621
 30
0.0
 10
84.67256639268661
 20
-80.41494513617621
 30
0.0
 10
89.68724738226995
 20
-80.41494513617621
 30
0.0
 10
89.68724738226995
 20
-80.41494513617621
 30
0.0
 10
89.68724738226995
 20
-80.41494513617621
 30
0.0
 10
92.69412672254773
 20
-77.40806579589843
 30
0.0
 10
92.69412672254773
 20
-77.40806579589843
 30
0.0
  0
SPLINE
  5
1AE
100
AcDbEntity
  8
ALPHA
 62
     7
100
AcDbSpline
210
0.0
220
0.0
230
-1.0
 70
     8
 71
     3
 72
    32
 73
    28
 74
     0
 42
0.0000001
 43
0.0000001
 40
0.0
 40
0.0
 40
0.0
 40
0.0
 40
1.0
 40
1.0
 40
1.0
 40
2.0
 40
2.0
 40
2.0
 40
3.0
 40
3.0
 40
3.0
 40
4.0
 40
4.0
 40
4.0
 40
5.0
 40
5.0
 40
5.0
 40
6.0
 40
6.0
 40
6.0
 40
7.0
 40
7.0
 40
7.0
 40
8.0
 40
8.0
 40
8.0
 40
9.0
 40
9.0
 40
9.0
 40
9.0
 10
127.7817352294921
 20
15.07362772623697
 30
0.0
 10
127.7817352294921
 20
15.07362772623697
 30
0.0
 10
127.7817352294921
 20
12.06537034776475
 30
0.0
 10
127.7817352294921
 20
12.06537034776475
 30
0.0
 10
127.7817352294921
 20
11.5086429172092
 30
0.0
 10
127.3352508544921
 20
11.0621585422092
 30
0.0
 10
126.7771453857421
 20
11.0621585422092
 30
0.0
 10
126.7771453857421
 20
11.0621585422092
 30
0.0
 10
112.7459604899088
 20
11.0621585422092
 30
0.0
 10
112.7459604899088
 20
11.0621585422092
 30
0.0
 10
112.1933671739366
 20
11.0621585422092
 30
0.0
 10
111.7413706461588
 20
11.5086429172092
 30
0.0
 10
111.7413706461588
 20
12.06537034776475
 30
0.0
 10
111.7413706461588
 20
12.06537034776475
 30
0.0
 10
111.7413706461588
 20
24.09426574707031
 30
0.0
 10
111.7413706461588
 20
24.09426574707031
 30
0.0
 10
111.7413706461588
 20
24.64685906304253
 30
0.0
 10
112.1933671739366
 20
25.09334343804253
 30
0.0
 10
112.7459604899088
 20
25.09334343804253
 30
0.0
 10
112.7459604899088
 20
25.09334343804253
 30
0.0
 10
126.7771453857421
 20
25.09334343804253
 30
0.0
 10
126.7771453857421
 20
25.09334343804253
 30
0.0
 10
127.3352508544921
 20
25.09334343804253
 30
0.0
 10
127.7817352294921
 20
24.64685906304253
 30
0.0
 10
127.7817352294921
 20
24.09426574707031
 30
0.0
 10
127.7817352294921
 20
24.09426574707031
 30
0.0
 10
127.7817352294921
 20
21.08738640679253
 30
0.0
 10
127.7817352294921
 20
21.08738640679253
 30
0.0
  0
SPLINE
  5
1AF
100
AcDbEntity
  8
ALPHA
 62
     7
100
AcDbSpline
210
0.0
220
0.0
230
1.0
 70
    11
 71
     3
 72
    26
 73
    22
 74
     0
 42
0.0000001
 43
0.0000001
 40
0.0
 40
0.0
 40
0.0
 40
0.0
 40
1.0
 40
1.0
 40
1.0
 40
2.0
 40
2.0
 40
2.0
 40
3.0
 40
3.0
 40
3.0
 40
4.0
 40
4.0
 40
4.0
 40
5.0
 40
5.0
 40
5.0
 40
6.0
 40
6.0
 40
6.0
 40
7.0
 40
7.0
 40
7.0
 40
7.0
 10
124.7693437364366
 20
18.08050706651475
 30
0.0
 10
124.7693437364366
 20
18.08050706651475
 30
0.0
 10
127.7776011149088
 20
21.08738640679253
 30
0.0
 10
127.7776011149088
 20
21.08738640679253
 30
0.0
 10
127.7776011149088
 20
21.08738640679253
 30
0.0
 10
132.7867699517144
 20
21.08738640679253
 30
0.0
 10
132.7867699517144
 20
21.08738640679253
 30
0.0
 10
134.4500620524088
 20
21.08738640679253
 30
0.0
 10
135.7950273301866
 20
19.73828701443142
 30
0.0
 10
135.7950273301866
 20
18.08050706651475
 30
0.0
 10
135.7950273301866
 20
18.08050706651475
 30
0.0
 10
135.7950273301866
 20
18.08050706651475
 30
0.0
 10
135.7950273301866
 20
18.08050706651475
 30
0.0
 10
135.7950273301866
 20
16.41721496582031
 30
0.0
 10
134.4500620524088
 20
15.07362772623697
 30
0.0
 10
132.7867699517144
 20
15.07362772623697
 30
0.0
 10
132.7867699517144
 20
15.07362772623697
 30
0.0
 10
127.7776011149088
 20
15.07362772623697
 30
0.0
 10
127.7776011149088
 20
15.07362772623697
 30
0.0
 10
127.7776011149088
 20
15.07362772623697
 30
0.0
 10
124.7693437364366
 20
18.08050706651475
 30
0.0
 10
124.7693437364366
 20
18.08050706651475
 30
0.0
  0
SPLINE
  5
1B0
100
AcDbEntity
  8
ALPHA
 62
     7
100
AcDbSpline
210
0.0
220
0.0
230
-1.0
 70
     8
 71
     3
 72
    32
 73
    28
 74
     0
 42
0.0000001
 43
0.0000001
 40
0.0
 40
0.0
 40
0.0
 40
0.0
 40
1.0
 40
1.0
 40
1.0
 40
2.0
 40
2.0
 40
2.0
 40
3.0
 40
3.0
 40
3.0
 40
4.0
 40
4.0
 40
4.0
 40
5.0
 40
5.0
 40
5.0
 40
6.0
 40
6.0
 40
6.0
 40
7.0
 40
7.0
 40
7.0
 40
8.0
 40
8.0
 40
8.0
 40
9.0
 40
9.0
 40
9.0
 40
9.0
 10
127.7817352294921
 20
-4.024775865342881
 30
0.0
 10
127.7817352294921
 20
-4.024775865342881
 30
0.0
 10
127.7817352294921
 20
-7.031655205620658
 30
0.0
 10
127.7817352294921
 20
-7.031655205620658
 30
0.0
 10
127.7817352294921
 20
-7.589760674370658
 30
0.0
 10
127.3352508544921
 20
-8.036245049370659
 30
0.0
 10
126.7771453857421
 20
-8.036245049370659
 30
0.0
 10
126.7771453857421
 20
-8.036245049370659
 30
0.0
 10
112.7459604899088
 20
-8.036245049370659
 30
0.0
 10
112.7459604899088
 20
-8.036245049370659
 30
0.0
 10
112.1933671739366
 20
-8.036245049370659
 30
0.0
 10
111.7413706461588
 20
-7.589760674370658
 30
0.0
 10
111.7413706461588
 20
-7.031655205620658
 30
0.0
 10
111.7413706461588
 20
-7.031655205620658
 30
0.0
 10
111.7413706461588
 20
4.997240193684895
 30
0.0
 10
111.7413706461588
 20
4.997240193684895
 30
0.0
 10
111.7413706461588
 20
5.549833509657117
 30
0.0
 10
112.1933671739366
 20
5.996317884657117
 30
0.0
 10
112.7459604899088
 20
5.996317884657117
 30
0.0
 10
112.7459604899088
 20
5.996317884657117
 30
0.0
 10
126.7771453857421
 20
5.996317884657117
 30
0.0
 10
126.7771453857421
 20
5.996317884657117
 30
0.0
 10
127.3352508544921
 20
5.996317884657117
 30
0.0
 10
127.7817352294921
 20
5.549833509657117
 30
0.0
 10
127.7817352294921
 20
4.997240193684895
 30
0.0
 10
127.7817352294921
 20
4.997240193684895
 30
0.0
 10
127.7817352294921
 20
1.988982815212673
 30
0.0
 10
127.7817352294921
 20
1.988982815212673
 30
0.0
  0
SPLINE
  5
1B1
100
AcDbEntity
  8
ALPHA
 62
     7
100
AcDbSpline
210
0.0
220
0.0
230
1.0
 70
    11
 71
     3
 72
    26
 73
    22
 74
     0
 42
0.0000001
 43
0.0000001
 40
0.0
 40
0.0
 40
0.0
 40
0.0
 40
1.0
 40
1.0
 40
1.0
 40
2.0
 40
2.0
 40
2.0
 40
3.0
 40
3.0
 40
3.0
 40
4.0
 40
4.0
 40
4.0
 40
5.0
 40
5.0
 40
5.0
 40
6.0
 40
6.0
 40
6.0
 40
7.0
 40
7.0
 40
7.0
 40
7.0
 10
124.7693437364366
 20
-1.017896525065103
 30
0.0
 10
124.7693437364366
 20
-1.017896525065103
 30
0.0
 10
127.7776011149088
 20
1.988982815212673
 30
0.0
 10
127.7776011149088
 20
1.988982815212673
 30
0.0
 10
127.7776011149088
 20
1.988982815212673
 30
0.0
 10
132.7867699517144
 20
1.988982815212673
 30
0.0
 10
132.7867699517144
 20
1.988982815212673
 30
0.0
 10
134.4500620524088
 20
1.988982815212673
 30
0.0
 10
135.7950273301866
 20
0.6398834228515625
 30
0.0
 10
135.7950273301866
 20
-1.017896525065103
 30
0.0
 10
135.7950273301866
 20
-1.017896525065103
 30
0.0
 10
135.7950273301866
 20
-1.017896525065103
 30
0.0
 10
135.7950273301866
 20
-1.017896525065103
 30
0.0
 10
135.7950273301866
 20
-2.679810587565103
 30
0.0
 10
134.4500620524088
 20
-4.024775865342881
 30
0.0
 10
132.7867699517144
 20
-4.024775865342881
 30
0.0
 10
132.7867699517144
 20
-4.024775865342881
 30
0.0
 10
127.7776011149088
 20
-4.024775865342881
 30
0.0
 10
127.7776011149088
 20
-4.024775865342881
 30
0.0
 10
127.7776011149088
 20
-4.024775865342881
 30
0.0
 10
124.7693437364366
 20
-1.017896525065103
 30
0.0
 10
124.7693437364366
 20
-1.017896525065103
 30
0.0
  0
SPLINE
  5
1B2
100
AcDbEntity
  8
ALPHA
 62
     7
100
AcDbSpline
210
0.0
220
0.0
230
-1.0
 70
     8
 71
     3
 72
    32
 73
    28
 74
     0
 42
0.0000001
 43
0.0000001
 40
0.0
 40
0.0
 40
0.0
 40
0.0
 40
1.0
 40
1.0
 40
1.0
 40
2.0
 40
2.0
 40
2.0
 40
3.0
 40
3.0
 40
3.0
 40
4.0
 40
4.0
 40
4.0
 40
5.0
 40
5.0
 40
5.0
 40
6.0
 40
6.0
 40
6.0
 40
7.0
 40
7.0
 40
7.0
 40
8.0
 40
8.0
 40
8.0
 40
9.0
 40
9.0
 40
9.0
 40
9.0
 10
127.7817352294921
 20
-23.12300720214843
 30
0.0
 10
127.7817352294921
 20
-23.12300720214843
 30
0.0
 10
127.7817352294921
 20
-26.12988654242621
 30
0.0
 10
127.7817352294921
 20
-26.12988654242621
 30
0.0
 10
127.7817352294921
 20
-26.68661397298176
 30
0.0
 10
127.3352508544921
 20
-27.13309834798177
 30
0.0
 10
126.7771453857421
 20
-27.13309834798177
 30
0.0
 10
126.7771453857421
 20
-27.13309834798177
 30
0.0
 10
112.7459604899088
 20
-27.13309834798177
 30
0.0
 10
112.7459604899088
 20
-27.13309834798177
 30
0.0
 10
112.1933671739366
 20
-27.13309834798177
 30
0.0
 10
111.7413706461588
 20
-26.68661397298176
 30
0.0
 10
111.7413706461588
 20
-26.12988654242621
 30
0.0
 10
111.7413706461588
 20
-26.12988654242621
 30
0.0
 10
111.7413706461588
 20
-14.10099114312066
 30
0.0
 10
111.7413706461588
 20
-14.10099114312066
 30
0.0
 10
111.7413706461588
 20
-13.54839782714843
 30
0.0
 10
112.1933671739366
 20
-13.10191345214843
 30
0.0
 10
112.7459604899088
 20
-13.10191345214843
 30
0.0
 10
112.7459604899088
 20
-13.10191345214843
 30
0.0
 10
126.7771453857421
 20
-13.10191345214843
 30
0.0
 10
126.7771453857421
 20
-13.10191345214843
 30
0.0
 10
127.3352508544921
 20
-13.10191345214843
 30
0.0
 10
127.7817352294921
 20
-13.54839782714843
 30
0.0
 10
127.7817352294921
 20
-14.10099114312066
 30
0.0
 10
127.7817352294921
 20
-14.10099114312066
 30
0.0
 10
127.7817352294921
 20
-17.10787048339843
 30
0.0
 10
127.7817352294921
 20
-17.10787048339843
 30
0.0
  0
SPLINE
  5
1B3
100
AcDbEntity
  8
ALPHA
 62
     7
100
AcDbSpline
210
0.0
220
0.0
230
1.0
 70
    11
 71
     3
 72
    26
 73
    22
 74
     0
 42
0.0000001
 43
0.0000001
 40
0.0
 40
0.0
 40
0.0
 40
0.0
 40
1.0
 40
1.0
 40
1.0
 40
2.0
 40
2.0
 40
2.0
 40
3.0
 40
3.0
 40
3.0
 40
4.0
 40
4.0
 40
4.0
 40
5.0
 40
5.0
 40
5.0
 40
6.0
 40
6.0
 40
6.0
 40
7.0
 40
7.0
 40
7.0
 40
7.0
 10
124.7693437364366
 20
-20.11474982367621
 30
0.0
 10
124.7693437364366
 20
-20.11474982367621
 30
0.0
 10
127.7776011149088
 20
-17.10787048339843
 30
0.0
 10
127.7776011149088
 20
-17.10787048339843
 30
0.0
 10
127.7776011149088
 20
-17.10787048339843
 30
0.0
 10
132.7867699517144
 20
-17.10787048339843
 30
0.0
 10
132.7867699517144
 20
-17.10787048339843
 30
0.0
 10
134.4500620524088
 20
-17.10787048339843
 30
0.0
 10
135.7950273301866
 20
-18.45696987575954
 30
0.0
 10
135.7950273301866
 20
-20.11474982367621
 30
0.0
 10
135.7950273301866
 20
-20.11474982367621
 30
0.0
 10
135.7950273301866
 20
-20.11474982367621
 30
0.0
 10
135.7950273301866
 20
-20.11474982367621
 30
0.0
 10
135.7950273301866
 20
-21.77804192437065
 30
0.0
 10
134.4500620524088
 20
-23.12300720214843
 30
0.0
 10
132.7867699517144
 20
-23.12300720214843
 30
0.0
 10
132.7867699517144
 20
-23.12300720214843
 30
0.0
 10
127.7776011149088
 20
-23.12300720214843
 30
0.0
 10
127.7776011149088
 20
-23.12300720214843
 30
0.0
 10
127.7776011149088
 20
-23.12300720214843
 30
0.0
 10
124.7693437364366
 20
-20.11474982367621
 30
0.0
 10
124.7693437364366
 20
-20.11474982367621
 30
0.0
  0
SPLINE
  5
1B4
100
AcDbEntity
  8
ALPHA
 62
     7
100
AcDbSpline
210
0.0
220
0.0
230
-1.0
 70
     8
 71
     3
 72
    32
 73
    28
 74
     0
 42
0.0000001
 43
0.0000001
 40
0.0
 40
0.0
 40
0.0
 40
0.0
 40
1.0
 40
1.0
 40
1.0
 40
2.0
 40
2.0
 40
2.0
 40
3.0
 40
3.0
 40
3.0
 40
4.0
 40
4.0
 40
4.0
 40
5.0
 40
5.0
 40
5.0
 40
6.0
 40
6.0
 40
6.0
 40
7.0
 40
7.0
 40
7.0
 40
8.0
 40
8.0
 40
8.0
 40
9.0
 40
9.0
 40
9.0
 40
9.0
 10
127.7817352294921
 20
-42.21986050075954
 30
0.0
 10
127.7817352294921
 20
-42.21986050075954
 30
0.0
 10
127.7817352294921
 20
-45.22811787923177
 30
0.0
 10
127.7817352294921
 20
-45.22811787923177
 30
0.0
 10
127.7817352294921
 20
-45.78484530978732
 30
0.0
 10
127.3352508544921
 20
-46.23132968478731
 30
0.0
 10
126.7771453857421
 20
-46.23132968478731
 30
0.0
 10
126.7771453857421
 20
-46.23132968478731
 30
0.0
 10
112.7459604899088
 20
-46.23132968478731
 30
0.0
 10
112.7459604899088
 20
-46.23132968478731
 30
0.0
 10
112.1933671739366
 20
-46.23132968478731
 30
0.0
 10
111.7413706461588
 20
-45.78484530978732
 30
0.0
 10
111.7413706461588
 20
-45.22811787923177
 30
0.0
 10
111.7413706461588
 20
-45.22811787923177
 30
0.0
 10
111.7413706461588
 20
-33.19922247992621
 30
0.0
 10
111.7413706461588
 20
-33.19922247992621
 30
0.0
 10
111.7413706461588
 20
-32.64662916395399
 30
0.0
 10
112.1933671739366
 20
-32.19876675075954
 30
0.0
 10
112.7459604899088
 20
-32.19876675075954
 30
0.0
 10
112.7459604899088
 20
-32.19876675075954
 30
0.0
 10
126.7771453857421
 20
-32.19876675075954
 30
0.0
 10
126.7771453857421
 20
-32.19876675075954
 30
0.0
 10
127.3352508544921
 20
-32.19876675075954
 30
0.0
 10
127.7817352294921
 20
-32.64662916395399
 30
0.0
 10
127.7817352294921
 20
-33.19922247992621
 30
0.0
 10
127.7817352294921
 20
-33.19922247992621
 30
0.0
 10
127.7817352294921
 20
-36.20610182020399
 30
0.0
 10
127.7817352294921
 20
-36.20610182020399
 30
0.0
  0
SPLINE
  5
1B5
100
AcDbEntity
  8
ALPHA
 62
     7
100
AcDbSpline
210
0.0
220
0.0
230
1.0
 70
    11
 71
     3
 72
    26
 73
    22
 74
     0
 42
0.0000001
 43
0.0000001
 40
0.0
 40
0.0
 40
0.0
 40
0.0
 40
1.0
 40
1.0
 40
1.0
 40
2.0
 40
2.0
 40
2.0
 40
3.0
 40
3.0
 40
3.0
 40
4.0
 40
4.0
 40
4.0
 40
5.0
 40
5.0
 40
5.0
 40
6.0
 40
6.0
 40
6.0
 40
7.0
 40
7.0
 40
7.0
 40
7.0
 10
124.7693437364366
 20
-39.21298116048177
 30
0.0
 10
124.7693437364366
 20
-39.21298116048177
 30
0.0
 10
127.7776011149088
 20
-36.20610182020399
 30
0.0
 10
127.7776011149088
 20
-36.20610182020399
 30
0.0
 10
127.7776011149088
 20
-36.20610182020399
 30
0.0
 10
132.7867699517144
 20
-36.20610182020399
 30
0.0
 10
132.7867699517144
 20
-36.20610182020399
 30
0.0
 10
134.4500620524088
 20
-36.20610182020399
 30
0.0
 10
135.7950273301866
 20
-37.5552012125651
 30
0.0
 10
135.7950273301866
 20
-39.21298116048177
 30
0.0
 10
135.7950273301866
 20
-39.21298116048177
 30
0.0
 10
135.7950273301866
 20
-39.21298116048177
 30
0.0
 10
135.7950273301866
 20
-39.21298116048177
 30
0.0
 10
135.7950273301866
 20
-40.87489522298176
 30
0.0
 10
134.4500620524088
 20
-42.21986050075954
 30
0.0
 10
132.7867699517144
 20
-42.21986050075954
 30
0.0
 10
132.7867699517144
 20
-42.21986050075954
 30
0.0
 10
127.7776011149088
 20
-42.21986050075954
 30
0.0
 10
127.7776011149088
 20
-42.21986050075954
 30
0.0
 10
127.7776011149088
 20
-42.21986050075954
 30
0.0
 10
124.7693437364366
 20
-39.21298116048177
 30
0.0
 10
124.7693437364366
 20
-39.21298116048177
 30
0.0
  0
SPLINE
  5
1B6
100
AcDbEntity
  8
ALPHA
 62
     7
100
AcDbSpline
210
0.0
220
0.0
230
-1.0
 70
     8
 71
     3
 72
    32
 73
    28
 74
     0
 42
0.0000001
 43
0.0000001
 40
0.0
 40
0.0
 40
0.0
 40
0.0
 40
1.0
 40
1.0
 40
1.0
 40
2.0
 40
2.0
 40
2.0
 40
3.0
 40
3.0
 40
3.0
 40
4.0
 40
4.0
 40
4.0
 40
5.0
 40
5.0
 40
5.0
 40
6.0
 40
6.0
 40
6.0
 40
7.0
 40
7.0
 40
7.0
 40
8.0
 40
8.0
 40
8.0
 40
9.0
 40
9.0
 40
9.0
 40
9.0
 10
127.7817352294921
 20
-61.3180918375651
 30
0.0
 10
127.7817352294921
 20
-61.3180918375651
 30
0.0
 10
127.7817352294921
 20
-64.32497117784286
 30
0.0
 10
127.7817352294921
 20
-64.32497117784286
 30
0.0
 10
127.7817352294921
 20
-64.88169860839843
 30
0.0
 10
127.3352508544921
 20
-65.32956102159288
 30
0.0
 10
126.7771453857421
 20
-65.32956102159288
 30
0.0
 10
126.7771453857421
 20
-65.32956102159288
 30
0.0
 10
112.7459604899088
 20
-65.32956102159288
 30
0.0
 10
112.7459604899088
 20
-65.32956102159288
 30
0.0
 10
112.1933671739366
 20
-65.32956102159288
 30
0.0
 10
111.7413706461588
 20
-64.88169860839843
 30
0.0
 10
111.7413706461588
 20
-64.32497117784286
 30
0.0
 10
111.7413706461588
 20
-64.32497117784286
 30
0.0
 10
111.7413706461588
 20
-52.29607577853732
 30
0.0
 10
111.7413706461588
 20
-52.29607577853732
 30
0.0
 10
111.7413706461588
 20
-51.7434824625651
 30
0.0
 10
112.1933671739366
 20
-51.2969980875651
 30
0.0
 10
112.7459604899088
 20
-51.2969980875651
 30
0.0
 10
112.7459604899088
 20
-51.2969980875651
 30
0.0
 10
126.7771453857421
 20
-51.2969980875651
 30
0.0
 10
126.7771453857421
 20
-51.2969980875651
 30
0.0
 10
127.3352508544921
 20
-51.2969980875651
 30
0.0
 10
127.7817352294921
 20
-51.7434824625651
 30
0.0
 10
127.7817352294921
 20
-52.29607577853732
 30
0.0
 10
127.7817352294921
 20
-52.29607577853732
 30
0.0
 10
127.7817352294921
 20
-55.3029551188151
 30
0.0
 10
127.7817352294921
 20
-55.3029551188151
 30
0.0
  0
SPLINE
  5
1B7
100
AcDbEntity
  8
ALPHA
 62
     7
100
AcDbSpline
210
0.0
220
0.0
230
1.0
 70
    11
 71
     3
 72
    26
 73
    22
 74
     0
 42
0.0000001
 43
0.0000001
 40
0.0
 40
0.0
 40
0.0
 40
0.0
 40
1.0
 40
1.0
 40
1.0
 40
2.0
 40
2.0
 40
2.0
 40
3.0
 40
3.0
 40
3.0
 40
4.0
 40
4.0
 40
4.0
 40
5.0
 40
5.0
 40
5.0
 40
6.0
 40
6.0
 40
6.0
 40
7.0
 40
7.0
 40
7.0
 40
7.0
 10
124.7693437364366
 20
-58.31121249728732
 30
0.0
 10
124.7693437364366
 20
-58.31121249728732
 30
0.0
 10
127.7776011149088
 20
-55.3029551188151
 30
0.0
 10
127.7776011149088
 20
-55.3029551188151
 30
0.0
 10
127.7776011149088
 20
-55.3029551188151
 30
0.0
 10
132.7867699517144
 20
-55.3029551188151
 30
0.0
 10
132.7867699517144
 20
-55.3029551188151
 30
0.0
 10
134.4500620524088
 20
-55.3029551188151
 30
0.0
 10
135.7950273301866
 20
-56.65343254937066
 30
0.0
 10
135.7950273301866
 20
-58.31121249728732
 30
0.0
 10
135.7950273301866
 20
-58.31121249728732
 30
0.0
 10
135.7950273301866
 20
-58.31121249728732
 30
0.0
 10
135.7950273301866
 20
-58.31121249728732
 30
0.0
 10
135.7950273301866
 20
-59.97312655978731
 30
0.0
 10
134.4500620524088
 20
-61.3180918375651
 30
0.0
 10
132.7867699517144
 20
-61.3180918375651
 30
0.0
 10
132.7867699517144
 20
-61.3180918375651
 30
0.0
 10
127.7776011149088
 20
-61.3180918375651
 30
0.0
 10
127.7776011149088
 20
-61.3180918375651
 30
0.0
 10
127.7776011149088
 20
-61.3180918375651
 30
0.0
 10
124.7693437364366
 20
-58.31121249728732
 30
0.0
 10
124.7693437364366
 20
-58.31121249728732
 30
0.0
  0
SPLINE
  5
1B8
100
AcDbEntity
  8
ALPHA
 62
     7
100
AcDbSpline
210
0.0
220
0.0
230
-1.0
 70
     8
 71
     3
 72
    32
 73
    28
 74
     0
 42
0.0000001
 43
0.0000001
 40
0.0
 40
0.0
 40
0.0
 40
0.0
 40
1.0
 40
1.0
 40
1.0
 40
2.0
 40
2.0
 40
2.0
 40
3.0
 40
3.0
 40
3.0
 40
4.0
 40
4.0
 40
4.0
 40
5.0
 40
5.0
 40
5.0
 40
6.0
 40
6.0
 40
6.0
 40
7.0
 40
7.0
 40
7.0
 40
8.0
 40
8.0
 40
8.0
 40
9.0
 40
9.0
 40
9.0
 40
9.0
 10
127.7817352294921
 20
-80.41494513617621
 30
0.0
 10
127.7817352294921
 20
-80.41494513617621
 30
0.0
 10
127.7817352294921
 20
-83.42320251464842
 30
0.0
 10
127.7817352294921
 20
-83.42320251464842
 30
0.0
 10
127.7817352294921
 20
-83.97992994520398
 30
0.0
 10
127.3352508544921
 20
-84.42641432020399
 30
0.0
 10
126.7771453857421
 20
-84.42641432020399
 30
0.0
 10
126.7771453857421
 20
-84.42641432020399
 30
0.0
 10
112.7459604899088
 20
-84.42641432020399
 30
0.0
 10
112.7459604899088
 20
-84.42641432020399
 30
0.0
 10
112.1933671739366
 20
-84.42641432020399
 30
0.0
 10
111.7413706461588
 20
-83.97992994520398
 30
0.0
 10
111.7413706461588
 20
-83.42320251464842
 30
0.0
 10
111.7413706461588
 20
-83.42320251464842
 30
0.0
 10
111.7413706461588
 20
-71.39430711534287
 30
0.0
 10
111.7413706461588
 20
-71.39430711534287
 30
0.0
 10
111.7413706461588
 20
-70.84171379937065
 30
0.0
 10
112.1933671739366
 20
-70.39522942437065
 30
0.0
 10
112.7459604899088
 20
-70.39522942437065
 30
0.0
 10
112.7459604899088
 20
-70.39522942437065
 30
0.0
 10
126.7771453857421
 20
-70.39522942437065
 30
0.0
 10
126.7771453857421
 20
-70.39522942437065
 30
0.0
 10
127.3352508544921
 20
-70.39522942437065
 30
0.0
 10
127.7817352294921
 20
-70.84171379937065
 30
0.0
 10
127.7817352294921
 20
-71.39430711534287
 30
0.0
 10
127.7817352294921
 20
-71.39430711534287
 30
0.0
 10
127.7817352294921
 20
-74.40118645562065
 30
0.0
 10
127.7817352294921
 20
-74.40118645562065
 30
0.0
  0
SPLINE
  5
1B9
100
AcDbEntity
  8
ALPHA
 62
     7
100
AcDbSpline
210
0.0
220
0.0
230
1.0
 70
    11
 71
     3
 72
    26
 73
    22
 74
     0
 42
0.0000001
 43
0.0000001
 40
0.0
 40
0.0
 40
0.0
 40
0.0
 40
1.0
 40
1.0
 40
1.0
 40
2.0
 40
2.0
 40
2.0
 40
3.0
 40
3.0
 40
3.0
 40
4.0
 40
4.0
 40
4.0
 40
5.0
 40
5.0
 40
5.0
 40
6.0
 40
6.0
 40
6.0
 40
7.0
 40
7.0
 40
7.0
 40
7.0
 10
124.7693437364366
 20
-77.40806579589843
 30
0.0
 10
124.7693437364366
 20
-77.40806579589843
 30
0.0
 10
127.7776011149088
 20
-74.40118645562065
 30
0.0
 10
127.7776011149088
 20
-74.40118645562065
 30
0.0
 10
127.7776011149088
 20
-74.40118645562065
 30
0.0
 10
132.7867699517144
 20
-74.40118645562065
 30
0.0
 10
132.7867699517144
 20
-74.40118645562065
 30
0.0
 10
134.4500620524088
 20
-74.40118645562065
 30
0.0
 10
135.7950273301866
 20
-75.75028584798175
 30
0.0
 10
135.7950273301866
 20
-77.40806579589843
 30
0.0
 10
135.7950273301866
 20
-77.40806579589843
 30
0.0
 10
135.7950273301866
 20
-77.40806579589843
 30
0.0
 10
135.7950273301866
 20
-77.40806579589843
 30
0.0
 10
135.7950273301866
 20
-79.07135789659287
 30
0.0
 10
134.4500620524088
 20
-80.41494513617621
 30
0.0
 10
132.7867699517144
 20
-80.41494513617621
 30
0.0
 10
132.7867699517144
 20
-80.41494513617621
 30
0.0
 10
127.7776011149088
 20
-80.41494513617621
 30
0.0
 10
127.7776011149088
 20
-80.41494513617621
 30
0.0
 10
127.7776011149088
 20
-80.41494513617621
 30
0.0
 10
124.7693437364366
 20
-77.40806579589843
 30
0.0
 10
124.7693437364366
 20
-77.40806579589843
 30
0.0
  0
POLYLINE
  5
1BA
100
AcDbEntity
  8
ALPHA
 62
     7
100
AcDb2dPolyline
 66
     1
 10
0.0
 20
0.0
 30
0.0
 70
     1
  0
VERTEX
  5
1BB
100
AcDbEntity
  8
ALPHA
 62
     7
100
AcDbVertex
100
AcDb2dVertex
 10
-53.427531
 20
-72.416811
 30
0.0
  0
VERTEX
  5
1BC
100
AcDbEntity
  8
ALPHA
 62
     7
100
AcDbVertex
100
AcDb2dVertex
 10
-53.427531
 20
-63.394795
 30
0.0
  0
VERTEX
  5
1BD
100
AcDbEntity
  8
ALPHA
 62
     7
100
AcDbVertex
100
AcDb2dVertex
 10
-68.468646
 20
-63.394795
 30
0.0
  0
VERTEX
  5
1BE
100
AcDbEntity
  8
ALPHA
 62
     7
100
AcDbVertex
100
AcDb2dVertex
 10
-68.468646
 20
-72.416811
 30
0.0
  0
SEQEND
  5
1BF
100
AcDbEntity
  8
ALPHA
 62
     7
  0
POLYLINE
  5
1C0
100
AcDbEntity
  8
ALPHA
 62
     7
100
AcDb2dPolyline
 66
     1
 10
0.0
 20
0.0
 30
0.0
 70
     1
  0
VERTEX
  5
1C1
100
AcDbEntity
  8
ALPHA
 62
     7
100
AcDbVertex
100
AcDb2dVertex
 10
-53.427531
 20
-34.221727
 30
0.0
  0
VERTEX
  5
1C2
100
AcDbEntity
  8
ALPHA
 62
     7
100
AcDbVertex
100
AcDb2dVertex
 10
-53.427531
 20
-25.199711
 30
0.0
  0
VERTEX
  5
1C3
100
AcDbEntity
  8
ALPHA
 62
     7
100
AcDbVertex
100
AcDb2dVertex
 10
-68.468646
 20
-25.199711
 30
0.0
  0
VERTEX
  5
1C4
100
AcDbEntity
  8
ALPHA
 62
     7
100
AcDbVertex
100
AcDb2dVertex
 10
-68.468646
 20
-34.221727
 30
0.0
  0
SEQEND
  5
1C5
100
AcDbEntity
  8
ALPHA
 62
     7
  0
POLYLINE
  5
1C6
100
AcDbEntity
  8
ALPHA
 62
     7
100
AcDb2dPolyline
 66
     1
 10
0.0
 20
0.0
 30
0.0
 70
     1
  0
VERTEX
  5
1C7
100
AcDbEntity
  8
ALPHA
 62
     7
100
AcDbVertex
100
AcDb2dVertex
 10
-34.330678
 20
-52.789413
 30
0.0
  0
VERTEX
  5
1C8
100
AcDbEntity
  8
ALPHA
 62
     7
100
AcDbVertex
100
AcDb2dVertex
 10
-34.330678
 20
-43.767397
 30
0.0
  0
VERTEX
  5
1C9
100
AcDbEntity
  8
ALPHA
 62
     7
100
AcDbVertex
100
AcDb2dVertex
 10
-49.370587
 20
-43.767397
 30
0.0
  0
VERTEX
  5
1CA
100
AcDbEntity
  8
ALPHA
 62
     7
100
AcDbVertex
100
AcDb2dVertex
 10
-49.370587
 20
-52.789413
 30
0.0
  0
SEQEND
  5
1CB
100
AcDbEntity
  8
ALPHA
 62
     7
  0
POLYLINE
  5
1CC
100
AcDbEntity
  8
ALPHA
 62
     7
100
AcDb2dPolyline
 66
     1
 10
0.0
 20
0.0
 30
0.0
 70
     1
  0
VERTEX
  5
1CD
100
AcDbEntity
  8
ALPHA
 62
     7
100
AcDbVertex
100
AcDb2dVertex
 10
-14.528269
 20
-34.221727
 30
0.0
  0
VERTEX
  5
1CE
100
AcDbEntity
  8
ALPHA
 62
     7
100
AcDbVertex
100
AcDb2dVertex
 10
-14.528269
 20
-25.199711
 30
0.0
  0
VERTEX
  5
1CF
100
AcDbEntity
  8
ALPHA
 62
     7
100
AcDbVertex
100
AcDb2dVertex
 10
-29.564044
 20
-25.199711
 30
0.0
  0
VERTEX
  5
1D0
100
AcDbEntity
  8
ALPHA
 62
     7
100
AcDbVertex
100
AcDb2dVertex
 10
-29.564044
 20
-34.221727
 30
0.0
  0
SEQEND
  5
1D1
100
AcDbEntity
  8
ALPHA
 62
     7
  0
POLYLINE
  5
1D2
100
AcDbEntity
  8
ALPHA
 62
     7
100
AcDb2dPolyline
 66
     1
 10
0.0
 20
0.0
 30
0.0
 70
     1
  0
VERTEX
  5
1D3
100
AcDbEntity
  8
ALPHA
 62
     7
100
AcDbVertex
100
AcDb2dVertex
 10
1.03805
 20
3.265046
 30
0.0
  0
VERTEX
  5
1D4
100
AcDbEntity
  8
ALPHA
 62
     7
100
AcDbVertex
100
AcDb2dVertex
 10
1.03805
 20
12.287234
 30
0.0
  0
VERTEX
  5
1D5
100
AcDbEntity
  8
ALPHA
 62
     7
100
AcDbVertex
100
AcDb2dVertex
 10
-14.003237
 20
12.287234
 30
0.0
  0
VERTEX
  5
1D6
100
AcDbEntity
  8
ALPHA
 62
     7
100
AcDbVertex
100
AcDb2dVertex
 10
-14.003237
 20
3.265046
 30
0.0
  0
SEQEND
  5
1D7
100
AcDbEntity
  8
ALPHA
 62
     7
  0
POLYLINE
  5
1D8
100
AcDbEntity
  8
ALPHA
 62
     7
100
AcDb2dPolyline
 66
     1
 10
0.0
 20
0.0
 30
0.0
 70
     1
  0
VERTEX
  5
1D9
100
AcDbEntity
  8
ALPHA
 62
     7
100
AcDbVertex
100
AcDb2dVertex
 10
22.254326
 20
3.265046
 30
0.0
  0
VERTEX
  5
1DA
100
AcDbEntity
  8
ALPHA
 62
     7
100
AcDbVertex
100
AcDb2dVertex
 10
22.254326
 20
12.287234
 30
0.0
  0
VERTEX
  5
1DB
100
AcDbEntity
  8
ALPHA
 62
     7
100
AcDbVertex
100
AcDb2dVertex
 10
7.218552
 20
12.287234
 30
0.0
  0
VERTEX
  5
1DC
100
AcDbEntity
  8
ALPHA
 62
     7
100
AcDbVertex
100
AcDb2dVertex
 10
7.218552
 20
3.265046
 30
0.0
  0
SEQEND
  5
1DD
100
AcDbEntity
  8
ALPHA
 62
     7
  0
POLYLINE
  5
1DE
100
AcDbEntity
  8
ALPHA
 62
     7
100
AcDb2dPolyline
 66
     1
 10
0.0
 20
0.0
 30
0.0
 70
     1
  0
VERTEX
  5
1DF
100
AcDbEntity
  8
ALPHA
 62
     7
100
AcDbVertex
100
AcDb2dVertex
 10
43.474737
 20
3.265046
 30
0.0
  0
VERTEX
  5
1E0
100
AcDbEntity
  8
ALPHA
 62
     7
100
AcDbVertex
100
AcDb2dVertex
 10
43.474737
 20
12.287234
 30
0.0
  0
VERTEX
  5
1E1
100
AcDbEntity
  8
ALPHA
 62
     7
100
AcDbVertex
100
AcDb2dVertex
 10
28.438962
 20
12.287234
 30
0.0
  0
VERTEX
  5
1E2
100
AcDbEntity
  8
ALPHA
 62
     7
100
AcDbVertex
100
AcDb2dVertex
 10
28.438962
 20
3.265046
 30
0.0
  0
SEQEND
  5
1E3
100
AcDbEntity
  8
ALPHA
 62
     7
  0
POLYLINE
  5
1E4
100
AcDbEntity
  8
ALPHA
 62
     7
100
AcDb2dPolyline
 66
     1
 10
0.0
 20
0.0
 30
0.0
 70
     1
  0
VERTEX
  5
1E5
100
AcDbEntity
  8
ALPHA
 62
     7
100
AcDbVertex
100
AcDb2dVertex
 10
64.695147
 20
3.265046
 30
0.0
  0
VERTEX
  5
1E6
100
AcDbEntity
  8
ALPHA
 62
     7
100
AcDbVertex
100
AcDb2dVertex
 10
64.695147
 20
12.287234
 30
0.0
  0
VERTEX
  5
1E7
100
AcDbEntity
  8
ALPHA
 62
     7
100
AcDbVertex
100
AcDb2dVertex
 10
49.659372
 20
12.287234
 30
0.0
  0
VERTEX
  5
1E8
100
AcDbEntity
  8
ALPHA
 62
     7
100
AcDbVertex
100
AcDb2dVertex
 10
49.659372
 20
3.265046
 30
0.0
  0
SEQEND
  5
1E9
100
AcDbEntity
  8
ALPHA
 62
     7
  0
POLYLINE
  5
1EA
100
AcDbEntity
  8
ALPHA
 62
     7
100
AcDb2dPolyline
 66
     1
 10
0.0
 20
0.0
 30
0.0
 70
     1
  0
VERTEX
  5
1EB
100
AcDbEntity
  8
ALPHA
 62
     7
100
AcDbVertex
100
AcDb2dVertex
 10
22.254326
 20
-73.125123
 30
0.0
  0
VERTEX
  5
1EC
100
AcDbEntity
  8
ALPHA
 62
     7
100
AcDbVertex
100
AcDb2dVertex
 10
22.254326
 20
-64.104485
 30
0.0
  0
VERTEX
  5
1ED
100
AcDbEntity
  8
ALPHA
 62
     7
100
AcDbVertex
100
AcDb2dVertex
 10
7.218552
 20
-64.104485
 30
0.0
  0
VERTEX
  5
1EE
100
AcDbEntity
  8
ALPHA
 62
     7
100
AcDbVertex
100
AcDb2dVertex
 10
7.218552
 20
-73.125123
 30
0.0
  0
SEQEND
  5
1EF
100
AcDbEntity
  8
ALPHA
 62
     7
  0
POLYLINE
  5
1F0
100
AcDbEntity
  8
ALPHA
 62
     7
100
AcDb2dPolyline
 66
     1
 10
0.0
 20
0.0
 30
0.0
 70
     1
  0
VERTEX
  5
1F1
100
AcDbEntity
  8
ALPHA
 62
     7
100
AcDbVertex
100
AcDb2dVertex
 10
43.474737
 20
-73.125123
 30
0.0
  0
VERTEX
  5
1F2
100
AcDbEntity
  8
ALPHA
 62
     7
100
AcDbVertex
100
AcDb2dVertex
 10
43.474737
 20
-64.104485
 30
0.0
  0
VERTEX
  5
1F3
100
AcDbEntity
  8
ALPHA
 62
     7
100
AcDbVertex
100
AcDb2dVertex
 10
28.438962
 20
-64.104485
 30
0.0
  0
VERTEX
  5
1F4
100
AcDbEntity
  8
ALPHA
 62
     7
100
AcDbVertex
100
AcDb2dVertex
 10
28.438962
 20
-73.125123
 30
0.0
  0
SEQEND
  5
1F5
100
AcDbEntity
  8
ALPHA
 62
     7
  0
POLYLINE
  5
1F6
100
AcDbEntity
  8
ALPHA
 62
     7
100
AcDb2dPolyline
 66
     1
 10
0.0
 20
0.0
 30
0.0
 70
     1
  0
VERTEX
  5
1F7
100
AcDbEntity
  8
ALPHA
 62
     7
100
AcDbVertex
100
AcDb2dVertex
 10
64.695147
 20
-73.125123
 30
0.0
  0
VERTEX
  5
1F8
100
AcDbEntity
  8
ALPHA
 62
     7
100
AcDbVertex
100
AcDb2dVertex
 10
64.695147
 20
-64.104485
 30
0.0
  0
VERTEX
  5
1F9
100
AcDbEntity
  8
ALPHA
 62
     7
100
AcDbVertex
100
AcDb2dVertex
 10
49.659372
 20
-64.104485
 30
0.0
  0
VERTEX
  5
1FA
100
AcDbEntity
  8
ALPHA
 62
     7
100
AcDbVertex
100
AcDb2dVertex
 10
49.659372
 20
-73.125123
 30
0.0
  0
SEQEND
  5
1FB
100
AcDbEntity
  8
ALPHA
 62
     7
  0
POLYLINE
  5
1FC
100
AcDbEntity
  8
ALPHA
 62
     7
100
AcDb2dPolyline
 66
     1
 10
0.0
 20
0.0
 30
0.0
 70
     1
  0
VERTEX
  5
1FD
100
AcDbEntity
  8
ALPHA
 62
     7
100
AcDbVertex
100
AcDb2dVertex
 10
22.254326
 20
-55.442137
 30
0.0
  0
VERTEX
  5
1FE
100
AcDbEntity
  8
ALPHA
 62
     7
100
AcDbVertex
100
AcDb2dVertex
 10
22.254326
 20
-46.420121
 30
0.0
  0
VERTEX
  5
1FF
100
AcDbEntity
  8
ALPHA
 62
     7
100
AcDbVertex
100
AcDb2dVertex
 10
7.218552
 20
-46.420121
 30
0.0
  0
VERTEX
  5
200
100
AcDbEntity
  8
ALPHA
 62
     7
100
AcDbVertex
100
AcDb2dVertex
 10
7.218552
 20
-55.442137
 30
0.0
  0
SEQEND
  5
201
100
AcDbEntity
  8
ALPHA
 62
     7
  0
POLYLINE
  5
202
100
AcDbEntity
  8
ALPHA
 62
     7
100
AcDb2dPolyline
 66
     1
 10
0.0
 20
0.0
 30
0.0
 70
     1
  0
VERTEX
  5
203
100
AcDbEntity
  8
ALPHA
 62
     7
100
AcDbVertex
100
AcDb2dVertex
 10
43.474737
 20
-55.442137
 30
0.0
  0
VERTEX
  5
204
100
AcDbEntity
  8
ALPHA
 62
     7
100
AcDbVertex
100
AcDb2dVertex
 10
43.474737
 20
-46.420121
 30
0.0
  0
VERTEX
  5
205
100
AcDbEntity
  8
ALPHA
 62
     7
100
AcDbVertex
100
AcDb2dVertex
 10
28.438962
 20
-46.420121
 30
0.0
  0
VERTEX
  5
206
100
AcDbEntity
  8
ALPHA
 62
     7
100
AcDbVertex
100
AcDb2dVertex
 10
28.438962
 20
-55.442137
 30
0.0
  0
SEQEND
  5
207
100
AcDbEntity
  8
ALPHA
 62
     7
  0
POLYLINE
  5
208
100
AcDbEntity
  8
ALPHA
 62
     7
100
AcDb2dPolyline
 66
     1
 10
0.0
 20
0.0
 30
0.0
 70
     1
  0
VERTEX
  5
209
100
AcDbEntity
  8
ALPHA
 62
     7
100
AcDbVertex
100
AcDb2dVertex
 10
64.695147
 20
-55.442137
 30
0.0
  0
VERTEX
  5
20A
100
AcDbEntity
  8
ALPHA
 62
     7
100
AcDbVertex
100
AcDb2dVertex
 10
64.695147
 20
-46.420121
 30
0.0
  0
VERTEX
  5
20B
100
AcDbEntity
  8
ALPHA
 62
     7
100
AcDbVertex
100
AcDb2dVertex
 10
49.659372
 20
-46.420121
 30
0.0
  0
VERTEX
  5
20C
100
AcDbEntity
  8
ALPHA
 62
     7
100
AcDbVertex
100
AcDb2dVertex
 10
49.659372
 20
-55.442137
 30
0.0
  0
SEQEND
  5
20D
100
AcDbEntity
  8
ALPHA
 62
     7
  0
POLYLINE
  5
20E
100
AcDbEntity
  8
ALPHA
 62
     7
100
AcDb2dPolyline
 66
     1
 10
0.0
 20
0.0
 30
0.0
 70
     1
  0
VERTEX
  5
20F
100
AcDbEntity
  8
ALPHA
 62
     7
100
AcDbVertex
100
AcDb2dVertex
 10
22.254326
 20
-35.98975
 30
0.0
  0
VERTEX
  5
210
100
AcDbEntity
  8
ALPHA
 62
     7
100
AcDbVertex
100
AcDb2dVertex
 10
22.254326
 20
-26.967734
 30
0.0
  0
VERTEX
  5
211
100
AcDbEntity
  8
ALPHA
 62
     7
100
AcDbVertex
100
AcDb2dVertex
 10
7.218552
 20
-26.967734
 30
0.0
  0
VERTEX
  5
212
100
AcDbEntity
  8
ALPHA
 62
     7
100
AcDbVertex
100
AcDb2dVertex
 10
7.218552
 20
-35.98975
 30
0.0
  0
SEQEND
  5
213
100
AcDbEntity
  8
ALPHA
 62
     7
  0
POLYLINE
  5
214
100
AcDbEntity
  8
ALPHA
 62
     7
100
AcDb2dPolyline
 66
     1
 10
0.0
 20
0.0
 30
0.0
 70
     1
  0
VERTEX
  5
215
100
AcDbEntity
  8
ALPHA
 62
     7
100
AcDbVertex
100
AcDb2dVertex
 10
43.474737
 20
-35.98975
 30
0.0
  0
VERTEX
  5
216
100
AcDbEntity
  8
ALPHA
 62
     7
100
AcDbVertex
100
AcDb2dVertex
 10
43.474737
 20
-26.967734
 30
0.0
  0
VERTEX
  5
217
100
AcDbEntity
  8
ALPHA
 62
     7
100
AcDbVertex
100
AcDb2dVertex
 10
28.438962
 20
-26.967734
 30
0.0
  0
VERTEX
  5
218
100
AcDbEntity
  8
ALPHA
 62
     7
100
AcDbVertex
100
AcDb2dVertex
 10
28.438962
 20
-35.98975
 30
0.0
  0
SEQEND
  5
219
100
AcDbEntity
  8
ALPHA
 62
     7
  0
POLYLINE
  5
21A
100
AcDbEntity
  8
ALPHA
 62
     7
100
AcDb2dPolyline
 66
     1
 10
0.0
 20
0.0
 30
0.0
 70
     1
  0
VERTEX
  5
21B
100
AcDbEntity
  8
ALPHA
 62
     7
100
AcDbVertex
100
AcDb2dVertex
 10
64.695147
 20
-35.98975
 30
0.0
  0
VERTEX
  5
21C
100
AcDbEntity
  8
ALPHA
 62
     7
100
AcDbVertex
100
AcDb2dVertex
 10
64.695147
 20
-26.967734
 30
0.0
  0
VERTEX
  5
21D
100
AcDbEntity
  8
ALPHA
 62
     7
100
AcDbVertex
100
AcDb2dVertex
 10
49.659372
 20
-26.967734
 30
0.0
  0
VERTEX
  5
21E
100
AcDbEntity
  8
ALPHA
 62
     7
100
AcDbVertex
100
AcDb2dVertex
 10
49.659372
 20
-35.98975
 30
0.0
  0
SEQEND
  5
21F
100
AcDbEntity
  8
ALPHA
 62
     7
  0
POLYLINE
  5
220
100
AcDbEntity
  8
ALPHA
 62
     7
100
AcDb2dPolyline
 66
     1
 10
0.0
 20
0.0
 30
0.0
 70
     1
  0
VERTEX
  5
221
100
AcDbEntity
  8
ALPHA
 62
     7
100
AcDbVertex
100
AcDb2dVertex
 10
22.254326
 20
-16.362352
 30
0.0
  0
VERTEX
  5
222
100
AcDbEntity
  8
ALPHA
 62
     7
100
AcDbVertex
100
AcDb2dVertex
 10
22.254326
 20
-7.340336
 30
0.0
  0
VERTEX
  5
223
100
AcDbEntity
  8
ALPHA
 62
     7
100
AcDbVertex
100
AcDb2dVertex
 10
7.218552
 20
-7.340336
 30
0.0
  0
VERTEX
  5
224
100
AcDbEntity
  8
ALPHA
 62
     7
100
AcDbVertex
100
AcDb2dVertex
 10
7.218552
 20
-16.362352
 30
0.0
  0
SEQEND
  5
225
100
AcDbEntity
  8
ALPHA
 62
     7
  0
POLYLINE
  5
226
100
AcDbEntity
  8
ALPHA
 62
     7
100
AcDb2dPolyline
 66
     1
 10
0.0
 20
0.0
 30
0.0
 70
     1
  0
VERTEX
  5
227
100
AcDbEntity
  8
ALPHA
 62
     7
100
AcDbVertex
100
AcDb2dVertex
 10
43.474737
 20
-16.362352
 30
0.0
  0
VERTEX
  5
228
100
AcDbEntity
  8
ALPHA
 62
     7
100
AcDbVertex
100
AcDb2dVertex
 10
43.474737
 20
-7.340336
 30
0.0
  0
VERTEX
  5
229
100
AcDbEntity
  8
ALPHA
 62
     7
100
AcDbVertex
100
AcDb2dVertex
 10
28.438962
 20
-7.340336
 30
0.0
  0
VERTEX
  5
22A
100
AcDbEntity
  8
ALPHA
 62
     7
100
AcDbVertex
100
AcDb2dVertex
 10
28.438962
 20
-16.362352
 30
0.0
  0
SEQEND
  5
22B
100
AcDbEntity
  8
ALPHA
 62
     7
  0
POLYLINE
  5
22C
100
AcDbEntity
  8
ALPHA
 62
     7
100
AcDb2dPolyline
 66
     1
 10
0.0
 20
0.0
 30
0.0
 70
     1
  0
VERTEX
  5
22D
100
AcDbEntity
  8
ALPHA
 62
     7
100
AcDbVertex
100
AcDb2dVertex
 10
64.695147
 20
-16.362352
 30
0.0
  0
VERTEX
  5
22E
100
AcDbEntity
  8
ALPHA
 62
     7
100
AcDbVertex
100
AcDb2dVertex
 10
64.695147
 20
-7.340336
 30
0.0
  0
VERTEX
  5
22F
100
AcDbEntity
  8
ALPHA
 62
     7
100
AcDbVertex
100
AcDb2dVertex
 10
49.659372
 20
-7.340336
 30
0.0
  0
VERTEX
  5
230
100
AcDbEntity
  8
ALPHA
 62
     7
100
AcDbVertex
100
AcDb2dVertex
 10
49.659372
 20
-16.362352
 30
0.0
  0
SEQEND
  5
231
100
AcDbEntity
  8
ALPHA
 62
     7
  0
ENDBLK
  5
233
100
AcDbEntity
  8
ALPHA
100
AcDbBlockEnd
  0
BLOCK
  5
37C
100
AcDbEntity
  8
ALPHA
 62
     7
100
AcDbBlockBegin
  2
AI9-BLK7
 70
     0
 10
0.0
 20
0.0
 30
0.0
  3
AI9-BLK7
  1

  0
HATCH
  5
37B
100
AcDbEntity
  8
ALPHA
 62
     7
100
AcDbHatch
 10
0.0
 20
0.0
 30
0.0
210
0.0
220
0.0
230
1.0
  2
SOLID
 70
     1
 71
     0
 91
        1
 92
        1
 93
        1
 72
     4
 94
        3
 73
     0
 74
     0
 95
       59
 96
       55
 40
0.0
 40
0.0
 40
0.0
 40
0.0
 40
1.0
 40
1.0
 40
1.0
 40
2.0
 40
2.0
 40
2.0
 40
3.0
 40
3.0
 40
3.0
 40
4.0
 40
4.0
 40
4.0
 40
5.0
 40
5.0
 40
5.0
 40
6.0
 40
6.0
 40
6.0
 40
7.0
 40
7.0
 40
7.0
 40
8.0
 40
8.0
 40
8.0
 40
9.0
 40
9.0
 40
9.0
 40
10.0
 40
10.0
 40
10.0
 40
11.0
 40
11.0
 40
11.0
 40
12.0
 40
12.0
 40
12.0
 40
13.0
 40
13.0
 40
13.0
 40
14.0
 40
14.0
 40
14.0
 40
15.0
 40
15.0
 40
15.0
 40
16.0
 40
16.0
 40
16.0
 40
17.0
 40
17.0
 40
17.0
 40
18.0
 40
18.0
 40
18.0
 40
18.0
 10
-0.073381
 20
0.079754
 10
-0.054949
 20
0.078376
 10
-0.038068
 20
0.078376
 10
-0.021015
 20
0.078376
 10
0.080443
 20
0.078376
 10
0.169326
 20
0.133325
 10
0.169326
 20
0.242018
 10
0.169326
 20
0.346404
 10
0.09319
 20
0.402904
 10
-0.00844
 20
0.402904
 10
-0.139699
 20
0.402904
 10
-0.196026
 20
0.302652
 10
-0.197404
 20
0.185518
 10
-0.197404
 20
0.185518
 10
-0.317466
 20
0.185518
 10
-0.317466
 20
0.185518
 10
-0.310403
 20
0.376032
 10
-0.208773
 20
0.508668
 10
-0.00844
 20
0.508668
 10
0.165192
 20
0.508668
 10
0.29645
 20
0.425469
 10
0.29645
 20
0.24064
 10
0.29645
 20
0.153134
 10
0.234266
 20
0.076826
 10
0.15813
 20
0.041686
 10
0.15813
 20
0.041686
 10
0.15813
 20
0.038757
 10
0.15813
 20
0.038757
 10
0.279397
 20
0.012058
 10
0.338653
 20
-0.08406
 10
0.338653
 20
-0.20395
 10
0.338653
 20
-0.404282
 10
0.182073
 20
-0.508668
 10
-0.005512
 20
-0.508668
 10
-0.208773
 20
-0.508668
 10
-0.342787
 20
-0.388779
 10
-0.338653
 20
-0.182762
 10
-0.338653
 20
-0.182762
 10
-0.218591
 20
-0.182762
 10
-0.218591
 20
-0.182762
 10
-0.214457
 20
-0.312642
 10
-0.142455
 20
-0.402904
 10
-0.005512
 20
-0.402904
 10
0.111621
 20
-0.402904
 10
0.211701
 20
-0.330901
 10
0.211701
 20
-0.209634
 10
0.211701
 20
-0.08406
 10
0.117133
 20
-0.017742
 10
-0.001378
 20
-0.017742
 10
-0.025321
 20
-0.017742
 10
-0.050815
 20
-0.01912
 10
-0.073381
 20
-0.021876
 10
-0.073381
 20
-0.021876
 10
-0.073381
 20
0.079754
 10
-0.073381
 20
0.079754
 97
        0
 75
     0
 76
     1
 98
        1
 10
0.0
 20
0.0
  0
ENDBLK
  5
37D
100
AcDbEntity
  8
ALPHA
100
AcDbBlockEnd
  0
BLOCK
  5
380
100
AcDbEntity
  8
ALPHA
 62
     7
100
AcDbBlockBegin
  2
AI9-BLK8
 70
     0
 10
0.0
 20
0.0
 30
0.0
  3
AI9-BLK8
  1

  0
HATCH
  5
37F
100
AcDbEntity
  8
ALPHA
 62
     7
100
AcDbHatch
 10
0.0
 20
0.0
 30
0.0
210
0.0
220
0.0
230
1.0
  2
SOLID
 70
     1
 71
     0
 91
        2
 92
       16
 93
        1
 72
     4
 94
        3
 73
     0
 74
     0
 95
       17
 96
       13
 40
0.0
 40
0.0
 40
0.0
 40
0.0
 40
1.0
 40
1.0
 40
1.0
 40
2.0
 40
2.0
 40
2.0
 40
3.0
 40
3.0
 40
3.0
 40
4.0
 40
4.0
 40
4.0
 40
4.0
 10
0.095343
 20
-0.160197
 10
0.095343
 20
-0.160197
 10
0.095343
 20
0.329523
 10
0.095343
 20
0.329523
 10
0.095343
 20
0.329523
 10
0.092415
 20
0.329523
 10
0.092415
 20
0.329523
 10
0.092415
 20
0.329523
 10
-0.240554
 20
-0.160197
 10
-0.240554
 20
-0.160197
 10
-0.240554
 20
-0.160197
 10
0.095343
 20
-0.160197
 10
0.095343
 20
-0.160197
 97
        0
 92
        1
 93
        1
 72
     4
 94
        3
 73
     0
 74
     0
 95
       38
 96
       34
 40
0.0
 40
0.0
 40
0.0
 40
0.0
 40
1.0
 40
1.0
 40
1.0
 40
2.0
 40
2.0
 40
2.0
 40
3.0
 40
3.0
 40
3.0
 40
4.0
 40
4.0
 40
4.0
 40
5.0
 40
5.0
 40
5.0
 40
6.0
 40
6.0
 40
6.0
 40
7.0
 40
7.0
 40
7.0
 40
8.0
 40
8.0
 40
8.0
 40
9.0
 40
9.0
 40
9.0
 40
10.0
 40
10.0
 40
10.0
 40
11.0
 40
11.0
 40
11.0
 40
11.0
 10
0.20817
 20
-0.160197
 10
0.20817
 20
-0.160197
 10
0.343562
 20
-0.160197
 10
0.343562
 20
-0.160197
 10
0.343562
 20
-0.160197
 10
0.343562
 20
-0.265961
 10
0.343562
 20
-0.265961
 10
0.343562
 20
-0.265961
 10
0.20817
 20
-0.265961
 10
0.20817
 20
-0.265961
 10
0.20817
 20
-0.265961
 10
0.20817
 20
-0.500228
 10
0.20817
 20
-0.500228
 10
0.20817
 20
-0.500228
 10
0.095343
 20
-0.500228
 10
0.095343
 20
-0.500228
 10
0.095343
 20
-0.500228
 10
0.095343
 20
-0.265961
 10
0.095343
 20
-0.265961
 10
0.095343
 20
-0.265961
 10
-0.343562
 20
-0.265961
 10
-0.343562
 20
-0.265961
 10
-0.343562
 20
-0.265961
 10
-0.343562
 20
-0.150206
 10
-0.343562
 20
-0.150206
 10
-0.343562
 20
-0.150206
 10
0.112224
 20
0.500228
 10
0.112224
 20
0.500228
 10
0.112224
 20
0.500228
 10
0.20817
 20
0.500228
 10
0.20817
 20
0.500228
 10
0.20817
 20
0.500228
 10
0.20817
 20
-0.160197
 10
0.20817
 20
-0.160197
 97
        0
 75
     0
 76
     1
 98
        1
 10
0.0
 20
0.0
  0
ENDBLK
  5
381
100
AcDbEntity
  8
ALPHA
100
AcDbBlockEnd
  0
BLOCK
  5
384
100
AcDbEntity
  8
ALPHA
 62
     7
100
AcDbBlockBegin
  2
AI9-BLK9
 70
     0
 10
0.0
 20
0.0
 30
0.0
  3
AI9-BLK9
  1

  0
HATCH
  5
383
100
AcDbEntity
  8
ALPHA
 62
     7
100
AcDbHatch
 10
0.0
 20
0.0
 30
0.0
210
0.0
220
0.0
230
1.0
  2
SOLID
 70
     1
 71
     0
 91
        1
 92
        1
 93
        1
 72
     4
 94
        3
 73
     0
 74
     0
 95
       26
 96
       22
 40
0.0
 40
0.0
 40
0.0
 40
0.0
 40
1.0
 40
1.0
 40
1.0
 40
2.0
 40
2.0
 40
2.0
 40
3.0
 40
3.0
 40
3.0
 40
4.0
 40
4.0
 40
4.0
 40
5.0
 40
5.0
 40
5.0
 40
6.0
 40
6.0
 40
6.0
 40
7.0
 40
7.0
 40
7.0
 40
7.0
 10
0.189825
 20
-0.500228
 10
0.189825
 20
-0.500228
 10
0.069935
 20
-0.500228
 10
0.069935
 20
-0.500228
 10
0.069935
 20
-0.500228
 10
0.069935
 20
0.216697
 10
0.069935
 20
0.216697
 10
0.069935
 20
0.216697
 10
-0.189825
 20
0.216697
 10
-0.189825
 20
0.216697
 10
-0.189825
 20
0.216697
 10
-0.189825
 20
0.312642
 10
-0.189825
 20
0.312642
 10
-0.052882
 20
0.312642
 10
0.071313
 20
0.349333
 10
0.098013
 20
0.500228
 10
0.098013
 20
0.500228
 10
0.189825
 20
0.500228
 10
0.189825
 20
0.500228
 10
0.189825
 20
0.500228
 10
0.189825
 20
-0.500228
 10
0.189825
 20
-0.500228
 97
        0
 75
     0
 76
     1
 98
        1
 10
0.0
 20
0.0
  0
ENDBLK
  5
385
100
AcDbEntity
  8
ALPHA
100
AcDbBlockEnd
  0
BLOCK
  5
A76
100
AcDbEntity
  8
0
100
AcDbBlockBegin
  2
*D8
 70
     1
 10
0.0
 20
0.0
 30
0.0
  3
*D8
  1

  0
LINE
  5
A77
100
AcDbEntity
  8
0
  6
BYBLOCK
 62
     0
100
AcDbLine
 10
3.602192
 20
179.595883
 30
0.0
 11
3.602192
 21
219.104591
 31
0.0
  0
LINE
  5
A78
100
AcDbEntity
  8
0
  6
BYBLOCK
 62
     0
100
AcDbLine
 10
61.002192
 20
201.595883
 30
0.0
 11
61.002192
 21
219.104591
 31
0.0
  0
LINE
  5
A79
100
AcDbEntity
  8
0
  6
BYBLOCK
 62
     0
100
AcDbLine
 10
6.602192
 20
218.924591
 30
0.0
 11
58.002192
 21
218.924591
 31
0.0
  0
MTEXT
  5
A7A
100
AcDbEntity
  8
0
  6
BYBLOCK
 62
     0
100
AcDbMText
 10
33.257442
 20
221.530011
 30
0.0
 40
2.5
 41
0.0
 71
     5
 72
     1
  1
\A1;57.4
  0
SOLID
  5
A7B
100
AcDbEntity
  8
0
  6
BYBLOCK
 62
     0
100
AcDbTrace
 10
6.602192
 20
219.424591
 30
0.0
 11
6.602192
 21
218.424591
 31
0.0
 12
3.602192
 22
218.924591
 32
0.0
 13
3.602192
 23
218.924591
 33
0.0
  0
SOLID
  5
A7C
100
AcDbEntity
  8
0
  6
BYBLOCK
 62
     0
100
AcDbTrace
 10
58.002192
 20
219.424591
 30
0.0
 11
58.002192
 21
218.424591
 31
0.0
 12
61.002192
 22
218.924591
 32
0.0
 13
61.002192
 23
218.924591
 33
0.0
  0
POINT
  5
A7D
100
AcDbEntity
  8
DEFPOINTS
  6
BYBLOCK
 62
     0
100
AcDbPoint
 10
3.602192
 20
179.533383
 30
0.0
  0
POINT
  5
A7E
100
AcDbEntity
  8
DEFPOINTS
  6
BYBLOCK
 62
     0
100
AcDbPoint
 10
61.002192
 20
201.533383
 30
0.0
  0
POINT
  5
A7F
100
AcDbEntity
  8
DEFPOINTS
  6
BYBLOCK
 62
     0
100
AcDbPoint
 10
61.002192
 20
218.924591
 30
0.0
  0
ENDBLK
  5
A80
100
AcDbEntity
  8
0
100
AcDbBlockEnd
  0
ENDSEC
  0
SECTION
  2
ENTITIES
  0
INSERT
  5
CC
100
AcDbEntity
  8
0
100
AcDbBlockReference
  2
SCH_IS
 10
-68.718396
 20
-140.042541
 30
0.0
  0
INSERT
  5
EC
100
AcDbEntity
  8
COTATION1
100
AcDbBlockReference
  2
SCH_IS
 10
0.0
 20
0.0
 30
0.0
  0
LINE
  5
7F4
100
AcDbEntity
  8
ALPHA
  6
CONTINUOUS
 62
     7
100
AcDbLine
 10
27.791899
 20
201.833383
 30
0.0
 11
61.002192
 21
201.833383
 31
0.0
  0
LINE
  5
7F5
100
AcDbEntity
  8
ALPHA
  6
CONTINUOUS
 62
     9
100
AcDbLine
 10
28.12989
 20
201.183383
 30
0.0
 11
54.202192
 21
201.183383
 31
0.0
  0
LINE
  5
7F6
100
AcDbEntity
  8
ALPHA
  6
CONTINUOUS
 62
     9
100
AcDbLine
 10
28.12989
 20
112.483383
 30
0.0
 11
48.002192
 21
112.483383
 31
0.0
  0
LINE
  5
7F7
100
AcDbEntity
  8
ALPHA
  6
CONTINUOUS
 62
     7
100
AcDbLine
 10
27.791899
 20
111.833383
 30
0.0
 11
48.002192
 21
111.833383
 31
0.0
  0
DIMENSION
  5
7F8
100
AcDbEntity
  8
COTATION1
  6
CONTINUOUS
 62
     2
100
AcDbDimension
  2
*D8
 10
61.002192
 20
218.924591
 30
0.0
 11
33.257442
 21
221.530011
 31
0.0
 70
   160
  3
SC_STAND
100
AcDbAlignedDimension
 13
3.602192
 23
179.533383
 33
0.0
 14
61.002192
 24
201.533383
 34
0.0
100
AcDbRotatedDimension
  0
LINE
  5
7F9
100
AcDbEntity
  8
ALPHA
  6
CONTINUOUS
 62
     9
100
AcDbLine
 10
7.339817
 20
148.783383
 30
0.0
 11
7.339817
 21
134.983383
 31
0.0
  0
LINE
  5
7FA
100
AcDbEntity
  8
ALPHA
  6
CONTINUOUS
 62
     9
100
AcDbLine
 10
6.699885
 20
148.783383
 30
0.0
 11
6.699885
 21
134.633383
 31
0.0
  0
LINE
  5
7FB
100
AcDbEntity
  8
ALPHA
  6
CONTINUOUS
 62
     7
100
AcDbLine
 10
4.726303
 20
142.852703
 30
0.0
 11
4.726303
 21
146.594063
 31
0.0
  0
LINE
  5
7FC
100
AcDbEntity
  8
ALPHA
  6
CONTINUOUS
 62
     7
100
AcDbLine
 10
4.478806
 20
142.848383
 30
0.0
 11
4.478806
 21
146.598383
 31
0.0
  0
LINE
  5
7FD
100
AcDbEntity
  8
ALPHA
  6
CONTINUOUS
 62
     7
100
AcDbLine
 10
3.602192
 20
134.633383
 30
0.0
 11
3.602192
 21
179.033383
 31
0.0
  0
LINE
  5
7FE
100
AcDbEntity
  8
ALPHA
  6
CONTINUOUS
 62
     9
100
AcDbLine
 10
12.252192
 20
123.483383
 30
0.0
 11
27.745762
 21
123.483383
 31
0.0
  0
LINE
  5
7FF
100
AcDbEntity
  8
ALPHA
  6
CONTINUOUS
 62
     7
100
AcDbLine
 10
11.902192
 20
122.833383
 30
0.0
 11
27.118064
 21
122.833383
 31
0.0
  0
LINE
  5
800
100
AcDbEntity
  8
ALPHA
  6
CONTINUOUS
 62
     9
100
AcDbLine
 10
12.252192
 20
134.983383
 30
0.0
 11
12.252192
 21
123.483383
 31
0.0
  0
LINE
  5
801
100
AcDbEntity
  8
ALPHA
  6
CONTINUOUS
 62
     7
100
AcDbLine
 10
11.602192
 20
134.333383
 30
0.0
 11
11.602192
 21
123.133383
 31
0.0
  0
ARC
  5
802
100
AcDbEntity
  8
ALPHA
  6
CONTINUOUS
 62
     7
100
AcDbCircle
 10
11.902192
 20
123.133383
 30
0.0
 40
0.3
100
AcDbArc
 50
180.0
 51
270.0
  0
LINE
  5
803
100
AcDbEntity
  8
ALPHA
  6
CONTINUOUS
 62
     7
100
AcDbLine
 10
12.252192
 20
123.483383
 30
0.0
 11
11.69006
 21
122.921251
 31
0.0
  0
LINE
  5
804
100
AcDbEntity
  8
ALPHA
  6
CONTINUOUS
 62
     9
100
AcDbLine
 10
12.252192
 20
134.983383
 30
0.0
 11
7.339817
 21
134.983383
 31
0.0
  0
LINE
  5
805
100
AcDbEntity
  8
ALPHA
  6
CONTINUOUS
 62
     7
100
AcDbLine
 10
11.602192
 20
134.333383
 30
0.0
 11
3.902193
 21
134.333383
 31
0.0
  0
LINE
  5
806
100
AcDbEntity
  8
ALPHA
  6
CONTINUOUS
 62
     9
100
AcDbLine
 10
6.699885
 20
134.633383
 30
0.0
 11
3.602192
 21
134.633383
 31
0.0
  0
ARC
  5
807
100
AcDbEntity
  8
ALPHA
  6
CONTINUOUS
 62
     7
100
AcDbCircle
 10
3.902192
 20
134.633383
 30
0.0
 40
0.3
100
AcDbArc
 50
180.0
 51
270.0
  0
LINE
  5
808
100
AcDbEntity
  8
ALPHA
  6
CONTINUOUS
 62
     7
100
AcDbLine
 10
7.339817
 20
134.983383
 30
0.0
 11
6.808444
 21
134.45201
 31
0.0
  0
POLYLINE
  5
809
100
AcDbEntity
  8
ALPHA
  6
CONTINUOUS
 62
     7
100
AcDb2dPolyline
 66
     1
 10
0.0
 20
0.0
 30
0.0
  0
VERTEX
  5
80A
100
AcDbEntity
  8
ALPHA
  6
CONTINUOUS
 62
     7
100
AcDbVertex
100
AcDb2dVertex
 10
6.808444
 20
134.45201
 30
0.0
  0
VERTEX
  5
80B
100
AcDbEntity
  8
ALPHA
  6
CONTINUOUS
 62
     7
100
AcDbVertex
100
AcDb2dVertex
 10
6.858148
 20
134.385509
 30
0.0
  0
VERTEX
  5
80C
100
AcDbEntity
  8
ALPHA
  6
CONTINUOUS
 62
     7
100
AcDbVertex
100
AcDb2dVertex
 10
6.918811
 20
134.346306
 30
0.0
  0
VERTEX
  5
80D
100
AcDbEntity
  8
ALPHA
  6
CONTINUOUS
 62
     7
100
AcDbVertex
100
AcDb2dVertex
 10
6.984321
 20
134.333383
 30
0.0
  0
SEQEND
  5
80E
100
AcDbEntity
  8
ALPHA
 62
     7
  0
POLYLINE
  5
80F
100
AcDbEntity
  8
ALPHA
  6
CONTINUOUS
 62
     7
100
AcDb2dPolyline
 66
     1
 10
0.0
 20
0.0
 30
0.0
  0
VERTEX
  5
810
100
AcDbEntity
  8
ALPHA
  6
CONTINUOUS
 62
     7
100
AcDbVertex
100
AcDb2dVertex
 10
6.808444
 20
134.45201
 30
0.0
  0
VERTEX
  5
811
100
AcDbEntity
  8
ALPHA
  6
CONTINUOUS
 62
     7
100
AcDbVertex
100
AcDb2dVertex
 10
6.758813
 20
134.509407
 30
0.0
  0
VERTEX
  5
812
100
AcDbEntity
  8
ALPHA
  6
CONTINUOUS
 62
     7
100
AcDbVertex
100
AcDb2dVertex
 10
6.722753
 20
134.570536
 30
0.0
  0
VERTEX
  5
813
100
AcDbEntity
  8
ALPHA
  6
CONTINUOUS
 62
     7
100
AcDbVertex
100
AcDb2dVertex
 10
6.699885
 20
134.633383
 30
0.0
  0
SEQEND
  5
814
100
AcDbEntity
  8
ALPHA
 62
     7
  0
LINE
  5
815
100
AcDbEntity
  8
ALPHA
  6
CONTINUOUS
 62
     7
100
AcDbLine
 10
4.478806
 20
142.848383
 30
0.0
 11
4.726303
 21
142.852703
 31
0.0
  0
LINE
  5
816
100
AcDbEntity
  8
ALPHA
  6
CONTINUOUS
 62
     7
100
AcDbLine
 10
12.252192
 20
134.983383
 30
0.0
 11
11.602192
 21
134.333383
 31
0.0
  0
LINE
  5
817
100
AcDbEntity
  8
ALPHA
  6
CONTINUOUS
 62
     9
100
AcDbLine
 10
27.745762
 20
123.483383
 30
0.0
 11
28.12989
 21
112.483383
 31
0.0
  0
LINE
  5
818
100
AcDbEntity
  8
ALPHA
  6
CONTINUOUS
 62
     7
100
AcDbLine
 10
27.118064
 20
122.833383
 30
0.0
 11
27.492082
 21
112.122913
 31
0.0
  0
ARC
  5
819
100
AcDbEntity
  8
ALPHA
  6
CONTINUOUS
 62
     7
100
AcDbCircle
 10
27.791899
 20
112.133383
 30
0.0
 40
0.3
100
AcDbArc
 50
182.0
 51
270.0
  0
LINE
  5
81A
100
AcDbEntity
  8
ALPHA
  6
CONTINUOUS
 62
     7
100
AcDbLine
 10
28.12989
 20
112.483383
 30
0.0
 11
27.583502
 21
111.917581
 31
0.0
  0
LINE
  5
81B
100
AcDbEntity
  8
ALPHA
  6
CONTINUOUS
 62
     7
100
AcDbLine
 10
27.745762
 20
123.483383
 30
0.0
 11
27.118064
 21
122.833383
 31
0.0
  0
LINE
  5
81C
100
AcDbEntity
  8
ALPHA
  6
CONTINUOUS
 62
     9
100
AcDbLine
 10
7.339817
 20
178.683383
 30
0.0
 11
7.339817
 21
172.783383
 31
0.0
  0
LINE
  5
81D
100
AcDbEntity
  8
ALPHA
  6
CONTINUOUS
 62
     9
100
AcDbLine
 10
6.699885
 20
179.033383
 30
0.0
 11
6.699885
 21
172.783383
 31
0.0
  0
ARC
  5
81E
100
AcDbEntity
  8
ALPHA
  6
CONTINUOUS
 62
     9
100
AcDbCircle
 10
7.427
 20
160.783383
 30
0.0
 40
4.472136
100
AcDbArc
 50
277.095219
 51
82.904781
  0
ARC
  5
81F
100
AcDbEntity
  8
ALPHA
  6
CONTINUOUS
 62
     9
100
AcDbCircle
 10
7.427
 20
160.783383
 30
0.0
 40
4.259177
100
AcDbArc
 50
277.23631
 51
82.76369
  0
POLYLINE
  5
820
100
AcDbEntity
  8
ALPHA
  6
CONTINUOUS
 62
     9
100
AcDb2dPolyline
 66
     1
 10
0.0
 20
0.0
 30
0.0
  0
VERTEX
  5
821
100
AcDbEntity
  8
ALPHA
  6
CONTINUOUS
 62
     9
100
AcDbVertex
100
AcDb2dVertex
 10
6.993909
 20
157.220147
 30
0.0
  0
VERTEX
  5
822
100
AcDbEntity
  8
ALPHA
  6
CONTINUOUS
 62
     9
100
AcDbVertex
100
AcDb2dVertex
 10
6.832967
 20
157.558912
 30
0.0
  0
VERTEX
  5
823
100
AcDbEntity
  8
ALPHA
  6
CONTINUOUS
 62
     9
100
AcDbVertex
100
AcDb2dVertex
 10
6.687318
 20
157.904139
 30
0.0
  0
VERTEX
  5
824
100
AcDbEntity
  8
ALPHA
  6
CONTINUOUS
 62
     9
100
AcDbVertex
100
AcDb2dVertex
 10
6.558469
 20
158.251522
 30
0.0
  0
VERTEX
  5
825
100
AcDbEntity
  8
ALPHA
  6
CONTINUOUS
 62
     9
100
AcDbVertex
100
AcDb2dVertex
 10
6.447027
 20
158.597352
 30
0.0
  0
VERTEX
  5
826
100
AcDbEntity
  8
ALPHA
  6
CONTINUOUS
 62
     9
100
AcDbVertex
100
AcDb2dVertex
 10
6.354831
 20
158.930957
 30
0.0
  0
VERTEX
  5
827
100
AcDbEntity
  8
ALPHA
  6
CONTINUOUS
 62
     9
100
AcDbVertex
100
AcDb2dVertex
 10
6.282983
 20
159.237482
 30
0.0
  0
VERTEX
  5
828
100
AcDbEntity
  8
ALPHA
  6
CONTINUOUS
 62
     9
100
AcDbVertex
100
AcDb2dVertex
 10
6.228626
 20
159.513519
 30
0.0
  0
VERTEX
  5
829
100
AcDbEntity
  8
ALPHA
  6
CONTINUOUS
 62
     9
100
AcDbVertex
100
AcDb2dVertex
 10
6.188025
 20
159.761958
 30
0.0
  0
VERTEX
  5
82A
100
AcDbEntity
  8
ALPHA
  6
CONTINUOUS
 62
     9
100
AcDbVertex
100
AcDb2dVertex
 10
6.15835
 20
159.985002
 30
0.0
  0
VERTEX
  5
82B
100
AcDbEntity
  8
ALPHA
  6
CONTINUOUS
 62
     9
100
AcDbVertex
100
AcDb2dVertex
 10
6.137567
 20
160.182762
 30
0.0
  0
VERTEX
  5
82C
100
AcDbEntity
  8
ALPHA
  6
CONTINUOUS
 62
     9
100
AcDbVertex
100
AcDb2dVertex
 10
6.123825
 20
160.357089
 30
0.0
  0
VERTEX
  5
82D
100
AcDbEntity
  8
ALPHA
  6
CONTINUOUS
 62
     9
100
AcDbVertex
100
AcDb2dVertex
 10
6.115455
 20
160.514619
 30
0.0
  0
VERTEX
  5
82E
100
AcDbEntity
  8
ALPHA
  6
CONTINUOUS
 62
     9
100
AcDbVertex
100
AcDb2dVertex
 10
6.111477
 20
160.663195
 30
0.0
  0
VERTEX
  5
82F
100
AcDbEntity
  8
ALPHA
  6
CONTINUOUS
 62
     9
100
AcDbVertex
100
AcDb2dVertex
 10
6.111553
 20
160.809152
 30
0.0
  0
VERTEX
  5
830
100
AcDbEntity
  8
ALPHA
  6
CONTINUOUS
 62
     9
100
AcDbVertex
100
AcDb2dVertex
 10
6.115689
 20
160.957926
 30
0.0
  0
VERTEX
  5
831
100
AcDbEntity
  8
ALPHA
  6
CONTINUOUS
 62
     9
100
AcDbVertex
100
AcDb2dVertex
 10
6.124241
 20
161.115954
 30
0.0
  0
VERTEX
  5
832
100
AcDbEntity
  8
ALPHA
  6
CONTINUOUS
 62
     9
100
AcDbVertex
100
AcDb2dVertex
 10
6.13822
 20
161.291108
 30
0.0
  0
VERTEX
  5
833
100
AcDbEntity
  8
ALPHA
  6
CONTINUOUS
 62
     9
100
AcDbVertex
100
AcDb2dVertex
 10
6.159316
 20
161.489886
 30
0.0
  0
VERTEX
  5
834
100
AcDbEntity
  8
ALPHA
  6
CONTINUOUS
 62
     9
100
AcDbVertex
100
AcDb2dVertex
 10
6.18939
 20
161.714023
 30
0.0
  0
VERTEX
  5
835
100
AcDbEntity
  8
ALPHA
  6
CONTINUOUS
 62
     9
100
AcDbVertex
100
AcDb2dVertex
 10
6.230517
 20
161.963757
 30
0.0
  0
VERTEX
  5
836
100
AcDbEntity
  8
ALPHA
  6
CONTINUOUS
 62
     9
100
AcDbVertex
100
AcDb2dVertex
 10
6.285571
 20
162.241296
 30
0.0
  0
VERTEX
  5
837
100
AcDbEntity
  8
ALPHA
  6
CONTINUOUS
 62
     9
100
AcDbVertex
100
AcDb2dVertex
 10
6.358168
 20
162.548887
 30
0.0
  0
VERTEX
  5
838
100
AcDbEntity
  8
ALPHA
  6
CONTINUOUS
 62
     9
100
AcDbVertex
100
AcDb2dVertex
 10
6.450731
 20
162.881782
 30
0.0
  0
VERTEX
  5
839
100
AcDbEntity
  8
ALPHA
  6
CONTINUOUS
 62
     9
100
AcDbVertex
100
AcDb2dVertex
 10
6.561858
 20
163.225013
 30
0.0
  0
VERTEX
  5
83A
100
AcDbEntity
  8
ALPHA
  6
CONTINUOUS
 62
     9
100
AcDbVertex
100
AcDb2dVertex
 10
6.690005
 20
163.569402
 30
0.0
  0
VERTEX
  5
83B
100
AcDbEntity
  8
ALPHA
  6
CONTINUOUS
 62
     9
100
AcDbVertex
100
AcDb2dVertex
 10
6.834516
 20
163.911307
 30
0.0
  0
VERTEX
  5
83C
100
AcDbEntity
  8
ALPHA
  6
CONTINUOUS
 62
     9
100
AcDbVertex
100
AcDb2dVertex
 10
6.993909
 20
164.246618
 30
0.0
  0
SEQEND
  5
83D
100
AcDbEntity
  8
ALPHA
 62
     9
  0
POLYLINE
  5
83E
100
AcDbEntity
  8
ALPHA
  6
CONTINUOUS
 62
     9
100
AcDb2dPolyline
 66
     1
 10
0.0
 20
0.0
 30
0.0
  0
VERTEX
  5
83F
100
AcDbEntity
  8
ALPHA
  6
CONTINUOUS
 62
     9
100
AcDbVertex
100
AcDb2dVertex
 10
7.739055
 20
156.869486
 30
0.0
  0
VERTEX
  5
840
100
AcDbEntity
  8
ALPHA
  6
CONTINUOUS
 62
     9
100
AcDbVertex
100
AcDb2dVertex
 10
7.528731
 20
157.23633
 30
0.0
  0
VERTEX
  5
841
100
AcDbEntity
  8
ALPHA
  6
CONTINUOUS
 62
     9
100
AcDbVertex
100
AcDb2dVertex
 10
7.356413
 20
157.575237
 30
0.0
  0
VERTEX
  5
842
100
AcDbEntity
  8
ALPHA
  6
CONTINUOUS
 62
     9
100
AcDbVertex
100
AcDb2dVertex
 10
7.213678
 20
157.89063
 30
0.0
  0
VERTEX
  5
843
100
AcDbEntity
  8
ALPHA
  6
CONTINUOUS
 62
     9
100
AcDbVertex
100
AcDb2dVertex
 10
7.09364
 20
158.188332
 30
0.0
  0
VERTEX
  5
844
100
AcDbEntity
  8
ALPHA
  6
CONTINUOUS
 62
     9
100
AcDbVertex
100
AcDb2dVertex
 10
6.991408
 20
158.473463
 30
0.0
  0
VERTEX
  5
845
100
AcDbEntity
  8
ALPHA
  6
CONTINUOUS
 62
     9
100
AcDbVertex
100
AcDb2dVertex
 10
6.90696
 20
158.739019
 30
0.0
  0
VERTEX
  5
846
100
AcDbEntity
  8
ALPHA
  6
CONTINUOUS
 62
     9
100
AcDbVertex
100
AcDb2dVertex
 10
6.837927
 20
158.984134
 30
0.0
  0
VERTEX
  5
847
100
AcDbEntity
  8
ALPHA
  6
CONTINUOUS
 62
     9
100
AcDbVertex
100
AcDb2dVertex
 10
6.781602
 20
159.210388
 30
0.0
  0
VERTEX
  5
848
100
AcDbEntity
  8
ALPHA
  6
CONTINUOUS
 62
     9
100
AcDbVertex
100
AcDb2dVertex
 10
6.735748
 20
159.419396
 30
0.0
  0
VERTEX
  5
849
100
AcDbEntity
  8
ALPHA
  6
CONTINUOUS
 62
     9
100
AcDbVertex
100
AcDb2dVertex
 10
6.698856
 20
159.610916
 30
0.0
  0
VERTEX
  5
84A
100
AcDbEntity
  8
ALPHA
  6
CONTINUOUS
 62
     9
100
AcDbVertex
100
AcDb2dVertex
 10
6.669465
 20
159.785387
 30
0.0
  0
VERTEX
  5
84B
100
AcDbEntity
  8
ALPHA
  6
CONTINUOUS
 62
     9
100
AcDbVertex
100
AcDb2dVertex
 10
6.646149
 20
159.944448
 30
0.0
  0
VERTEX
  5
84C
100
AcDbEntity
  8
ALPHA
  6
CONTINUOUS
 62
     9
100
AcDbVertex
100
AcDb2dVertex
 10
6.627781
 20
160.089461
 30
0.0
  0
VERTEX
  5
84D
100
AcDbEntity
  8
ALPHA
  6
CONTINUOUS
 62
     9
100
AcDbVertex
100
AcDb2dVertex
 10
6.613506
 20
160.221129
 30
0.0
  0
VERTEX
  5
84E
100
AcDbEntity
  8
ALPHA
  6
CONTINUOUS
 62
     9
100
AcDbVertex
100
AcDb2dVertex
 10
6.602657
 20
160.339635
 30
0.0
  0
VERTEX
  5
84F
100
AcDbEntity
  8
ALPHA
  6
CONTINUOUS
 62
     9
100
AcDbVertex
100
AcDb2dVertex
 10
6.594652
 20
160.445471
 30
0.0
  0
VERTEX
  5
850
100
AcDbEntity
  8
ALPHA
  6
CONTINUOUS
 62
     9
100
AcDbVertex
100
AcDb2dVertex
 10
6.589031
 20
160.53922
 30
0.0
  0
VERTEX
  5
851
100
AcDbEntity
  8
ALPHA
  6
CONTINUOUS
 62
     9
100
AcDbVertex
100
AcDb2dVertex
 10
6.585479
 20
160.621435
 30
0.0
  0
VERTEX
  5
852
100
AcDbEntity
  8
ALPHA
  6
CONTINUOUS
 62
     9
100
AcDbVertex
100
AcDb2dVertex
 10
6.58373
 20
160.695115
 30
0.0
  0
VERTEX
  5
853
100
AcDbEntity
  8
ALPHA
  6
CONTINUOUS
 62
     9
100
AcDbVertex
100
AcDb2dVertex
 10
6.583659
 20
160.765583
 30
0.0
  0
VERTEX
  5
854
100
AcDbEntity
  8
ALPHA
  6
CONTINUOUS
 62
     9
100
AcDbVertex
100
AcDb2dVertex
 10
6.585263
 20
160.8388
 30
0.0
  0
VERTEX
  5
855
100
AcDbEntity
  8
ALPHA
  6
CONTINUOUS
 62
     9
100
AcDbVertex
100
AcDb2dVertex
 10
6.588655
 20
160.920172
 30
0.0
  0
VERTEX
  5
856
100
AcDbEntity
  8
ALPHA
  6
CONTINUOUS
 62
     9
100
AcDbVertex
100
AcDb2dVertex
 10
6.594087
 20
161.012872
 30
0.0
  0
VERTEX
  5
857
100
AcDbEntity
  8
ALPHA
  6
CONTINUOUS
 62
     9
100
AcDbVertex
100
AcDb2dVertex
 10
6.601879
 20
161.117714
 30
0.0
  0
VERTEX
  5
858
100
AcDbEntity
  8
ALPHA
  6
CONTINUOUS
 62
     9
100
AcDbVertex
100
AcDb2dVertex
 10
6.612424
 20
161.234696
 30
0.0
  0
VERTEX
  5
859
100
AcDbEntity
  8
ALPHA
  6
CONTINUOUS
 62
     9
100
AcDbVertex
100
AcDb2dVertex
 10
6.626281
 20
161.364405
 30
0.0
  0
VERTEX
  5
85A
100
AcDbEntity
  8
ALPHA
  6
CONTINUOUS
 62
     9
100
AcDbVertex
100
AcDb2dVertex
 10
6.64416
 20
161.507607
 30
0.0
  0
VERTEX
  5
85B
100
AcDbEntity
  8
ALPHA
  6
CONTINUOUS
 62
     9
100
AcDbVertex
100
AcDb2dVertex
 10
6.666804
 20
161.664308
 30
0.0
  0
VERTEX
  5
85C
100
AcDbEntity
  8
ALPHA
  6
CONTINUOUS
 62
     9
100
AcDbVertex
100
AcDb2dVertex
 10
6.695274
 20
161.835796
 30
0.0
  0
VERTEX
  5
85D
100
AcDbEntity
  8
ALPHA
  6
CONTINUOUS
 62
     9
100
AcDbVertex
100
AcDb2dVertex
 10
6.730966
 20
162.023905
 30
0.0
  0
VERTEX
  5
85E
100
AcDbEntity
  8
ALPHA
  6
CONTINUOUS
 62
     9
100
AcDbVertex
100
AcDb2dVertex
 10
6.775619
 20
162.230563
 30
0.0
  0
VERTEX
  5
85F
100
AcDbEntity
  8
ALPHA
  6
CONTINUOUS
 62
     9
100
AcDbVertex
100
AcDb2dVertex
 10
6.831092
 20
162.456614
 30
0.0
  0
VERTEX
  5
860
100
AcDbEntity
  8
ALPHA
  6
CONTINUOUS
 62
     9
100
AcDbVertex
100
AcDb2dVertex
 10
6.899233
 20
162.701736
 30
0.0
  0
VERTEX
  5
861
100
AcDbEntity
  8
ALPHA
  6
CONTINUOUS
 62
     9
100
AcDbVertex
100
AcDb2dVertex
 10
6.982601
 20
162.967043
 30
0.0
  0
VERTEX
  5
862
100
AcDbEntity
  8
ALPHA
  6
CONTINUOUS
 62
     9
100
AcDbVertex
100
AcDb2dVertex
 10
7.084229
 20
163.253547
 30
0.0
  0
VERTEX
  5
863
100
AcDbEntity
  8
ALPHA
  6
CONTINUOUS
 62
     9
100
AcDbVertex
100
AcDb2dVertex
 10
7.204529
 20
163.55461
 30
0.0
  0
VERTEX
  5
864
100
AcDbEntity
  8
ALPHA
  6
CONTINUOUS
 62
     9
100
AcDbVertex
100
AcDb2dVertex
 10
7.348177
 20
163.874278
 30
0.0
  0
VERTEX
  5
865
100
AcDbEntity
  8
ALPHA
  6
CONTINUOUS
 62
     9
100
AcDbVertex
100
AcDb2dVertex
 10
7.523082
 20
164.219932
 30
0.0
  0
VERTEX
  5
866
100
AcDbEntity
  8
ALPHA
  6
CONTINUOUS
 62
     9
100
AcDbVertex
100
AcDb2dVertex
 10
7.739055
 20
164.597279
 30
0.0
  0
SEQEND
  5
867
100
AcDbEntity
  8
ALPHA
 62
     9
  0
POLYLINE
  5
868
100
AcDbEntity
  8
ALPHA
  6
CONTINUOUS
 62
     9
100
AcDb2dPolyline
 66
     1
 10
0.0
 20
0.0
 30
0.0
  0
VERTEX
  5
869
100
AcDbEntity
  8
ALPHA
  6
CONTINUOUS
 62
     9
100
AcDbVertex
100
AcDb2dVertex
 10
7.774263
 20
156.444352
 30
0.0
  0
VERTEX
  5
86A
100
AcDbEntity
  8
ALPHA
  6
CONTINUOUS
 62
     9
100
AcDbVertex
100
AcDb2dVertex
 10
7.522702
 20
156.84128
 30
0.0
  0
VERTEX
  5
86B
100
AcDbEntity
  8
ALPHA
  6
CONTINUOUS
 62
     9
100
AcDbVertex
100
AcDb2dVertex
 10
7.317476
 20
157.207646
 30
0.0
  0
VERTEX
  5
86C
100
AcDbEntity
  8
ALPHA
  6
CONTINUOUS
 62
     9
100
AcDbVertex
100
AcDb2dVertex
 10
7.148699
 20
157.546665
 30
0.0
  0
VERTEX
  5
86D
100
AcDbEntity
  8
ALPHA
  6
CONTINUOUS
 62
     9
100
AcDbVertex
100
AcDb2dVertex
 10
7.008282
 20
157.863042
 30
0.0
  0
VERTEX
  5
86E
100
AcDbEntity
  8
ALPHA
  6
CONTINUOUS
 62
     9
100
AcDbVertex
100
AcDb2dVertex
 10
6.889649
 20
158.16272
 30
0.0
  0
VERTEX
  5
86F
100
AcDbEntity
  8
ALPHA
  6
CONTINUOUS
 62
     9
100
AcDbVertex
100
AcDb2dVertex
 10
6.788678
 20
158.449309
 30
0.0
  0
VERTEX
  5
870
100
AcDbEntity
  8
ALPHA
  6
CONTINUOUS
 62
     9
100
AcDbVertex
100
AcDb2dVertex
 10
6.705319
 20
158.7158
 30
0.0
  0
VERTEX
  5
871
100
AcDbEntity
  8
ALPHA
  6
CONTINUOUS
 62
     9
100
AcDbVertex
100
AcDb2dVertex
 10
6.637078
 20
158.96187
 30
0.0
  0
VERTEX
  5
872
100
AcDbEntity
  8
ALPHA
  6
CONTINUOUS
 62
     9
100
AcDbVertex
100
AcDb2dVertex
 10
6.581288
 20
159.18923
 30
0.0
  0
VERTEX
  5
873
100
AcDbEntity
  8
ALPHA
  6
CONTINUOUS
 62
     9
100
AcDbVertex
100
AcDb2dVertex
 10
6.535808
 20
159.399348
 30
0.0
  0
VERTEX
  5
874
100
AcDbEntity
  8
ALPHA
  6
CONTINUOUS
 62
     9
100
AcDbVertex
100
AcDb2dVertex
 10
6.499171
 20
159.591941
 30
0.0
  0
VERTEX
  5
875
100
AcDbEntity
  8
ALPHA
  6
CONTINUOUS
 62
     9
100
AcDbVertex
100
AcDb2dVertex
 10
6.46993
 20
159.767544
 30
0.0
  0
VERTEX
  5
876
100
AcDbEntity
  8
ALPHA
  6
CONTINUOUS
 62
     9
100
AcDbVertex
100
AcDb2dVertex
 10
6.446684
 20
159.927827
 30
0.0
  0
VERTEX
  5
877
100
AcDbEntity
  8
ALPHA
  6
CONTINUOUS
 62
     9
100
AcDbVertex
100
AcDb2dVertex
 10
6.428337
 20
160.074124
 30
0.0
  0
VERTEX
  5
878
100
AcDbEntity
  8
ALPHA
  6
CONTINUOUS
 62
     9
100
AcDbVertex
100
AcDb2dVertex
 10
6.414054
 20
160.207122
 30
0.0
  0
VERTEX
  5
879
100
AcDbEntity
  8
ALPHA
  6
CONTINUOUS
 62
     9
100
AcDbVertex
100
AcDb2dVertex
 10
6.403178
 20
160.327047
 30
0.0
  0
VERTEX
  5
87A
100
AcDbEntity
  8
ALPHA
  6
CONTINUOUS
 62
     9
100
AcDbVertex
100
AcDb2dVertex
 10
6.395137
 20
160.434494
 30
0.0
  0
VERTEX
  5
87B
100
AcDbEntity
  8
ALPHA
  6
CONTINUOUS
 62
     9
100
AcDbVertex
100
AcDb2dVertex
 10
6.389479
 20
160.530226
 30
0.0
  0
VERTEX
  5
87C
100
AcDbEntity
  8
ALPHA
  6
CONTINUOUS
 62
     9
100
AcDbVertex
100
AcDb2dVertex
 10
6.385891
 20
160.615043
 30
0.0
  0
VERTEX
  5
87D
100
AcDbEntity
  8
ALPHA
  6
CONTINUOUS
 62
     9
100
AcDbVertex
100
AcDb2dVertex
 10
6.384113
 20
160.692078
 30
0.0
  0
VERTEX
  5
87E
100
AcDbEntity
  8
ALPHA
  6
CONTINUOUS
 62
     9
100
AcDbVertex
100
AcDb2dVertex
 10
6.384019
 20
160.766242
 30
0.0
  0
VERTEX
  5
87F
100
AcDbEntity
  8
ALPHA
  6
CONTINUOUS
 62
     9
100
AcDbVertex
100
AcDb2dVertex
 10
6.385602
 20
160.842678
 30
0.0
  0
VERTEX
  5
880
100
AcDbEntity
  8
ALPHA
  6
CONTINUOUS
 62
     9
100
AcDbVertex
100
AcDb2dVertex
 10
6.388974
 20
160.926416
 30
0.0
  0
VERTEX
  5
881
100
AcDbEntity
  8
ALPHA
  6
CONTINUOUS
 62
     9
100
AcDbVertex
100
AcDb2dVertex
 10
6.39438
 20
161.020801
 30
0.0
  0
VERTEX
  5
882
100
AcDbEntity
  8
ALPHA
  6
CONTINUOUS
 62
     9
100
AcDbVertex
100
AcDb2dVertex
 10
6.402135
 20
161.12694
 30
0.0
  0
VERTEX
  5
883
100
AcDbEntity
  8
ALPHA
  6
CONTINUOUS
 62
     9
100
AcDbVertex
100
AcDb2dVertex
 10
6.412624
 20
161.245012
 30
0.0
  0
VERTEX
  5
884
100
AcDbEntity
  8
ALPHA
  6
CONTINUOUS
 62
     9
100
AcDbVertex
100
AcDb2dVertex
 10
6.426387
 20
161.375677
 30
0.0
  0
VERTEX
  5
885
100
AcDbEntity
  8
ALPHA
  6
CONTINUOUS
 62
     9
100
AcDbVertex
100
AcDb2dVertex
 10
6.444125
 20
161.519776
 30
0.0
  0
VERTEX
  5
886
100
AcDbEntity
  8
ALPHA
  6
CONTINUOUS
 62
     9
100
AcDbVertex
100
AcDb2dVertex
 10
6.46656
 20
161.677322
 30
0.0
  0
VERTEX
  5
887
100
AcDbEntity
  8
ALPHA
  6
CONTINUOUS
 62
     9
100
AcDbVertex
100
AcDb2dVertex
 10
6.494712
 20
161.849513
 30
0.0
  0
VERTEX
  5
888
100
AcDbEntity
  8
ALPHA
  6
CONTINUOUS
 62
     9
100
AcDbVertex
100
AcDb2dVertex
 10
6.529929
 20
162.038142
 30
0.0
  0
VERTEX
  5
889
100
AcDbEntity
  8
ALPHA
  6
CONTINUOUS
 62
     9
100
AcDbVertex
100
AcDb2dVertex
 10
6.573908
 20
162.245184
 30
0.0
  0
VERTEX
  5
88A
100
AcDbEntity
  8
ALPHA
  6
CONTINUOUS
 62
     9
100
AcDbVertex
100
AcDb2dVertex
 10
6.628483
 20
162.471631
 30
0.0
  0
VERTEX
  5
88B
100
AcDbEntity
  8
ALPHA
  6
CONTINUOUS
 62
     9
100
AcDbVertex
100
AcDb2dVertex
 10
6.695456
 20
162.717172
 30
0.0
  0
VERTEX
  5
88C
100
AcDbEntity
  8
ALPHA
  6
CONTINUOUS
 62
     9
100
AcDbVertex
100
AcDb2dVertex
 10
6.777262
 20
162.982773
 30
0.0
  0
VERTEX
  5
88D
100
AcDbEntity
  8
ALPHA
  6
CONTINUOUS
 62
     9
100
AcDbVertex
100
AcDb2dVertex
 10
6.877015
 20
163.269971
 30
0.0
  0
VERTEX
  5
88E
100
AcDbEntity
  8
ALPHA
  6
CONTINUOUS
 62
     9
100
AcDbVertex
100
AcDb2dVertex
 10
6.995208
 20
163.572321
 30
0.0
  0
VERTEX
  5
88F
100
AcDbEntity
  8
ALPHA
  6
CONTINUOUS
 62
     9
100
AcDbVertex
100
AcDb2dVertex
 10
7.135669
 20
163.892202
 30
0.0
  0
VERTEX
  5
890
100
AcDbEntity
  8
ALPHA
  6
CONTINUOUS
 62
     9
100
AcDbVertex
100
AcDb2dVertex
 10
7.30572
 20
164.236729
 30
0.0
  0
VERTEX
  5
891
100
AcDbEntity
  8
ALPHA
  6
CONTINUOUS
 62
     9
100
AcDbVertex
100
AcDb2dVertex
 10
7.514716
 20
164.612019
 30
0.0
  0
VERTEX
  5
892
100
AcDbEntity
  8
ALPHA
  6
CONTINUOUS
 62
     9
100
AcDbVertex
100
AcDb2dVertex
 10
7.774263
 20
165.022414
 30
0.0
  0
SEQEND
  5
893
100
AcDbEntity
  8
ALPHA
 62
     9
  0
POLYLINE
  5
894
100
AcDbEntity
  8
ALPHA
  6
CONTINUOUS
 62
     7
100
AcDb2dPolyline
 66
     1
 10
0.0
 20
0.0
 30
0.0
  0
VERTEX
  5
895
100
AcDbEntity
  8
ALPHA
  6
CONTINUOUS
 62
     7
100
AcDbVertex
100
AcDb2dVertex
 10
6.547147
 20
164.471125
 30
0.0
  0
VERTEX
  5
896
100
AcDbEntity
  8
ALPHA
  6
CONTINUOUS
 62
     7
100
AcDbVertex
100
AcDb2dVertex
 10
6.060811
 20
163.305066
 30
0.0
  0
VERTEX
  5
897
100
AcDbEntity
  8
ALPHA
  6
CONTINUOUS
 62
     7
100
AcDbVertex
100
AcDb2dVertex
 10
5.734809
 20
162.032175
 30
0.0
  0
VERTEX
  5
898
100
AcDbEntity
  8
ALPHA
  6
CONTINUOUS
 62
     7
100
AcDbVertex
100
AcDb2dVertex
 10
5.611012
 20
160.730535
 30
0.0
  0
VERTEX
  5
899
100
AcDbEntity
  8
ALPHA
  6
CONTINUOUS
 62
     7
100
AcDbVertex
100
AcDb2dVertex
 10
5.735797
 20
159.429058
 30
0.0
  0
VERTEX
  5
89A
100
AcDbEntity
  8
ALPHA
  6
CONTINUOUS
 62
     7
100
AcDbVertex
100
AcDb2dVertex
 10
6.062633
 20
158.156288
 30
0.0
  0
VERTEX
  5
89B
100
AcDbEntity
  8
ALPHA
  6
CONTINUOUS
 62
     7
100
AcDbVertex
100
AcDb2dVertex
 10
6.547147
 20
156.995641
 30
0.0
  0
SEQEND
  5
89C
100
AcDbEntity
  8
ALPHA
 62
     7
  0
POLYLINE
  5
89D
100
AcDbEntity
  8
ALPHA
  6
CONTINUOUS
 62
     7
100
AcDb2dPolyline
 66
     1
 10
0.0
 20
0.0
 30
0.0
  0
VERTEX
  5
89E
100
AcDbEntity
  8
ALPHA
  6
CONTINUOUS
 62
     7
100
AcDbVertex
100
AcDb2dVertex
 10
7.33748
 20
162.607385
 30
0.0
  0
VERTEX
  5
89F
100
AcDbEntity
  8
ALPHA
  6
CONTINUOUS
 62
     7
100
AcDbVertex
100
AcDb2dVertex
 10
7.251159
 20
162.272191
 30
0.0
  0
VERTEX
  5
8A0
100
AcDbEntity
  8
ALPHA
  6
CONTINUOUS
 62
     7
100
AcDbVertex
100
AcDb2dVertex
 10
7.182547
 20
161.939201
 30
0.0
  0
VERTEX
  5
8A1
100
AcDbEntity
  8
ALPHA
  6
CONTINUOUS
 62
     7
100
AcDbVertex
100
AcDb2dVertex
 10
7.129622
 20
161.597548
 30
0.0
  0
VERTEX
  5
8A2
100
AcDbEntity
  8
ALPHA
  6
CONTINUOUS
 62
     7
100
AcDbVertex
100
AcDb2dVertex
 10
7.093948
 20
161.252285
 30
0.0
  0
VERTEX
  5
8A3
100
AcDbEntity
  8
ALPHA
  6
CONTINUOUS
 62
     7
100
AcDbVertex
100
AcDb2dVertex
 10
7.076096
 20
160.906972
 30
0.0
  0
VERTEX
  5
8A4
100
AcDbEntity
  8
ALPHA
  6
CONTINUOUS
 62
     7
100
AcDbVertex
100
AcDb2dVertex
 10
7.076039
 20
160.562015
 30
0.0
  0
VERTEX
  5
8A5
100
AcDbEntity
  8
ALPHA
  6
CONTINUOUS
 62
     7
100
AcDbVertex
100
AcDb2dVertex
 10
7.093771
 20
160.216769
 30
0.0
  0
VERTEX
  5
8A6
100
AcDbEntity
  8
ALPHA
  6
CONTINUOUS
 62
     7
100
AcDbVertex
100
AcDb2dVertex
 10
7.129361
 20
159.871236
 30
0.0
  0
VERTEX
  5
8A7
100
AcDbEntity
  8
ALPHA
  6
CONTINUOUS
 62
     7
100
AcDbVertex
100
AcDb2dVertex
 10
7.182322
 20
159.52881
 30
0.0
  0
VERTEX
  5
8A8
100
AcDbEntity
  8
ALPHA
  6
CONTINUOUS
 62
     7
100
AcDbVertex
100
AcDb2dVertex
 10
7.251072
 20
159.194949
 30
0.0
  0
VERTEX
  5
8A9
100
AcDbEntity
  8
ALPHA
  6
CONTINUOUS
 62
     7
100
AcDbVertex
100
AcDb2dVertex
 10
7.33748
 20
158.859381
 30
0.0
  0
SEQEND
  5
8AA
100
AcDbEntity
  8
ALPHA
 62
     7
  0
LINE
  5
8AB
100
AcDbEntity
  8
ALPHA
  6
CONTINUOUS
 62
     7
100
AcDbLine
 10
7.424164
 20
163.351398
 30
0.0
 11
7.424164
 21
158.115231
 31
0.0
  0
LINE
  5
8AC
100
AcDbEntity
  8
ALPHA
  6
CONTINUOUS
 62
     7
100
AcDbLine
 10
5.023395
 20
148.983383
 30
0.0
 11
5.023395
 21
172.483383
 31
0.0
  0
LINE
  5
8AD
100
AcDbEntity
  8
ALPHA
  6
CONTINUOUS
 62
     7
100
AcDbLine
 10
4.999473
 20
172.783383
 30
0.0
 11
4.999473
 21
148.783383
 31
0.0
  0
POLYLINE
  5
8AE
100
AcDbEntity
  8
ALPHA
  6
CONTINUOUS
 62
     9
100
AcDb2dPolyline
 66
     1
 10
0.0
 20
0.0
 30
0.0
  0
VERTEX
  5
8AF
100
AcDbEntity
  8
ALPHA
  6
CONTINUOUS
 62
     9
100
AcDbVertex
100
AcDb2dVertex
 10
7.60724
 20
160.310948
 30
0.0
  0
VERTEX
  5
8B0
100
AcDbEntity
  8
ALPHA
  6
CONTINUOUS
 62
     9
100
AcDbVertex
100
AcDb2dVertex
 10
7.608065
 20
160.219505
 30
0.0
  0
VERTEX
  5
8B1
100
AcDbEntity
  8
ALPHA
  6
CONTINUOUS
 62
     9
100
AcDbVertex
100
AcDb2dVertex
 10
7.609163
 20
160.116983
 30
0.0
  0
VERTEX
  5
8B2
100
AcDbEntity
  8
ALPHA
  6
CONTINUOUS
 62
     9
100
AcDbVertex
100
AcDb2dVertex
 10
7.610585
 20
160.004121
 30
0.0
  0
VERTEX
  5
8B3
100
AcDbEntity
  8
ALPHA
  6
CONTINUOUS
 62
     9
100
AcDbVertex
100
AcDb2dVertex
 10
7.612384
 20
159.881482
 30
0.0
  0
VERTEX
  5
8B4
100
AcDbEntity
  8
ALPHA
  6
CONTINUOUS
 62
     9
100
AcDbVertex
100
AcDb2dVertex
 10
7.614641
 20
159.748141
 30
0.0
  0
VERTEX
  5
8B5
100
AcDbEntity
  8
ALPHA
  6
CONTINUOUS
 62
     9
100
AcDbVertex
100
AcDb2dVertex
 10
7.617462
 20
159.602743
 30
0.0
  0
VERTEX
  5
8B6
100
AcDbEntity
  8
ALPHA
  6
CONTINUOUS
 62
     9
100
AcDbVertex
100
AcDb2dVertex
 10
7.620977
 20
159.443816
 30
0.0
  0
VERTEX
  5
8B7
100
AcDbEntity
  8
ALPHA
  6
CONTINUOUS
 62
     9
100
AcDbVertex
100
AcDb2dVertex
 10
7.625346
 20
159.269824
 30
0.0
  0
VERTEX
  5
8B8
100
AcDbEntity
  8
ALPHA
  6
CONTINUOUS
 62
     9
100
AcDbVertex
100
AcDb2dVertex
 10
7.630761
 20
159.07935
 30
0.0
  0
VERTEX
  5
8B9
100
AcDbEntity
  8
ALPHA
  6
CONTINUOUS
 62
     9
100
AcDbVertex
100
AcDb2dVertex
 10
7.637421
 20
158.871779
 30
0.0
  0
VERTEX
  5
8BA
100
AcDbEntity
  8
ALPHA
  6
CONTINUOUS
 62
     9
100
AcDbVertex
100
AcDb2dVertex
 10
7.645547
 20
158.646874
 30
0.0
  0
VERTEX
  5
8BB
100
AcDbEntity
  8
ALPHA
  6
CONTINUOUS
 62
     9
100
AcDbVertex
100
AcDb2dVertex
 10
7.655424
 20
158.4035
 30
0.0
  0
VERTEX
  5
8BC
100
AcDbEntity
  8
ALPHA
  6
CONTINUOUS
 62
     9
100
AcDbVertex
100
AcDb2dVertex
 10
7.667386
 20
158.140651
 30
0.0
  0
VERTEX
  5
8BD
100
AcDbEntity
  8
ALPHA
  6
CONTINUOUS
 62
     9
100
AcDbVertex
100
AcDb2dVertex
 10
7.681836
 20
157.857147
 30
0.0
  0
VERTEX
  5
8BE
100
AcDbEntity
  8
ALPHA
  6
CONTINUOUS
 62
     9
100
AcDbVertex
100
AcDb2dVertex
 10
7.699324
 20
157.550668
 30
0.0
  0
VERTEX
  5
8BF
100
AcDbEntity
  8
ALPHA
  6
CONTINUOUS
 62
     9
100
AcDbVertex
100
AcDb2dVertex
 10
7.720542
 20
157.218748
 30
0.0
  0
VERTEX
  5
8C0
100
AcDbEntity
  8
ALPHA
  6
CONTINUOUS
 62
     9
100
AcDbVertex
100
AcDb2dVertex
 10
7.745554
 20
156.869952
 30
0.0
  0
SEQEND
  5
8C1
100
AcDbEntity
  8
ALPHA
 62
     9
  0
POLYLINE
  5
8C2
100
AcDbEntity
  8
ALPHA
  6
CONTINUOUS
 62
     9
100
AcDb2dPolyline
 66
     1
 10
0.0
 20
0.0
 30
0.0
  0
VERTEX
  5
8C3
100
AcDbEntity
  8
ALPHA
  6
CONTINUOUS
 62
     9
100
AcDbVertex
100
AcDb2dVertex
 10
7.797631
 20
160.23056
 30
0.0
  0
VERTEX
  5
8C4
100
AcDbEntity
  8
ALPHA
  6
CONTINUOUS
 62
     9
100
AcDbVertex
100
AcDb2dVertex
 10
7.798707
 20
160.130055
 30
0.0
  0
VERTEX
  5
8C5
100
AcDbEntity
  8
ALPHA
  6
CONTINUOUS
 62
     9
100
AcDbVertex
100
AcDb2dVertex
 10
7.800099
 20
160.019409
 30
0.0
  0
VERTEX
  5
8C6
100
AcDbEntity
  8
ALPHA
  6
CONTINUOUS
 62
     9
100
AcDbVertex
100
AcDb2dVertex
 10
7.801861
 20
159.899174
 30
0.0
  0
VERTEX
  5
8C7
100
AcDbEntity
  8
ALPHA
  6
CONTINUOUS
 62
     9
100
AcDbVertex
100
AcDb2dVertex
 10
7.804072
 20
159.768448
 30
0.0
  0
VERTEX
  5
8C8
100
AcDbEntity
  8
ALPHA
  6
CONTINUOUS
 62
     9
100
AcDbVertex
100
AcDb2dVertex
 10
7.806834
 20
159.625902
 30
0.0
  0
VERTEX
  5
8C9
100
AcDbEntity
  8
ALPHA
  6
CONTINUOUS
 62
     9
100
AcDbVertex
100
AcDb2dVertex
 10
7.810277
 20
159.470093
 30
0.0
  0
VERTEX
  5
8CA
100
AcDbEntity
  8
ALPHA
  6
CONTINUOUS
 62
     9
100
AcDbVertex
100
AcDb2dVertex
 10
7.814556
 20
159.299514
 30
0.0
  0
VERTEX
  5
8CB
100
AcDbEntity
  8
ALPHA
  6
CONTINUOUS
 62
     9
100
AcDbVertex
100
AcDb2dVertex
 10
7.819859
 20
159.112777
 30
0.0
  0
VERTEX
  5
8CC
100
AcDbEntity
  8
ALPHA
  6
CONTINUOUS
 62
     9
100
AcDbVertex
100
AcDb2dVertex
 10
7.826382
 20
158.909278
 30
0.0
  0
VERTEX
  5
8CD
100
AcDbEntity
  8
ALPHA
  6
CONTINUOUS
 62
     9
100
AcDbVertex
100
AcDb2dVertex
 10
7.83434
 20
158.688785
 30
0.0
  0
VERTEX
  5
8CE
100
AcDbEntity
  8
ALPHA
  6
CONTINUOUS
 62
     9
100
AcDbVertex
100
AcDb2dVertex
 10
7.844014
 20
158.450187
 30
0.0
  0
VERTEX
  5
8CF
100
AcDbEntity
  8
ALPHA
  6
CONTINUOUS
 62
     9
100
AcDbVertex
100
AcDb2dVertex
 10
7.855729
 20
158.192495
 30
0.0
  0
VERTEX
  5
8D0
100
AcDbEntity
  8
ALPHA
  6
CONTINUOUS
 62
     9
100
AcDbVertex
100
AcDb2dVertex
 10
7.869881
 20
157.914554
 30
0.0
  0
VERTEX
  5
8D1
100
AcDbEntity
  8
ALPHA
  6
CONTINUOUS
 62
     9
100
AcDbVertex
100
AcDb2dVertex
 10
7.887009
 20
157.61409
 30
0.0
  0
VERTEX
  5
8D2
100
AcDbEntity
  8
ALPHA
  6
CONTINUOUS
 62
     9
100
AcDbVertex
100
AcDb2dVertex
 10
7.907789
 20
157.288684
 30
0.0
  0
VERTEX
  5
8D3
100
AcDbEntity
  8
ALPHA
  6
CONTINUOUS
 62
     9
100
AcDbVertex
100
AcDb2dVertex
 10
7.932991
 20
156.936893
 30
0.0
  0
VERTEX
  5
8D4
100
AcDbEntity
  8
ALPHA
  6
CONTINUOUS
 62
     9
100
AcDbVertex
100
AcDb2dVertex
 10
7.963494
 20
156.55813
 30
0.0
  0
SEQEND
  5
8D5
100
AcDbEntity
  8
ALPHA
 62
     9
  0
LINE
  5
8D6
100
AcDbEntity
  8
ALPHA
  6
CONTINUOUS
 62
     9
100
AcDbLine
 10
7.979392
 20
156.345493
 30
0.0
 11
7.979392
 21
148.783383
 31
0.0
  0
LINE
  5
8D7
100
AcDbEntity
  8
ALPHA
  6
CONTINUOUS
 62
     9
100
AcDbLine
 10
7.782589
 20
156.345493
 30
0.0
 11
7.782589
 21
148.783383
 31
0.0
  0
LINE
  5
8D8
100
AcDbEntity
  8
ALPHA
  6
CONTINUOUS
 62
     7
100
AcDbLine
 10
7.774263
 20
148.783383
 30
0.0
 11
7.774263
 21
152.133383
 31
0.0
  0
LINE
  5
8D9
100
AcDbEntity
  8
ALPHA
  6
CONTINUOUS
 62
     9
100
AcDbLine
 10
7.196695
 20
152.133383
 30
0.0
 11
7.196695
 21
148.783383
 31
0.0
  0
LINE
  5
8DA
100
AcDbEntity
  8
ALPHA
  6
CONTINUOUS
 62
     9
100
AcDbLine
 10
6.70445
 20
152.133383
 30
0.0
 11
6.70445
 21
148.983383
 31
0.0
  0
LINE
  5
8DB
100
AcDbEntity
  8
ALPHA
  6
CONTINUOUS
 62
     7
100
AcDbLine
 10
4.478806
 20
146.598383
 30
0.0
 11
4.726303
 21
146.594063
 31
0.0
  0
LINE
  5
8DC
100
AcDbEntity
  8
ALPHA
  6
CONTINUOUS
 62
     7
100
AcDbLine
 10
5.509046
 20
149.683383
 30
0.0
 11
6.13873
 21
149.683383
 31
0.0
  0
LINE
  5
8DD
100
AcDbEntity
  8
ALPHA
  6
CONTINUOUS
 62
     7
100
AcDbLine
 10
4.999473
 20
148.783383
 30
0.0
 11
7.979392
 21
148.783383
 31
0.0
  0
LINE
  5
8DE
100
AcDbEntity
  8
ALPHA
  6
CONTINUOUS
 62
     7
100
AcDbLine
 10
5.023395
 20
148.983383
 30
0.0
 11
5.509046
 21
148.983383
 31
0.0
  0
LINE
  5
8DF
100
AcDbEntity
  8
ALPHA
  6
CONTINUOUS
 62
     7
100
AcDbLine
 10
5.023395
 20
148.983383
 30
0.0
 11
5.066499
 21
148.934809
 31
0.0
  0
LINE
  5
8E0
100
AcDbEntity
  8
ALPHA
  6
CONTINUOUS
 62
     7
100
AcDbLine
 10
5.066499
 20
148.934809
 30
0.0
 11
5.219005
 21
148.783383
 31
0.0
  0
LINE
  5
8E1
100
AcDbEntity
  8
ALPHA
  6
CONTINUOUS
 62
     7
100
AcDbLine
 10
5.509046
 20
148.983383
 30
0.0
 11
5.710973
 21
148.783383
 31
0.0
  0
LINE
  5
8E2
100
AcDbEntity
  8
ALPHA
  6
CONTINUOUS
 62
     7
100
AcDbLine
 10
5.509046
 20
148.983383
 30
0.0
 11
5.509046
 21
149.683383
 31
0.0
  0
LINE
  5
8E3
100
AcDbEntity
  8
ALPHA
  6
CONTINUOUS
 62
     7
100
AcDbLine
 10
6.13873
 20
148.983383
 30
0.0
 11
6.70445
 21
148.983383
 31
0.0
  0
POLYLINE
  5
8E4
100
AcDbEntity
  8
ALPHA
  6
CONTINUOUS
 62
     7
100
AcDb2dPolyline
 66
     1
 10
0.0
 20
0.0
 30
0.0
  0
VERTEX
  5
8E5
100
AcDbEntity
  8
ALPHA
  6
CONTINUOUS
 62
     7
100
AcDbVertex
100
AcDb2dVertex
 10
6.971975
 20
148.783383
 30
0.0
  0
VERTEX
  5
8E6
100
AcDbEntity
  8
ALPHA
  6
CONTINUOUS
 62
     7
100
AcDbVertex
100
AcDb2dVertex
 10
6.927496
 20
148.822668
 30
0.0
  0
VERTEX
  5
8E7
100
AcDbEntity
  8
ALPHA
  6
CONTINUOUS
 62
     7
100
AcDbVertex
100
AcDb2dVertex
 10
6.884697
 20
148.859363
 30
0.0
  0
SEQEND
  5
8E8
100
AcDbEntity
  8
ALPHA
 62
     7
  0
LINE
  5
8E9
100
AcDbEntity
  8
ALPHA
  6
CONTINUOUS
 62
     7
100
AcDbLine
 10
6.884697
 20
148.859363
 30
0.0
 11
6.843991
 21
148.893
 31
0.0
  0
POLYLINE
  5
8EA
100
AcDbEntity
  8
ALPHA
  6
CONTINUOUS
 62
     7
100
AcDb2dPolyline
 66
     1
 10
0.0
 20
0.0
 30
0.0
  0
VERTEX
  5
8EB
100
AcDbEntity
  8
ALPHA
  6
CONTINUOUS
 62
     7
100
AcDbVertex
100
AcDb2dVertex
 10
6.843991
 20
148.893
 30
0.0
  0
VERTEX
  5
8EC
100
AcDbEntity
  8
ALPHA
  6
CONTINUOUS
 62
     7
100
AcDbVertex
100
AcDb2dVertex
 10
6.806097
 20
148.92283
 30
0.0
  0
VERTEX
  5
8ED
100
AcDbEntity
  8
ALPHA
  6
CONTINUOUS
 62
     7
100
AcDbVertex
100
AcDb2dVertex
 10
6.771872
 20
148.947963
 30
0.0
  0
VERTEX
  5
8EE
100
AcDbEntity
  8
ALPHA
  6
CONTINUOUS
 62
     7
100
AcDbVertex
100
AcDb2dVertex
 10
6.742669
 20
148.96715
 30
0.0
  0
VERTEX
  5
8EF
100
AcDbEntity
  8
ALPHA
  6
CONTINUOUS
 62
     7
100
AcDbVertex
100
AcDb2dVertex
 10
6.719791
 20
148.979253
 30
0.0
  0
VERTEX
  5
8F0
100
AcDbEntity
  8
ALPHA
  6
CONTINUOUS
 62
     7
100
AcDbVertex
100
AcDb2dVertex
 10
6.70445
 20
148.983383
 30
0.0
  0
SEQEND
  5
8F1
100
AcDbEntity
  8
ALPHA
 62
     7
  0
LINE
  5
8F2
100
AcDbEntity
  8
ALPHA
  6
CONTINUOUS
 62
     7
100
AcDbLine
 10
6.13873
 20
148.983383
 30
0.0
 11
6.341301
 21
148.783383
 31
0.0
  0
LINE
  5
8F3
100
AcDbEntity
  8
ALPHA
  6
CONTINUOUS
 62
     7
100
AcDbLine
 10
6.13873
 20
148.983383
 30
0.0
 11
6.13873
 21
149.683383
 31
0.0
  0
LINE
  5
8F4
100
AcDbEntity
  8
ALPHA
  6
CONTINUOUS
 62
     7
100
AcDbLine
 10
7.424164
 20
156.135597
 30
0.0
 11
7.182392
 21
155.833383
 31
0.0
  0
LINE
  5
8F5
100
AcDbEntity
  8
ALPHA
  6
CONTINUOUS
 62
     7
100
AcDbLine
 10
7.424164
 20
156.333383
 30
0.0
 11
7.424164
 21
152.133383
 31
0.0
  0
LINE
  5
8F6
100
AcDbEntity
  8
ALPHA
  6
CONTINUOUS
 62
     7
100
AcDbLine
 10
7.182392
 20
152.133383
 30
0.0
 11
7.182392
 21
156.333383
 31
0.0
  0
LINE
  5
8F7
100
AcDbEntity
  8
ALPHA
  6
CONTINUOUS
 62
     9
100
AcDbLine
 10
7.154822
 20
152.133383
 30
0.0
 11
7.154822
 21
156.333383
 31
0.0
  0
LINE
  5
8F8
100
AcDbEntity
  8
ALPHA
  6
CONTINUOUS
 62
     9
100
AcDbLine
 10
6.711819
 20
152.133383
 30
0.0
 11
6.711819
 21
156.333383
 31
0.0
  0
LINE
  5
8F9
100
AcDbEntity
  8
ALPHA
  6
CONTINUOUS
 62
     7
100
AcDbLine
 10
6.70445
 20
152.133383
 30
0.0
 11
7.774263
 21
152.133383
 31
0.0
  0
LINE
  5
8FA
100
AcDbEntity
  8
ALPHA
  6
CONTINUOUS
 62
     7
100
AcDbLine
 10
7.424164
 20
152.331168
 30
0.0
 11
7.182392
 21
152.633383
 31
0.0
  0
POLYLINE
  5
8FB
100
AcDbEntity
  8
ALPHA
  6
CONTINUOUS
 62
     9
100
AcDb2dPolyline
 66
     1
 10
0.0
 20
0.0
 30
0.0
  0
VERTEX
  5
8FC
100
AcDbEntity
  8
ALPHA
  6
CONTINUOUS
 62
     9
100
AcDbVertex
100
AcDb2dVertex
 10
7.963494
 20
156.558129
 30
0.0
  0
VERTEX
  5
8FD
100
AcDbEntity
  8
ALPHA
  6
CONTINUOUS
 62
     9
100
AcDbVertex
100
AcDb2dVertex
 10
7.877641
 20
156.541578
 30
0.0
  0
VERTEX
  5
8FE
100
AcDbEntity
  8
ALPHA
  6
CONTINUOUS
 62
     9
100
AcDbVertex
100
AcDb2dVertex
 10
7.811169
 20
156.51139
 30
0.0
  0
VERTEX
  5
8FF
100
AcDbEntity
  8
ALPHA
  6
CONTINUOUS
 62
     9
100
AcDbVertex
100
AcDb2dVertex
 10
7.777415
 20
156.473625
 30
0.0
  0
SEQEND
  5
900
100
AcDbEntity
  8
ALPHA
 62
     9
  0
LINE
  5
901
100
AcDbEntity
  8
ALPHA
  6
CONTINUOUS
 62
     9
100
AcDbLine
 10
6.70445
 20
156.389102
 30
0.0
 11
7.196694
 21
156.389101
 31
0.0
  0
LINE
  5
902
100
AcDbEntity
  8
ALPHA
  6
CONTINUOUS
 62
     9
100
AcDbLine
 10
7.979392
 20
156.345493
 30
0.0
 11
7.782589
 21
156.345493
 31
0.0
  0
LINE
  5
903
100
AcDbEntity
  8
ALPHA
  6
CONTINUOUS
 62
     7
100
AcDbLine
 10
6.70445
 20
156.333383
 30
0.0
 11
7.774263
 21
156.333383
 31
0.0
  0
LINE
  5
904
100
AcDbEntity
  8
ALPHA
  6
CONTINUOUS
 62
     9
100
AcDbLine
 10
6.547147
 20
156.995641
 30
0.0
 11
6.993909
 21
157.220147
 31
0.0
  0
POLYLINE
  5
905
100
AcDbEntity
  8
ALPHA
  6
CONTINUOUS
 62
     7
100
AcDb2dPolyline
 66
     1
 10
0.0
 20
0.0
 30
0.0
  0
VERTEX
  5
906
100
AcDbEntity
  8
ALPHA
  6
CONTINUOUS
 62
     7
100
AcDbVertex
100
AcDb2dVertex
 10
7.739055
 20
156.869486
 30
0.0
  0
VERTEX
  5
907
100
AcDbEntity
  8
ALPHA
  6
CONTINUOUS
 62
     7
100
AcDbVertex
100
AcDb2dVertex
 10
7.747124
 20
156.844249
 30
0.0
  0
VERTEX
  5
908
100
AcDbEntity
  8
ALPHA
  6
CONTINUOUS
 62
     7
100
AcDbVertex
100
AcDb2dVertex
 10
7.754471
 20
156.803038
 30
0.0
  0
VERTEX
  5
909
100
AcDbEntity
  8
ALPHA
  6
CONTINUOUS
 62
     7
100
AcDbVertex
100
AcDb2dVertex
 10
7.760778
 20
156.750289
 30
0.0
  0
VERTEX
  5
90A
100
AcDbEntity
  8
ALPHA
  6
CONTINUOUS
 62
     7
100
AcDbVertex
100
AcDb2dVertex
 10
7.766024
 20
156.688327
 30
0.0
  0
VERTEX
  5
90B
100
AcDbEntity
  8
ALPHA
  6
CONTINUOUS
 62
     7
100
AcDbVertex
100
AcDb2dVertex
 10
7.770231
 20
156.616554
 30
0.0
  0
VERTEX
  5
90C
100
AcDbEntity
  8
ALPHA
  6
CONTINUOUS
 62
     7
100
AcDbVertex
100
AcDb2dVertex
 10
7.773132
 20
156.535258
 30
0.0
  0
VERTEX
  5
90D
100
AcDbEntity
  8
ALPHA
  6
CONTINUOUS
 62
     7
100
AcDbVertex
100
AcDb2dVertex
 10
7.774263
 20
156.444352
 30
0.0
  0
SEQEND
  5
90E
100
AcDbEntity
  8
ALPHA
 62
     7
  0
POLYLINE
  5
90F
100
AcDbEntity
  8
ALPHA
  6
CONTINUOUS
 62
     7
100
AcDb2dPolyline
 66
     1
 10
0.0
 20
0.0
 30
0.0
  0
VERTEX
  5
910
100
AcDbEntity
  8
ALPHA
  6
CONTINUOUS
 62
     7
100
AcDbVertex
100
AcDb2dVertex
 10
6.547145
 20
156.995639
 30
0.0
  0
VERTEX
  5
911
100
AcDbEntity
  8
ALPHA
  6
CONTINUOUS
 62
     7
100
AcDbVertex
100
AcDb2dVertex
 10
6.566062
 20
156.956593
 30
0.0
  0
VERTEX
  5
912
100
AcDbEntity
  8
ALPHA
  6
CONTINUOUS
 62
     7
100
AcDbVertex
100
AcDb2dVertex
 10
6.608005
 20
156.857405
 30
0.0
  0
SEQEND
  5
913
100
AcDbEntity
  8
ALPHA
 62
     7
  0
POLYLINE
  5
914
100
AcDbEntity
  8
ALPHA
  6
CONTINUOUS
 62
     7
100
AcDb2dPolyline
 66
     1
 10
0.0
 20
0.0
 30
0.0
  0
VERTEX
  5
915
100
AcDbEntity
  8
ALPHA
  6
CONTINUOUS
 62
     7
100
AcDbVertex
100
AcDb2dVertex
 10
7.390746
 20
158.347856
 30
0.0
  0
VERTEX
  5
916
100
AcDbEntity
  8
ALPHA
  6
CONTINUOUS
 62
     7
100
AcDbVertex
100
AcDb2dVertex
 10
7.457005
 20
157.886623
 30
0.0
  0
VERTEX
  5
917
100
AcDbEntity
  8
ALPHA
  6
CONTINUOUS
 62
     7
100
AcDbVertex
100
AcDb2dVertex
 10
7.536415
 20
157.481177
 30
0.0
  0
VERTEX
  5
918
100
AcDbEntity
  8
ALPHA
  6
CONTINUOUS
 62
     7
100
AcDbVertex
100
AcDb2dVertex
 10
7.63004
 20
157.137865
 30
0.0
  0
VERTEX
  5
919
100
AcDbEntity
  8
ALPHA
  6
CONTINUOUS
 62
     7
100
AcDbVertex
100
AcDb2dVertex
 10
7.739055
 20
156.869486
 30
0.0
  0
SEQEND
  5
91A
100
AcDbEntity
  8
ALPHA
 62
     7
  0
LINE
  5
91B
100
AcDbEntity
  8
ALPHA
  6
CONTINUOUS
 62
     9
100
AcDbLine
 10
6.478561
 20
157.159939
 30
0.0
 11
6.479498
 21
157.154533
 31
0.0
  0
POLYLINE
  5
91C
100
AcDbEntity
  8
ALPHA
  6
CONTINUOUS
 62
     9
100
AcDb2dPolyline
 66
     1
 10
0.0
 20
0.0
 30
0.0
  0
VERTEX
  5
91D
100
AcDbEntity
  8
ALPHA
  6
CONTINUOUS
 62
     9
100
AcDbVertex
100
AcDb2dVertex
 10
6.479498
 20
157.154533
 30
0.0
  0
VERTEX
  5
91E
100
AcDbEntity
  8
ALPHA
  6
CONTINUOUS
 62
     9
100
AcDbVertex
100
AcDb2dVertex
 10
6.58591
 20
156.719209
 30
0.0
  0
VERTEX
  5
91F
100
AcDbEntity
  8
ALPHA
  6
CONTINUOUS
 62
     9
100
AcDbVertex
100
AcDb2dVertex
 10
6.70445
 20
156.389101
 30
0.0
  0
SEQEND
  5
920
100
AcDbEntity
  8
ALPHA
 62
     9
  0
LINE
  5
921
100
AcDbEntity
  8
ALPHA
  6
CONTINUOUS
 62
     7
100
AcDbLine
 10
6.60801
 20
156.857394
 30
0.0
 11
6.60764
 21
156.858367
 31
0.0
  0
LINE
  5
922
100
AcDbEntity
  8
ALPHA
  6
CONTINUOUS
 62
     7
100
AcDbLine
 10
7.774263
 20
156.333383
 30
0.0
 11
7.774263
 21
156.444352
 31
0.0
  0
LINE
  5
923
100
AcDbEntity
  8
ALPHA
  6
CONTINUOUS
 62
     9
100
AcDbLine
 10
7.196695
 20
156.333383
 30
0.0
 11
7.196694
 21
156.389101
 31
0.0
  0
LINE
  5
924
100
AcDbEntity
  8
ALPHA
  6
CONTINUOUS
 62
     9
100
AcDbLine
 10
6.70445
 20
156.333383
 30
0.0
 11
6.70445
 21
156.389102
 31
0.0
  0
LINE
  5
925
100
AcDbEntity
  8
ALPHA
  6
CONTINUOUS
 62
     9
100
AcDbLine
 10
7.782005
 20
156.389604
 30
0.0
 11
7.782589
 21
156.345493
 31
0.0
  0
LINE
  5
926
100
AcDbEntity
  8
ALPHA
  6
CONTINUOUS
 62
     9
100
AcDbLine
 10
7.780281
 20
156.432389
 30
0.0
 11
7.782005
 21
156.389604
 31
0.0
  0
LINE
  5
927
100
AcDbEntity
  8
ALPHA
  6
CONTINUOUS
 62
     9
100
AcDbLine
 10
7.777415
 20
156.473625
 30
0.0
 11
7.780281
 21
156.432389
 31
0.0
  0
POLYLINE
  5
928
100
AcDbEntity
  8
ALPHA
  6
CONTINUOUS
 62
     9
100
AcDb2dPolyline
 66
     1
 10
0.0
 20
0.0
 30
0.0
  0
VERTEX
  5
929
100
AcDbEntity
  8
ALPHA
  6
CONTINUOUS
 62
     9
100
AcDbVertex
100
AcDb2dVertex
 10
7.196694
 20
156.389101
 30
0.0
  0
VERTEX
  5
92A
100
AcDbEntity
  8
ALPHA
  6
CONTINUOUS
 62
     9
100
AcDbVertex
100
AcDb2dVertex
 10
7.174945
 20
156.662896
 30
0.0
  0
VERTEX
  5
92B
100
AcDbEntity
  8
ALPHA
  6
CONTINUOUS
 62
     9
100
AcDbVertex
100
AcDb2dVertex
 10
7.107551
 20
156.943547
 30
0.0
  0
VERTEX
  5
92C
100
AcDbEntity
  8
ALPHA
  6
CONTINUOUS
 62
     9
100
AcDbVertex
100
AcDb2dVertex
 10
6.993909
 20
157.220147
 30
0.0
  0
SEQEND
  5
92D
100
AcDbEntity
  8
ALPHA
 62
     9
  0
POLYLINE
  5
92E
100
AcDbEntity
  8
ALPHA
  6
CONTINUOUS
 62
     9
100
AcDb2dPolyline
 66
     1
 10
0.0
 20
0.0
 30
0.0
  0
VERTEX
  5
92F
100
AcDbEntity
  8
ALPHA
  6
CONTINUOUS
 62
     9
100
AcDbVertex
100
AcDb2dVertex
 10
7.963494
 20
156.55813
 30
0.0
  0
VERTEX
  5
930
100
AcDbEntity
  8
ALPHA
  6
CONTINUOUS
 62
     9
100
AcDbVertex
100
AcDb2dVertex
 10
7.969852
 20
156.489611
 30
0.0
  0
VERTEX
  5
931
100
AcDbEntity
  8
ALPHA
  6
CONTINUOUS
 62
     9
100
AcDbVertex
100
AcDb2dVertex
 10
7.975166
 20
156.418619
 30
0.0
  0
VERTEX
  5
932
100
AcDbEntity
  8
ALPHA
  6
CONTINUOUS
 62
     9
100
AcDbVertex
100
AcDb2dVertex
 10
7.979392
 20
156.345493
 30
0.0
  0
SEQEND
  5
933
100
AcDbEntity
  8
ALPHA
 62
     9
  0
LINE
  5
934
100
AcDbEntity
  8
ALPHA
  6
CONTINUOUS
 62
     7
100
AcDbLine
 10
7.33748
 20
158.859381
 30
0.0
 11
7.390746
 21
158.347856
 31
0.0
  0
POLYLINE
  5
935
100
AcDbEntity
  8
ALPHA
  6
CONTINUOUS
 62
     9
100
AcDb2dPolyline
 66
     1
 10
0.0
 20
0.0
 30
0.0
  0
VERTEX
  5
936
100
AcDbEntity
  8
ALPHA
  6
CONTINUOUS
 62
     9
100
AcDbVertex
100
AcDb2dVertex
 10
6.704443
 20
156.389102
 30
0.0
  0
VERTEX
  5
937
100
AcDbEntity
  8
ALPHA
  6
CONTINUOUS
 62
     9
100
AcDbVertex
100
AcDb2dVertex
 10
6.683968
 20
156.585573
 30
0.0
  0
VERTEX
  5
938
100
AcDbEntity
  8
ALPHA
  6
CONTINUOUS
 62
     9
100
AcDbVertex
100
AcDb2dVertex
 10
6.632072
 20
156.789567
 30
0.0
  0
VERTEX
  5
939
100
AcDbEntity
  8
ALPHA
  6
CONTINUOUS
 62
     9
100
AcDbVertex
100
AcDb2dVertex
 10
6.60801
 20
156.857394
 30
0.0
  0
SEQEND
  5
93A
100
AcDbEntity
  8
ALPHA
 62
     9
  0
LINE
  5
93B
100
AcDbEntity
  8
ALPHA
  6
CONTINUOUS
 62
     9
100
AcDbLine
 10
7.979392
 20
172.783383
 30
0.0
 11
7.979392
 21
165.221272
 31
0.0
  0
LINE
  5
93C
100
AcDbEntity
  8
ALPHA
  6
CONTINUOUS
 62
     9
100
AcDbLine
 10
7.782589
 20
172.783383
 30
0.0
 11
7.782589
 21
165.221272
 31
0.0
  0
LINE
  5
93D
100
AcDbEntity
  8
ALPHA
  6
CONTINUOUS
 62
     7
100
AcDbLine
 10
7.774263
 20
165.022414
 30
0.0
 11
7.774263
 21
172.683383
 31
0.0
  0
LINE
  5
93E
100
AcDbEntity
  8
ALPHA
  6
CONTINUOUS
 62
     9
100
AcDbLine
 10
7.196694
 20
165.077664
 30
0.0
 11
7.196695
 21
172.683383
 31
0.0
  0
LINE
  5
93F
100
AcDbEntity
  8
ALPHA
  6
CONTINUOUS
 62
     9
100
AcDbLine
 10
6.70445
 20
165.077664
 30
0.0
 11
6.70445
 21
172.483383
 31
0.0
  0
POLYLINE
  5
940
100
AcDbEntity
  8
ALPHA
  6
CONTINUOUS
 62
     7
100
AcDb2dPolyline
 66
     1
 10
0.0
 20
0.0
 30
0.0
  0
VERTEX
  5
941
100
AcDbEntity
  8
ALPHA
  6
CONTINUOUS
 62
     7
100
AcDbVertex
100
AcDb2dVertex
 10
7.73906
 20
164.597295
 30
0.0
  0
VERTEX
  5
942
100
AcDbEntity
  8
ALPHA
  6
CONTINUOUS
 62
     7
100
AcDbVertex
100
AcDb2dVertex
 10
7.630788
 20
164.331178
 30
0.0
  0
VERTEX
  5
943
100
AcDbEntity
  8
ALPHA
  6
CONTINUOUS
 62
     7
100
AcDbVertex
100
AcDb2dVertex
 10
7.537268
 20
163.989296
 30
0.0
  0
VERTEX
  5
944
100
AcDbEntity
  8
ALPHA
  6
CONTINUOUS
 62
     7
100
AcDbVertex
100
AcDb2dVertex
 10
7.457603
 20
163.583705
 30
0.0
  0
SEQEND
  5
945
100
AcDbEntity
  8
ALPHA
 62
     7
  0
POLYLINE
  5
946
100
AcDbEntity
  8
ALPHA
  6
CONTINUOUS
 62
     9
100
AcDb2dPolyline
 66
     1
 10
0.0
 20
0.0
 30
0.0
  0
VERTEX
  5
947
100
AcDbEntity
  8
ALPHA
  6
CONTINUOUS
 62
     9
100
AcDbVertex
100
AcDb2dVertex
 10
7.963494
 20
165.008636
 30
0.0
  0
VERTEX
  5
948
100
AcDbEntity
  8
ALPHA
  6
CONTINUOUS
 62
     9
100
AcDbVertex
100
AcDb2dVertex
 10
7.932646
 20
164.62532
 30
0.0
  0
VERTEX
  5
949
100
AcDbEntity
  8
ALPHA
  6
CONTINUOUS
 62
     9
100
AcDbVertex
100
AcDb2dVertex
 10
7.907195
 20
164.269273
 30
0.0
  0
VERTEX
  5
94A
100
AcDbEntity
  8
ALPHA
  6
CONTINUOUS
 62
     9
100
AcDbVertex
100
AcDb2dVertex
 10
7.886238
 20
163.939848
 30
0.0
  0
VERTEX
  5
94B
100
AcDbEntity
  8
ALPHA
  6
CONTINUOUS
 62
     9
100
AcDbVertex
100
AcDb2dVertex
 10
7.868991
 20
163.635621
 30
0.0
  0
VERTEX
  5
94C
100
AcDbEntity
  8
ALPHA
  6
CONTINUOUS
 62
     9
100
AcDbVertex
100
AcDb2dVertex
 10
7.854773
 20
163.354294
 30
0.0
  0
VERTEX
  5
94D
100
AcDbEntity
  8
ALPHA
  6
CONTINUOUS
 62
     9
100
AcDbVertex
100
AcDb2dVertex
 10
7.843048
 20
163.093949
 30
0.0
  0
VERTEX
  5
94E
100
AcDbEntity
  8
ALPHA
  6
CONTINUOUS
 62
     9
100
AcDbVertex
100
AcDb2dVertex
 10
7.833426
 20
162.853899
 30
0.0
  0
VERTEX
  5
94F
100
AcDbEntity
  8
ALPHA
  6
CONTINUOUS
 62
     9
100
AcDbVertex
100
AcDb2dVertex
 10
7.825551
 20
162.632834
 30
0.0
  0
VERTEX
  5
950
100
AcDbEntity
  8
ALPHA
  6
CONTINUOUS
 62
     9
100
AcDbVertex
100
AcDb2dVertex
 10
7.819121
 20
162.429324
 30
0.0
  0
VERTEX
  5
951
100
AcDbEntity
  8
ALPHA
  6
CONTINUOUS
 62
     9
100
AcDbVertex
100
AcDb2dVertex
 10
7.813916
 20
162.243034
 30
0.0
  0
VERTEX
  5
952
100
AcDbEntity
  8
ALPHA
  6
CONTINUOUS
 62
     9
100
AcDbVertex
100
AcDb2dVertex
 10
7.809729
 20
162.073157
 30
0.0
  0
VERTEX
  5
953
100
AcDbEntity
  8
ALPHA
  6
CONTINUOUS
 62
     9
100
AcDbVertex
100
AcDb2dVertex
 10
7.806371
 20
161.918239
 30
0.0
  0
VERTEX
  5
954
100
AcDbEntity
  8
ALPHA
  6
CONTINUOUS
 62
     9
100
AcDbVertex
100
AcDb2dVertex
 10
7.803686
 20
161.776775
 30
0.0
  0
VERTEX
  5
955
100
AcDbEntity
  8
ALPHA
  6
CONTINUOUS
 62
     9
100
AcDbVertex
100
AcDb2dVertex
 10
7.801545
 20
161.647246
 30
0.0
  0
VERTEX
  5
956
100
AcDbEntity
  8
ALPHA
  6
CONTINUOUS
 62
     9
100
AcDbVertex
100
AcDb2dVertex
 10
7.799842
 20
161.528208
 30
0.0
  0
VERTEX
  5
957
100
AcDbEntity
  8
ALPHA
  6
CONTINUOUS
 62
     9
100
AcDbVertex
100
AcDb2dVertex
 10
7.798504
 20
161.419006
 30
0.0
  0
VERTEX
  5
958
100
AcDbEntity
  8
ALPHA
  6
CONTINUOUS
 62
     9
100
AcDbVertex
100
AcDb2dVertex
 10
7.79748
 20
161.320535
 30
0.0
  0
VERTEX
  5
959
100
AcDbEntity
  8
ALPHA
  6
CONTINUOUS
 62
     9
100
AcDbVertex
100
AcDb2dVertex
 10
7.79614
 20
161.154029
 30
0.0
  0
SEQEND
  5
95A
100
AcDbEntity
  8
ALPHA
 62
     9
  0
POLYLINE
  5
95B
100
AcDbEntity
  8
ALPHA
  6
CONTINUOUS
 62
     9
100
AcDb2dPolyline
 66
     1
 10
0.0
 20
0.0
 30
0.0
  0
VERTEX
  5
95C
100
AcDbEntity
  8
ALPHA
  6
CONTINUOUS
 62
     9
100
AcDbVertex
100
AcDb2dVertex
 10
7.738418
 20
164.597341
 30
0.0
  0
VERTEX
  5
95D
100
AcDbEntity
  8
ALPHA
  6
CONTINUOUS
 62
     9
100
AcDbVertex
100
AcDb2dVertex
 10
7.719935
 20
164.339034
 30
0.0
  0
VERTEX
  5
95E
100
AcDbEntity
  8
ALPHA
  6
CONTINUOUS
 62
     9
100
AcDbVertex
100
AcDb2dVertex
 10
7.698537
 20
164.003015
 30
0.0
  0
VERTEX
  5
95F
100
AcDbEntity
  8
ALPHA
  6
CONTINUOUS
 62
     9
100
AcDbVertex
100
AcDb2dVertex
 10
7.680927
 20
163.692697
 30
0.0
  0
VERTEX
  5
960
100
AcDbEntity
  8
ALPHA
  6
CONTINUOUS
 62
     9
100
AcDbVertex
100
AcDb2dVertex
 10
7.666409
 20
163.40574
 30
0.0
  0
VERTEX
  5
961
100
AcDbEntity
  8
ALPHA
  6
CONTINUOUS
 62
     9
100
AcDbVertex
100
AcDb2dVertex
 10
7.654438
 20
163.140184
 30
0.0
  0
VERTEX
  5
962
100
AcDbEntity
  8
ALPHA
  6
CONTINUOUS
 62
     9
100
AcDbVertex
100
AcDb2dVertex
 10
7.644613
 20
162.895329
 30
0.0
  0
VERTEX
  5
963
100
AcDbEntity
  8
ALPHA
  6
CONTINUOUS
 62
     9
100
AcDbVertex
100
AcDb2dVertex
 10
7.636572
 20
162.669841
 30
0.0
  0
VERTEX
  5
964
100
AcDbEntity
  8
ALPHA
  6
CONTINUOUS
 62
     9
100
AcDbVertex
100
AcDb2dVertex
 10
7.630007
 20
162.462258
 30
0.0
  0
VERTEX
  5
965
100
AcDbEntity
  8
ALPHA
  6
CONTINUOUS
 62
     9
100
AcDbVertex
100
AcDb2dVertex
 10
7.624692
 20
162.27224
 30
0.0
  0
VERTEX
  5
966
100
AcDbEntity
  8
ALPHA
  6
CONTINUOUS
 62
     9
100
AcDbVertex
100
AcDb2dVertex
 10
7.620417
 20
162.098964
 30
0.0
  0
VERTEX
  5
967
100
AcDbEntity
  8
ALPHA
  6
CONTINUOUS
 62
     9
100
AcDbVertex
100
AcDb2dVertex
 10
7.616989
 20
161.940945
 30
0.0
  0
VERTEX
  5
968
100
AcDbEntity
  8
ALPHA
  6
CONTINUOUS
 62
     9
100
AcDbVertex
100
AcDb2dVertex
 10
7.614247
 20
161.796652
 30
0.0
  0
VERTEX
  5
969
100
AcDbEntity
  8
ALPHA
  6
CONTINUOUS
 62
     9
100
AcDbVertex
100
AcDb2dVertex
 10
7.612061
 20
161.664531
 30
0.0
  0
VERTEX
  5
96A
100
AcDbEntity
  8
ALPHA
  6
CONTINUOUS
 62
     9
100
AcDbVertex
100
AcDb2dVertex
 10
7.610323
 20
161.543112
 30
0.0
  0
VERTEX
  5
96B
100
AcDbEntity
  8
ALPHA
  6
CONTINUOUS
 62
     9
100
AcDbVertex
100
AcDb2dVertex
 10
7.608956
 20
161.431723
 30
0.0
  0
VERTEX
  5
96C
100
AcDbEntity
  8
ALPHA
  6
CONTINUOUS
 62
     9
100
AcDbVertex
100
AcDb2dVertex
 10
7.60791
 20
161.331275
 30
0.0
  0
VERTEX
  5
96D
100
AcDbEntity
  8
ALPHA
  6
CONTINUOUS
 62
     9
100
AcDbVertex
100
AcDb2dVertex
 10
7.607129
 20
161.242118
 30
0.0
  0
VERTEX
  5
96E
100
AcDbEntity
  8
ALPHA
  6
CONTINUOUS
 62
     9
100
AcDbVertex
100
AcDb2dVertex
 10
7.606093
 20
161.085454
 30
0.0
  0
SEQEND
  5
96F
100
AcDbEntity
  8
ALPHA
 62
     9
  0
POLYLINE
  5
970
100
AcDbEntity
  8
ALPHA
  6
CONTINUOUS
 62
     7
100
AcDb2dPolyline
 66
     1
 10
0.0
 20
0.0
 30
0.0
  0
VERTEX
  5
971
100
AcDbEntity
  8
ALPHA
  6
CONTINUOUS
 62
     7
100
AcDbVertex
100
AcDb2dVertex
 10
7.457603
 20
163.583705
 30
0.0
  0
VERTEX
  5
972
100
AcDbEntity
  8
ALPHA
  6
CONTINUOUS
 62
     7
100
AcDbVertex
100
AcDb2dVertex
 10
7.391017
 20
163.121116
 30
0.0
  0
VERTEX
  5
973
100
AcDbEntity
  8
ALPHA
  6
CONTINUOUS
 62
     7
100
AcDbVertex
100
AcDb2dVertex
 10
7.33748
 20
162.607385
 30
0.0
  0
SEQEND
  5
974
100
AcDbEntity
  8
ALPHA
 62
     7
  0
LINE
  5
975
100
AcDbEntity
  8
ALPHA
  6
CONTINUOUS
 62
     9
100
AcDbLine
 10
7.79614
 20
161.154029
 30
0.0
 11
7.795364
 21
161.006276
 31
0.0
  0
LINE
  5
976
100
AcDbEntity
  8
ALPHA
  6
CONTINUOUS
 62
     9
100
AcDbLine
 10
7.606093
 20
161.085454
 30
0.0
 11
7.605501
 21
160.935238
 31
0.0
  0
LINE
  5
977
100
AcDbEntity
  8
ALPHA
  6
CONTINUOUS
 62
     9
100
AcDbLine
 10
7.795364
 20
161.006276
 30
0.0
 11
7.79497
 21
160.855563
 31
0.0
  0
LINE
  5
978
100
AcDbEntity
  8
ALPHA
  6
CONTINUOUS
 62
     9
100
AcDbLine
 10
7.605501
 20
160.935238
 30
0.0
 11
7.605301
 21
160.775347
 31
0.0
  0
LINE
  5
979
100
AcDbEntity
  8
ALPHA
  6
CONTINUOUS
 62
     9
100
AcDbLine
 10
7.79497
 20
160.855563
 30
0.0
 11
7.794991
 21
160.696268
 31
0.0
  0
LINE
  5
97A
100
AcDbEntity
  8
ALPHA
  6
CONTINUOUS
 62
     9
100
AcDbLine
 10
7.605301
 20
160.775347
 30
0.0
 11
7.605538
 21
160.617903
 31
0.0
  0
LINE
  5
97B
100
AcDbEntity
  8
ALPHA
  6
CONTINUOUS
 62
     9
100
AcDbLine
 10
7.794991
 20
160.696268
 30
0.0
 11
7.795413
 21
160.548351
 31
0.0
  0
LINE
  5
97C
100
AcDbEntity
  8
ALPHA
  6
CONTINUOUS
 62
     9
100
AcDbLine
 10
7.605538
 20
160.617903
 30
0.0
 11
7.606156
 21
160.469552
 31
0.0
  0
LINE
  5
97D
100
AcDbEntity
  8
ALPHA
  6
CONTINUOUS
 62
     9
100
AcDbLine
 10
7.795413
 20
160.548351
 30
0.0
 11
7.79622
 21
160.400767
 31
0.0
  0
LINE
  5
97E
100
AcDbEntity
  8
ALPHA
  6
CONTINUOUS
 62
     9
100
AcDbLine
 10
7.606156
 20
160.469552
 30
0.0
 11
7.60724
 21
160.310948
 31
0.0
  0
LINE
  5
97F
100
AcDbEntity
  8
ALPHA
  6
CONTINUOUS
 62
     9
100
AcDbLine
 10
7.79622
 20
160.400767
 30
0.0
 11
7.797631
 21
160.23056
 31
0.0
  0
LINE
  5
980
100
AcDbEntity
  8
ALPHA
  6
CONTINUOUS
 62
     9
100
AcDbLine
 10
7.979392
 20
165.221272
 30
0.0
 11
7.782589
 21
165.221272
 31
0.0
  0
LINE
  5
981
100
AcDbEntity
  8
ALPHA
  6
CONTINUOUS
 62
     9
100
AcDbLine
 10
6.70445
 20
165.077664
 30
0.0
 11
7.196694
 21
165.077664
 31
0.0
  0
POLYLINE
  5
982
100
AcDbEntity
  8
ALPHA
  6
CONTINUOUS
 62
     9
100
AcDb2dPolyline
 66
     1
 10
0.0
 20
0.0
 30
0.0
  0
VERTEX
  5
983
100
AcDbEntity
  8
ALPHA
  6
CONTINUOUS
 62
     9
100
AcDbVertex
100
AcDb2dVertex
 10
7.963494
 20
165.008636
 30
0.0
  0
VERTEX
  5
984
100
AcDbEntity
  8
ALPHA
  6
CONTINUOUS
 62
     9
100
AcDbVertex
100
AcDb2dVertex
 10
7.877641
 20
165.025188
 30
0.0
  0
VERTEX
  5
985
100
AcDbEntity
  8
ALPHA
  6
CONTINUOUS
 62
     9
100
AcDbVertex
100
AcDb2dVertex
 10
7.811168
 20
165.055375
 30
0.0
  0
SEQEND
  5
986
100
AcDbEntity
  8
ALPHA
 62
     9
  0
LINE
  5
987
100
AcDbEntity
  8
ALPHA
  6
CONTINUOUS
 62
     9
100
AcDbLine
 10
6.547145
 20
164.471126
 30
0.0
 11
6.993909
 21
164.246618
 31
0.0
  0
LINE
  5
988
100
AcDbEntity
  8
ALPHA
  6
CONTINUOUS
 62
     9
100
AcDbLine
 10
7.811168
 20
165.055375
 30
0.0
 11
7.777415
 21
165.093141
 31
0.0
  0
POLYLINE
  5
989
100
AcDbEntity
  8
ALPHA
  6
CONTINUOUS
 62
     9
100
AcDb2dPolyline
 66
     1
 10
0.0
 20
0.0
 30
0.0
  0
VERTEX
  5
98A
100
AcDbEntity
  8
ALPHA
  6
CONTINUOUS
 62
     9
100
AcDbVertex
100
AcDb2dVertex
 10
6.993909
 20
164.246618
 30
0.0
  0
VERTEX
  5
98B
100
AcDbEntity
  8
ALPHA
  6
CONTINUOUS
 62
     9
100
AcDbVertex
100
AcDb2dVertex
 10
7.107551
 20
164.523219
 30
0.0
  0
VERTEX
  5
98C
100
AcDbEntity
  8
ALPHA
  6
CONTINUOUS
 62
     9
100
AcDbVertex
100
AcDb2dVertex
 10
7.174945
 20
164.803869
 30
0.0
  0
VERTEX
  5
98D
100
AcDbEntity
  8
ALPHA
  6
CONTINUOUS
 62
     9
100
AcDbVertex
100
AcDb2dVertex
 10
7.196694
 20
165.077664
 30
0.0
  0
SEQEND
  5
98E
100
AcDbEntity
  8
ALPHA
 62
     9
  0
POLYLINE
  5
98F
100
AcDbEntity
  8
ALPHA
  6
CONTINUOUS
 62
     7
100
AcDb2dPolyline
 66
     1
 10
0.0
 20
0.0
 30
0.0
  0
VERTEX
  5
990
100
AcDbEntity
  8
ALPHA
  6
CONTINUOUS
 62
     7
100
AcDbVertex
100
AcDb2dVertex
 10
6.608011
 20
164.609376
 30
0.0
  0
VERTEX
  5
991
100
AcDbEntity
  8
ALPHA
  6
CONTINUOUS
 62
     7
100
AcDbVertex
100
AcDb2dVertex
 10
6.60422
 20
164.599507
 30
0.0
  0
VERTEX
  5
992
100
AcDbEntity
  8
ALPHA
  6
CONTINUOUS
 62
     7
100
AcDbVertex
100
AcDb2dVertex
 10
6.564621
 20
164.507095
 30
0.0
  0
VERTEX
  5
993
100
AcDbEntity
  8
ALPHA
  6
CONTINUOUS
 62
     7
100
AcDbVertex
100
AcDb2dVertex
 10
6.547145
 20
164.471126
 30
0.0
  0
SEQEND
  5
994
100
AcDbEntity
  8
ALPHA
 62
     7
  0
LINE
  5
995
100
AcDbEntity
  8
ALPHA
  6
CONTINUOUS
 62
     9
100
AcDbLine
 10
6.70445
 20
165.077664
 30
0.0
 11
6.585574
 21
164.746415
 31
0.0
  0
POLYLINE
  5
996
100
AcDbEntity
  8
ALPHA
  6
CONTINUOUS
 62
     9
100
AcDb2dPolyline
 66
     1
 10
0.0
 20
0.0
 30
0.0
  0
VERTEX
  5
997
100
AcDbEntity
  8
ALPHA
  6
CONTINUOUS
 62
     9
100
AcDbVertex
100
AcDb2dVertex
 10
6.608011
 20
164.609376
 30
0.0
  0
VERTEX
  5
998
100
AcDbEntity
  8
ALPHA
  6
CONTINUOUS
 62
     9
100
AcDbVertex
100
AcDb2dVertex
 10
6.632072
 20
164.677198
 30
0.0
  0
VERTEX
  5
999
100
AcDbEntity
  8
ALPHA
  6
CONTINUOUS
 62
     9
100
AcDbVertex
100
AcDb2dVertex
 10
6.683968
 20
164.881193
 30
0.0
  0
VERTEX
  5
99A
100
AcDbEntity
  8
ALPHA
  6
CONTINUOUS
 62
     9
100
AcDbVertex
100
AcDb2dVertex
 10
6.704443
 20
165.077664
 30
0.0
  0
SEQEND
  5
99B
100
AcDbEntity
  8
ALPHA
 62
     9
  0
POLYLINE
  5
99C
100
AcDbEntity
  8
ALPHA
  6
CONTINUOUS
 62
     9
100
AcDb2dPolyline
 66
     1
 10
0.0
 20
0.0
 30
0.0
  0
VERTEX
  5
99D
100
AcDbEntity
  8
ALPHA
  6
CONTINUOUS
 62
     9
100
AcDbVertex
100
AcDb2dVertex
 10
6.585574
 20
164.746415
 30
0.0
  0
VERTEX
  5
99E
100
AcDbEntity
  8
ALPHA
  6
CONTINUOUS
 62
     9
100
AcDbVertex
100
AcDb2dVertex
 10
6.479277
 20
164.311154
 30
0.0
  0
VERTEX
  5
99F
100
AcDbEntity
  8
ALPHA
  6
CONTINUOUS
 62
     9
100
AcDbVertex
100
AcDb2dVertex
 10
6.478459
 20
164.306436
 30
0.0
  0
SEQEND
  5
9A0
100
AcDbEntity
  8
ALPHA
 62
     9
  0
POLYLINE
  5
9A1
100
AcDbEntity
  8
ALPHA
  6
CONTINUOUS
 62
     9
100
AcDb2dPolyline
 66
     1
 10
0.0
 20
0.0
 30
0.0
  0
VERTEX
  5
9A2
100
AcDbEntity
  8
ALPHA
  6
CONTINUOUS
 62
     9
100
AcDbVertex
100
AcDb2dVertex
 10
7.979392
 20
165.221272
 30
0.0
  0
VERTEX
  5
9A3
100
AcDbEntity
  8
ALPHA
  6
CONTINUOUS
 62
     9
100
AcDbVertex
100
AcDb2dVertex
 10
7.975166
 20
165.148147
 30
0.0
  0
VERTEX
  5
9A4
100
AcDbEntity
  8
ALPHA
  6
CONTINUOUS
 62
     9
100
AcDbVertex
100
AcDb2dVertex
 10
7.969852
 20
165.077155
 30
0.0
  0
VERTEX
  5
9A5
100
AcDbEntity
  8
ALPHA
  6
CONTINUOUS
 62
     9
100
AcDbVertex
100
AcDb2dVertex
 10
7.963494
 20
165.008636
 30
0.0
  0
SEQEND
  5
9A6
100
AcDbEntity
  8
ALPHA
 62
     9
  0
POLYLINE
  5
9A7
100
AcDbEntity
  8
ALPHA
  6
CONTINUOUS
 62
     9
100
AcDb2dPolyline
 66
     1
 10
0.0
 20
0.0
 30
0.0
  0
VERTEX
  5
9A8
100
AcDbEntity
  8
ALPHA
  6
CONTINUOUS
 62
     9
100
AcDbVertex
100
AcDb2dVertex
 10
7.782589
 20
165.221272
 30
0.0
  0
VERTEX
  5
9A9
100
AcDbEntity
  8
ALPHA
  6
CONTINUOUS
 62
     9
100
AcDbVertex
100
AcDb2dVertex
 10
7.782005
 20
165.177162
 30
0.0
  0
VERTEX
  5
9AA
100
AcDbEntity
  8
ALPHA
  6
CONTINUOUS
 62
     9
100
AcDbVertex
100
AcDb2dVertex
 10
7.780281
 20
165.134377
 30
0.0
  0
VERTEX
  5
9AB
100
AcDbEntity
  8
ALPHA
  6
CONTINUOUS
 62
     9
100
AcDbVertex
100
AcDb2dVertex
 10
7.777415
 20
165.093141
 30
0.0
  0
SEQEND
  5
9AC
100
AcDbEntity
  8
ALPHA
 62
     9
  0
POLYLINE
  5
9AD
100
AcDbEntity
  8
ALPHA
  6
CONTINUOUS
 62
     7
100
AcDb2dPolyline
 66
     1
 10
0.0
 20
0.0
 30
0.0
  0
VERTEX
  5
9AE
100
AcDbEntity
  8
ALPHA
  6
CONTINUOUS
 62
     7
100
AcDbVertex
100
AcDb2dVertex
 10
7.774263
 20
165.022414
 30
0.0
  0
VERTEX
  5
9AF
100
AcDbEntity
  8
ALPHA
  6
CONTINUOUS
 62
     7
100
AcDbVertex
100
AcDb2dVertex
 10
7.773132
 20
164.931507
 30
0.0
  0
VERTEX
  5
9B0
100
AcDbEntity
  8
ALPHA
  6
CONTINUOUS
 62
     7
100
AcDbVertex
100
AcDb2dVertex
 10
7.770231
 20
164.850212
 30
0.0
  0
VERTEX
  5
9B1
100
AcDbEntity
  8
ALPHA
  6
CONTINUOUS
 62
     7
100
AcDbVertex
100
AcDb2dVertex
 10
7.766024
 20
164.778438
 30
0.0
  0
VERTEX
  5
9B2
100
AcDbEntity
  8
ALPHA
  6
CONTINUOUS
 62
     7
100
AcDbVertex
100
AcDb2dVertex
 10
7.760778
 20
164.716476
 30
0.0
  0
VERTEX
  5
9B3
100
AcDbEntity
  8
ALPHA
  6
CONTINUOUS
 62
     7
100
AcDbVertex
100
AcDb2dVertex
 10
7.754471
 20
164.663727
 30
0.0
  0
VERTEX
  5
9B4
100
AcDbEntity
  8
ALPHA
  6
CONTINUOUS
 62
     7
100
AcDbVertex
100
AcDb2dVertex
 10
7.747124
 20
164.622516
 30
0.0
  0
VERTEX
  5
9B5
100
AcDbEntity
  8
ALPHA
  6
CONTINUOUS
 62
     7
100
AcDbVertex
100
AcDb2dVertex
 10
7.73906
 20
164.597295
 30
0.0
  0
SEQEND
  5
9B6
100
AcDbEntity
  8
ALPHA
 62
     7
  0
LINE
  5
9B7
100
AcDbEntity
  8
ALPHA
  6
CONTINUOUS
 62
     7
100
AcDbLine
 10
4.999473
 20
172.783383
 30
0.0
 11
7.979392
 21
172.783383
 31
0.0
  0
LINE
  5
9B8
100
AcDbEntity
  8
ALPHA
  6
CONTINUOUS
 62
     7
100
AcDbLine
 10
5.219005
 20
172.683383
 30
0.0
 11
7.774263
 21
172.683383
 31
0.0
  0
LINE
  5
9B9
100
AcDbEntity
  8
ALPHA
  6
CONTINUOUS
 62
     7
100
AcDbLine
 10
5.023395
 20
172.483383
 30
0.0
 11
6.70445
 21
172.483383
 31
0.0
  0
LINE
  5
9BA
100
AcDbEntity
  8
ALPHA
  6
CONTINUOUS
 62
     7
100
AcDbLine
 10
5.066499
 20
172.531957
 30
0.0
 11
5.219005
 21
172.683383
 31
0.0
  0
LINE
  5
9BB
100
AcDbEntity
  8
ALPHA
  6
CONTINUOUS
 62
     7
100
AcDbLine
 10
5.023395
 20
172.483383
 30
0.0
 11
5.066499
 21
172.531957
 31
0.0
  0
POLYLINE
  5
9BC
100
AcDbEntity
  8
ALPHA
  6
CONTINUOUS
 62
     7
100
AcDb2dPolyline
 66
     1
 10
0.0
 20
0.0
 30
0.0
  0
VERTEX
  5
9BD
100
AcDbEntity
  8
ALPHA
  6
CONTINUOUS
 62
     7
100
AcDbVertex
100
AcDb2dVertex
 10
6.70445
 20
172.483383
 30
0.0
  0
VERTEX
  5
9BE
100
AcDbEntity
  8
ALPHA
  6
CONTINUOUS
 62
     7
100
AcDbVertex
100
AcDb2dVertex
 10
6.719809
 20
172.48752
 30
0.0
  0
VERTEX
  5
9BF
100
AcDbEntity
  8
ALPHA
  6
CONTINUOUS
 62
     7
100
AcDbVertex
100
AcDb2dVertex
 10
6.742745
 20
172.499662
 30
0.0
  0
VERTEX
  5
9C0
100
AcDbEntity
  8
ALPHA
  6
CONTINUOUS
 62
     7
100
AcDbVertex
100
AcDb2dVertex
 10
6.772031
 20
172.518913
 30
0.0
  0
VERTEX
  5
9C1
100
AcDbEntity
  8
ALPHA
  6
CONTINUOUS
 62
     7
100
AcDbVertex
100
AcDb2dVertex
 10
6.806308
 20
172.544097
 30
0.0
  0
VERTEX
  5
9C2
100
AcDbEntity
  8
ALPHA
  6
CONTINUOUS
 62
     7
100
AcDbVertex
100
AcDb2dVertex
 10
6.844186
 20
172.573923
 30
0.0
  0
VERTEX
  5
9C3
100
AcDbEntity
  8
ALPHA
  6
CONTINUOUS
 62
     7
100
AcDbVertex
100
AcDb2dVertex
 10
6.884819
 20
172.607505
 30
0.0
  0
VERTEX
  5
9C4
100
AcDbEntity
  8
ALPHA
  6
CONTINUOUS
 62
     7
100
AcDbVertex
100
AcDb2dVertex
 10
6.927536
 20
172.644132
 30
0.0
  0
VERTEX
  5
9C5
100
AcDbEntity
  8
ALPHA
  6
CONTINUOUS
 62
     7
100
AcDbVertex
100
AcDb2dVertex
 10
6.971975
 20
172.683383
 30
0.0
  0
SEQEND
  5
9C6
100
AcDbEntity
  8
ALPHA
 62
     7
  0
LINE
  5
9C7
100
AcDbEntity
  8
ALPHA
  6
CONTINUOUS
 62
     7
100
AcDbLine
 10
6.006545
 20
172.783383
 30
0.0
 11
6.006545
 21
172.683383
 31
0.0
  0
LINE
  5
9C8
100
AcDbEntity
  8
ALPHA
  6
CONTINUOUS
 62
     7
100
AcDbLine
 10
27.118064
 20
190.833383
 30
0.0
 11
11.902192
 21
190.833383
 31
0.0
  0
LINE
  5
9C9
100
AcDbEntity
  8
ALPHA
  6
CONTINUOUS
 62
     9
100
AcDbLine
 10
27.745762
 20
190.183383
 30
0.0
 11
12.252192
 21
190.183383
 31
0.0
  0
LINE
  5
9CA
100
AcDbEntity
  8
ALPHA
  6
CONTINUOUS
 62
     7
100
AcDbLine
 10
3.902193
 20
179.333383
 30
0.0
 11
11.602192
 21
179.333383
 31
0.0
  0
LINE
  5
9CB
100
AcDbEntity
  8
ALPHA
  6
CONTINUOUS
 62
     9
100
AcDbLine
 10
7.339817
 20
178.683383
 30
0.0
 11
12.252192
 21
178.683383
 31
0.0
  0
LINE
  5
9CC
100
AcDbEntity
  8
ALPHA
  6
CONTINUOUS
 62
     9
100
AcDbLine
 10
3.602192
 20
179.033383
 30
0.0
 11
6.699885
 21
179.033383
 31
0.0
  0
ARC
  5
9CD
100
AcDbEntity
  8
ALPHA
  6
CONTINUOUS
 62
     7
100
AcDbCircle
 10
3.902192
 20
179.033383
 30
0.0
 40
0.3
100
AcDbArc
 50
90.0
 51
180.0
  0
LINE
  5
9CE
100
AcDbEntity
  8
ALPHA
  6
CONTINUOUS
 62
     7
100
AcDbLine
 10
7.339817
 20
178.683383
 30
0.0
 11
6.808444
 21
179.214755
 31
0.0
  0
POLYLINE
  5
9CF
100
AcDbEntity
  8
ALPHA
  6
CONTINUOUS
 62
     7
100
AcDb2dPolyline
 66
     1
 10
0.0
 20
0.0
 30
0.0
  0
VERTEX
  5
9D0
100
AcDbEntity
  8
ALPHA
  6
CONTINUOUS
 62
     7
100
AcDbVertex
100
AcDb2dVertex
 10
6.808444
 20
179.214755
 30
0.0
  0
VERTEX
  5
9D1
100
AcDbEntity
  8
ALPHA
  6
CONTINUOUS
 62
     7
100
AcDbVertex
100
AcDb2dVertex
 10
6.758813
 20
179.157359
 30
0.0
  0
VERTEX
  5
9D2
100
AcDbEntity
  8
ALPHA
  6
CONTINUOUS
 62
     7
100
AcDbVertex
100
AcDb2dVertex
 10
6.722753
 20
179.096229
 30
0.0
  0
VERTEX
  5
9D3
100
AcDbEntity
  8
ALPHA
  6
CONTINUOUS
 62
     7
100
AcDbVertex
100
AcDb2dVertex
 10
6.699885
 20
179.033383
 30
0.0
  0
SEQEND
  5
9D4
100
AcDbEntity
  8
ALPHA
 62
     7
  0
POLYLINE
  5
9D5
100
AcDbEntity
  8
ALPHA
  6
CONTINUOUS
 62
     7
100
AcDb2dPolyline
 66
     1
 10
0.0
 20
0.0
 30
0.0
  0
VERTEX
  5
9D6
100
AcDbEntity
  8
ALPHA
  6
CONTINUOUS
 62
     7
100
AcDbVertex
100
AcDb2dVertex
 10
6.808444
 20
179.214755
 30
0.0
  0
VERTEX
  5
9D7
100
AcDbEntity
  8
ALPHA
  6
CONTINUOUS
 62
     7
100
AcDbVertex
100
AcDb2dVertex
 10
6.858148
 20
179.281257
 30
0.0
  0
VERTEX
  5
9D8
100
AcDbEntity
  8
ALPHA
  6
CONTINUOUS
 62
     7
100
AcDbVertex
100
AcDb2dVertex
 10
6.918811
 20
179.320459
 30
0.0
  0
VERTEX
  5
9D9
100
AcDbEntity
  8
ALPHA
  6
CONTINUOUS
 62
     7
100
AcDbVertex
100
AcDb2dVertex
 10
6.984321
 20
179.333383
 30
0.0
  0
SEQEND
  5
9DA
100
AcDbEntity
  8
ALPHA
 62
     7
  0
LINE
  5
9DB
100
AcDbEntity
  8
ALPHA
  6
CONTINUOUS
 62
     9
100
AcDbLine
 10
12.252192
 20
190.183383
 30
0.0
 11
12.252192
 21
178.683383
 31
0.0
  0
LINE
  5
9DC
100
AcDbEntity
  8
ALPHA
  6
CONTINUOUS
 62
     7
100
AcDbLine
 10
11.602192
 20
190.533383
 30
0.0
 11
11.602192
 21
179.333383
 31
0.0
  0
LINE
  5
9DD
100
AcDbEntity
  8
ALPHA
  6
CONTINUOUS
 62
     7
100
AcDbLine
 10
11.602192
 20
179.333383
 30
0.0
 11
12.252192
 21
178.683383
 31
0.0
  0
ARC
  5
9DE
100
AcDbEntity
  8
ALPHA
  6
CONTINUOUS
 62
     7
100
AcDbCircle
 10
11.902192
 20
190.533383
 30
0.0
 40
0.3
100
AcDbArc
 50
90.0
 51
180.0
  0
LINE
  5
9DF
100
AcDbEntity
  8
ALPHA
  6
CONTINUOUS
 62
     7
100
AcDbLine
 10
12.252192
 20
190.183383
 30
0.0
 11
11.69006
 21
190.745515
 31
0.0
  0
LINE
  5
9E0
100
AcDbEntity
  8
ALPHA
  6
CONTINUOUS
 62
     9
100
AcDbLine
 10
28.12989
 20
201.183383
 30
0.0
 11
27.745762
 21
190.183383
 31
0.0
  0
LINE
  5
9E1
100
AcDbEntity
  8
ALPHA
  6
CONTINUOUS
 62
     7
100
AcDbLine
 10
27.492082
 20
201.543853
 30
0.0
 11
27.118064
 21
190.833383
 31
0.0
  0
LINE
  5
9E2
100
AcDbEntity
  8
ALPHA
  6
CONTINUOUS
 62
     7
100
AcDbLine
 10
27.745762
 20
190.183383
 30
0.0
 11
27.118064
 21
190.833383
 31
0.0
  0
ARC
  5
9E3
100
AcDbEntity
  8
ALPHA
  6
CONTINUOUS
 62
     7
100
AcDbCircle
 10
27.791899
 20
201.533383
 30
0.0
 40
0.3
100
AcDbArc
 50
90.0
 51
178.0
  0
LINE
  5
9E4
100
AcDbEntity
  8
ALPHA
  6
CONTINUOUS
 62
     7
100
AcDbLine
 10
27.583502
 20
201.749185
 30
0.0
 11
28.12989
 21
201.183383
 31
0.0
  0
LINE
  5
9E5
100
AcDbEntity
  8
ALPHA
  6
CONTINUOUS
 62
     7
100
AcDbLine
 10
55.502192
 20
135.833383
 30
0.0
 11
55.502192
 21
177.833383
 31
0.0
  0
LINE
  5
9E6
100
AcDbEntity
  8
ALPHA
  6
CONTINUOUS
 62
     7
100
AcDbLine
 10
55.002192
 20
177.588087
 30
0.0
 11
55.002192
 21
136.078679
 31
0.0
  0
LINE
  5
9E7
100
AcDbEntity
  8
ALPHA
  6
CONTINUOUS
 62
     7
100
AcDbLine
 10
52.002192
 20
148.333383
 30
0.0
 11
52.002192
 21
140.833383
 31
0.0
  0
LINE
  5
9E8
100
AcDbEntity
  8
ALPHA
  6
CONTINUOUS
 62
     7
100
AcDbLine
 10
51.952192
 20
148.083383
 30
0.0
 11
51.952192
 21
141.083383
 31
0.0
  0
LINE
  5
9E9
100
AcDbEntity
  8
ALPHA
  6
CONTINUOUS
 62
     7
100
AcDbLine
 10
50.837833
 20
141.083383
 30
0.0
 11
50.837833
 21
148.083383
 31
0.0
  0
LINE
  5
9EA
100
AcDbEntity
  8
ALPHA
  6
CONTINUOUS
 62
     7
100
AcDbLine
 10
49.452192
 20
141.083383
 30
0.0
 11
49.452192
 21
148.083383
 31
0.0
  0
LINE
  5
9EB
100
AcDbEntity
  8
ALPHA
  6
CONTINUOUS
 62
     7
100
AcDbLine
 10
49.202192
 20
140.833383
 30
0.0
 11
49.202192
 21
148.333383
 31
0.0
  0
LINE
  5
9EC
100
AcDbEntity
  8
ALPHA
  6
CONTINUOUS
 62
     7
100
AcDbLine
 10
60.502192
 20
111.833383
 30
0.0
 11
60.502192
 21
103.233383
 31
0.0
  0
LINE
  5
9ED
100
AcDbEntity
  8
ALPHA
  6
CONTINUOUS
 62
     9
100
AcDbLine
 10
60.302192
 20
111.833383
 30
0.0
 11
60.302192
 21
103.033383
 31
0.0
  0
LINE
  5
9EE
100
AcDbEntity
  8
ALPHA
  6
CONTINUOUS
 62
     7
100
AcDbLine
 10
58.852192
 20
107.154599
 30
0.0
 11
58.852192
 21
111.833383
 31
0.0
  0
LINE
  5
9EF
100
AcDbEntity
  8
ALPHA
  6
CONTINUOUS
 62
     9
100
AcDbLine
 10
58.652192
 20
107.189864
 30
0.0
 11
58.652192
 21
111.833383
 31
0.0
  0
LINE
  5
9F0
100
AcDbEntity
  8
ALPHA
  6
CONTINUOUS
 62
     9
100
AcDbLine
 10
56.002192
 20
103.033383
 30
0.0
 11
56.002192
 21
111.833383
 31
0.0
  0
LINE
  5
9F1
100
AcDbEntity
  8
ALPHA
  6
CONTINUOUS
 62
     7
100
AcDbLine
 10
55.502192
 20
103.533383
 30
0.0
 11
55.502192
 21
111.833383
 31
0.0
  0
LINE
  5
9F2
100
AcDbEntity
  8
ALPHA
  6
CONTINUOUS
 62
     7
100
AcDbLine
 10
57.40009
 20
103.164979
 30
0.0
 11
58.852192
 21
107.154599
 31
0.0
  0
LINE
  5
9F3
100
AcDbEntity
  8
ALPHA
  6
CONTINUOUS
 62
     9
100
AcDbLine
 10
57.867297
 20
105.033383
 30
0.0
 11
58.652192
 21
107.189864
 31
0.0
  0
LINE
  5
9F4
100
AcDbEntity
  8
ALPHA
  6
CONTINUOUS
 62
     9
100
AcDbLine
 10
58.080133
 20
105.033383
 30
0.0
 11
60.502192
 21
105.033383
 31
0.0
  0
LINE
  5
9F5
100
AcDbEntity
  8
ALPHA
  6
CONTINUOUS
 62
     7
100
AcDbLine
 10
60.302192
 20
103.033383
 30
0.0
 11
56.002192
 21
103.033383
 31
0.0
  0
ARC
  5
9F6
100
AcDbEntity
  8
ALPHA
  6
CONTINUOUS
 62
     7
100
AcDbCircle
 10
56.002192
 20
103.533383
 30
0.0
 40
0.5
100
AcDbArc
 50
180.0
 51
270.0
  0
ARC
  5
9F7
100
AcDbEntity
  8
ALPHA
  6
CONTINUOUS
 62
     7
100
AcDbCircle
 10
57.212151
 20
103.233383
 30
0.0
 40
0.2
100
AcDbArc
 50
269.999956
 51
339.999871
  0
LINE
  5
9F8
100
AcDbEntity
  8
ALPHA
  6
CONTINUOUS
 62
     9
100
AcDbLine
 10
57.212151
 20
103.033383
 30
0.0
 11
57.867297
 21
105.033383
 31
0.0
  0
LINE
  5
9F9
100
AcDbEntity
  8
ALPHA
  6
CONTINUOUS
 62
     9
100
AcDbLine
 10
57.867297
 20
105.033383
 30
0.0
 11
58.055236
 21
104.964979
 31
0.0
  0
LINE
  5
9FA
100
AcDbEntity
  8
ALPHA
  6
CONTINUOUS
 62
     9
100
AcDbLine
 10
55.502192
 20
105.033383
 30
0.0
 11
57.867297
 21
105.033383
 31
0.0
  0
ARC
  5
9FB
100
AcDbEntity
  8
ALPHA
  6
CONTINUOUS
 62
     7
100
AcDbCircle
 10
60.302192
 20
103.233383
 30
0.0
 40
0.2
100
AcDbArc
 50
270.0
 51
0.0
  0
LINE
  5
9FC
100
AcDbEntity
  8
ALPHA
  6
CONTINUOUS
 62
     7
100
AcDbLine
 10
58.652192
 20
107.189864
 30
0.0
 11
58.852192
 21
107.154599
 31
0.0
  0
LINE
  5
9FD
100
AcDbEntity
  8
ALPHA
  6
CONTINUOUS
 62
     7
100
AcDbLine
 10
61.002192
 20
111.833383
 30
0.0
 11
61.002192
 21
138.229535
 31
0.0
  0
LINE
  5
9FE
100
AcDbEntity
  8
ALPHA
  6
CONTINUOUS
 62
     7
100
AcDbLine
 10
48.502192
 20
111.833383
 30
0.0
 11
48.502192
 21
134.088087
 31
0.0
  0
LINE
  5
9FF
100
AcDbEntity
  8
ALPHA
  6
CONTINUOUS
 62
     7
100
AcDbLine
 10
48.002192
 20
111.833383
 30
0.0
 11
48.002192
 21
134.333383
 31
0.0
  0
LINE
  5
A00
100
AcDbEntity
  8
ALPHA
  6
CONTINUOUS
 62
     9
100
AcDbLine
 10
48.502192
 20
112.633383
 30
0.0
 11
61.002192
 21
112.633383
 31
0.0
  0
LINE
  5
A01
100
AcDbEntity
  8
ALPHA
  6
CONTINUOUS
 62
     7
100
AcDbLine
 10
48.502192
 20
111.833383
 30
0.0
 11
61.002192
 21
111.833383
 31
0.0
  0
LINE
  5
A02
100
AcDbEntity
  8
ALPHA
  6
CONTINUOUS
 62
     7
100
AcDbLine
 10
48.502192
 20
112.633383
 30
0.0
 11
48.002192
 21
112.633383
 31
0.0
  0
LINE
  5
A03
100
AcDbEntity
  8
ALPHA
  6
CONTINUOUS
 62
     7
100
AcDbLine
 10
55.002192
 20
139.033383
 30
0.0
 11
58.002192
 21
139.033383
 31
0.0
  0
LINE
  5
A04
100
AcDbEntity
  8
ALPHA
  6
CONTINUOUS
 62
     7
100
AcDbLine
 10
48.502192
 20
134.088087
 30
0.0
 11
55.502192
 21
135.833383
 31
0.0
  0
LINE
  5
A05
100
AcDbEntity
  8
ALPHA
  6
CONTINUOUS
 62
     7
100
AcDbLine
 10
55.002192
 20
136.078679
 30
0.0
 11
48.002192
 21
134.333383
 31
0.0
  0
LINE
  5
A06
100
AcDbEntity
  8
ALPHA
  6
CONTINUOUS
 62
     7
100
AcDbLine
 10
52.002192
 20
140.833383
 30
0.0
 11
49.202192
 21
140.833383
 31
0.0
  0
LINE
  5
A07
100
AcDbEntity
  8
ALPHA
  6
CONTINUOUS
 62
     9
100
AcDbLine
 10
54.902192
 20
136.053746
 30
0.0
 11
54.902192
 21
135.683786
 31
0.0
  0
LINE
  5
A08
100
AcDbEntity
  8
ALPHA
  6
CONTINUOUS
 62
     7
100
AcDbLine
 10
51.952192
 20
141.083383
 30
0.0
 11
49.452192
 21
141.083383
 31
0.0
  0
CIRCLE
  5
A09
100
AcDbEntity
  8
ALPHA
  6
CONTINUOUS
 62
     7
100
AcDbCircle
 10
58.002192
 20
134.333383
 30
0.0
 40
2.15
  0
CIRCLE
  5
A0A
100
AcDbEntity
  8
ALPHA
  6
CONTINUOUS
 62
     7
100
AcDbCircle
 10
58.002192
 20
134.333383
 30
0.0
 40
1.75
  0
LINE
  5
A0B
100
AcDbEntity
  8
ALPHA
  6
CONTINUOUS
 62
     7
100
AcDbLine
 10
57.902192
 20
140.741673
 30
0.0
 11
57.902192
 21
139.033383
 31
0.0
  0
LINE
  5
A0C
100
AcDbEntity
  8
ALPHA
  6
CONTINUOUS
 62
     7
100
AcDbLine
 10
56.502192
 20
139.933383
 30
0.0
 11
56.502192
 21
139.333383
 31
0.0
  0
LINE
  5
A0D
100
AcDbEntity
  8
ALPHA
  6
CONTINUOUS
 62
     7
100
AcDbLine
 10
60.502192
 20
139.240562
 30
0.0
 11
56.877321
 21
141.333383
 31
0.0
  0
LINE
  5
A0E
100
AcDbEntity
  8
ALPHA
  6
CONTINUOUS
 62
     7
100
AcDbLine
 10
61.002192
 20
138.229535
 30
0.0
 11
58.002192
 21
139.033383
 31
0.0
  0
LINE
  5
A0F
100
AcDbEntity
  8
ALPHA
  6
CONTINUOUS
 62
     7
100
AcDbLine
 10
55.502192
 20
139.333383
 30
0.0
 11
56.502192
 21
139.333383
 31
0.0
  0
LINE
  5
A10
100
AcDbEntity
  8
ALPHA
  6
CONTINUOUS
 62
     7
100
AcDbLine
 10
60.502192
 20
139.240562
 30
0.0
 11
60.502192
 21
138.36351
 31
0.0
  0
LINE
  5
A11
100
AcDbEntity
  8
ALPHA
  6
CONTINUOUS
 62
     7
100
AcDbLine
 10
56.877321
 20
141.333383
 30
0.0
 11
56.502192
 21
139.933383
 31
0.0
  0
LINE
  5
A12
100
AcDbEntity
  8
ALPHA
  6
CONTINUOUS
 62
     7
100
AcDbLine
 10
58.852192
 20
206.512167
 30
0.0
 11
57.40009
 21
210.501787
 31
0.0
  0
LINE
  5
A13
100
AcDbEntity
  8
ALPHA
  6
CONTINUOUS
 62
     9
100
AcDbLine
 10
57.867297
 20
208.633383
 30
0.0
 11
57.212151
 21
210.633383
 31
0.0
  0
LINE
  5
A14
100
AcDbEntity
  8
ALPHA
  6
CONTINUOUS
 62
     7
100
AcDbLine
 10
60.502192
 20
210.433383
 30
0.0
 11
60.502192
 21
201.833383
 31
0.0
  0
LINE
  5
A15
100
AcDbEntity
  8
ALPHA
  6
CONTINUOUS
 62
     9
100
AcDbLine
 10
60.302192
 20
210.633383
 30
0.0
 11
60.302192
 21
201.833383
 31
0.0
  0
LINE
  5
A16
100
AcDbEntity
  8
ALPHA
  6
CONTINUOUS
 62
     9
100
AcDbLine
 10
56.002192
 20
201.833383
 30
0.0
 11
56.002192
 21
210.633383
 31
0.0
  0
LINE
  5
A17
100
AcDbEntity
  8
ALPHA
  6
CONTINUOUS
 62
     7
100
AcDbLine
 10
55.502192
 20
201.833383
 30
0.0
 11
55.502192
 21
210.133383
 31
0.0
  0
CIRCLE
  5
A18
100
AcDbEntity
  8
ALPHA
  6
CONTINUOUS
 62
     7
100
AcDbCircle
 10
58.002192
 20
177.333383
 30
0.0
 40
2.15
  0
CIRCLE
  5
A19
100
AcDbEntity
  8
ALPHA
  6
CONTINUOUS
 62
     7
100
AcDbCircle
 10
58.002192
 20
177.333383
 30
0.0
 40
1.75
  0
LINE
  5
A1A
100
AcDbEntity
  8
ALPHA
  6
CONTINUOUS
 62
     7
100
AcDbLine
 10
61.002192
 20
201.833383
 30
0.0
 11
61.002192
 21
170.833383
 31
0.0
  0
LINE
  5
A1B
100
AcDbEntity
  8
ALPHA
  6
CONTINUOUS
 62
     7
100
AcDbLine
 10
49.202192
 20
148.333383
 30
0.0
 11
52.002192
 21
148.333383
 31
0.0
  0
LINE
  5
A1C
100
AcDbEntity
  8
ALPHA
  6
CONTINUOUS
 62
     7
100
AcDbLine
 10
49.452192
 20
148.083383
 30
0.0
 11
51.952192
 21
148.083383
 31
0.0
  0
LINE
  5
A1D
100
AcDbEntity
  8
ALPHA
  6
CONTINUOUS
 62
     7
100
AcDbLine
 10
55.002192
 20
174.533383
 30
0.0
 11
58.002192
 21
174.533383
 31
0.0
  0
LINE
  5
A1E
100
AcDbEntity
  8
ALPHA
  6
CONTINUOUS
 62
     7
100
AcDbLine
 10
52.002192
 20
172.833383
 30
0.0
 11
52.002192
 21
165.333383
 31
0.0
  0
LINE
  5
A1F
100
AcDbEntity
  8
ALPHA
  6
CONTINUOUS
 62
     7
100
AcDbLine
 10
51.952192
 20
165.583383
 30
0.0
 11
51.952192
 21
172.583383
 31
0.0
  0
LINE
  5
A20
100
AcDbEntity
  8
ALPHA
  6
CONTINUOUS
 62
     7
100
AcDbLine
 10
50.837833
 20
172.583383
 30
0.0
 11
50.837833
 21
165.583383
 31
0.0
  0
LINE
  5
A21
100
AcDbEntity
  8
ALPHA
  6
CONTINUOUS
 62
     7
100
AcDbLine
 10
49.452192
 20
172.583383
 30
0.0
 11
49.452192
 21
165.583383
 31
0.0
  0
LINE
  5
A22
100
AcDbEntity
  8
ALPHA
  6
CONTINUOUS
 62
     7
100
AcDbLine
 10
49.202192
 20
165.333383
 30
0.0
 11
49.202192
 21
172.833383
 31
0.0
  0
LINE
  5
A23
100
AcDbEntity
  8
ALPHA
  6
CONTINUOUS
 62
     7
100
AcDbLine
 10
52.002192
 20
165.333383
 30
0.0
 11
49.202192
 21
165.333383
 31
0.0
  0
LINE
  5
A24
100
AcDbEntity
  8
ALPHA
  6
CONTINUOUS
 62
     7
100
AcDbLine
 10
49.452192
 20
165.583383
 30
0.0
 11
51.952192
 21
165.583383
 31
0.0
  0
LINE
  5
A25
100
AcDbEntity
  8
ALPHA
  6
CONTINUOUS
 62
     7
100
AcDbLine
 10
49.202192
 20
172.833383
 30
0.0
 11
52.002192
 21
172.833383
 31
0.0
  0
LINE
  5
A26
100
AcDbEntity
  8
ALPHA
  6
CONTINUOUS
 62
     7
100
AcDbLine
 10
51.952192
 20
172.583383
 30
0.0
 11
49.452192
 21
172.583383
 31
0.0
  0
LINE
  5
A27
100
AcDbEntity
  8
ALPHA
  6
CONTINUOUS
 62
     7
100
AcDbLine
 10
56.702192
 20
174.333383
 30
0.0
 11
59.152919
 21
170.833383
 31
0.0
  0
LINE
  5
A28
100
AcDbEntity
  8
ALPHA
  6
CONTINUOUS
 62
     7
100
AcDbLine
 10
56.002192
 20
173.833383
 30
0.0
 11
56.002192
 21
171.333383
 31
0.0
  0
LINE
  5
A29
100
AcDbEntity
  8
ALPHA
  6
CONTINUOUS
 62
     7
100
AcDbLine
 10
56.002192
 20
171.333383
 30
0.0
 11
55.502192
 21
170.833383
 31
0.0
  0
LINE
  5
A2A
100
AcDbEntity
  8
ALPHA
  6
CONTINUOUS
 62
     7
100
AcDbLine
 10
59.152919
 20
170.833383
 30
0.0
 11
61.002192
 21
170.833383
 31
0.0
  0
LINE
  5
A2B
100
AcDbEntity
  8
ALPHA
  6
CONTINUOUS
 62
     7
100
AcDbLine
 10
61.002192
 20
175.625293
 30
0.0
 11
58.002192
 21
174.533383
 31
0.0
  0
LINE
  5
A2C
100
AcDbEntity
  8
ALPHA
  6
CONTINUOUS
 62
     7
100
AcDbLine
 10
56.002192
 20
173.833383
 30
0.0
 11
55.502192
 21
174.333383
 31
0.0
  0
LINE
  5
A2D
100
AcDbEntity
  8
ALPHA
  6
CONTINUOUS
 62
     7
100
AcDbLine
 10
55.502192
 20
174.333383
 30
0.0
 11
56.702192
 21
174.333383
 31
0.0
  0
LINE
  5
A2E
100
AcDbEntity
  8
ALPHA
  6
CONTINUOUS
 62
     7
100
AcDbLine
 10
54.502192
 20
178.082711
 30
0.0
 11
54.502192
 21
201.833383
 31
0.0
  0
LINE
  5
A2F
100
AcDbEntity
  8
ALPHA
  6
CONTINUOUS
 62
     7
100
AcDbLine
 10
54.202192
 20
201.833383
 30
0.0
 11
54.202192
 21
177.787549
 31
0.0
  0
LINE
  5
A30
100
AcDbEntity
  8
ALPHA
  6
CONTINUOUS
 62
     7
100
AcDbLine
 10
55.502192
 20
177.833383
 30
0.0
 11
54.502192
 21
178.082711
 31
0.0
  0
LINE
  5
A31
100
AcDbEntity
  8
ALPHA
  6
CONTINUOUS
 62
     7
100
AcDbLine
 10
54.202192
 20
177.787549
 30
0.0
 11
55.002192
 21
177.588087
 31
0.0
  0
LINE
  5
A32
100
AcDbEntity
  8
ALPHA
  6
CONTINUOUS
 62
     9
100
AcDbLine
 10
54.902192
 20
177.98298
 30
0.0
 11
54.902192
 21
177.613019
 31
0.0
  0
CIRCLE
  5
A33
100
AcDbEntity
  8
ALPHA
  6
CONTINUOUS
 62
     7
100
AcDbCircle
 10
58.002192
 20
186.833383
 30
0.0
 40
1.8
  0
CIRCLE
  5
A34
100
AcDbEntity
  8
ALPHA
  6
CONTINUOUS
 62
     7
100
AcDbCircle
 10
58.002192
 20
186.833383
 30
0.0
 40
1.3
  0
LINE
  5
A35
100
AcDbEntity
  8
ALPHA
  6
CONTINUOUS
 62
     7
100
AcDbLine
 10
56.952192
 20
187.556924
 30
0.0
 11
56.952192
 21
186.109842
 31
0.0
  0
LINE
  5
A36
100
AcDbEntity
  8
ALPHA
  6
CONTINUOUS
 62
     9
100
AcDbLine
 10
61.002192
 20
201.033383
 30
0.0
 11
54.502192
 21
201.033383
 31
0.0
  0
CIRCLE
  5
A37
100
AcDbEntity
  8
ALPHA
  6
CONTINUOUS
 62
     7
100
AcDbCircle
 10
58.002192
 20
194.833383
 30
0.0
 40
1.8
  0
CIRCLE
  5
A38
100
AcDbEntity
  8
ALPHA
  6
CONTINUOUS
 62
     7
100
AcDbCircle
 10
58.002192
 20
194.833383
 30
0.0
 40
1.3
  0
LINE
  5
A39
100
AcDbEntity
  8
ALPHA
  6
CONTINUOUS
 62
     7
100
AcDbLine
 10
57.203821
 20
195.833383
 30
0.0
 11
58.800564
 21
195.833383
 31
0.0
  0
LINE
  5
A3A
100
AcDbEntity
  8
ALPHA
  6
CONTINUOUS
 62
     9
100
AcDbLine
 10
56.952192
 20
195.433383
 30
0.0
 11
59.13474
 21
195.433383
 31
0.0
  0
LINE
  5
A3B
100
AcDbEntity
  8
ALPHA
  6
CONTINUOUS
 62
     7
100
AcDbLine
 10
56.952192
 20
195.556924
 30
0.0
 11
56.952192
 21
194.109842
 31
0.0
  0
LINE
  5
A3C
100
AcDbEntity
  8
ALPHA
  6
CONTINUOUS
 62
     7
100
AcDbLine
 10
58.852192
 20
201.833383
 30
0.0
 11
58.852192
 21
206.512167
 31
0.0
  0
LINE
  5
A3D
100
AcDbEntity
  8
ALPHA
  6
CONTINUOUS
 62
     9
100
AcDbLine
 10
58.652192
 20
201.833383
 30
0.0
 11
58.652192
 21
206.476901
 31
0.0
  0
LINE
  5
A3E
100
AcDbEntity
  8
ALPHA
  6
CONTINUOUS
 62
     9
100
AcDbLine
 10
60.502192
 20
208.633383
 30
0.0
 11
58.080133
 21
208.633383
 31
0.0
  0
LINE
  5
A3F
100
AcDbEntity
  8
ALPHA
  6
CONTINUOUS
 62
     9
100
AcDbLine
 10
58.652192
 20
206.476901
 30
0.0
 11
57.867297
 21
208.633383
 31
0.0
  0
LINE
  5
A40
100
AcDbEntity
  8
ALPHA
  6
CONTINUOUS
 62
     9
100
AcDbLine
 10
55.502192
 20
208.633383
 30
0.0
 11
57.867297
 21
208.633383
 31
0.0
  0
LINE
  5
A41
100
AcDbEntity
  8
ALPHA
  6
CONTINUOUS
 62
     9
100
AcDbLine
 10
57.867297
 20
208.633383
 30
0.0
 11
58.055236
 21
208.701787
 31
0.0
  0
LINE
  5
A42
100
AcDbEntity
  8
ALPHA
  6
CONTINUOUS
 62
     7
100
AcDbLine
 10
58.652192
 20
206.476901
 30
0.0
 11
58.852192
 21
206.512167
 31
0.0
  0
LINE
  5
A43
100
AcDbEntity
  8
ALPHA
  6
CONTINUOUS
 62
     7
100
AcDbLine
 10
56.002192
 20
210.633383
 30
0.0
 11
60.302192
 21
210.633383
 31
0.0
  0
ARC
  5
A44
100
AcDbEntity
  8
ALPHA
  6
CONTINUOUS
 62
     7
100
AcDbCircle
 10
56.002192
 20
210.133383
 30
0.0
 40
0.5
100
AcDbArc
 50
90.0
 51
180.0
  0
ARC
  5
A45
100
AcDbEntity
  8
ALPHA
  6
CONTINUOUS
 62
     7
100
AcDbCircle
 10
57.212151
 20
210.433383
 30
0.0
 40
0.2
100
AcDbArc
 50
20.0
 51
90.0
  0
ARC
  5
A46
100
AcDbEntity
  8
ALPHA
  6
CONTINUOUS
 62
     7
100
AcDbCircle
 10
60.302192
 20
210.433383
 30
0.0
 40
0.2
100
AcDbArc
 50
0.0
 51
90.0
  0
ENDSEC
  0
SECTION
  2
OBJECTS
  0
DICTIONARY
  5
F8
100
AcDbDictionary
  3
ACAD_GROUP
350
F9
  3
ACAD_MLINESTYLE
350
106
  3
ACDBVARIABLEDICTIONARY
350
143
  0
DICTIONARY
  5
F9
102
{ACAD_REACTORS
330
F8
102
}
100
AcDbDictionary
  0
DICTIONARY
  5
106
102
{ACAD_REACTORS
330
F8
102
}
100
AcDbDictionary
  3
STANDARD
350
107
  0
DICTIONARY
  5
143
102
{ACAD_REACTORS
330
F8
102
}
100
AcDbDictionary
  3
DIMADEC
350
144
  0
MLINESTYLE
  5
107
102
{ACAD_REACTORS
330
106
102
}
100
AcDbMlineStyle
  2
STANDARD
 70
     0
  3

 62
   256
 51
90.0
 52
90.0
 71
     2
 49
0.5
 62
   256
  6
BYLAYER
 49
-0.5
 62
   256
  6
BYLAYER
  0
DICTIONARYVAR
  5
144
102
{ACAD_REACTORS
330
143
102
}
100
DictionaryVariables
280
     0
  1
0
  0
ENDSEC
  0
EOF
