999
DXF file: io-scheibe-zus.dxf
999
Pro/ENGINEER 2005030 by Parametric Technology Corporation
0
SECTION
2
HEADER
9
$ACADVER
1
AC1014
9
$HANDSEED
5
       2C2
9
$EXTMAX
10
210.0000000000
20
297.0000000000
9
$EXTMIN
10
0.0000000000
20
0.0000000000
9
$LIMMIN
10
0.0000000000
20
0.0000000000
9
$LIMMAX
10
210.0000000000
20
297.0000000000
9
$VIEWCTR
10
105.0000000000
20
148.5000000000
9
$VIEWSIZE
40
297.0000000000
9
$CLAYER
8
0
9
$LTSCALE
40
19.3600000000
9
$CELTYPE
6
BYLAYER
9
$DIMSCALE
40
1
9
$DIMASZ
40
3.5000000000
9
$DIMEXO
40
2.2000000000
9
$DIMDLI
40
13.3760000000
9
$DIMEXE
40
6.3360000000
9
$DIMCEN
40
3.1680000000
9
$DIMLFAC
40
1.0000000000
9
$DIMTXT
40
3.5000000000
9
$DIMTOL
70
1
9
$DIMLIM
70
0
9
$DIMTFAC
40
1.0000000000
9
$DIMTP
40
0.0050000000
9
$DIMTM
40
0.0050000000
9
$MEASUREMENT
70
1
0
ENDSEC
0
SECTION
2
CLASSES
0
ENDSEC
0
SECTION
2
TABLES
0
TABLE
2
VPORT
5
8
100
AcDbSymbolTable
70
2
0
VPORT
5
1F4
100
AcDbSymbolTableRecord
100
AcDbViewportTableRecord
2
*ACTIVE
70
0
10
0.0
20
0.0
11
1.0
21
1.0
12
105.0000000000
22
148.5000000000
13
0.0
23
0.0
14
1.0
24
1.0
15
0.0
25
0.0
16
0.0
26
0.0
36
1.0
17
0.0
27
0.0
37
0.0
40
297.0000000000
41
0.7070707071
42
50.0
43
0.0
44
0.0
50
0.0
51
0.0
71
0
72
100
73
1
74
1
75
0
76
0
77
0
78
0
0
ENDTAB
0
TABLE
2
LTYPE
5
5
100
AcDbSymbolTable
70
6
0
LTYPE
5
14
100
AcDbSymbolTableRecord
100
AcDbLinetypeTableRecord
2
BYBLOCK
70
0
3

72
65
73
0
40
0.0
0
LTYPE
5
15
100
AcDbSymbolTableRecord
100
AcDbLinetypeTableRecord
2
BYLAYER
70
0
3

72
65
73
0
40
0.0
0
LTYPE
5
16
100
AcDbSymbolTableRecord
100
AcDbLinetypeTableRecord
2
CONTINUOUS
70
64
3
Solid line
72
65
73
0
40
0
0
LTYPE
5
1F5
100
AcDbSymbolTableRecord
100
AcDbLinetypeTableRecord
2
CENTER
70
64
3
____ _ ____ _ ____ _ ____ _ ____ _ ____ _ ____
72
65
73
4
40
0.6
49
0.375
74
0
49
-0.075
74
0
49
0.075
74
0
49
-0.075
74
0
0
LTYPE
5
1F6
100
AcDbSymbolTableRecord
100
AcDbLinetypeTableRecord
2
HIDDEN
70
64
3
- - - - - - - - - - - - - - - - - - - -
72
65
73
2
40
0.2
49
0.1
74
0
49
-0.1
74
0
0
LTYPE
5
1F7
100
AcDbSymbolTableRecord
100
AcDbLinetypeTableRecord
2
PHANTOM
70
64
3
_____ _ _ _____ _ _ _____ _ _ _____
72
65
73
6
40
0.8
49
0.45
74
0
49
-0.05
74
0
49
0.1
74
0
49
-0.05
74
0
49
0.1
74
0
49
-0.05
74
0
0
LTYPE
5
1F8
100
AcDbSymbolTableRecord
100
AcDbLinetypeTableRecord
2
DOT
70
64
3
. . . . . . . . . . . . . . . . . . . .
72
65
73
2
40
0.2
49
0.1
74
0
49
-0.1
74
0
0
LTYPE
5
1F9
100
AcDbSymbolTableRecord
100
AcDbLinetypeTableRecord
2
DASHED
70
64
3
- - - - - - - - - - - - - - - - - - - -
72
65
73
2
40
0.2
49
0.1
74
0
49
-0.1
74
0
0
ENDTAB
0
TABLE
2
LAYER
5
2
100
AcDbSymbolTable
70
36
0
LAYER
5
10
100
AcDbSymbolTableRecord
100
AcDbLayerTableRecord
2
0
70
0
62
7
6
CONTINUOUS
0
LAYER
5
1FA
100
AcDbSymbolTableRecord
100
AcDbLayerTableRecord
2
DEFAULT_1
70
0
62
7
6
CENTER
0
LAYER
5
1FB
100
AcDbSymbolTableRecord
100
AcDbLayerTableRecord
2
DEFAULT_2
70
0
62
8
6
HIDDEN
0
LAYER
5
1FC
100
AcDbSymbolTableRecord
100
AcDbLayerTableRecord
2
DEFAULT_3
70
0
62
7
6
PHANTOM
0
LAYER
5
1FD
100
AcDbSymbolTableRecord
100
AcDbLayerTableRecord
2
BAUTEIL
70
0
62
7
6
CONTINUOUS
0
LAYER
5
1FE
100
AcDbSymbolTableRecord
100
AcDbLayerTableRecord
2
ELEKTRONIK-VOL
70
0
62
7
6
CONTINUOUS
0
LAYER
5
1FF
100
AcDbSymbolTableRecord
100
AcDbLayerTableRecord
2
FIXIERSTIFT-VOL
70
0
62
7
6
CONTINUOUS
0
LAYER
5
200
100
AcDbSymbolTableRecord
100
AcDbLayerTableRecord
2
HUTSCHIENE-VOL
70
0
62
7
6
CONTINUOUS
0
LAYER
5
201
100
AcDbSymbolTableRecord
100
AcDbLayerTableRecord
2
KLEMME-VOL
70
0
62
7
6
CONTINUOUS
0
LAYER
5
202
100
AcDbSymbolTableRecord
100
AcDbLayerTableRecord
2
MECHANIK-VOL
70
0
62
7
6
CONTINUOUS
0
LAYER
5
203
100
AcDbSymbolTableRecord
100
AcDbLayerTableRecord
2
STD_EBENEN
70
0
62
7
6
CONTINUOUS
0
LAYER
5
204
100
AcDbSymbolTableRecord
100
AcDbLayerTableRecord
2
STD_KOORDSYS
70
0
62
7
6
CONTINUOUS
0
LAYER
5
205
100
AcDbSymbolTableRecord
100
AcDbLayerTableRecord
2
_KOORDS
70
0
62
7
6
CONTINUOUS
0
ENDTAB
0
TABLE
2
STYLE
5
3
100
AcDbSymbolTable
70
1
0
STYLE
5
11
100
AcDbSymbolTableRecord
100
AcDbTextStyleTableRecord
2
STANDARD
70
0
40
0.0
41
0.7000000000
50
0.0
71
0
42
0.2
3
txt
4

0
ENDTAB
0
TABLE
2
VIEW
5
6
100
AcDbSymbolTable
70
0
0
ENDTAB
0
TABLE
2
UCS
5
7
100
AcDbSymbolTable
70
0
0
ENDTAB
0
TABLE
2
APPID
5
9
100
AcDbSymbolTable
70
1
0
APPID
5
206
100
AcDbSymbolTableRecord
100
AcDbRegAppTableRecord
2
ACAD
70
0
0
ENDTAB
0
TABLE
2
DIMSTYLE
5
A
100
AcDbSymbolTable
70
1
0
DIMSTYLE
105
207
100
AcDbSymbolTableRecord
100
AcDbDimStyleTableRecord
2
STANDARD
70
0
3

4

5

6

7

40
1.0
41
3.5000000000
42
0.0625
43
0.38
44
0.18
45
0.0
46
0.0
47
0.0050000000
48
0.0050000000
140
3.5000000000
141
0.09
142
0.0
143
25.4
144
1.0000000000
145
0.0
146
1.0000000000
147
0.09
71
1
72
0
73
0
74
0
75
0
76
0
77
1
78
8
170
0
171
2
172
0
173
0
174
0
175
0
176
0
177
0
178
5
270
2
271
3
272
3
273
2
274
2
340
11
275
0
280
0
281
0
282
0
283
1
284
8
285
0
286
0
287
3
288
0
0
DIMSTYLE
105
208
100
AcDbSymbolTableRecord
100
AcDbDimStyleTableRecord
2
DIMSTYLE_1
70
0
3

4

5

6

7

40
1.0
41
3.5000000000
42
0.0625
43
0.38
44
0.18
45
0.0
46
0.0
47
0.3000000000
48
0.3000000000
140
3.5000000000
141
0.09
142
0.0
143
25.4
144
1.0000000000
145
0.0
146
1.0000000000
147
0.09
71
0
72
0
73
0
74
0
75
0
76
0
77
1
78
8
170
0
171
2
172
0
173
0
174
0
175
0
176
0
177
0
178
5
270
2
271
1
272
1
273
2
274
2
340
11
275
0
280
0
281
0
282
0
283
1
284
8
285
0
286
0
287
3
288
0
0
DIMSTYLE
105
209
100
AcDbSymbolTableRecord
100
AcDbDimStyleTableRecord
2
DIMSTYLE_2
70
0
3

4

5

6

7

40
1.0
41
3.5000000000
42
0.0625
43
0.38
44
0.18
45
0.0
46
0.0
47
0.3000000000
48
0.3000000000
140
3.5000000000
141
0.09
142
0.0
143
25.4
144
1.0000000000
145
0.0
146
1.0000000000
147
0.09
71
0
72
0
73
0
74
0
75
0
76
0
77
1
78
8
170
0
171
2
172
0
173
0
174
0
175
0
176
0
177
0
178
5
270
2
271
0
272
0
273
2
274
2
340
11
275
0
280
0
281
0
282
0
283
1
284
8
285
0
286
0
287
3
288
0
0
DIMSTYLE
105
20A
100
AcDbSymbolTableRecord
100
AcDbDimStyleTableRecord
2
DIMSTYLE_3
70
0
3

4

5

6

7

40
1.0
41
3.5000000000
42
0.0625
43
0.38
44
0.18
45
0.0
46
0.0
47
0.2000000000
48
0.0000000000
140
3.5000000000
141
0.09
142
0.0
143
25.4
144
1.0000000000
145
0.0
146
0.6000000000
147
0.09
71
1
72
0
73
0
74
0
75
0
76
0
77
1
78
8
170
0
171
2
172
0
173
0
174
0
175
0
176
0
177
0
178
5
270
2
271
3
272
3
273
2
274
2
340
11
275
0
280
0
281
0
282
0
283
1
284
8
285
0
286
0
287
3
288
0
0
DIMSTYLE
105
20B
100
AcDbSymbolTableRecord
100
AcDbDimStyleTableRecord
2
DIMSTYLE_4
70
0
3

4

5

6

7

40
1.0
41
3.5000000000
42
0.0625
43
0.38
44
0.18
45
0.0
46
0.0
47
0.2000000000
48
0.2000000000
140
3.5000000000
141
0.09
142
0.0
143
25.4
144
1.0000000000
145
0.0
146
1.0000000000
147
0.09
71
0
72
0
73
0
74
0
75
0
76
0
77
1
78
8
170
0
171
2
172
0
173
0
174
0
175
0
176
0
177
0
178
5
270
2
271
3
272
3
273
2
274
2
340
11
275
0
280
0
281
0
282
0
283
1
284
8
285
0
286
0
287
3
288
0
0
DIMSTYLE
105
20C
100
AcDbSymbolTableRecord
100
AcDbDimStyleTableRecord
2
DIMSTYLE_5
70
0
3

4

5

6

7

40
1.0
41
3.5000000000
42
0.0625
43
0.38
44
0.18
45
0.0
46
0.0
47
0.3000000000
48
0.3000000000
140
3.5000000000
141
0.09
142
0.0
143
25.4
144
1.0000000000
145
0.0
146
1.0000000000
147
0.09
71
0
72
0
73
0
74
0
75
0
76
0
77
1
78
8
170
0
171
2
172
0
173
0
174
0
175
0
176
0
177
0
178
5
270
2
271
3
272
3
273
2
274
2
340
11
275
0
280
0
281
0
282
0
283
1
284
8
285
0
286
0
287
3
288
0
0
ENDTAB
0
TABLE
2
BLOCK_RECORD
5
1
100
AcDbSymbolTable
70
0
0
BLOCK_RECORD
5
1B
100
AcDbSymbolTableRecord
100
AcDbBlockTableRecord
2
*MODEL_SPACE
0
BLOCK_RECORD
5
1C
100
AcDbSymbolTableRecord
100
AcDbBlockTableRecord
2
*PAPER_SPACE
0
BLOCK_RECORD
5
20D
100
AcDbSymbolTableRecord
100
AcDbBlockTableRecord
2
*D0
0
BLOCK_RECORD
5
20E
100
AcDbSymbolTableRecord
100
AcDbBlockTableRecord
2
*D1
0
BLOCK_RECORD
5
20F
100
AcDbSymbolTableRecord
100
AcDbBlockTableRecord
2
*D2
0
BLOCK_RECORD
5
210
100
AcDbSymbolTableRecord
100
AcDbBlockTableRecord
2
*D3
0
BLOCK_RECORD
5
211
100
AcDbSymbolTableRecord
100
AcDbBlockTableRecord
2
*D4
0
BLOCK_RECORD
5
212
100
AcDbSymbolTableRecord
100
AcDbBlockTableRecord
2
*D5
0
BLOCK_RECORD
5
213
100
AcDbSymbolTableRecord
100
AcDbBlockTableRecord
2
*D6
0
BLOCK_RECORD
5
214
100
AcDbSymbolTableRecord
100
AcDbBlockTableRecord
2
*D7
0
ENDTAB
0
ENDSEC
0
SECTION
2
BLOCKS
0
BLOCK
5
1E
100
AcDbEntity
8
0
100
AcDbBlockBegin
2
*MODEL_SPACE
70
0
10
0.0
20
0.0
30
0.0
3
*MODEL_SPACE
1

0
ENDBLK
5
1F
100
AcDbEntity
8
0
100
AcDbBlockEnd
0
BLOCK
5
20
100
AcDbEntity
8
0
100
AcDbBlockBegin
2
*PAPER_SPACE
70
0
10
0.0
20
0.0
30
0.0
3
*PAPER_SPACE
1

0
ENDBLK
5
21
100
AcDbEntity
8
0
100
AcDbBlockEnd
0
BLOCK
5
215
100
AcDbEntity
8
0
100
AcDbBlockBegin
62
2
6
CONTINUOUS
2
*D0
70
65
10
0.0000000000
20
0.0000000000
3
*D0
1

0
TEXT
5
216
100
AcDbEntity
8
0
100
AcDbText
62
5
6
CONTINUOUS
10
117.7931034806
20
150.7688516387
7
STANDARD
40
3.5000000000
1
109.6
41
0.7000000122
72
0
100
AcDbText
0
LINE
5
217
100
AcDbEntity
8
0
100
AcDbLine
62
2
6
CONTINUOUS
10
68.2515452152
20
174.5801546392
11
68.2515452152
21
148.3938516387
0
LINE
5
218
100
AcDbEntity
8
0
100
AcDbLine
62
2
6
CONTINUOUS
10
177.8783516920
20
182.8801546392
11
177.8783516920
21
148.3938516387
0
LINE
5
219
100
AcDbEntity
8
0
100
AcDbLine
62
2
6
CONTINUOUS
10
68.2515452152
20
149.8938516387
11
123.0649484536
21
149.8938516387
0
LINE
5
21A
100
AcDbEntity
8
0
100
AcDbLine
62
2
6
CONTINUOUS
10
177.8783516920
20
149.8938516387
11
123.0649484536
21
149.8938516387
0
SOLID
5
21B
100
AcDbEntity
8
0
100
AcDbTrace
62
2
6
CONTINUOUS
10
71.7515452152
20
150.3313516387
11
68.2515452152
21
149.8938516387
12
71.7515452152
22
149.4563516387
13
71.7515452152
23
149.4563516387
0
SOLID
5
21C
100
AcDbEntity
8
0
100
AcDbTrace
62
2
6
CONTINUOUS
10
174.3783516920
20
149.4563516387
11
177.8783516920
21
149.8938516387
12
174.3783516920
22
150.3313516387
13
174.3783516920
23
150.3313516387
0
ENDBLK
5
21D
100
AcDbEntity
8
0
100
AcDbBlockEnd
0
BLOCK
5
21E
100
AcDbEntity
8
0
100
AcDbBlockBegin
62
2
6
CONTINUOUS
2
*D1
70
65
10
0.0000000000
20
0.0000000000
3
*D1
1

0
TEXT
5
21F
100
AcDbEntity
8
0
100
AcDbText
62
5
6
CONTINUOUS
10
189.4398300006
20
211.4136604105
7
STANDARD
40
3.5000000000
1
75
50
90.0000000000
41
0.7500000000
72
0
100
AcDbText
0
LINE
5
220
100
AcDbEntity
8
0
100
AcDbLine
62
2
6
CONTINUOUS
10
163.2515452152
20
174.5801546392
11
191.8148300006
21
174.5801546392
0
LINE
5
221
100
AcDbEntity
8
0
100
AcDbLine
62
2
6
CONTINUOUS
10
163.2515452152
20
249.6301546392
11
191.8148300006
21
249.6301546392
0
LINE
5
222
100
AcDbEntity
8
0
100
AcDbLine
62
2
6
CONTINUOUS
10
190.3148300006
20
174.5801546392
11
190.3148300006
21
212.1051546392
0
LINE
5
223
100
AcDbEntity
8
0
100
AcDbLine
62
2
6
CONTINUOUS
10
190.3148300006
20
249.6301546392
11
190.3148300006
21
212.1051546392
0
SOLID
5
224
100
AcDbEntity
8
0
100
AcDbTrace
62
2
6
CONTINUOUS
10
189.8773300006
20
178.0801546392
11
190.3148300006
21
174.5801546392
12
190.7523300006
22
178.0801546392
13
190.7523300006
23
178.0801546392
0
SOLID
5
225
100
AcDbEntity
8
0
100
AcDbTrace
62
2
6
CONTINUOUS
10
190.7523300006
20
246.1301546392
11
190.3148300006
21
249.6301546392
12
189.8773300006
22
246.1301546392
13
189.8773300006
23
246.1301546392
0
ENDBLK
5
226
100
AcDbEntity
8
0
100
AcDbBlockEnd
0
BLOCK
5
227
100
AcDbEntity
8
0
100
AcDbBlockBegin
62
2
6
CONTINUOUS
2
*D2
70
65
10
0.0000000000
20
0.0000000000
3
*D2
1

0
TEXT
5
228
100
AcDbEntity
8
0
100
AcDbText
62
5
6
CONTINUOUS
10
116.4268792710
20
266.2628126839
7
STANDARD
40
3.5000000000
1
101
41
0.6428571429
72
0
100
AcDbText
0
LINE
5
229
100
AcDbEntity
8
0
100
AcDbLine
62
2
6
CONTINUOUS
10
68.2515452152
20
226.5801546392
11
68.2515452152
21
266.8878126839
0
LINE
5
22A
100
AcDbEntity
8
0
100
AcDbLine
62
2
6
CONTINUOUS
10
169.4401353980
20
218.4186539950
11
169.4401353980
21
266.8878126839
0
LINE
5
22B
100
AcDbEntity
8
0
100
AcDbLine
62
2
6
CONTINUOUS
10
68.2515452152
20
265.3878126839
11
118.8458403066
21
265.3878126839
0
LINE
5
22C
100
AcDbEntity
8
0
100
AcDbLine
62
2
6
CONTINUOUS
10
169.4401353980
20
265.3878126839
11
118.8458403066
21
265.3878126839
0
SOLID
5
22D
100
AcDbEntity
8
0
100
AcDbTrace
62
2
6
CONTINUOUS
10
71.7515452152
20
265.8253126839
11
68.2515452152
21
265.3878126839
12
71.7515452152
22
264.9503126839
13
71.7515452152
23
264.9503126839
0
SOLID
5
22E
100
AcDbEntity
8
0
100
AcDbTrace
62
2
6
CONTINUOUS
10
165.9401353980
20
264.9503126839
11
169.4401353980
21
265.3878126839
12
165.9401353980
22
265.8253126839
13
165.9401353980
23
265.8253126839
0
ENDBLK
5
22F
100
AcDbEntity
8
0
100
AcDbBlockEnd
0
BLOCK
5
230
100
AcDbEntity
8
0
100
AcDbBlockBegin
62
2
6
CONTINUOUS
2
*D3
70
65
10
0.0000000000
20
0.0000000000
3
*D3
1

0
TEXT
5
231
100
AcDbEntity
8
0
100
AcDbText
62
5
6
CONTINUOUS
10
42.8443298969
20
262.0077319893
7
STANDARD
40
3.5000000000
1
12.5
41
0.6607142857
72
0
100
AcDbText
0
TEXT
5
232
100
AcDbEntity
8
0
100
AcDbText
62
5
6
CONTINUOUS
10
52.0943300582
20
264.1077320259
7
STANDARD
40
2.1000000000
1
+0.2
41
0.7142857143
72
0
100
AcDbText
0
TEXT
5
233
100
AcDbEntity
8
0
100
AcDbText
62
5
6
CONTINUOUS
10
52.0943300582
20
261.3077319771
7
STANDARD
40
2.1000000000
1
 0
41
0.7857142857
72
0
100
AcDbText
0
LINE
5
234
100
AcDbEntity
8
0
100
AcDbLine
62
2
6
CONTINUOUS
10
26.8649484536
20
249.6301855037
11
26.8649484536
21
261.7577319588
0
LINE
5
235
100
AcDbEntity
8
0
100
AcDbLine
62
2
6
CONTINUOUS
10
39.3649484536
20
249.6301855037
11
39.3649484536
21
261.7577319588
0
LINE
5
236
100
AcDbEntity
8
0
100
AcDbLine
62
2
6
CONTINUOUS
10
26.8649484536
20
260.2577319588
11
33.1149484536
21
260.2577319588
0
LINE
5
237
100
AcDbEntity
8
0
100
AcDbLine
62
2
6
CONTINUOUS
10
39.3649484536
20
260.2577319588
11
33.1149484536
21
260.2577319588
0
LINE
5
238
100
AcDbEntity
8
0
100
AcDbLine
62
2
6
CONTINUOUS
10
33.1149484536
20
260.2577319588
11
58.0943300582
21
260.2577319588
0
SOLID
5
239
100
AcDbEntity
8
0
100
AcDbTrace
62
2
6
CONTINUOUS
10
30.3649484536
20
260.6952319588
11
26.8649484536
21
260.2577319588
12
30.3649484536
22
259.8202319588
13
30.3649484536
23
259.8202319588
0
SOLID
5
23A
100
AcDbEntity
8
0
100
AcDbTrace
62
2
6
CONTINUOUS
10
35.8649484536
20
259.8202319588
11
39.3649484536
21
260.2577319588
12
35.8649484536
22
260.6952319588
13
35.8649484536
23
260.6952319588
0
ENDBLK
5
23B
100
AcDbEntity
8
0
100
AcDbBlockEnd
0
BLOCK
5
23C
100
AcDbEntity
8
0
100
AcDbBlockBegin
62
2
6
CONTINUOUS
2
*D4
70
65
10
0.0000000000
20
0.0000000000
3
*D4
1

0
TEXT
5
23D
100
AcDbEntity
8
0
100
AcDbText
62
5
6
CONTINUOUS
10
30.2889245612
20
166.7584745463
7
STANDARD
40
3.5000000000
1
14.2
41
0.6785714286
72
0
100
AcDbText
0
LINE
5
23E
100
AcDbEntity
8
0
100
AcDbLine
62
2
6
CONTINUOUS
10
26.8649484536
20
174.5801546392
11
26.8649484536
21
164.3834745463
0
LINE
5
23F
100
AcDbEntity
8
0
100
AcDbLine
62
2
6
CONTINUOUS
10
41.0649484536
20
174.5801546392
11
41.0649484536
21
164.3834745463
0
LINE
5
240
100
AcDbEntity
8
0
100
AcDbLine
62
2
6
CONTINUOUS
10
26.8649484536
20
165.8834745463
11
33.9649484536
21
165.8834745463
0
LINE
5
241
100
AcDbEntity
8
0
100
AcDbLine
62
2
6
CONTINUOUS
10
41.0649484536
20
165.8834745463
11
33.9649484536
21
165.8834745463
0
SOLID
5
242
100
AcDbEntity
8
0
100
AcDbTrace
62
2
6
CONTINUOUS
10
30.3649484536
20
166.3209745463
11
26.8649484536
21
165.8834745463
12
30.3649484536
22
165.4459745463
13
30.3649484536
23
165.4459745463
0
SOLID
5
243
100
AcDbEntity
8
0
100
AcDbTrace
62
2
6
CONTINUOUS
10
37.5649484536
20
165.4459745463
11
41.0649484536
21
165.8834745463
12
37.5649484536
22
166.3209745463
13
37.5649484536
23
166.3209745463
0
ENDBLK
5
244
100
AcDbEntity
8
0
100
AcDbBlockEnd
0
BLOCK
5
245
100
AcDbEntity
8
0
100
AcDbBlockBegin
62
2
6
CONTINUOUS
2
*D5
70
65
10
0.0000000000
20
0.0000000000
3
*D5
1

0
TEXT
5
246
100
AcDbEntity
8
0
100
AcDbText
62
5
6
CONTINUOUS
10
74.8542867218
20
165.4567905583
7
STANDARD
40
3.5000000000
1
22.5
41
0.7142857143
72
0
100
AcDbText
0
LINE
5
247
100
AcDbEntity
8
0
100
AcDbLine
62
2
6
CONTINUOUS
10
90.7515452152
20
176.5801546392
11
90.7515452152
21
163.0817905583
0
LINE
5
248
100
AcDbEntity
8
0
100
AcDbLine
62
2
6
CONTINUOUS
10
68.2515452152
20
174.5801546392
11
68.2515452152
21
163.0817905583
0
LINE
5
249
100
AcDbEntity
8
0
100
AcDbLine
62
2
6
CONTINUOUS
10
90.7515452152
20
164.5817905583
11
79.5015452152
21
164.5817905583
0
LINE
5
24A
100
AcDbEntity
8
0
100
AcDbLine
62
2
6
CONTINUOUS
10
68.2515452152
20
164.5817905583
11
79.5015452152
21
164.5817905583
0
SOLID
5
24B
100
AcDbEntity
8
0
100
AcDbTrace
62
2
6
CONTINUOUS
10
87.2515452152
20
164.1442905583
11
90.7515452152
21
164.5817905583
12
87.2515452152
22
165.0192905583
13
87.2515452152
23
165.0192905583
0
SOLID
5
24C
100
AcDbEntity
8
0
100
AcDbTrace
62
2
6
CONTINUOUS
10
71.7515452152
20
165.0192905583
11
68.2515452152
21
164.5817905583
12
71.7515452152
22
164.1442905583
13
71.7515452152
23
164.1442905583
0
ENDBLK
5
24D
100
AcDbEntity
8
0
100
AcDbBlockEnd
0
BLOCK
5
24E
100
AcDbEntity
8
0
100
AcDbBlockBegin
62
2
6
CONTINUOUS
2
*D6
70
65
10
0.0000000000
20
0.0000000000
3
*D6
1

0
TEXT
5
24F
100
AcDbEntity
8
0
100
AcDbText
62
5
6
CONTINUOUS
10
101.8363355555
20
165.4567905583
7
STANDARD
40
3.5000000000
1
35.5
41
0.6785714286
72
0
100
AcDbText
0
LINE
5
250
100
AcDbEntity
8
0
100
AcDbLine
62
2
6
CONTINUOUS
10
90.7515452152
20
176.5801546392
11
90.7515452152
21
163.0817905583
0
LINE
5
251
100
AcDbEntity
8
0
100
AcDbLine
62
2
6
CONTINUOUS
10
126.2515452152
20
176.5801546392
11
126.2515452152
21
163.0817905583
0
LINE
5
252
100
AcDbEntity
8
0
100
AcDbLine
62
2
6
CONTINUOUS
10
90.7515452152
20
164.5817905583
11
108.5015452152
21
164.5817905583
0
LINE
5
253
100
AcDbEntity
8
0
100
AcDbLine
62
2
6
CONTINUOUS
10
126.2515452152
20
164.5817905583
11
108.5015452152
21
164.5817905583
0
SOLID
5
254
100
AcDbEntity
8
0
100
AcDbTrace
62
2
6
CONTINUOUS
10
94.2515452152
20
165.0192905583
11
90.7515452152
21
164.5817905583
12
94.2515452152
22
164.1442905583
13
94.2515452152
23
164.1442905583
0
SOLID
5
255
100
AcDbEntity
8
0
100
AcDbTrace
62
2
6
CONTINUOUS
10
122.7515452152
20
164.1442905583
11
126.2515452152
21
164.5817905583
12
122.7515452152
22
165.0192905583
13
122.7515452152
23
165.0192905583
0
ENDBLK
5
256
100
AcDbEntity
8
0
100
AcDbBlockEnd
0
BLOCK
5
257
100
AcDbEntity
8
0
100
AcDbBlockBegin
62
2
6
CONTINUOUS
2
*D7
70
65
10
0.0000000000
20
0.0000000000
3
*D7
1

0
TEXT
5
258
100
AcDbEntity
8
0
100
AcDbText
62
5
6
CONTINUOUS
10
61.5006394075
20
187.4949752729
7
STANDARD
40
3.5000000000
1
7.3
50
90.0000000000
41
0.6904761905
72
0
100
AcDbText
0
LINE
5
259
100
AcDbEntity
8
0
100
AcDbLine
62
2
6
CONTINUOUS
10
68.2515452152
20
174.5801546392
11
60.8756394075
21
174.5801546392
0
LINE
5
25A
100
AcDbEntity
8
0
100
AcDbLine
62
2
6
CONTINUOUS
10
90.7515452152
20
181.8801546392
11
60.8756394075
21
181.8801546392
0
LINE
5
25B
100
AcDbEntity
8
0
100
AcDbLine
62
2
6
CONTINUOUS
10
62.3756394075
20
174.5801546392
11
62.3756394075
21
168.5801546392
0
LINE
5
25C
100
AcDbEntity
8
0
100
AcDbLine
62
2
6
CONTINUOUS
10
62.3756394075
20
168.5801546392
11
62.3756394075
21
178.2301546392
0
LINE
5
25D
100
AcDbEntity
8
0
100
AcDbLine
62
2
6
CONTINUOUS
10
62.3756394075
20
181.8801546392
11
62.3756394075
21
194.7449752729
0
LINE
5
25E
100
AcDbEntity
8
0
100
AcDbLine
62
2
6
CONTINUOUS
10
62.3756394075
20
194.7449752729
11
62.3756394075
21
178.2301546392
0
SOLID
5
25F
100
AcDbEntity
8
0
100
AcDbTrace
62
2
6
CONTINUOUS
10
62.8131394075
20
171.0801546392
11
62.3756394075
21
174.5801546392
12
61.9381394075
22
171.0801546392
13
61.9381394075
23
171.0801546392
0
SOLID
5
260
100
AcDbEntity
8
0
100
AcDbTrace
62
2
6
CONTINUOUS
10
61.9381394075
20
185.3801546392
11
62.3756394075
21
181.8801546392
12
62.8131394075
22
185.3801546392
13
62.8131394075
23
185.3801546392
0
ENDBLK
5
261
100
AcDbEntity
8
0
100
AcDbBlockEnd
0
ENDSEC
0
SECTION
2
ENTITIES
0
DIMENSION
5
262
100
AcDbEntity
8
0
100
AcDbDimension
62
2
6
CONTINUOUS
2
*D0
10
177.8783516920
20
149.8938516387
11
123.9181035874
21
152.5188516387
70
160
3
DIMSTYLE_1
100
AcDbAlignedDimension
13
68.2515452152
23
174.5801546392
14
177.8783516920
24
182.8801546392
100
AcDbRotatedDimension
0
DIMENSION
5
263
100
AcDbEntity
8
0
100
AcDbDimension
62
2
6
CONTINUOUS
2
*D1
10
190.3148300006
20
249.6301546392
11
187.6898300006
21
214.0386604105
70
160
3
DIMSTYLE_2
100
AcDbAlignedDimension
13
163.2515452152
23
174.5801546392
14
163.2515452152
24
249.6301546392
50
90.000000
100
AcDbRotatedDimension
0
DIMENSION
5
264
100
AcDbEntity
8
0
100
AcDbDimension
62
2
6
CONTINUOUS
2
*D2
10
169.4401353980
20
265.3878126839
11
119.8018792710
21
268.0128126839
70
160
3
DIMSTYLE_2
100
AcDbAlignedDimension
13
68.2515452152
23
226.5801546392
14
169.4401353980
24
218.4186539950
100
AcDbRotatedDimension
0
DIMENSION
5
265
100
AcDbEntity
8
0
100
AcDbDimension
62
2
6
CONTINUOUS
2
*D3
10
39.3649484536
20
260.2577319588
11
50.4693299776
21
263.7577320015
70
160
3
DIMSTYLE_3
100
AcDbAlignedDimension
13
26.8649484536
23
249.6301855037
14
39.3649484536
24
249.6301855037
100
AcDbRotatedDimension
0
DIMENSION
5
266
100
AcDbEntity
8
0
100
AcDbDimension
62
2
6
CONTINUOUS
2
*D4
10
41.0649484536
20
165.8834745463
11
35.0389245612
21
168.5084745463
70
160
3
DIMSTYLE_4
100
AcDbAlignedDimension
13
26.8649484536
23
174.5801546392
14
41.0649484536
24
174.5801546392
100
AcDbRotatedDimension
0
DIMENSION
5
267
100
AcDbEntity
8
0
100
AcDbDimension
62
2
6
CONTINUOUS
2
*D5
10
68.2515452152
20
164.5817905583
11
79.8542867218
21
167.2067905583
70
160
3
DIMSTYLE_4
100
AcDbAlignedDimension
13
90.7515452152
23
176.5801546392
14
68.2515452152
24
174.5801546392
50
180.000000
100
AcDbRotatedDimension
0
DIMENSION
5
268
100
AcDbEntity
8
0
100
AcDbDimension
62
2
6
CONTINUOUS
2
*D6
10
126.2515452152
20
164.5817905583
11
106.5863355555
21
167.2067905583
70
160
3
DIMSTYLE_5
100
AcDbAlignedDimension
13
90.7515452152
23
176.5801546392
14
126.2515452152
24
176.5801546392
100
AcDbRotatedDimension
0
DIMENSION
5
269
100
AcDbEntity
8
0
100
AcDbDimension
62
2
6
CONTINUOUS
2
*D7
10
62.3756394075
20
181.8801546392
11
59.7506394075
21
191.1199752729
70
160
3
DIMSTYLE_4
100
AcDbAlignedDimension
13
68.2515452152
23
174.5801546392
14
90.7515452152
24
181.8801546392
50
90.000000
100
AcDbRotatedDimension
0
TEXT
5
26A
100
AcDbEntity
8
0
100
AcDbText
62
2
6
CONTINUOUS
10
165.6247422680
20
12.6407216495
7
STANDARD
40
3.5000000000
1
IO-Scheibe
41
0.6952380952
72
0
100
AcDbText
0
TEXT
5
26B
100
AcDbEntity
8
0
100
AcDbText
62
2
6
CONTINUOUS
10
165.6247422680
20
7.3907216495
7
STANDARD
40
3.5000000000
1
M1:1; A4
41
0.6517857143
72
0
100
AcDbText
0
LINE
5
26C
100
AcDbEntity
8
0
100
AcDbLine
62
7
6
CONTINUOUS
10
0.0000000000
20
0.0000000000
11
210.0000000000
21
0.0000000000
0
LINE
5
26D
100
AcDbEntity
8
0
100
AcDbLine
62
7
6
CONTINUOUS
10
0.0000000000
20
0.0000000000
11
0.0000000000
21
297.0000000000
0
LINE
5
26E
100
AcDbEntity
8
0
100
AcDbLine
62
7
6
CONTINUOUS
10
210.0000000000
20
0.0000000000
11
210.0000000000
21
297.0000000000
0
LINE
5
26F
100
AcDbEntity
8
0
100
AcDbLine
62
7
6
CONTINUOUS
10
0.0000000000
20
297.0000000000
11
210.0000000000
21
297.0000000000
0
LINE
5
270
100
AcDbEntity
8
0
100
AcDbLine
62
7
6
CONTINUOUS
10
68.2515452152
20
245.2259844691
11
68.2515452152
21
226.6259844691
0
LINE
5
271
100
AcDbEntity
8
0
100
AcDbLine
62
7
6
CONTINUOUS
10
68.2515452152
20
226.5801546392
11
68.2515452152
21
174.5801546392
0
LINE
5
272
100
AcDbEntity
8
0
100
AcDbLine
62
7
6
CONTINUOUS
10
71.4515452152
20
196.6301546392
11
71.4515452152
21
226.5801546392
0
LINE
5
273
100
AcDbEntity
8
0
100
AcDbLine
62
7
6
CONTINUOUS
10
71.5515452152
20
226.6259844691
11
71.5515452152
21
223.4013276273
0
LINE
5
274
100
AcDbEntity
8
0
100
AcDbLine
62
7
6
CONTINUOUS
10
68.2515452152
20
174.5801546392
11
89.7515452152
21
174.5801546392
0
LINE
5
275
100
AcDbEntity
8
0
100
AcDbLine
62
7
6
CONTINUOUS
10
127.2515452152
20
174.5801546392
11
163.2515452152
21
174.5801546392
0
LINE
5
276
100
AcDbEntity
8
0
100
AcDbLine
62
7
6
CONTINUOUS
10
163.3948107637
20
175.3801546392
11
165.2783516920
21
175.3801546392
0
LINE
5
277
100
AcDbEntity
8
0
100
AcDbLine
62
7
6
CONTINUOUS
10
90.7515452152
20
176.5801546392
11
90.7515452152
21
181.8801546392
0
LINE
5
278
100
AcDbEntity
8
0
100
AcDbLine
62
7
6
CONTINUOUS
10
90.7515452152
20
181.8801546392
11
126.2515452152
21
181.8801546392
0
LINE
5
279
100
AcDbEntity
8
0
100
AcDbLine
62
7
6
CONTINUOUS
10
169.0783516920
20
180.4801546392
11
164.2775210407
21
180.8002100159
0
LINE
5
27A
100
AcDbEntity
8
0
100
AcDbLine
62
7
6
CONTINUOUS
10
122.8515452152
20
196.6301546392
11
71.4515452152
21
196.6301546392
0
LINE
5
27B
100
AcDbEntity
8
0
100
AcDbLine
62
7
6
CONTINUOUS
10
159.6515452152
20
200.0801546392
11
124.1515452152
21
200.0801546392
0
LINE
5
27C
100
AcDbEntity
8
0
100
AcDbLine
62
7
6
CONTINUOUS
10
126.2515452152
20
176.5801546392
11
127.2515452152
21
174.5801546392
0
LINE
5
27D
100
AcDbEntity
8
0
100
AcDbLine
62
7
6
CONTINUOUS
10
89.7515452152
20
174.5801546392
11
90.7515452152
21
176.5801546392
0
LINE
5
27E
100
AcDbEntity
8
0
100
AcDbLine
62
7
6
CONTINUOUS
10
166.4515452152
20
208.9801546392
11
167.5515452152
21
208.9801546392
0
LINE
5
27F
100
AcDbEntity
8
0
100
AcDbLine
62
7
6
CONTINUOUS
10
177.8783516920
20
182.8801546392
11
172.5783516920
21
184.9801546392
0
LINE
5
280
100
AcDbEntity
8
0
100
AcDbLine
62
7
6
CONTINUOUS
10
159.6515452152
20
211.9801546392
11
169.2515452152
21
211.9801546392
0
LINE
5
281
100
AcDbEntity
8
0
100
AcDbLine
62
7
6
CONTINUOUS
10
126.2515452152
20
181.8801546392
11
126.2515452152
21
176.5801546392
0
LINE
5
282
100
AcDbEntity
8
0
100
AcDbLine
62
7
6
CONTINUOUS
10
124.1515452152
20
200.0801546392
11
122.8515452152
21
196.6301546392
0
LINE
5
283
100
AcDbEntity
8
0
100
AcDbLine
62
7
6
CONTINUOUS
10
71.4515452152
20
226.5801546392
11
68.2515452152
21
226.5801546392
0
LINE
5
284
100
AcDbEntity
8
0
100
AcDbLine
62
7
6
CONTINUOUS
10
68.2515452152
20
226.6259844691
11
71.5515452152
21
226.6259844691
0
LINE
5
285
100
AcDbEntity
8
0
100
AcDbLine
62
7
6
CONTINUOUS
10
141.4515452152
20
251.6301546392
11
141.4515452152
21
229.5167852078
0
LINE
5
286
100
AcDbEntity
8
0
100
AcDbLine
62
7
6
CONTINUOUS
10
141.4515452152
20
229.5167852078
11
71.4515452152
21
223.3925787610
0
LINE
5
287
100
AcDbEntity
8
0
100
AcDbLine
62
7
6
CONTINUOUS
10
159.6515452152
20
211.9801546392
11
159.6515452152
21
200.0801546392
0
LINE
5
288
100
AcDbEntity
8
0
100
AcDbLine
62
7
6
CONTINUOUS
10
141.4515452152
20
251.6301546392
11
68.2515452152
21
245.2259844691
0
LINE
5
289
100
AcDbEntity
8
0
100
AcDbLine
62
7
6
CONTINUOUS
10
141.4515452152
20
249.6301546392
11
163.2515452152
21
249.6301546392
0
LINE
5
28A
100
AcDbEntity
8
0
100
AcDbLine
62
7
6
CONTINUOUS
10
166.6515452152
20
211.9801546392
11
166.6515452152
21
208.9801546392
0
LINE
5
28B
100
AcDbEntity
8
0
100
AcDbLine
62
7
6
CONTINUOUS
10
167.5515452152
20
208.9801546392
11
167.5515452152
21
211.9801546392
0
LINE
5
28C
100
AcDbEntity
8
0
100
AcDbLine
62
7
6
CONTINUOUS
10
173.5783516920
20
179.1801546392
11
176.9559107037
21
180.5940165510
0
LINE
5
28D
100
AcDbEntity
8
0
100
AcDbLine
62
7
6
CONTINUOUS
10
163.2515452152
20
249.6301546392
11
165.3515452152
21
248.1301546392
0
LINE
5
28E
100
AcDbEntity
8
0
100
AcDbLine
62
7
6
CONTINUOUS
10
172.5783516920
20
184.9801546392
11
169.0783516920
21
180.4801546392
0
LINE
5
28F
100
AcDbEntity
8
0
100
AcDbLine
62
7
6
CONTINUOUS
10
176.9559107037
20
180.5940165510
11
177.8783516920
21
182.8801546392
0
LINE
5
290
100
AcDbEntity
8
0
100
AcDbLine
62
7
6
CONTINUOUS
10
26.8649484536
20
174.5801546392
11
41.0649484536
21
174.5801546392
0
LINE
5
291
100
AcDbEntity
8
0
100
AcDbLine
62
7
6
CONTINUOUS
10
38.3649484536
20
175.2540257781
11
27.8649484536
21
175.2540257781
0
LINE
5
292
100
AcDbEntity
8
0
100
AcDbLine
62
7
6
CONTINUOUS
10
27.8649484536
20
179.1801546392
11
38.3649484536
21
179.1801546392
0
LINE
5
293
100
AcDbEntity
8
0
100
AcDbLine
62
7
6
CONTINUOUS
10
38.3649484536
20
180.5940165510
11
27.8649484536
21
180.5940165510
0
LINE
5
294
100
AcDbEntity
8
0
100
AcDbLine
62
7
6
CONTINUOUS
10
38.3649484536
20
182.8801546392
11
27.8649484536
21
182.8801546392
0
LINE
5
295
100
AcDbEntity
8
0
100
AcDbLine
62
7
6
CONTINUOUS
10
38.3649484536
20
184.9801546392
11
27.8649484536
21
184.9801546392
0
LINE
5
296
100
AcDbEntity
8
0
100
AcDbLine
62
7
6
CONTINUOUS
10
26.8649484536
20
174.5801546392
11
26.8649484536
21
251.6301546392
0
LINE
5
297
100
AcDbEntity
8
0
100
AcDbLine
62
7
6
CONTINUOUS
10
27.8649484536
20
175.2540194622
11
27.8649484536
21
184.9801546392
0
LINE
5
298
100
AcDbEntity
8
0
100
AcDbLine
62
7
6
CONTINUOUS
10
39.3649484536
20
207.5801546392
11
41.0649484536
21
207.5801546392
0
LINE
5
299
100
AcDbEntity
8
0
100
AcDbLine
62
7
6
CONTINUOUS
10
39.3649484536
20
208.9801546392
11
26.8649484536
21
208.9801546392
0
LINE
5
29A
100
AcDbEntity
8
0
100
AcDbLine
62
7
6
CONTINUOUS
10
33.1149484536
20
208.9801546392
11
33.1149484536
21
248.1301546392
0
LINE
5
29B
100
AcDbEntity
8
0
100
AcDbLine
62
7
6
CONTINUOUS
10
39.3649484536
20
211.9801546392
11
26.8649484536
21
211.9801546392
0
LINE
5
29C
100
AcDbEntity
8
0
100
AcDbLine
62
7
6
CONTINUOUS
10
38.3649484536
20
175.2540194622
11
38.3649484536
21
184.9801546392
0
LINE
5
29D
100
AcDbEntity
8
0
100
AcDbLine
62
7
6
CONTINUOUS
10
39.3649484536
20
174.5801546392
11
39.3649484536
21
251.6301546392
0
LINE
5
29E
100
AcDbEntity
8
0
100
AcDbLine
62
7
6
CONTINUOUS
10
41.0649484536
20
174.5801546392
11
41.0649484536
21
221.7801546392
0
LINE
5
29F
100
AcDbEntity
8
0
100
AcDbLine
62
7
6
CONTINUOUS
10
39.3649484536
20
221.7801546392
11
41.0649484536
21
221.7801546392
0
LINE
5
2A0
100
AcDbEntity
8
0
100
AcDbLine
62
7
6
CONTINUOUS
10
39.3575935866
20
249.6301546392
11
26.8723033206
21
249.6301546392
0
LINE
5
2A1
100
AcDbEntity
8
0
100
AcDbLine
62
7
6
CONTINUOUS
10
39.3649484536
20
251.6301546392
11
26.8649484536
21
251.6301546392
0
LINE
5
2A2
100
AcDbEntity
8
0
100
AcDbLine
62
7
6
CONTINUOUS
10
68.2515452152
20
115.9329896907
11
68.2515452152
21
103.4329896907
0
LINE
5
2A3
100
AcDbEntity
8
0
100
AcDbLine
62
7
6
CONTINUOUS
10
68.8515452152
20
115.9329896907
11
68.8515452152
21
117.6329896907
0
LINE
5
2A4
100
AcDbEntity
8
0
100
AcDbLine
62
7
6
CONTINUOUS
10
70.6515452152
20
115.9329896907
11
70.6515452152
21
117.6329896907
0
LINE
5
2A5
100
AcDbEntity
8
0
100
AcDbLine
62
7
6
CONTINUOUS
10
68.2515452152
20
103.4329896907
11
167.8409290166
21
103.4329896907
0
LINE
5
2A6
100
AcDbEntity
8
0
100
AcDbLine
62
7
6
CONTINUOUS
10
177.8783516920
20
104.4329896907
11
168.0961353980
21
104.4329896907
0
LINE
5
2A7
100
AcDbEntity
8
0
100
AcDbLine
62
7
6
CONTINUOUS
10
165.3515452152
20
109.6829896907
11
169.4401353980
21
109.6829896907
0
LINE
5
2A8
100
AcDbEntity
8
0
100
AcDbLine
62
7
6
CONTINUOUS
10
177.8783516920
20
114.9329896907
11
168.0961353980
21
114.9329896907
0
LINE
5
2A9
100
AcDbEntity
8
0
100
AcDbLine
62
7
6
CONTINUOUS
10
167.8409290166
20
115.9329896907
11
68.2515452152
21
115.9329896907
0
LINE
5
2AA
100
AcDbEntity
8
0
100
AcDbLine
62
7
6
CONTINUOUS
10
162.6515452152
20
117.6329896907
11
160.7515452152
21
117.6329896907
0
LINE
5
2AB
100
AcDbEntity
8
0
100
AcDbLine
62
7
6
CONTINUOUS
10
68.8515452152
20
117.6329896907
11
70.6515452152
21
117.6329896907
0
LINE
5
2AC
100
AcDbEntity
8
0
100
AcDbLine
62
7
6
CONTINUOUS
10
141.4515452152
20
115.9329896907
11
141.4515452152
21
103.4329896907
0
LINE
5
2AD
100
AcDbEntity
8
0
100
AcDbLine
62
7
6
CONTINUOUS
10
160.7515452152
20
117.6329896907
11
160.7515452152
21
115.9329896907
0
LINE
5
2AE
100
AcDbEntity
8
0
100
AcDbLine
62
7
6
CONTINUOUS
10
162.6515452152
20
115.9329896907
11
162.6515452152
21
117.6329896907
0
LINE
5
2AF
100
AcDbEntity
8
0
100
AcDbLine
62
7
6
CONTINUOUS
10
163.2515452152
20
115.9256348237
11
163.2515452152
21
103.4403445578
0
LINE
5
2B0
100
AcDbEntity
8
0
100
AcDbLine
62
7
6
CONTINUOUS
10
169.0783516919
20
114.9329896907
11
169.0783516919
21
111.0962072925
0
LINE
5
2B1
100
AcDbEntity
8
0
100
AcDbLine
62
7
6
CONTINUOUS
10
169.0783516919
20
108.2697720889
11
169.0783516919
21
104.4329896907
0
LINE
5
2B2
100
AcDbEntity
8
0
100
AcDbLine
62
7
6
CONTINUOUS
10
167.8401353980
20
103.4329896907
11
169.4401353980
21
109.6829896907
0
LINE
5
2B3
100
AcDbEntity
8
0
100
AcDbLine
62
7
6
CONTINUOUS
10
169.4401353980
20
109.6829896907
11
167.8401353980
21
115.9329896907
0
LINE
5
2B4
100
AcDbEntity
8
0
100
AcDbLine
62
7
6
CONTINUOUS
10
172.5783516919
20
114.9329896907
11
172.5783516919
21
104.4329896907
0
LINE
5
2B5
100
AcDbEntity
8
0
100
AcDbLine
62
7
6
CONTINUOUS
10
177.8783516920
20
114.9329896907
11
177.8783516920
21
104.4329896907
0
ARC
5
2B6
100
AcDbEntity
8
0
100
AcDbCircle
62
7
6
CONTINUOUS
10
59.4401353980
20
218.4186539950
40
110.0000000000
100
AcDbArc
50
356.6444563230
51
15.6704883561
0
ARC
5
2B7
100
AcDbEntity
8
0
100
AcDbCircle
62
7
6
CONTINUOUS
10
59.4401353980
20
218.4186539950
40
108.4000000000
100
AcDbArc
50
356.5948700354
51
16.7340242267
0
ARC
5
2B8
100
AcDbEntity
8
0
100
AcDbCircle
62
7
6
CONTINUOUS
10
166.6933263512
20
183.2540257782
40
8.0000000001
100
AcDbArc
50
259.8123943732
51
329.3871868373
0
ARC
5
2B9
100
AcDbEntity
8
0
100
AcDbCircle
62
7
6
CONTINUOUS
10
-33.5445143755
20
210.2356020430
40
200.0000000000
100
AcDbArc
50
349.7305702103
51
359.6403384498
0
SPLINE
5
2BA
100
AcDbEntity
8
0
100
AcDbSpline
62
7
6
CONTINUOUS
70
0
71
3
72
10
73
6
74
4
42
0.0000001000
43
0.0000001000
44
0.0000000001
12
6.2465677973
22
1.4836092513
32
0.0000000000
13
6.2385363287
23
1.5170267409
33
0.0000000000
40
0.0000000000
40
0.0000000000
40
0.0000000000
40
0.0000000000
40
0.3373167202
40
0.6706381489
40
1.0000000000
40
1.0000000000
40
1.0000000000
40
1.0000000000
10
33.1149484536
20
248.1301546392
30
0.0000000000
10
33.8173057077
20
248.2969700414
30
0.0000000000
10
35.2134185925
20
248.6298166608
30
0.0000000000
10
37.2943101640
20
249.1297896899
30
0.0000000000
10
38.6726816287
20
249.4636043940
30
0.0000000000
10
39.3575935866
20
249.6301546392
30
0.0000000000
11
33.1149484536
21
248.1301546392
31
0.0000000000
11
35.2215872029
21
248.6324205016
31
0.0000000000
11
37.3023976691
21
249.1323995702
31
0.0000000000
11
39.3575935866
21
249.6301546392
31
0.0000000000
0
SPLINE
5
2BB
100
AcDbEntity
8
0
100
AcDbSpline
62
7
6
CONTINUOUS
70
0
71
3
72
10
73
6
74
4
42
0.0000001000
43
0.0000001000
44
0.0000000001
12
6.2385363287
22
-1.5170267409
32
0.0000000000
13
6.2465677973
23
-1.4836092513
33
0.0000000000
40
0.0000000000
40
0.0000000000
40
0.0000000000
40
0.0000000000
40
0.3293618510
40
0.6626832796
40
1.0000000000
40
1.0000000000
40
1.0000000000
40
1.0000000000
10
26.8723033206
20
249.6301546392
30
0.0000000000
10
27.5572152783
20
249.4636043940
30
0.0000000000
10
28.9355867427
20
249.1297896900
30
0.0000000000
10
31.0164783142
20
248.6298166610
30
0.0000000000
10
32.4125911993
20
248.2969700415
30
0.0000000000
10
33.1149484536
20
248.1301546392
30
0.0000000000
11
26.8723033206
21
249.6301546392
31
0.0000000000
11
28.9274992375
21
249.1323995703
31
0.0000000000
11
31.0083097034
21
248.6324205018
31
0.0000000000
11
33.1149484536
21
248.1301546392
31
0.0000000000
0
SPLINE
5
2BC
100
AcDbEntity
8
0
100
AcDbSpline
62
7
6
CONTINUOUS
70
0
71
3
72
10
73
6
74
4
42
0.0000001000
43
0.0000001000
44
0.0000000001
12
-2.0781795840
22
6.2499560517
32
0.0000000000
13
-2.1226331169
23
6.2349987716
33
0.0000000000
40
0.0000000000
40
0.0000000000
40
0.0000000000
40
0.0000000000
40
0.3371937307
40
0.6705147677
40
1.0000000000
40
1.0000000000
40
1.0000000000
40
1.0000000000
10
165.3515452152
20
109.6829896907
30
0.0000000000
10
165.1179621729
20
110.3854716901
30
0.0000000000
10
164.6518909110
20
111.7818402961
30
0.0000000000
10
163.9519249993
20
113.8627397691
30
0.0000000000
10
163.4846706371
20
115.2408548176
30
0.0000000000
10
163.2515452152
20
115.9256348237
30
0.0000000000
11
165.3515452152
21
109.6829896907
31
0.0000000000
11
164.6483730078
21
111.7896284401
31
0.0000000000
11
163.9484023118
21
113.8704389063
31
0.0000000000
11
163.2515452152
21
115.9256348237
31
0.0000000000
0
SPLINE
5
2BD
100
AcDbEntity
8
0
100
AcDbSpline
62
7
6
CONTINUOUS
70
0
71
3
72
10
73
6
74
4
42
0.0000001000
43
0.0000001000
44
0.0000000001
12
2.1226331169
22
6.2349987716
32
0.0000000000
13
2.0781795840
23
6.2499560517
33
0.0000000000
40
0.0000000000
40
0.0000000000
40
0.0000000000
40
0.0000000000
40
0.3294852322
40
0.6628062691
40
1.0000000000
40
1.0000000000
40
1.0000000000
40
1.0000000000
10
163.2515452152
20
103.4403445578
30
0.0000000000
10
163.4846706370
20
104.1251245637
30
0.0000000000
10
163.9519249992
20
105.5032396119
30
0.0000000000
10
164.6518909109
20
107.5841390849
30
0.0000000000
10
165.1179621728
20
108.9805076911
30
0.0000000000
10
165.3515452152
20
109.6829896907
30
0.0000000000
11
163.2515452152
21
103.4403445578
31
0.0000000000
11
163.9484023116
21
105.4955404746
31
0.0000000000
11
164.6483730075
21
107.5763509405
31
0.0000000000
11
165.3515452152
21
109.6829896907
31
0.0000000000
0
ENDSEC
0
SECTION
2
OBJECTS
0
DICTIONARY
5
2BE
100
AcDbDictionary
3
ACAD_GROUP
350
2BF
3
ACAD_MLINESTYLE
350
2C0
0
DICTIONARY
5
2BF
102
{ACAD_REACTORS
330
2BE
102
}
100
AcDbDictionary
0
DICTIONARY
5
2C0
102
{ACAD_REACTORS
330
2BE
102
}
100
AcDbDictionary
3
STANDARD
350
2C1
0
MLINESTYLE
5
2C1
102
{ACAD_REACTORS
330
2C0
102
}
100
AcDbMlineStyle
2
STANDARD
70
0
3

62
256
51
90.0
52
90.0
71
2
49
0.5
62
256
6
BYLAYER
49
-0.5
62
256
6
BYLAYER
0
ENDSEC
0
EOF
