  0
SECTION
  2
HEADER
  9
$ACADVER
  1
AC1014
  9
$ACADMAINTVER
 70
     0
  9
$DWGCODEPAGE
  3
ANSI_1252
  9
$INSBASE
 10
66.62693
 20
102.851528
 30
0.0
  9
$EXTMIN
 10
50.788792
 20
69.334722
 30
0.0
  9
$EXTMAX
 10
89.018208
 20
122.790413
 30
0.0
  9
$LIMMIN
 10
0.0
 20
0.0
  9
$LIMMAX
 10
210.0
 20
297.0
  9
$ORTHOMODE
 70
     1
  9
$REGENMODE
 70
     1
  9
$FILLMODE
 70
     1
  9
$QTEXTMODE
 70
     0
  9
$MIRRTEXT
 70
     1
  9
$DRAGMODE
 70
     2
  9
$LTSCALE
 40
7.0
  9
$OSMODE
 70
     0
  9
$ATTMODE
 70
     1
  9
$TEXTSIZE
 40
0.2
  9
$TRACEWID
 40
0.05
  9
$TEXTSTYLE
  7
STANDARD
  9
$CLAYER
  8
COTATION1
  9
$CELTYPE
  6
BYLAYER
  9
$CECOLOR
 62
   256
  9
$CELTSCALE
 40
1.0
  9
$DELOBJ
 70
     1
  9
$DISPSILH
 70
     0
  9
$DIMSCALE
 40
1.0
  9
$DIMASZ
 40
3.0
  9
$DIMEXO
 40
0.0625
  9
$DIMDLI
 40
0.38
  9
$DIMRND
 40
0.01
  9
$DIMDLE
 40
0.0
  9
$DIMEXE
 40
0.18
  9
$DIMTP
 40
0.0
  9
$DIMTM
 40
0.0
  9
$DIMTXT
 40
2.5
  9
$DIMCEN
 40
0.09
  9
$DIMTSZ
 40
0.0
  9
$DIMTOL
 70
     0
  9
$DIMLIM
 70
     0
  9
$DIMTIH
 70
     0
  9
$DIMTOH
 70
     0
  9
$DIMSE1
 70
     0
  9
$DIMSE2
 70
     0
  9
$DIMTAD
 70
     1
  9
$DIMZIN
 70
    12
  9
$DIMBLK
  1

  9
$DIMASO
 70
     1
  9
$DIMSHO
 70
     1
  9
$DIMPOST
  1

  9
$DIMAPOST
  1

  9
$DIMALT
 70
     0
  9
$DIMALTD
 70
     2
  9
$DIMALTF
 40
25.4
  9
$DIMLFAC
 40
1.0
  9
$DIMTOFL
 70
     1
  9
$DIMTVP
 40
0.0
  9
$DIMTIX
 70
     0
  9
$DIMSOXD
 70
     0
  9
$DIMSAH
 70
     0
  9
$DIMBLK1
  1

  9
$DIMBLK2
  1

  9
$DIMSTYLE
  2
SC_STAND
  9
$DIMCLRD
 70
     0
  9
$DIMCLRE
 70
     0
  9
$DIMCLRT
 70
     0
  9
$DIMTFAC
 40
1.0
  9
$DIMGAP
 40
1.0
  9
$DIMJUST
 70
     0
  9
$DIMSD1
 70
     0
  9
$DIMSD2
 70
     0
  9
$DIMTOLJ
 70
     1
  9
$DIMTZIN
 70
    12
  9
$DIMALTZ
 70
    12
  9
$DIMALTTZ
 70
    12
  9
$DIMFIT
 70
     5
  9
$DIMUPT
 70
     0
  9
$DIMUNIT
 70
     2
  9
$DIMDEC
 70
     4
  9
$DIMTDEC
 70
     4
  9
$DIMALTU
 70
     2
  9
$DIMALTTD
 70
     2
  9
$DIMTXSTY
  7
STANDARD
  9
$DIMAUNIT
 70
     0
  9
$LUNITS
 70
     2
  9
$LUPREC
 70
     4
  9
$SKETCHINC
 40
0.1
  9
$FILLETRAD
 40
0.0
  9
$AUNITS
 70
     0
  9
$AUPREC
 70
     0
  9
$MENU
  1
acad
  9
$ELEVATION
 40
0.0
  9
$PELEVATION
 40
0.0
  9
$THICKNESS
 40
0.0
  9
$LIMCHECK
 70
     0
  9
$BLIPMODE
 70
     1
  9
$CHAMFERA
 40
0.0
  9
$CHAMFERB
 40
0.0
  9
$CHAMFERC
 40
0.0
  9
$CHAMFERD
 40
0.0
  9
$SKPOLY
 70
     0
  9
$TDCREATE
 40
2451086.435639236
  9
$TDUPDATE
 40
2451387.898031053
  9
$TDINDWG
 40
0.0000531250
  9
$TDUSRTIMER
 40
0.0000531250
  9
$USRTIMER
 70
     1
  9
$ANGBASE
 50
0.0
  9
$ANGDIR
 70
     0
  9
$PDMODE
 70
     0
  9
$PDSIZE
 40
0.0
  9
$PLINEWID
 40
0.0
  9
$COORDS
 70
     1
  9
$SPLFRAME
 70
     0
  9
$SPLINETYPE
 70
     6
  9
$SPLINESEGS
 70
     8
  9
$ATTDIA
 70
     0
  9
$ATTREQ
 70
     1
  9
$HANDLING
 70
     1
  9
$HANDSEED
  5
1FED
  9
$SURFTAB1
 70
     6
  9
$SURFTAB2
 70
     6
  9
$SURFTYPE
 70
     6
  9
$SURFU
 70
     6
  9
$SURFV
 70
     6
  9
$UCSNAME
  2

  9
$UCSORG
 10
0.0
 20
0.0
 30
0.0
  9
$UCSXDIR
 10
1.0
 20
0.0
 30
0.0
  9
$UCSYDIR
 10
0.0
 20
1.0
 30
0.0
  9
$PUCSNAME
  2

  9
$PUCSORG
 10
0.0
 20
0.0
 30
0.0
  9
$PUCSXDIR
 10
1.0
 20
0.0
 30
0.0
  9
$PUCSYDIR
 10
0.0
 20
1.0
 30
0.0
  9
$USERI1
 70
     0
  9
$USERI2
 70
     0
  9
$USERI3
 70
     0
  9
$USERI4
 70
     0
  9
$USERI5
 70
     0
  9
$USERR1
 40
0.0
  9
$USERR2
 40
0.0
  9
$USERR3
 40
0.0
  9
$USERR4
 40
0.0
  9
$USERR5
 40
0.0
  9
$WORLDVIEW
 70
     1
  9
$SHADEDGE
 70
     3
  9
$SHADEDIF
 70
    70
  9
$TILEMODE
 70
     1
  9
$MAXACTVP
 70
    16
  9
$PINSBASE
 10
0.0
 20
0.0
 30
0.0
  9
$PLIMCHECK
 70
     0
  9
$PEXTMIN
 10
1.000000E+20
 20
1.000000E+20
 30
1.000000E+20
  9
$PEXTMAX
 10
-1.000000E+20
 20
-1.000000E+20
 30
-1.000000E+20
  9
$PLIMMIN
 10
0.0
 20
0.0
  9
$PLIMMAX
 10
12.0
 20
9.0
  9
$UNITMODE
 70
     0
  9
$VISRETAIN
 70
     0
  9
$PLINEGEN
 70
     0
  9
$PSLTSCALE
 70
     1
  9
$TREEDEPTH
 70
  3020
  9
$PICKSTYLE
 70
     1
  9
$CMLSTYLE
  2
STANDARD
  9
$CMLJUST
 70
     0
  9
$CMLSCALE
 40
1.0
  9
$PROXYGRAPHICS
 70
     1
  9
$MEASUREMENT
 70
     0
  0
ENDSEC
  0
SECTION
  2
CLASSES
  0
CLASS
  1
DICTIONARYVAR
  2
AcDbDictionaryVar
  3
"AutoCAD"
 90
        0
280
     0
281
     0
  0
CLASS
  1
LWPOLYLINE
  2
AcDbPolyline
  3
"AutoCAD"
 90
        0
280
     0
281
     1
  0
ENDSEC
  0
SECTION
  2
TABLES
  0
TABLE
  2
VPORT
  5
1FC1
100
AcDbSymbolTable
 70
     1
  0
VPORT
  5
1FE8
100
AcDbSymbolTableRecord
100
AcDbViewportTableRecord
  2
*ACTIVE
 70
     0
 10
0.0
 20
0.0
 11
1.0
 21
1.0
 12
225.654671
 22
135.037441
 13
0.0
 23
0.0
 14
1.0
 24
1.0
 15
0.0
 25
0.0
 16
0.0
 26
0.0
 36
1.0
 17
0.0
 27
0.0
 37
0.0
 40
270.074882
 41
1.671053
 42
50.0
 43
0.0
 44
0.0
 50
0.0
 51
0.0
 71
     0
 72
   100
 73
     1
 74
     1
 75
     0
 76
     0
 77
     0
 78
     0
  0
ENDTAB
  0
TABLE
  2
LTYPE
  5
1FBE
100
AcDbSymbolTable
 70
     2
  0
LTYPE
  5
1FCA
100
AcDbSymbolTableRecord
100
AcDbLinetypeTableRecord
  2
BYBLOCK
 70
     0
  3

 72
    65
 73
     0
 40
0.0
  0
LTYPE
  5
1FCB
100
AcDbSymbolTableRecord
100
AcDbLinetypeTableRecord
  2
BYLAYER
 70
     0
  3

 72
    65
 73
     0
 40
0.0
  0
LTYPE
  5
1FCC
100
AcDbSymbolTableRecord
100
AcDbLinetypeTableRecord
  2
CONTINUOUS
 70
     0
  3
Solid line
 72
    65
 73
     0
 40
0.0
  0
LTYPE
  5
1FD8
100
AcDbSymbolTableRecord
100
AcDbLinetypeTableRecord
  2
AXES2
 70
     0
  3
___ _ ___ _ ___ _ ___ _ ___ _ ___ _ ___ _ ___ _
 72
    65
 73
     4
 40
1.125
 49
0.75
 74
     0
 49
-0.125
 74
     0
 49
0.125
 74
     0
 49
-0.125
 74
     0
  0
ENDTAB
  0
TABLE
  2
LAYER
  5
1FBB
100
AcDbSymbolTable
 70
     5
  0
LAYER
  5
1FC7
100
AcDbSymbolTableRecord
100
AcDbLayerTableRecord
  2
0
 70
     0
 62
     7
  6
CONTINUOUS
  0
LAYER
  5
1FDB
100
AcDbSymbolTableRecord
100
AcDbLayerTableRecord
  2
AXE
 70
     0
 62
    80
  6
AXES2
  0
LAYER
  5
1FDC
100
AcDbSymbolTableRecord
100
AcDbLayerTableRecord
  2
COTATION1
 70
     0
 62
     2
  6
CONTINUOUS
  0
LAYER
  5
1FDD
100
AcDbSymbolTableRecord
100
AcDbLayerTableRecord
  2
ALPHA
 70
     0
 62
   255
  6
CONTINUOUS
  0
LAYER
  5
1FDE
100
AcDbSymbolTableRecord
100
AcDbLayerTableRecord
  2
DEFPOINTS
 70
     0
 62
     7
  6
CONTINUOUS
  0
ENDTAB
  0
TABLE
  2
STYLE
  5
1FBC
100
AcDbSymbolTable
 70
     2
  0
STYLE
  5
1FC8
100
AcDbSymbolTableRecord
100
AcDbTextStyleTableRecord
  2
STANDARD
 70
     0
 40
0.0
 41
1.0
 50
0.0
 71
     0
 42
0.2
  3
txt
  4

  0
STYLE
  5
1FD7
100
AcDbSymbolTableRecord
100
AcDbTextStyleTableRecord
  2
ROMANS
 70
     0
 40
0.0
 41
1.0
 50
0.0
 71
     0
 42
2.9
  3
romans.shx
  4

  0
ENDTAB
  0
TABLE
  2
VIEW
  5
1FBF
100
AcDbSymbolTable
 70
     0
  0
ENDTAB
  0
TABLE
  2
UCS
  5
1FC0
100
AcDbSymbolTable
 70
     0
  0
ENDTAB
  0
TABLE
  2
APPID
  5
1FC2
100
AcDbSymbolTable
 70
     1
  0
APPID
  5
1FC9
100
AcDbSymbolTableRecord
100
AcDbRegAppTableRecord
  2
ACAD
 70
     0
  0
ENDTAB
  0
TABLE
  2
DIMSTYLE
  5
1FC3
100
AcDbSymbolTable
 70
     1
  0
DIMSTYLE
105
1FDA
102
{ACAD_REACTORS
330
1F
330
2D
102
}
100
AcDbSymbolTableRecord
100
AcDbDimStyleTableRecord
  2
SC_STAND
 70
     0
  3

  4

  5

  6

  7

 40
1.0
 41
3.0
 42
0.0625
 43
0.38
 44
0.18
 45
0.01
 46
0.0
 47
0.0
 48
0.0
140
2.5
141
0.09
142
0.0
143
25.4
144
1.0
145
0.0
146
1.0
147
1.0
 71
     0
 72
     0
 73
     0
 74
     0
 75
     0
 76
     0
 77
     1
 78
    12
170
     0
171
     2
172
     1
173
     0
174
     0
175
     0
176
     0
177
     0
178
     0
270
     2
271
     4
272
     4
273
     2
274
     2
340
1FC8
275
     0
280
     0
281
     0
282
     0
283
     1
284
    12
285
    12
286
    12
287
     5
288
     0
  0
ENDTAB
  0
TABLE
  2
BLOCK_RECORD
  5
1FBA
100
AcDbSymbolTable
 70
     2
  0
BLOCK_RECORD
  5
1FD0
100
AcDbSymbolTableRecord
100
AcDbBlockTableRecord
  2
*MODEL_SPACE
  0
BLOCK_RECORD
  5
1FCD
100
AcDbSymbolTableRecord
100
AcDbBlockTableRecord
  2
*PAPER_SPACE
  0
BLOCK_RECORD
  5
1FD5
100
AcDbSymbolTableRecord
100
AcDbBlockTableRecord
  2
*D0
  0
BLOCK_RECORD
  5
1FD6
100
AcDbSymbolTableRecord
100
AcDbBlockTableRecord
  2
*D1
  0
ENDTAB
  0
ENDSEC
  0
SECTION
  2
BLOCKS
  0
BLOCK
  5
1FE1
100
AcDbEntity
  8
0
100
AcDbBlockBegin
  2
*MODEL_SPACE
 70
     0
 10
0.0
 20
0.0
 30
0.0
  3
*MODEL_SPACE
  1

  0
ENDBLK
  5
1FE2
100
AcDbEntity
  8
0
100
AcDbBlockEnd
  0
BLOCK
  5
1FDF
100
AcDbEntity
 67
     1
  8
0
100
AcDbBlockBegin
  2
*PAPER_SPACE
 70
     0
 10
0.0
 20
0.0
 30
0.0
  3
*PAPER_SPACE
  1

  0
ENDBLK
  5
1FE0
100
AcDbEntity
 67
     1
  8
0
100
AcDbBlockEnd
  0
BLOCK
  5
38
100
AcDbEntity
  8
0
100
AcDbBlockBegin
  2
*D0
 70
     1
 10
0.0
 20
0.0
 30
0.0
  3
*D0
  1
AVE_GLOBAL
  0
LINE
  5
2F
100
AcDbEntity
  8
0
  6
BYBLOCK
 62
     0
100
AcDbLine
 10
80.795899
 20
82.477913
 30
0.0
 11
80.795899
 21
69.654722
 31
0.0
  0
LINE
  5
30
100
AcDbEntity
  8
0
  6
BYBLOCK
 62
     0
100
AcDbLine
 10
50.995899
 20
82.477913
 30
0.0
 11
50.995899
 21
69.654722
 31
0.0
  0
LINE
  5
31
100
AcDbEntity
  8
0
  6
BYBLOCK
 62
     0
100
AcDbLine
 10
77.795899
 20
69.834722
 30
0.0
 11
53.995899
 21
69.834722
 31
0.0
  0
SOLID
  5
32
100
AcDbEntity
  8
0
  6
BYBLOCK
 62
     0
100
AcDbTrace
 10
77.795899
 20
70.334722
 30
0.0
 11
77.795899
 21
69.334722
 31
0.0
 12
80.795899
 22
69.834722
 32
0.0
 13
80.795899
 23
69.834722
 33
0.0
  0
SOLID
  5
33
100
AcDbEntity
  8
0
  6
BYBLOCK
 62
     0
100
AcDbTrace
 10
53.995899
 20
70.334722
 30
0.0
 11
53.995899
 21
69.334722
 31
0.0
 12
50.995899
 22
69.834722
 32
0.0
 13
50.995899
 23
69.834722
 33
0.0
  0
TEXT
  5
34
100
AcDbEntity
  8
0
  6
BYBLOCK
 62
     0
100
AcDbText
 10
61.729232
 20
70.834722
 30
0.0
 40
2.5
  1
29.8
  7
ROMANS
100
AcDbText
  0
POINT
  5
35
100
AcDbEntity
  8
DEFPOINTS
  6
BYBLOCK
 62
     0
100
AcDbPoint
 10
80.795899
 20
82.540413
 30
0.0
  0
POINT
  5
36
100
AcDbEntity
  8
DEFPOINTS
  6
BYBLOCK
 62
     0
100
AcDbPoint
 10
50.995899
 20
82.540413
 30
0.0
  0
POINT
  5
37
100
AcDbEntity
  8
DEFPOINTS
  6
BYBLOCK
 62
     0
100
AcDbPoint
 10
50.995899
 20
69.834722
 30
0.0
  0
ENDBLK
  5
39
100
AcDbEntity
  8
0
100
AcDbBlockEnd
  0
BLOCK
  5
2B
100
AcDbEntity
  8
0
100
AcDbBlockBegin
  2
*D1
 70
     1
 10
0.0
 20
0.0
 30
0.0
  3
*D1
  1
AVE_GLOBAL
  0
LINE
  5
21
100
AcDbEntity
  8
0
  6
BYBLOCK
 62
     0
100
AcDbLine
 10
79.358399
 20
81.540413
 30
0.0
 11
88.698208
 21
81.540413
 31
0.0
  0
LINE
  5
22
100
AcDbEntity
  8
0
  6
BYBLOCK
 62
     0
100
AcDbLine
 10
76.372758
 20
121.340413
 30
0.0
 11
88.698208
 21
121.340413
 31
0.0
  0
LINE
  5
23
100
AcDbEntity
  8
0
  6
BYBLOCK
 62
     0
100
AcDbLine
 10
88.518208
 20
84.540413
 30
0.0
 11
88.518208
 21
118.340413
 31
0.0
  0
SOLID
  5
24
100
AcDbEntity
  8
0
  6
BYBLOCK
 62
     0
100
AcDbTrace
 10
88.018208
 20
84.540413
 30
0.0
 11
89.018208
 21
84.540413
 31
0.0
 12
88.518208
 22
81.540413
 32
0.0
 13
88.518208
 23
81.540413
 33
0.0
  0
SOLID
  5
25
100
AcDbEntity
  8
0
  6
BYBLOCK
 62
     0
100
AcDbTrace
 10
88.018208
 20
118.340413
 30
0.0
 11
89.018208
 21
118.340413
 31
0.0
 12
88.518208
 22
121.340413
 32
0.0
 13
88.518208
 23
121.340413
 33
0.0
  0
TEXT
  5
26
100
AcDbEntity
  8
0
  6
BYBLOCK
 62
     0
100
AcDbText
 10
87.518208
 20
97.273746
 30
0.0
 40
2.5
  1
39.8
 50
90.0
  7
ROMANS
100
AcDbText
  0
POINT
  5
27
100
AcDbEntity
  8
DEFPOINTS
  6
BYBLOCK
 62
     0
100
AcDbPoint
 10
79.295899
 20
81.540413
 30
0.0
  0
POINT
  5
29
100
AcDbEntity
  8
DEFPOINTS
  6
BYBLOCK
 62
     0
100
AcDbPoint
 10
76.310258
 20
121.340413
 30
0.0
  0
POINT
  5
2A
100
AcDbEntity
  8
DEFPOINTS
  6
BYBLOCK
 62
     0
100
AcDbPoint
 10
88.518208
 20
121.340413
 30
0.0
  0
ENDBLK
  5
2C
100
AcDbEntity
  8
0
100
AcDbBlockEnd
  0
ENDSEC
  0
SECTION
  2
ENTITIES
  0
DIMENSION
  5
1F
100
AcDbEntity
  8
COTATION1
100
AcDbDimension
  2
*D1
 10
88.518208
 20
121.340413
 30
0.0
 11
86.268208
 21
101.440413
 31
0.0
  3
SC_STAND
100
AcDbAlignedDimension
 13
79.295899
 23
81.540413
 33
0.0
 14
76.310258
 24
121.340413
 34
0.0
 50
90.0
100
AcDbRotatedDimension
  0
DIMENSION
  5
2D
100
AcDbEntity
  8
COTATION1
100
AcDbDimension
  2
*D0
 10
50.995899
 20
69.834722
 30
0.0
 11
65.895899
 21
72.084722
 31
0.0
  3
SC_STAND
100
AcDbAlignedDimension
 13
80.795899
 23
82.540413
 33
0.0
 14
50.995899
 24
82.540413
 34
0.0
100
AcDbRotatedDimension
  0
LINE
  5
3A
100
AcDbEntity
  8
AXE
100
AcDbLine
 10
74.394949
 20
86.024387
 30
0.0
 11
68.880879
 21
82.841062
 31
0.0
  0
ARC
  5
3D
100
AcDbEntity
  8
AXE
100
AcDbCircle
 10
73.644988
 20
87.323448
 30
0.0
 40
1.5
100
AcDbArc
 50
299.998256
 51
359.998256
  0
LINE
  5
3E
100
AcDbEntity
  8
AXE
100
AcDbLine
 10
75.145861
 20
115.990352
 30
0.0
 11
75.144988
 21
87.323403
 31
0.0
  0
ARC
  5
3F
100
AcDbEntity
  8
AXE
100
AcDbCircle
 10
73.145861
 20
115.990413
 30
0.0
 40
2.0
100
AcDbArc
 50
359.998256
 51
90.0
  0
LINE
  5
40
100
AcDbEntity
  8
AXE
100
AcDbLine
 10
69.634265
 20
117.990413
 30
0.0
 11
73.145861
 21
117.990413
 31
0.0
  0
ARC
  5
41
100
AcDbEntity
  8
ALPHA
100
AcDbCircle
 10
69.634265
 20
119.490413
 30
0.0
 40
1.5
100
AcDbArc
 50
257.905243
 51
270.0
  0
LINE
  5
43
100
AcDbEntity
  8
ALPHA
100
AcDbLine
 10
66.210193
 20
118.69009
 30
0.0
 11
69.319971
 21
118.023709
 31
0.0
  0
ARC
  5
44
100
AcDbEntity
  8
ALPHA
100
AcDbCircle
 10
65.895899
 20
117.223387
 30
0.0
 40
1.5
100
AcDbArc
 50
77.905243
 51
102.094757
  0
LINE
  5
45
100
AcDbEntity
  8
ALPHA
100
AcDbLine
 10
62.471827
 20
118.023709
 30
0.0
 11
65.581605
 21
118.69009
 31
0.0
  0
ARC
  5
46
100
AcDbEntity
  8
ALPHA
100
AcDbCircle
 10
62.157533
 20
119.490413
 30
0.0
 40
1.5
100
AcDbArc
 50
270.0
 51
282.094757
  0
LINE
  5
47
100
AcDbEntity
  8
AXE
100
AcDbLine
 10
58.645937
 20
117.990413
 30
0.0
 11
62.157533
 21
117.990413
 31
0.0
  0
ARC
  5
48
100
AcDbEntity
  8
AXE
100
AcDbCircle
 10
58.645937
 20
115.990413
 30
0.0
 40
2.0
100
AcDbArc
 50
90.0
 51
180.001744
  0
LINE
  5
49
100
AcDbEntity
  8
AXE
100
AcDbLine
 10
56.64681
 20
87.323403
 30
0.0
 11
56.645937
 21
115.990352
 31
0.0
  0
ARC
  5
4A
100
AcDbEntity
  8
AXE
100
AcDbCircle
 10
58.14681
 20
87.323448
 30
0.0
 40
1.5
100
AcDbArc
 50
180.001744
 51
240.001744
  0
LINE
  5
4B
100
AcDbEntity
  8
AXE
100
AcDbLine
 10
62.910919
 20
82.841062
 30
0.0
 11
57.396849
 21
86.024387
 31
0.0
  0
LINE
  5
4C
100
AcDbEntity
  8
ALPHA
100
AcDbLine
 10
70.795899
 20
91.382975
 30
0.0
 11
70.995899
 21
91.382975
 31
0.0
  0
LINE
  5
4D
100
AcDbEntity
  8
ALPHA
100
AcDbLine
 10
60.795899
 20
91.382975
 30
0.0
 11
60.995899
 21
91.382975
 31
0.0
  0
LINE
  5
4E
100
AcDbEntity
  8
ALPHA
100
AcDbLine
 10
62.769737
 20
82.686538
 30
0.0
 11
51.995899
 21
82.686538
 31
0.0
  0
LINE
  5
4F
100
AcDbEntity
  8
ALPHA
100
AcDbLine
 10
79.795899
 20
82.686538
 30
0.0
 11
69.022062
 21
82.686538
 31
0.0
  0
LINE
  5
50
100
AcDbEntity
  8
ALPHA
100
AcDbLine
 10
53.895899
 20
116.844873
 30
0.0
 11
53.895899
 21
116.564372
 31
0.0
  0
LWPOLYLINE
  5
51
100
AcDbEntity
  8
ALPHA
100
AcDbPolyline
 90
        5
 70
     0
 43
0.0
 10
57.795899
 20
116.844873
 10
57.910554
 20
116.822012
 10
58.007918
 20
116.756783
 10
58.073001
 20
116.659121
 10
58.095899
 20
116.543727
  0
LINE
  5
58
100
AcDbEntity
  8
ALPHA
100
AcDbLine
 10
60.995899
 20
92.240413
 30
0.0
 11
60.795899
 21
92.240413
 31
0.0
  0
LINE
  5
59
100
AcDbEntity
  8
ALPHA
100
AcDbLine
 10
70.995899
 20
92.240413
 30
0.0
 11
70.795899
 21
92.240413
 31
0.0
  0
LINE
  5
5A
100
AcDbEntity
  8
ALPHA
100
AcDbLine
 10
57.795899
 20
116.564372
 30
0.0
 11
57.795899
 21
116.844873
 31
0.0
  0
LWPOLYLINE
  5
5B
100
AcDbEntity
  8
ALPHA
100
AcDbPolyline
 90
        6
 70
     0
 43
0.0
 10
58.095899
 20
116.265514
 10
58.081074
 20
116.265554
 10
58.038138
 20
116.265459
 10
57.971028
 20
116.265584
 10
57.887278
 20
116.265455
 10
57.795899
 20
116.265514
  0
LINE
  5
63
100
AcDbEntity
  8
ALPHA
100
AcDbLine
 10
73.995899
 20
116.844873
 30
0.0
 11
77.895899
 21
116.844873
 31
0.0
  0
LINE
  5
64
100
AcDbEntity
  8
ALPHA
100
AcDbLine
 10
57.795899
 20
116.000679
 30
0.0
 11
57.795899
 21
116.265514
 31
0.0
  0
LINE
  5
65
100
AcDbEntity
  8
ALPHA
100
AcDbLine
 10
60.845899
 20
115.540413
 30
0.0
 11
60.995899
 21
115.540413
 31
0.0
  0
LWPOLYLINE
  5
66
100
AcDbEntity
  8
ALPHA
100
AcDbPolyline
 90
        5
 70
     0
 43
0.0
 10
57.795899
 20
116.265514
 10
57.795899
 20
116.374245
 10
57.795899
 20
116.468191
 10
57.795899
 20
116.534575
 10
57.795899
 20
116.564372
  0
LINE
  5
6D
100
AcDbEntity
  8
ALPHA
100
AcDbLine
 10
53.895899
 20
116.265514
 30
0.0
 11
57.795899
 21
116.265514
 31
0.0
  0
LWPOLYLINE
  5
6E
100
AcDbEntity
  8
ALPHA
100
AcDbPolyline
 90
        5
 70
     0
 43
0.0
 10
53.895899
 20
116.265514
 10
53.895903
 20
116.372789
 10
53.895897
 20
116.467433
 10
53.8959
 20
116.534369
 10
53.895899
 20
116.564372
  0
LINE
  5
75
100
AcDbEntity
  8
ALPHA
100
AcDbLine
 10
53.895899
 20
116.564372
 30
0.0
 11
57.795899
 21
116.564372
 31
0.0
  0
LINE
  5
76
100
AcDbEntity
  8
ALPHA
100
AcDbLine
 10
70.795899
 20
115.540413
 30
0.0
 11
70.995899
 21
115.540413
 31
0.0
  0
LINE
  5
77
100
AcDbEntity
  8
ALPHA
100
AcDbLine
 10
79.795899
 20
82.686538
 30
0.0
 11
79.795899
 21
81.540413
 31
0.0
  0
LWPOLYLINE
  5
78
100
AcDbEntity
  8
ALPHA
100
AcDbPolyline
 90
        7
 70
     0
 43
0.0
 10
79.795899
 20
82.686538
 10
80.052568
 20
82.720556
 10
80.293174
 20
82.820988
 10
80.500452
 20
82.981366
 10
80.660357
 20
83.191504
 10
80.761246
 20
83.436967
 10
80.795899
 20
83.701965
  0
LWPOLYLINE
  5
81
100
AcDbEntity
  8
ALPHA
100
AcDbPolyline
 90
       10
 70
     0
 43
0.0
 10
64.189475
 20
120.940413
 10
64.532848
 20
121.243177
 10
64.904691
 20
121.468715
 10
65.294681
 20
121.617912
 10
65.694542
 20
121.692027
 10
66.097518
 20
121.692003
 10
66.497369
 20
121.617841
 10
66.887334
 20
121.468604
 10
67.259197
 20
121.242996
 10
67.60255
 20
120.940413
  0
LINE
  5
8D
100
AcDbEntity
  8
ALPHA
100
AcDbLine
 10
51.995899
 20
81.540413
 30
0.0
 11
51.995899
 21
82.686538
 31
0.0
  0
LINE
  5
8E
100
AcDbEntity
  8
ALPHA
100
AcDbLine
 10
64.189475
 20
120.940413
 30
0.0
 11
63.295899
 21
120.940413
 31
0.0
  0
LWPOLYLINE
  5
8F
100
AcDbEntity
  8
ALPHA
100
AcDbPolyline
 90
        4
 70
     0
 43
0.0
 10
64.189475
 20
120.940413
 10
64.079268
 20
120.65121
 10
63.978056
 20
120.351074
 10
63.884935
 20
120.040413
  0
LINE
  5
95
100
AcDbEntity
  8
ALPHA
100
AcDbLine
 10
69.295899
 20
117.940413
 30
0.0
 11
69.695899
 21
118.137863
 31
0.0
  0
LINE
  5
96
100
AcDbEntity
  8
ALPHA
100
AcDbLine
 10
69.295899
 20
117.940413
 30
0.0
 11
69.295899
 21
116.140413
 31
0.0
  0
LWPOLYLINE
  5
97
100
AcDbEntity
  8
ALPHA
100
AcDbPolyline
 90
        4
 70
     0
 43
0.0
 10
67.60255
 20
120.940413
 10
67.71254
 20
120.651182
 10
67.813747
 20
120.35106
 10
67.906864
 20
120.040413
  0
LINE
  5
9D
100
AcDbEntity
  8
ALPHA
100
AcDbLine
 10
68.495899
 20
120.940413
 30
0.0
 11
67.60255
 21
120.940413
 31
0.0
  0
LINE
  5
9E
100
AcDbEntity
  8
ALPHA
100
AcDbLine
 10
72.495899
 20
117.793114
 30
0.0
 11
72.495899
 21
116.040413
 31
0.0
  0
LINE
  5
9F
100
AcDbEntity
  8
ALPHA
100
AcDbLine
 10
72.095899
 20
118.068338
 30
0.0
 11
72.495899
 21
117.793114
 31
0.0
  0
LINE
  5
A0
100
AcDbEntity
  8
ALPHA
100
AcDbLine
 10
70.995899
 20
112.140413
 30
0.0
 11
70.795899
 21
112.140413
 31
0.0
  0
LINE
  5
A1
100
AcDbEntity
  8
ALPHA
100
AcDbLine
 10
79.695899
 20
118.068338
 30
0.0
 11
79.295899
 21
117.793114
 31
0.0
  0
LINE
  5
A2
100
AcDbEntity
  8
ALPHA
100
AcDbLine
 10
79.295899
 20
117.793114
 30
0.0
 11
79.295899
 21
116.040413
 31
0.0
  0
LWPOLYLINE
  5
A3
100
AcDbEntity
  8
ALPHA
100
AcDbPolyline
 90
        7
 70
     0
 43
0.0
 10
50.995899
 20
83.701965
 10
51.030553
 20
83.436967
 10
51.131441
 20
83.191504
 10
51.291346
 20
82.981366
 10
51.498624
 20
82.820988
 10
51.739231
 20
82.720556
 10
51.995899
 20
82.686538
  0
LINE
  5
AC
100
AcDbEntity
  8
ALPHA
100
AcDbLine
 10
79.295899
 20
117.793114
 30
0.0
 11
72.495899
 21
117.793114
 31
0.0
  0
LINE
  5
AD
100
AcDbEntity
  8
ALPHA
100
AcDbLine
 10
68.495899
 20
120.940413
 30
0.0
 11
68.495899
 21
120.040413
 31
0.0
  0
LWPOLYLINE
  5
AE
100
AcDbEntity
  8
ALPHA
100
AcDbPolyline
 90
        6
 70
     0
 43
0.0
 10
68.495899
 20
120.940413
 10
68.583147
 20
120.922074
 10
68.666874
 20
120.864768
 10
68.733733
 20
120.774742
 10
68.778919
 20
120.656859
 10
68.795899
 20
120.516149
  0
LINE
  5
B6
100
AcDbEntity
  8
ALPHA
100
AcDbLine
 10
62.495899
 20
117.940413
 30
0.0
 11
62.095899
 21
118.137863
 31
0.0
  0
LINE
  5
B7
100
AcDbEntity
  8
ALPHA
100
AcDbLine
 10
62.495899
 20
116.140413
 30
0.0
 11
62.495899
 21
117.940413
 31
0.0
  0
LINE
  5
B8
100
AcDbEntity
  8
ALPHA
100
AcDbLine
 10
63.295899
 20
120.040413
 30
0.0
 11
63.295899
 21
120.940413
 31
0.0
  0
LINE
  5
B9
100
AcDbEntity
  8
ALPHA
100
AcDbLine
 10
57.795899
 20
116.844873
 30
0.0
 11
53.895899
 21
116.844873
 31
0.0
  0
LINE
  5
BA
100
AcDbEntity
  8
ALPHA
100
AcDbLine
 10
60.995899
 20
112.140413
 30
0.0
 11
60.795899
 21
112.140413
 31
0.0
  0
LINE
  5
BB
100
AcDbEntity
  8
ALPHA
100
AcDbLine
 10
59.695899
 20
118.068338
 30
0.0
 11
59.295899
 21
117.793114
 31
0.0
  0
LINE
  5
BC
100
AcDbEntity
  8
ALPHA
100
AcDbLine
 10
59.295899
 20
116.040413
 30
0.0
 11
59.295899
 21
117.793114
 31
0.0
  0
LINE
  5
BD
100
AcDbEntity
  8
ALPHA
100
AcDbLine
 10
52.495899
 20
116.040413
 30
0.0
 11
52.495899
 21
117.793114
 31
0.0
  0
LINE
  5
BE
100
AcDbEntity
  8
ALPHA
100
AcDbLine
 10
52.095899
 20
118.068338
 30
0.0
 11
52.495899
 21
117.793114
 31
0.0
  0
LWPOLYLINE
  5
BF
100
AcDbEntity
  8
ALPHA
100
AcDbPolyline
 90
        6
 70
     0
 43
0.0
 10
62.995899
 20
120.516149
 10
63.012879
 20
120.656859
 10
63.058065
 20
120.774742
 10
63.124924
 20
120.864768
 10
63.208651
 20
120.922074
 10
63.295899
 20
120.940413
  0
LINE
  5
C7
100
AcDbEntity
  8
ALPHA
100
AcDbLine
 10
59.695899
 20
119.513618
 30
0.0
 11
52.2611
 21
119.513618
 31
0.0
  0
LINE
  5
C8
100
AcDbEntity
  8
ALPHA
100
AcDbLine
 10
59.695899
 20
119.25381
 30
0.0
 11
52.139099
 21
119.25381
 31
0.0
  0
LINE
  5
C9
100
AcDbEntity
  8
ALPHA
100
AcDbLine
 10
59.295899
 20
117.793114
 30
0.0
 11
52.495899
 21
117.793114
 31
0.0
  0
LINE
  5
CA
100
AcDbEntity
  8
ALPHA
100
AcDbLine
 10
79.652699
 20
119.25381
 30
0.0
 11
72.095899
 21
119.25381
 31
0.0
  0
LINE
  5
CB
100
AcDbEntity
  8
ALPHA
100
AcDbLine
 10
79.530698
 20
119.513618
 30
0.0
 11
72.095899
 21
119.513618
 31
0.0
  0
LINE
  5
CC
100
AcDbEntity
  8
ALPHA
100
AcDbLine
 10
62.995899
 20
119.540869
 30
0.0
 11
62.095899
 21
119.540869
 31
0.0
  0
LINE
  5
CD
100
AcDbEntity
  8
ALPHA
100
AcDbLine
 10
62.995899
 20
119.263704
 30
0.0
 11
62.095899
 21
119.263704
 31
0.0
  0
LINE
  5
CE
100
AcDbEntity
  8
ALPHA
100
AcDbLine
 10
62.495899
 20
117.940413
 30
0.0
 11
62.995899
 21
117.940413
 31
0.0
  0
LINE
  5
CF
100
AcDbEntity
  8
ALPHA
100
AcDbLine
 10
69.295899
 20
117.940413
 30
0.0
 11
68.795899
 21
117.940413
 31
0.0
  0
LINE
  5
D0
100
AcDbEntity
  8
ALPHA
100
AcDbLine
 10
69.695899
 20
119.540869
 30
0.0
 11
68.795899
 21
119.540869
 31
0.0
  0
LINE
  5
D1
100
AcDbEntity
  8
ALPHA
100
AcDbLine
 10
69.695899
 20
119.263704
 30
0.0
 11
68.795899
 21
119.263704
 31
0.0
  0
LWPOLYLINE
  5
D2
100
AcDbEntity
  8
ALPHA
100
AcDbPolyline
 90
        5
 70
     0
 43
0.0
 10
73.695899
 20
116.543727
 10
73.718797
 20
116.659121
 10
73.78388
 20
116.756783
 10
73.881244
 20
116.822012
 10
73.995899
 20
116.844873
  0
LWPOLYLINE
  5
D9
100
AcDbEntity
  8
ALPHA
100
AcDbPolyline
 90
        4
 70
     0
 43
0.0
 10
73.753194
 20
116.441178
 10
73.819563
 20
116.507295
 10
73.903194
 20
116.549745
 10
73.995899
 20
116.564372
  0
LWPOLYLINE
  5
DF
100
AcDbEntity
  8
ALPHA
100
AcDbPolyline
 90
        3
 70
     0
 43
0.0
 10
73.695899
 20
116.265514
 10
73.710582
 20
116.357866
 10
73.753194
 20
116.441178
  0
LINE
  5
E4
100
AcDbEntity
  8
ALPHA
100
AcDbLine
 10
62.595899
 20
116.140413
 30
0.0
 11
62.495899
 21
116.140413
 31
0.0
  0
LINE
  5
E5
100
AcDbEntity
  8
ALPHA
100
AcDbLine
 10
69.295899
 20
116.140413
 30
0.0
 11
69.195899
 21
116.140413
 31
0.0
  0
LINE
  5
E6
100
AcDbEntity
  8
ALPHA
100
AcDbLine
 10
69.295899
 20
116.140413
 30
0.0
 11
69.469661
 21
115.933332
 31
0.0
  0
LINE
  5
E7
100
AcDbEntity
  8
ALPHA
100
AcDbLine
 10
62.495899
 20
116.140413
 30
0.0
 11
62.323664
 21
115.935151
 31
0.0
  0
LINE
  5
E8
100
AcDbEntity
  8
ALPHA
100
AcDbLine
 10
77.895899
 20
116.265514
 30
0.0
 11
77.895899
 21
116.000679
 31
0.0
  0
LINE
  5
E9
100
AcDbEntity
  8
ALPHA
100
AcDbLine
 10
77.895899
 20
116.265514
 30
0.0
 11
78.195899
 21
116.265514
 31
0.0
  0
LWPOLYLINE
  5
EA
100
AcDbEntity
  8
ALPHA
100
AcDbPolyline
 90
        3
 70
     0
 43
0.0
 10
78.138604
 20
116.441178
 10
78.181216
 20
116.357866
 10
78.195899
 20
116.265514
  0
LWPOLYLINE
  5
EF
100
AcDbEntity
  8
ALPHA
100
AcDbPolyline
 90
        4
 70
     0
 43
0.0
 10
77.895899
 20
116.564372
 10
77.988604
 20
116.549745
 10
78.072235
 20
116.507295
 10
78.138604
 20
116.441178
  0
LINE
  5
F5
100
AcDbEntity
  8
ALPHA
100
AcDbLine
 10
77.895899
 20
116.265514
 30
0.0
 11
77.895899
 21
116.564372
 31
0.0
  0
LINE
  5
F6
100
AcDbEntity
  8
ALPHA
100
AcDbLine
 10
73.995899
 20
116.265514
 30
0.0
 11
77.895899
 21
116.265514
 31
0.0
  0
LINE
  5
F7
100
AcDbEntity
  8
ALPHA
100
AcDbLine
 10
73.995899
 20
116.265514
 30
0.0
 11
73.995899
 21
116.564372
 31
0.0
  0
LINE
  5
F8
100
AcDbEntity
  8
ALPHA
100
AcDbLine
 10
73.995899
 20
116.564372
 30
0.0
 11
77.895899
 21
116.564372
 31
0.0
  0
LWPOLYLINE
  5
F9
100
AcDbEntity
  8
ALPHA
100
AcDbPolyline
 90
        5
 70
     0
 43
0.0
 10
73.995899
 20
116.265514
 10
73.881094
 20
116.265391
 10
73.783767
 20
116.265348
 10
73.718735
 20
116.265391
 10
73.695899
 20
116.265514
  0
LINE
  5
100
100
AcDbEntity
  8
ALPHA
100
AcDbLine
 10
73.995899
 20
116.000679
 30
0.0
 11
73.995899
 21
116.265514
 31
0.0
  0
LINE
  5
101
100
AcDbEntity
  8
ALPHA
100
AcDbLine
 10
73.995899
 20
116.844873
 30
0.0
 11
73.995899
 21
116.564372
 31
0.0
  0
LINE
  5
102
100
AcDbEntity
  8
ALPHA
100
AcDbLine
 10
77.895899
 20
116.564372
 30
0.0
 11
77.895899
 21
116.844873
 31
0.0
  0
LWPOLYLINE
  5
103
100
AcDbEntity
  8
ALPHA
100
AcDbPolyline
 90
        5
 70
     0
 43
0.0
 10
77.895899
 20
116.844873
 10
78.010554
 20
116.822012
 10
78.107918
 20
116.756783
 10
78.173001
 20
116.659121
 10
78.195899
 20
116.543727
  0
LWPOLYLINE
  5
10A
100
AcDbEntity
  8
ALPHA
100
AcDbPolyline
 90
        5
 70
     0
 43
0.0
 10
53.595899
 20
116.543727
 10
53.618797
 20
116.659121
 10
53.68388
 20
116.756783
 10
53.781244
 20
116.822012
 10
53.895899
 20
116.844873
  0
LINE
  5
111
100
AcDbEntity
  8
ALPHA
100
AcDbLine
 10
62.095899
 20
117.840413
 30
0.0
 11
59.695899
 21
117.840413
 31
0.0
  0
LWPOLYLINE
  5
112
100
AcDbEntity
  8
ALPHA
100
AcDbPolyline
 90
        4
 70
     0
 43
0.0
 10
53.652332
 20
116.439986
 10
53.718965
 20
116.506865
 10
53.802807
 20
116.549616
 10
53.895899
 20
116.564372
  0
LWPOLYLINE
  5
118
100
AcDbEntity
  8
ALPHA
100
AcDbPolyline
 90
        3
 70
     0
 43
0.0
 10
53.595899
 20
116.265514
 10
53.610152
 20
116.356539
 10
53.652332
 20
116.439986
  0
LINE
  5
11D
100
AcDbEntity
  8
ALPHA
100
AcDbLine
 10
72.095899
 20
117.840413
 30
0.0
 11
69.695899
 21
117.840413
 31
0.0
  0
LWPOLYLINE
  5
11E
100
AcDbEntity
  8
ALPHA
100
AcDbPolyline
 90
        4
 70
     0
 43
0.0
 10
58.038138
 20
116.44182
 10
57.971028
 20
116.508158
 10
57.887278
 20
116.550176
 10
57.795899
 20
116.564372
  0
LWPOLYLINE
  5
124
100
AcDbEntity
  8
ALPHA
100
AcDbPolyline
 90
        3
 70
     0
 43
0.0
 10
58.095899
 20
116.265514
 10
58.081074
 20
116.358296
 10
58.038138
 20
116.44182
  0
LWPOLYLINE
  5
129
100
AcDbEntity
  8
ALPHA
100
AcDbPolyline
 90
        6
 70
     0
 43
0.0
 10
53.595899
 20
116.265514
 10
53.610582
 20
116.265514
 10
53.653194
 20
116.265514
 10
53.719563
 20
116.265514
 10
53.803194
 20
116.265514
 10
53.895899
 20
116.265514
  0
LINE
  5
131
100
AcDbEntity
  8
ALPHA
100
AcDbLine
 10
53.895899
 20
116.265514
 30
0.0
 11
53.895899
 21
116.000679
 31
0.0
  0
ARC
  5
132
100
AcDbEntity
  8
ALPHA
100
AcDbCircle
 10
65.895899
 20
75.540413
 30
0.0
 40
7.8
100
AcDbArc
 50
66.372421
 51
113.627579
  0
ARC
  5
133
100
AcDbEntity
  8
ALPHA
100
AcDbCircle
 10
65.895899
 20
100.040413
 30
0.0
 40
15.25
100
AcDbArc
 50
108.749149
 51
109.346161
  0
ARC
  5
134
100
AcDbEntity
  8
ALPHA
100
AcDbCircle
 10
65.895899
 20
100.040413
 30
0.0
 40
15.25
100
AcDbArc
 50
70.454835
 51
71.250851
  0
LINE
  5
135
100
AcDbEntity
  8
ALPHA
100
AcDbLine
 10
64.720484
 20
120.040413
 30
0.0
 11
63.884935
 21
120.040413
 31
0.0
  0
LINE
  5
136
100
AcDbEntity
  8
ALPHA
100
AcDbLine
 10
67.906864
 20
120.040413
 30
0.0
 11
67.071314
 21
120.040413
 31
0.0
  0
ARC
  5
137
100
AcDbEntity
  8
ALPHA
100
AcDbCircle
 10
65.895899
 20
75.540413
 30
0.0
 40
7.8
100
AcDbArc
 50
118.087839
 51
129.715137
  0
ARC
  5
138
100
AcDbEntity
  8
ALPHA
100
AcDbCircle
 10
65.895899
 20
75.540413
 30
0.0
 40
7.8
100
AcDbArc
 50
50.284863
 51
61.912017
  0
LWPOLYLINE
  5
139
100
AcDbEntity
  8
ALPHA
100
AcDbPolyline
 90
        6
 70
     0
 43
0.0
 10
67.071314
 20
120.040413
 10
66.612621
 20
120.254167
 10
66.136587
 20
120.360155
 10
65.655211
 20
120.360155
 10
65.179177
 20
120.254167
 10
64.720484
 20
120.040413
  0
LWPOLYLINE
  5
141
100
AcDbEntity
  8
ALPHA
100
AcDbPolyline
 90
        5
 70
     0
 43
0.0
 10
66.707079
 20
117.940413
 10
66.30482
 20
117.825081
 10
65.895899
 20
117.786823
 10
65.486979
 20
117.825081
 10
65.08472
 20
117.940413
  0
LINE
  5
148
100
AcDbEntity
  8
ALPHA
100
AcDbLine
 10
63.884935
 20
120.040413
 30
0.0
 11
63.295899
 21
120.040413
 31
0.0
  0
LINE
  5
149
100
AcDbEntity
  8
ALPHA
100
AcDbLine
 10
79.295899
 20
81.540413
 30
0.0
 11
72.395899
 21
81.540413
 31
0.0
  0
LINE
  5
14A
100
AcDbEntity
  8
ALPHA
100
AcDbLine
 10
68.495899
 20
120.040413
 30
0.0
 11
67.906864
 21
120.040413
 31
0.0
  0
LINE
  5
14B
100
AcDbEntity
  8
ALPHA
100
AcDbLine
 10
59.395899
 20
81.540413
 30
0.0
 11
52.495899
 21
81.540413
 31
0.0
  0
LINE
  5
14C
100
AcDbEntity
  8
ALPHA
100
AcDbLine
 10
69.695899
 20
118.137863
 30
0.0
 11
69.695899
 21
116.040413
 31
0.0
  0
LINE
  5
14D
100
AcDbEntity
  8
ALPHA
100
AcDbLine
 10
72.095899
 20
118.068338
 30
0.0
 11
72.095899
 21
116.040413
 31
0.0
  0
LINE
  5
14E
100
AcDbEntity
  8
ALPHA
100
AcDbLine
 10
70.995899
 20
112.540413
 30
0.0
 11
70.795899
 21
112.540413
 31
0.0
  0
LINE
  5
14F
100
AcDbEntity
  8
ALPHA
100
AcDbLine
 10
79.695899
 20
118.068338
 30
0.0
 11
79.695899
 21
116.040413
 31
0.0
  0
LINE
  5
150
100
AcDbEntity
  8
ALPHA
100
AcDbLine
 10
79.695899
 20
118.963063
 30
0.0
 11
79.695899
 21
118.068338
 31
0.0
  0
LINE
  5
151
100
AcDbEntity
  8
ALPHA
100
AcDbLine
 10
72.095899
 20
119.25381
 30
0.0
 11
72.095899
 21
118.068338
 31
0.0
  0
ARC
  5
152
100
AcDbEntity
  8
ALPHA
100
AcDbCircle
 10
68.495899
 20
119.740413
 30
0.0
 40
0.3
100
AcDbArc
 50
0.0
 51
90.0
  0
LINE
  5
153
100
AcDbEntity
  8
ALPHA
100
AcDbLine
 10
62.095899
 20
116.040413
 30
0.0
 11
62.095899
 21
118.137863
 31
0.0
  0
ARC
  5
154
100
AcDbEntity
  8
ALPHA
100
AcDbCircle
 10
63.295899
 20
119.740413
 30
0.0
 40
0.3
100
AcDbArc
 50
90.0
 51
180.0
  0
LINE
  5
155
100
AcDbEntity
  8
ALPHA
100
AcDbLine
 10
60.995899
 20
112.540413
 30
0.0
 11
60.795899
 21
112.540413
 31
0.0
  0
LINE
  5
156
100
AcDbEntity
  8
ALPHA
100
AcDbLine
 10
59.695899
 20
116.040413
 30
0.0
 11
59.695899
 21
118.068338
 31
0.0
  0
LINE
  5
157
100
AcDbEntity
  8
ALPHA
100
AcDbLine
 10
52.095899
 20
116.040413
 30
0.0
 11
52.095899
 21
118.068338
 31
0.0
  0
LINE
  5
158
100
AcDbEntity
  8
ALPHA
100
AcDbLine
 10
68.795899
 20
117.940413
 30
0.0
 11
66.707079
 21
117.940413
 31
0.0
  0
LINE
  5
159
100
AcDbEntity
  8
ALPHA
100
AcDbLine
 10
65.08472
 20
117.940413
 30
0.0
 11
62.995899
 21
117.940413
 31
0.0
  0
LINE
  5
15A
100
AcDbEntity
  8
ALPHA
100
AcDbLine
 10
59.695899
 20
119.513618
 30
0.0
 11
59.695899
 21
119.25381
 31
0.0
  0
LINE
  5
15B
100
AcDbEntity
  8
ALPHA
100
AcDbLine
 10
52.095899
 20
118.068338
 30
0.0
 11
52.095899
 21
118.963063
 31
0.0
  0
LINE
  5
15C
100
AcDbEntity
  8
ALPHA
100
AcDbLine
 10
72.095899
 20
119.25381
 30
0.0
 11
72.095899
 21
119.513618
 31
0.0
  0
LINE
  5
15D
100
AcDbEntity
  8
ALPHA
100
AcDbLine
 10
59.695899
 20
118.068338
 30
0.0
 11
59.695899
 21
119.25381
 31
0.0
  0
LINE
  5
15E
100
AcDbEntity
  8
ALPHA
100
AcDbLine
 10
62.995899
 20
119.540869
 30
0.0
 11
62.995899
 21
119.263704
 31
0.0
  0
LINE
  5
15F
100
AcDbEntity
  8
ALPHA
100
AcDbLine
 10
62.095899
 20
119.263704
 30
0.0
 11
62.095899
 21
119.540869
 31
0.0
  0
LINE
  5
160
100
AcDbEntity
  8
ALPHA
100
AcDbLine
 10
69.695899
 20
119.540869
 30
0.0
 11
69.695899
 21
119.263704
 31
0.0
  0
LINE
  5
161
100
AcDbEntity
  8
ALPHA
100
AcDbLine
 10
68.795899
 20
119.263704
 30
0.0
 11
68.795899
 21
119.540869
 31
0.0
  0
LINE
  5
162
100
AcDbEntity
  8
ALPHA
100
AcDbLine
 10
62.095899
 20
119.263704
 30
0.0
 11
62.095899
 21
118.137863
 31
0.0
  0
LINE
  5
163
100
AcDbEntity
  8
ALPHA
100
AcDbLine
 10
69.695899
 20
118.137863
 30
0.0
 11
69.695899
 21
119.263704
 31
0.0
  0
LINE
  5
164
100
AcDbEntity
  8
ALPHA
100
AcDbLine
 10
62.995899
 20
119.540869
 30
0.0
 11
62.995899
 21
120.516149
 31
0.0
  0
LINE
  5
165
100
AcDbEntity
  8
ALPHA
100
AcDbLine
 10
68.795899
 20
119.540869
 30
0.0
 11
68.795899
 21
120.516149
 31
0.0
  0
LINE
  5
166
100
AcDbEntity
  8
ALPHA
100
AcDbLine
 10
79.195899
 20
119.829088
 30
0.0
 11
76.810258
 21
121.206438
 31
0.0
  0
LINE
  5
167
100
AcDbEntity
  8
ALPHA
100
AcDbLine
 10
54.98154
 20
121.206438
 30
0.0
 11
52.595899
 21
119.829088
 31
0.0
  0
ARC
  5
168
100
AcDbEntity
  8
ALPHA
100
AcDbCircle
 10
65.895899
 20
100.040413
 30
0.0
 40
10.15
100
AcDbArc
 50
11.382046
 51
12.241668
  0
ARC
  5
169
100
AcDbEntity
  8
ALPHA
100
AcDbCircle
 10
65.895899
 20
100.040413
 30
0.0
 40
10.15
100
AcDbArc
 50
347.757985
 51
348.620814
  0
ARC
  5
16A
100
AcDbEntity
  8
ALPHA
100
AcDbCircle
 10
65.895899
 20
100.040413
 30
0.0
 40
10.15
100
AcDbArc
 50
191.379186
 51
192.242015
  0
ARC
  5
16B
100
AcDbEntity
  8
ALPHA
100
AcDbCircle
 10
65.895899
 20
100.040413
 30
0.0
 40
10.15
100
AcDbArc
 50
167.758332
 51
168.617954
  0
LINE
  5
16C
100
AcDbEntity
  8
ALPHA
100
AcDbLine
 10
62.995899
 20
119.263704
 30
0.0
 11
62.995899
 21
117.940413
 31
0.0
  0
LINE
  5
16D
100
AcDbEntity
  8
ALPHA
100
AcDbLine
 10
68.795899
 20
117.940413
 30
0.0
 11
68.795899
 21
119.263704
 31
0.0
  0
LINE
  5
16E
100
AcDbEntity
  8
ALPHA
100
AcDbLine
 10
79.295899
 20
81.540413
 30
0.0
 11
79.295899
 21
82.422048
 31
0.0
  0
LINE
  5
16F
100
AcDbEntity
  8
ALPHA
100
AcDbLine
 10
72.395899
 20
82.422048
 30
0.0
 11
79.295899
 21
82.422048
 31
0.0
  0
LINE
  5
170
100
AcDbEntity
  8
ALPHA
100
AcDbLine
 10
72.395899
 20
81.540413
 30
0.0
 11
72.395899
 21
82.422048
 31
0.0
  0
LINE
  5
171
100
AcDbEntity
  8
ALPHA
100
AcDbLine
 10
70.895899
 20
81.540413
 30
0.0
 11
70.895899
 21
82.422048
 31
0.0
  0
LINE
  5
172
100
AcDbEntity
  8
ALPHA
100
AcDbLine
 10
69.567833
 20
82.422048
 30
0.0
 11
70.895899
 21
82.422048
 31
0.0
  0
ARC
  5
173
100
AcDbEntity
  8
ALPHA
100
AcDbCircle
 10
65.895899
 20
75.540413
 30
0.0
 40
7.8
100
AcDbArc
 50
61.916307
 51
66.372421
  0
ARC
  5
174
100
AcDbEntity
  8
ALPHA
100
AcDbCircle
 10
65.895899
 20
75.540413
 30
0.0
 40
7.8
100
AcDbArc
 50
113.627579
 51
118.083693
  0
LINE
  5
175
100
AcDbEntity
  8
ALPHA
100
AcDbLine
 10
60.895899
 20
82.422048
 30
0.0
 11
62.223965
 21
82.422048
 31
0.0
  0
LINE
  5
176
100
AcDbEntity
  8
ALPHA
100
AcDbLine
 10
60.895899
 20
81.540413
 30
0.0
 11
60.895899
 21
82.422048
 31
0.0
  0
LINE
  5
177
100
AcDbEntity
  8
ALPHA
100
AcDbLine
 10
59.395899
 20
81.540413
 30
0.0
 11
59.395899
 21
82.422048
 31
0.0
  0
LINE
  5
178
100
AcDbEntity
  8
ALPHA
100
AcDbLine
 10
52.495899
 20
82.422048
 30
0.0
 11
59.395899
 21
82.422048
 31
0.0
  0
LINE
  5
179
100
AcDbEntity
  8
ALPHA
100
AcDbLine
 10
52.495899
 20
81.540413
 30
0.0
 11
52.495899
 21
82.422048
 31
0.0
  0
ARC
  5
17A
100
AcDbEntity
  8
ALPHA
100
AcDbCircle
 10
70.40949
 20
123.340413
 30
0.0
 40
2.0
100
AcDbArc
 50
234.518642
 51
270.0
  0
ARC
  5
17B
100
AcDbEntity
  8
ALPHA
100
AcDbCircle
 10
61.382308
 20
123.340413
 30
0.0
 40
2.0
100
AcDbArc
 50
270.0
 51
305.481358
  0
ARC
  5
17C
100
AcDbEntity
  8
ALPHA
100
AcDbCircle
 10
65.895899
 20
117.040413
 30
0.0
 40
5.75
100
AcDbArc
 50
54.332551
 51
125.667449
  0
ARC
  5
17D
100
AcDbEntity
  8
ALPHA
100
AcDbCircle
 10
65.895899
 20
100.040413
 30
0.0
 40
8.25
100
AcDbArc
 50
126.4829
 51
128.231827
  0
ARC
  5
17E
100
AcDbEntity
  8
ALPHA
100
AcDbCircle
 10
65.895899
 20
100.040413
 30
0.0
 40
8.25
100
AcDbArc
 50
51.768173
 51
53.5171
  0
LINE
  5
17F
100
AcDbEntity
  8
ALPHA
100
AcDbLine
 10
80.795899
 20
83.701965
 30
0.0
 11
80.795899
 21
82.540413
 31
0.0
  0
LINE
  5
180
100
AcDbEntity
  8
ALPHA
100
AcDbLine
 10
50.995899
 20
82.540413
 30
0.0
 11
50.995899
 21
83.701965
 31
0.0
  0
LINE
  5
181
100
AcDbEntity
  8
ALPHA
100
AcDbLine
 10
80.795899
 20
83.701965
 30
0.0
 11
80.795899
 21
84.040413
 31
0.0
  0
LINE
  5
182
100
AcDbEntity
  8
ALPHA
100
AcDbLine
 10
55.48154
 20
121.340413
 30
0.0
 11
61.382308
 21
121.340413
 31
0.0
  0
LINE
  5
183
100
AcDbEntity
  8
ALPHA
100
AcDbLine
 10
70.40949
 20
121.340413
 30
0.0
 11
76.310258
 21
121.340413
 31
0.0
  0
LINE
  5
184
100
AcDbEntity
  8
ALPHA
100
AcDbLine
 10
50.995899
 20
83.701965
 30
0.0
 11
50.995899
 21
84.040413
 31
0.0
  0
LINE
  5
185
100
AcDbEntity
  8
ALPHA
100
AcDbLine
 10
60.911925
 20
81.540413
 30
0.0
 11
60.895899
 21
81.540413
 31
0.0
  0
LINE
  5
186
100
AcDbEntity
  8
ALPHA
100
AcDbLine
 10
60.895899
 20
81.540413
 30
0.0
 11
59.395899
 21
81.540413
 31
0.0
  0
LINE
  5
187
100
AcDbEntity
  8
ALPHA
100
AcDbLine
 10
52.495899
 20
81.540413
 30
0.0
 11
51.995899
 21
81.540413
 31
0.0
  0
LINE
  5
188
100
AcDbEntity
  8
ALPHA
100
AcDbLine
 10
79.795899
 20
81.540413
 30
0.0
 11
79.295899
 21
81.540413
 31
0.0
  0
LINE
  5
189
100
AcDbEntity
  8
ALPHA
100
AcDbLine
 10
72.395899
 20
81.540413
 30
0.0
 11
70.895899
 21
81.540413
 31
0.0
  0
LINE
  5
18A
100
AcDbEntity
  8
ALPHA
100
AcDbLine
 10
70.895899
 20
81.540413
 30
0.0
 11
70.879873
 21
81.540413
 31
0.0
  0
ARC
  5
18B
100
AcDbEntity
  8
ALPHA
100
AcDbCircle
 10
53.095899
 20
118.963063
 30
0.0
 40
1.0
100
AcDbArc
 50
120.0
 51
146.594879
  0
ARC
  5
18C
100
AcDbEntity
  8
ALPHA
100
AcDbCircle
 10
53.095899
 20
118.963063
 30
0.0
 40
1.0
100
AcDbArc
 50
146.594879
 51
163.097273
  0
ARC
  5
18D
100
AcDbEntity
  8
ALPHA
100
AcDbCircle
 10
53.095899
 20
118.963063
 30
0.0
 40
1.0
100
AcDbArc
 50
163.097273
 51
180.0
  0
ARC
  5
18E
100
AcDbEntity
  8
ALPHA
100
AcDbCircle
 10
78.695899
 20
118.963063
 30
0.0
 40
1.0
100
AcDbArc
 50
0.0
 51
16.902727
  0
ARC
  5
18F
100
AcDbEntity
  8
ALPHA
100
AcDbCircle
 10
78.695899
 20
118.963063
 30
0.0
 40
1.0
100
AcDbArc
 50
16.902727
 51
33.405121
  0
ARC
  5
190
100
AcDbEntity
  8
ALPHA
100
AcDbCircle
 10
78.695899
 20
118.963063
 30
0.0
 40
1.0
100
AcDbArc
 50
33.405121
 51
60.0
  0
ARC
  5
191
100
AcDbEntity
  8
ALPHA
100
AcDbCircle
 10
76.310258
 20
120.340413
 30
0.0
 40
1.0
100
AcDbArc
 50
60.0
 51
90.0
  0
ARC
  5
192
100
AcDbEntity
  8
ALPHA
100
AcDbCircle
 10
55.48154
 20
120.340413
 30
0.0
 40
1.0
100
AcDbArc
 50
90.0
 51
120.0
  0
LINE
  5
193
100
AcDbEntity
  8
ALPHA
100
AcDbLine
 10
80.795899
 20
83.701965
 30
0.0
 11
80.795899
 21
82.540413
 31
0.0
  0
ARC
  5
194
100
AcDbEntity
  8
ALPHA
100
AcDbCircle
 10
79.795899
 20
82.540413
 30
0.0
 40
1.0
100
AcDbArc
 50
270.0
 51
0.0
  0
LINE
  5
195
100
AcDbEntity
  8
ALPHA
100
AcDbLine
 10
50.995899
 20
82.540413
 30
0.0
 11
50.995899
 21
83.701965
 31
0.0
  0
ARC
  5
196
100
AcDbEntity
  8
ALPHA
100
AcDbCircle
 10
51.995899
 20
82.540413
 30
0.0
 40
1.0
100
AcDbArc
 50
180.0
 51
270.0
  0
ARC
  5
197
100
AcDbEntity
  8
ALPHA
100
AcDbCircle
 10
65.895899
 20
100.040413
 30
0.0
 40
8.25
100
AcDbArc
 50
231.808761
 51
233.492591
  0
ARC
  5
198
100
AcDbEntity
  8
ALPHA
100
AcDbCircle
 10
65.895899
 20
100.040413
 30
0.0
 40
8.25
100
AcDbArc
 50
306.507409
 51
308.191239
  0
LINE
  5
199
100
AcDbEntity
  8
ALPHA
100
AcDbLine
 10
73.695899
 20
116.543727
 30
0.0
 11
73.695899
 21
116.000679
 31
0.0
  0
LINE
  5
19A
100
AcDbEntity
  8
ALPHA
100
AcDbLine
 10
78.195899
 20
116.543727
 30
0.0
 11
78.195899
 21
116.000679
 31
0.0
  0
LINE
  5
19B
100
AcDbEntity
  8
ALPHA
100
AcDbLine
 10
53.595899
 20
116.543727
 30
0.0
 11
53.595899
 21
116.000679
 31
0.0
  0
LINE
  5
19C
100
AcDbEntity
  8
ALPHA
100
AcDbLine
 10
58.095899
 20
116.543727
 30
0.0
 11
58.095899
 21
116.000679
 31
0.0
  0
LINE
  5
19D
100
AcDbEntity
  8
ALPHA
100
AcDbLine
 10
60.995899
 20
85.540413
 30
0.0
 11
65.895899
 21
85.540413
 31
0.0
  0
LINE
  5
19E
100
AcDbEntity
  8
ALPHA
100
AcDbLine
 10
62.395899
 20
84.541305
 30
0.0
 11
69.395899
 21
84.541305
 31
0.0
  0
LINE
  5
19F
100
AcDbEntity
  8
ALPHA
100
AcDbLine
 10
62.395899
 20
115.539521
 30
0.0
 11
69.395899
 21
115.539521
 31
0.0
  0
LINE
  5
1A0
100
AcDbEntity
  8
ALPHA
100
AcDbLine
 10
66.129874
 20
106.925886
 30
0.0
 11
66.129874
 21
106.856571
 31
0.0
  0
LWPOLYLINE
  5
1A1
100
AcDbEntity
  8
ALPHA
100
AcDbPolyline
 90
       23
 70
     0
 43
0.0
 10
63.035777
 20
92.540413
 10
63.093077
 20
92.70724
 10
63.159771
 20
92.870337
 10
63.235595
 20
93.029107
 10
63.320265
 20
93.183017
 10
63.413468
 20
93.331555
 10
63.514861
 20
93.474234
 10
63.624078
 20
93.610589
 10
63.740727
 20
93.740184
 10
63.864395
 20
93.862609
 10
63.99465
 20
93.977484
 10
64.131042
 20
94.084455
 10
64.273107
 20
94.183197
 10
64.420366
 20
94.273415
 10
64.572329
 20
94.354844
 10
64.728496
 20
94.427246
 10
64.888358
 20
94.490412
 10
65.051399
 20
94.544163
 10
65.217098
 20
94.588346
 10
65.384929
 20
94.622839
 10
65.554361
 20
94.647545
 10
65.724863
 20
94.662396
 10
65.895899
 20
94.66735
  0
LWPOLYLINE
  5
1BA
100
AcDbEntity
  8
ALPHA
100
AcDbPolyline
 90
        4
 70
     0
 43
0.0
 10
62.198512
 20
115.137865
 10
62.165063
 20
115.135834
 10
62.130897
 20
115.129818
 10
62.095899
 20
115.119772
  0
LWPOLYLINE
  5
1C0
100
AcDbEntity
  8
ALPHA
100
AcDbPolyline
 90
       23
 70
     0
 43
0.0
 10
65.895899
 20
105.413475
 10
65.724862
 20
105.418429
 10
65.554361
 20
105.43328
 10
65.384929
 20
105.457986
 10
65.217098
 20
105.492479
 10
65.051399
 20
105.536663
 10
64.888358
 20
105.590413
 10
64.728496
 20
105.653579
 10
64.572329
 20
105.725981
 10
64.420366
 20
105.80741
 10
64.273107
 20
105.897629
 10
64.131042
 20
105.996371
 10
63.994649
 20
106.103341
 10
63.864394
 20
106.218216
 10
63.740726
 20
106.340642
 10
63.624077
 20
106.470237
 10
63.514861
 20
106.606592
 10
63.413468
 20
106.74927
 10
63.320265
 20
106.897808
 10
63.235595
 20
107.051719
 10
63.159771
 20
107.210489
 10
63.093077
 20
107.373586
 10
63.035777
 20
107.540413
  0
LWPOLYLINE
  5
1D9
100
AcDbEntity
  8
ALPHA
100
AcDbPolyline
 90
        6
 70
     0
 43
0.0
 10
63.025015
 20
107.540413
 10
62.978891
 20
107.712921
 10
62.942795
 20
107.887968
 10
62.91687
 20
108.064932
 10
62.901217
 20
108.243182
 10
62.895899
 20
108.424488
  0
LWPOLYLINE
  5
1E1
100
AcDbEntity
  8
ALPHA
100
AcDbPolyline
 90
        4
 70
     0
 43
0.0
 10
62.198512
 20
84.942961
 10
62.165063
 20
84.944992
 10
62.130897
 20
84.951008
 10
62.095899
 20
84.961053
  0
LINE
  5
1E7
100
AcDbEntity
  8
ALPHA
100
AcDbLine
 10
62.095899
 20
84.961053
 30
0.0
 11
62.095899
 21
84.040413
 31
0.0
  0
LINE
  5
1E8
100
AcDbEntity
  8
ALPHA
100
AcDbLine
 10
62.095899
 20
84.961053
 30
0.0
 11
65.895899
 21
84.961053
 31
0.0
  0
LINE
  5
1E9
100
AcDbEntity
  8
ALPHA
100
AcDbLine
 10
62.095899
 20
115.119772
 30
0.0
 11
62.095899
 21
116.040413
 31
0.0
  0
LINE
  5
1EA
100
AcDbEntity
  8
ALPHA
100
AcDbLine
 10
62.095899
 20
115.119772
 30
0.0
 11
65.895899
 21
115.119772
 31
0.0
  0
LINE
  5
1EB
100
AcDbEntity
  8
ALPHA
100
AcDbLine
 10
62.595899
 20
116.240413
 30
0.0
 11
69.195899
 21
116.240413
 31
0.0
  0
LWPOLYLINE
  5
1EC
100
AcDbEntity
  8
ALPHA
100
AcDbPolyline
 90
        6
 70
     0
 43
0.0
 10
62.895899
 20
91.656337
 10
62.901217
 20
91.837643
 10
62.91687
 20
92.015893
 10
62.942795
 20
92.192857
 10
62.978891
 20
92.367904
 10
63.025015
 20
92.540413
  0
LINE
  5
1F4
100
AcDbEntity
  8
ALPHA
100
AcDbLine
 10
60.995899
 20
114.540413
 30
0.0
 11
65.895899
 21
114.540413
 31
0.0
  0
LINE
  5
1F5
100
AcDbEntity
  8
ALPHA
100
AcDbLine
 10
62.595899
 20
116.240413
 30
0.0
 11
62.595899
 21
115.891615
 31
0.0
  0
LINE
  5
1F6
100
AcDbEntity
  8
ALPHA
100
AcDbLine
 10
69.195899
 20
116.240413
 30
0.0
 11
69.195899
 21
115.891615
 31
0.0
  0
LINE
  5
1F7
100
AcDbEntity
  8
ALPHA
100
AcDbLine
 10
65.894175
 20
106.815921
 30
0.0
 11
65.029874
 21
106.902573
 31
0.0
  0
LINE
  5
1F8
100
AcDbEntity
  8
ALPHA
100
AcDbLine
 10
65.895899
 20
106.815749
 30
0.0
 11
65.894175
 21
106.815921
 31
0.0
  0
LINE
  5
1F9
100
AcDbEntity
  8
ALPHA
100
AcDbLine
 10
69.395899
 20
84.301229
 30
0.0
 11
69.395899
 21
84.189211
 31
0.0
  0
LINE
  5
1FA
100
AcDbEntity
  8
ALPHA
100
AcDbLine
 10
62.595899
 20
116.240413
 30
0.0
 11
62.595899
 21
116.540413
 31
0.0
  0
LINE
  5
1FB
100
AcDbEntity
  8
ALPHA
100
AcDbLine
 10
62.595899
 20
116.540413
 30
0.0
 11
69.195899
 21
116.540413
 31
0.0
  0
LINE
  5
1FC
100
AcDbEntity
  8
ALPHA
100
AcDbLine
 10
69.195899
 20
116.240413
 30
0.0
 11
69.195899
 21
116.540413
 31
0.0
  0
LWPOLYLINE
  5
1FD
100
AcDbEntity
  8
ALPHA
100
AcDbPolyline
 90
       25
 70
     0
 43
0.0
 10
65.895899
 20
106.439912
 10
65.718177
 20
106.4451
 10
65.54108
 20
106.460648
 10
65.365228
 20
106.486501
 10
65.191241
 20
106.522568
 10
65.019729
 20
106.568722
 10
64.851294
 20
106.6248
 10
64.686529
 20
106.690607
 10
64.526011
 20
106.765911
 10
64.370306
 20
106.850448
 10
64.219959
 20
106.943919
 10
64.075499
 20
107.045998
 10
63.937433
 20
107.156326
 10
63.806246
 20
107.274515
 10
63.682399
 20
107.400149
 10
63.566327
 20
107.532789
 10
63.458438
 20
107.671967
 10
63.359111
 20
107.817195
 10
63.268694
 20
107.967962
 10
63.187506
 20
108.12374
 10
63.11583
 20
108.283981
 10
63.05392
 20
108.448122
 10
63.001992
 20
108.615587
 10
62.96023
 20
108.785787
 10
62.936278
 20
108.917033
  0
LINE
  5
218
100
AcDbEntity
  8
ALPHA
100
AcDbLine
 10
64.286464
 20
106.902573
 30
0.0
 11
65.029874
 21
106.902573
 31
0.0
  0
LINE
  5
219
100
AcDbEntity
  8
ALPHA
100
AcDbLine
 10
65.895899
 20
94.66735
 30
0.0
 11
65.895899
 21
93.640913
 31
0.0
  0
LINE
  5
21A
100
AcDbEntity
  8
ALPHA
100
AcDbLine
 10
65.895899
 20
93.640913
 30
0.0
 11
65.895899
 21
93.597742
 31
0.0
  0
LINE
  5
21B
100
AcDbEntity
  8
ALPHA
100
AcDbLine
 10
65.895899
 20
106.815749
 30
0.0
 11
65.895899
 21
106.439912
 31
0.0
  0
LINE
  5
21C
100
AcDbEntity
  8
ALPHA
100
AcDbLine
 10
65.895899
 20
105.413475
 30
0.0
 11
65.895899
 21
106.439912
 31
0.0
  0
LINE
  5
21D
100
AcDbEntity
  8
ALPHA
100
AcDbLine
 10
65.895899
 20
105.413475
 30
0.0
 11
65.895899
 21
94.66735
 31
0.0
  0
LINE
  5
21E
100
AcDbEntity
  8
ALPHA
100
AcDbLine
 10
66.995899
 20
106.914165
 30
0.0
 11
66.995899
 21
106.885208
 31
0.0
  0
LINE
  5
21F
100
AcDbEntity
  8
ALPHA
100
AcDbLine
 10
65.895899
 20
85.540413
 30
0.0
 11
65.895899
 21
84.961053
 31
0.0
  0
LINE
  5
220
100
AcDbEntity
  8
ALPHA
100
AcDbLine
 10
65.895899
 20
115.119772
 30
0.0
 11
65.895899
 21
114.540413
 31
0.0
  0
LINE
  5
221
100
AcDbEntity
  8
ALPHA
100
AcDbLine
 10
62.395899
 20
84.942961
 30
0.0
 11
62.395899
 21
84.340413
 31
0.0
  0
LINE
  5
222
100
AcDbEntity
  8
ALPHA
100
AcDbLine
 10
62.395899
 20
115.137865
 30
0.0
 11
62.395899
 21
115.740413
 31
0.0
  0
ARC
  5
223
100
AcDbEntity
  8
ALPHA
100
AcDbCircle
 10
62.095899
 20
115.740413
 30
0.0
 40
0.3
100
AcDbArc
 50
0.0
 51
90.0
  0
ARC
  5
224
100
AcDbEntity
  8
ALPHA
100
AcDbCircle
 10
65.895899
 20
100.040413
 30
0.0
 40
6.35
100
AcDbArc
 50
140.502609
 51
143.439491
  0
ARC
  5
225
100
AcDbEntity
  8
ALPHA
100
AcDbCircle
 10
65.895899
 20
100.040413
 30
0.0
 40
6.35
100
AcDbArc
 50
216.560509
 51
219.497391
  0
LINE
  5
226
100
AcDbEntity
  8
ALPHA
100
AcDbLine
 10
63.035777
 20
107.540413
 30
0.0
 11
63.025015
 21
107.540413
 31
0.0
  0
LINE
  5
227
100
AcDbEntity
  8
ALPHA
100
AcDbLine
 10
63.025015
 20
92.540413
 30
0.0
 11
63.035777
 21
92.540413
 31
0.0
  0
LINE
  5
228
100
AcDbEntity
  8
ALPHA
100
AcDbLine
 10
60.895899
 20
98.140413
 30
0.0
 11
60.895899
 21
101.940413
 31
0.0
  0
LWPOLYLINE
  5
229
100
AcDbEntity
  8
ALPHA
100
AcDbPolyline
 90
       25
 70
     0
 43
0.0
 10
62.936278
 20
91.163792
 10
62.96023
 20
91.295038
 10
63.001992
 20
91.465238
 10
63.05392
 20
91.632703
 10
63.11583
 20
91.796844
 10
63.187506
 20
91.957085
 10
63.268694
 20
92.112863
 10
63.359111
 20
92.26363
 10
63.458438
 20
92.408858
 10
63.566327
 20
92.548036
 10
63.682399
 20
92.680676
 10
63.806246
 20
92.80631
 10
63.937433
 20
92.924499
 10
64.075499
 20
93.034827
 10
64.219959
 20
93.136906
 10
64.370306
 20
93.230377
 10
64.526011
 20
93.314914
 10
64.686529
 20
93.390218
 10
64.851294
 20
93.456025
 10
65.019729
 20
93.512104
 10
65.191241
 20
93.558257
 10
65.365228
 20
93.594324
 10
65.54108
 20
93.620177
 10
65.718177
 20
93.635725
 10
65.895899
 20
93.640913
  0
LWPOLYLINE
  5
244
100
AcDbEntity
  8
ALPHA
100
AcDbPolyline
 90
       28
 70
     0
 43
0.0
 10
62.895899
 20
108.424488
 10
62.900939
 20
108.60099
 10
62.916314
 20
108.779267
 10
62.941964
 20
108.956274
 10
62.977788
 20
109.13138
 10
63.023645
 20
109.303965
 10
63.079355
 20
109.473419
 10
63.144701
 20
109.639149
 10
63.219432
 20
109.800578
 10
63.30326
 20
109.957152
 10
63.395869
 20
110.108338
 10
63.496911
 20
110.253626
 10
63.60601
 20
110.392534
 10
63.722768
 20
110.524607
 10
63.846761
 20
110.649416
 10
63.977545
 20
110.766565
 10
64.114659
 20
110.875684
 10
64.257625
 20
110.976436
 10
64.405949
 20
111.06851
 10
64.559128
 20
111.151631
 10
64.716645
 20
111.22555
 10
64.877976
 20
111.29005
 10
65.042589
 20
111.344942
 10
65.209946
 20
111.390068
 10
65.379504
 20
111.4253
 10
65.550716
 20
111.450537
 10
65.723031
 20
111.465707
 10
65.895899
 20
111.470769
  0
LINE
  5
262
100
AcDbEntity
  8
ALPHA
100
AcDbLine
 10
60.995899
 20
116.040413
 30
0.0
 11
62.095899
 21
116.040413
 31
0.0
  0
LINE
  5
263
100
AcDbEntity
  8
ALPHA
100
AcDbLine
 10
62.354972
 20
84.189211
 30
0.0
 11
69.395899
 21
84.189211
 31
0.0
  0
LINE
  5
264
100
AcDbEntity
  8
ALPHA
100
AcDbLine
 10
62.354972
 20
115.891615
 30
0.0
 11
69.395899
 21
115.891615
 31
0.0
  0
LINE
  5
265
100
AcDbEntity
  8
ALPHA
100
AcDbLine
 10
69.395899
 20
115.891614
 30
0.0
 11
69.395899
 21
115.779596
 31
0.0
  0
LINE
  5
266
100
AcDbEntity
  8
ALPHA
100
AcDbLine
 10
60.995899
 20
84.040413
 30
0.0
 11
62.095899
 21
84.040413
 31
0.0
  0
LINE
  5
267
100
AcDbEntity
  8
ALPHA
100
AcDbLine
 10
65.895899
 20
114.540413
 30
0.0
 11
65.895899
 21
111.470769
 31
0.0
  0
LINE
  5
268
100
AcDbEntity
  8
ALPHA
100
AcDbLine
 10
65.895899
 20
88.610056
 30
0.0
 11
65.895899
 21
85.540413
 31
0.0
  0
LWPOLYLINE
  5
269
100
AcDbEntity
  8
ALPHA
100
AcDbPolyline
 90
       28
 70
     0
 43
0.0
 10
65.895899
 20
88.610056
 10
65.723031
 20
88.615118
 10
65.550715
 20
88.630288
 10
65.379504
 20
88.655525
 10
65.209946
 20
88.690757
 10
65.042589
 20
88.735883
 10
64.877976
 20
88.790775
 10
64.716645
 20
88.855275
 10
64.559128
 20
88.929194
 10
64.405949
 20
89.012315
 10
64.257624
 20
89.10439
 10
64.114659
 20
89.205141
 10
63.977545
 20
89.31426
 10
63.846761
 20
89.431409
 10
63.722768
 20
89.556218
 10
63.60601
 20
89.688291
 10
63.496911
 20
89.827199
 10
63.395869
 20
89.972487
 10
63.30326
 20
90.123673
 10
63.219432
 20
90.280246
 10
63.144701
 20
90.441676
 10
63.079355
 20
90.607406
 10
63.023645
 20
90.77686
 10
62.977788
 20
90.949444
 10
62.941964
 20
91.124551
 10
62.916314
 20
91.301558
 10
62.900939
 20
91.479834
 10
62.895899
 20
91.656337
  0
LINE
  5
287
100
AcDbEntity
  8
ALPHA
100
AcDbLine
 10
63.025015
 20
92.540413
 30
0.0
 11
61.995899
 21
92.540413
 31
0.0
  0
LINE
  5
288
100
AcDbEntity
  8
ALPHA
100
AcDbLine
 10
61.995899
 20
107.540413
 30
0.0
 11
61.995899
 21
92.540413
 31
0.0
  0
LINE
  5
289
100
AcDbEntity
  8
ALPHA
100
AcDbLine
 10
63.025015
 20
107.540413
 30
0.0
 11
61.995899
 21
107.540413
 31
0.0
  0
LINE
  5
28A
100
AcDbEntity
  8
ALPHA
100
AcDbLine
 10
69.195899
 20
116.540413
 30
0.0
 11
62.595899
 21
116.540413
 31
0.0
  0
LINE
  5
28B
100
AcDbEntity
  8
ALPHA
100
AcDbLine
 10
62.395899
 20
84.942961
 30
0.0
 11
62.395899
 21
84.340413
 31
0.0
  0
ARC
  5
28C
100
AcDbEntity
  8
ALPHA
100
AcDbCircle
 10
62.095899
 20
84.340413
 30
0.0
 40
0.3
100
AcDbArc
 50
270.0
 51
0.0
  0
LINE
  5
28D
100
AcDbEntity
  8
ALPHA
100
AcDbLine
 10
65.895899
 20
84.942961
 30
0.0
 11
62.19849
 21
84.942961
 31
0.0
  0
LINE
  5
28E
100
AcDbEntity
  8
ALPHA
100
AcDbLine
 10
65.895899
 20
84.942963
 30
0.0
 11
65.895899
 21
84.961053
 31
0.0
  0
LINE
  5
28F
100
AcDbEntity
  8
ALPHA
100
AcDbLine
 10
60.995899
 20
85.540413
 30
0.0
 11
60.995899
 21
84.040413
 31
0.0
  0
LINE
  5
290
100
AcDbEntity
  8
ALPHA
100
AcDbLine
 10
60.995899
 20
114.540413
 30
0.0
 11
60.995899
 21
85.540413
 31
0.0
  0
LINE
  5
291
100
AcDbEntity
  8
ALPHA
100
AcDbLine
 10
60.995899
 20
116.040413
 30
0.0
 11
60.995899
 21
114.540413
 31
0.0
  0
LINE
  5
292
100
AcDbEntity
  8
ALPHA
100
AcDbLine
 10
62.19849
 20
115.137865
 30
0.0
 11
65.895899
 21
115.137865
 31
0.0
  0
LINE
  5
293
100
AcDbEntity
  8
ALPHA
100
AcDbLine
 10
65.895899
 20
115.137863
 30
0.0
 11
65.895899
 21
115.119772
 31
0.0
  0
LINE
  5
294
100
AcDbEntity
  8
ALPHA
100
AcDbLine
 10
60.895899
 20
98.140413
 30
0.0
 11
60.895899
 21
101.940413
 31
0.0
  0
ARC
  5
295
100
AcDbEntity
  8
ALPHA
100
AcDbCircle
 10
60.995899
 20
98.140413
 30
0.0
 40
0.1
100
AcDbArc
 50
180.0
 51
270.0
  0
ARC
  5
296
100
AcDbEntity
  8
ALPHA
100
AcDbCircle
 10
60.995899
 20
101.940413
 30
0.0
 40
0.1
100
AcDbArc
 50
90.0
 51
180.0
  0
LWPOLYLINE
  5
297
100
AcDbEntity
  8
ALPHA
100
AcDbPolyline
 90
        3
 70
     0
 43
0.0
 10
68.766783
 20
92.540413
 10
68.878862
 20
91.980533
 10
68.895803
 20
91.656226
  0
LINE
  5
29C
100
AcDbEntity
  8
ALPHA
100
AcDbLine
 10
69.59323
 20
84.942961
 30
0.0
 11
69.695899
 21
84.961053
 31
0.0
  0
LINE
  5
29D
100
AcDbEntity
  8
ALPHA
100
AcDbLine
 10
70.795899
 20
85.540413
 30
0.0
 11
65.895899
 21
85.540413
 31
0.0
  0
LINE
  5
29E
100
AcDbEntity
  8
ALPHA
100
AcDbLine
 10
70.795899
 20
114.540413
 30
0.0
 11
65.895899
 21
114.540413
 31
0.0
  0
LINE
  5
29F
100
AcDbEntity
  8
ALPHA
100
AcDbLine
 10
69.695899
 20
84.961053
 30
0.0
 11
69.695899
 21
84.040413
 31
0.0
  0
LINE
  5
2A0
100
AcDbEntity
  8
ALPHA
100
AcDbLine
 10
69.695899
 20
84.961053
 30
0.0
 11
65.895899
 21
84.961053
 31
0.0
  0
LINE
  5
2A1
100
AcDbEntity
  8
ALPHA
100
AcDbLine
 10
69.695899
 20
115.119772
 30
0.0
 11
69.695899
 21
116.040413
 31
0.0
  0
LINE
  5
2A2
100
AcDbEntity
  8
ALPHA
100
AcDbLine
 10
69.695899
 20
115.119772
 30
0.0
 11
65.895899
 21
115.119772
 31
0.0
  0
LWPOLYLINE
  5
2A3
100
AcDbEntity
  8
ALPHA
100
AcDbPolyline
 90
        8
 70
     0
 43
0.0
 10
68.756021
 20
107.540413
 10
68.544763
 20
107.029654
 10
68.24679
 20
106.567321
 10
67.872851
 20
106.168474
 10
67.435819
 20
105.845421
 10
66.950172
 20
105.607778
 10
66.431622
 20
105.462439
 10
65.895899
 20
105.413475
  0
LWPOLYLINE
  5
2AD
100
AcDbEntity
  8
ALPHA
100
AcDbPolyline
 90
        8
 70
     0
 43
0.0
 10
65.895899
 20
94.667351
 10
66.431626
 20
94.618386
 10
66.950177
 20
94.473046
 10
67.435823
 20
94.235402
 10
67.872853
 20
93.91235
 10
68.24679
 20
93.513503
 10
68.544763
 20
93.051172
 10
68.756021
 20
92.540413
  0
LINE
  5
2B7
100
AcDbEntity
  8
ALPHA
100
AcDbLine
 10
69.59323
 20
115.137864
 30
0.0
 11
69.695899
 21
115.119772
 31
0.0
  0
LWPOLYLINE
  5
2B8
100
AcDbEntity
  8
ALPHA
100
AcDbPolyline
 90
        3
 70
     0
 43
0.0
 10
68.895803
 20
108.4246
 10
68.878863
 20
108.100304
 10
68.766783
 20
107.540413
  0
LWPOLYLINE
  5
2BD
100
AcDbEntity
  8
ALPHA
100
AcDbPolyline
 90
        9
 70
     0
 43
0.0
 10
65.895899
 20
93.640914
 10
66.48117
 20
93.584146
 10
67.043949
 20
93.416022
 10
67.56261
 20
93.143004
 10
68.017219
 20
92.775584
 10
68.390308
 20
92.32788
 10
68.667538
 20
91.8171
 10
68.838255
 20
91.26287
 10
68.846372
 20
91.181712
  0
LINE
  5
2C8
100
AcDbEntity
  8
ALPHA
100
AcDbLine
 10
65.895899
 20
105.947508
 30
0.0
 11
65.895899
 21
106.439912
 31
0.0
  0
LINE
  5
2C9
100
AcDbEntity
  8
ALPHA
100
AcDbLine
 10
65.895899
 20
105.413475
 30
0.0
 11
65.895899
 21
105.947508
 31
0.0
  0
LINE
  5
2CA
100
AcDbEntity
  8
ALPHA
100
AcDbLine
 10
65.895899
 20
106.815749
 30
0.0
 11
65.895899
 21
106.833113
 31
0.0
  0
LINE
  5
2CB
100
AcDbEntity
  8
ALPHA
100
AcDbLine
 10
65.895899
 20
106.439912
 30
0.0
 11
65.895899
 21
106.815749
 31
0.0
  0
LINE
  5
2CC
100
AcDbEntity
  8
ALPHA
100
AcDbLine
 10
65.895899
 20
106.833113
 30
0.0
 11
66.415514
 21
106.885208
 31
0.0
  0
LINE
  5
2CD
100
AcDbEntity
  8
ALPHA
100
AcDbLine
 10
65.895899
 20
94.133318
 30
0.0
 11
65.895899
 21
94.667351
 31
0.0
  0
LINE
  5
2CE
100
AcDbEntity
  8
ALPHA
100
AcDbLine
 10
65.895899
 20
93.640914
 30
0.0
 11
65.895899
 21
94.133318
 31
0.0
  0
LINE
  5
2CF
100
AcDbEntity
  8
ALPHA
100
AcDbLine
 10
65.895899
 20
94.667351
 30
0.0
 11
65.895899
 21
105.413475
 31
0.0
  0
LINE
  5
2D0
100
AcDbEntity
  8
ALPHA
100
AcDbLine
 10
65.895899
 20
114.540413
 30
0.0
 11
65.895899
 21
115.119772
 31
0.0
  0
LINE
  5
2D1
100
AcDbEntity
  8
ALPHA
100
AcDbLine
 10
65.895899
 20
84.961053
 30
0.0
 11
65.895899
 21
85.540413
 31
0.0
  0
LINE
  5
2D2
100
AcDbEntity
  8
ALPHA
100
AcDbLine
 10
69.395899
 20
84.942961
 30
0.0
 11
69.395899
 21
84.340413
 31
0.0
  0
LINE
  5
2D3
100
AcDbEntity
  8
ALPHA
100
AcDbLine
 10
69.395899
 20
115.137865
 30
0.0
 11
69.395899
 21
115.740413
 31
0.0
  0
LINE
  5
2D4
100
AcDbEntity
  8
ALPHA
100
AcDbLine
 10
65.895899
 20
93.597742
 30
0.0
 11
65.895899
 21
93.640913
 31
0.0
  0
LINE
  5
2D5
100
AcDbEntity
  8
ALPHA
100
AcDbLine
 10
67.462658
 20
106.885208
 30
0.0
 11
66.415514
 21
106.885208
 31
0.0
  0
LINE
  5
2D6
100
AcDbEntity
  8
ALPHA
100
AcDbLine
 10
68.766783
 20
107.540413
 30
0.0
 11
68.756021
 21
107.540413
 31
0.0
  0
LINE
  5
2D7
100
AcDbEntity
  8
ALPHA
100
AcDbLine
 10
68.756021
 20
92.540413
 30
0.0
 11
68.766783
 21
92.540413
 31
0.0
  0
LINE
  5
2D8
100
AcDbEntity
  8
ALPHA
100
AcDbLine
 10
70.895899
 20
98.140413
 30
0.0
 11
70.895899
 21
101.940413
 31
0.0
  0
LWPOLYLINE
  5
2D9
100
AcDbEntity
  8
ALPHA
100
AcDbPolyline
 90
        9
 70
     0
 43
0.0
 10
68.846372
 20
108.899115
 10
68.838255
 20
108.817956
 10
68.667538
 20
108.263726
 10
68.390308
 20
107.752945
 10
68.017219
 20
107.305242
 10
67.56261
 20
106.937822
 10
67.043949
 20
106.664804
 10
66.48117
 20
106.49668
 10
65.895899
 20
106.439912
  0
LWPOLYLINE
  5
2E4
100
AcDbEntity
  8
ALPHA
100
AcDbPolyline
 90
       10
 70
     0
 43
0.0
 10
68.895803
 20
91.656226
 10
68.885981
 20
91.408831
 10
68.787848
 20
90.846136
 10
68.588372
 20
90.312827
 10
68.295366
 20
89.827847
 10
67.919989
 20
89.407892
 10
67.476048
 20
89.066874
 10
66.97927
 20
88.815626
 10
66.446668
 20
88.661835
 10
65.895899
 20
88.610057
  0
ARC
  5
2F0
100
AcDbEntity
  8
ALPHA
100
AcDbCircle
 10
65.895899
 20
100.040413
 30
0.0
 40
6.35
100
AcDbArc
 50
320.502609
 51
323.572942
  0
ARC
  5
2F1
100
AcDbEntity
  8
ALPHA
100
AcDbCircle
 10
65.895899
 20
100.040413
 30
0.0
 40
6.35
100
AcDbArc
 50
36.427058
 51
39.497391
  0
LINE
  5
2F2
100
AcDbEntity
  8
ALPHA
100
AcDbLine
 10
70.795899
 20
84.040413
 30
0.0
 11
69.695899
 21
84.040413
 31
0.0
  0
LINE
  5
2F3
100
AcDbEntity
  8
ALPHA
100
AcDbLine
 10
70.795899
 20
116.040413
 30
0.0
 11
69.695899
 21
116.040413
 31
0.0
  0
LINE
  5
2F4
100
AcDbEntity
  8
ALPHA
100
AcDbLine
 10
68.766783
 20
92.540413
 30
0.0
 11
69.795899
 21
92.540413
 31
0.0
  0
LINE
  5
2F5
100
AcDbEntity
  8
ALPHA
100
AcDbLine
 10
65.895899
 20
85.540413
 30
0.0
 11
65.895899
 21
88.610057
 31
0.0
  0
LINE
  5
2F6
100
AcDbEntity
  8
ALPHA
100
AcDbLine
 10
65.895899
 20
111.470769
 30
0.0
 11
65.895899
 21
114.540413
 31
0.0
  0
LWPOLYLINE
  5
2F7
100
AcDbEntity
  8
ALPHA
100
AcDbPolyline
 90
       10
 70
     0
 43
0.0
 10
65.895899
 20
111.470769
 10
66.446672
 20
111.41899
 10
66.979273
 20
111.265199
 10
67.476046
 20
111.013953
 10
67.919982
 20
110.67294
 10
68.295357
 20
110.252991
 10
68.588363
 20
109.768016
 10
68.787843
 20
109.23471
 10
68.885979
 20
108.672013
 10
68.895803
 20
108.4246
  0
LINE
  5
303
100
AcDbEntity
  8
ALPHA
100
AcDbLine
 10
68.766783
 20
107.540413
 30
0.0
 11
69.795899
 21
107.540413
 31
0.0
  0
LINE
  5
304
100
AcDbEntity
  8
ALPHA
100
AcDbLine
 10
69.795899
 20
92.540413
 30
0.0
 11
69.795899
 21
107.540413
 31
0.0
  0
LINE
  5
305
100
AcDbEntity
  8
ALPHA
100
AcDbLine
 10
69.395899
 20
84.340413
 30
0.0
 11
69.395899
 21
84.942961
 31
0.0
  0
ARC
  5
306
100
AcDbEntity
  8
ALPHA
100
AcDbCircle
 10
69.695899
 20
84.340413
 30
0.0
 40
0.3
100
AcDbArc
 50
180.0
 51
270.0
  0
LINE
  5
307
100
AcDbEntity
  8
ALPHA
100
AcDbLine
 10
69.593513
 20
84.942961
 30
0.0
 11
65.895899
 21
84.942961
 31
0.0
  0
LINE
  5
308
100
AcDbEntity
  8
ALPHA
100
AcDbLine
 10
65.895899
 20
84.94297
 30
0.0
 11
65.895899
 21
84.961053
 31
0.0
  0
LINE
  5
309
100
AcDbEntity
  8
ALPHA
100
AcDbLine
 10
69.395899
 20
115.137865
 30
0.0
 11
69.395899
 21
115.740413
 31
0.0
  0
ARC
  5
30A
100
AcDbEntity
  8
ALPHA
100
AcDbCircle
 10
69.695899
 20
115.740413
 30
0.0
 40
0.3
100
AcDbArc
 50
90.0
 51
180.0
  0
LINE
  5
30B
100
AcDbEntity
  8
ALPHA
100
AcDbLine
 10
65.895899
 20
115.137865
 30
0.0
 11
69.593513
 21
115.137865
 31
0.0
  0
LINE
  5
30C
100
AcDbEntity
  8
ALPHA
100
AcDbLine
 10
70.795899
 20
114.540413
 30
0.0
 11
70.795899
 21
116.040413
 31
0.0
  0
LINE
  5
30D
100
AcDbEntity
  8
ALPHA
100
AcDbLine
 10
70.795899
 20
85.540413
 30
0.0
 11
70.795899
 21
114.540413
 31
0.0
  0
LINE
  5
30E
100
AcDbEntity
  8
ALPHA
100
AcDbLine
 10
70.795899
 20
84.040413
 30
0.0
 11
70.795899
 21
85.540413
 31
0.0
  0
LINE
  5
30F
100
AcDbEntity
  8
ALPHA
100
AcDbLine
 10
65.895899
 20
115.137856
 30
0.0
 11
65.895899
 21
115.119772
 31
0.0
  0
LINE
  5
310
100
AcDbEntity
  8
ALPHA
100
AcDbLine
 10
70.895899
 20
101.940413
 30
0.0
 11
70.895899
 21
98.140413
 31
0.0
  0
ARC
  5
311
100
AcDbEntity
  8
ALPHA
100
AcDbCircle
 10
70.795899
 20
101.940413
 30
0.0
 40
0.1
100
AcDbArc
 50
0.0
 51
90.0
  0
ARC
  5
312
100
AcDbEntity
  8
ALPHA
100
AcDbCircle
 10
70.795899
 20
98.140413
 30
0.0
 40
0.1
100
AcDbArc
 50
270.0
 51
0.0
  0
LINE
  5
313
100
AcDbEntity
  8
ALPHA
100
AcDbLine
 10
60.795899
 20
85.540413
 30
0.0
 11
55.895899
 21
85.540413
 31
0.0
  0
LINE
  5
314
100
AcDbEntity
  8
ALPHA
100
AcDbLine
 10
59.395899
 20
114.540413
 30
0.0
 11
55.895899
 21
114.540413
 31
0.0
  0
LINE
  5
315
100
AcDbEntity
  8
ALPHA
100
AcDbLine
 10
58.056265
 20
110.540413
 30
0.0
 11
59.945899
 21
110.540413
 31
0.0
  0
LINE
  5
316
100
AcDbEntity
  8
ALPHA
100
AcDbLine
 10
55.895899
 20
105.957886
 30
0.0
 11
55.895899
 21
105.415744
 31
0.0
  0
LINE
  5
317
100
AcDbEntity
  8
ALPHA
100
AcDbLine
 10
55.895899
 20
106.339912
 30
0.0
 11
55.895899
 21
106.114169
 31
0.0
  0
LINE
  5
318
100
AcDbEntity
  8
ALPHA
100
AcDbLine
 10
55.895899
 20
105.415744
 30
0.0
 11
51.995899
 21
105.415744
 31
0.0
  0
LINE
  5
319
100
AcDbEntity
  8
ALPHA
100
AcDbLine
 10
55.895899
 20
93.740914
 30
0.0
 11
55.895899
 21
94.665081
 31
0.0
  0
LINE
  5
31A
100
AcDbEntity
  8
ALPHA
100
AcDbLine
 10
51.995899
 20
94.665081
 30
0.0
 11
55.895899
 21
94.665081
 31
0.0
  0
LINE
  5
31B
100
AcDbEntity
  8
ALPHA
100
AcDbLine
 10
58.868462
 20
108.78152
 30
0.0
 11
58.874977
 21
108.862228
 31
0.0
  0
LWPOLYLINE
  5
31C
100
AcDbEntity
  8
ALPHA
100
AcDbPolyline
 90
        7
 70
     0
 43
0.0
 10
57.203569
 20
106.461706
 10
57.695168
 20
106.756608
 10
58.120528
 20
107.138549
 10
58.463989
 20
107.593468
 10
58.712903
 20
108.10462
 10
58.858102
 20
108.653187
 10
58.868462
 20
108.78152
  0
LWPOLYLINE
  5
325
100
AcDbEntity
  8
ALPHA
100
AcDbPolyline
 90
        4
 70
     0
 43
0.0
 10
58.74982
 20
107.840413
 10
58.851168
 20
108.255326
 10
58.894349
 20
108.681502
 10
58.895883
 20
108.779306
  0
LINE
  5
32B
100
AcDbEntity
  8
ALPHA
100
AcDbLine
 10
60.795899
 20
112.140413
 30
0.0
 11
59.395899
 21
112.140413
 31
0.0
  0
LINE
  5
32C
100
AcDbEntity
  8
ALPHA
100
AcDbLine
 10
59.395899
 20
114.540413
 30
0.0
 11
59.395899
 21
112.140413
 31
0.0
  0
LINE
  5
32D
100
AcDbEntity
  8
ALPHA
100
AcDbLine
 10
59.395899
 20
114.540413
 30
0.0
 11
59.795899
 21
114.713918
 31
0.0
  0
LINE
  5
32E
100
AcDbEntity
  8
ALPHA
100
AcDbLine
 10
59.395899
 20
112.140413
 30
0.0
 11
59.795899
 21
112.540413
 31
0.0
  0
LWPOLYLINE
  5
32F
100
AcDbEntity
  8
ALPHA
100
AcDbPolyline
 90
        3
 70
     0
 43
0.0
 10
58.766105
 20
92.540413
 10
58.872404
 20
92.034573
 10
58.895861
 20
91.653854
  0
LINE
  5
334
100
AcDbEntity
  8
ALPHA
100
AcDbLine
 10
59.945899
 20
109.808163
 30
0.0
 11
58.707751
 21
109.808163
 31
0.0
  0
LINE
  5
335
100
AcDbEntity
  8
ALPHA
100
AcDbLine
 10
59.945899
 20
109.530008
 30
0.0
 11
58.803406
 21
109.530008
 31
0.0
  0
LINE
  5
336
100
AcDbEntity
  8
ALPHA
100
AcDbLine
 10
59.945899
 20
107.840413
 30
0.0
 11
58.74982
 21
107.840413
 31
0.0
  0
LWPOLYLINE
  5
337
100
AcDbEntity
  8
ALPHA
100
AcDbPolyline
 90
        6
 70
     0
 43
0.0
 10
58.74982
 20
107.840413
 10
58.718374
 20
107.74426
 10
58.689887
 20
107.659296
 10
58.668901
 20
107.594368
 10
58.658276
 20
107.554099
 10
58.659155
 20
107.540413
  0
LINE
  5
33F
100
AcDbEntity
  8
ALPHA
100
AcDbLine
 10
56.064756
 20
105.957886
 30
0.0
 11
55.895899
 21
105.957886
 31
0.0
  0
LINE
  5
340
100
AcDbEntity
  8
ALPHA
100
AcDbLine
 10
56.185074
 20
105.957886
 30
0.0
 11
56.064756
 21
105.957886
 31
0.0
  0
LINE
  5
341
100
AcDbEntity
  8
ALPHA
100
AcDbLine
 10
55.895899
 20
105.957886
 30
0.0
 11
56.064756
 21
105.953329
 31
0.0
  0
LINE
  5
342
100
AcDbEntity
  8
ALPHA
100
AcDbLine
 10
57.637773
 20
106.461706
 30
0.0
 11
57.203569
 21
106.461706
 31
0.0
  0
LINE
  5
343
100
AcDbEntity
  8
ALPHA
100
AcDbLine
 10
56.987902
 20
106.114169
 30
0.0
 11
55.895899
 21
106.114169
 31
0.0
  0
LWPOLYLINE
  5
344
100
AcDbEntity
  8
ALPHA
100
AcDbPolyline
 90
        5
 70
     0
 43
0.0
 10
57.203569
 20
106.461706
 10
56.931867
 20
106.343995
 10
56.62388
 20
106.239619
 10
56.279346
 20
106.159063
 10
55.895899
 20
106.114169
  0
LINE
  5
34B
100
AcDbEntity
  8
ALPHA
100
AcDbLine
 10
53.095899
 20
84.373488
 30
0.0
 11
59.395899
 21
84.373488
 31
0.0
  0
LINE
  5
34C
100
AcDbEntity
  8
ALPHA
100
AcDbLine
 10
59.695899
 20
84.040413
 30
0.0
 11
59.695899
 21
84.90764
 31
0.0
  0
LINE
  5
34D
100
AcDbEntity
  8
ALPHA
100
AcDbLine
 10
58.995899
 20
115.818059
 30
0.0
 11
53.095899
 21
115.818059
 31
0.0
  0
LINE
  5
34E
100
AcDbEntity
  8
ALPHA
100
AcDbLine
 10
60.795899
 20
115.996294
 30
0.0
 11
59.795899
 21
115.996294
 31
0.0
  0
LWPOLYLINE
  5
34F
100
AcDbEntity
  8
ALPHA
100
AcDbPolyline
 90
        8
 70
     0
 43
0.0
 10
55.895899
 20
94.665081
 10
56.431297
 20
94.616177
 10
56.949567
 20
94.471009
 10
57.43499
 20
94.233638
 10
57.871882
 20
93.910944
 10
58.245785
 20
93.512521
 10
58.543844
 20
93.050656
 10
58.755312
 20
92.540413
  0
LWPOLYLINE
  5
359
100
AcDbEntity
  8
ALPHA
100
AcDbPolyline
 90
        8
 70
     0
 43
0.0
 10
55.895899
 20
105.415744
 10
56.431297
 20
105.464649
 10
56.949567
 20
105.609817
 10
57.43499
 20
105.847187
 10
57.871882
 20
106.169882
 10
58.245785
 20
106.568305
 10
58.543844
 20
107.03017
 10
58.755312
 20
107.540413
  0
LINE
  5
363
100
AcDbEntity
  8
ALPHA
100
AcDbLine
 10
59.995899
 20
99.740413
 30
0.0
 11
59.795899
 21
99.740413
 31
0.0
  0
LINE
  5
364
100
AcDbEntity
  8
ALPHA
100
AcDbLine
 10
59.995899
 20
100.340413
 30
0.0
 11
59.795899
 21
100.340413
 31
0.0
  0
LINE
  5
365
100
AcDbEntity
  8
ALPHA
100
AcDbLine
 10
59.995899
 20
107.540413
 30
0.0
 11
59.995899
 21
92.540413
 31
0.0
  0
LINE
  5
366
100
AcDbEntity
  8
ALPHA
100
AcDbLine
 10
53.995899
 20
93.740914
 30
0.0
 11
55.895899
 21
93.740914
 31
0.0
  0
LINE
  5
367
100
AcDbEntity
  8
ALPHA
100
AcDbLine
 10
53.995899
 20
106.339912
 30
0.0
 11
55.895899
 21
106.339912
 31
0.0
  0
LINE
  5
368
100
AcDbEntity
  8
ALPHA
100
AcDbLine
 10
59.252222
 20
84.90764
 30
0.0
 11
59.395899
 21
84.819184
 31
0.0
  0
LINE
  5
369
100
AcDbEntity
  8
ALPHA
100
AcDbLine
 10
55.895899
 20
84.90764
 30
0.0
 11
59.695899
 21
84.90764
 31
0.0
  0
LINE
  5
36A
100
AcDbEntity
  8
ALPHA
100
AcDbLine
 10
55.895899
 20
115.173186
 30
0.0
 11
58.995899
 21
115.173186
 31
0.0
  0
LWPOLYLINE
  5
36B
100
AcDbEntity
  8
ALPHA
100
AcDbPolyline
 90
        6
 70
     0
 43
0.0
 10
55.895899
 20
111.473039
 10
56.375104
 20
111.433924
 10
56.841913
 20
111.317616
 10
57.285167
 20
111.126712
 10
57.693505
 20
110.865604
 10
58.056265
 20
110.540413
  0
LINE
  5
373
100
AcDbEntity
  8
ALPHA
100
AcDbLine
 10
58.852944
 20
108.864834
 30
0.0
 11
58.877708
 21
109.112439
 31
0.0
  0
LINE
  5
374
100
AcDbEntity
  8
ALPHA
100
AcDbLine
 10
58.844901
 20
108.784405
 30
0.0
 11
58.852944
 21
108.864834
 31
0.0
  0
LWPOLYLINE
  5
375
100
AcDbEntity
  8
ALPHA
100
AcDbPolyline
 90
        9
 70
     0
 43
0.0
 10
55.895899
 20
106.339912
 10
56.48117
 20
106.39668
 10
57.043949
 20
106.564804
 10
57.56261
 20
106.837822
 10
58.017219
 20
107.205242
 10
58.390308
 20
107.652945
 10
58.667538
 20
108.163726
 10
58.838255
 20
108.717956
 10
58.844901
 20
108.784405
  0
LINE
  5
380
100
AcDbEntity
  8
ALPHA
100
AcDbLine
 10
55.895899
 20
114.540413
 30
0.0
 11
55.895899
 21
115.173186
 31
0.0
  0
LINE
  5
381
100
AcDbEntity
  8
ALPHA
100
AcDbLine
 10
55.895899
 20
84.90764
 30
0.0
 11
55.895899
 21
85.540413
 31
0.0
  0
LINE
  5
382
100
AcDbEntity
  8
ALPHA
100
AcDbLine
 10
59.795899
 20
114.713918
 30
0.0
 11
59.795899
 21
115.996294
 31
0.0
  0
LWPOLYLINE
  5
383
100
AcDbEntity
  8
ALPHA
100
AcDbPolyline
 90
        7
 70
     0
 43
0.0
 10
57.203569
 20
106.201234
 10
57.695168
 20
106.496136
 10
58.120528
 20
106.878076
 10
58.463989
 20
107.332996
 10
58.712903
 20
107.844148
 10
58.858102
 20
108.392715
 10
58.889353
 20
108.779833
  0
LWPOLYLINE
  5
38C
100
AcDbEntity
  8
ALPHA
100
AcDbPolyline
 90
        4
 70
     0
 43
0.0
 10
58.707751
 20
109.808163
 10
58.532295
 20
110.080944
 10
58.313193
 20
110.324921
 10
58.056265
 20
110.540413
  0
LINE
  5
392
100
AcDbEntity
  8
ALPHA
100
AcDbLine
 10
58.755312
 20
107.540413
 30
0.0
 11
59.945899
 21
107.540413
 31
0.0
  0
LINE
  5
393
100
AcDbEntity
  8
ALPHA
100
AcDbLine
 10
58.659155
 20
107.540413
 30
0.0
 11
58.755312
 21
107.540413
 31
0.0
  0
LINE
  5
394
100
AcDbEntity
  8
ALPHA
100
AcDbLine
 10
60.795899
 20
112.540413
 30
0.0
 11
59.795899
 21
112.540413
 31
0.0
  0
LINE
  5
395
100
AcDbEntity
  8
ALPHA
100
AcDbLine
 10
60.795899
 20
112.140413
 30
0.0
 11
60.795899
 21
112.540413
 31
0.0
  0
LINE
  5
396
100
AcDbEntity
  8
ALPHA
100
AcDbLine
 10
59.795899
 20
114.713918
 30
0.0
 11
59.795899
 21
112.540413
 31
0.0
  0
LWPOLYLINE
  5
397
100
AcDbEntity
  8
ALPHA
100
AcDbPolyline
 90
        7
 70
     0
 43
0.0
 10
55.895899
 20
87.990643
 10
56.399381
 20
88.03385
 10
56.888634
 20
88.162265
 10
57.350572
 20
88.372724
 10
57.772066
 20
88.65987
 10
58.140874
 20
89.016227
 10
58.445899
 20
89.432195
  0
LWPOLYLINE
  5
3A0
100
AcDbEntity
  8
ALPHA
100
AcDbPolyline
 90
        5
 70
     0
 43
0.0
 10
58.707751
 20
109.808163
 10
58.728156
 20
109.763982
 10
58.753204
 20
109.698598
 10
58.779349
 20
109.617944
 10
58.803406
 20
109.530008
  0
LINE
  5
3A7
100
AcDbEntity
  8
ALPHA
100
AcDbLine
 10
58.995899
 20
115.173186
 30
0.0
 11
58.995899
 21
116.040413
 31
0.0
  0
LINE
  5
3A8
100
AcDbEntity
  8
ALPHA
100
AcDbLine
 10
51.995899
 20
97.601738
 30
0.0
 11
52.495899
 21
97.890413
 31
0.0
  0
LINE
  5
3A9
100
AcDbEntity
  8
ALPHA
100
AcDbLine
 10
51.995899
 20
102.479088
 30
0.0
 11
52.495899
 21
102.190413
 31
0.0
  0
LINE
  5
3AA
100
AcDbEntity
  8
ALPHA
100
AcDbLine
 10
58.755312
 20
92.540413
 30
0.0
 11
58.766105
 21
92.540413
 31
0.0
  0
LINE
  5
3AB
100
AcDbEntity
  8
ALPHA
100
AcDbLine
 10
59.645899
 20
101.040413
 30
0.0
 11
59.795899
 21
101.040413
 31
0.0
  0
LINE
  5
3AC
100
AcDbEntity
  8
ALPHA
100
AcDbLine
 10
57.095899
 20
102.040413
 30
0.0
 11
57.095899
 21
102.190413
 31
0.0
  0
LINE
  5
3AD
100
AcDbEntity
  8
ALPHA
100
AcDbLine
 10
59.795899
 20
102.190413
 30
0.0
 11
52.495899
 21
102.190413
 31
0.0
  0
LINE
  5
3AE
100
AcDbEntity
  8
ALPHA
100
AcDbLine
 10
59.795899
 20
97.890413
 30
0.0
 11
52.495899
 21
97.890413
 31
0.0
  0
LINE
  5
3AF
100
AcDbEntity
  8
ALPHA
100
AcDbLine
 10
57.095899
 20
97.890413
 30
0.0
 11
57.095899
 21
98.040413
 31
0.0
  0
LINE
  5
3B0
100
AcDbEntity
  8
ALPHA
100
AcDbLine
 10
59.645899
 20
99.040413
 30
0.0
 11
59.795899
 21
99.040413
 31
0.0
  0
LINE
  5
3B1
100
AcDbEntity
  8
ALPHA
100
AcDbLine
 10
59.795899
 20
100.340413
 30
0.0
 11
59.795899
 21
99.740413
 31
0.0
  0
LINE
  5
3B2
100
AcDbEntity
  8
ALPHA
100
AcDbLine
 10
59.795899
 20
100.340413
 30
0.0
 11
59.795899
 21
102.190413
 31
0.0
  0
LINE
  5
3B3
100
AcDbEntity
  8
ALPHA
100
AcDbLine
 10
59.395899
 20
84.340413
 30
0.0
 11
59.395899
 21
84.90764
 31
0.0
  0
LINE
  5
3B4
100
AcDbEntity
  8
ALPHA
100
AcDbLine
 10
58.795899
 20
116.040413
 30
0.0
 11
58.995899
 21
116.040413
 31
0.0
  0
LINE
  5
3B5
100
AcDbEntity
  8
ALPHA
100
AcDbLine
 10
53.095899
 20
116.000679
 30
0.0
 11
58.795899
 21
116.000679
 31
0.0
  0
LINE
  5
3B6
100
AcDbEntity
  8
ALPHA
100
AcDbLine
 10
59.795899
 20
97.890413
 30
0.0
 11
59.795899
 21
99.740413
 31
0.0
  0
LINE
  5
3B7
100
AcDbEntity
  8
ALPHA
100
AcDbLine
 10
60.795899
 20
116.040413
 30
0.0
 11
58.995899
 21
116.040413
 31
0.0
  0
LINE
  5
3B8
100
AcDbEntity
  8
ALPHA
100
AcDbLine
 10
58.795899
 20
116.000679
 30
0.0
 11
58.795899
 21
116.040413
 31
0.0
  0
LINE
  5
3B9
100
AcDbEntity
  8
ALPHA
100
AcDbLine
 10
58.766105
 20
92.540413
 30
0.0
 11
59.995899
 21
92.540413
 31
0.0
  0
LINE
  5
3BA
100
AcDbEntity
  8
ALPHA
100
AcDbLine
 10
58.445899
 20
90.04934
 30
0.0
 11
58.445899
 21
87.990413
 31
0.0
  0
LINE
  5
3BB
100
AcDbEntity
  8
ALPHA
100
AcDbLine
 10
55.895899
 20
87.990413
 30
0.0
 11
58.445899
 21
87.990413
 31
0.0
  0
LINE
  5
3BC
100
AcDbEntity
  8
ALPHA
100
AcDbLine
 10
55.895899
 20
85.540413
 30
0.0
 11
55.895899
 21
87.990413
 31
0.0
  0
LINE
  5
3BD
100
AcDbEntity
  8
ALPHA
100
AcDbLine
 10
55.895899
 20
111.473039
 30
0.0
 11
55.895899
 21
114.540413
 31
0.0
  0
LINE
  5
3BE
100
AcDbEntity
  8
ALPHA
100
AcDbLine
 10
59.945899
 20
110.540413
 30
0.0
 11
59.945899
 21
107.540413
 31
0.0
  0
LINE
  5
3BF
100
AcDbEntity
  8
ALPHA
100
AcDbLine
 10
59.945899
 20
107.540413
 30
0.0
 11
59.995899
 21
107.540413
 31
0.0
  0
LINE
  5
3C0
100
AcDbEntity
  8
ALPHA
100
AcDbLine
 10
60.795899
 20
84.040413
 30
0.0
 11
59.695899
 21
84.040413
 31
0.0
  0
LWPOLYLINE
  5
3C1
100
AcDbEntity
  8
ALPHA
100
AcDbPolyline
 90
        3
 70
     0
 43
0.0
 10
58.895883
 20
108.779306
 10
58.878242
 20
109.109437
 10
58.803406
 20
109.530008
  0
LWPOLYLINE
  5
3C6
100
AcDbEntity
  8
ALPHA
100
AcDbPolyline
 90
        5
 70
     0
 43
0.0
 10
58.895861
 20
91.653854
 10
58.892875
 20
91.517312
 10
58.82678
 20
91.003926
 10
58.676256
 20
90.509912
 10
58.445899
 20
90.04934
  0
LWPOLYLINE
  5
3CD
100
AcDbEntity
  8
ALPHA
100
AcDbPolyline
 90
        9
 70
     0
 43
0.0
 10
58.853442
 20
91.21102
 10
58.838255
 20
91.36287
 10
58.667538
 20
91.9171
 10
58.390308
 20
92.42788
 10
58.017219
 20
92.875584
 10
57.56261
 20
93.243004
 10
57.043949
 20
93.516022
 10
56.48117
 20
93.684146
 10
55.895899
 20
93.740914
  0
LINE
  5
3D8
100
AcDbEntity
  8
ALPHA
100
AcDbLine
 10
60.795899
 20
115.996294
 30
0.0
 11
60.795899
 21
116.040413
 31
0.0
  0
LINE
  5
3D9
100
AcDbEntity
  8
ALPHA
100
AcDbLine
 10
60.795899
 20
115.996294
 30
0.0
 11
60.795899
 21
112.540413
 31
0.0
  0
LINE
  5
3DA
100
AcDbEntity
  8
ALPHA
100
AcDbLine
 10
60.795899
 20
85.540413
 30
0.0
 11
60.795899
 21
112.140413
 31
0.0
  0
LINE
  5
3DB
100
AcDbEntity
  8
ALPHA
100
AcDbLine
 10
60.795899
 20
84.040413
 30
0.0
 11
60.795899
 21
85.540413
 31
0.0
  0
LWPOLYLINE
  5
3DC
100
AcDbEntity
  8
ALPHA
100
AcDbPolyline
 90
        5
 70
     0
 43
0.0
 10
56.064756
 20
105.953329
 10
56.279346
 20
105.961456
 10
56.62388
 20
106.009044
 10
56.931867
 20
106.091547
 10
57.203569
 20
106.201234
  0
LINE
  5
3E3
100
AcDbEntity
  8
ALPHA
100
AcDbLine
 10
53.095899
 20
84.151133
 30
0.0
 11
59.461824
 21
84.151133
 31
0.0
  0
LINE
  5
3E4
100
AcDbEntity
  8
ALPHA
100
AcDbLine
 10
59.395899
 20
84.340413
 30
0.0
 11
59.395899
 21
84.90764
 31
0.0
  0
ARC
  5
3E5
100
AcDbEntity
  8
ALPHA
100
AcDbCircle
 10
59.695899
 20
84.340413
 30
0.0
 40
0.3
100
AcDbArc
 50
180.0
 51
270.0
  0
LINE
  5
3E6
100
AcDbEntity
  8
ALPHA
100
AcDbLine
 10
80.795899
 20
85.540413
 30
0.0
 11
75.895899
 21
85.540413
 31
0.0
  0
LINE
  5
3E7
100
AcDbEntity
  8
ALPHA
100
AcDbLine
 10
79.395899
 20
114.540413
 30
0.0
 11
75.895899
 21
114.540413
 31
0.0
  0
LINE
  5
3E8
100
AcDbEntity
  8
ALPHA
100
AcDbLine
 10
78.056265
 20
110.540413
 30
0.0
 11
79.945899
 21
110.540413
 31
0.0
  0
LINE
  5
3E9
100
AcDbEntity
  8
ALPHA
100
AcDbLine
 10
75.895899
 20
105.957886
 30
0.0
 11
75.895899
 21
105.415744
 31
0.0
  0
LINE
  5
3EA
100
AcDbEntity
  8
ALPHA
100
AcDbLine
 10
75.895899
 20
106.339912
 30
0.0
 11
75.895899
 21
106.114169
 31
0.0
  0
LINE
  5
3EB
100
AcDbEntity
  8
ALPHA
100
AcDbLine
 10
75.895899
 20
105.415744
 30
0.0
 11
71.995899
 21
105.415744
 31
0.0
  0
LINE
  5
3EC
100
AcDbEntity
  8
ALPHA
100
AcDbLine
 10
75.895899
 20
93.740914
 30
0.0
 11
75.895899
 21
94.665081
 31
0.0
  0
LINE
  5
3ED
100
AcDbEntity
  8
ALPHA
100
AcDbLine
 10
71.995899
 20
94.665081
 30
0.0
 11
75.895899
 21
94.665081
 31
0.0
  0
LINE
  5
3EE
100
AcDbEntity
  8
ALPHA
100
AcDbLine
 10
78.868462
 20
108.78152
 30
0.0
 11
78.874977
 21
108.862228
 31
0.0
  0
LWPOLYLINE
  5
3EF
100
AcDbEntity
  8
ALPHA
100
AcDbPolyline
 90
        7
 70
     0
 43
0.0
 10
77.203569
 20
106.461706
 10
77.695168
 20
106.756608
 10
78.120528
 20
107.138549
 10
78.463989
 20
107.593468
 10
78.712903
 20
108.10462
 10
78.858102
 20
108.653187
 10
78.868462
 20
108.78152
  0
LWPOLYLINE
  5
3F8
100
AcDbEntity
  8
ALPHA
100
AcDbPolyline
 90
        4
 70
     0
 43
0.0
 10
78.74982
 20
107.840413
 10
78.851168
 20
108.255326
 10
78.894349
 20
108.681502
 10
78.895883
 20
108.779306
  0
LINE
  5
3FE
100
AcDbEntity
  8
ALPHA
100
AcDbLine
 10
80.795899
 20
112.140413
 30
0.0
 11
79.395899
 21
112.140413
 31
0.0
  0
LINE
  5
3FF
100
AcDbEntity
  8
ALPHA
100
AcDbLine
 10
79.395899
 20
114.540413
 30
0.0
 11
79.395899
 21
112.140413
 31
0.0
  0
LINE
  5
400
100
AcDbEntity
  8
ALPHA
100
AcDbLine
 10
79.395899
 20
114.540413
 30
0.0
 11
79.795899
 21
114.713918
 31
0.0
  0
LINE
  5
401
100
AcDbEntity
  8
ALPHA
100
AcDbLine
 10
79.395899
 20
112.140413
 30
0.0
 11
79.795899
 21
112.540413
 31
0.0
  0
LWPOLYLINE
  5
402
100
AcDbEntity
  8
ALPHA
100
AcDbPolyline
 90
        3
 70
     0
 43
0.0
 10
78.766105
 20
92.540413
 10
78.872404
 20
92.034573
 10
78.895861
 20
91.653854
  0
LINE
  5
407
100
AcDbEntity
  8
ALPHA
100
AcDbLine
 10
79.945899
 20
109.808163
 30
0.0
 11
78.707751
 21
109.808163
 31
0.0
  0
LINE
  5
408
100
AcDbEntity
  8
ALPHA
100
AcDbLine
 10
79.945899
 20
109.530008
 30
0.0
 11
78.803406
 21
109.530008
 31
0.0
  0
LINE
  5
409
100
AcDbEntity
  8
ALPHA
100
AcDbLine
 10
79.945899
 20
107.840413
 30
0.0
 11
78.74982
 21
107.840413
 31
0.0
  0
LWPOLYLINE
  5
40A
100
AcDbEntity
  8
ALPHA
100
AcDbPolyline
 90
        6
 70
     0
 43
0.0
 10
78.74982
 20
107.840413
 10
78.718374
 20
107.74426
 10
78.689887
 20
107.659296
 10
78.668901
 20
107.594368
 10
78.658276
 20
107.554099
 10
78.659155
 20
107.540413
  0
LINE
  5
412
100
AcDbEntity
  8
ALPHA
100
AcDbLine
 10
76.064756
 20
105.957886
 30
0.0
 11
75.895899
 21
105.957886
 31
0.0
  0
LINE
  5
413
100
AcDbEntity
  8
ALPHA
100
AcDbLine
 10
76.185074
 20
105.957886
 30
0.0
 11
76.064756
 21
105.957886
 31
0.0
  0
LINE
  5
414
100
AcDbEntity
  8
ALPHA
100
AcDbLine
 10
75.895899
 20
105.957886
 30
0.0
 11
76.064756
 21
105.953329
 31
0.0
  0
LINE
  5
415
100
AcDbEntity
  8
ALPHA
100
AcDbLine
 10
77.637773
 20
106.461706
 30
0.0
 11
77.203569
 21
106.461706
 31
0.0
  0
LINE
  5
416
100
AcDbEntity
  8
ALPHA
100
AcDbLine
 10
76.987902
 20
106.114169
 30
0.0
 11
75.895899
 21
106.114169
 31
0.0
  0
LWPOLYLINE
  5
417
100
AcDbEntity
  8
ALPHA
100
AcDbPolyline
 90
        5
 70
     0
 43
0.0
 10
77.203569
 20
106.461706
 10
76.931867
 20
106.343995
 10
76.62388
 20
106.239619
 10
76.279346
 20
106.159063
 10
75.895899
 20
106.114169
  0
LINE
  5
41E
100
AcDbEntity
  8
ALPHA
100
AcDbLine
 10
73.095899
 20
84.373488
 30
0.0
 11
79.395899
 21
84.373488
 31
0.0
  0
LINE
  5
41F
100
AcDbEntity
  8
ALPHA
100
AcDbLine
 10
79.695899
 20
84.040413
 30
0.0
 11
79.695899
 21
84.90764
 31
0.0
  0
LINE
  5
420
100
AcDbEntity
  8
ALPHA
100
AcDbLine
 10
78.995899
 20
115.818059
 30
0.0
 11
73.095899
 21
115.818059
 31
0.0
  0
LINE
  5
421
100
AcDbEntity
  8
ALPHA
100
AcDbLine
 10
80.795899
 20
115.996294
 30
0.0
 11
79.795899
 21
115.996294
 31
0.0
  0
LWPOLYLINE
  5
422
100
AcDbEntity
  8
ALPHA
100
AcDbPolyline
 90
        8
 70
     0
 43
0.0
 10
75.895899
 20
94.665081
 10
76.431297
 20
94.616177
 10
76.949567
 20
94.471009
 10
77.43499
 20
94.233638
 10
77.871882
 20
93.910944
 10
78.245785
 20
93.512521
 10
78.543844
 20
93.050656
 10
78.755312
 20
92.540413
  0
LWPOLYLINE
  5
42C
100
AcDbEntity
  8
ALPHA
100
AcDbPolyline
 90
        8
 70
     0
 43
0.0
 10
75.895899
 20
105.415744
 10
76.431297
 20
105.464649
 10
76.949567
 20
105.609817
 10
77.43499
 20
105.847187
 10
77.871882
 20
106.169882
 10
78.245785
 20
106.568305
 10
78.543844
 20
107.03017
 10
78.755312
 20
107.540413
  0
LINE
  5
436
100
AcDbEntity
  8
ALPHA
100
AcDbLine
 10
79.995899
 20
99.740413
 30
0.0
 11
79.795899
 21
99.740413
 31
0.0
  0
LINE
  5
437
100
AcDbEntity
  8
ALPHA
100
AcDbLine
 10
79.995899
 20
100.340413
 30
0.0
 11
79.795899
 21
100.340413
 31
0.0
  0
LINE
  5
438
100
AcDbEntity
  8
ALPHA
100
AcDbLine
 10
79.995899
 20
107.540413
 30
0.0
 11
79.995899
 21
92.540413
 31
0.0
  0
LINE
  5
439
100
AcDbEntity
  8
ALPHA
100
AcDbLine
 10
73.995899
 20
93.740914
 30
0.0
 11
75.895899
 21
93.740914
 31
0.0
  0
LINE
  5
43A
100
AcDbEntity
  8
ALPHA
100
AcDbLine
 10
73.995899
 20
106.339912
 30
0.0
 11
75.895899
 21
106.339912
 31
0.0
  0
LINE
  5
43B
100
AcDbEntity
  8
ALPHA
100
AcDbLine
 10
79.252222
 20
84.90764
 30
0.0
 11
79.395899
 21
84.819184
 31
0.0
  0
LINE
  5
43C
100
AcDbEntity
  8
ALPHA
100
AcDbLine
 10
75.895899
 20
84.90764
 30
0.0
 11
79.695899
 21
84.90764
 31
0.0
  0
LINE
  5
43D
100
AcDbEntity
  8
ALPHA
100
AcDbLine
 10
75.895899
 20
115.173186
 30
0.0
 11
78.995899
 21
115.173186
 31
0.0
  0
LWPOLYLINE
  5
43E
100
AcDbEntity
  8
ALPHA
100
AcDbPolyline
 90
        6
 70
     0
 43
0.0
 10
75.895899
 20
111.473039
 10
76.375104
 20
111.433924
 10
76.841913
 20
111.317616
 10
77.285167
 20
111.126712
 10
77.693505
 20
110.865604
 10
78.056265
 20
110.540413
  0
LINE
  5
446
100
AcDbEntity
  8
ALPHA
100
AcDbLine
 10
78.852944
 20
108.864834
 30
0.0
 11
78.877708
 21
109.112439
 31
0.0
  0
LINE
  5
447
100
AcDbEntity
  8
ALPHA
100
AcDbLine
 10
78.844901
 20
108.784405
 30
0.0
 11
78.852944
 21
108.864834
 31
0.0
  0
LWPOLYLINE
  5
448
100
AcDbEntity
  8
ALPHA
100
AcDbPolyline
 90
        9
 70
     0
 43
0.0
 10
75.895899
 20
106.339912
 10
76.48117
 20
106.39668
 10
77.043949
 20
106.564804
 10
77.56261
 20
106.837822
 10
78.017219
 20
107.205242
 10
78.390308
 20
107.652945
 10
78.667538
 20
108.163726
 10
78.838255
 20
108.717956
 10
78.844901
 20
108.784405
  0
LINE
  5
453
100
AcDbEntity
  8
ALPHA
100
AcDbLine
 10
75.895899
 20
114.540413
 30
0.0
 11
75.895899
 21
115.173186
 31
0.0
  0
LINE
  5
454
100
AcDbEntity
  8
ALPHA
100
AcDbLine
 10
75.895899
 20
84.90764
 30
0.0
 11
75.895899
 21
85.540413
 31
0.0
  0
LINE
  5
455
100
AcDbEntity
  8
ALPHA
100
AcDbLine
 10
79.795899
 20
114.713918
 30
0.0
 11
79.795899
 21
115.996294
 31
0.0
  0
LWPOLYLINE
  5
456
100
AcDbEntity
  8
ALPHA
100
AcDbPolyline
 90
        7
 70
     0
 43
0.0
 10
77.203569
 20
106.201234
 10
77.695168
 20
106.496136
 10
78.120528
 20
106.878076
 10
78.463989
 20
107.332996
 10
78.712903
 20
107.844148
 10
78.858102
 20
108.392715
 10
78.889353
 20
108.779833
  0
LWPOLYLINE
  5
45F
100
AcDbEntity
  8
ALPHA
100
AcDbPolyline
 90
        4
 70
     0
 43
0.0
 10
78.707751
 20
109.808163
 10
78.532295
 20
110.080944
 10
78.313193
 20
110.324921
 10
78.056265
 20
110.540413
  0
LINE
  5
465
100
AcDbEntity
  8
ALPHA
100
AcDbLine
 10
78.755312
 20
107.540413
 30
0.0
 11
79.945899
 21
107.540413
 31
0.0
  0
LINE
  5
466
100
AcDbEntity
  8
ALPHA
100
AcDbLine
 10
78.659155
 20
107.540413
 30
0.0
 11
78.755312
 21
107.540413
 31
0.0
  0
LINE
  5
467
100
AcDbEntity
  8
ALPHA
100
AcDbLine
 10
80.795899
 20
112.540413
 30
0.0
 11
79.795899
 21
112.540413
 31
0.0
  0
LINE
  5
468
100
AcDbEntity
  8
ALPHA
100
AcDbLine
 10
80.795899
 20
112.140413
 30
0.0
 11
80.795899
 21
112.540413
 31
0.0
  0
LINE
  5
469
100
AcDbEntity
  8
ALPHA
100
AcDbLine
 10
79.795899
 20
114.713918
 30
0.0
 11
79.795899
 21
112.540413
 31
0.0
  0
LWPOLYLINE
  5
46A
100
AcDbEntity
  8
ALPHA
100
AcDbPolyline
 90
        7
 70
     0
 43
0.0
 10
75.895899
 20
87.990643
 10
76.399381
 20
88.03385
 10
76.888634
 20
88.162265
 10
77.350572
 20
88.372724
 10
77.772066
 20
88.65987
 10
78.140874
 20
89.016227
 10
78.445899
 20
89.432195
  0
LWPOLYLINE
  5
473
100
AcDbEntity
  8
ALPHA
100
AcDbPolyline
 90
        5
 70
     0
 43
0.0
 10
78.707751
 20
109.808163
 10
78.728156
 20
109.763982
 10
78.753204
 20
109.698598
 10
78.779349
 20
109.617944
 10
78.803406
 20
109.530008
  0
LINE
  5
47A
100
AcDbEntity
  8
ALPHA
100
AcDbLine
 10
78.995899
 20
115.173186
 30
0.0
 11
78.995899
 21
116.040413
 31
0.0
  0
LINE
  5
47B
100
AcDbEntity
  8
ALPHA
100
AcDbLine
 10
71.995899
 20
97.601738
 30
0.0
 11
72.495899
 21
97.890413
 31
0.0
  0
LINE
  5
47C
100
AcDbEntity
  8
ALPHA
100
AcDbLine
 10
71.995899
 20
102.479088
 30
0.0
 11
72.495899
 21
102.190413
 31
0.0
  0
LINE
  5
47D
100
AcDbEntity
  8
ALPHA
100
AcDbLine
 10
78.755312
 20
92.540413
 30
0.0
 11
78.766105
 21
92.540413
 31
0.0
  0
LINE
  5
47E
100
AcDbEntity
  8
ALPHA
100
AcDbLine
 10
79.645899
 20
101.040413
 30
0.0
 11
79.795899
 21
101.040413
 31
0.0
  0
LINE
  5
47F
100
AcDbEntity
  8
ALPHA
100
AcDbLine
 10
77.095899
 20
102.040413
 30
0.0
 11
77.095899
 21
102.190413
 31
0.0
  0
LINE
  5
480
100
AcDbEntity
  8
ALPHA
100
AcDbLine
 10
79.795899
 20
102.190413
 30
0.0
 11
72.495899
 21
102.190413
 31
0.0
  0
LINE
  5
481
100
AcDbEntity
  8
ALPHA
100
AcDbLine
 10
79.795899
 20
97.890413
 30
0.0
 11
72.495899
 21
97.890413
 31
0.0
  0
LINE
  5
482
100
AcDbEntity
  8
ALPHA
100
AcDbLine
 10
77.095899
 20
97.890413
 30
0.0
 11
77.095899
 21
98.040413
 31
0.0
  0
LINE
  5
483
100
AcDbEntity
  8
ALPHA
100
AcDbLine
 10
79.645899
 20
99.040413
 30
0.0
 11
79.795899
 21
99.040413
 31
0.0
  0
LINE
  5
484
100
AcDbEntity
  8
ALPHA
100
AcDbLine
 10
79.795899
 20
100.340413
 30
0.0
 11
79.795899
 21
99.740413
 31
0.0
  0
LINE
  5
485
100
AcDbEntity
  8
ALPHA
100
AcDbLine
 10
79.795899
 20
100.340413
 30
0.0
 11
79.795899
 21
102.190413
 31
0.0
  0
LINE
  5
486
100
AcDbEntity
  8
ALPHA
100
AcDbLine
 10
79.395899
 20
84.340413
 30
0.0
 11
79.395899
 21
84.90764
 31
0.0
  0
LINE
  5
487
100
AcDbEntity
  8
ALPHA
100
AcDbLine
 10
78.795899
 20
116.040413
 30
0.0
 11
78.995899
 21
116.040413
 31
0.0
  0
LINE
  5
488
100
AcDbEntity
  8
ALPHA
100
AcDbLine
 10
73.095899
 20
116.000679
 30
0.0
 11
78.795899
 21
116.000679
 31
0.0
  0
LINE
  5
489
100
AcDbEntity
  8
ALPHA
100
AcDbLine
 10
79.795899
 20
97.890413
 30
0.0
 11
79.795899
 21
99.740413
 31
0.0
  0
LINE
  5
48A
100
AcDbEntity
  8
ALPHA
100
AcDbLine
 10
80.795899
 20
116.040413
 30
0.0
 11
78.995899
 21
116.040413
 31
0.0
  0
LINE
  5
48B
100
AcDbEntity
  8
ALPHA
100
AcDbLine
 10
78.795899
 20
116.000679
 30
0.0
 11
78.795899
 21
116.040413
 31
0.0
  0
LINE
  5
48C
100
AcDbEntity
  8
ALPHA
100
AcDbLine
 10
78.766105
 20
92.540413
 30
0.0
 11
79.995899
 21
92.540413
 31
0.0
  0
LINE
  5
48D
100
AcDbEntity
  8
ALPHA
100
AcDbLine
 10
78.445899
 20
90.04934
 30
0.0
 11
78.445899
 21
87.990413
 31
0.0
  0
LINE
  5
48E
100
AcDbEntity
  8
ALPHA
100
AcDbLine
 10
75.895899
 20
87.990413
 30
0.0
 11
78.445899
 21
87.990413
 31
0.0
  0
LINE
  5
48F
100
AcDbEntity
  8
ALPHA
100
AcDbLine
 10
75.895899
 20
85.540413
 30
0.0
 11
75.895899
 21
87.990413
 31
0.0
  0
LINE
  5
490
100
AcDbEntity
  8
ALPHA
100
AcDbLine
 10
75.895899
 20
111.473039
 30
0.0
 11
75.895899
 21
114.540413
 31
0.0
  0
LINE
  5
491
100
AcDbEntity
  8
ALPHA
100
AcDbLine
 10
79.945899
 20
110.540413
 30
0.0
 11
79.945899
 21
107.540413
 31
0.0
  0
LINE
  5
492
100
AcDbEntity
  8
ALPHA
100
AcDbLine
 10
79.945899
 20
107.540413
 30
0.0
 11
79.995899
 21
107.540413
 31
0.0
  0
LINE
  5
493
100
AcDbEntity
  8
ALPHA
100
AcDbLine
 10
80.795899
 20
84.040413
 30
0.0
 11
79.695899
 21
84.040413
 31
0.0
  0
LWPOLYLINE
  5
494
100
AcDbEntity
  8
ALPHA
100
AcDbPolyline
 90
        3
 70
     0
 43
0.0
 10
78.895883
 20
108.779306
 10
78.878242
 20
109.109437
 10
78.803406
 20
109.530008
  0
LWPOLYLINE
  5
499
100
AcDbEntity
  8
ALPHA
100
AcDbPolyline
 90
        5
 70
     0
 43
0.0
 10
78.895861
 20
91.653854
 10
78.892875
 20
91.517312
 10
78.82678
 20
91.003926
 10
78.676256
 20
90.509912
 10
78.445899
 20
90.04934
  0
LWPOLYLINE
  5
4A0
100
AcDbEntity
  8
ALPHA
100
AcDbPolyline
 90
        9
 70
     0
 43
0.0
 10
78.853442
 20
91.21102
 10
78.838255
 20
91.36287
 10
78.667538
 20
91.9171
 10
78.390308
 20
92.42788
 10
78.017219
 20
92.875584
 10
77.56261
 20
93.243004
 10
77.043949
 20
93.516022
 10
76.48117
 20
93.684146
 10
75.895899
 20
93.740914
  0
LINE
  5
4AB
100
AcDbEntity
  8
ALPHA
100
AcDbLine
 10
80.795899
 20
115.996294
 30
0.0
 11
80.795899
 21
116.040413
 31
0.0
  0
LINE
  5
4AC
100
AcDbEntity
  8
ALPHA
100
AcDbLine
 10
80.795899
 20
115.996294
 30
0.0
 11
80.795899
 21
112.540413
 31
0.0
  0
LINE
  5
4AD
100
AcDbEntity
  8
ALPHA
100
AcDbLine
 10
80.795899
 20
85.540413
 30
0.0
 11
80.795899
 21
112.140413
 31
0.0
  0
LINE
  5
4AE
100
AcDbEntity
  8
ALPHA
100
AcDbLine
 10
80.795899
 20
84.040413
 30
0.0
 11
80.795899
 21
85.540413
 31
0.0
  0
LWPOLYLINE
  5
4AF
100
AcDbEntity
  8
ALPHA
100
AcDbPolyline
 90
        5
 70
     0
 43
0.0
 10
76.064756
 20
105.953329
 10
76.279346
 20
105.961456
 10
76.62388
 20
106.009044
 10
76.931867
 20
106.091547
 10
77.203569
 20
106.201234
  0
LINE
  5
4B6
100
AcDbEntity
  8
ALPHA
100
AcDbLine
 10
73.095899
 20
84.151133
 30
0.0
 11
79.461824
 21
84.151133
 31
0.0
  0
LINE
  5
4B7
100
AcDbEntity
  8
ALPHA
100
AcDbLine
 10
79.395899
 20
84.340413
 30
0.0
 11
79.395899
 21
84.90764
 31
0.0
  0
ARC
  5
4B8
100
AcDbEntity
  8
ALPHA
100
AcDbCircle
 10
79.695899
 20
84.340413
 30
0.0
 40
0.3
100
AcDbArc
 50
180.0
 51
270.0
  0
LWPOLYLINE
  5
4B9
100
AcDbEntity
  8
ALPHA
100
AcDbPolyline
 90
       11
 70
     0
 43
0.0
 10
65.424459
 20
119.423442
 10
65.43215
 20
119.387549
 10
65.454471
 20
119.283384
 10
65.489237
 20
119.121144
 10
65.533044
 20
118.916709
 10
65.581605
 20
118.69009
 10
65.630166
 20
118.463472
 10
65.673974
 20
118.259037
 10
65.70874
 20
118.096796
 10
65.731061
 20
117.992631
 10
65.738752
 20
117.956739
  0
LWPOLYLINE
  5
4C6
100
AcDbEntity
  8
ALPHA
100
AcDbPolyline
 90
       11
 70
     0
 43
0.0
 10
66.36734
 20
119.423442
 10
66.359648
 20
119.387549
 10
66.337327
 20
119.283384
 10
66.302561
 20
119.121144
 10
66.258754
 20
118.916709
 10
66.210193
 20
118.69009
 10
66.161632
 20
118.463472
 10
66.117824
 20
118.259037
 10
66.083058
 20
118.096796
 10
66.060737
 20
117.992631
 10
66.053046
 20
117.956739
  0
LINE
  5
4D3
100
AcDbEntity
  8
ALPHA
100
AcDbLine
 10
62.830469
 20
82.701709
 30
0.0
 11
62.835244
 21
82.709979
 31
0.0
  0
LINE
  5
4D4
100
AcDbEntity
  8
ALPHA
100
AcDbLine
 10
62.808719
 20
82.664033
 30
0.0
 11
62.830469
 21
82.701709
 31
0.0
  0
LINE
  5
4D5
100
AcDbEntity
  8
ALPHA
100
AcDbLine
 10
62.795044
 20
82.640346
 30
0.0
 11
62.808719
 21
82.664033
 31
0.0
  0
LINE
  5
4D6
100
AcDbEntity
  8
ALPHA
100
AcDbLine
 10
62.535939
 20
82.191531
 30
0.0
 11
62.795044
 21
82.640346
 31
0.0
  0
LINE
  5
4D7
100
AcDbEntity
  8
ALPHA
100
AcDbLine
 10
62.535939
 20
82.191531
 30
0.0
 11
62.202137
 21
82.384238
 31
0.0
  0
LINE
  5
4D8
100
AcDbEntity
  8
ALPHA
100
AcDbLine
 10
62.995899
 20
118.903037
 30
0.0
 11
65.424459
 21
119.423442
 31
0.0
  0
LINE
  5
4D9
100
AcDbEntity
  8
ALPHA
100
AcDbLine
 10
62.535939
 20
82.191531
 30
0.0
 11
62.202137
 21
82.384238
 31
0.0
  0
LINE
  5
4DA
100
AcDbEntity
  8
ALPHA
100
AcDbLine
 10
65.331876
 20
117.869551
 30
0.0
 11
65.738752
 21
117.956739
 31
0.0
  0
LINE
  5
4DB
100
AcDbEntity
  8
ALPHA
100
AcDbLine
 10
62.995899
 20
118.903037
 30
0.0
 11
65.424459
 21
119.423442
 31
0.0
  0
LINE
  5
4DC
100
AcDbEntity
  8
ALPHA
100
AcDbLine
 10
65.331876
 20
117.869551
 30
0.0
 11
65.738752
 21
117.956739
 31
0.0
  0
ARC
  5
4DD
100
AcDbEntity
  8
ALPHA
100
AcDbCircle
 10
65.895899
 20
117.223387
 30
0.0
 40
2.25
100
AcDbArc
 50
77.905243
 51
102.094757
  0
ARC
  5
4DE
100
AcDbEntity
  8
ALPHA
100
AcDbCircle
 10
65.895899
 20
117.223387
 30
0.0
 40
0.75
100
AcDbArc
 50
77.905243
 51
102.094757
  0
ARC
  5
4DF
100
AcDbEntity
  8
ALPHA
100
AcDbCircle
 10
65.895899
 20
117.223387
 30
0.0
 40
2.25
100
AcDbArc
 50
77.905243
 51
102.094757
  0
ARC
  5
4E0
100
AcDbEntity
  8
ALPHA
100
AcDbCircle
 10
65.895899
 20
117.223387
 30
0.0
 40
0.75
100
AcDbArc
 50
77.905243
 51
102.094757
  0
LINE
  5
4E1
100
AcDbEntity
  8
ALPHA
100
AcDbLine
 10
66.36734
 20
119.423442
 30
0.0
 11
68.795899
 21
118.903037
 31
0.0
  0
LINE
  5
4E2
100
AcDbEntity
  8
ALPHA
100
AcDbLine
 10
66.053046
 20
117.956739
 30
0.0
 11
66.459922
 21
117.869551
 31
0.0
  0
LINE
  5
4E3
100
AcDbEntity
  8
ALPHA
100
AcDbLine
 10
66.36734
 20
119.423442
 30
0.0
 11
68.795899
 21
118.903037
 31
0.0
  0
LINE
  5
4E4
100
AcDbEntity
  8
ALPHA
100
AcDbLine
 10
66.053046
 20
117.956739
 30
0.0
 11
66.459922
 21
117.869551
 31
0.0
  0
LINE
  5
4E5
100
AcDbEntity
  8
ALPHA
100
AcDbLine
 10
69.589661
 20
82.384238
 30
0.0
 11
69.25586
 21
82.191531
 31
0.0
  0
LINE
  5
4E6
100
AcDbEntity
  8
ALPHA
100
AcDbLine
 10
69.589661
 20
82.384238
 30
0.0
 11
69.25586
 21
82.191531
 31
0.0
  0
LINE
  5
4E7
100
AcDbEntity
  8
ALPHA
100
AcDbLine
 10
68.961259
 20
82.701831
 30
0.0
 11
68.956554
 21
82.709979
 31
0.0
  0
LINE
  5
4E8
100
AcDbEntity
  8
ALPHA
100
AcDbLine
 10
68.983079
 20
82.664033
 30
0.0
 11
68.961259
 21
82.701831
 31
0.0
  0
LINE
  5
4E9
100
AcDbEntity
  8
ALPHA
100
AcDbLine
 10
68.996755
 20
82.640346
 30
0.0
 11
68.983079
 21
82.664033
 31
0.0
  0
LINE
  5
4EA
100
AcDbEntity
  8
ALPHA
100
AcDbLine
 10
69.25586
 20
82.191531
 30
0.0
 11
68.996755
 21
82.640346
 31
0.0
  0
LINE
  5
4EB
100
AcDbEntity
  8
ALPHA
100
AcDbLine
 10
55.895899
 20
114.540413
 30
0.0
 11
52.395899
 21
114.540413
 31
0.0
  0
LINE
  5
4EC
100
AcDbEntity
  8
ALPHA
100
AcDbLine
 10
52.395899
 20
114.540413
 30
0.0
 11
51.995899
 21
114.713918
 31
0.0
  0
LINE
  5
4ED
100
AcDbEntity
  8
ALPHA
100
AcDbLine
 10
52.695899
 20
84.90764
 30
0.0
 11
52.695899
 21
84.392507
 31
0.0
  0
LWPOLYLINE
  5
4EE
100
AcDbEntity
  8
ALPHA
100
AcDbPolyline
 90
        5
 70
     0
 43
0.0
 10
52.925429
 20
108.784222
 10
53.005395
 20
108.321812
 10
53.228918
 20
107.759833
 10
53.563744
 20
107.254314
 10
53.995899
 20
106.826354
  0
LINE
  5
4F5
100
AcDbEntity
  8
ALPHA
100
AcDbLine
 10
52.913207
 20
108.854899
 30
0.0
 11
52.925429
 21
108.784222
 31
0.0
  0
LINE
  5
4F6
100
AcDbEntity
  8
ALPHA
100
AcDbLine
 10
52.904329
 20
108.906239
 30
0.0
 11
52.913207
 21
108.854899
 31
0.0
  0
LINE
  5
4F7
100
AcDbEntity
  8
ALPHA
100
AcDbLine
 10
52.695899
 20
84.392507
 30
0.0
 11
52.695899
 21
84.040413
 31
0.0
  0
LWPOLYLINE
  5
4F8
100
AcDbEntity
  8
ALPHA
100
AcDbPolyline
 90
        4
 70
     0
 43
0.0
 10
52.895958
 20
108.779125
 10
52.899719
 20
108.625729
 10
52.978223
 20
108.070673
 10
53.155248
 20
107.540413
  0
LINE
  5
4FE
100
AcDbEntity
  8
ALPHA
100
AcDbLine
 10
50.995899
 20
112.140413
 30
0.0
 11
52.395899
 21
112.140413
 31
0.0
  0
LINE
  5
4FF
100
AcDbEntity
  8
ALPHA
100
AcDbLine
 10
52.095899
 20
84.90764
 30
0.0
 11
52.095899
 21
84.040413
 31
0.0
  0
LINE
  5
500
100
AcDbEntity
  8
ALPHA
100
AcDbLine
 10
52.395899
 20
114.540413
 30
0.0
 11
52.395899
 21
112.140413
 31
0.0
  0
LINE
  5
501
100
AcDbEntity
  8
ALPHA
100
AcDbLine
 10
52.395899
 20
112.140413
 30
0.0
 11
51.995899
 21
112.540413
 31
0.0
  0
LINE
  5
502
100
AcDbEntity
  8
ALPHA
100
AcDbLine
 10
55.895899
 20
85.540413
 30
0.0
 11
50.995899
 21
85.540413
 31
0.0
  0
LWPOLYLINE
  5
503
100
AcDbEntity
  8
ALPHA
100
AcDbPolyline
 90
        6
 70
     0
 43
0.0
 10
53.995899
 20
94.011519
 10
53.612818
 20
93.63025
 10
53.302016
 20
93.184559
 10
53.074133
 20
92.688425
 10
52.937266
 20
92.158203
 10
52.895905
 20
91.653892
  0
LINE
  5
50B
100
AcDbEntity
  8
ALPHA
100
AcDbLine
 10
50.995899
 20
115.996294
 30
0.0
 11
51.995899
 21
115.996294
 31
0.0
  0
LWPOLYLINE
  5
50C
100
AcDbEntity
  8
ALPHA
100
AcDbPolyline
 90
        7
 70
     0
 43
0.0
 10
52.695899
 20
84.392507
 10
52.618248
 20
84.39073
 10
52.546484
 20
84.385588
 10
52.484867
 20
84.377439
 10
52.437149
 20
84.366772
 10
52.40661
 20
84.354216
 10
52.395899
 20
84.340413
  0
LINE
  5
515
100
AcDbEntity
  8
ALPHA
100
AcDbLine
 10
51.845899
 20
109.73236
 30
0.0
 11
53.046465
 21
109.73236
 31
0.0
  0
LINE
  5
516
100
AcDbEntity
  8
ALPHA
100
AcDbLine
 10
53.095899
 20
115.688318
 30
0.0
 11
52.795899
 21
115.688318
 31
0.0
  0
LINE
  5
517
100
AcDbEntity
  8
ALPHA
100
AcDbLine
 10
53.095899
 20
84.392507
 30
0.0
 11
52.695899
 21
84.392507
 31
0.0
  0
LWPOLYLINE
  5
518
100
AcDbEntity
  8
ALPHA
100
AcDbPolyline
 90
        4
 70
     0
 43
0.0
 10
53.995899
 20
106.069306
 10
53.580349
 20
106.48992
 10
53.252274
 20
106.986698
 10
53.025693
 20
107.540413
  0
LINE
  5
51E
100
AcDbEntity
  8
ALPHA
100
AcDbLine
 10
53.735534
 20
110.540413
 30
0.0
 11
51.845899
 21
110.540413
 31
0.0
  0
LINE
  5
51F
100
AcDbEntity
  8
ALPHA
100
AcDbLine
 10
52.795899
 20
98.040413
 30
0.0
 11
52.795899
 21
97.890413
 31
0.0
  0
LINE
  5
520
100
AcDbEntity
  8
ALPHA
100
AcDbLine
 10
52.795899
 20
102.190413
 30
0.0
 11
52.795899
 21
102.040413
 31
0.0
  0
LINE
  5
521
100
AcDbEntity
  8
ALPHA
100
AcDbLine
 10
51.995899
 20
98.615413
 30
0.0
 11
52.145899
 21
98.510382
 31
0.0
  0
LINE
  5
522
100
AcDbEntity
  8
ALPHA
100
AcDbLine
 10
52.145899
 20
101.570444
 30
0.0
 11
51.995899
 21
101.465413
 31
0.0
  0
LINE
  5
523
100
AcDbEntity
  8
ALPHA
100
AcDbLine
 10
55.895899
 20
114.540413
 30
0.0
 11
55.895899
 21
111.473039
 31
0.0
  0
LINE
  5
524
100
AcDbEntity
  8
ALPHA
100
AcDbLine
 10
55.895899
 20
115.173186
 30
0.0
 11
55.895899
 21
114.540413
 31
0.0
  0
LINE
  5
525
100
AcDbEntity
  8
ALPHA
100
AcDbLine
 10
52.942992
 20
108.857075
 30
0.0
 11
52.916814
 21
109.095825
 31
0.0
  0
LINE
  5
526
100
AcDbEntity
  8
ALPHA
100
AcDbLine
 10
52.950878
 20
108.785147
 30
0.0
 11
52.942992
 21
108.857075
 31
0.0
  0
LWPOLYLINE
  5
527
100
AcDbEntity
  8
ALPHA
100
AcDbPolyline
 90
        5
 70
     0
 43
0.0
 10
53.995899
 20
107.000002
 10
53.529042
 20
107.47101
 10
53.179661
 20
108.032121
 10
52.965095
 20
108.655484
 10
52.950878
 20
108.785147
  0
LINE
  5
52E
100
AcDbEntity
  8
ALPHA
100
AcDbLine
 10
52.795899
 20
115.173186
 30
0.0
 11
55.895899
 21
115.173186
 31
0.0
  0
LINE
  5
52F
100
AcDbEntity
  8
ALPHA
100
AcDbLine
 10
53.995899
 20
106.650701
 30
0.0
 11
53.995899
 21
106.826354
 31
0.0
  0
LINE
  5
530
100
AcDbEntity
  8
ALPHA
100
AcDbLine
 10
53.995899
 20
106.565882
 30
0.0
 11
53.995899
 21
106.069306
 31
0.0
  0
LINE
  5
531
100
AcDbEntity
  8
ALPHA
100
AcDbLine
 10
53.095899
 20
115.173186
 30
0.0
 11
53.095899
 21
115.688318
 31
0.0
  0
LINE
  5
532
100
AcDbEntity
  8
ALPHA
100
AcDbLine
 10
53.995899
 20
107.000002
 30
0.0
 11
53.995899
 21
106.826354
 31
0.0
  0
LINE
  5
533
100
AcDbEntity
  8
ALPHA
100
AcDbLine
 10
53.995899
 20
105.888192
 30
0.0
 11
53.476284
 21
105.583564
 31
0.0
  0
LINE
  5
534
100
AcDbEntity
  8
ALPHA
100
AcDbLine
 10
53.959454
 20
106.62998
 30
0.0
 11
53.941488
 21
106.619764
 31
0.0
  0
LINE
  5
535
100
AcDbEntity
  8
ALPHA
100
AcDbLine
 10
53.995899
 20
106.650701
 30
0.0
 11
53.959454
 21
106.62998
 31
0.0
  0
LINE
  5
536
100
AcDbEntity
  8
ALPHA
100
AcDbLine
 10
55.895899
 20
85.540413
 30
0.0
 11
55.895899
 21
84.90764
 31
0.0
  0
LINE
  5
537
100
AcDbEntity
  8
ALPHA
100
AcDbLine
 10
55.895899
 20
85.540413
 30
0.0
 11
55.895899
 21
87.990413
 31
0.0
  0
LWPOLYLINE
  5
538
100
AcDbEntity
  8
ALPHA
100
AcDbPolyline
 90
        5
 70
     0
 43
0.0
 10
53.995899
 20
93.080823
 10
53.529042
 20
92.609816
 10
53.179661
 20
92.048705
 10
52.965095
 20
91.425342
 10
52.939928
 20
91.195803
  0
LINE
  5
53F
100
AcDbEntity
  8
ALPHA
100
AcDbLine
 10
52.395899
 20
84.82715
 30
0.0
 11
52.526637
 21
84.90764
 31
0.0
  0
LINE
  5
540
100
AcDbEntity
  8
ALPHA
100
AcDbLine
 10
52.095899
 20
84.90764
 30
0.0
 11
55.895899
 21
84.90764
 31
0.0
  0
LINE
  5
541
100
AcDbEntity
  8
ALPHA
100
AcDbLine
 10
53.995899
 20
93.080823
 30
0.0
 11
53.995899
 21
94.011519
 31
0.0
  0
LINE
  5
542
100
AcDbEntity
  8
ALPHA
100
AcDbLine
 10
53.995899
 20
94.192634
 30
0.0
 11
53.476284
 21
94.497262
 31
0.0
  0
LINE
  5
543
100
AcDbEntity
  8
ALPHA
100
AcDbLine
 10
51.995899
 20
114.713918
 30
0.0
 11
51.995899
 21
115.996294
 31
0.0
  0
LWPOLYLINE
  5
544
100
AcDbEntity
  8
ALPHA
100
AcDbPolyline
 90
        4
 70
     0
 43
0.0
 10
53.735534
 20
110.540413
 10
53.458161
 20
110.305017
 10
53.225834
 20
110.035827
 10
53.046465
 20
109.73236
  0
LWPOLYLINE
  5
54A
100
AcDbEntity
  8
ALPHA
100
AcDbPolyline
 90
        3
 70
     0
 43
0.0
 10
53.046465
 20
109.73236
 10
52.922765
 20
109.186181
 10
52.895958
 20
108.779125
  0
LINE
  5
54F
100
AcDbEntity
  8
ALPHA
100
AcDbLine
 10
53.025693
 20
107.540413
 30
0.0
 11
53.155248
 21
107.540413
 31
0.0
  0
LWPOLYLINE
  5
550
100
AcDbEntity
  8
ALPHA
100
AcDbPolyline
 90
        7
 70
     0
 43
0.0
 10
55.895899
 20
87.990643
 10
55.392426
 20
88.033848
 10
54.903165
 20
88.162265
 10
54.44122
 20
88.372727
 10
54.019724
 20
88.659877
 10
53.650917
 20
89.016235
 10
53.345899
 20
89.432195
  0
LINE
  5
559
100
AcDbEntity
  8
ALPHA
100
AcDbLine
 10
53.095899
 20
84.392507
 30
0.0
 11
53.095899
 21
84.90764
 31
0.0
  0
LINE
  5
55A
100
AcDbEntity
  8
ALPHA
100
AcDbLine
 10
50.995899
 20
112.140413
 30
0.0
 11
50.995899
 21
112.540413
 31
0.0
  0
LINE
  5
55B
100
AcDbEntity
  8
ALPHA
100
AcDbLine
 10
50.995899
 20
112.540413
 30
0.0
 11
51.995899
 21
112.540413
 31
0.0
  0
LINE
  5
55C
100
AcDbEntity
  8
ALPHA
100
AcDbLine
 10
51.995899
 20
114.713918
 30
0.0
 11
51.995899
 21
112.540413
 31
0.0
  0
LINE
  5
55D
100
AcDbEntity
  8
ALPHA
100
AcDbLine
 10
52.795899
 20
116.040413
 30
0.0
 11
50.995899
 21
116.040413
 31
0.0
  0
LINE
  5
55E
100
AcDbEntity
  8
ALPHA
100
AcDbLine
 10
55.895899
 20
87.990413
 30
0.0
 11
53.345899
 21
87.990413
 31
0.0
  0
LINE
  5
55F
100
AcDbEntity
  8
ALPHA
100
AcDbLine
 10
53.345899
 20
87.990413
 30
0.0
 11
53.345899
 21
90.04934
 31
0.0
  0
LINE
  5
560
100
AcDbEntity
  8
ALPHA
100
AcDbLine
 10
53.995899
 20
94.192634
 30
0.0
 11
53.995899
 21
94.011519
 31
0.0
  0
LINE
  5
561
100
AcDbEntity
  8
ALPHA
100
AcDbLine
 10
51.995899
 20
94.497262
 30
0.0
 11
53.476284
 21
94.497262
 31
0.0
  0
LINE
  5
562
100
AcDbEntity
  8
ALPHA
100
AcDbLine
 10
51.995899
 20
99.740413
 30
0.0
 11
51.795899
 21
99.740413
 31
0.0
  0
LINE
  5
563
100
AcDbEntity
  8
ALPHA
100
AcDbLine
 10
51.795899
 20
100.340413
 30
0.0
 11
51.795899
 21
99.740413
 31
0.0
  0
LINE
  5
564
100
AcDbEntity
  8
ALPHA
100
AcDbLine
 10
51.995899
 20
100.340413
 30
0.0
 11
51.795899
 21
100.340413
 31
0.0
  0
LINE
  5
565
100
AcDbEntity
  8
ALPHA
100
AcDbLine
 10
51.995899
 20
105.583564
 30
0.0
 11
53.476284
 21
105.583564
 31
0.0
  0
LINE
  5
566
100
AcDbEntity
  8
ALPHA
100
AcDbLine
 10
53.995899
 20
105.888192
 30
0.0
 11
53.995899
 21
106.069306
 31
0.0
  0
LINE
  5
567
100
AcDbEntity
  8
ALPHA
100
AcDbLine
 10
53.025693
 20
107.540413
 30
0.0
 11
51.845899
 21
107.540413
 31
0.0
  0
LINE
  5
568
100
AcDbEntity
  8
ALPHA
100
AcDbLine
 10
51.845899
 20
107.540413
 30
0.0
 11
51.845899
 21
110.540413
 31
0.0
  0
LWPOLYLINE
  5
569
100
AcDbEntity
  8
ALPHA
100
AcDbPolyline
 90
        5
 70
     0
 43
0.0
 10
53.735534
 20
110.540413
 10
54.196625
 20
110.937239
 10
54.724631
 20
111.231273
 10
55.298993
 20
111.412131
 10
55.895899
 20
111.473039
  0
LINE
  5
570
100
AcDbEntity
  8
ALPHA
100
AcDbLine
 10
50.995899
 20
84.040413
 30
0.0
 11
52.095899
 21
84.040413
 31
0.0
  0
LINE
  5
571
100
AcDbEntity
  8
ALPHA
100
AcDbLine
 10
50.995899
 20
116.040413
 30
0.0
 11
50.995899
 21
115.996294
 31
0.0
  0
ARC
  5
572
100
AcDbEntity
  8
ALPHA
100
AcDbCircle
 10
52.095899
 20
84.340413
 30
0.0
 40
0.3
100
AcDbArc
 50
270.0
 51
0.0
  0
LINE
  5
573
100
AcDbEntity
  8
ALPHA
100
AcDbLine
 10
52.395899
 20
84.90764
 30
0.0
 11
52.395899
 21
84.340413
 31
0.0
  0
LINE
  5
574
100
AcDbEntity
  8
ALPHA
100
AcDbLine
 10
52.695899
 20
84.040413
 30
0.0
 11
52.095899
 21
84.040413
 31
0.0
  0
LINE
  5
575
100
AcDbEntity
  8
ALPHA
100
AcDbLine
 10
53.095899
 20
84.040413
 30
0.0
 11
52.695899
 21
84.040413
 31
0.0
  0
LINE
  5
576
100
AcDbEntity
  8
ALPHA
100
AcDbLine
 10
53.095899
 20
84.373488
 30
0.0
 11
53.095899
 21
84.040413
 31
0.0
  0
LINE
  5
577
100
AcDbEntity
  8
ALPHA
100
AcDbLine
 10
53.095899
 20
84.392507
 30
0.0
 11
53.095899
 21
84.373488
 31
0.0
  0
LINE
  5
578
100
AcDbEntity
  8
ALPHA
100
AcDbLine
 10
52.795899
 20
116.040413
 30
0.0
 11
52.795899
 21
115.173186
 31
0.0
  0
LINE
  5
579
100
AcDbEntity
  8
ALPHA
100
AcDbLine
 10
50.995899
 20
85.540413
 30
0.0
 11
50.995899
 21
84.040413
 31
0.0
  0
LINE
  5
57A
100
AcDbEntity
  8
ALPHA
100
AcDbLine
 10
50.995899
 20
85.540413
 30
0.0
 11
50.995899
 21
112.140413
 31
0.0
  0
LINE
  5
57B
100
AcDbEntity
  8
ALPHA
100
AcDbLine
 10
53.095899
 20
116.040413
 30
0.0
 11
52.795899
 21
116.040413
 31
0.0
  0
LINE
  5
57C
100
AcDbEntity
  8
ALPHA
100
AcDbLine
 10
50.995899
 20
115.996294
 30
0.0
 11
50.995899
 21
112.540413
 31
0.0
  0
LINE
  5
57D
100
AcDbEntity
  8
ALPHA
100
AcDbLine
 10
53.095899
 20
115.792089
 30
0.0
 11
53.095899
 21
115.688318
 31
0.0
  0
LINE
  5
57E
100
AcDbEntity
  8
ALPHA
100
AcDbLine
 10
53.095899
 20
116.040413
 30
0.0
 11
53.095899
 21
115.792089
 31
0.0
  0
LWPOLYLINE
  5
57F
100
AcDbEntity
  8
ALPHA
100
AcDbPolyline
 90
        4
 70
     0
 43
0.0
 10
53.204757
 20
107.560105
 10
53.228918
 20
107.49936
 10
53.563744
 20
106.993842
 10
53.995899
 20
106.565882
  0
LWPOLYLINE
  5
585
100
AcDbEntity
  8
ALPHA
100
AcDbPolyline
 90
        4
 70
     0
 43
0.0
 10
52.898413
 20
108.779207
 10
52.902503
 20
108.656326
 10
53.005395
 20
108.06134
 10
53.204757
 20
107.560105
  0
LINE
  5
58B
100
AcDbEntity
  8
ALPHA
100
AcDbLine
 10
51.995899
 20
100.340413
 30
0.0
 11
51.995899
 21
105.583564
 31
0.0
  0
LWPOLYLINE
  5
58C
100
AcDbEntity
  8
ALPHA
100
AcDbPolyline
 90
        4
 70
     0
 43
0.0
 10
52.895905
 20
91.653892
 10
52.952473
 20
91.065256
 10
53.104082
 20
90.539058
 10
53.345899
 20
90.04934
  0
LINE
  5
592
100
AcDbEntity
  8
ALPHA
100
AcDbLine
 10
51.995899
 20
94.497262
 30
0.0
 11
51.995899
 21
99.740413
 31
0.0
  0
LINE
  5
593
100
AcDbEntity
  8
ALPHA
100
AcDbLine
 10
53.095899
 20
84.040413
 30
0.0
 11
52.695899
 21
84.040413
 31
0.0
  0
LINE
  5
594
100
AcDbEntity
  8
ALPHA
100
AcDbLine
 10
75.895899
 20
114.540413
 30
0.0
 11
72.395899
 21
114.540413
 31
0.0
  0
LINE
  5
595
100
AcDbEntity
  8
ALPHA
100
AcDbLine
 10
72.395899
 20
114.540413
 30
0.0
 11
71.995899
 21
114.713918
 31
0.0
  0
LINE
  5
596
100
AcDbEntity
  8
ALPHA
100
AcDbLine
 10
72.695899
 20
84.90764
 30
0.0
 11
72.695899
 21
84.392507
 31
0.0
  0
LWPOLYLINE
  5
597
100
AcDbEntity
  8
ALPHA
100
AcDbPolyline
 90
        5
 70
     0
 43
0.0
 10
72.925429
 20
108.784222
 10
73.005395
 20
108.321812
 10
73.228918
 20
107.759833
 10
73.563744
 20
107.254314
 10
73.995899
 20
106.826354
  0
LINE
  5
59E
100
AcDbEntity
  8
ALPHA
100
AcDbLine
 10
72.913207
 20
108.854899
 30
0.0
 11
72.925429
 21
108.784222
 31
0.0
  0
LINE
  5
59F
100
AcDbEntity
  8
ALPHA
100
AcDbLine
 10
72.904329
 20
108.906239
 30
0.0
 11
72.913207
 21
108.854899
 31
0.0
  0
LINE
  5
5A0
100
AcDbEntity
  8
ALPHA
100
AcDbLine
 10
72.695899
 20
84.392507
 30
0.0
 11
72.695899
 21
84.040413
 31
0.0
  0
LWPOLYLINE
  5
5A1
100
AcDbEntity
  8
ALPHA
100
AcDbPolyline
 90
        4
 70
     0
 43
0.0
 10
72.895958
 20
108.779125
 10
72.899719
 20
108.625729
 10
72.978223
 20
108.070673
 10
73.155248
 20
107.540413
  0
LINE
  5
5A7
100
AcDbEntity
  8
ALPHA
100
AcDbLine
 10
70.995899
 20
112.140413
 30
0.0
 11
72.395899
 21
112.140413
 31
0.0
  0
LINE
  5
5A8
100
AcDbEntity
  8
ALPHA
100
AcDbLine
 10
72.095899
 20
84.90764
 30
0.0
 11
72.095899
 21
84.040413
 31
0.0
  0
LINE
  5
5A9
100
AcDbEntity
  8
ALPHA
100
AcDbLine
 10
72.395899
 20
114.540413
 30
0.0
 11
72.395899
 21
112.140413
 31
0.0
  0
LINE
  5
5AA
100
AcDbEntity
  8
ALPHA
100
AcDbLine
 10
72.395899
 20
112.140413
 30
0.0
 11
71.995899
 21
112.540413
 31
0.0
  0
LINE
  5
5AB
100
AcDbEntity
  8
ALPHA
100
AcDbLine
 10
75.895899
 20
85.540413
 30
0.0
 11
70.995899
 21
85.540413
 31
0.0
  0
LWPOLYLINE
  5
5AC
100
AcDbEntity
  8
ALPHA
100
AcDbPolyline
 90
        6
 70
     0
 43
0.0
 10
73.995899
 20
94.011519
 10
73.612818
 20
93.63025
 10
73.302016
 20
93.184559
 10
73.074133
 20
92.688425
 10
72.937266
 20
92.158203
 10
72.895905
 20
91.653892
  0
LINE
  5
5B4
100
AcDbEntity
  8
ALPHA
100
AcDbLine
 10
70.995899
 20
115.996294
 30
0.0
 11
71.995899
 21
115.996294
 31
0.0
  0
LWPOLYLINE
  5
5B5
100
AcDbEntity
  8
ALPHA
100
AcDbPolyline
 90
        7
 70
     0
 43
0.0
 10
72.695899
 20
84.392507
 10
72.618248
 20
84.39073
 10
72.546484
 20
84.385588
 10
72.484867
 20
84.377439
 10
72.437149
 20
84.366772
 10
72.40661
 20
84.354216
 10
72.395899
 20
84.340413
  0
LINE
  5
5BE
100
AcDbEntity
  8
ALPHA
100
AcDbLine
 10
71.845899
 20
109.73236
 30
0.0
 11
73.046465
 21
109.73236
 31
0.0
  0
LINE
  5
5BF
100
AcDbEntity
  8
ALPHA
100
AcDbLine
 10
73.095899
 20
115.688318
 30
0.0
 11
72.795899
 21
115.688318
 31
0.0
  0
LINE
  5
5C0
100
AcDbEntity
  8
ALPHA
100
AcDbLine
 10
73.095899
 20
84.392507
 30
0.0
 11
72.695899
 21
84.392507
 31
0.0
  0
LWPOLYLINE
  5
5C1
100
AcDbEntity
  8
ALPHA
100
AcDbPolyline
 90
        4
 70
     0
 43
0.0
 10
73.995899
 20
106.069306
 10
73.580349
 20
106.48992
 10
73.252274
 20
106.986698
 10
73.025693
 20
107.540413
  0
LINE
  5
5C7
100
AcDbEntity
  8
ALPHA
100
AcDbLine
 10
73.735534
 20
110.540413
 30
0.0
 11
71.845899
 21
110.540413
 31
0.0
  0
LINE
  5
5C8
100
AcDbEntity
  8
ALPHA
100
AcDbLine
 10
72.795899
 20
98.040413
 30
0.0
 11
72.795899
 21
97.890413
 31
0.0
  0
LINE
  5
5C9
100
AcDbEntity
  8
ALPHA
100
AcDbLine
 10
72.795899
 20
102.190413
 30
0.0
 11
72.795899
 21
102.040413
 31
0.0
  0
LINE
  5
5CA
100
AcDbEntity
  8
ALPHA
100
AcDbLine
 10
71.995899
 20
98.615413
 30
0.0
 11
72.145899
 21
98.510382
 31
0.0
  0
LINE
  5
5CB
100
AcDbEntity
  8
ALPHA
100
AcDbLine
 10
72.145899
 20
101.570444
 30
0.0
 11
71.995899
 21
101.465413
 31
0.0
  0
LINE
  5
5CC
100
AcDbEntity
  8
ALPHA
100
AcDbLine
 10
75.895899
 20
114.540413
 30
0.0
 11
75.895899
 21
111.473039
 31
0.0
  0
LINE
  5
5CD
100
AcDbEntity
  8
ALPHA
100
AcDbLine
 10
75.895899
 20
115.173186
 30
0.0
 11
75.895899
 21
114.540413
 31
0.0
  0
LINE
  5
5CE
100
AcDbEntity
  8
ALPHA
100
AcDbLine
 10
72.942992
 20
108.857075
 30
0.0
 11
72.916814
 21
109.095825
 31
0.0
  0
LINE
  5
5CF
100
AcDbEntity
  8
ALPHA
100
AcDbLine
 10
72.950878
 20
108.785147
 30
0.0
 11
72.942992
 21
108.857075
 31
0.0
  0
LWPOLYLINE
  5
5D0
100
AcDbEntity
  8
ALPHA
100
AcDbPolyline
 90
        5
 70
     0
 43
0.0
 10
73.995899
 20
107.000002
 10
73.529042
 20
107.47101
 10
73.179661
 20
108.032121
 10
72.965095
 20
108.655484
 10
72.950878
 20
108.785147
  0
LINE
  5
5D7
100
AcDbEntity
  8
ALPHA
100
AcDbLine
 10
72.795899
 20
115.173186
 30
0.0
 11
75.895899
 21
115.173186
 31
0.0
  0
LINE
  5
5D8
100
AcDbEntity
  8
ALPHA
100
AcDbLine
 10
73.995899
 20
106.650701
 30
0.0
 11
73.995899
 21
106.826354
 31
0.0
  0
LINE
  5
5D9
100
AcDbEntity
  8
ALPHA
100
AcDbLine
 10
73.995899
 20
106.565882
 30
0.0
 11
73.995899
 21
106.069306
 31
0.0
  0
LINE
  5
5DA
100
AcDbEntity
  8
ALPHA
100
AcDbLine
 10
73.095899
 20
115.173186
 30
0.0
 11
73.095899
 21
115.688318
 31
0.0
  0
LINE
  5
5DB
100
AcDbEntity
  8
ALPHA
100
AcDbLine
 10
73.995899
 20
107.000002
 30
0.0
 11
73.995899
 21
106.826354
 31
0.0
  0
LINE
  5
5DC
100
AcDbEntity
  8
ALPHA
100
AcDbLine
 10
73.995899
 20
105.888192
 30
0.0
 11
73.476284
 21
105.583564
 31
0.0
  0
LINE
  5
5DD
100
AcDbEntity
  8
ALPHA
100
AcDbLine
 10
73.959454
 20
106.62998
 30
0.0
 11
73.941488
 21
106.619764
 31
0.0
  0
LINE
  5
5DE
100
AcDbEntity
  8
ALPHA
100
AcDbLine
 10
73.995899
 20
106.650701
 30
0.0
 11
73.959454
 21
106.62998
 31
0.0
  0
LINE
  5
5DF
100
AcDbEntity
  8
ALPHA
100
AcDbLine
 10
75.895899
 20
85.540413
 30
0.0
 11
75.895899
 21
84.90764
 31
0.0
  0
LINE
  5
5E0
100
AcDbEntity
  8
ALPHA
100
AcDbLine
 10
75.895899
 20
85.540413
 30
0.0
 11
75.895899
 21
87.990413
 31
0.0
  0
LWPOLYLINE
  5
5E1
100
AcDbEntity
  8
ALPHA
100
AcDbPolyline
 90
        5
 70
     0
 43
0.0
 10
73.995899
 20
93.080823
 10
73.529042
 20
92.609816
 10
73.179661
 20
92.048705
 10
72.965095
 20
91.425342
 10
72.939928
 20
91.195803
  0
LINE
  5
5E8
100
AcDbEntity
  8
ALPHA
100
AcDbLine
 10
72.395899
 20
84.82715
 30
0.0
 11
72.526637
 21
84.90764
 31
0.0
  0
LINE
  5
5E9
100
AcDbEntity
  8
ALPHA
100
AcDbLine
 10
72.095899
 20
84.90764
 30
0.0
 11
75.895899
 21
84.90764
 31
0.0
  0
LINE
  5
5EA
100
AcDbEntity
  8
ALPHA
100
AcDbLine
 10
73.995899
 20
93.080823
 30
0.0
 11
73.995899
 21
94.011519
 31
0.0
  0
LINE
  5
5EB
100
AcDbEntity
  8
ALPHA
100
AcDbLine
 10
73.995899
 20
94.192634
 30
0.0
 11
73.476284
 21
94.497262
 31
0.0
  0
LINE
  5
5EC
100
AcDbEntity
  8
ALPHA
100
AcDbLine
 10
71.995899
 20
114.713918
 30
0.0
 11
71.995899
 21
115.996294
 31
0.0
  0
LWPOLYLINE
  5
5ED
100
AcDbEntity
  8
ALPHA
100
AcDbPolyline
 90
        4
 70
     0
 43
0.0
 10
73.735534
 20
110.540413
 10
73.458161
 20
110.305017
 10
73.225834
 20
110.035827
 10
73.046465
 20
109.73236
  0
LWPOLYLINE
  5
5F3
100
AcDbEntity
  8
ALPHA
100
AcDbPolyline
 90
        3
 70
     0
 43
0.0
 10
73.046465
 20
109.73236
 10
72.922765
 20
109.186181
 10
72.895958
 20
108.779125
  0
LINE
  5
5F8
100
AcDbEntity
  8
ALPHA
100
AcDbLine
 10
73.025693
 20
107.540413
 30
0.0
 11
73.155248
 21
107.540413
 31
0.0
  0
LWPOLYLINE
  5
5F9
100
AcDbEntity
  8
ALPHA
100
AcDbPolyline
 90
        7
 70
     0
 43
0.0
 10
75.895899
 20
87.990643
 10
75.392426
 20
88.033848
 10
74.903165
 20
88.162265
 10
74.44122
 20
88.372727
 10
74.019724
 20
88.659877
 10
73.650917
 20
89.016235
 10
73.345899
 20
89.432195
  0
LINE
  5
602
100
AcDbEntity
  8
ALPHA
100
AcDbLine
 10
73.095899
 20
84.392507
 30
0.0
 11
73.095899
 21
84.90764
 31
0.0
  0
LINE
  5
603
100
AcDbEntity
  8
ALPHA
100
AcDbLine
 10
70.995899
 20
112.140413
 30
0.0
 11
70.995899
 21
112.540413
 31
0.0
  0
LINE
  5
604
100
AcDbEntity
  8
ALPHA
100
AcDbLine
 10
70.995899
 20
112.540413
 30
0.0
 11
71.995899
 21
112.540413
 31
0.0
  0
LINE
  5
605
100
AcDbEntity
  8
ALPHA
100
AcDbLine
 10
71.995899
 20
114.713918
 30
0.0
 11
71.995899
 21
112.540413
 31
0.0
  0
LINE
  5
606
100
AcDbEntity
  8
ALPHA
100
AcDbLine
 10
72.795899
 20
116.040413
 30
0.0
 11
70.995899
 21
116.040413
 31
0.0
  0
LINE
  5
607
100
AcDbEntity
  8
ALPHA
100
AcDbLine
 10
75.895899
 20
87.990413
 30
0.0
 11
73.345899
 21
87.990413
 31
0.0
  0
LINE
  5
608
100
AcDbEntity
  8
ALPHA
100
AcDbLine
 10
73.345899
 20
87.990413
 30
0.0
 11
73.345899
 21
90.04934
 31
0.0
  0
LINE
  5
609
100
AcDbEntity
  8
ALPHA
100
AcDbLine
 10
73.995899
 20
94.192634
 30
0.0
 11
73.995899
 21
94.011519
 31
0.0
  0
LINE
  5
60A
100
AcDbEntity
  8
ALPHA
100
AcDbLine
 10
71.995899
 20
94.497262
 30
0.0
 11
73.476284
 21
94.497262
 31
0.0
  0
LINE
  5
60B
100
AcDbEntity
  8
ALPHA
100
AcDbLine
 10
71.995899
 20
99.740413
 30
0.0
 11
71.795899
 21
99.740413
 31
0.0
  0
LINE
  5
60C
100
AcDbEntity
  8
ALPHA
100
AcDbLine
 10
71.795899
 20
100.340413
 30
0.0
 11
71.795899
 21
99.740413
 31
0.0
  0
LINE
  5
60D
100
AcDbEntity
  8
ALPHA
100
AcDbLine
 10
71.995899
 20
100.340413
 30
0.0
 11
71.795899
 21
100.340413
 31
0.0
  0
LINE
  5
60E
100
AcDbEntity
  8
ALPHA
100
AcDbLine
 10
71.995899
 20
105.583564
 30
0.0
 11
73.476284
 21
105.583564
 31
0.0
  0
LINE
  5
60F
100
AcDbEntity
  8
ALPHA
100
AcDbLine
 10
73.995899
 20
105.888192
 30
0.0
 11
73.995899
 21
106.069306
 31
0.0
  0
LINE
  5
610
100
AcDbEntity
  8
ALPHA
100
AcDbLine
 10
73.025693
 20
107.540413
 30
0.0
 11
71.845899
 21
107.540413
 31
0.0
  0
LINE
  5
611
100
AcDbEntity
  8
ALPHA
100
AcDbLine
 10
71.845899
 20
107.540413
 30
0.0
 11
71.845899
 21
110.540413
 31
0.0
  0
LWPOLYLINE
  5
612
100
AcDbEntity
  8
ALPHA
100
AcDbPolyline
 90
        5
 70
     0
 43
0.0
 10
73.735534
 20
110.540413
 10
74.196625
 20
110.937239
 10
74.724631
 20
111.231273
 10
75.298993
 20
111.412131
 10
75.895899
 20
111.473039
  0
LINE
  5
619
100
AcDbEntity
  8
ALPHA
100
AcDbLine
 10
70.995899
 20
84.040413
 30
0.0
 11
72.095899
 21
84.040413
 31
0.0
  0
LINE
  5
61A
100
AcDbEntity
  8
ALPHA
100
AcDbLine
 10
70.995899
 20
116.040413
 30
0.0
 11
70.995899
 21
115.996294
 31
0.0
  0
ARC
  5
61B
100
AcDbEntity
  8
ALPHA
100
AcDbCircle
 10
72.095899
 20
84.340413
 30
0.0
 40
0.3
100
AcDbArc
 50
270.0
 51
0.0
  0
LINE
  5
61C
100
AcDbEntity
  8
ALPHA
100
AcDbLine
 10
72.395899
 20
84.90764
 30
0.0
 11
72.395899
 21
84.340413
 31
0.0
  0
LINE
  5
61D
100
AcDbEntity
  8
ALPHA
100
AcDbLine
 10
72.695899
 20
84.040413
 30
0.0
 11
72.095899
 21
84.040413
 31
0.0
  0
LINE
  5
61E
100
AcDbEntity
  8
ALPHA
100
AcDbLine
 10
73.095899
 20
84.040413
 30
0.0
 11
72.695899
 21
84.040413
 31
0.0
  0
LINE
  5
61F
100
AcDbEntity
  8
ALPHA
100
AcDbLine
 10
73.095899
 20
84.373488
 30
0.0
 11
73.095899
 21
84.040413
 31
0.0
  0
LINE
  5
620
100
AcDbEntity
  8
ALPHA
100
AcDbLine
 10
73.095899
 20
84.392507
 30
0.0
 11
73.095899
 21
84.373488
 31
0.0
  0
LINE
  5
621
100
AcDbEntity
  8
ALPHA
100
AcDbLine
 10
72.795899
 20
116.040413
 30
0.0
 11
72.795899
 21
115.173186
 31
0.0
  0
LINE
  5
622
100
AcDbEntity
  8
ALPHA
100
AcDbLine
 10
70.995899
 20
85.540413
 30
0.0
 11
70.995899
 21
84.040413
 31
0.0
  0
LINE
  5
623
100
AcDbEntity
  8
ALPHA
100
AcDbLine
 10
70.995899
 20
85.540413
 30
0.0
 11
70.995899
 21
112.140413
 31
0.0
  0
LINE
  5
624
100
AcDbEntity
  8
ALPHA
100
AcDbLine
 10
73.095899
 20
116.040413
 30
0.0
 11
72.795899
 21
116.040413
 31
0.0
  0
LINE
  5
625
100
AcDbEntity
  8
ALPHA
100
AcDbLine
 10
70.995899
 20
115.996294
 30
0.0
 11
70.995899
 21
112.540413
 31
0.0
  0
LINE
  5
626
100
AcDbEntity
  8
ALPHA
100
AcDbLine
 10
73.095899
 20
115.792089
 30
0.0
 11
73.095899
 21
115.688318
 31
0.0
  0
LINE
  5
627
100
AcDbEntity
  8
ALPHA
100
AcDbLine
 10
73.095899
 20
116.040413
 30
0.0
 11
73.095899
 21
115.792089
 31
0.0
  0
LWPOLYLINE
  5
628
100
AcDbEntity
  8
ALPHA
100
AcDbPolyline
 90
        4
 70
     0
 43
0.0
 10
73.204757
 20
107.560105
 10
73.228918
 20
107.49936
 10
73.563744
 20
106.993842
 10
73.995899
 20
106.565882
  0
LWPOLYLINE
  5
62E
100
AcDbEntity
  8
ALPHA
100
AcDbPolyline
 90
        4
 70
     0
 43
0.0
 10
72.898413
 20
108.779207
 10
72.902503
 20
108.656326
 10
73.005395
 20
108.06134
 10
73.204757
 20
107.560105
  0
LINE
  5
634
100
AcDbEntity
  8
ALPHA
100
AcDbLine
 10
71.995899
 20
100.340413
 30
0.0
 11
71.995899
 21
105.583564
 31
0.0
  0
LWPOLYLINE
  5
635
100
AcDbEntity
  8
ALPHA
100
AcDbPolyline
 90
        4
 70
     0
 43
0.0
 10
72.895905
 20
91.653892
 10
72.952473
 20
91.065256
 10
73.104082
 20
90.539058
 10
73.345899
 20
90.04934
  0
LINE
  5
63B
100
AcDbEntity
  8
ALPHA
100
AcDbLine
 10
71.995899
 20
94.497262
 30
0.0
 11
71.995899
 21
99.740413
 31
0.0
  0
LINE
  5
63C
100
AcDbEntity
  8
ALPHA
100
AcDbLine
 10
73.095899
 20
84.040413
 30
0.0
 11
72.695899
 21
84.040413
 31
0.0
  0
LINE
  5
63D
100
AcDbEntity
  8
ALPHA
100
AcDbLine
 10
65.595899
 20
106.925886
 30
0.0
 11
65.595899
 21
106.845825
 31
0.0
  0
LINE
  5
63E
100
AcDbEntity
  8
ALPHA
100
AcDbLine
 10
80.845899
 20
111.167691
 30
0.0
 11
80.795899
 21
111.167691
 31
0.0
  0
LINE
  5
63F
100
AcDbEntity
  8
ALPHA
100
AcDbLine
 10
80.845899
 20
111.540413
 30
0.0
 11
80.795899
 21
111.540413
 31
0.0
  0
LINE
  5
640
100
AcDbEntity
  8
ALPHA
100
AcDbLine
 10
80.845899
 20
111.393413
 30
0.0
 11
80.795899
 21
111.393413
 31
0.0
  0
LINE
  5
641
100
AcDbEntity
  8
ALPHA
100
AcDbLine
 10
80.845899
 20
112.840413
 30
0.0
 11
80.845899
 21
111.540413
 31
0.0
  0
LINE
  5
642
100
AcDbEntity
  8
ALPHA
100
AcDbLine
 10
80.845899
 20
111.167691
 30
0.0
 11
80.845899
 21
111.393413
 31
0.0
  0
LINE
  5
643
100
AcDbEntity
  8
ALPHA
100
AcDbLine
 10
80.845899
 20
111.393413
 30
0.0
 11
80.845899
 21
111.540413
 31
0.0
  0
LINE
  5
644
100
AcDbEntity
  8
ALPHA
100
AcDbLine
 10
80.845899
 20
112.840413
 30
0.0
 11
80.845899
 21
115.640413
 31
0.0
  0
LINE
  5
645
100
AcDbEntity
  8
ALPHA
100
AcDbLine
 10
80.845899
 20
115.640413
 30
0.0
 11
80.845899
 21
112.840413
 31
0.0
  0
LINE
  5
646
100
AcDbEntity
  8
ALPHA
100
AcDbLine
 10
80.845899
 20
115.640413
 30
0.0
 11
80.795899
 21
115.640413
 31
0.0
  0
LINE
  5
647
100
AcDbEntity
  8
ALPHA
100
AcDbLine
 10
80.845899
 20
112.840413
 30
0.0
 11
80.795899
 21
112.840413
 31
0.0
  0
LINE
  5
648
100
AcDbEntity
  8
ALPHA
100
AcDbLine
 10
80.845899
 20
111.090413
 30
0.0
 11
80.795899
 21
111.090413
 31
0.0
  0
LINE
  5
649
100
AcDbEntity
  8
ALPHA
100
AcDbLine
 10
80.845899
 20
111.090432
 30
0.0
 11
80.845899
 21
111.167691
 31
0.0
  0
LINE
  5
64A
100
AcDbEntity
  8
ALPHA
100
AcDbLine
 10
60.845899
 20
112.840413
 30
0.0
 11
60.845899
 21
112.540413
 31
0.0
  0
LINE
  5
64B
100
AcDbEntity
  8
ALPHA
100
AcDbLine
 10
60.845899
 20
112.840413
 30
0.0
 11
60.845899
 21
115.640413
 31
0.0
  0
LINE
  5
64C
100
AcDbEntity
  8
ALPHA
100
AcDbLine
 10
60.845899
 20
115.640413
 30
0.0
 11
60.845899
 21
112.840413
 31
0.0
  0
LINE
  5
64D
100
AcDbEntity
  8
ALPHA
100
AcDbLine
 10
60.845899
 20
115.640413
 30
0.0
 11
60.795899
 21
115.640413
 31
0.0
  0
LINE
  5
64E
100
AcDbEntity
  8
ALPHA
100
AcDbLine
 10
60.845899
 20
112.840413
 30
0.0
 11
60.795899
 21
112.840413
 31
0.0
  0
LINE
  5
64F
100
AcDbEntity
  8
ALPHA
100
AcDbLine
 10
56.645899
 20
93.492099
 30
0.0
 11
57.089398
 21
93.492099
 31
0.0
  0
LINE
  5
650
100
AcDbEntity
  8
ALPHA
100
AcDbLine
 10
53.995899
 20
93.492099
 30
0.0
 11
55.145899
 21
93.492099
 31
0.0
  0
LINE
  5
651
100
AcDbEntity
  8
ALPHA
100
AcDbLine
 10
58.849165
 20
91.1778
 30
0.0
 11
58.660058
 21
91.1778
 31
0.0
  0
LINE
  5
652
100
AcDbEntity
  8
ALPHA
100
AcDbLine
 10
58.856764
 20
91.1778
 30
0.0
 11
58.849165
 21
91.1778
 31
0.0
  0
LINE
  5
653
100
AcDbEntity
  8
ALPHA
100
AcDbLine
 10
56.645899
 20
93.492099
 30
0.0
 11
56.645899
 21
93.466346
 31
0.0
  0
LINE
  5
654
100
AcDbEntity
  8
ALPHA
100
AcDbLine
 10
58.791514
 20
90.888186
 30
0.0
 11
58.687342
 21
90.888186
 31
0.0
  0
LINE
  5
655
100
AcDbEntity
  8
ALPHA
100
AcDbLine
 10
53.003491
 20
90.888186
 30
0.0
 11
53.11374
 21
90.888186
 31
0.0
  0
LWPOLYLINE
  5
656
100
AcDbEntity
  8
ALPHA
100
AcDbPolyline
 90
        7
 70
     0
 43
0.0
 10
56.645899
 20
93.492099
 10
56.640529
 20
93.5365
 10
56.623803
 20
93.578253
 10
56.595159
 20
93.614387
 10
56.555337
 20
93.641231
 10
56.505306
 20
93.655757
 10
56.481422
 20
93.657101
  0
LINE
  5
65F
100
AcDbEntity
  8
ALPHA
100
AcDbLine
 10
56.395899
 20
93.645648
 30
0.0
 11
56.395899
 21
93.520441
 31
0.0
  0
LWPOLYLINE
  5
660
100
AcDbEntity
  8
ALPHA
100
AcDbPolyline
 90
        7
 70
     0
 43
0.0
 10
55.145899
 20
93.492099
 10
55.151269
 20
93.5365
 10
55.167995
 20
93.578253
 10
55.196639
 20
93.614387
 10
55.236461
 20
93.641231
 10
55.286492
 20
93.655757
 10
55.310376
 20
93.657101
  0
LINE
  5
669
100
AcDbEntity
  8
ALPHA
100
AcDbLine
 10
55.395899
 20
93.645648
 30
0.0
 11
55.395899
 21
93.524419
 31
0.0
  0
LINE
  5
66A
100
AcDbEntity
  8
ALPHA
100
AcDbLine
 10
55.145899
 20
93.492099
 30
0.0
 11
55.145899
 21
93.461326
 31
0.0
  0
LINE
  5
66B
100
AcDbEntity
  8
ALPHA
100
AcDbLine
 10
52.941658
 20
91.1778
 30
0.0
 11
53.129656
 21
91.1778
 31
0.0
  0
LINE
  5
66C
100
AcDbEntity
  8
ALPHA
100
AcDbLine
 10
52.937954
 20
91.1778
 30
0.0
 11
52.941658
 21
91.1778
 31
0.0
  0
LINE
  5
66D
100
AcDbEntity
  8
ALPHA
100
AcDbLine
 10
56.570803
 20
93.657369
 30
0.0
 11
56.480279
 21
93.657369
 31
0.0
  0
LINE
  5
66E
100
AcDbEntity
  8
ALPHA
100
AcDbLine
 10
56.481422
 20
93.657101
 30
0.0
 11
56.445899
 21
93.65433
 31
0.0
  0
LINE
  5
66F
100
AcDbEntity
  8
ALPHA
100
AcDbLine
 10
55.311519
 20
93.657369
 30
0.0
 11
53.995899
 21
93.657369
 31
0.0
  0
LINE
  5
670
100
AcDbEntity
  8
ALPHA
100
AcDbLine
 10
55.310376
 20
93.657101
 30
0.0
 11
55.345899
 21
93.65433
 31
0.0
  0
LINE
  5
671
100
AcDbEntity
  8
ALPHA
100
AcDbLine
 10
55.345899
 20
93.65433
 30
0.0
 11
55.395899
 21
93.645648
 31
0.0
  0
LINE
  5
672
100
AcDbEntity
  8
ALPHA
100
AcDbLine
 10
56.395899
 20
93.645648
 30
0.0
 11
55.395899
 21
93.645648
 31
0.0
  0
LINE
  5
673
100
AcDbEntity
  8
ALPHA
100
AcDbLine
 10
56.445899
 20
93.65433
 30
0.0
 11
56.395899
 21
93.645648
 31
0.0
  0
LINE
  5
674
100
AcDbEntity
  8
ALPHA
100
AcDbLine
 10
76.645899
 20
93.492099
 30
0.0
 11
77.089398
 21
93.492099
 31
0.0
  0
LINE
  5
675
100
AcDbEntity
  8
ALPHA
100
AcDbLine
 10
73.995899
 20
93.492099
 30
0.0
 11
75.145899
 21
93.492099
 31
0.0
  0
LINE
  5
676
100
AcDbEntity
  8
ALPHA
100
AcDbLine
 10
78.849165
 20
91.1778
 30
0.0
 11
78.660058
 21
91.1778
 31
0.0
  0
LINE
  5
677
100
AcDbEntity
  8
ALPHA
100
AcDbLine
 10
78.856764
 20
91.1778
 30
0.0
 11
78.849165
 21
91.1778
 31
0.0
  0
LINE
  5
678
100
AcDbEntity
  8
ALPHA
100
AcDbLine
 10
76.645899
 20
93.492099
 30
0.0
 11
76.645899
 21
93.466346
 31
0.0
  0
LINE
  5
679
100
AcDbEntity
  8
ALPHA
100
AcDbLine
 10
78.791514
 20
90.888186
 30
0.0
 11
78.687342
 21
90.888186
 31
0.0
  0
LINE
  5
67A
100
AcDbEntity
  8
ALPHA
100
AcDbLine
 10
73.003491
 20
90.888186
 30
0.0
 11
73.11374
 21
90.888186
 31
0.0
  0
LWPOLYLINE
  5
67B
100
AcDbEntity
  8
ALPHA
100
AcDbPolyline
 90
        7
 70
     0
 43
0.0
 10
76.645899
 20
93.492099
 10
76.640529
 20
93.5365
 10
76.623803
 20
93.578253
 10
76.595159
 20
93.614387
 10
76.555337
 20
93.641231
 10
76.505306
 20
93.655757
 10
76.481422
 20
93.657101
  0
LINE
  5
684
100
AcDbEntity
  8
ALPHA
100
AcDbLine
 10
76.395899
 20
93.645648
 30
0.0
 11
76.395899
 21
93.520441
 31
0.0
  0
LWPOLYLINE
  5
685
100
AcDbEntity
  8
ALPHA
100
AcDbPolyline
 90
        7
 70
     0
 43
0.0
 10
75.145899
 20
93.492099
 10
75.151269
 20
93.5365
 10
75.167995
 20
93.578253
 10
75.196639
 20
93.614387
 10
75.236461
 20
93.641231
 10
75.286492
 20
93.655757
 10
75.310376
 20
93.657101
  0
LINE
  5
68E
100
AcDbEntity
  8
ALPHA
100
AcDbLine
 10
75.395899
 20
93.645648
 30
0.0
 11
75.395899
 21
93.524419
 31
0.0
  0
LINE
  5
68F
100
AcDbEntity
  8
ALPHA
100
AcDbLine
 10
75.145899
 20
93.492099
 30
0.0
 11
75.145899
 21
93.461326
 31
0.0
  0
LINE
  5
690
100
AcDbEntity
  8
ALPHA
100
AcDbLine
 10
72.941658
 20
91.1778
 30
0.0
 11
73.129656
 21
91.1778
 31
0.0
  0
LINE
  5
691
100
AcDbEntity
  8
ALPHA
100
AcDbLine
 10
72.937954
 20
91.1778
 30
0.0
 11
72.941658
 21
91.1778
 31
0.0
  0
LINE
  5
692
100
AcDbEntity
  8
ALPHA
100
AcDbLine
 10
76.570803
 20
93.657369
 30
0.0
 11
76.480279
 21
93.657369
 31
0.0
  0
LINE
  5
693
100
AcDbEntity
  8
ALPHA
100
AcDbLine
 10
76.481422
 20
93.657101
 30
0.0
 11
76.445899
 21
93.65433
 31
0.0
  0
LINE
  5
694
100
AcDbEntity
  8
ALPHA
100
AcDbLine
 10
75.311519
 20
93.657369
 30
0.0
 11
73.995899
 21
93.657369
 31
0.0
  0
LINE
  5
695
100
AcDbEntity
  8
ALPHA
100
AcDbLine
 10
75.310376
 20
93.657101
 30
0.0
 11
75.345899
 21
93.65433
 31
0.0
  0
LINE
  5
696
100
AcDbEntity
  8
ALPHA
100
AcDbLine
 10
75.345899
 20
93.65433
 30
0.0
 11
75.395899
 21
93.645648
 31
0.0
  0
LINE
  5
697
100
AcDbEntity
  8
ALPHA
100
AcDbLine
 10
76.395899
 20
93.645648
 30
0.0
 11
75.395899
 21
93.645648
 31
0.0
  0
LINE
  5
698
100
AcDbEntity
  8
ALPHA
100
AcDbLine
 10
76.445899
 20
93.65433
 30
0.0
 11
76.395899
 21
93.645648
 31
0.0
  0
LINE
  5
699
100
AcDbEntity
  8
ALPHA
100
AcDbLine
 10
56.720207
 20
84.151133
 30
0.0
 11
56.645899
 21
84.094668
 31
0.0
  0
LINE
  5
69A
100
AcDbEntity
  8
ALPHA
100
AcDbLine
 10
56.645899
 20
84.094668
 30
0.0
 11
56.520899
 21
83.881902
 31
0.0
  0
LINE
  5
69B
100
AcDbEntity
  8
ALPHA
100
AcDbLine
 10
56.520899
 20
83.881902
 30
0.0
 11
56.520899
 21
83.775519
 31
0.0
  0
LINE
  5
69C
100
AcDbEntity
  8
ALPHA
100
AcDbLine
 10
56.520899
 20
83.775519
 30
0.0
 11
56.645899
 21
83.615945
 31
0.0
  0
LINE
  5
69D
100
AcDbEntity
  8
ALPHA
100
AcDbLine
 10
56.645899
 20
83.615945
 30
0.0
 11
56.833399
 21
83.509562
 31
0.0
  0
LINE
  5
69E
100
AcDbEntity
  8
ALPHA
100
AcDbLine
 10
56.833399
 20
83.509562
 30
0.0
 11
57.145899
 21
83.45637
 31
0.0
  0
LINE
  5
69F
100
AcDbEntity
  8
ALPHA
100
AcDbLine
 10
57.145899
 20
83.45637
 30
0.0
 11
57.395899
 21
83.45637
 31
0.0
  0
LINE
  5
6A0
100
AcDbEntity
  8
ALPHA
100
AcDbLine
 10
57.395899
 20
83.45637
 30
0.0
 11
57.708399
 21
83.509562
 31
0.0
  0
LINE
  5
6A1
100
AcDbEntity
  8
ALPHA
100
AcDbLine
 10
57.708399
 20
83.509562
 30
0.0
 11
57.895899
 21
83.615945
 31
0.0
  0
LINE
  5
6A2
100
AcDbEntity
  8
ALPHA
100
AcDbLine
 10
57.895899
 20
83.615945
 30
0.0
 11
58.020899
 21
83.775519
 31
0.0
  0
LINE
  5
6A3
100
AcDbEntity
  8
ALPHA
100
AcDbLine
 10
58.020899
 20
83.775519
 30
0.0
 11
58.333399
 21
83.775519
 31
0.0
  0
LINE
  5
6A4
100
AcDbEntity
  8
ALPHA
100
AcDbLine
 10
58.333399
 20
83.775519
 30
0.0
 11
58.270899
 21
83.562753
 31
0.0
  0
LINE
  5
6A5
100
AcDbEntity
  8
ALPHA
100
AcDbLine
 10
58.270899
 20
83.562753
 30
0.0
 11
58.020899
 21
83.349987
 31
0.0
  0
LINE
  5
6A6
100
AcDbEntity
  8
ALPHA
100
AcDbLine
 10
58.020899
 20
83.349987
 30
0.0
 11
57.770899
 21
83.243604
 31
0.0
  0
LINE
  5
6A7
100
AcDbEntity
  8
ALPHA
100
AcDbLine
 10
57.770899
 20
83.243604
 30
0.0
 11
57.333399
 21
83.190413
 31
0.0
  0
LINE
  5
6A8
100
AcDbEntity
  8
ALPHA
100
AcDbLine
 10
57.333399
 20
83.190413
 30
0.0
 11
57.083399
 21
83.190413
 31
0.0
  0
LINE
  5
6A9
100
AcDbEntity
  8
ALPHA
100
AcDbLine
 10
57.083399
 20
83.190413
 30
0.0
 11
56.708399
 21
83.243604
 31
0.0
  0
LINE
  5
6AA
100
AcDbEntity
  8
ALPHA
100
AcDbLine
 10
56.708399
 20
83.243604
 30
0.0
 11
56.458399
 21
83.349987
 31
0.0
  0
LINE
  5
6AB
100
AcDbEntity
  8
ALPHA
100
AcDbLine
 10
56.458399
 20
83.349987
 30
0.0
 11
56.208399
 21
83.562753
 31
0.0
  0
LINE
  5
6AC
100
AcDbEntity
  8
ALPHA
100
AcDbLine
 10
56.208399
 20
83.562753
 30
0.0
 11
56.145899
 21
83.775519
 31
0.0
  0
LINE
  5
6AD
100
AcDbEntity
  8
ALPHA
100
AcDbLine
 10
56.145899
 20
83.775519
 30
0.0
 11
56.145899
 21
83.881902
 31
0.0
  0
LINE
  5
6AE
100
AcDbEntity
  8
ALPHA
100
AcDbLine
 10
56.145899
 20
83.881902
 30
0.0
 11
56.208399
 21
84.094668
 31
0.0
  0
LINE
  5
6AF
100
AcDbEntity
  8
ALPHA
100
AcDbLine
 10
56.208399
 20
84.094668
 30
0.0
 11
56.25263
 21
84.151133
 31
0.0
  0
LINE
  5
6B0
100
AcDbEntity
  8
ALPHA
100
AcDbLine
 10
62.565899
 20
84.178711
 30
0.0
 11
62.579607
 21
84.189211
 31
0.0
  0
LINE
  5
6B1
100
AcDbEntity
  8
ALPHA
100
AcDbLine
 10
62.415899
 20
84.140413
 30
0.0
 11
62.565899
 21
84.178711
 31
0.0
  0
LINE
  5
6B2
100
AcDbEntity
  8
ALPHA
100
AcDbLine
 10
62.319371
 20
84.140413
 30
0.0
 11
62.415899
 21
84.140413
 31
0.0
  0
LINE
  5
6B3
100
AcDbEntity
  8
ALPHA
100
AcDbLine
 10
68.504392
 20
84.189211
 30
0.0
 11
68.35215
 21
83.981902
 31
0.0
  0
LINE
  5
6B4
100
AcDbEntity
  8
ALPHA
100
AcDbLine
 10
68.35215
 20
83.981902
 30
0.0
 11
68.35215
 21
83.875519
 31
0.0
  0
LINE
  5
6B5
100
AcDbEntity
  8
ALPHA
100
AcDbLine
 10
68.35215
 20
83.875519
 30
0.0
 11
68.5084
 21
83.715945
 31
0.0
  0
LINE
  5
6B6
100
AcDbEntity
  8
ALPHA
100
AcDbLine
 10
68.5084
 20
83.715945
 30
0.0
 11
68.742775
 21
83.609562
 31
0.0
  0
LINE
  5
6B7
100
AcDbEntity
  8
ALPHA
100
AcDbLine
 10
68.742775
 20
83.609562
 30
0.0
 11
69.1334
 21
83.55637
 31
0.0
  0
LINE
  5
6B8
100
AcDbEntity
  8
ALPHA
100
AcDbLine
 10
69.1334
 20
83.55637
 30
0.0
 11
69.4459
 21
83.55637
 31
0.0
  0
LINE
  5
6B9
100
AcDbEntity
  8
ALPHA
100
AcDbLine
 10
69.4459
 20
83.55637
 30
0.0
 11
69.836525
 21
83.609562
 31
0.0
  0
LINE
  5
6BA
100
AcDbEntity
  8
ALPHA
100
AcDbLine
 10
69.836525
 20
83.609562
 30
0.0
 11
70.0709
 21
83.715945
 31
0.0
  0
LINE
  5
6BB
100
AcDbEntity
  8
ALPHA
100
AcDbLine
 10
70.0709
 20
83.715945
 30
0.0
 11
70.22715
 21
83.875519
 31
0.0
  0
LINE
  5
6BC
100
AcDbEntity
  8
ALPHA
100
AcDbLine
 10
70.22715
 20
83.875519
 30
0.0
 11
70.617775
 21
83.875519
 31
0.0
  0
LINE
  5
6BD
100
AcDbEntity
  8
ALPHA
100
AcDbLine
 10
70.617775
 20
83.875519
 30
0.0
 11
70.53965
 21
83.662753
 31
0.0
  0
LINE
  5
6BE
100
AcDbEntity
  8
ALPHA
100
AcDbLine
 10
70.53965
 20
83.662753
 30
0.0
 11
70.22715
 21
83.449987
 31
0.0
  0
LINE
  5
6BF
100
AcDbEntity
  8
ALPHA
100
AcDbLine
 10
70.22715
 20
83.449987
 30
0.0
 11
69.91465
 21
83.343604
 31
0.0
  0
LINE
  5
6C0
100
AcDbEntity
  8
ALPHA
100
AcDbLine
 10
69.91465
 20
83.343604
 30
0.0
 11
69.367775
 21
83.290413
 31
0.0
  0
LINE
  5
6C1
100
AcDbEntity
  8
ALPHA
100
AcDbLine
 10
69.367775
 20
83.290413
 30
0.0
 11
69.211525
 21
83.290413
 31
0.0
  0
LINE
  5
6C2
100
AcDbEntity
  8
ALPHA
100
AcDbLine
 10
69.211525
 20
83.290413
 30
0.0
 11
68.66465
 21
83.343604
 31
0.0
  0
LINE
  5
6C3
100
AcDbEntity
  8
ALPHA
100
AcDbLine
 10
68.66465
 20
83.343604
 30
0.0
 11
68.35215
 21
83.449987
 31
0.0
  0
LINE
  5
6C4
100
AcDbEntity
  8
ALPHA
100
AcDbLine
 10
68.35215
 20
83.449987
 30
0.0
 11
68.03965
 21
83.662753
 31
0.0
  0
LINE
  5
6C5
100
AcDbEntity
  8
ALPHA
100
AcDbLine
 10
68.03965
 20
83.662753
 30
0.0
 11
67.961525
 21
83.875519
 31
0.0
  0
LINE
  5
6C6
100
AcDbEntity
  8
ALPHA
100
AcDbLine
 10
67.961525
 20
83.875519
 30
0.0
 11
67.961525
 21
83.981902
 31
0.0
  0
LINE
  5
6C7
100
AcDbEntity
  8
ALPHA
100
AcDbLine
 10
67.961525
 20
83.981902
 30
0.0
 11
68.03965
 21
84.194668
 31
0.0
  0
LINE
  5
6C8
100
AcDbEntity
  8
ALPHA
100
AcDbLine
 10
54.395899
 20
84.140413
 30
0.0
 11
54.395899
 21
84.151133
 31
0.0
  0
LINE
  5
6C9
100
AcDbEntity
  8
ALPHA
100
AcDbLine
 10
53.375899
 20
84.140413
 30
0.0
 11
54.395899
 21
84.140413
 31
0.0
  0
LINE
  5
6CA
100
AcDbEntity
  8
ALPHA
100
AcDbLine
 10
53.375899
 20
84.151133
 30
0.0
 11
53.375899
 21
84.140413
 31
0.0
  0
LINE
  5
6CB
100
AcDbEntity
  8
ALPHA
100
AcDbLine
 10
74.175899
 20
84.140413
 30
0.0
 11
73.995899
 21
84.140413
 31
0.0
  0
LINE
  5
6CC
100
AcDbEntity
  8
ALPHA
100
AcDbLine
 10
73.995899
 20
84.140413
 30
0.0
 11
73.995899
 21
84.151133
 31
0.0
  0
LINE
  5
6CD
100
AcDbEntity
  8
ALPHA
100
AcDbLine
 10
74.183364
 20
84.151133
 30
0.0
 11
74.175899
 21
84.140413
 31
0.0
  0
LINE
  5
6CE
100
AcDbEntity
  8
ALPHA
100
AcDbLine
 10
77.85215
 20
84.151133
 30
0.0
 11
77.85215
 21
83.615945
 31
0.0
  0
LINE
  5
6CF
100
AcDbEntity
  8
ALPHA
100
AcDbLine
 10
77.85215
 20
83.615945
 30
0.0
 11
78.295898
 21
83.988285
 31
0.0
  0
LINE
  5
6D0
100
AcDbEntity
  8
ALPHA
100
AcDbLine
 10
78.295898
 20
83.988285
 30
0.0
 11
78.295898
 21
83.562753
 31
0.0
  0
LINE
  5
6D1
100
AcDbEntity
  8
ALPHA
100
AcDbLine
 10
78.295898
 20
83.562753
 30
0.0
 11
77.85215
 21
83.190413
 31
0.0
  0
LINE
  5
6D2
100
AcDbEntity
  8
ALPHA
100
AcDbLine
 10
77.85215
 20
83.190413
 30
0.0
 11
77.408399
 21
83.190413
 31
0.0
  0
LINE
  5
6D3
100
AcDbEntity
  8
ALPHA
100
AcDbLine
 10
77.408399
 20
83.190413
 30
0.0
 11
77.408399
 21
84.151133
 31
0.0
  0
LINE
  5
6D4
100
AcDbEntity
  8
ALPHA
100
AcDbLine
 10
64.821669
 20
93.444192
 30
0.0
 11
65.145899
 21
93.444192
 31
0.0
  0
LINE
  5
6D5
100
AcDbEntity
  8
ALPHA
100
AcDbLine
 10
66.645899
 20
93.444192
 30
0.0
 11
66.949652
 21
93.444192
 31
0.0
  0
LINE
  5
6D6
100
AcDbEntity
  8
ALPHA
100
AcDbLine
 10
63.006794
 20
90.84028
 30
0.0
 11
63.104456
 21
90.84028
 31
0.0
  0
LWPOLYLINE
  5
6D7
100
AcDbEntity
  8
ALPHA
100
AcDbPolyline
 90
        4
 70
     0
 43
0.0
 10
66.645899
 20
93.444192
 10
66.640529
 20
93.488593
 10
66.623803
 20
93.530347
 10
66.612181
 20
93.545008
  0
LINE
  5
6DD
100
AcDbEntity
  8
ALPHA
100
AcDbLine
 10
66.395899
 20
93.592417
 30
0.0
 11
66.395899
 21
93.476605
 31
0.0
  0
LINE
  5
6DE
100
AcDbEntity
  8
ALPHA
100
AcDbLine
 10
66.395899
 20
93.597742
 30
0.0
 11
66.395899
 21
93.592417
 31
0.0
  0
LWPOLYLINE
  5
6DF
100
AcDbEntity
  8
ALPHA
100
AcDbPolyline
 90
        4
 70
     0
 43
0.0
 10
65.145899
 20
93.444192
 10
65.151269
 20
93.488593
 10
65.167995
 20
93.530347
 10
65.189816
 20
93.557874
  0
LINE
  5
6E5
100
AcDbEntity
  8
ALPHA
100
AcDbLine
 10
62.94119
 20
91.129894
 30
0.0
 11
63.13174
 21
91.129894
 31
0.0
  0
LINE
  5
6E6
100
AcDbEntity
  8
ALPHA
100
AcDbLine
 10
65.395899
 20
93.597742
 30
0.0
 11
65.395899
 21
93.472494
 31
0.0
  0
LINE
  5
6E7
100
AcDbEntity
  8
ALPHA
100
AcDbLine
 10
65.145899
 20
93.444192
 30
0.0
 11
65.145899
 21
93.418539
 31
0.0
  0
LINE
  5
6E8
100
AcDbEntity
  8
ALPHA
100
AcDbLine
 10
68.785658
 20
90.84028
 30
0.0
 11
68.678058
 21
90.84028
 31
0.0
  0
LINE
  5
6E9
100
AcDbEntity
  8
ALPHA
100
AcDbLine
 10
66.645899
 20
93.444192
 30
0.0
 11
66.645899
 21
93.413372
 31
0.0
  0
LINE
  5
6EA
100
AcDbEntity
  8
ALPHA
100
AcDbLine
 10
68.837335
 20
91.129894
 30
0.0
 11
68.662142
 21
91.129894
 31
0.0
  0
LINE
  5
6EB
100
AcDbEntity
  8
ALPHA
100
AcDbLine
 10
68.851554
 20
91.129894
 30
0.0
 11
68.837335
 21
91.129894
 31
0.0
  0
LINE
  5
6EC
100
AcDbEntity
  8
ALPHA
100
AcDbLine
 10
65.392496
 20
93.598333
 30
0.0
 11
65.395899
 21
93.597742
 31
0.0
  0
LINE
  5
6ED
100
AcDbEntity
  8
ALPHA
100
AcDbLine
 10
66.340997
 20
93.597742
 30
0.0
 11
65.395899
 21
93.597742
 31
0.0
  0
LINE
  5
6EE
100
AcDbEntity
  8
ALPHA
100
AcDbLine
 10
75.145899
 20
106.9968
 30
0.0
 11
73.995899
 21
106.9968
 31
0.0
  0
LINE
  5
6EF
100
AcDbEntity
  8
ALPHA
100
AcDbLine
 10
77.759314
 20
106.9968
 30
0.0
 11
76.645899
 21
106.9968
 31
0.0
  0
LINE
  5
6F0
100
AcDbEntity
  8
ALPHA
100
AcDbLine
 10
72.951056
 20
109.311099
 30
0.0
 11
73.170144
 21
109.311099
 31
0.0
  0
LINE
  5
6F1
100
AcDbEntity
  8
ALPHA
100
AcDbLine
 10
75.145899
 20
106.9968
 30
0.0
 11
75.145899
 21
107.13181
 31
0.0
  0
LINE
  5
6F2
100
AcDbEntity
  8
ALPHA
100
AcDbLine
 10
73.016649
 20
109.600713
 30
0.0
 11
73.122067
 21
109.600713
 31
0.0
  0
LINE
  5
6F3
100
AcDbEntity
  8
ALPHA
100
AcDbLine
 10
78.784063
 20
109.600713
 30
0.0
 11
78.669732
 21
109.600713
 31
0.0
  0
LWPOLYLINE
  5
6F4
100
AcDbEntity
  8
ALPHA
100
AcDbPolyline
 90
        7
 70
     0
 43
0.0
 10
75.145899
 20
106.9968
 10
75.151269
 20
106.952399
 10
75.167995
 20
106.910646
 10
75.196639
 20
106.874512
 10
75.236461
 20
106.847668
 10
75.286492
 20
106.833142
 10
75.310376
 20
106.831798
  0
LINE
  5
6FD
100
AcDbEntity
  8
ALPHA
100
AcDbLine
 10
75.395899
 20
106.843251
 30
0.0
 11
75.395899
 21
107.068577
 31
0.0
  0
LWPOLYLINE
  5
6FE
100
AcDbEntity
  8
ALPHA
100
AcDbPolyline
 90
        7
 70
     0
 43
0.0
 10
76.645899
 20
106.9968
 10
76.640529
 20
106.952399
 10
76.623803
 20
106.910646
 10
76.595159
 20
106.874512
 10
76.555337
 20
106.847668
 10
76.505306
 20
106.833142
 10
76.481422
 20
106.831798
  0
LINE
  5
707
100
AcDbEntity
  8
ALPHA
100
AcDbLine
 10
76.395899
 20
106.843251
 30
0.0
 11
76.395899
 21
107.072688
 31
0.0
  0
LINE
  5
708
100
AcDbEntity
  8
ALPHA
100
AcDbLine
 10
76.645899
 20
106.9968
 30
0.0
 11
76.645899
 21
107.126643
 31
0.0
  0
LINE
  5
709
100
AcDbEntity
  8
ALPHA
100
AcDbLine
 10
78.842358
 20
109.311099
 30
0.0
 11
78.618447
 21
109.311099
 31
0.0
  0
LINE
  5
70A
100
AcDbEntity
  8
ALPHA
100
AcDbLine
 10
73.995899
 20
106.83153
 30
0.0
 11
75.311519
 21
106.83153
 31
0.0
  0
LINE
  5
70B
100
AcDbEntity
  8
ALPHA
100
AcDbLine
 10
75.310376
 20
106.831798
 30
0.0
 11
75.345899
 21
106.834569
 31
0.0
  0
LINE
  5
70C
100
AcDbEntity
  8
ALPHA
100
AcDbLine
 10
76.480279
 20
106.83153
 30
0.0
 11
77.550657
 21
106.83153
 31
0.0
  0
LINE
  5
70D
100
AcDbEntity
  8
ALPHA
100
AcDbLine
 10
76.481422
 20
106.831798
 30
0.0
 11
76.445899
 21
106.834569
 31
0.0
  0
LINE
  5
70E
100
AcDbEntity
  8
ALPHA
100
AcDbLine
 10
76.445899
 20
106.834569
 30
0.0
 11
76.395899
 21
106.843251
 31
0.0
  0
LINE
  5
70F
100
AcDbEntity
  8
ALPHA
100
AcDbLine
 10
75.395899
 20
106.843251
 30
0.0
 11
76.395899
 21
106.843251
 31
0.0
  0
LINE
  5
710
100
AcDbEntity
  8
ALPHA
100
AcDbLine
 10
75.345899
 20
106.834569
 30
0.0
 11
75.395899
 21
106.843251
 31
0.0
  0
LINE
  5
711
100
AcDbEntity
  8
ALPHA
100
AcDbLine
 10
55.145899
 20
106.9968
 30
0.0
 11
53.995899
 21
106.9968
 31
0.0
  0
LINE
  5
712
100
AcDbEntity
  8
ALPHA
100
AcDbLine
 10
57.759314
 20
106.9968
 30
0.0
 11
56.645899
 21
106.9968
 31
0.0
  0
LINE
  5
713
100
AcDbEntity
  8
ALPHA
100
AcDbLine
 10
52.951056
 20
109.311099
 30
0.0
 11
53.170144
 21
109.311099
 31
0.0
  0
LINE
  5
714
100
AcDbEntity
  8
ALPHA
100
AcDbLine
 10
55.145899
 20
106.9968
 30
0.0
 11
55.145899
 21
107.13181
 31
0.0
  0
LINE
  5
715
100
AcDbEntity
  8
ALPHA
100
AcDbLine
 10
53.016649
 20
109.600713
 30
0.0
 11
53.122067
 21
109.600713
 31
0.0
  0
LINE
  5
716
100
AcDbEntity
  8
ALPHA
100
AcDbLine
 10
58.784063
 20
109.600713
 30
0.0
 11
58.669732
 21
109.600713
 31
0.0
  0
LWPOLYLINE
  5
717
100
AcDbEntity
  8
ALPHA
100
AcDbPolyline
 90
        7
 70
     0
 43
0.0
 10
55.145899
 20
106.9968
 10
55.151269
 20
106.952399
 10
55.167995
 20
106.910646
 10
55.196639
 20
106.874512
 10
55.236461
 20
106.847668
 10
55.286492
 20
106.833142
 10
55.310376
 20
106.831798
  0
LINE
  5
720
100
AcDbEntity
  8
ALPHA
100
AcDbLine
 10
55.395899
 20
106.843251
 30
0.0
 11
55.395899
 21
107.068577
 31
0.0
  0
LWPOLYLINE
  5
721
100
AcDbEntity
  8
ALPHA
100
AcDbPolyline
 90
        7
 70
     0
 43
0.0
 10
56.645899
 20
106.9968
 10
56.640529
 20
106.952399
 10
56.623803
 20
106.910646
 10
56.595159
 20
106.874512
 10
56.555337
 20
106.847668
 10
56.505306
 20
106.833142
 10
56.481422
 20
106.831798
  0
LINE
  5
72A
100
AcDbEntity
  8
ALPHA
100
AcDbLine
 10
56.395899
 20
106.843251
 30
0.0
 11
56.395899
 21
107.072688
 31
0.0
  0
LINE
  5
72B
100
AcDbEntity
  8
ALPHA
100
AcDbLine
 10
56.645899
 20
106.9968
 30
0.0
 11
56.645899
 21
107.126643
 31
0.0
  0
LINE
  5
72C
100
AcDbEntity
  8
ALPHA
100
AcDbLine
 10
58.842358
 20
109.311099
 30
0.0
 11
58.618447
 21
109.311099
 31
0.0
  0
LINE
  5
72D
100
AcDbEntity
  8
ALPHA
100
AcDbLine
 10
53.995899
 20
106.83153
 30
0.0
 11
55.311519
 21
106.83153
 31
0.0
  0
LINE
  5
72E
100
AcDbEntity
  8
ALPHA
100
AcDbLine
 10
55.310376
 20
106.831798
 30
0.0
 11
55.345899
 21
106.834569
 31
0.0
  0
LINE
  5
72F
100
AcDbEntity
  8
ALPHA
100
AcDbLine
 10
56.480279
 20
106.83153
 30
0.0
 11
57.550657
 21
106.83153
 31
0.0
  0
LINE
  5
730
100
AcDbEntity
  8
ALPHA
100
AcDbLine
 10
56.481422
 20
106.831798
 30
0.0
 11
56.445899
 21
106.834569
 31
0.0
  0
LINE
  5
731
100
AcDbEntity
  8
ALPHA
100
AcDbLine
 10
56.445899
 20
106.834569
 30
0.0
 11
56.395899
 21
106.843251
 31
0.0
  0
LINE
  5
732
100
AcDbEntity
  8
ALPHA
100
AcDbLine
 10
55.395899
 20
106.843251
 30
0.0
 11
56.395899
 21
106.843251
 31
0.0
  0
LINE
  5
733
100
AcDbEntity
  8
ALPHA
100
AcDbLine
 10
55.345899
 20
106.834569
 30
0.0
 11
55.395899
 21
106.843251
 31
0.0
  0
LINE
  5
734
100
AcDbEntity
  8
ALPHA
100
AcDbLine
 10
65.145899
 20
107.079436
 30
0.0
 11
64.033655
 21
107.079436
 31
0.0
  0
LINE
  5
735
100
AcDbEntity
  8
ALPHA
100
AcDbLine
 10
67.737829
 20
107.079436
 30
0.0
 11
66.645899
 21
107.079436
 31
0.0
  0
LINE
  5
736
100
AcDbEntity
  8
ALPHA
100
AcDbLine
 10
63.053157
 20
109.393734
 30
0.0
 11
63.170144
 21
109.393734
 31
0.0
  0
LINE
  5
737
100
AcDbEntity
  8
ALPHA
100
AcDbLine
 10
65.145899
 20
107.079436
 30
0.0
 11
65.145899
 21
107.214445
 31
0.0
  0
LWPOLYLINE
  5
738
100
AcDbEntity
  8
ALPHA
100
AcDbPolyline
 90
        7
 70
     0
 43
0.0
 10
65.145899
 20
107.079436
 10
65.151269
 20
107.035035
 10
65.167995
 20
106.993281
 10
65.196639
 20
106.957147
 10
65.236461
 20
106.930303
 10
65.286492
 20
106.915777
 10
65.310376
 20
106.914434
  0
LINE
  5
741
100
AcDbEntity
  8
ALPHA
100
AcDbLine
 10
65.395899
 20
106.925886
 30
0.0
 11
65.395899
 21
107.151212
 31
0.0
  0
LWPOLYLINE
  5
742
100
AcDbEntity
  8
ALPHA
100
AcDbPolyline
 90
        7
 70
     0
 43
0.0
 10
66.645899
 20
107.079436
 10
66.640529
 20
107.035035
 10
66.623803
 20
106.993281
 10
66.595159
 20
106.957147
 10
66.555337
 20
106.930303
 10
66.505306
 20
106.915777
 10
66.481422
 20
106.914434
  0
LINE
  5
74B
100
AcDbEntity
  8
ALPHA
100
AcDbLine
 10
66.395899
 20
106.925886
 30
0.0
 11
66.395899
 21
107.155323
 31
0.0
  0
LINE
  5
74C
100
AcDbEntity
  8
ALPHA
100
AcDbLine
 10
66.645899
 20
107.079436
 30
0.0
 11
66.645899
 21
107.209278
 31
0.0
  0
LINE
  5
74D
100
AcDbEntity
  8
ALPHA
100
AcDbLine
 10
68.728361
 20
109.393734
 30
0.0
 11
68.618447
 21
109.393734
 31
0.0
  0
LINE
  5
74E
100
AcDbEntity
  8
ALPHA
100
AcDbLine
 10
64.267818
 20
106.914165
 30
0.0
 11
65.311519
 21
106.914165
 31
0.0
  0
LINE
  5
74F
100
AcDbEntity
  8
ALPHA
100
AcDbLine
 10
65.310376
 20
106.914434
 30
0.0
 11
65.345899
 21
106.917204
 31
0.0
  0
LINE
  5
750
100
AcDbEntity
  8
ALPHA
100
AcDbLine
 10
66.480279
 20
106.914165
 30
0.0
 11
67.517669
 21
106.914165
 31
0.0
  0
LINE
  5
751
100
AcDbEntity
  8
ALPHA
100
AcDbLine
 10
66.481422
 20
106.914434
 30
0.0
 11
66.445899
 21
106.917204
 31
0.0
  0
LINE
  5
752
100
AcDbEntity
  8
ALPHA
100
AcDbLine
 10
66.445899
 20
106.917204
 30
0.0
 11
66.395899
 21
106.925886
 31
0.0
  0
LINE
  5
753
100
AcDbEntity
  8
ALPHA
100
AcDbLine
 10
65.395899
 20
106.925886
 30
0.0
 11
66.395899
 21
106.925886
 31
0.0
  0
LINE
  5
754
100
AcDbEntity
  8
ALPHA
100
AcDbLine
 10
65.345899
 20
106.917204
 30
0.0
 11
65.395899
 21
106.925886
 31
0.0
  0
LINE
  5
755
100
AcDbEntity
  8
ALPHA
100
AcDbLine
 10
57.062625
 20
92.161234
 30
0.0
 11
56.395899
 21
91.480078
 31
0.0
  0
LINE
  5
756
100
AcDbEntity
  8
ALPHA
100
AcDbLine
 10
56.395899
 20
91.480078
 30
0.0
 11
56.569828
 21
91.504637
 31
0.0
  0
LWPOLYLINE
  5
757
100
AcDbEntity
  8
ALPHA
100
AcDbPolyline
 90
        5
 70
     0
 43
0.0
 10
56.365899
 20
91.483209
 10
56.335006
 20
91.491941
 10
56.306258
 20
91.511652
 10
56.282277
 20
91.542788
 10
56.268039
 20
91.582854
  0
LWPOLYLINE
  5
75E
100
AcDbEntity
  8
ALPHA
100
AcDbPolyline
 90
        5
 70
     0
 43
0.0
 10
55.523759
 20
91.582854
 10
55.509519
 20
91.542783
 10
55.485535
 20
91.511647
 10
55.456792
 20
91.491941
 10
55.425899
 20
91.483209
  0
LINE
  5
765
100
AcDbEntity
  8
ALPHA
100
AcDbLine
 10
54.729173
 20
92.161234
 30
0.0
 11
55.395899
 21
91.480078
 31
0.0
  0
LINE
  5
766
100
AcDbEntity
  8
ALPHA
100
AcDbLine
 10
55.22197
 20
91.504637
 30
0.0
 11
55.395899
 21
91.480078
 31
0.0
  0
LINE
  5
767
100
AcDbEntity
  8
ALPHA
100
AcDbLine
 10
57.062625
 20
89.863232
 30
0.0
 11
56.395899
 21
90.49527
 31
0.0
  0
LWPOLYLINE
  5
768
100
AcDbEntity
  8
ALPHA
100
AcDbPolyline
 90
        3
 70
     0
 43
0.0
 10
55.571118
 20
88.720021
 10
55.548573
 20
88.720025
 10
55.525899
 20
88.720035
  0
LINE
  5
76D
100
AcDbEntity
  8
ALPHA
100
AcDbLine
 10
54.729173
 20
89.863232
 30
0.0
 11
55.395899
 21
90.49527
 31
0.0
  0
LWPOLYLINE
  5
76E
100
AcDbEntity
  8
ALPHA
100
AcDbPolyline
 90
        5
 70
     0
 43
0.0
 10
53.238771
 20
90.363546
 10
53.203842
 20
90.608453
 10
53.192137
 20
90.85595
 10
53.203842
 20
91.103447
 10
53.238771
 20
91.348354
  0
LINE
  5
775
100
AcDbEntity
  8
ALPHA
100
AcDbLine
 10
53.238771
 20
91.348354
 30
0.0
 11
55.395899
 21
91.348354
 31
0.0
  0
LWPOLYLINE
  5
776
100
AcDbEntity
  8
ALPHA
100
AcDbPolyline
 90
        5
 70
     0
 43
0.0
 10
54.903952
 20
90.51983
 10
54.861575
 20
90.670776
 10
54.844623
 20
90.85595
 10
54.861575
 20
91.041124
 10
54.911886
 20
91.220329
  0
LWPOLYLINE
  5
77D
100
AcDbEntity
  8
ALPHA
100
AcDbPolyline
 90
        5
 70
     0
 43
0.0
 10
58.553027
 20
91.348354
 10
58.587956
 20
91.103447
 10
58.599662
 20
90.85595
 10
58.587956
 20
90.608453
 10
58.553027
 20
90.363546
  0
LWPOLYLINE
  5
784
100
AcDbEntity
  8
ALPHA
100
AcDbPolyline
 90
        5
 70
     0
 43
0.0
 10
56.879912
 20
91.220329
 10
56.930223
 20
91.041124
 10
56.947176
 20
90.85595
 10
56.930223
 20
90.670776
 10
56.887846
 20
90.51983
  0
LWPOLYLINE
  5
78B
100
AcDbEntity
  8
ALPHA
100
AcDbPolyline
 90
        6
 70
     0
 43
0.0
 10
56.495899
 20
91.220329
 10
56.464997
 20
91.225149
 10
56.437121
 20
91.239137
 10
56.414997
 20
91.260924
 10
56.400793
 20
91.288378
 10
56.395899
 20
91.31881
  0
LWPOLYLINE
  5
793
100
AcDbEntity
  8
ALPHA
100
AcDbPolyline
 90
        9
 70
     0
 43
0.0
 10
53.59958
 20
90.51983
 10
53.699457
 20
90.189036
 10
53.848939
 20
89.875203
 10
54.044234
 20
89.58701
 10
54.281085
 20
89.330703
 10
54.554113
 20
89.112119
 10
54.857204
 20
88.936135
 10
55.183572
 20
88.806688
 10
55.525899
 20
88.726677
  0
LINE
  5
79E
100
AcDbEntity
  8
ALPHA
100
AcDbLine
 10
56.395899
 20
91.348354
 30
0.0
 11
58.553027
 21
91.348354
 31
0.0
  0
LWPOLYLINE
  5
79F
100
AcDbEntity
  8
ALPHA
100
AcDbPolyline
 90
        4
 70
     0
 43
0.0
 10
55.895899
 20
91.891255
 10
56.021903
 20
91.883792
 10
56.145557
 20
91.861638
 10
56.265899
 20
91.825014
  0
LWPOLYLINE
  5
7A5
100
AcDbEntity
  8
ALPHA
100
AcDbPolyline
 90
        4
 70
     0
 43
0.0
 10
55.525899
 20
91.825014
 10
55.646241
 20
91.861638
 10
55.769895
 20
91.883792
 10
55.895899
 20
91.891255
  0
LINE
  5
7AB
100
AcDbEntity
  8
ALPHA
100
AcDbLine
 10
55.525899
 20
92.825566
 30
0.0
 11
56.265899
 21
92.825566
 31
0.0
  0
LWPOLYLINE
  5
7AC
100
AcDbEntity
  8
ALPHA
100
AcDbPolyline
 90
        4
 70
     0
 43
0.0
 10
56.265899
 20
89.886886
 10
56.145557
 20
89.850263
 10
56.021903
 20
89.828108
 10
55.895899
 20
89.820645
  0
LWPOLYLINE
  5
7B2
100
AcDbEntity
  8
ALPHA
100
AcDbPolyline
 90
        4
 70
     0
 43
0.0
 10
55.895899
 20
89.820645
 10
55.769895
 20
89.828108
 10
55.646241
 20
89.850263
 10
55.525899
 20
89.886886
  0
LINE
  5
7B8
100
AcDbEntity
  8
ALPHA
100
AcDbLine
 10
53.40151
 20
90.086527
 30
0.0
 11
53.294533
 21
90.472275
 31
0.0
  0
LWPOLYLINE
  5
7B9
100
AcDbEntity
  8
ALPHA
100
AcDbPolyline
 90
        9
 70
     0
 43
0.0
 10
55.895899
 20
88.355942
 10
55.491048
 20
88.386589
 10
55.09571
 20
88.47781
 10
54.719172
 20
88.627463
 10
54.370283
 20
88.83203
 10
54.057239
 20
89.086706
 10
53.787397
 20
89.385507
 10
53.567095
 20
89.721411
 10
53.40151
 20
90.086527
  0
LWPOLYLINE
  5
7C4
100
AcDbEntity
  8
ALPHA
100
AcDbPolyline
 90
        5
 70
     0
 43
0.0
 10
54.911886
 20
91.220329
 10
55.015266
 20
91.186868
 10
55.113518
 20
91.155612
 10
55.20695
 20
91.12655
 10
55.295899
 20
91.099695
  0
LINE
  5
7CB
100
AcDbEntity
  8
ALPHA
100
AcDbLine
 10
55.295899
 20
91.220329
 30
0.0
 11
55.295899
 21
91.099695
 31
0.0
  0
LINE
  5
7CC
100
AcDbEntity
  8
ALPHA
100
AcDbLine
 10
55.295899
 20
91.220329
 30
0.0
 11
54.911886
 21
91.220329
 31
0.0
  0
LINE
  5
7CD
100
AcDbEntity
  8
ALPHA
100
AcDbLine
 10
55.525899
 20
88.886335
 30
0.0
 11
56.265899
 21
88.886335
 31
0.0
  0
LINE
  5
7CE
100
AcDbEntity
  8
ALPHA
100
AcDbLine
 10
56.22068
 20
88.720021
 30
0.0
 11
55.571118
 21
88.720021
 31
0.0
  0
LINE
  5
7CF
100
AcDbEntity
  8
ALPHA
100
AcDbLine
 10
56.22068
 20
93.304446
 30
0.0
 11
55.571118
 21
93.304446
 31
0.0
  0
LINE
  5
7D0
100
AcDbEntity
  8
ALPHA
100
AcDbLine
 10
58.390288
 20
90.086527
 30
0.0
 11
58.497265
 21
90.472275
 31
0.0
  0
LWPOLYLINE
  5
7D1
100
AcDbEntity
  8
ALPHA
100
AcDbPolyline
 90
        9
 70
     0
 43
0.0
 10
55.895899
 20
88.355942
 10
56.30075
 20
88.386589
 10
56.696088
 20
88.47781
 10
57.072626
 20
88.627463
 10
57.421515
 20
88.83203
 10
57.734559
 20
89.086706
 10
58.004401
 20
89.385507
 10
58.224703
 20
89.721411
 10
58.390288
 20
90.086527
  0
LINE
  5
7DC
100
AcDbEntity
  8
ALPHA
100
AcDbLine
 10
57.062625
 20
89.863232
 30
0.0
 11
56.569828
 21
90.51983
 31
0.0
  0
LINE
  5
7DD
100
AcDbEntity
  8
ALPHA
100
AcDbLine
 10
57.062625
 20
89.863232
 30
0.0
 11
56.268039
 21
90.441613
 31
0.0
  0
LWPOLYLINE
  5
7DE
100
AcDbEntity
  8
ALPHA
100
AcDbPolyline
 90
        3
 70
     0
 43
0.0
 10
56.268039
 20
91.582854
 10
56.26645
 20
91.592791
 10
56.265899
 20
91.603118
  0
LINE
  5
7E3
100
AcDbEntity
  8
ALPHA
100
AcDbLine
 10
56.276282
 20
91.588854
 30
0.0
 11
56.268039
 21
91.582854
 31
0.0
  0
LINE
  5
7E4
100
AcDbEntity
  8
ALPHA
100
AcDbLine
 10
57.062625
 20
92.161234
 30
0.0
 11
56.276282
 21
91.588854
 31
0.0
  0
LINE
  5
7E5
100
AcDbEntity
  8
ALPHA
100
AcDbLine
 10
57.062625
 20
92.161234
 30
0.0
 11
56.569828
 21
91.504637
 31
0.0
  0
LINE
  5
7E6
100
AcDbEntity
  8
ALPHA
100
AcDbLine
 10
56.569828
 20
91.504637
 30
0.0
 11
58.192218
 21
91.504637
 31
0.0
  0
LWPOLYLINE
  5
7E7
100
AcDbEntity
  8
ALPHA
100
AcDbPolyline
 90
        9
 70
     0
 43
0.0
 10
56.265899
 20
88.726677
 10
56.608226
 20
88.806688
 10
56.934594
 20
88.936135
 10
57.237685
 20
89.112119
 10
57.510713
 20
89.330703
 10
57.747564
 20
89.58701
 10
57.942859
 20
89.875203
 10
58.092341
 20
90.189036
 10
58.192218
 20
90.51983
  0
LINE
  5
7F2
100
AcDbEntity
  8
ALPHA
100
AcDbLine
 10
54.729173
 20
89.863232
 30
0.0
 11
55.523759
 21
90.441613
 31
0.0
  0
LINE
  5
7F3
100
AcDbEntity
  8
ALPHA
100
AcDbLine
 10
54.729173
 20
89.863232
 30
0.0
 11
55.22197
 21
90.51983
 31
0.0
  0
LINE
  5
7F4
100
AcDbEntity
  8
ALPHA
100
AcDbLine
 10
53.59958
 20
91.504637
 30
0.0
 11
55.22197
 21
91.504637
 31
0.0
  0
LINE
  5
7F5
100
AcDbEntity
  8
ALPHA
100
AcDbLine
 10
54.729173
 20
92.161234
 30
0.0
 11
55.22197
 21
91.504637
 31
0.0
  0
LINE
  5
7F6
100
AcDbEntity
  8
ALPHA
100
AcDbLine
 10
55.515516
 20
91.588854
 30
0.0
 11
55.523759
 21
91.582854
 31
0.0
  0
LINE
  5
7F7
100
AcDbEntity
  8
ALPHA
100
AcDbLine
 10
54.729173
 20
92.161234
 30
0.0
 11
55.515516
 21
91.588854
 31
0.0
  0
LWPOLYLINE
  5
7F8
100
AcDbEntity
  8
ALPHA
100
AcDbPolyline
 90
        3
 70
     0
 43
0.0
 10
56.265899
 20
88.720035
 10
56.243227
 20
88.720025
 10
56.22068
 20
88.720021
  0
LWPOLYLINE
  5
7FD
100
AcDbEntity
  8
ALPHA
100
AcDbPolyline
 90
        3
 70
     0
 43
0.0
 10
55.525899
 20
93.304406
 10
55.548573
 20
93.304436
 10
55.571118
 20
93.304446
  0
LWPOLYLINE
  5
802
100
AcDbEntity
  8
ALPHA
100
AcDbPolyline
 90
        3
 70
     0
 43
0.0
 10
56.22068
 20
93.304446
 10
55.895899
 20
93.326653
 10
55.571118
 20
93.304446
  0
LINE
  5
807
100
AcDbEntity
  8
ALPHA
100
AcDbLine
 10
56.365899
 20
91.483209
 30
0.0
 11
56.365899
 21
91.221211
 31
0.0
  0
LWPOLYLINE
  5
808
100
AcDbEntity
  8
ALPHA
100
AcDbPolyline
 90
        3
 70
     0
 43
0.0
 10
56.365899
 20
91.221211
 10
56.380865
 20
91.224811
 10
56.395899
 20
91.228485
  0
LWPOLYLINE
  5
80D
100
AcDbEntity
  8
ALPHA
100
AcDbPolyline
 90
        3
 70
     0
 43
0.0
 10
56.22068
 20
93.304446
 10
56.243227
 20
93.304436
 10
56.265899
 20
93.304406
  0
LWPOLYLINE
  5
812
100
AcDbEntity
  8
ALPHA
100
AcDbPolyline
 90
        4
 70
     0
 43
0.0
 10
58.497265
 20
91.457083
 10
58.515796
 20
91.42096
 10
58.534383
 20
91.384717
 10
58.553027
 20
91.348354
  0
LINE
  5
818
100
AcDbEntity
  8
ALPHA
100
AcDbLine
 10
56.395899
 20
91.480078
 30
0.0
 11
56.365899
 21
91.483209
 31
0.0
  0
LWPOLYLINE
  5
819
100
AcDbEntity
  8
ALPHA
100
AcDbPolyline
 90
        4
 70
     0
 43
0.0
 10
53.238771
 20
91.348354
 10
53.257415
 20
91.384716
 10
53.276002
 20
91.420959
 10
53.294533
 20
91.457083
  0
LWPOLYLINE
  5
81F
100
AcDbEntity
  8
ALPHA
100
AcDbPolyline
 90
        3
 70
     0
 43
0.0
 10
55.395899
 20
91.228485
 10
55.41093
 20
91.224812
 10
55.425899
 20
91.221211
  0
LINE
  5
824
100
AcDbEntity
  8
ALPHA
100
AcDbLine
 10
55.425899
 20
91.483209
 30
0.0
 11
55.425899
 21
91.221211
 31
0.0
  0
LINE
  5
825
100
AcDbEntity
  8
ALPHA
100
AcDbLine
 10
55.425899
 20
91.483209
 30
0.0
 11
55.395899
 21
91.480078
 31
0.0
  0
LWPOLYLINE
  5
826
100
AcDbEntity
  8
ALPHA
100
AcDbPolyline
 90
        3
 70
     0
 43
0.0
 10
55.525899
 20
91.603118
 10
55.525348
 20
91.592791
 10
55.523759
 20
91.582854
  0
LWPOLYLINE
  5
82B
100
AcDbEntity
  8
ALPHA
100
AcDbPolyline
 90
        3
 70
     0
 43
0.0
 10
55.571118
 20
88.720021
 10
55.895899
 20
88.697814
 10
56.22068
 20
88.720021
  0
LWPOLYLINE
  5
830
100
AcDbEntity
  8
ALPHA
100
AcDbPolyline
 90
        9
 70
     0
 43
0.0
 10
58.192218
 20
91.504637
 10
58.092341
 20
91.835431
 10
57.942859
 20
92.149264
 10
57.747564
 20
92.437457
 10
57.510713
 20
92.693763
 10
57.237685
 20
92.912348
 10
56.934594
 20
93.088332
 10
56.608226
 20
93.217779
 10
56.265899
 20
93.29779
  0
LINE
  5
83B
100
AcDbEntity
  8
ALPHA
100
AcDbLine
 10
56.495899
 20
91.220329
 30
0.0
 11
56.495899
 21
91.099695
 31
0.0
  0
LWPOLYLINE
  5
83C
100
AcDbEntity
  8
ALPHA
100
AcDbPolyline
 90
        5
 70
     0
 43
0.0
 10
56.495899
 20
91.099695
 10
56.584724
 20
91.126512
 10
56.678114
 20
91.15556
 10
56.776408
 20
91.186829
 10
56.879912
 20
91.220329
  0
LINE
  5
843
100
AcDbEntity
  8
ALPHA
100
AcDbLine
 10
56.879912
 20
91.220329
 30
0.0
 11
56.495899
 21
91.220329
 31
0.0
  0
LWPOLYLINE
  5
844
100
AcDbEntity
  8
ALPHA
100
AcDbPolyline
 90
        4
 70
     0
 43
0.0
 10
55.525899
 20
90.193898
 10
55.613875
 20
90.139459
 10
55.75126
 20
90.092116
 10
55.895899
 20
90.076067
  0
LWPOLYLINE
  5
84A
100
AcDbEntity
  8
ALPHA
100
AcDbPolyline
 90
       10
 70
     0
 43
0.0
 10
55.895899
 20
91.356317
 10
55.75126
 20
91.340268
 10
55.613875
 20
91.292924
 10
55.490631
 20
91.216662
 10
55.387709
 20
91.115303
 10
55.310269
 20
90.993932
 10
55.262196
 20
90.858633
 10
55.245899
 20
90.716192
 10
55.262196
 20
90.573751
 10
55.284492
 20
90.511001
  0
LWPOLYLINE
  5
856
100
AcDbEntity
  8
ALPHA
100
AcDbPolyline
 90
       10
 70
     0
 43
0.0
 10
55.525899
 20
91.326201
 10
55.524511
 20
91.305207
 10
55.520762
 20
91.286714
 10
55.513514
 20
91.267036
 10
55.503929
 20
91.250783
 10
55.490564
 20
91.236225
 10
55.475785
 20
91.226367
 10
55.458859
 20
91.220472
 10
55.443531
 20
91.218995
 10
55.425899
 20
91.221211
  0
LWPOLYLINE
  5
862
100
AcDbEntity
  8
ALPHA
100
AcDbPolyline
 90
        7
 70
     0
 43
0.0
 10
58.192218
 20
91.504637
 10
58.267314
 20
91.503053
 10
58.338827
 20
91.498296
 10
58.399853
 20
91.490857
 10
58.448371
 20
91.481113
 10
58.481876
 20
91.469456
 10
58.497265
 20
91.457083
  0
LWPOLYLINE
  5
86B
100
AcDbEntity
  8
ALPHA
100
AcDbPolyline
 90
        6
 70
     0
 43
0.0
 10
55.395899
 20
91.31881
 10
55.391005
 20
91.288378
 10
55.376801
 20
91.260924
 10
55.354678
 20
91.239137
 10
55.326801
 20
91.225149
 10
55.295899
 20
91.220329
  0
LWPOLYLINE
  5
873
100
AcDbEntity
  8
ALPHA
100
AcDbPolyline
 90
       10
 70
     0
 43
0.0
 10
55.395899
 20
91.191667
 10
55.394371
 20
91.1708
 10
55.390419
 20
91.153312
 10
55.382664
 20
91.134743
 10
55.372188
 20
91.119648
 10
55.358353
 20
91.107446
 10
55.344041
 20
91.100177
 10
55.327545
 20
91.096428
 10
55.312549
 20
91.096414
 10
55.295899
 20
91.099695
  0
LWPOLYLINE
  5
87F
100
AcDbEntity
  8
ALPHA
100
AcDbPolyline
 90
        4
 70
     0
 43
0.0
 10
56.265899
 20
90.193898
 10
56.177923
 20
90.139459
 10
56.040538
 20
90.092116
 10
55.895899
 20
90.076067
  0
LWPOLYLINE
  5
885
100
AcDbEntity
  8
ALPHA
100
AcDbPolyline
 90
       10
 70
     0
 43
0.0
 10
55.895899
 20
91.356317
 10
56.040538
 20
91.340268
 10
56.177923
 20
91.292924
 10
56.301167
 20
91.216662
 10
56.40409
 20
91.115303
 10
56.481529
 20
90.993932
 10
56.529602
 20
90.858633
 10
56.545899
 20
90.716192
 10
56.529602
 20
90.573751
 10
56.507307
 20
90.511001
  0
LWPOLYLINE
  5
891
100
AcDbEntity
  8
ALPHA
100
AcDbPolyline
 90
        4
 70
     0
 43
0.0
 10
58.497265
 20
91.457083
 10
58.390288
 20
91.842832
 10
58.224703
 20
92.207948
 10
58.195808
 20
92.259064
  0
LWPOLYLINE
  5
897
100
AcDbEntity
  8
ALPHA
100
AcDbPolyline
 90
        4
 70
     0
 43
0.0
 10
53.294533
 20
91.457083
 10
53.40151
 20
91.842832
 10
53.567095
 20
92.207948
 10
53.59599
 20
92.259064
  0
LWPOLYLINE
  5
89D
100
AcDbEntity
  8
ALPHA
100
AcDbPolyline
 90
       10
 70
     0
 43
0.0
 10
56.495899
 20
91.099695
 10
56.479296
 20
91.096419
 10
56.464259
 20
91.096427
 10
56.447694
 20
91.1002
 10
56.433358
 20
91.107504
 10
56.419621
 20
91.119637
 10
56.409231
 20
91.134566
 10
56.401487
 20
91.152966
 10
56.397466
 20
91.170545
 10
56.395899
 20
91.191667
  0
LWPOLYLINE
  5
8A9
100
AcDbEntity
  8
ALPHA
100
AcDbPolyline
 90
       10
 70
     0
 43
0.0
 10
56.365899
 20
91.221211
 10
56.348485
 20
91.218998
 10
56.333248
 20
91.220408
 10
56.316182
 20
91.226283
 10
56.301246
 20
91.236214
 10
56.2878
 20
91.250878
 10
56.27825
 20
91.26711
 10
56.271039
 20
91.286706
 10
56.267295
 20
91.305149
 10
56.265899
 20
91.326201
  0
LWPOLYLINE
  5
8B5
100
AcDbEntity
  8
ALPHA
100
AcDbPolyline
 90
        7
 70
     0
 43
0.0
 10
53.294533
 20
91.457083
 10
53.309922
 20
91.469456
 10
53.343427
 20
91.481113
 10
53.391946
 20
91.490857
 10
53.452971
 20
91.498296
 10
53.524484
 20
91.503053
 10
53.59958
 20
91.504637
  0
LWPOLYLINE
  5
8BE
100
AcDbEntity
  8
ALPHA
100
AcDbPolyline
 90
        9
 70
     0
 43
0.0
 10
55.525899
 20
93.29779
 10
55.183572
 20
93.217779
 10
54.857204
 20
93.088332
 10
54.554113
 20
92.912348
 10
54.281085
 20
92.693763
 10
54.044234
 20
92.437457
 10
53.848939
 20
92.149264
 10
53.699457
 20
91.835431
 10
53.59958
 20
91.504637
  0
LWPOLYLINE
  5
8C9
100
AcDbEntity
  8
ALPHA
100
AcDbPolyline
 90
        5
 70
     0
 43
0.0
 10
56.268039
 20
90.441613
 10
56.28228
 20
90.469034
 10
56.306267
 20
90.487984
 10
56.33501
 20
90.497499
 10
56.365899
 20
90.498401
  0
LINE
  5
8D0
100
AcDbEntity
  8
ALPHA
100
AcDbLine
 10
56.569828
 20
90.51983
 30
0.0
 11
56.395899
 21
90.49527
 31
0.0
  0
LWPOLYLINE
  5
8D1
100
AcDbEntity
  8
ALPHA
100
AcDbPolyline
 90
        5
 70
     0
 43
0.0
 10
55.425899
 20
90.498401
 10
55.456792
 20
90.497499
 10
55.48554
 20
90.48798
 10
55.509521
 20
90.469031
 10
55.523759
 20
90.441613
  0
LINE
  5
8D8
100
AcDbEntity
  8
ALPHA
100
AcDbLine
 10
55.395899
 20
90.49527
 30
0.0
 11
55.22197
 21
90.51983
 31
0.0
  0
LWPOLYLINE
  5
8D9
100
AcDbEntity
  8
ALPHA
100
AcDbPolyline
 90
        4
 70
     0
 43
0.0
 10
53.294533
 20
90.472275
 10
53.276002
 20
90.436152
 10
53.257415
 20
90.399909
 10
53.238771
 20
90.363546
  0
LINE
  5
8DF
100
AcDbEntity
  8
ALPHA
100
AcDbLine
 10
55.395899
 20
90.49527
 30
0.0
 11
55.425899
 21
90.498401
 31
0.0
  0
LWPOLYLINE
  5
8E0
100
AcDbEntity
  8
ALPHA
100
AcDbPolyline
 90
        4
 70
     0
 43
0.0
 10
58.553027
 20
90.363546
 10
58.534383
 20
90.399908
 10
58.515796
 20
90.436152
 10
58.497265
 20
90.472275
  0
LINE
  5
8E6
100
AcDbEntity
  8
ALPHA
100
AcDbLine
 10
56.365899
 20
90.498401
 30
0.0
 11
56.395899
 21
90.49527
 31
0.0
  0
LINE
  5
8E7
100
AcDbEntity
  8
ALPHA
100
AcDbLine
 10
55.395899
 20
91.228485
 30
0.0
 11
55.395899
 21
91.191667
 31
0.0
  0
LINE
  5
8E8
100
AcDbEntity
  8
ALPHA
100
AcDbLine
 10
55.395899
 20
91.31881
 30
0.0
 11
55.395899
 21
91.228485
 31
0.0
  0
LINE
  5
8E9
100
AcDbEntity
  8
ALPHA
100
AcDbLine
 10
55.395899
 20
91.348354
 30
0.0
 11
55.395899
 21
91.31881
 31
0.0
  0
LINE
  5
8EA
100
AcDbEntity
  8
ALPHA
100
AcDbLine
 10
55.525899
 20
91.582854
 30
0.0
 11
55.525899
 21
91.326201
 31
0.0
  0
LINE
  5
8EB
100
AcDbEntity
  8
ALPHA
100
AcDbLine
 10
55.525899
 20
91.603118
 30
0.0
 11
55.525899
 21
93.29779
 31
0.0
  0
LINE
  5
8EC
100
AcDbEntity
  8
ALPHA
100
AcDbLine
 10
53.59599
 20
92.259064
 30
0.0
 11
53.464873
 21
92.033115
 31
0.0
  0
LWPOLYLINE
  5
8ED
100
AcDbEntity
  8
ALPHA
100
AcDbPolyline
 90
       15
 70
     0
 43
0.0
 10
53.596057
 20
92.25918
 10
53.740482
 20
92.481237
 10
54.005063
 20
92.791984
 10
54.315202
 20
93.05859
 10
54.663568
 20
93.274707
 10
55.04171
 20
93.435032
 10
55.440432
 20
93.535658
 10
55.85019
 20
93.57417
 10
56.261011
 20
93.549628
 10
56.662928
 20
93.462661
 10
57.046287
 20
93.315397
 10
57.401887
 20
93.1114
 10
57.721013
 20
92.85575
 10
57.996225
 20
92.55448
 10
58.195738
 20
92.259185
  0
LINE
  5
8FE
100
AcDbEntity
  8
ALPHA
100
AcDbLine
 10
55.525899
 20
88.726677
 30
0.0
 11
55.525899
 21
90.421349
 31
0.0
  0
LINE
  5
8FF
100
AcDbEntity
  8
ALPHA
100
AcDbLine
 10
56.265899
 20
91.582854
 30
0.0
 11
56.265899
 21
91.326201
 31
0.0
  0
LINE
  5
900
100
AcDbEntity
  8
ALPHA
100
AcDbLine
 10
56.265899
 20
93.29779
 30
0.0
 11
56.265899
 21
91.603118
 31
0.0
  0
LINE
  5
901
100
AcDbEntity
  8
ALPHA
100
AcDbLine
 10
56.265899
 20
90.144432
 30
0.0
 11
56.265899
 21
88.726677
 31
0.0
  0
LINE
  5
902
100
AcDbEntity
  8
ALPHA
100
AcDbLine
 10
56.265899
 20
90.421349
 30
0.0
 11
56.265899
 21
90.144432
 31
0.0
  0
LINE
  5
903
100
AcDbEntity
  8
ALPHA
100
AcDbLine
 10
58.195808
 20
92.259064
 30
0.0
 11
58.326926
 21
92.033115
 31
0.0
  0
LINE
  5
904
100
AcDbEntity
  8
ALPHA
100
AcDbLine
 10
55.525899
 20
91.582854
 30
0.0
 11
55.525899
 21
91.326201
 31
0.0
  0
LINE
  5
905
100
AcDbEntity
  8
ALPHA
100
AcDbLine
 10
56.395899
 20
91.228485
 30
0.0
 11
56.395899
 21
91.191667
 31
0.0
  0
LINE
  5
906
100
AcDbEntity
  8
ALPHA
100
AcDbLine
 10
56.395899
 20
91.31881
 30
0.0
 11
56.395899
 21
91.228485
 31
0.0
  0
LINE
  5
907
100
AcDbEntity
  8
ALPHA
100
AcDbLine
 10
56.395899
 20
91.31881
 30
0.0
 11
56.395899
 21
91.348354
 31
0.0
  0
LINE
  5
908
100
AcDbEntity
  8
ALPHA
100
AcDbLine
 10
55.395899
 20
91.228485
 30
0.0
 11
55.395899
 21
91.191667
 31
0.0
  0
LINE
  5
909
100
AcDbEntity
  8
ALPHA
100
AcDbLine
 10
55.395899
 20
91.31881
 30
0.0
 11
55.395899
 21
91.228485
 31
0.0
  0
LWPOLYLINE
  5
90A
100
AcDbEntity
  8
ALPHA
100
AcDbPolyline
 90
        3
 70
     0
 43
0.0
 10
56.265899
 20
90.421349
 10
56.26645
 20
90.431676
 10
56.268039
 20
90.441613
  0
LWPOLYLINE
  5
90F
100
AcDbEntity
  8
ALPHA
100
AcDbPolyline
 90
        6
 70
     0
 43
0.0
 10
58.695899
 20
90.664936
 10
58.695899
 20
90.664937
 10
58.661426
 20
91.096299
 10
58.558857
 20
91.51704
 10
58.390717
 20
91.916799
 10
58.326975
 20
92.032973
  0
LINE
  5
917
100
AcDbEntity
  8
ALPHA
100
AcDbLine
 10
58.686089
 20
90.542185
 30
0.0
 11
58.695899
 21
90.664936
 31
0.0
  0
LINE
  5
918
100
AcDbEntity
  8
ALPHA
100
AcDbLine
 10
58.405845
 20
89.449042
 30
0.0
 11
58.445899
 21
89.544272
 31
0.0
  0
LINE
  5
919
100
AcDbEntity
  8
ALPHA
100
AcDbLine
 10
58.390717
 20
89.413076
 30
0.0
 11
58.405845
 21
89.449042
 31
0.0
  0
LINE
  5
91A
100
AcDbEntity
  8
ALPHA
100
AcDbLine
 10
56.569828
 20
90.51983
 30
0.0
 11
58.192218
 21
90.51983
 31
0.0
  0
LWPOLYLINE
  5
91B
100
AcDbEntity
  8
ALPHA
100
AcDbPolyline
 90
        3
 70
     0
 43
0.0
 10
55.523759
 20
90.441613
 10
55.525348
 20
90.431676
 10
55.525899
 20
90.421349
  0
LINE
  5
920
100
AcDbEntity
  8
ALPHA
100
AcDbLine
 10
53.59958
 20
90.51983
 30
0.0
 11
55.22197
 21
90.51983
 31
0.0
  0
LINE
  5
921
100
AcDbEntity
  8
ALPHA
100
AcDbLine
 10
56.265899
 20
93.304406
 30
0.0
 11
56.265899
 21
93.29779
 31
0.0
  0
LINE
  5
922
100
AcDbEntity
  8
ALPHA
100
AcDbLine
 10
55.525899
 20
93.29779
 30
0.0
 11
55.525899
 21
93.304406
 31
0.0
  0
LWPOLYLINE
  5
923
100
AcDbEntity
  8
ALPHA
100
AcDbPolyline
 90
        7
 70
     0
 43
0.0
 10
53.59958
 20
90.51983
 10
53.524484
 20
90.518245
 10
53.452971
 20
90.513488
 10
53.391946
 20
90.50605
 10
53.343427
 20
90.496305
 10
53.309922
 20
90.484649
 10
53.294533
 20
90.472275
  0
LWPOLYLINE
  5
92C
100
AcDbEntity
  8
ALPHA
100
AcDbPolyline
 90
        7
 70
     0
 43
0.0
 10
58.497265
 20
90.472275
 10
58.481876
 20
90.484649
 10
58.448371
 20
90.496305
 10
58.399853
 20
90.50605
 10
58.338827
 20
90.513488
 10
58.267314
 20
90.518245
 10
58.192218
 20
90.51983
  0
LINE
  5
935
100
AcDbEntity
  8
ALPHA
100
AcDbLine
 10
56.265899
 20
88.726677
 30
0.0
 11
56.265899
 21
88.720035
 31
0.0
  0
LINE
  5
936
100
AcDbEntity
  8
ALPHA
100
AcDbLine
 10
55.525899
 20
88.720035
 30
0.0
 11
55.525899
 21
88.726677
 31
0.0
  0
LWPOLYLINE
  5
937
100
AcDbEntity
  8
ALPHA
100
AcDbPolyline
 90
        5
 70
     0
 43
0.0
 10
53.119219
 20
90.956745
 10
53.130372
 20
91.096299
 10
53.232941
 20
91.51704
 10
53.401081
 20
91.916799
 10
53.464823
 20
92.032973
  0
LWPOLYLINE
  5
93E
100
AcDbEntity
  8
ALPHA
100
AcDbPolyline
 90
        3
 70
     0
 43
0.0
 10
53.106321
 20
90.534523
 10
53.095899
 20
90.664937
 10
53.119219
 20
90.956745
  0
LINE
  5
943
100
AcDbEntity
  8
ALPHA
100
AcDbLine
 10
53.385953
 20
89.449042
 30
0.0
 11
53.345899
 21
89.544272
 31
0.0
  0
LINE
  5
944
100
AcDbEntity
  8
ALPHA
100
AcDbLine
 10
53.401081
 20
89.413076
 30
0.0
 11
53.385953
 21
89.449042
 31
0.0
  0
LINE
  5
945
100
AcDbEntity
  8
ALPHA
100
AcDbLine
 10
77.062625
 20
92.161234
 30
0.0
 11
76.395899
 21
91.480078
 31
0.0
  0
LINE
  5
946
100
AcDbEntity
  8
ALPHA
100
AcDbLine
 10
76.395899
 20
91.480078
 30
0.0
 11
76.569828
 21
91.504637
 31
0.0
  0
LWPOLYLINE
  5
947
100
AcDbEntity
  8
ALPHA
100
AcDbPolyline
 90
        5
 70
     0
 43
0.0
 10
76.365899
 20
91.483209
 10
76.335006
 20
91.491941
 10
76.306258
 20
91.511652
 10
76.282277
 20
91.542788
 10
76.268039
 20
91.582854
  0
LWPOLYLINE
  5
94E
100
AcDbEntity
  8
ALPHA
100
AcDbPolyline
 90
        5
 70
     0
 43
0.0
 10
75.523759
 20
91.582854
 10
75.509519
 20
91.542783
 10
75.485535
 20
91.511647
 10
75.456792
 20
91.491941
 10
75.425899
 20
91.483209
  0
LINE
  5
955
100
AcDbEntity
  8
ALPHA
100
AcDbLine
 10
74.729173
 20
92.161234
 30
0.0
 11
75.395899
 21
91.480078
 31
0.0
  0
LINE
  5
956
100
AcDbEntity
  8
ALPHA
100
AcDbLine
 10
75.22197
 20
91.504637
 30
0.0
 11
75.395899
 21
91.480078
 31
0.0
  0
LINE
  5
957
100
AcDbEntity
  8
ALPHA
100
AcDbLine
 10
77.062625
 20
89.863232
 30
0.0
 11
76.395899
 21
90.49527
 31
0.0
  0
LWPOLYLINE
  5
958
100
AcDbEntity
  8
ALPHA
100
AcDbPolyline
 90
        3
 70
     0
 43
0.0
 10
75.571118
 20
88.720021
 10
75.548573
 20
88.720025
 10
75.525899
 20
88.720035
  0
LINE
  5
95D
100
AcDbEntity
  8
ALPHA
100
AcDbLine
 10
74.729173
 20
89.863232
 30
0.0
 11
75.395899
 21
90.49527
 31
0.0
  0
LWPOLYLINE
  5
95E
100
AcDbEntity
  8
ALPHA
100
AcDbPolyline
 90
        5
 70
     0
 43
0.0
 10
73.238771
 20
90.363546
 10
73.203842
 20
90.608453
 10
73.192137
 20
90.85595
 10
73.203842
 20
91.103447
 10
73.238771
 20
91.348354
  0
LINE
  5
965
100
AcDbEntity
  8
ALPHA
100
AcDbLine
 10
73.238771
 20
91.348354
 30
0.0
 11
75.395899
 21
91.348354
 31
0.0
  0
LWPOLYLINE
  5
966
100
AcDbEntity
  8
ALPHA
100
AcDbPolyline
 90
        5
 70
     0
 43
0.0
 10
74.903952
 20
90.51983
 10
74.861575
 20
90.670776
 10
74.844623
 20
90.85595
 10
74.861575
 20
91.041124
 10
74.911886
 20
91.220329
  0
LWPOLYLINE
  5
96D
100
AcDbEntity
  8
ALPHA
100
AcDbPolyline
 90
        5
 70
     0
 43
0.0
 10
78.553027
 20
91.348354
 10
78.587956
 20
91.103447
 10
78.599662
 20
90.85595
 10
78.587956
 20
90.608453
 10
78.553027
 20
90.363546
  0
LWPOLYLINE
  5
974
100
AcDbEntity
  8
ALPHA
100
AcDbPolyline
 90
        5
 70
     0
 43
0.0
 10
76.879912
 20
91.220329
 10
76.930223
 20
91.041124
 10
76.947176
 20
90.85595
 10
76.930223
 20
90.670776
 10
76.887846
 20
90.51983
  0
LWPOLYLINE
  5
97B
100
AcDbEntity
  8
ALPHA
100
AcDbPolyline
 90
        6
 70
     0
 43
0.0
 10
76.495899
 20
91.220329
 10
76.464997
 20
91.225149
 10
76.437121
 20
91.239137
 10
76.414997
 20
91.260924
 10
76.400793
 20
91.288378
 10
76.395899
 20
91.31881
  0
LWPOLYLINE
  5
983
100
AcDbEntity
  8
ALPHA
100
AcDbPolyline
 90
        9
 70
     0
 43
0.0
 10
73.59958
 20
90.51983
 10
73.699457
 20
90.189036
 10
73.848939
 20
89.875203
 10
74.044234
 20
89.58701
 10
74.281085
 20
89.330703
 10
74.554113
 20
89.112119
 10
74.857204
 20
88.936135
 10
75.183572
 20
88.806688
 10
75.525899
 20
88.726677
  0
LINE
  5
98E
100
AcDbEntity
  8
ALPHA
100
AcDbLine
 10
76.395899
 20
91.348354
 30
0.0
 11
78.553027
 21
91.348354
 31
0.0
  0
LWPOLYLINE
  5
98F
100
AcDbEntity
  8
ALPHA
100
AcDbPolyline
 90
        4
 70
     0
 43
0.0
 10
75.895899
 20
91.891255
 10
76.021903
 20
91.883792
 10
76.145557
 20
91.861638
 10
76.265899
 20
91.825014
  0
LWPOLYLINE
  5
995
100
AcDbEntity
  8
ALPHA
100
AcDbPolyline
 90
        4
 70
     0
 43
0.0
 10
75.525899
 20
91.825014
 10
75.646241
 20
91.861638
 10
75.769895
 20
91.883792
 10
75.895899
 20
91.891255
  0
LINE
  5
99B
100
AcDbEntity
  8
ALPHA
100
AcDbLine
 10
75.525899
 20
92.825566
 30
0.0
 11
76.265899
 21
92.825566
 31
0.0
  0
LWPOLYLINE
  5
99C
100
AcDbEntity
  8
ALPHA
100
AcDbPolyline
 90
        4
 70
     0
 43
0.0
 10
76.265899
 20
89.886886
 10
76.145557
 20
89.850263
 10
76.021903
 20
89.828108
 10
75.895899
 20
89.820645
  0
LWPOLYLINE
  5
9A2
100
AcDbEntity
  8
ALPHA
100
AcDbPolyline
 90
        4
 70
     0
 43
0.0
 10
75.895899
 20
89.820645
 10
75.769895
 20
89.828108
 10
75.646241
 20
89.850263
 10
75.525899
 20
89.886886
  0
LINE
  5
9A8
100
AcDbEntity
  8
ALPHA
100
AcDbLine
 10
73.40151
 20
90.086527
 30
0.0
 11
73.294533
 21
90.472275
 31
0.0
  0
LWPOLYLINE
  5
9A9
100
AcDbEntity
  8
ALPHA
100
AcDbPolyline
 90
        9
 70
     0
 43
0.0
 10
75.895899
 20
88.355942
 10
75.491048
 20
88.386589
 10
75.09571
 20
88.47781
 10
74.719172
 20
88.627463
 10
74.370283
 20
88.83203
 10
74.057239
 20
89.086706
 10
73.787397
 20
89.385507
 10
73.567095
 20
89.721411
 10
73.40151
 20
90.086527
  0
LWPOLYLINE
  5
9B4
100
AcDbEntity
  8
ALPHA
100
AcDbPolyline
 90
        5
 70
     0
 43
0.0
 10
74.911886
 20
91.220329
 10
75.015266
 20
91.186868
 10
75.113518
 20
91.155612
 10
75.20695
 20
91.12655
 10
75.295899
 20
91.099695
  0
LINE
  5
9BB
100
AcDbEntity
  8
ALPHA
100
AcDbLine
 10
75.295899
 20
91.220329
 30
0.0
 11
75.295899
 21
91.099695
 31
0.0
  0
LINE
  5
9BC
100
AcDbEntity
  8
ALPHA
100
AcDbLine
 10
75.295899
 20
91.220329
 30
0.0
 11
74.911886
 21
91.220329
 31
0.0
  0
LINE
  5
9BD
100
AcDbEntity
  8
ALPHA
100
AcDbLine
 10
75.525899
 20
88.886335
 30
0.0
 11
76.265899
 21
88.886335
 31
0.0
  0
LINE
  5
9BE
100
AcDbEntity
  8
ALPHA
100
AcDbLine
 10
76.22068
 20
88.720021
 30
0.0
 11
75.571118
 21
88.720021
 31
0.0
  0
LINE
  5
9BF
100
AcDbEntity
  8
ALPHA
100
AcDbLine
 10
76.22068
 20
93.304446
 30
0.0
 11
75.571118
 21
93.304446
 31
0.0
  0
LINE
  5
9C0
100
AcDbEntity
  8
ALPHA
100
AcDbLine
 10
78.390288
 20
90.086527
 30
0.0
 11
78.497265
 21
90.472275
 31
0.0
  0
LWPOLYLINE
  5
9C1
100
AcDbEntity
  8
ALPHA
100
AcDbPolyline
 90
        9
 70
     0
 43
0.0
 10
75.895899
 20
88.355942
 10
76.30075
 20
88.386589
 10
76.696088
 20
88.47781
 10
77.072626
 20
88.627463
 10
77.421515
 20
88.83203
 10
77.734559
 20
89.086706
 10
78.004401
 20
89.385507
 10
78.224703
 20
89.721411
 10
78.390288
 20
90.086527
  0
LINE
  5
9CC
100
AcDbEntity
  8
ALPHA
100
AcDbLine
 10
77.062625
 20
89.863232
 30
0.0
 11
76.569828
 21
90.51983
 31
0.0
  0
LINE
  5
9CD
100
AcDbEntity
  8
ALPHA
100
AcDbLine
 10
77.062625
 20
89.863232
 30
0.0
 11
76.268039
 21
90.441613
 31
0.0
  0
LWPOLYLINE
  5
9CE
100
AcDbEntity
  8
ALPHA
100
AcDbPolyline
 90
        3
 70
     0
 43
0.0
 10
76.268039
 20
91.582854
 10
76.26645
 20
91.592791
 10
76.265899
 20
91.603118
  0
LINE
  5
9D3
100
AcDbEntity
  8
ALPHA
100
AcDbLine
 10
76.276282
 20
91.588854
 30
0.0
 11
76.268039
 21
91.582854
 31
0.0
  0
LINE
  5
9D4
100
AcDbEntity
  8
ALPHA
100
AcDbLine
 10
77.062625
 20
92.161234
 30
0.0
 11
76.276282
 21
91.588854
 31
0.0
  0
LINE
  5
9D5
100
AcDbEntity
  8
ALPHA
100
AcDbLine
 10
77.062625
 20
92.161234
 30
0.0
 11
76.569828
 21
91.504637
 31
0.0
  0
LINE
  5
9D6
100
AcDbEntity
  8
ALPHA
100
AcDbLine
 10
76.569828
 20
91.504637
 30
0.0
 11
78.192218
 21
91.504637
 31
0.0
  0
LWPOLYLINE
  5
9D7
100
AcDbEntity
  8
ALPHA
100
AcDbPolyline
 90
        9
 70
     0
 43
0.0
 10
76.265899
 20
88.726677
 10
76.608226
 20
88.806688
 10
76.934594
 20
88.936135
 10
77.237685
 20
89.112119
 10
77.510713
 20
89.330703
 10
77.747564
 20
89.58701
 10
77.942859
 20
89.875203
 10
78.092341
 20
90.189036
 10
78.192218
 20
90.51983
  0
LINE
  5
9E2
100
AcDbEntity
  8
ALPHA
100
AcDbLine
 10
74.729173
 20
89.863232
 30
0.0
 11
75.523759
 21
90.441613
 31
0.0
  0
LINE
  5
9E3
100
AcDbEntity
  8
ALPHA
100
AcDbLine
 10
74.729173
 20
89.863232
 30
0.0
 11
75.22197
 21
90.51983
 31
0.0
  0
LINE
  5
9E4
100
AcDbEntity
  8
ALPHA
100
AcDbLine
 10
73.59958
 20
91.504637
 30
0.0
 11
75.22197
 21
91.504637
 31
0.0
  0
LINE
  5
9E5
100
AcDbEntity
  8
ALPHA
100
AcDbLine
 10
74.729173
 20
92.161234
 30
0.0
 11
75.22197
 21
91.504637
 31
0.0
  0
LINE
  5
9E6
100
AcDbEntity
  8
ALPHA
100
AcDbLine
 10
75.515516
 20
91.588854
 30
0.0
 11
75.523759
 21
91.582854
 31
0.0
  0
LINE
  5
9E7
100
AcDbEntity
  8
ALPHA
100
AcDbLine
 10
74.729173
 20
92.161234
 30
0.0
 11
75.515516
 21
91.588854
 31
0.0
  0
LWPOLYLINE
  5
9E8
100
AcDbEntity
  8
ALPHA
100
AcDbPolyline
 90
        3
 70
     0
 43
0.0
 10
76.265899
 20
88.720035
 10
76.243227
 20
88.720025
 10
76.22068
 20
88.720021
  0
LWPOLYLINE
  5
9ED
100
AcDbEntity
  8
ALPHA
100
AcDbPolyline
 90
        3
 70
     0
 43
0.0
 10
75.525899
 20
93.304406
 10
75.548573
 20
93.304436
 10
75.571118
 20
93.304446
  0
LWPOLYLINE
  5
9F2
100
AcDbEntity
  8
ALPHA
100
AcDbPolyline
 90
        3
 70
     0
 43
0.0
 10
76.22068
 20
93.304446
 10
75.895899
 20
93.326653
 10
75.571118
 20
93.304446
  0
LINE
  5
9F7
100
AcDbEntity
  8
ALPHA
100
AcDbLine
 10
76.365899
 20
91.483209
 30
0.0
 11
76.365899
 21
91.221211
 31
0.0
  0
LWPOLYLINE
  5
9F8
100
AcDbEntity
  8
ALPHA
100
AcDbPolyline
 90
        3
 70
     0
 43
0.0
 10
76.365899
 20
91.221211
 10
76.380865
 20
91.224811
 10
76.395899
 20
91.228485
  0
LWPOLYLINE
  5
9FD
100
AcDbEntity
  8
ALPHA
100
AcDbPolyline
 90
        3
 70
     0
 43
0.0
 10
76.22068
 20
93.304446
 10
76.243227
 20
93.304436
 10
76.265899
 20
93.304406
  0
LWPOLYLINE
  5
A02
100
AcDbEntity
  8
ALPHA
100
AcDbPolyline
 90
        4
 70
     0
 43
0.0
 10
78.497265
 20
91.457083
 10
78.515796
 20
91.42096
 10
78.534383
 20
91.384717
 10
78.553027
 20
91.348354
  0
LINE
  5
A08
100
AcDbEntity
  8
ALPHA
100
AcDbLine
 10
76.395899
 20
91.480078
 30
0.0
 11
76.365899
 21
91.483209
 31
0.0
  0
LWPOLYLINE
  5
A09
100
AcDbEntity
  8
ALPHA
100
AcDbPolyline
 90
        4
 70
     0
 43
0.0
 10
73.238771
 20
91.348354
 10
73.257415
 20
91.384716
 10
73.276002
 20
91.420959
 10
73.294533
 20
91.457083
  0
LWPOLYLINE
  5
A0F
100
AcDbEntity
  8
ALPHA
100
AcDbPolyline
 90
        3
 70
     0
 43
0.0
 10
75.395899
 20
91.228485
 10
75.41093
 20
91.224812
 10
75.425899
 20
91.221211
  0
LINE
  5
A14
100
AcDbEntity
  8
ALPHA
100
AcDbLine
 10
75.425899
 20
91.483209
 30
0.0
 11
75.425899
 21
91.221211
 31
0.0
  0
LINE
  5
A15
100
AcDbEntity
  8
ALPHA
100
AcDbLine
 10
75.425899
 20
91.483209
 30
0.0
 11
75.395899
 21
91.480078
 31
0.0
  0
LWPOLYLINE
  5
A16
100
AcDbEntity
  8
ALPHA
100
AcDbPolyline
 90
        3
 70
     0
 43
0.0
 10
75.525899
 20
91.603118
 10
75.525348
 20
91.592791
 10
75.523759
 20
91.582854
  0
LWPOLYLINE
  5
A1B
100
AcDbEntity
  8
ALPHA
100
AcDbPolyline
 90
        3
 70
     0
 43
0.0
 10
75.571118
 20
88.720021
 10
75.895899
 20
88.697814
 10
76.22068
 20
88.720021
  0
LWPOLYLINE
  5
A20
100
AcDbEntity
  8
ALPHA
100
AcDbPolyline
 90
        9
 70
     0
 43
0.0
 10
78.192218
 20
91.504637
 10
78.092341
 20
91.835431
 10
77.942859
 20
92.149264
 10
77.747564
 20
92.437457
 10
77.510713
 20
92.693763
 10
77.237685
 20
92.912348
 10
76.934594
 20
93.088332
 10
76.608226
 20
93.217779
 10
76.265899
 20
93.29779
  0
LINE
  5
A2B
100
AcDbEntity
  8
ALPHA
100
AcDbLine
 10
76.495899
 20
91.220329
 30
0.0
 11
76.495899
 21
91.099695
 31
0.0
  0
LWPOLYLINE
  5
A2C
100
AcDbEntity
  8
ALPHA
100
AcDbPolyline
 90
        5
 70
     0
 43
0.0
 10
76.495899
 20
91.099695
 10
76.584724
 20
91.126512
 10
76.678114
 20
91.15556
 10
76.776408
 20
91.186829
 10
76.879912
 20
91.220329
  0
LINE
  5
A33
100
AcDbEntity
  8
ALPHA
100
AcDbLine
 10
76.879912
 20
91.220329
 30
0.0
 11
76.495899
 21
91.220329
 31
0.0
  0
LWPOLYLINE
  5
A34
100
AcDbEntity
  8
ALPHA
100
AcDbPolyline
 90
        4
 70
     0
 43
0.0
 10
75.525899
 20
90.193898
 10
75.613875
 20
90.139459
 10
75.75126
 20
90.092116
 10
75.895899
 20
90.076067
  0
LWPOLYLINE
  5
A3A
100
AcDbEntity
  8
ALPHA
100
AcDbPolyline
 90
       10
 70
     0
 43
0.0
 10
75.895899
 20
91.356317
 10
75.75126
 20
91.340268
 10
75.613875
 20
91.292924
 10
75.490631
 20
91.216662
 10
75.387709
 20
91.115303
 10
75.310269
 20
90.993932
 10
75.262196
 20
90.858633
 10
75.245899
 20
90.716192
 10
75.262196
 20
90.573751
 10
75.284492
 20
90.511001
  0
LWPOLYLINE
  5
A46
100
AcDbEntity
  8
ALPHA
100
AcDbPolyline
 90
       10
 70
     0
 43
0.0
 10
75.525899
 20
91.326201
 10
75.524511
 20
91.305207
 10
75.520762
 20
91.286714
 10
75.513514
 20
91.267036
 10
75.503929
 20
91.250783
 10
75.490564
 20
91.236225
 10
75.475785
 20
91.226367
 10
75.458859
 20
91.220472
 10
75.443531
 20
91.218995
 10
75.425899
 20
91.221211
  0
LWPOLYLINE
  5
A52
100
AcDbEntity
  8
ALPHA
100
AcDbPolyline
 90
        7
 70
     0
 43
0.0
 10
78.192218
 20
91.504637
 10
78.267314
 20
91.503053
 10
78.338827
 20
91.498296
 10
78.399853
 20
91.490857
 10
78.448371
 20
91.481113
 10
78.481876
 20
91.469456
 10
78.497265
 20
91.457083
  0
LWPOLYLINE
  5
A5B
100
AcDbEntity
  8
ALPHA
100
AcDbPolyline
 90
        6
 70
     0
 43
0.0
 10
75.395899
 20
91.31881
 10
75.391005
 20
91.288378
 10
75.376801
 20
91.260924
 10
75.354678
 20
91.239137
 10
75.326801
 20
91.225149
 10
75.295899
 20
91.220329
  0
LWPOLYLINE
  5
A63
100
AcDbEntity
  8
ALPHA
100
AcDbPolyline
 90
       10
 70
     0
 43
0.0
 10
75.395899
 20
91.191667
 10
75.394371
 20
91.1708
 10
75.390419
 20
91.153312
 10
75.382664
 20
91.134743
 10
75.372188
 20
91.119648
 10
75.358353
 20
91.107446
 10
75.344041
 20
91.100177
 10
75.327545
 20
91.096428
 10
75.312549
 20
91.096414
 10
75.295899
 20
91.099695
  0
LWPOLYLINE
  5
A6F
100
AcDbEntity
  8
ALPHA
100
AcDbPolyline
 90
        4
 70
     0
 43
0.0
 10
76.265899
 20
90.193898
 10
76.177923
 20
90.139459
 10
76.040538
 20
90.092116
 10
75.895899
 20
90.076067
  0
LWPOLYLINE
  5
A75
100
AcDbEntity
  8
ALPHA
100
AcDbPolyline
 90
       10
 70
     0
 43
0.0
 10
75.895899
 20
91.356317
 10
76.040538
 20
91.340268
 10
76.177923
 20
91.292924
 10
76.301167
 20
91.216662
 10
76.40409
 20
91.115303
 10
76.481529
 20
90.993932
 10
76.529602
 20
90.858633
 10
76.545899
 20
90.716192
 10
76.529602
 20
90.573751
 10
76.507307
 20
90.511001
  0
LWPOLYLINE
  5
A81
100
AcDbEntity
  8
ALPHA
100
AcDbPolyline
 90
        4
 70
     0
 43
0.0
 10
78.497265
 20
91.457083
 10
78.390288
 20
91.842832
 10
78.224703
 20
92.207948
 10
78.195808
 20
92.259064
  0
LWPOLYLINE
  5
A87
100
AcDbEntity
  8
ALPHA
100
AcDbPolyline
 90
        4
 70
     0
 43
0.0
 10
73.294533
 20
91.457083
 10
73.40151
 20
91.842832
 10
73.567095
 20
92.207948
 10
73.59599
 20
92.259064
  0
LWPOLYLINE
  5
A8D
100
AcDbEntity
  8
ALPHA
100
AcDbPolyline
 90
       10
 70
     0
 43
0.0
 10
76.495899
 20
91.099695
 10
76.479296
 20
91.096419
 10
76.464259
 20
91.096427
 10
76.447694
 20
91.1002
 10
76.433358
 20
91.107504
 10
76.419621
 20
91.119637
 10
76.409231
 20
91.134566
 10
76.401487
 20
91.152966
 10
76.397466
 20
91.170545
 10
76.395899
 20
91.191667
  0
LWPOLYLINE
  5
A99
100
AcDbEntity
  8
ALPHA
100
AcDbPolyline
 90
       10
 70
     0
 43
0.0
 10
76.365899
 20
91.221211
 10
76.348485
 20
91.218998
 10
76.333248
 20
91.220408
 10
76.316182
 20
91.226283
 10
76.301246
 20
91.236214
 10
76.2878
 20
91.250878
 10
76.27825
 20
91.26711
 10
76.271039
 20
91.286706
 10
76.267295
 20
91.305149
 10
76.265899
 20
91.326201
  0
LWPOLYLINE
  5
AA5
100
AcDbEntity
  8
ALPHA
100
AcDbPolyline
 90
        7
 70
     0
 43
0.0
 10
73.294533
 20
91.457083
 10
73.309922
 20
91.469456
 10
73.343427
 20
91.481113
 10
73.391946
 20
91.490857
 10
73.452971
 20
91.498296
 10
73.524484
 20
91.503053
 10
73.59958
 20
91.504637
  0
LWPOLYLINE
  5
AAE
100
AcDbEntity
  8
ALPHA
100
AcDbPolyline
 90
        9
 70
     0
 43
0.0
 10
75.525899
 20
93.29779
 10
75.183572
 20
93.217779
 10
74.857204
 20
93.088332
 10
74.554113
 20
92.912348
 10
74.281085
 20
92.693763
 10
74.044234
 20
92.437457
 10
73.848939
 20
92.149264
 10
73.699457
 20
91.835431
 10
73.59958
 20
91.504637
  0
LWPOLYLINE
  5
AB9
100
AcDbEntity
  8
ALPHA
100
AcDbPolyline
 90
        5
 70
     0
 43
0.0
 10
76.268039
 20
90.441613
 10
76.28228
 20
90.469034
 10
76.306267
 20
90.487984
 10
76.33501
 20
90.497499
 10
76.365899
 20
90.498401
  0
LINE
  5
AC0
100
AcDbEntity
  8
ALPHA
100
AcDbLine
 10
76.569828
 20
90.51983
 30
0.0
 11
76.395899
 21
90.49527
 31
0.0
  0
LWPOLYLINE
  5
AC1
100
AcDbEntity
  8
ALPHA
100
AcDbPolyline
 90
        5
 70
     0
 43
0.0
 10
75.425899
 20
90.498401
 10
75.456792
 20
90.497499
 10
75.48554
 20
90.48798
 10
75.509521
 20
90.469031
 10
75.523759
 20
90.441613
  0
LINE
  5
AC8
100
AcDbEntity
  8
ALPHA
100
AcDbLine
 10
75.395899
 20
90.49527
 30
0.0
 11
75.22197
 21
90.51983
 31
0.0
  0
LWPOLYLINE
  5
AC9
100
AcDbEntity
  8
ALPHA
100
AcDbPolyline
 90
        4
 70
     0
 43
0.0
 10
73.294533
 20
90.472275
 10
73.276002
 20
90.436152
 10
73.257415
 20
90.399909
 10
73.238771
 20
90.363546
  0
LINE
  5
ACF
100
AcDbEntity
  8
ALPHA
100
AcDbLine
 10
75.395899
 20
90.49527
 30
0.0
 11
75.425899
 21
90.498401
 31
0.0
  0
LWPOLYLINE
  5
AD0
100
AcDbEntity
  8
ALPHA
100
AcDbPolyline
 90
        4
 70
     0
 43
0.0
 10
78.553027
 20
90.363546
 10
78.534383
 20
90.399908
 10
78.515796
 20
90.436152
 10
78.497265
 20
90.472275
  0
LINE
  5
AD6
100
AcDbEntity
  8
ALPHA
100
AcDbLine
 10
76.365899
 20
90.498401
 30
0.0
 11
76.395899
 21
90.49527
 31
0.0
  0
LINE
  5
AD7
100
AcDbEntity
  8
ALPHA
100
AcDbLine
 10
75.395899
 20
91.228485
 30
0.0
 11
75.395899
 21
91.191667
 31
0.0
  0
LINE
  5
AD8
100
AcDbEntity
  8
ALPHA
100
AcDbLine
 10
75.395899
 20
91.31881
 30
0.0
 11
75.395899
 21
91.228485
 31
0.0
  0
LINE
  5
AD9
100
AcDbEntity
  8
ALPHA
100
AcDbLine
 10
75.395899
 20
91.348354
 30
0.0
 11
75.395899
 21
91.31881
 31
0.0
  0
LINE
  5
ADA
100
AcDbEntity
  8
ALPHA
100
AcDbLine
 10
75.525899
 20
91.582854
 30
0.0
 11
75.525899
 21
91.326201
 31
0.0
  0
LINE
  5
ADB
100
AcDbEntity
  8
ALPHA
100
AcDbLine
 10
75.525899
 20
91.603118
 30
0.0
 11
75.525899
 21
93.29779
 31
0.0
  0
LINE
  5
ADC
100
AcDbEntity
  8
ALPHA
100
AcDbLine
 10
73.59599
 20
92.259064
 30
0.0
 11
73.464873
 21
92.033115
 31
0.0
  0
LWPOLYLINE
  5
ADD
100
AcDbEntity
  8
ALPHA
100
AcDbPolyline
 90
       15
 70
     0
 43
0.0
 10
73.596057
 20
92.25918
 10
73.740482
 20
92.481237
 10
74.005063
 20
92.791984
 10
74.315202
 20
93.05859
 10
74.663568
 20
93.274707
 10
75.04171
 20
93.435032
 10
75.440432
 20
93.535658
 10
75.85019
 20
93.57417
 10
76.261011
 20
93.549628
 10
76.662928
 20
93.462661
 10
77.046287
 20
93.315397
 10
77.401887
 20
93.1114
 10
77.721013
 20
92.85575
 10
77.996225
 20
92.55448
 10
78.195738
 20
92.259185
  0
LINE
  5
AEE
100
AcDbEntity
  8
ALPHA
100
AcDbLine
 10
75.525899
 20
88.726677
 30
0.0
 11
75.525899
 21
90.421349
 31
0.0
  0
LINE
  5
AEF
100
AcDbEntity
  8
ALPHA
100
AcDbLine
 10
76.265899
 20
91.582854
 30
0.0
 11
76.265899
 21
91.326201
 31
0.0
  0
LINE
  5
AF0
100
AcDbEntity
  8
ALPHA
100
AcDbLine
 10
76.265899
 20
93.29779
 30
0.0
 11
76.265899
 21
91.603118
 31
0.0
  0
LINE
  5
AF1
100
AcDbEntity
  8
ALPHA
100
AcDbLine
 10
76.265899
 20
90.144432
 30
0.0
 11
76.265899
 21
88.726677
 31
0.0
  0
LINE
  5
AF2
100
AcDbEntity
  8
ALPHA
100
AcDbLine
 10
76.265899
 20
90.421349
 30
0.0
 11
76.265899
 21
90.144432
 31
0.0
  0
LINE
  5
AF3
100
AcDbEntity
  8
ALPHA
100
AcDbLine
 10
78.195808
 20
92.259064
 30
0.0
 11
78.326926
 21
92.033115
 31
0.0
  0
LINE
  5
AF4
100
AcDbEntity
  8
ALPHA
100
AcDbLine
 10
75.525899
 20
91.582854
 30
0.0
 11
75.525899
 21
91.326201
 31
0.0
  0
LINE
  5
AF5
100
AcDbEntity
  8
ALPHA
100
AcDbLine
 10
76.395899
 20
91.228485
 30
0.0
 11
76.395899
 21
91.191667
 31
0.0
  0
LINE
  5
AF6
100
AcDbEntity
  8
ALPHA
100
AcDbLine
 10
76.395899
 20
91.31881
 30
0.0
 11
76.395899
 21
91.228485
 31
0.0
  0
LINE
  5
AF7
100
AcDbEntity
  8
ALPHA
100
AcDbLine
 10
76.395899
 20
91.31881
 30
0.0
 11
76.395899
 21
91.348354
 31
0.0
  0
LINE
  5
AF8
100
AcDbEntity
  8
ALPHA
100
AcDbLine
 10
75.395899
 20
91.228485
 30
0.0
 11
75.395899
 21
91.191667
 31
0.0
  0
LINE
  5
AF9
100
AcDbEntity
  8
ALPHA
100
AcDbLine
 10
75.395899
 20
91.31881
 30
0.0
 11
75.395899
 21
91.228485
 31
0.0
  0
LWPOLYLINE
  5
AFA
100
AcDbEntity
  8
ALPHA
100
AcDbPolyline
 90
        3
 70
     0
 43
0.0
 10
76.265899
 20
90.421349
 10
76.26645
 20
90.431676
 10
76.268039
 20
90.441613
  0
LWPOLYLINE
  5
AFF
100
AcDbEntity
  8
ALPHA
100
AcDbPolyline
 90
        6
 70
     0
 43
0.0
 10
78.695899
 20
90.664936
 10
78.695899
 20
90.664937
 10
78.661426
 20
91.096299
 10
78.558857
 20
91.51704
 10
78.390717
 20
91.916799
 10
78.326975
 20
92.032973
  0
LINE
  5
B07
100
AcDbEntity
  8
ALPHA
100
AcDbLine
 10
78.686089
 20
90.542185
 30
0.0
 11
78.695899
 21
90.664936
 31
0.0
  0
LINE
  5
B08
100
AcDbEntity
  8
ALPHA
100
AcDbLine
 10
78.405845
 20
89.449042
 30
0.0
 11
78.445899
 21
89.544272
 31
0.0
  0
LINE
  5
B09
100
AcDbEntity
  8
ALPHA
100
AcDbLine
 10
78.390717
 20
89.413076
 30
0.0
 11
78.405845
 21
89.449042
 31
0.0
  0
LINE
  5
B0A
100
AcDbEntity
  8
ALPHA
100
AcDbLine
 10
76.569828
 20
90.51983
 30
0.0
 11
78.192218
 21
90.51983
 31
0.0
  0
LWPOLYLINE
  5
B0B
100
AcDbEntity
  8
ALPHA
100
AcDbPolyline
 90
        3
 70
     0
 43
0.0
 10
75.523759
 20
90.441613
 10
75.525348
 20
90.431676
 10
75.525899
 20
90.421349
  0
LINE
  5
B10
100
AcDbEntity
  8
ALPHA
100
AcDbLine
 10
73.59958
 20
90.51983
 30
0.0
 11
75.22197
 21
90.51983
 31
0.0
  0
LINE
  5
B11
100
AcDbEntity
  8
ALPHA
100
AcDbLine
 10
76.265899
 20
93.304406
 30
0.0
 11
76.265899
 21
93.29779
 31
0.0
  0
LINE
  5
B12
100
AcDbEntity
  8
ALPHA
100
AcDbLine
 10
75.525899
 20
93.29779
 30
0.0
 11
75.525899
 21
93.304406
 31
0.0
  0
LWPOLYLINE
  5
B13
100
AcDbEntity
  8
ALPHA
100
AcDbPolyline
 90
        7
 70
     0
 43
0.0
 10
73.59958
 20
90.51983
 10
73.524484
 20
90.518245
 10
73.452971
 20
90.513488
 10
73.391946
 20
90.50605
 10
73.343427
 20
90.496305
 10
73.309922
 20
90.484649
 10
73.294533
 20
90.472275
  0
LWPOLYLINE
  5
B1C
100
AcDbEntity
  8
ALPHA
100
AcDbPolyline
 90
        7
 70
     0
 43
0.0
 10
78.497265
 20
90.472275
 10
78.481876
 20
90.484649
 10
78.448371
 20
90.496305
 10
78.399853
 20
90.50605
 10
78.338827
 20
90.513488
 10
78.267314
 20
90.518245
 10
78.192218
 20
90.51983
  0
LINE
  5
B25
100
AcDbEntity
  8
ALPHA
100
AcDbLine
 10
76.265899
 20
88.726677
 30
0.0
 11
76.265899
 21
88.720035
 31
0.0
  0
LINE
  5
B26
100
AcDbEntity
  8
ALPHA
100
AcDbLine
 10
75.525899
 20
88.720035
 30
0.0
 11
75.525899
 21
88.726677
 31
0.0
  0
LWPOLYLINE
  5
B27
100
AcDbEntity
  8
ALPHA
100
AcDbPolyline
 90
        5
 70
     0
 43
0.0
 10
73.119219
 20
90.956745
 10
73.130372
 20
91.096299
 10
73.232941
 20
91.51704
 10
73.401081
 20
91.916799
 10
73.464823
 20
92.032973
  0
LWPOLYLINE
  5
B2E
100
AcDbEntity
  8
ALPHA
100
AcDbPolyline
 90
        3
 70
     0
 43
0.0
 10
73.106321
 20
90.534523
 10
73.095899
 20
90.664937
 10
73.119219
 20
90.956745
  0
LINE
  5
B33
100
AcDbEntity
  8
ALPHA
100
AcDbLine
 10
73.385953
 20
89.449042
 30
0.0
 11
73.345899
 21
89.544272
 31
0.0
  0
LINE
  5
B34
100
AcDbEntity
  8
ALPHA
100
AcDbLine
 10
73.401081
 20
89.413076
 30
0.0
 11
73.385953
 21
89.449042
 31
0.0
  0
LINE
  5
B35
100
AcDbEntity
  8
ALPHA
100
AcDbLine
 10
64.729173
 20
89.815326
 30
0.0
 11
65.395899
 21
90.447364
 31
0.0
  0
LWPOLYLINE
  5
B36
100
AcDbEntity
  8
ALPHA
100
AcDbPolyline
 90
        3
 70
     0
 43
0.0
 10
66.22068
 20
93.256539
 10
66.243225
 20
93.25653
 10
66.265899
 20
93.2565
  0
LINE
  5
B3B
100
AcDbEntity
  8
ALPHA
100
AcDbLine
 10
67.062625
 20
89.815326
 30
0.0
 11
66.395899
 21
90.447364
 31
0.0
  0
LWPOLYLINE
  5
B3C
100
AcDbEntity
  8
ALPHA
100
AcDbPolyline
 90
        5
 70
     0
 43
0.0
 10
65.523759
 20
91.534948
 10
65.509519
 20
91.494877
 10
65.485531
 20
91.463737
 10
65.456788
 20
91.444033
 10
65.425899
 20
91.435302
  0
LINE
  5
B43
100
AcDbEntity
  8
ALPHA
100
AcDbLine
 10
64.729173
 20
92.113328
 30
0.0
 11
65.395899
 21
91.432171
 31
0.0
  0
LINE
  5
B44
100
AcDbEntity
  8
ALPHA
100
AcDbLine
 10
65.22197
 20
91.456731
 30
0.0
 11
65.395899
 21
91.432171
 31
0.0
  0
LWPOLYLINE
  5
B45
100
AcDbEntity
  8
ALPHA
100
AcDbPolyline
 90
        5
 70
     0
 43
0.0
 10
64.911886
 20
91.172423
 10
65.015266
 20
91.138962
 10
65.113518
 20
91.107705
 10
65.20695
 20
91.078644
 10
65.295899
 20
91.051789
  0
LINE
  5
B4C
100
AcDbEntity
  8
ALPHA
100
AcDbLine
 10
65.295899
 20
91.172423
 30
0.0
 11
65.295899
 21
91.051789
 31
0.0
  0
LINE
  5
B4D
100
AcDbEntity
  8
ALPHA
100
AcDbLine
 10
65.295899
 20
91.172423
 30
0.0
 11
64.911886
 21
91.172423
 31
0.0
  0
LWPOLYLINE
  5
B4E
100
AcDbEntity
  8
ALPHA
100
AcDbPolyline
 90
        9
 70
     0
 43
0.0
 10
66.265899
 20
88.678771
 10
66.608226
 20
88.758782
 10
66.934594
 20
88.888229
 10
67.237685
 20
89.064212
 10
67.510713
 20
89.282797
 10
67.747564
 20
89.539103
 10
67.942859
 20
89.827297
 10
68.092341
 20
90.14113
 10
68.192218
 20
90.471923
  0
LWPOLYLINE
  5
B59
100
AcDbEntity
  8
ALPHA
100
AcDbPolyline
 90
        5
 70
     0
 43
0.0
 10
66.365899
 20
91.435302
 10
66.335006
 20
91.444035
 10
66.306258
 20
91.463746
 10
66.282277
 20
91.494882
 10
66.268039
 20
91.534948
  0
LINE
  5
B60
100
AcDbEntity
  8
ALPHA
100
AcDbLine
 10
66.395899
 20
91.432171
 30
0.0
 11
66.569828
 21
91.456731
 31
0.0
  0
LINE
  5
B61
100
AcDbEntity
  8
ALPHA
100
AcDbLine
 10
66.365899
 20
91.435302
 30
0.0
 11
66.365899
 21
91.173305
 31
0.0
  0
LWPOLYLINE
  5
B62
100
AcDbEntity
  8
ALPHA
100
AcDbPolyline
 90
        3
 70
     0
 43
0.0
 10
66.365899
 20
91.173305
 10
66.380865
 20
91.176904
 10
66.395899
 20
91.180579
  0
LINE
  5
B67
100
AcDbEntity
  8
ALPHA
100
AcDbLine
 10
67.062625
 20
92.113328
 30
0.0
 11
66.395899
 21
91.432171
 31
0.0
  0
LINE
  5
B68
100
AcDbEntity
  8
ALPHA
100
AcDbLine
 10
68.553027
 20
91.300448
 30
0.0
 11
66.395899
 21
91.300448
 31
0.0
  0
LWPOLYLINE
  5
B69
100
AcDbEntity
  8
ALPHA
100
AcDbPolyline
 90
        4
 70
     0
 43
0.0
 10
68.497265
 20
91.409177
 10
68.515796
 20
91.373054
 10
68.534383
 20
91.336811
 10
68.553027
 20
91.300448
  0
LINE
  5
B6F
100
AcDbEntity
  8
ALPHA
100
AcDbLine
 10
66.395899
 20
91.432171
 30
0.0
 11
66.365899
 21
91.435302
 31
0.0
  0
LWPOLYLINE
  5
B70
100
AcDbEntity
  8
ALPHA
100
AcDbPolyline
 90
        4
 70
     0
 43
0.0
 10
63.238771
 20
91.300448
 10
63.257415
 20
91.33681
 10
63.276002
 20
91.373053
 10
63.294533
 20
91.409177
  0
LINE
  5
B76
100
AcDbEntity
  8
ALPHA
100
AcDbLine
 10
65.395899
 20
91.300448
 30
0.0
 11
63.238771
 21
91.300448
 31
0.0
  0
LWPOLYLINE
  5
B77
100
AcDbEntity
  8
ALPHA
100
AcDbPolyline
 90
        3
 70
     0
 43
0.0
 10
65.395899
 20
91.180579
 10
65.41093
 20
91.176905
 10
65.425899
 20
91.173305
  0
LINE
  5
B7C
100
AcDbEntity
  8
ALPHA
100
AcDbLine
 10
65.425899
 20
91.435302
 30
0.0
 11
65.425899
 21
91.173305
 31
0.0
  0
LINE
  5
B7D
100
AcDbEntity
  8
ALPHA
100
AcDbLine
 10
65.425899
 20
91.435302
 30
0.0
 11
65.395899
 21
91.432171
 31
0.0
  0
LWPOLYLINE
  5
B7E
100
AcDbEntity
  8
ALPHA
100
AcDbPolyline
 90
        5
 70
     0
 43
0.0
 10
68.553027
 20
91.300448
 10
68.587956
 20
91.055541
 10
68.599662
 20
90.808044
 10
68.587956
 20
90.560547
 10
68.553027
 20
90.31564
  0
LWPOLYLINE
  5
B85
100
AcDbEntity
  8
ALPHA
100
AcDbPolyline
 90
        6
 70
     0
 43
0.0
 10
65.395899
 20
91.270904
 10
65.391005
 20
91.240471
 10
65.376801
 20
91.213018
 10
65.354678
 20
91.191231
 10
65.326801
 20
91.177243
 10
65.295899
 20
91.172423
  0
LINE
  5
B8D
100
AcDbEntity
  8
ALPHA
100
AcDbLine
 10
66.495899
 20
91.172423
 30
0.0
 11
66.495899
 21
91.051789
 31
0.0
  0
LWPOLYLINE
  5
B8E
100
AcDbEntity
  8
ALPHA
100
AcDbPolyline
 90
        5
 70
     0
 43
0.0
 10
66.495899
 20
91.051789
 10
66.584724
 20
91.078606
 10
66.678114
 20
91.107653
 10
66.776408
 20
91.138922
 10
66.879912
 20
91.172423
  0
LINE
  5
B95
100
AcDbEntity
  8
ALPHA
100
AcDbLine
 10
66.879912
 20
91.172423
 30
0.0
 11
66.495899
 21
91.172423
 31
0.0
  0
LWPOLYLINE
  5
B96
100
AcDbEntity
  8
ALPHA
100
AcDbPolyline
 90
        5
 70
     0
 43
0.0
 10
66.879912
 20
91.172423
 10
66.930223
 20
90.993218
 10
66.947176
 20
90.808044
 10
66.930223
 20
90.62287
 10
66.887846
 20
90.471923
  0
LWPOLYLINE
  5
B9D
100
AcDbEntity
  8
ALPHA
100
AcDbPolyline
 90
        6
 70
     0
 43
0.0
 10
66.495899
 20
91.172423
 10
66.464997
 20
91.177243
 10
66.437121
 20
91.191231
 10
66.414997
 20
91.213018
 10
66.400793
 20
91.240471
 10
66.395899
 20
91.270904
  0
LWPOLYLINE
  5
BA5
100
AcDbEntity
  8
ALPHA
100
AcDbPolyline
 90
        5
 70
     0
 43
0.0
 10
63.238771
 20
90.31564
 10
63.203842
 20
90.560547
 10
63.192137
 20
90.808044
 10
63.203842
 20
91.055541
 10
63.238771
 20
91.300448
  0
LWPOLYLINE
  5
BAC
100
AcDbEntity
  8
ALPHA
100
AcDbPolyline
 90
        5
 70
     0
 43
0.0
 10
64.903952
 20
90.471923
 10
64.861575
 20
90.62287
 10
64.844623
 20
90.808044
 10
64.861575
 20
90.993218
 10
64.911886
 20
91.172423
  0
LWPOLYLINE
  5
BB3
100
AcDbEntity
  8
ALPHA
100
AcDbPolyline
 90
        9
 70
     0
 43
0.0
 10
68.192218
 20
91.456731
 10
68.092341
 20
91.787524
 10
67.942859
 20
92.101358
 10
67.747564
 20
92.389551
 10
67.510713
 20
92.645857
 10
67.237685
 20
92.864442
 10
66.934594
 20
93.040426
 10
66.608226
 20
93.169872
 10
66.265899
 20
93.249883
  0
LWPOLYLINE
  5
BBE
100
AcDbEntity
  8
ALPHA
100
AcDbPolyline
 90
        4
 70
     0
 43
0.0
 10
65.895899
 20
89.772739
 10
65.769895
 20
89.780202
 10
65.646241
 20
89.802356
 10
65.525899
 20
89.83898
  0
LWPOLYLINE
  5
BC4
100
AcDbEntity
  8
ALPHA
100
AcDbPolyline
 90
        4
 70
     0
 43
0.0
 10
66.265899
 20
89.83898
 10
66.145557
 20
89.802356
 10
66.021903
 20
89.780202
 10
65.895899
 20
89.772739
  0
LINE
  5
BCA
100
AcDbEntity
  8
ALPHA
100
AcDbLine
 10
66.265899
 20
88.838428
 30
0.0
 11
65.525899
 21
88.838428
 31
0.0
  0
LWPOLYLINE
  5
BCB
100
AcDbEntity
  8
ALPHA
100
AcDbPolyline
 90
        4
 70
     0
 43
0.0
 10
65.525899
 20
91.777108
 10
65.646241
 20
91.813731
 10
65.769895
 20
91.835886
 10
65.895899
 20
91.843349
  0
LWPOLYLINE
  5
BD1
100
AcDbEntity
  8
ALPHA
100
AcDbPolyline
 90
        4
 70
     0
 43
0.0
 10
65.895899
 20
91.843349
 10
66.021903
 20
91.835886
 10
66.145557
 20
91.813731
 10
66.265899
 20
91.777108
  0
LINE
  5
BD7
100
AcDbEntity
  8
ALPHA
100
AcDbLine
 10
66.265899
 20
92.777659
 30
0.0
 11
65.525899
 21
92.777659
 31
0.0
  0
LWPOLYLINE
  5
BD8
100
AcDbEntity
  8
ALPHA
100
AcDbPolyline
 90
        7
 70
     0
 43
0.0
 10
68.192218
 20
91.456731
 10
68.267314
 20
91.455147
 10
68.338827
 20
91.45039
 10
68.399853
 20
91.442951
 10
68.448371
 20
91.433207
 10
68.481876
 20
91.42155
 10
68.497265
 20
91.409177
  0
LINE
  5
BE1
100
AcDbEntity
  8
ALPHA
100
AcDbLine
 10
65.571118
 20
93.256539
 30
0.0
 11
66.22068
 21
93.256539
 31
0.0
  0
LINE
  5
BE2
100
AcDbEntity
  8
ALPHA
100
AcDbLine
 10
65.571118
 20
88.672115
 30
0.0
 11
66.22068
 21
88.672115
 31
0.0
  0
LINE
  5
BE3
100
AcDbEntity
  8
ALPHA
100
AcDbLine
 10
65.22197
 20
91.456731
 30
0.0
 11
63.59958
 21
91.456731
 31
0.0
  0
LINE
  5
BE4
100
AcDbEntity
  8
ALPHA
100
AcDbLine
 10
64.729173
 20
92.113328
 30
0.0
 11
65.22197
 21
91.456731
 31
0.0
  0
LINE
  5
BE5
100
AcDbEntity
  8
ALPHA
100
AcDbLine
 10
65.515516
 20
91.540948
 30
0.0
 11
65.523759
 21
91.534948
 31
0.0
  0
LINE
  5
BE6
100
AcDbEntity
  8
ALPHA
100
AcDbLine
 10
64.729173
 20
92.113328
 30
0.0
 11
65.515516
 21
91.540948
 31
0.0
  0
LWPOLYLINE
  5
BE7
100
AcDbEntity
  8
ALPHA
100
AcDbPolyline
 90
        3
 70
     0
 43
0.0
 10
65.525899
 20
91.555212
 10
65.525348
 20
91.544885
 10
65.523759
 20
91.534948
  0
LWPOLYLINE
  5
BEC
100
AcDbEntity
  8
ALPHA
100
AcDbPolyline
 90
       10
 70
     0
 43
0.0
 10
65.525899
 20
91.278295
 10
65.524511
 20
91.257301
 10
65.520762
 20
91.238808
 10
65.513514
 20
91.21913
 10
65.503929
 20
91.202877
 10
65.490564
 20
91.188318
 10
65.475785
 20
91.178461
 10
65.458859
 20
91.172566
 10
65.443531
 20
91.171089
 10
65.425899
 20
91.173305
  0
LINE
  5
BF8
100
AcDbEntity
  8
ALPHA
100
AcDbLine
 10
64.729173
 20
89.815326
 30
0.0
 11
65.523759
 21
90.393707
 31
0.0
  0
LINE
  5
BF9
100
AcDbEntity
  8
ALPHA
100
AcDbLine
 10
64.729173
 20
89.815326
 30
0.0
 11
65.22197
 21
90.471923
 31
0.0
  0
LWPOLYLINE
  5
BFA
100
AcDbEntity
  8
ALPHA
100
AcDbPolyline
 90
        7
 70
     0
 43
0.0
 10
63.294533
 20
91.409177
 10
63.309922
 20
91.42155
 10
63.343427
 20
91.433207
 10
63.391946
 20
91.442951
 10
63.452971
 20
91.45039
 10
63.524484
 20
91.455147
 10
63.59958
 20
91.456731
  0
LWPOLYLINE
  5
C03
100
AcDbEntity
  8
ALPHA
100
AcDbPolyline
 90
        3
 70
     0
 43
0.0
 10
66.268039
 20
91.534948
 10
66.26645
 20
91.544885
 10
66.265899
 20
91.555212
  0
LINE
  5
C08
100
AcDbEntity
  8
ALPHA
100
AcDbLine
 10
66.276282
 20
91.540948
 30
0.0
 11
66.268039
 21
91.534948
 31
0.0
  0
LINE
  5
C09
100
AcDbEntity
  8
ALPHA
100
AcDbLine
 10
67.062625
 20
92.113328
 30
0.0
 11
66.276282
 21
91.540948
 31
0.0
  0
LWPOLYLINE
  5
C0A
100
AcDbEntity
  8
ALPHA
100
AcDbPolyline
 90
        4
 70
     0
 43
0.0
 10
68.195808
 20
92.211158
 10
68.224703
 20
92.160042
 10
68.390288
 20
91.794926
 10
68.497265
 20
91.409177
  0
LINE
  5
C10
100
AcDbEntity
  8
ALPHA
100
AcDbLine
 10
67.062625
 20
92.113328
 30
0.0
 11
66.569828
 21
91.456731
 31
0.0
  0
LINE
  5
C11
100
AcDbEntity
  8
ALPHA
100
AcDbLine
 10
68.192218
 20
91.456731
 30
0.0
 11
66.569828
 21
91.456731
 31
0.0
  0
LWPOLYLINE
  5
C12
100
AcDbEntity
  8
ALPHA
100
AcDbPolyline
 90
        9
 70
     0
 43
0.0
 10
65.525899
 20
93.249883
 10
65.183572
 20
93.169872
 10
64.857204
 20
93.040426
 10
64.554113
 20
92.864442
 10
64.281085
 20
92.645857
 10
64.044234
 20
92.389551
 10
63.848939
 20
92.101358
 10
63.699457
 20
91.787524
 10
63.59958
 20
91.456731
  0
LINE
  5
C1D
100
AcDbEntity
  8
ALPHA
100
AcDbLine
 10
67.062625
 20
89.815326
 30
0.0
 11
66.569828
 21
90.471923
 31
0.0
  0
LINE
  5
C1E
100
AcDbEntity
  8
ALPHA
100
AcDbLine
 10
67.062625
 20
89.815326
 30
0.0
 11
66.268039
 21
90.393707
 31
0.0
  0
LWPOLYLINE
  5
C1F
100
AcDbEntity
  8
ALPHA
100
AcDbPolyline
 90
       10
 70
     0
 43
0.0
 10
65.395899
 20
91.143761
 10
65.394371
 20
91.122894
 10
65.390419
 20
91.105406
 10
65.382664
 20
91.086837
 10
65.372188
 20
91.071742
 10
65.358353
 20
91.05954
 10
65.344041
 20
91.052271
 10
65.327545
 20
91.048521
 10
65.312549
 20
91.048508
 10
65.295899
 20
91.051789
  0
LWPOLYLINE
  5
C2B
100
AcDbEntity
  8
ALPHA
100
AcDbPolyline
 90
        3
 70
     0
 43
0.0
 10
66.265899
 20
88.672129
 10
66.243225
 20
88.672118
 10
66.22068
 20
88.672115
  0
LWPOLYLINE
  5
C30
100
AcDbEntity
  8
ALPHA
100
AcDbPolyline
 90
        3
 70
     0
 43
0.0
 10
65.571118
 20
88.672115
 10
65.895899
 20
88.649908
 10
66.22068
 20
88.672115
  0
LWPOLYLINE
  5
C35
100
AcDbEntity
  8
ALPHA
100
AcDbPolyline
 90
       10
 70
     0
 43
0.0
 10
66.507307
 20
90.463095
 10
66.529602
 20
90.525844
 10
66.545899
 20
90.668286
 10
66.529602
 20
90.810727
 10
66.481529
 20
90.946025
 10
66.40409
 20
91.067397
 10
66.301167
 20
91.168755
 10
66.177923
 20
91.245018
 10
66.040538
 20
91.292361
 10
65.895899
 20
91.308411
  0
LWPOLYLINE
  5
C41
100
AcDbEntity
  8
ALPHA
100
AcDbPolyline
 90
        4
 70
     0
 43
0.0
 10
65.895899
 20
90.028161
 10
66.040538
 20
90.04421
 10
66.177923
 20
90.091553
 10
66.265899
 20
90.145992
  0
LWPOLYLINE
  5
C47
100
AcDbEntity
  8
ALPHA
100
AcDbPolyline
 90
        3
 70
     0
 43
0.0
 10
65.571118
 20
88.672115
 10
65.548571
 20
88.672118
 10
65.525899
 20
88.672129
  0
LWPOLYLINE
  5
C4C
100
AcDbEntity
  8
ALPHA
100
AcDbPolyline
 90
       10
 70
     0
 43
0.0
 10
66.495899
 20
91.051789
 10
66.479296
 20
91.048513
 10
66.464259
 20
91.048521
 10
66.447694
 20
91.052294
 10
66.433358
 20
91.059598
 10
66.419621
 20
91.07173
 10
66.409231
 20
91.08666
 10
66.401487
 20
91.10506
 10
66.397466
 20
91.122638
 10
66.395899
 20
91.143761
  0
LWPOLYLINE
  5
C58
100
AcDbEntity
  8
ALPHA
100
AcDbPolyline
 90
       10
 70
     0
 43
0.0
 10
66.365899
 20
91.173305
 10
66.348485
 20
91.171092
 10
66.333248
 20
91.172502
 10
66.316182
 20
91.178377
 10
66.301246
 20
91.188308
 10
66.2878
 20
91.202972
 10
66.27825
 20
91.219203
 10
66.271039
 20
91.2388
 10
66.267295
 20
91.257243
 10
66.265899
 20
91.278295
  0
LWPOLYLINE
  5
C64
100
AcDbEntity
  8
ALPHA
100
AcDbPolyline
 90
       10
 70
     0
 43
0.0
 10
65.284492
 20
90.463095
 10
65.262196
 20
90.525844
 10
65.245899
 20
90.668286
 10
65.262196
 20
90.810727
 10
65.310269
 20
90.946025
 10
65.387709
 20
91.067397
 10
65.490631
 20
91.168755
 10
65.613875
 20
91.245018
 10
65.75126
 20
91.292361
 10
65.895899
 20
91.308411
  0
LWPOLYLINE
  5
C70
100
AcDbEntity
  8
ALPHA
100
AcDbPolyline
 90
        4
 70
     0
 43
0.0
 10
65.895899
 20
90.028161
 10
65.75126
 20
90.04421
 10
65.613875
 20
90.091553
 10
65.525899
 20
90.145992
  0
LWPOLYLINE
  5
C76
100
AcDbEntity
  8
ALPHA
100
AcDbPolyline
 90
        3
 70
     0
 43
0.0
 10
65.525899
 20
93.2565
 10
65.548571
 20
93.25653
 10
65.571118
 20
93.256539
  0
LWPOLYLINE
  5
C7B
100
AcDbEntity
  8
ALPHA
100
AcDbPolyline
 90
        9
 70
     0
 43
0.0
 10
63.59958
 20
90.471923
 10
63.699457
 20
90.14113
 10
63.848939
 20
89.827297
 10
64.044234
 20
89.539103
 10
64.281085
 20
89.282797
 10
64.554113
 20
89.064212
 10
64.857204
 20
88.888229
 10
65.183572
 20
88.758782
 10
65.525899
 20
88.678771
  0
LWPOLYLINE
  5
C86
100
AcDbEntity
  8
ALPHA
100
AcDbPolyline
 90
        3
 70
     0
 43
0.0
 10
66.22068
 20
93.256539
 10
65.895899
 20
93.278747
 10
65.571118
 20
93.256539
  0
LWPOLYLINE
  5
C8B
100
AcDbEntity
  8
ALPHA
100
AcDbPolyline
 90
        3
 70
     0
 43
0.0
 10
63.294533
 20
90.424369
 10
63.40151
 20
90.03862
 10
63.498051
 20
89.825748
  0
LWPOLYLINE
  5
C90
100
AcDbEntity
  8
ALPHA
100
AcDbPolyline
 90
        3
 70
     0
 43
0.0
 10
68.497265
 20
90.424369
 10
68.390288
 20
90.03862
 10
68.294013
 20
89.826334
  0
LWPOLYLINE
  5
C95
100
AcDbEntity
  8
ALPHA
100
AcDbPolyline
 90
        4
 70
     0
 43
0.0
 10
63.59599
 20
92.211158
 10
63.567095
 20
92.160042
 10
63.40151
 20
91.794926
 10
63.294533
 20
91.409177
  0
LINE
  5
C9B
100
AcDbEntity
  8
ALPHA
100
AcDbLine
 10
65.395899
 20
90.447364
 30
0.0
 11
65.22197
 21
90.471923
 31
0.0
  0
LWPOLYLINE
  5
C9C
100
AcDbEntity
  8
ALPHA
100
AcDbPolyline
 90
        5
 70
     0
 43
0.0
 10
65.425899
 20
90.450495
 10
65.456792
 20
90.449592
 10
65.48554
 20
90.440074
 10
65.509521
 20
90.421125
 10
65.523759
 20
90.393707
  0
LWPOLYLINE
  5
CA3
100
AcDbEntity
  8
ALPHA
100
AcDbPolyline
 90
        5
 70
     0
 43
0.0
 10
66.268039
 20
90.393707
 10
66.28228
 20
90.421128
 10
66.306263
 20
90.440076
 10
66.335006
 20
90.449593
 10
66.365899
 20
90.450495
  0
LINE
  5
CAA
100
AcDbEntity
  8
ALPHA
100
AcDbLine
 10
66.569828
 20
90.471923
 30
0.0
 11
66.395899
 21
90.447364
 31
0.0
  0
LINE
  5
CAB
100
AcDbEntity
  8
ALPHA
100
AcDbLine
 10
65.395899
 20
91.180579
 30
0.0
 11
65.395899
 21
91.143761
 31
0.0
  0
LINE
  5
CAC
100
AcDbEntity
  8
ALPHA
100
AcDbLine
 10
65.395899
 20
91.270904
 30
0.0
 11
65.395899
 21
91.180579
 31
0.0
  0
LINE
  5
CAD
100
AcDbEntity
  8
ALPHA
100
AcDbLine
 10
65.395899
 20
91.300448
 30
0.0
 11
65.395899
 21
91.270904
 31
0.0
  0
LINE
  5
CAE
100
AcDbEntity
  8
ALPHA
100
AcDbLine
 10
65.525899
 20
91.534948
 30
0.0
 11
65.525899
 21
91.278295
 31
0.0
  0
LINE
  5
CAF
100
AcDbEntity
  8
ALPHA
100
AcDbLine
 10
66.395899
 20
91.180579
 30
0.0
 11
66.395899
 21
91.143761
 31
0.0
  0
LINE
  5
CB0
100
AcDbEntity
  8
ALPHA
100
AcDbLine
 10
66.395899
 20
91.270904
 30
0.0
 11
66.395899
 21
91.180579
 31
0.0
  0
LINE
  5
CB1
100
AcDbEntity
  8
ALPHA
100
AcDbLine
 10
66.395899
 20
91.270904
 30
0.0
 11
66.395899
 21
91.300448
 31
0.0
  0
LINE
  5
CB2
100
AcDbEntity
  8
ALPHA
100
AcDbLine
 10
66.265899
 20
90.096526
 30
0.0
 11
66.265899
 21
88.678771
 31
0.0
  0
LINE
  5
CB3
100
AcDbEntity
  8
ALPHA
100
AcDbLine
 10
66.265899
 20
90.373443
 30
0.0
 11
66.265899
 21
90.096526
 31
0.0
  0
LINE
  5
CB4
100
AcDbEntity
  8
ALPHA
100
AcDbLine
 10
66.265899
 20
91.534948
 30
0.0
 11
66.265899
 21
91.278295
 31
0.0
  0
LINE
  5
CB5
100
AcDbEntity
  8
ALPHA
100
AcDbLine
 10
66.265899
 20
93.249883
 30
0.0
 11
66.265899
 21
91.555212
 31
0.0
  0
LINE
  5
CB6
100
AcDbEntity
  8
ALPHA
100
AcDbLine
 10
65.525899
 20
88.678771
 30
0.0
 11
65.525899
 21
90.373443
 31
0.0
  0
LINE
  5
CB7
100
AcDbEntity
  8
ALPHA
100
AcDbLine
 10
65.525899
 20
91.555212
 30
0.0
 11
65.525899
 21
93.249883
 31
0.0
  0
LINE
  5
CB8
100
AcDbEntity
  8
ALPHA
100
AcDbLine
 10
68.195808
 20
92.211158
 30
0.0
 11
68.326926
 21
91.985209
 31
0.0
  0
LWPOLYLINE
  5
CB9
100
AcDbEntity
  8
ALPHA
100
AcDbPolyline
 90
        4
 70
     0
 43
0.0
 10
63.294533
 20
90.424369
 10
63.276002
 20
90.388246
 10
63.257415
 20
90.352003
 10
63.238771
 20
90.31564
  0
LINE
  5
CBF
100
AcDbEntity
  8
ALPHA
100
AcDbLine
 10
65.395899
 20
90.447364
 30
0.0
 11
65.425899
 21
90.450495
 31
0.0
  0
LWPOLYLINE
  5
CC0
100
AcDbEntity
  8
ALPHA
100
AcDbPolyline
 90
        4
 70
     0
 43
0.0
 10
68.553027
 20
90.31564
 10
68.534383
 20
90.352002
 10
68.515796
 20
90.388245
 10
68.497265
 20
90.424369
  0
LWPOLYLINE
  5
CC6
100
AcDbEntity
  8
ALPHA
100
AcDbPolyline
 90
        3
 70
     0
 43
0.0
 10
68.672579
 20
90.908839
 10
68.695899
 20
90.617031
 10
68.694199
 20
90.595762
  0
LWPOLYLINE
  5
CCB
100
AcDbEntity
  8
ALPHA
100
AcDbPolyline
 90
        5
 70
     0
 43
0.0
 10
68.326975
 20
91.985067
 10
68.390717
 20
91.868892
 10
68.558857
 20
91.469133
 10
68.661426
 20
91.048393
 10
68.672579
 20
90.908839
  0
LINE
  5
CD2
100
AcDbEntity
  8
ALPHA
100
AcDbLine
 10
66.365899
 20
90.450495
 30
0.0
 11
66.395899
 21
90.447364
 31
0.0
  0
LWPOLYLINE
  5
CD3
100
AcDbEntity
  8
ALPHA
100
AcDbPolyline
 90
       15
 70
     0
 43
0.0
 10
63.59606
 20
92.211279
 10
63.795844
 20
92.506921
 10
64.0713
 20
92.808326
 10
64.390713
 20
93.06404
 10
64.746598
 20
93.268007
 10
65.130195
 20
93.41515
 10
65.532266
 20
93.501925
 10
65.943132
 20
93.526237
 10
66.35282
 20
93.487501
 10
66.751364
 20
93.386697
 10
67.129254
 20
93.226269
 10
67.477333
 20
93.010143
 10
67.787194
 20
92.743617
 10
68.051544
 20
92.433017
 10
68.195741
 20
92.211273
  0
LINE
  5
CE4
100
AcDbEntity
  8
ALPHA
100
AcDbLine
 10
63.59599
 20
92.211158
 30
0.0
 11
63.464873
 21
91.985209
 31
0.0
  0
LWPOLYLINE
  5
CE5
100
AcDbEntity
  8
ALPHA
100
AcDbPolyline
 90
        3
 70
     0
 43
0.0
 10
63.095899
 20
90.617032
 10
63.095899
 20
90.617031
 10
63.101069
 20
90.552334
  0
LWPOLYLINE
  5
CEA
100
AcDbEntity
  8
ALPHA
100
AcDbPolyline
 90
        5
 70
     0
 43
0.0
 10
63.464823
 20
91.985067
 10
63.401081
 20
91.868892
 10
63.232941
 20
91.469133
 10
63.130372
 20
91.048393
 10
63.095899
 20
90.617032
  0
LWPOLYLINE
  5
CF1
100
AcDbEntity
  8
ALPHA
100
AcDbPolyline
 90
        3
 70
     0
 43
0.0
 10
66.265899
 20
90.373443
 10
66.26645
 20
90.38377
 10
66.268039
 20
90.393707
  0
LWPOLYLINE
  5
CF6
100
AcDbEntity
  8
ALPHA
100
AcDbPolyline
 90
        3
 70
     0
 43
0.0
 10
65.523759
 20
90.393707
 10
65.525348
 20
90.38377
 10
65.525899
 20
90.373443
  0
LINE
  5
CFB
100
AcDbEntity
  8
ALPHA
100
AcDbLine
 10
65.22197
 20
90.471923
 30
0.0
 11
63.59958
 21
90.471923
 31
0.0
  0
LINE
  5
CFC
100
AcDbEntity
  8
ALPHA
100
AcDbLine
 10
68.192218
 20
90.471923
 30
0.0
 11
66.569828
 21
90.471923
 31
0.0
  0
LINE
  5
CFD
100
AcDbEntity
  8
ALPHA
100
AcDbLine
 10
65.525899
 20
91.534948
 30
0.0
 11
65.525899
 21
91.278295
 31
0.0
  0
LINE
  5
CFE
100
AcDbEntity
  8
ALPHA
100
AcDbLine
 10
65.525899
 20
88.672129
 30
0.0
 11
65.525899
 21
88.678771
 31
0.0
  0
LWPOLYLINE
  5
CFF
100
AcDbEntity
  8
ALPHA
100
AcDbPolyline
 90
        7
 70
     0
 43
0.0
 10
63.59958
 20
90.471923
 10
63.524484
 20
90.470339
 10
63.452971
 20
90.465582
 10
63.391946
 20
90.458143
 10
63.343427
 20
90.448399
 10
63.309922
 20
90.436742
 10
63.294533
 20
90.424369
  0
LWPOLYLINE
  5
D08
100
AcDbEntity
  8
ALPHA
100
AcDbPolyline
 90
        7
 70
     0
 43
0.0
 10
68.497265
 20
90.424369
 10
68.481876
 20
90.436742
 10
68.448371
 20
90.448399
 10
68.399853
 20
90.458143
 10
68.338827
 20
90.465582
 10
68.267314
 20
90.470339
 10
68.192218
 20
90.471923
  0
LINE
  5
D11
100
AcDbEntity
  8
ALPHA
100
AcDbLine
 10
66.265899
 20
88.678771
 30
0.0
 11
66.265899
 21
88.672129
 31
0.0
  0
LINE
  5
D12
100
AcDbEntity
  8
ALPHA
100
AcDbLine
 10
65.525899
 20
93.249883
 30
0.0
 11
65.525899
 21
93.2565
 31
0.0
  0
LINE
  5
D13
100
AcDbEntity
  8
ALPHA
100
AcDbLine
 10
66.265899
 20
93.2565
 30
0.0
 11
66.265899
 21
93.249883
 31
0.0
  0
LINE
  5
D14
100
AcDbEntity
  8
ALPHA
100
AcDbLine
 10
65.395899
 20
91.180579
 30
0.0
 11
65.395899
 21
91.143761
 31
0.0
  0
LINE
  5
D15
100
AcDbEntity
  8
ALPHA
100
AcDbLine
 10
65.395899
 20
91.270904
 30
0.0
 11
65.395899
 21
91.180579
 31
0.0
  0
LINE
  5
D16
100
AcDbEntity
  8
ALPHA
100
AcDbLine
 10
58.692013
 20
90.561628
 30
0.0
 11
58.695899
 21
90.664936
 31
0.0
  0
LINE
  5
D17
100
AcDbEntity
  8
ALPHA
100
AcDbLine
 10
58.616086
 20
91.282287
 30
0.0
 11
58.647633
 21
91.282287
 31
0.0
  0
LINE
  5
D18
100
AcDbEntity
  8
ALPHA
100
AcDbLine
 10
53.144165
 20
91.282287
 30
0.0
 11
53.175712
 21
91.282287
 31
0.0
  0
LWPOLYLINE
  5
D19
100
AcDbEntity
  8
ALPHA
100
AcDbPolyline
 90
        3
 70
     0
 43
0.0
 10
58.695899
 20
90.664936
 10
58.683938
 20
90.976988
 10
58.647633
 20
91.282287
  0
LWPOLYLINE
  5
D1E
100
AcDbEntity
  8
ALPHA
100
AcDbPolyline
 90
        3
 70
     0
 43
0.0
 10
53.144165
 20
91.282287
 10
53.121802
 20
91.121235
 10
53.106417
 20
90.957768
  0
LWPOLYLINE
  5
D23
100
AcDbEntity
  8
ALPHA
100
AcDbPolyline
 90
        4
 70
     0
 43
0.0
 10
58.647633
 20
91.282287
 10
58.639724
 20
91.329196
 10
58.631182
 20
91.376263
 10
58.622007
 20
91.42348
  0
LWPOLYLINE
  5
D29
100
AcDbEntity
  8
ALPHA
100
AcDbPolyline
 90
        3
 70
     0
 43
0.0
 10
58.223712
 20
92.279517
 10
58.07014
 20
92.489042
 10
57.90115
 20
92.658557
  0
LWPOLYLINE
  5
D2E
100
AcDbEntity
  8
ALPHA
100
AcDbPolyline
 90
        4
 70
     0
 43
0.0
 10
58.622007
 20
91.42348
 10
58.495161
 20
91.804186
 10
58.309321
 20
92.162717
 10
58.223712
 20
92.279517
  0
LWPOLYLINE
  5
D34
100
AcDbEntity
  8
ALPHA
100
AcDbPolyline
 90
        4
 70
     0
 43
0.0
 10
53.568116
 20
92.279682
 10
53.483491
 20
92.164347
 10
53.297376
 20
91.80593
 10
53.169791
 20
91.42348
  0
LWPOLYLINE
  5
D3A
100
AcDbEntity
  8
ALPHA
100
AcDbPolyline
 90
        3
 70
     0
 43
0.0
 10
53.896686
 20
92.664697
 10
53.722169
 20
92.489638
 10
53.568116
 20
92.279682
  0
LWPOLYLINE
  5
D3F
100
AcDbEntity
  8
ALPHA
100
AcDbPolyline
 90
        4
 70
     0
 43
0.0
 10
53.169791
 20
91.42348
 10
53.160616
 20
91.376263
 10
53.152074
 20
91.329196
 10
53.144165
 20
91.282287
  0
LINE
  5
D45
100
AcDbEntity
  8
ALPHA
100
AcDbLine
 10
78.692013
 20
90.561628
 30
0.0
 11
78.695899
 21
90.664936
 31
0.0
  0
LINE
  5
D46
100
AcDbEntity
  8
ALPHA
100
AcDbLine
 10
78.616086
 20
91.282287
 30
0.0
 11
78.647633
 21
91.282287
 31
0.0
  0
LINE
  5
D47
100
AcDbEntity
  8
ALPHA
100
AcDbLine
 10
73.144165
 20
91.282287
 30
0.0
 11
73.175712
 21
91.282287
 31
0.0
  0
LWPOLYLINE
  5
D48
100
AcDbEntity
  8
ALPHA
100
AcDbPolyline
 90
        3
 70
     0
 43
0.0
 10
78.695899
 20
90.664936
 10
78.683938
 20
90.976988
 10
78.647633
 20
91.282287
  0
LWPOLYLINE
  5
D4D
100
AcDbEntity
  8
ALPHA
100
AcDbPolyline
 90
        3
 70
     0
 43
0.0
 10
73.144165
 20
91.282287
 10
73.121802
 20
91.121235
 10
73.106417
 20
90.957768
  0
LWPOLYLINE
  5
D52
100
AcDbEntity
  8
ALPHA
100
AcDbPolyline
 90
        4
 70
     0
 43
0.0
 10
78.647633
 20
91.282287
 10
78.639724
 20
91.329196
 10
78.631182
 20
91.376263
 10
78.622007
 20
91.42348
  0
LWPOLYLINE
  5
D58
100
AcDbEntity
  8
ALPHA
100
AcDbPolyline
 90
        3
 70
     0
 43
0.0
 10
78.223712
 20
92.279517
 10
78.07014
 20
92.489042
 10
77.90115
 20
92.658557
  0
LWPOLYLINE
  5
D5D
100
AcDbEntity
  8
ALPHA
100
AcDbPolyline
 90
        4
 70
     0
 43
0.0
 10
78.622007
 20
91.42348
 10
78.495161
 20
91.804186
 10
78.309321
 20
92.162717
 10
78.223712
 20
92.279517
  0
LWPOLYLINE
  5
D63
100
AcDbEntity
  8
ALPHA
100
AcDbPolyline
 90
        4
 70
     0
 43
0.0
 10
73.568116
 20
92.279682
 10
73.483491
 20
92.164347
 10
73.297376
 20
91.80593
 10
73.169791
 20
91.42348
  0
LWPOLYLINE
  5
D69
100
AcDbEntity
  8
ALPHA
100
AcDbPolyline
 90
        3
 70
     0
 43
0.0
 10
73.896686
 20
92.664697
 10
73.722169
 20
92.489638
 10
73.568116
 20
92.279682
  0
LWPOLYLINE
  5
D6E
100
AcDbEntity
  8
ALPHA
100
AcDbPolyline
 90
        4
 70
     0
 43
0.0
 10
73.169791
 20
91.42348
 10
73.160616
 20
91.376263
 10
73.152074
 20
91.329196
 10
73.144165
 20
91.282287
  0
LINE
  5
D74
100
AcDbEntity
  8
ALPHA
100
AcDbLine
 10
63.095899
 20
90.617032
 30
0.0
 11
63.098044
 21
90.560006
 31
0.0
  0
LINE
  5
D75
100
AcDbEntity
  8
ALPHA
100
AcDbLine
 10
63.175712
 20
91.234381
 30
0.0
 11
63.144165
 21
91.234381
 31
0.0
  0
LINE
  5
D76
100
AcDbEntity
  8
ALPHA
100
AcDbLine
 10
68.647633
 20
91.234381
 30
0.0
 11
68.616086
 21
91.234381
 31
0.0
  0
LWPOLYLINE
  5
D77
100
AcDbEntity
  8
ALPHA
100
AcDbPolyline
 90
        4
 70
     0
 43
0.0
 10
68.647633
 20
91.234381
 10
68.639724
 20
91.281289
 10
68.631182
 20
91.328356
 10
68.622007
 20
91.375574
  0
LWPOLYLINE
  5
D7D
100
AcDbEntity
  8
ALPHA
100
AcDbPolyline
 90
        3
 70
     0
 43
0.0
 10
68.223634
 20
92.231717
 10
68.07014
 20
92.441136
 10
67.895756
 20
92.616062
  0
LWPOLYLINE
  5
D82
100
AcDbEntity
  8
ALPHA
100
AcDbPolyline
 90
        4
 70
     0
 43
0.0
 10
68.622007
 20
91.375574
 10
68.495161
 20
91.75628
 10
68.309321
 20
92.114811
 10
68.223634
 20
92.231717
  0
LWPOLYLINE
  5
D88
100
AcDbEntity
  8
ALPHA
100
AcDbPolyline
 90
        4
 70
     0
 43
0.0
 10
63.568037
 20
92.231668
 10
63.483491
 20
92.116441
 10
63.297376
 20
91.758024
 10
63.169791
 20
91.375574
  0
LWPOLYLINE
  5
D8E
100
AcDbEntity
  8
ALPHA
100
AcDbPolyline
 90
        3
 70
     0
 43
0.0
 10
63.891507
 20
92.611595
 10
63.722169
 20
92.441732
 10
63.568037
 20
92.231668
  0
LWPOLYLINE
  5
D93
100
AcDbEntity
  8
ALPHA
100
AcDbPolyline
 90
        4
 70
     0
 43
0.0
 10
63.169791
 20
91.375574
 10
63.160616
 20
91.328356
 10
63.152074
 20
91.281289
 10
63.144165
 20
91.234381
  0
LWPOLYLINE
  5
D99
100
AcDbEntity
  8
ALPHA
100
AcDbPolyline
 90
        3
 70
     0
 43
0.0
 10
68.685381
 20
90.909862
 10
68.669997
 20
91.073327
 10
68.647633
 20
91.234381
  0
LWPOLYLINE
  5
D9E
100
AcDbEntity
  8
ALPHA
100
AcDbPolyline
 90
        3
 70
     0
 43
0.0
 10
63.144165
 20
91.234381
 10
63.107859
 20
90.929064
 10
63.095899
 20
90.617032
  0
LINE
  5
DA3
100
AcDbEntity
  8
ALPHA
100
AcDbLine
 10
54.345899
 20
98.040413
 30
0.0
 11
54.345899
 21
102.040413
 31
0.0
  0
LINE
  5
DA4
100
AcDbEntity
  8
ALPHA
100
AcDbLine
 10
53.845899
 20
98.040413
 30
0.0
 11
53.845899
 21
102.040413
 31
0.0
  0
LINE
  5
DA5
100
AcDbEntity
  8
ALPHA
100
AcDbLine
 10
57.945899
 20
98.040413
 30
0.0
 11
57.945899
 21
102.040413
 31
0.0
  0
LINE
  5
DA6
100
AcDbEntity
  8
ALPHA
100
AcDbLine
 10
57.445899
 20
98.040413
 30
0.0
 11
57.445899
 21
102.040413
 31
0.0
  0
LINE
  5
DA7
100
AcDbEntity
  8
ALPHA
100
AcDbLine
 10
54.345899
 20
98.040413
 30
0.0
 11
57.445899
 21
98.040413
 31
0.0
  0
LINE
  5
DA8
100
AcDbEntity
  8
ALPHA
100
AcDbLine
 10
53.845899
 20
98.040413
 30
0.0
 11
54.345899
 21
98.040413
 31
0.0
  0
LINE
  5
DA9
100
AcDbEntity
  8
ALPHA
100
AcDbLine
 10
57.445899
 20
98.040413
 30
0.0
 11
57.945899
 21
98.040413
 31
0.0
  0
LINE
  5
DAA
100
AcDbEntity
  8
ALPHA
100
AcDbLine
 10
53.845899
 20
98.040413
 30
0.0
 11
52.145899
 21
98.040413
 31
0.0
  0
LINE
  5
DAB
100
AcDbEntity
  8
ALPHA
100
AcDbLine
 10
59.645899
 20
98.040413
 30
0.0
 11
57.945899
 21
98.040413
 31
0.0
  0
LINE
  5
DAC
100
AcDbEntity
  8
ALPHA
100
AcDbLine
 10
59.645899
 20
102.040413
 30
0.0
 11
57.945899
 21
102.040413
 31
0.0
  0
LINE
  5
DAD
100
AcDbEntity
  8
ALPHA
100
AcDbLine
 10
57.445899
 20
102.040413
 30
0.0
 11
57.945899
 21
102.040413
 31
0.0
  0
LINE
  5
DAE
100
AcDbEntity
  8
ALPHA
100
AcDbLine
 10
54.345899
 20
102.040413
 30
0.0
 11
57.445899
 21
102.040413
 31
0.0
  0
LINE
  5
DAF
100
AcDbEntity
  8
ALPHA
100
AcDbLine
 10
53.845899
 20
102.040413
 30
0.0
 11
54.345899
 21
102.040413
 31
0.0
  0
LINE
  5
DB0
100
AcDbEntity
  8
ALPHA
100
AcDbLine
 10
53.845899
 20
102.040413
 30
0.0
 11
52.145899
 21
102.040413
 31
0.0
  0
LINE
  5
DB1
100
AcDbEntity
  8
ALPHA
100
AcDbLine
 10
52.145899
 20
98.040413
 30
0.0
 11
52.145899
 21
102.040413
 31
0.0
  0
LINE
  5
DB2
100
AcDbEntity
  8
ALPHA
100
AcDbLine
 10
59.645899
 20
98.040413
 30
0.0
 11
59.645899
 21
102.040413
 31
0.0
  0
LINE
  5
DB3
100
AcDbEntity
  8
ALPHA
100
AcDbLine
 10
74.345899
 20
98.040413
 30
0.0
 11
74.345899
 21
102.040413
 31
0.0
  0
LINE
  5
DB4
100
AcDbEntity
  8
ALPHA
100
AcDbLine
 10
73.845899
 20
98.040413
 30
0.0
 11
73.845899
 21
102.040413
 31
0.0
  0
LINE
  5
DB5
100
AcDbEntity
  8
ALPHA
100
AcDbLine
 10
77.945899
 20
98.040413
 30
0.0
 11
77.945899
 21
102.040413
 31
0.0
  0
LINE
  5
DB6
100
AcDbEntity
  8
ALPHA
100
AcDbLine
 10
77.445899
 20
98.040413
 30
0.0
 11
77.445899
 21
102.040413
 31
0.0
  0
LINE
  5
DB7
100
AcDbEntity
  8
ALPHA
100
AcDbLine
 10
74.345899
 20
98.040413
 30
0.0
 11
77.445899
 21
98.040413
 31
0.0
  0
LINE
  5
DB8
100
AcDbEntity
  8
ALPHA
100
AcDbLine
 10
73.845899
 20
98.040413
 30
0.0
 11
74.345899
 21
98.040413
 31
0.0
  0
LINE
  5
DB9
100
AcDbEntity
  8
ALPHA
100
AcDbLine
 10
77.445899
 20
98.040413
 30
0.0
 11
77.945899
 21
98.040413
 31
0.0
  0
LINE
  5
DBA
100
AcDbEntity
  8
ALPHA
100
AcDbLine
 10
73.845899
 20
98.040413
 30
0.0
 11
72.145899
 21
98.040413
 31
0.0
  0
LINE
  5
DBB
100
AcDbEntity
  8
ALPHA
100
AcDbLine
 10
79.645899
 20
98.040413
 30
0.0
 11
77.945899
 21
98.040413
 31
0.0
  0
LINE
  5
DBC
100
AcDbEntity
  8
ALPHA
100
AcDbLine
 10
79.645899
 20
102.040413
 30
0.0
 11
77.945899
 21
102.040413
 31
0.0
  0
LINE
  5
DBD
100
AcDbEntity
  8
ALPHA
100
AcDbLine
 10
77.445899
 20
102.040413
 30
0.0
 11
77.945899
 21
102.040413
 31
0.0
  0
LINE
  5
DBE
100
AcDbEntity
  8
ALPHA
100
AcDbLine
 10
74.345899
 20
102.040413
 30
0.0
 11
77.445899
 21
102.040413
 31
0.0
  0
LINE
  5
DBF
100
AcDbEntity
  8
ALPHA
100
AcDbLine
 10
73.845899
 20
102.040413
 30
0.0
 11
74.345899
 21
102.040413
 31
0.0
  0
LINE
  5
DC0
100
AcDbEntity
  8
ALPHA
100
AcDbLine
 10
73.845899
 20
102.040413
 30
0.0
 11
72.145899
 21
102.040413
 31
0.0
  0
LINE
  5
DC1
100
AcDbEntity
  8
ALPHA
100
AcDbLine
 10
72.145899
 20
98.040413
 30
0.0
 11
72.145899
 21
102.040413
 31
0.0
  0
LINE
  5
DC2
100
AcDbEntity
  8
ALPHA
100
AcDbLine
 10
79.645899
 20
98.040413
 30
0.0
 11
79.645899
 21
102.040413
 31
0.0
  0
LINE
  5
DC3
100
AcDbEntity
  8
ALPHA
100
AcDbLine
 10
57.062625
 20
110.729855
 30
0.0
 11
56.395899
 21
110.097818
 31
0.0
  0
LWPOLYLINE
  5
DC4
100
AcDbEntity
  8
ALPHA
100
AcDbPolyline
 90
        3
 70
     0
 43
0.0
 10
55.571118
 20
107.288642
 10
55.548573
 20
107.288651
 10
55.525899
 20
107.288681
  0
LINE
  5
DC9
100
AcDbEntity
  8
ALPHA
100
AcDbLine
 10
54.729173
 20
110.729855
 30
0.0
 11
55.395899
 21
110.097818
 31
0.0
  0
LWPOLYLINE
  5
DCA
100
AcDbEntity
  8
ALPHA
100
AcDbPolyline
 90
        5
 70
     0
 43
0.0
 10
56.268039
 20
109.010234
 10
56.28228
 20
109.050305
 10
56.306267
 20
109.081444
 10
56.33501
 20
109.101149
 10
56.365899
 20
109.109879
  0
LINE
  5
DD1
100
AcDbEntity
  8
ALPHA
100
AcDbLine
 10
57.062625
 20
108.431853
 30
0.0
 11
56.395899
 21
109.11301
 31
0.0
  0
LINE
  5
DD2
100
AcDbEntity
  8
ALPHA
100
AcDbLine
 10
56.569828
 20
109.088451
 30
0.0
 11
56.395899
 21
109.11301
 31
0.0
  0
LWPOLYLINE
  5
DD3
100
AcDbEntity
  8
ALPHA
100
AcDbPolyline
 90
        5
 70
     0
 43
0.0
 10
56.879912
 20
109.372759
 10
56.776532
 20
109.40622
 10
56.67828
 20
109.437476
 10
56.584849
 20
109.466538
 10
56.495899
 20
109.493392
  0
LINE
  5
DDA
100
AcDbEntity
  8
ALPHA
100
AcDbLine
 10
56.495899
 20
109.372759
 30
0.0
 11
56.495899
 21
109.493392
 31
0.0
  0
LINE
  5
DDB
100
AcDbEntity
  8
ALPHA
100
AcDbLine
 10
56.495899
 20
109.372759
 30
0.0
 11
56.879912
 21
109.372759
 31
0.0
  0
LWPOLYLINE
  5
DDC
100
AcDbEntity
  8
ALPHA
100
AcDbPolyline
 90
        3
 70
     0
 43
0.0
 10
53.759068
 20
110.529203
 10
53.699457
 20
110.404051
 10
53.59958
 20
110.073258
  0
LINE
  5
DE1
100
AcDbEntity
  8
ALPHA
100
AcDbLine
 10
53.784466
 20
110.582525
 30
0.0
 11
53.759068
 21
110.529203
 31
0.0
  0
LWPOLYLINE
  5
DE2
100
AcDbEntity
  8
ALPHA
100
AcDbPolyline
 90
        5
 70
     0
 43
0.0
 10
55.425899
 20
109.109879
 10
55.456792
 20
109.101147
 10
55.48554
 20
109.081436
 10
55.509521
 20
109.0503
 10
55.523759
 20
109.010234
  0
LINE
  5
DE9
100
AcDbEntity
  8
ALPHA
100
AcDbLine
 10
55.395899
 20
109.11301
 30
0.0
 11
55.22197
 21
109.088451
 31
0.0
  0
LINE
  5
DEA
100
AcDbEntity
  8
ALPHA
100
AcDbLine
 10
55.425899
 20
109.109879
 30
0.0
 11
55.425899
 21
109.371877
 31
0.0
  0
LWPOLYLINE
  5
DEB
100
AcDbEntity
  8
ALPHA
100
AcDbPolyline
 90
        3
 70
     0
 43
0.0
 10
55.425899
 20
109.371877
 10
55.410934
 20
109.368277
 10
55.395899
 20
109.364603
  0
LINE
  5
DF0
100
AcDbEntity
  8
ALPHA
100
AcDbLine
 10
54.729173
 20
108.431853
 30
0.0
 11
55.395899
 21
109.11301
 31
0.0
  0
LINE
  5
DF1
100
AcDbEntity
  8
ALPHA
100
AcDbLine
 10
53.238771
 20
109.244734
 30
0.0
 11
55.395899
 21
109.244734
 31
0.0
  0
LWPOLYLINE
  5
DF2
100
AcDbEntity
  8
ALPHA
100
AcDbPolyline
 90
        4
 70
     0
 43
0.0
 10
53.294533
 20
109.136005
 10
53.276002
 20
109.172128
 10
53.257415
 20
109.208371
 10
53.238771
 20
109.244734
  0
LINE
  5
DF8
100
AcDbEntity
  8
ALPHA
100
AcDbLine
 10
55.395899
 20
109.11301
 30
0.0
 11
55.425899
 21
109.109879
 31
0.0
  0
LWPOLYLINE
  5
DF9
100
AcDbEntity
  8
ALPHA
100
AcDbPolyline
 90
        4
 70
     0
 43
0.0
 10
58.553027
 20
109.244734
 10
58.534383
 20
109.208372
 10
58.515796
 20
109.172129
 10
58.497265
 20
109.136005
  0
LINE
  5
DFF
100
AcDbEntity
  8
ALPHA
100
AcDbLine
 10
56.395899
 20
109.244734
 30
0.0
 11
58.553027
 21
109.244734
 31
0.0
  0
LWPOLYLINE
  5
E00
100
AcDbEntity
  8
ALPHA
100
AcDbPolyline
 90
        3
 70
     0
 43
0.0
 10
56.395899
 20
109.364603
 10
56.380869
 20
109.368276
 10
56.365899
 20
109.371877
  0
LINE
  5
E05
100
AcDbEntity
  8
ALPHA
100
AcDbLine
 10
56.365899
 20
109.109879
 30
0.0
 11
56.365899
 21
109.371877
 31
0.0
  0
LINE
  5
E06
100
AcDbEntity
  8
ALPHA
100
AcDbLine
 10
56.365899
 20
109.109879
 30
0.0
 11
56.395899
 21
109.11301
 31
0.0
  0
LWPOLYLINE
  5
E07
100
AcDbEntity
  8
ALPHA
100
AcDbPolyline
 90
        5
 70
     0
 43
0.0
 10
53.238771
 20
109.244734
 10
53.203842
 20
109.48964
 10
53.192137
 20
109.737138
 10
53.203842
 20
109.984635
 10
53.206471
 20
110.003067
  0
LWPOLYLINE
  5
E0E
100
AcDbEntity
  8
ALPHA
100
AcDbPolyline
 90
        6
 70
     0
 43
0.0
 10
56.395899
 20
109.274278
 10
56.400793
 20
109.30471
 10
56.414997
 20
109.332164
 10
56.437121
 20
109.353951
 10
56.464997
 20
109.367939
 10
56.495899
 20
109.372759
  0
LINE
  5
E16
100
AcDbEntity
  8
ALPHA
100
AcDbLine
 10
55.295899
 20
109.372759
 30
0.0
 11
55.295899
 21
109.493392
 31
0.0
  0
LWPOLYLINE
  5
E17
100
AcDbEntity
  8
ALPHA
100
AcDbPolyline
 90
        5
 70
     0
 43
0.0
 10
55.295899
 20
109.493392
 10
55.207074
 20
109.466576
 10
55.113684
 20
109.437528
 10
55.01539
 20
109.406259
 10
54.911886
 20
109.372759
  0
LINE
  5
E1E
100
AcDbEntity
  8
ALPHA
100
AcDbLine
 10
54.911886
 20
109.372759
 30
0.0
 11
55.295899
 21
109.372759
 31
0.0
  0
LWPOLYLINE
  5
E1F
100
AcDbEntity
  8
ALPHA
100
AcDbPolyline
 90
        5
 70
     0
 43
0.0
 10
54.911886
 20
109.372759
 10
54.861575
 20
109.551964
 10
54.844623
 20
109.737138
 10
54.861575
 20
109.922312
 10
54.903952
 20
110.073258
  0
LWPOLYLINE
  5
E26
100
AcDbEntity
  8
ALPHA
100
AcDbPolyline
 90
        6
 70
     0
 43
0.0
 10
55.295899
 20
109.372759
 10
55.326801
 20
109.367939
 10
55.354678
 20
109.353951
 10
55.376801
 20
109.332164
 10
55.391005
 20
109.30471
 10
55.395899
 20
109.274278
  0
LWPOLYLINE
  5
E2E
100
AcDbEntity
  8
ALPHA
100
AcDbPolyline
 90
        5
 70
     0
 43
0.0
 10
58.586165
 20
109.997192
 10
58.587956
 20
109.984635
 10
58.599662
 20
109.737138
 10
58.587956
 20
109.48964
 10
58.553027
 20
109.244734
  0
LWPOLYLINE
  5
E35
100
AcDbEntity
  8
ALPHA
100
AcDbPolyline
 90
        5
 70
     0
 43
0.0
 10
56.887846
 20
110.073258
 10
56.930223
 20
109.922312
 10
56.947176
 20
109.737138
 10
56.930223
 20
109.551964
 10
56.879912
 20
109.372759
  0
LWPOLYLINE
  5
E3C
100
AcDbEntity
  8
ALPHA
100
AcDbPolyline
 90
        9
 70
     0
 43
0.0
 10
53.59958
 20
109.088451
 10
53.699457
 20
108.757657
 10
53.848939
 20
108.443824
 10
54.044234
 20
108.15563
 10
54.281085
 20
107.899324
 10
54.554113
 20
107.68074
 10
54.857204
 20
107.504756
 10
55.183572
 20
107.375309
 10
55.525899
 20
107.295298
  0
LWPOLYLINE
  5
E47
100
AcDbEntity
  8
ALPHA
100
AcDbPolyline
 90
        4
 70
     0
 43
0.0
 10
55.895899
 20
110.772443
 10
56.021903
 20
110.76498
 10
56.145557
 20
110.742825
 10
56.265899
 20
110.706202
  0
LWPOLYLINE
  5
E4D
100
AcDbEntity
  8
ALPHA
100
AcDbPolyline
 90
        4
 70
     0
 43
0.0
 10
55.525899
 20
110.706202
 10
55.646241
 20
110.742825
 10
55.769895
 20
110.76498
 10
55.895899
 20
110.772443
  0
LWPOLYLINE
  5
E53
100
AcDbEntity
  8
ALPHA
100
AcDbPolyline
 90
        4
 70
     0
 43
0.0
 10
56.265899
 20
108.768074
 10
56.145557
 20
108.73145
 10
56.021903
 20
108.709296
 10
55.895899
 20
108.701832
  0
LWPOLYLINE
  5
E59
100
AcDbEntity
  8
ALPHA
100
AcDbPolyline
 90
        4
 70
     0
 43
0.0
 10
55.895899
 20
108.701832
 10
55.769895
 20
108.709296
 10
55.646241
 20
108.73145
 10
55.525899
 20
108.768074
  0
LINE
  5
E5F
100
AcDbEntity
  8
ALPHA
100
AcDbLine
 10
55.525899
 20
107.767522
 30
0.0
 11
56.265899
 21
107.767522
 31
0.0
  0
LWPOLYLINE
  5
E60
100
AcDbEntity
  8
ALPHA
100
AcDbPolyline
 90
        7
 70
     0
 43
0.0
 10
53.59958
 20
109.088451
 10
53.524484
 20
109.090035
 10
53.452971
 20
109.094792
 10
53.391946
 20
109.10223
 10
53.343427
 20
109.111975
 10
53.309922
 20
109.123631
 10
53.294533
 20
109.136005
  0
LINE
  5
E69
100
AcDbEntity
  8
ALPHA
100
AcDbLine
 10
56.22068
 20
107.288642
 30
0.0
 11
55.571118
 21
107.288642
 31
0.0
  0
LINE
  5
E6A
100
AcDbEntity
  8
ALPHA
100
AcDbLine
 10
56.569828
 20
109.088451
 30
0.0
 11
58.192218
 21
109.088451
 31
0.0
  0
LINE
  5
E6B
100
AcDbEntity
  8
ALPHA
100
AcDbLine
 10
57.062625
 20
108.431853
 30
0.0
 11
56.569828
 21
109.088451
 31
0.0
  0
LINE
  5
E6C
100
AcDbEntity
  8
ALPHA
100
AcDbLine
 10
56.276282
 20
109.004234
 30
0.0
 11
56.268039
 21
109.010234
 31
0.0
  0
LINE
  5
E6D
100
AcDbEntity
  8
ALPHA
100
AcDbLine
 10
57.062625
 20
108.431853
 30
0.0
 11
56.276282
 21
109.004234
 31
0.0
  0
LWPOLYLINE
  5
E6E
100
AcDbEntity
  8
ALPHA
100
AcDbPolyline
 90
        3
 70
     0
 43
0.0
 10
56.265899
 20
108.98997
 10
56.26645
 20
109.000297
 10
56.268039
 20
109.010234
  0
LWPOLYLINE
  5
E73
100
AcDbEntity
  8
ALPHA
100
AcDbPolyline
 90
       10
 70
     0
 43
0.0
 10
56.265899
 20
109.266887
 10
56.267287
 20
109.287881
 10
56.271036
 20
109.306374
 10
56.278285
 20
109.326052
 10
56.287869
 20
109.342305
 10
56.301234
 20
109.356863
 10
56.316013
 20
109.366721
 10
56.332939
 20
109.372616
 10
56.348267
 20
109.374092
 10
56.365899
 20
109.371877
  0
LINE
  5
E7F
100
AcDbEntity
  8
ALPHA
100
AcDbLine
 10
57.062625
 20
110.729855
 30
0.0
 11
56.268039
 21
110.151475
 31
0.0
  0
LINE
  5
E80
100
AcDbEntity
  8
ALPHA
100
AcDbLine
 10
57.062625
 20
110.729855
 30
0.0
 11
56.569828
 21
110.073258
 31
0.0
  0
LWPOLYLINE
  5
E81
100
AcDbEntity
  8
ALPHA
100
AcDbPolyline
 90
        7
 70
     0
 43
0.0
 10
58.497265
 20
109.136005
 10
58.481876
 20
109.123631
 10
58.448371
 20
109.111975
 10
58.399853
 20
109.10223
 10
58.338827
 20
109.094792
 10
58.267314
 20
109.090035
 10
58.192218
 20
109.088451
  0
LWPOLYLINE
  5
E8A
100
AcDbEntity
  8
ALPHA
100
AcDbPolyline
 90
        3
 70
     0
 43
0.0
 10
55.523759
 20
109.010234
 10
55.525348
 20
109.000297
 10
55.525899
 20
108.98997
  0
LINE
  5
E8F
100
AcDbEntity
  8
ALPHA
100
AcDbLine
 10
55.515516
 20
109.004234
 30
0.0
 11
55.523759
 21
109.010234
 31
0.0
  0
LINE
  5
E90
100
AcDbEntity
  8
ALPHA
100
AcDbLine
 10
54.729173
 20
108.431853
 30
0.0
 11
55.515516
 21
109.004234
 31
0.0
  0
LWPOLYLINE
  5
E91
100
AcDbEntity
  8
ALPHA
100
AcDbPolyline
 90
        4
 70
     0
 43
0.0
 10
53.59599
 20
108.334024
 10
53.567095
 20
108.38514
 10
53.40151
 20
108.750256
 10
53.294533
 20
109.136005
  0
LINE
  5
E97
100
AcDbEntity
  8
ALPHA
100
AcDbLine
 10
54.729173
 20
108.431853
 30
0.0
 11
55.22197
 21
109.088451
 31
0.0
  0
LINE
  5
E98
100
AcDbEntity
  8
ALPHA
100
AcDbLine
 10
53.59958
 20
109.088451
 30
0.0
 11
55.22197
 21
109.088451
 31
0.0
  0
LWPOLYLINE
  5
E99
100
AcDbEntity
  8
ALPHA
100
AcDbPolyline
 90
        9
 70
     0
 43
0.0
 10
56.265899
 20
107.295298
 10
56.608226
 20
107.375309
 10
56.934594
 20
107.504756
 10
57.237685
 20
107.68074
 10
57.510713
 20
107.899324
 10
57.747564
 20
108.15563
 10
57.942859
 20
108.443824
 10
58.092341
 20
108.757657
 10
58.192218
 20
109.088451
  0
LINE
  5
EA4
100
AcDbEntity
  8
ALPHA
100
AcDbLine
 10
54.729173
 20
110.729855
 30
0.0
 11
55.22197
 21
110.073258
 31
0.0
  0
LINE
  5
EA5
100
AcDbEntity
  8
ALPHA
100
AcDbLine
 10
54.729173
 20
110.729855
 30
0.0
 11
55.523759
 21
110.151475
 31
0.0
  0
LWPOLYLINE
  5
EA6
100
AcDbEntity
  8
ALPHA
100
AcDbPolyline
 90
       10
 70
     0
 43
0.0
 10
56.395899
 20
109.401421
 10
56.397427
 20
109.422288
 10
56.40138
 20
109.439776
 10
56.409134
 20
109.458345
 10
56.41961
 20
109.473439
 10
56.433445
 20
109.485642
 10
56.447758
 20
109.492911
 10
56.464253
 20
109.49666
 10
56.47925
 20
109.496674
 10
56.495899
 20
109.493392
  0
LWPOLYLINE
  5
EB2
100
AcDbEntity
  8
ALPHA
100
AcDbPolyline
 90
       10
 70
     0
 43
0.0
 10
55.284492
 20
110.082087
 10
55.262196
 20
110.019337
 10
55.245899
 20
109.876896
 10
55.262196
 20
109.734455
 10
55.310269
 20
109.599156
 10
55.387709
 20
109.477785
 10
55.490631
 20
109.376426
 10
55.613875
 20
109.300163
 10
55.75126
 20
109.25282
 10
55.895899
 20
109.236771
  0
LWPOLYLINE
  5
EBE
100
AcDbEntity
  8
ALPHA
100
AcDbPolyline
 90
        4
 70
     0
 43
0.0
 10
55.895899
 20
110.517021
 10
55.75126
 20
110.500972
 10
55.613875
 20
110.453629
 10
55.525899
 20
110.39919
  0
LWPOLYLINE
  5
EC4
100
AcDbEntity
  8
ALPHA
100
AcDbPolyline
 90
       10
 70
     0
 43
0.0
 10
55.295899
 20
109.493392
 10
55.312502
 20
109.496669
 10
55.327539
 20
109.496661
 10
55.344104
 20
109.492888
 10
55.35844
 20
109.485584
 10
55.372178
 20
109.473451
 10
55.382567
 20
109.458522
 10
55.390311
 20
109.440122
 10
55.394332
 20
109.422543
 10
55.395899
 20
109.401421
  0
LWPOLYLINE
  5
ED0
100
AcDbEntity
  8
ALPHA
100
AcDbPolyline
 90
       10
 70
     0
 43
0.0
 10
55.425899
 20
109.371877
 10
55.443313
 20
109.37409
 10
55.45855
 20
109.37268
 10
55.475616
 20
109.366805
 10
55.490552
 20
109.356874
 10
55.503998
 20
109.34221
 10
55.513548
 20
109.325978
 10
55.52076
 20
109.306382
 10
55.524503
 20
109.287939
 10
55.525899
 20
109.266887
  0
LWPOLYLINE
  5
EDC
100
AcDbEntity
  8
ALPHA
100
AcDbPolyline
 90
       10
 70
     0
 43
0.0
 10
56.507307
 20
110.082087
 10
56.529602
 20
110.019337
 10
56.545899
 20
109.876896
 10
56.529602
 20
109.734455
 10
56.481529
 20
109.599156
 10
56.40409
 20
109.477785
 10
56.301167
 20
109.376426
 10
56.177923
 20
109.300163
 10
56.040538
 20
109.25282
 10
55.895899
 20
109.236771
  0
LWPOLYLINE
  5
EE8
100
AcDbEntity
  8
ALPHA
100
AcDbPolyline
 90
        4
 70
     0
 43
0.0
 10
55.895899
 20
110.517021
 10
56.040538
 20
110.500972
 10
56.177923
 20
110.453629
 10
56.265899
 20
110.39919
  0
LWPOLYLINE
  5
EEE
100
AcDbEntity
  8
ALPHA
100
AcDbPolyline
 90
        3
 70
     0
 43
0.0
 10
56.265899
 20
107.288681
 10
56.243227
 20
107.288651
 10
56.22068
 20
107.288642
  0
LINE
  5
EF3
100
AcDbEntity
  8
ALPHA
100
AcDbLine
 10
58.03273
 20
110.529203
 30
0.0
 11
58.005876
 21
110.585583
 31
0.0
  0
LWPOLYLINE
  5
EF4
100
AcDbEntity
  8
ALPHA
100
AcDbPolyline
 90
        3
 70
     0
 43
0.0
 10
58.192218
 20
110.073258
 10
58.092341
 20
110.404051
 10
58.03273
 20
110.529203
  0
LWPOLYLINE
  5
EF9
100
AcDbEntity
  8
ALPHA
100
AcDbPolyline
 90
        3
 70
     0
 43
0.0
 10
55.571118
 20
107.288642
 10
55.895899
 20
107.266435
 10
56.22068
 20
107.288642
  0
LWPOLYLINE
  5
EFE
100
AcDbEntity
  8
ALPHA
100
AcDbPolyline
 90
        4
 70
     0
 43
0.0
 10
58.195808
 20
108.334024
 10
58.224703
 20
108.38514
 10
58.390288
 20
108.750256
 10
58.497265
 20
109.136005
  0
LINE
  5
F04
100
AcDbEntity
  8
ALPHA
100
AcDbLine
 10
56.395899
 20
110.097818
 30
0.0
 11
56.569828
 21
110.073258
 31
0.0
  0
LWPOLYLINE
  5
F05
100
AcDbEntity
  8
ALPHA
100
AcDbPolyline
 90
        5
 70
     0
 43
0.0
 10
56.365899
 20
110.094687
 10
56.335006
 20
110.095589
 10
56.306258
 20
110.105108
 10
56.282277
 20
110.124057
 10
56.268039
 20
110.151475
  0
LWPOLYLINE
  5
F0C
100
AcDbEntity
  8
ALPHA
100
AcDbPolyline
 90
        5
 70
     0
 43
0.0
 10
55.523759
 20
110.151475
 10
55.509519
 20
110.124054
 10
55.485535
 20
110.105105
 10
55.456792
 20
110.095589
 10
55.425899
 20
110.094687
  0
LINE
  5
F13
100
AcDbEntity
  8
ALPHA
100
AcDbLine
 10
55.22197
 20
110.073258
 30
0.0
 11
55.395899
 21
110.097818
 31
0.0
  0
LINE
  5
F14
100
AcDbEntity
  8
ALPHA
100
AcDbLine
 10
56.395899
 20
109.364603
 30
0.0
 11
56.395899
 21
109.401421
 31
0.0
  0
LINE
  5
F15
100
AcDbEntity
  8
ALPHA
100
AcDbLine
 10
56.395899
 20
109.274278
 30
0.0
 11
56.395899
 21
109.364603
 31
0.0
  0
LINE
  5
F16
100
AcDbEntity
  8
ALPHA
100
AcDbLine
 10
56.395899
 20
109.244734
 30
0.0
 11
56.395899
 21
109.274278
 31
0.0
  0
LINE
  5
F17
100
AcDbEntity
  8
ALPHA
100
AcDbLine
 10
56.265899
 20
109.010234
 30
0.0
 11
56.265899
 21
109.266887
 31
0.0
  0
LINE
  5
F18
100
AcDbEntity
  8
ALPHA
100
AcDbLine
 10
55.395899
 20
109.364603
 30
0.0
 11
55.395899
 21
109.401421
 31
0.0
  0
LINE
  5
F19
100
AcDbEntity
  8
ALPHA
100
AcDbLine
 10
55.395899
 20
109.274278
 30
0.0
 11
55.395899
 21
109.364603
 31
0.0
  0
LINE
  5
F1A
100
AcDbEntity
  8
ALPHA
100
AcDbLine
 10
55.395899
 20
109.274278
 30
0.0
 11
55.395899
 21
109.244734
 31
0.0
  0
LINE
  5
F1B
100
AcDbEntity
  8
ALPHA
100
AcDbLine
 10
55.525899
 20
110.448656
 30
0.0
 11
55.525899
 21
111.435284
 31
0.0
  0
LINE
  5
F1C
100
AcDbEntity
  8
ALPHA
100
AcDbLine
 10
55.525899
 20
110.171739
 30
0.0
 11
55.525899
 21
110.448656
 31
0.0
  0
LINE
  5
F1D
100
AcDbEntity
  8
ALPHA
100
AcDbLine
 10
55.525899
 20
109.010234
 30
0.0
 11
55.525899
 21
109.266887
 31
0.0
  0
LINE
  5
F1E
100
AcDbEntity
  8
ALPHA
100
AcDbLine
 10
55.525899
 20
107.295298
 30
0.0
 11
55.525899
 21
108.98997
 31
0.0
  0
LINE
  5
F1F
100
AcDbEntity
  8
ALPHA
100
AcDbLine
 10
56.265899
 20
111.442838
 30
0.0
 11
56.265899
 21
110.171739
 31
0.0
  0
LINE
  5
F20
100
AcDbEntity
  8
ALPHA
100
AcDbLine
 10
56.265899
 20
108.98997
 30
0.0
 11
56.265899
 21
107.295298
 31
0.0
  0
LINE
  5
F21
100
AcDbEntity
  8
ALPHA
100
AcDbLine
 10
53.59599
 20
108.334024
 30
0.0
 11
53.464873
 21
108.559973
 31
0.0
  0
LINE
  5
F22
100
AcDbEntity
  8
ALPHA
100
AcDbLine
 10
56.395899
 20
110.097818
 30
0.0
 11
56.365899
 21
110.094687
 31
0.0
  0
LINE
  5
F23
100
AcDbEntity
  8
ALPHA
100
AcDbLine
 10
53.122244
 20
109.598495
 30
0.0
 11
53.103795
 21
109.829354
 31
0.0
  0
LWPOLYLINE
  5
F24
100
AcDbEntity
  8
ALPHA
100
AcDbPolyline
 90
        3
 70
     0
 43
0.0
 10
53.145122
 20
109.436283
 10
53.130372
 20
109.496789
 10
53.122244
 20
109.598495
  0
LINE
  5
F29
100
AcDbEntity
  8
ALPHA
100
AcDbLine
 10
53.20618
 20
109.18582
 30
0.0
 11
53.145122
 21
109.436283
 31
0.0
  0
LWPOLYLINE
  5
F2A
100
AcDbEntity
  8
ALPHA
100
AcDbPolyline
 90
        3
 70
     0
 43
0.0
 10
53.248176
 20
109.039825
 10
53.232941
 20
109.076048
 10
53.20618
 20
109.18582
  0
LINE
  5
F2F
100
AcDbEntity
  8
ALPHA
100
AcDbLine
 10
53.363596
 20
108.765412
 30
0.0
 11
53.248176
 21
109.039825
 31
0.0
  0
LWPOLYLINE
  5
F30
100
AcDbEntity
  8
ALPHA
100
AcDbPolyline
 90
        3
 70
     0
 43
0.0
 10
53.413343
 20
108.653941
 10
53.401081
 20
108.676289
 10
53.363596
 20
108.765412
  0
LINE
  5
F35
100
AcDbEntity
  8
ALPHA
100
AcDbLine
 10
53.421946
 20
108.638261
 30
0.0
 11
53.413343
 21
108.653941
 31
0.0
  0
LINE
  5
F36
100
AcDbEntity
  8
ALPHA
100
AcDbLine
 10
53.464823
 20
108.560115
 30
0.0
 11
53.421946
 21
108.638261
 31
0.0
  0
LINE
  5
F37
100
AcDbEntity
  8
ALPHA
100
AcDbLine
 10
55.425899
 20
110.094687
 30
0.0
 11
55.395899
 21
110.097818
 31
0.0
  0
LWPOLYLINE
  5
F38
100
AcDbEntity
  8
ALPHA
100
AcDbPolyline
 90
       15
 70
     0
 43
0.0
 10
58.195738
 20
108.333903
 10
57.995954
 20
108.03826
 10
57.720498
 20
107.736856
 10
57.401085
 20
107.481141
 10
57.0452
 20
107.277174
 10
56.661603
 20
107.130032
 10
56.259532
 20
107.043257
 10
55.848666
 20
107.018944
 10
55.438978
 20
107.057681
 10
55.040434
 20
107.158485
 10
54.662544
 20
107.318912
 10
54.314465
 20
107.535038
 10
54.004604
 20
107.801565
 10
53.740254
 20
108.112164
 10
53.596057
 20
108.333908
  0
LINE
  5
F49
100
AcDbEntity
  8
ALPHA
100
AcDbLine
 10
58.195808
 20
108.334024
 30
0.0
 11
58.326926
 21
108.559973
 31
0.0
  0
LINE
  5
F4A
100
AcDbEntity
  8
ALPHA
100
AcDbLine
 10
58.66991
 20
109.602945
 30
0.0
 11
58.686446
 21
109.809866
 31
0.0
  0
LWPOLYLINE
  5
F4B
100
AcDbEntity
  8
ALPHA
100
AcDbPolyline
 90
        3
 70
     0
 43
0.0
 10
58.656359
 20
109.476001
 10
58.661426
 20
109.496789
 10
58.66991
 20
109.602945
  0
LINE
  5
F50
100
AcDbEntity
  8
ALPHA
100
AcDbLine
 10
58.559578
 20
109.079004
 30
0.0
 11
58.656359
 21
109.476001
 31
0.0
  0
LWPOLYLINE
  5
F51
100
AcDbEntity
  8
ALPHA
100
AcDbPolyline
 90
        3
 70
     0
 43
0.0
 10
58.54446
 20
109.041818
 10
58.558857
 20
109.076048
 10
58.559578
 20
109.079004
  0
LINE
  5
F56
100
AcDbEntity
  8
ALPHA
100
AcDbLine
 10
58.401335
 20
108.701533
 30
0.0
 11
58.54446
 21
109.041818
 31
0.0
  0
LWPOLYLINE
  5
F57
100
AcDbEntity
  8
ALPHA
100
AcDbPolyline
 90
        3
 70
     0
 43
0.0
 10
58.326975
 20
108.560115
 10
58.390717
 20
108.676289
 10
58.401335
 20
108.701533
  0
LWPOLYLINE
  5
F5C
100
AcDbEntity
  8
ALPHA
100
AcDbPolyline
 90
        3
 70
     0
 43
0.0
 10
55.525899
 20
110.171739
 10
55.525348
 20
110.161412
 10
55.523759
 20
110.151475
  0
LWPOLYLINE
  5
F61
100
AcDbEntity
  8
ALPHA
100
AcDbPolyline
 90
        3
 70
     0
 43
0.0
 10
56.268039
 20
110.151475
 10
56.26645
 20
110.161412
 10
56.265899
 20
110.171739
  0
LINE
  5
F66
100
AcDbEntity
  8
ALPHA
100
AcDbLine
 10
56.569828
 20
110.073258
 30
0.0
 11
58.192218
 21
110.073258
 31
0.0
  0
LINE
  5
F67
100
AcDbEntity
  8
ALPHA
100
AcDbLine
 10
53.59958
 20
110.073258
 30
0.0
 11
55.22197
 21
110.073258
 31
0.0
  0
LINE
  5
F68
100
AcDbEntity
  8
ALPHA
100
AcDbLine
 10
56.265899
 20
109.010234
 30
0.0
 11
56.265899
 21
109.266887
 31
0.0
  0
LWPOLYLINE
  5
F69
100
AcDbEntity
  8
ALPHA
100
AcDbPolyline
 90
        7
 70
     0
 43
0.0
 10
58.192218
 20
110.073258
 10
58.267314
 20
110.074843
 10
58.338827
 20
110.0796
 10
58.399853
 20
110.087038
 10
58.448371
 20
110.096783
 10
58.481876
 20
110.108439
 10
58.496816
 20
110.120451
  0
LWPOLYLINE
  5
F72
100
AcDbEntity
  8
ALPHA
100
AcDbPolyline
 90
        7
 70
     0
 43
0.0
 10
53.297277
 20
110.118606
 10
53.309922
 20
110.108439
 10
53.343427
 20
110.096783
 10
53.391946
 20
110.087038
 10
53.452971
 20
110.0796
 10
53.524484
 20
110.074843
 10
53.59958
 20
110.073258
  0
LINE
  5
F7B
100
AcDbEntity
  8
ALPHA
100
AcDbLine
 10
53.294533
 20
110.120812
 30
0.0
 11
53.297277
 21
110.118606
 31
0.0
  0
LINE
  5
F7C
100
AcDbEntity
  8
ALPHA
100
AcDbLine
 10
56.265899
 20
107.295298
 30
0.0
 11
56.265899
 21
107.288681
 31
0.0
  0
LINE
  5
F7D
100
AcDbEntity
  8
ALPHA
100
AcDbLine
 10
55.525899
 20
107.288681
 30
0.0
 11
55.525899
 21
107.295298
 31
0.0
  0
LINE
  5
F7E
100
AcDbEntity
  8
ALPHA
100
AcDbLine
 10
56.395899
 20
109.364603
 30
0.0
 11
56.395899
 21
109.401421
 31
0.0
  0
LINE
  5
F7F
100
AcDbEntity
  8
ALPHA
100
AcDbLine
 10
56.395899
 20
109.274278
 30
0.0
 11
56.395899
 21
109.364603
 31
0.0
  0
LINE
  5
F80
100
AcDbEntity
  8
ALPHA
100
AcDbLine
 10
77.062625
 20
110.729855
 30
0.0
 11
76.395899
 21
110.097818
 31
0.0
  0
LWPOLYLINE
  5
F81
100
AcDbEntity
  8
ALPHA
100
AcDbPolyline
 90
        3
 70
     0
 43
0.0
 10
75.571118
 20
107.288642
 10
75.548573
 20
107.288651
 10
75.525899
 20
107.288681
  0
LINE
  5
F86
100
AcDbEntity
  8
ALPHA
100
AcDbLine
 10
74.729173
 20
110.729855
 30
0.0
 11
75.395899
 21
110.097818
 31
0.0
  0
LWPOLYLINE
  5
F87
100
AcDbEntity
  8
ALPHA
100
AcDbPolyline
 90
        5
 70
     0
 43
0.0
 10
76.268039
 20
109.010234
 10
76.28228
 20
109.050305
 10
76.306267
 20
109.081444
 10
76.33501
 20
109.101149
 10
76.365899
 20
109.109879
  0
LINE
  5
F8E
100
AcDbEntity
  8
ALPHA
100
AcDbLine
 10
77.062625
 20
108.431853
 30
0.0
 11
76.395899
 21
109.11301
 31
0.0
  0
LINE
  5
F8F
100
AcDbEntity
  8
ALPHA
100
AcDbLine
 10
76.569828
 20
109.088451
 30
0.0
 11
76.395899
 21
109.11301
 31
0.0
  0
LWPOLYLINE
  5
F90
100
AcDbEntity
  8
ALPHA
100
AcDbPolyline
 90
        5
 70
     0
 43
0.0
 10
76.879912
 20
109.372759
 10
76.776532
 20
109.40622
 10
76.67828
 20
109.437476
 10
76.584849
 20
109.466538
 10
76.495899
 20
109.493392
  0
LINE
  5
F97
100
AcDbEntity
  8
ALPHA
100
AcDbLine
 10
76.495899
 20
109.372759
 30
0.0
 11
76.495899
 21
109.493392
 31
0.0
  0
LINE
  5
F98
100
AcDbEntity
  8
ALPHA
100
AcDbLine
 10
76.495899
 20
109.372759
 30
0.0
 11
76.879912
 21
109.372759
 31
0.0
  0
LWPOLYLINE
  5
F99
100
AcDbEntity
  8
ALPHA
100
AcDbPolyline
 90
        3
 70
     0
 43
0.0
 10
73.759068
 20
110.529203
 10
73.699457
 20
110.404051
 10
73.59958
 20
110.073258
  0
LINE
  5
F9E
100
AcDbEntity
  8
ALPHA
100
AcDbLine
 10
73.784466
 20
110.582525
 30
0.0
 11
73.759068
 21
110.529203
 31
0.0
  0
LWPOLYLINE
  5
F9F
100
AcDbEntity
  8
ALPHA
100
AcDbPolyline
 90
        5
 70
     0
 43
0.0
 10
75.425899
 20
109.109879
 10
75.456792
 20
109.101147
 10
75.48554
 20
109.081436
 10
75.509521
 20
109.0503
 10
75.523759
 20
109.010234
  0
LINE
  5
FA6
100
AcDbEntity
  8
ALPHA
100
AcDbLine
 10
75.395899
 20
109.11301
 30
0.0
 11
75.22197
 21
109.088451
 31
0.0
  0
LINE
  5
FA7
100
AcDbEntity
  8
ALPHA
100
AcDbLine
 10
75.425899
 20
109.109879
 30
0.0
 11
75.425899
 21
109.371877
 31
0.0
  0
LWPOLYLINE
  5
FA8
100
AcDbEntity
  8
ALPHA
100
AcDbPolyline
 90
        3
 70
     0
 43
0.0
 10
75.425899
 20
109.371877
 10
75.410934
 20
109.368277
 10
75.395899
 20
109.364603
  0
LINE
  5
FAD
100
AcDbEntity
  8
ALPHA
100
AcDbLine
 10
74.729173
 20
108.431853
 30
0.0
 11
75.395899
 21
109.11301
 31
0.0
  0
LINE
  5
FAE
100
AcDbEntity
  8
ALPHA
100
AcDbLine
 10
73.238771
 20
109.244734
 30
0.0
 11
75.395899
 21
109.244734
 31
0.0
  0
LWPOLYLINE
  5
FAF
100
AcDbEntity
  8
ALPHA
100
AcDbPolyline
 90
        4
 70
     0
 43
0.0
 10
73.294533
 20
109.136005
 10
73.276002
 20
109.172128
 10
73.257415
 20
109.208371
 10
73.238771
 20
109.244734
  0
LINE
  5
FB5
100
AcDbEntity
  8
ALPHA
100
AcDbLine
 10
75.395899
 20
109.11301
 30
0.0
 11
75.425899
 21
109.109879
 31
0.0
  0
LWPOLYLINE
  5
FB6
100
AcDbEntity
  8
ALPHA
100
AcDbPolyline
 90
        4
 70
     0
 43
0.0
 10
78.553027
 20
109.244734
 10
78.534383
 20
109.208372
 10
78.515796
 20
109.172129
 10
78.497265
 20
109.136005
  0
LINE
  5
FBC
100
AcDbEntity
  8
ALPHA
100
AcDbLine
 10
76.395899
 20
109.244734
 30
0.0
 11
78.553027
 21
109.244734
 31
0.0
  0
LWPOLYLINE
  5
FBD
100
AcDbEntity
  8
ALPHA
100
AcDbPolyline
 90
        3
 70
     0
 43
0.0
 10
76.395899
 20
109.364603
 10
76.380869
 20
109.368276
 10
76.365899
 20
109.371877
  0
LINE
  5
FC2
100
AcDbEntity
  8
ALPHA
100
AcDbLine
 10
76.365899
 20
109.109879
 30
0.0
 11
76.365899
 21
109.371877
 31
0.0
  0
LINE
  5
FC3
100
AcDbEntity
  8
ALPHA
100
AcDbLine
 10
76.365899
 20
109.109879
 30
0.0
 11
76.395899
 21
109.11301
 31
0.0
  0
LWPOLYLINE
  5
FC4
100
AcDbEntity
  8
ALPHA
100
AcDbPolyline
 90
        5
 70
     0
 43
0.0
 10
73.238771
 20
109.244734
 10
73.203842
 20
109.48964
 10
73.192137
 20
109.737138
 10
73.203842
 20
109.984635
 10
73.206471
 20
110.003067
  0
LWPOLYLINE
  5
FCB
100
AcDbEntity
  8
ALPHA
100
AcDbPolyline
 90
        6
 70
     0
 43
0.0
 10
76.395899
 20
109.274278
 10
76.400793
 20
109.30471
 10
76.414997
 20
109.332164
 10
76.437121
 20
109.353951
 10
76.464997
 20
109.367939
 10
76.495899
 20
109.372759
  0
LINE
  5
FD3
100
AcDbEntity
  8
ALPHA
100
AcDbLine
 10
75.295899
 20
109.372759
 30
0.0
 11
75.295899
 21
109.493392
 31
0.0
  0
LWPOLYLINE
  5
FD4
100
AcDbEntity
  8
ALPHA
100
AcDbPolyline
 90
        5
 70
     0
 43
0.0
 10
75.295899
 20
109.493392
 10
75.207074
 20
109.466576
 10
75.113684
 20
109.437528
 10
75.01539
 20
109.406259
 10
74.911886
 20
109.372759
  0
LINE
  5
FDB
100
AcDbEntity
  8
ALPHA
100
AcDbLine
 10
74.911886
 20
109.372759
 30
0.0
 11
75.295899
 21
109.372759
 31
0.0
  0
LWPOLYLINE
  5
FDC
100
AcDbEntity
  8
ALPHA
100
AcDbPolyline
 90
        5
 70
     0
 43
0.0
 10
74.911886
 20
109.372759
 10
74.861575
 20
109.551964
 10
74.844623
 20
109.737138
 10
74.861575
 20
109.922312
 10
74.903952
 20
110.073258
  0
LWPOLYLINE
  5
FE3
100
AcDbEntity
  8
ALPHA
100
AcDbPolyline
 90
        6
 70
     0
 43
0.0
 10
75.295899
 20
109.372759
 10
75.326801
 20
109.367939
 10
75.354678
 20
109.353951
 10
75.376801
 20
109.332164
 10
75.391005
 20
109.30471
 10
75.395899
 20
109.274278
  0
LWPOLYLINE
  5
FEB
100
AcDbEntity
  8
ALPHA
100
AcDbPolyline
 90
        5
 70
     0
 43
0.0
 10
78.586165
 20
109.997192
 10
78.587956
 20
109.984635
 10
78.599662
 20
109.737138
 10
78.587956
 20
109.48964
 10
78.553027
 20
109.244734
  0
LWPOLYLINE
  5
FF2
100
AcDbEntity
  8
ALPHA
100
AcDbPolyline
 90
        5
 70
     0
 43
0.0
 10
76.887846
 20
110.073258
 10
76.930223
 20
109.922312
 10
76.947176
 20
109.737138
 10
76.930223
 20
109.551964
 10
76.879912
 20
109.372759
  0
LWPOLYLINE
  5
FF9
100
AcDbEntity
  8
ALPHA
100
AcDbPolyline
 90
        9
 70
     0
 43
0.0
 10
73.59958
 20
109.088451
 10
73.699457
 20
108.757657
 10
73.848939
 20
108.443824
 10
74.044234
 20
108.15563
 10
74.281085
 20
107.899324
 10
74.554113
 20
107.68074
 10
74.857204
 20
107.504756
 10
75.183572
 20
107.375309
 10
75.525899
 20
107.295298
  0
LWPOLYLINE
  5
1004
100
AcDbEntity
  8
ALPHA
100
AcDbPolyline
 90
        4
 70
     0
 43
0.0
 10
75.895899
 20
110.772443
 10
76.021903
 20
110.76498
 10
76.145557
 20
110.742825
 10
76.265899
 20
110.706202
  0
LWPOLYLINE
  5
100A
100
AcDbEntity
  8
ALPHA
100
AcDbPolyline
 90
        4
 70
     0
 43
0.0
 10
75.525899
 20
110.706202
 10
75.646241
 20
110.742825
 10
75.769895
 20
110.76498
 10
75.895899
 20
110.772443
  0
LWPOLYLINE
  5
1010
100
AcDbEntity
  8
ALPHA
100
AcDbPolyline
 90
        4
 70
     0
 43
0.0
 10
76.265899
 20
108.768074
 10
76.145557
 20
108.73145
 10
76.021903
 20
108.709296
 10
75.895899
 20
108.701832
  0
LWPOLYLINE
  5
1016
100
AcDbEntity
  8
ALPHA
100
AcDbPolyline
 90
        4
 70
     0
 43
0.0
 10
75.895899
 20
108.701832
 10
75.769895
 20
108.709296
 10
75.646241
 20
108.73145
 10
75.525899
 20
108.768074
  0
LINE
  5
101C
100
AcDbEntity
  8
ALPHA
100
AcDbLine
 10
75.525899
 20
107.767522
 30
0.0
 11
76.265899
 21
107.767522
 31
0.0
  0
LWPOLYLINE
  5
101D
100
AcDbEntity
  8
ALPHA
100
AcDbPolyline
 90
        7
 70
     0
 43
0.0
 10
73.59958
 20
109.088451
 10
73.524484
 20
109.090035
 10
73.452971
 20
109.094792
 10
73.391946
 20
109.10223
 10
73.343427
 20
109.111975
 10
73.309922
 20
109.123631
 10
73.294533
 20
109.136005
  0
LINE
  5
1026
100
AcDbEntity
  8
ALPHA
100
AcDbLine
 10
76.22068
 20
107.288642
 30
0.0
 11
75.571118
 21
107.288642
 31
0.0
  0
LINE
  5
1027
100
AcDbEntity
  8
ALPHA
100
AcDbLine
 10
76.569828
 20
109.088451
 30
0.0
 11
78.192218
 21
109.088451
 31
0.0
  0
LINE
  5
1028
100
AcDbEntity
  8
ALPHA
100
AcDbLine
 10
77.062625
 20
108.431853
 30
0.0
 11
76.569828
 21
109.088451
 31
0.0
  0
LINE
  5
1029
100
AcDbEntity
  8
ALPHA
100
AcDbLine
 10
76.276282
 20
109.004234
 30
0.0
 11
76.268039
 21
109.010234
 31
0.0
  0
LINE
  5
102A
100
AcDbEntity
  8
ALPHA
100
AcDbLine
 10
77.062625
 20
108.431853
 30
0.0
 11
76.276282
 21
109.004234
 31
0.0
  0
LWPOLYLINE
  5
102B
100
AcDbEntity
  8
ALPHA
100
AcDbPolyline
 90
        3
 70
     0
 43
0.0
 10
76.265899
 20
108.98997
 10
76.26645
 20
109.000297
 10
76.268039
 20
109.010234
  0
LWPOLYLINE
  5
1030
100
AcDbEntity
  8
ALPHA
100
AcDbPolyline
 90
       10
 70
     0
 43
0.0
 10
76.265899
 20
109.266887
 10
76.267287
 20
109.287881
 10
76.271036
 20
109.306374
 10
76.278285
 20
109.326052
 10
76.287869
 20
109.342305
 10
76.301234
 20
109.356863
 10
76.316013
 20
109.366721
 10
76.332939
 20
109.372616
 10
76.348267
 20
109.374092
 10
76.365899
 20
109.371877
  0
LINE
  5
103C
100
AcDbEntity
  8
ALPHA
100
AcDbLine
 10
77.062625
 20
110.729855
 30
0.0
 11
76.268039
 21
110.151475
 31
0.0
  0
LINE
  5
103D
100
AcDbEntity
  8
ALPHA
100
AcDbLine
 10
77.062625
 20
110.729855
 30
0.0
 11
76.569828
 21
110.073258
 31
0.0
  0
LWPOLYLINE
  5
103E
100
AcDbEntity
  8
ALPHA
100
AcDbPolyline
 90
        7
 70
     0
 43
0.0
 10
78.497265
 20
109.136005
 10
78.481876
 20
109.123631
 10
78.448371
 20
109.111975
 10
78.399853
 20
109.10223
 10
78.338827
 20
109.094792
 10
78.267314
 20
109.090035
 10
78.192218
 20
109.088451
  0
LWPOLYLINE
  5
1047
100
AcDbEntity
  8
ALPHA
100
AcDbPolyline
 90
        3
 70
     0
 43
0.0
 10
75.523759
 20
109.010234
 10
75.525348
 20
109.000297
 10
75.525899
 20
108.98997
  0
LINE
  5
104C
100
AcDbEntity
  8
ALPHA
100
AcDbLine
 10
75.515516
 20
109.004234
 30
0.0
 11
75.523759
 21
109.010234
 31
0.0
  0
LINE
  5
104D
100
AcDbEntity
  8
ALPHA
100
AcDbLine
 10
74.729173
 20
108.431853
 30
0.0
 11
75.515516
 21
109.004234
 31
0.0
  0
LWPOLYLINE
  5
104E
100
AcDbEntity
  8
ALPHA
100
AcDbPolyline
 90
        4
 70
     0
 43
0.0
 10
73.59599
 20
108.334024
 10
73.567095
 20
108.38514
 10
73.40151
 20
108.750256
 10
73.294533
 20
109.136005
  0
LINE
  5
1054
100
AcDbEntity
  8
ALPHA
100
AcDbLine
 10
74.729173
 20
108.431853
 30
0.0
 11
75.22197
 21
109.088451
 31
0.0
  0
LINE
  5
1055
100
AcDbEntity
  8
ALPHA
100
AcDbLine
 10
73.59958
 20
109.088451
 30
0.0
 11
75.22197
 21
109.088451
 31
0.0
  0
LWPOLYLINE
  5
1056
100
AcDbEntity
  8
ALPHA
100
AcDbPolyline
 90
        9
 70
     0
 43
0.0
 10
76.265899
 20
107.295298
 10
76.608226
 20
107.375309
 10
76.934594
 20
107.504756
 10
77.237685
 20
107.68074
 10
77.510713
 20
107.899324
 10
77.747564
 20
108.15563
 10
77.942859
 20
108.443824
 10
78.092341
 20
108.757657
 10
78.192218
 20
109.088451
  0
LINE
  5
1061
100
AcDbEntity
  8
ALPHA
100
AcDbLine
 10
74.729173
 20
110.729855
 30
0.0
 11
75.22197
 21
110.073258
 31
0.0
  0
LINE
  5
1062
100
AcDbEntity
  8
ALPHA
100
AcDbLine
 10
74.729173
 20
110.729855
 30
0.0
 11
75.523759
 21
110.151475
 31
0.0
  0
LWPOLYLINE
  5
1063
100
AcDbEntity
  8
ALPHA
100
AcDbPolyline
 90
       10
 70
     0
 43
0.0
 10
76.395899
 20
109.401421
 10
76.397427
 20
109.422288
 10
76.40138
 20
109.439776
 10
76.409134
 20
109.458345
 10
76.41961
 20
109.473439
 10
76.433445
 20
109.485642
 10
76.447758
 20
109.492911
 10
76.464253
 20
109.49666
 10
76.47925
 20
109.496674
 10
76.495899
 20
109.493392
  0
LWPOLYLINE
  5
106F
100
AcDbEntity
  8
ALPHA
100
AcDbPolyline
 90
       10
 70
     0
 43
0.0
 10
75.284492
 20
110.082087
 10
75.262196
 20
110.019337
 10
75.245899
 20
109.876896
 10
75.262196
 20
109.734455
 10
75.310269
 20
109.599156
 10
75.387709
 20
109.477785
 10
75.490631
 20
109.376426
 10
75.613875
 20
109.300163
 10
75.75126
 20
109.25282
 10
75.895899
 20
109.236771
  0
LWPOLYLINE
  5
107B
100
AcDbEntity
  8
ALPHA
100
AcDbPolyline
 90
        4
 70
     0
 43
0.0
 10
75.895899
 20
110.517021
 10
75.75126
 20
110.500972
 10
75.613875
 20
110.453629
 10
75.525899
 20
110.39919
  0
LWPOLYLINE
  5
1081
100
AcDbEntity
  8
ALPHA
100
AcDbPolyline
 90
       10
 70
     0
 43
0.0
 10
75.295899
 20
109.493392
 10
75.312502
 20
109.496669
 10
75.327539
 20
109.496661
 10
75.344104
 20
109.492888
 10
75.35844
 20
109.485584
 10
75.372178
 20
109.473451
 10
75.382567
 20
109.458522
 10
75.390311
 20
109.440122
 10
75.394332
 20
109.422543
 10
75.395899
 20
109.401421
  0
LWPOLYLINE
  5
108D
100
AcDbEntity
  8
ALPHA
100
AcDbPolyline
 90
       10
 70
     0
 43
0.0
 10
75.425899
 20
109.371877
 10
75.443313
 20
109.37409
 10
75.45855
 20
109.37268
 10
75.475616
 20
109.366805
 10
75.490552
 20
109.356874
 10
75.503998
 20
109.34221
 10
75.513548
 20
109.325978
 10
75.52076
 20
109.306382
 10
75.524503
 20
109.287939
 10
75.525899
 20
109.266887
  0
LWPOLYLINE
  5
1099
100
AcDbEntity
  8
ALPHA
100
AcDbPolyline
 90
       10
 70
     0
 43
0.0
 10
76.507307
 20
110.082087
 10
76.529602
 20
110.019337
 10
76.545899
 20
109.876896
 10
76.529602
 20
109.734455
 10
76.481529
 20
109.599156
 10
76.40409
 20
109.477785
 10
76.301167
 20
109.376426
 10
76.177923
 20
109.300163
 10
76.040538
 20
109.25282
 10
75.895899
 20
109.236771
  0
LWPOLYLINE
  5
10A5
100
AcDbEntity
  8
ALPHA
100
AcDbPolyline
 90
        4
 70
     0
 43
0.0
 10
75.895899
 20
110.517021
 10
76.040538
 20
110.500972
 10
76.177923
 20
110.453629
 10
76.265899
 20
110.39919
  0
LWPOLYLINE
  5
10AB
100
AcDbEntity
  8
ALPHA
100
AcDbPolyline
 90
        3
 70
     0
 43
0.0
 10
76.265899
 20
107.288681
 10
76.243227
 20
107.288651
 10
76.22068
 20
107.288642
  0
LINE
  5
10B0
100
AcDbEntity
  8
ALPHA
100
AcDbLine
 10
78.03273
 20
110.529203
 30
0.0
 11
78.005876
 21
110.585583
 31
0.0
  0
LWPOLYLINE
  5
10B1
100
AcDbEntity
  8
ALPHA
100
AcDbPolyline
 90
        3
 70
     0
 43
0.0
 10
78.192218
 20
110.073258
 10
78.092341
 20
110.404051
 10
78.03273
 20
110.529203
  0
LWPOLYLINE
  5
10B6
100
AcDbEntity
  8
ALPHA
100
AcDbPolyline
 90
        3
 70
     0
 43
0.0
 10
75.571118
 20
107.288642
 10
75.895899
 20
107.266435
 10
76.22068
 20
107.288642
  0
LWPOLYLINE
  5
10BB
100
AcDbEntity
  8
ALPHA
100
AcDbPolyline
 90
        4
 70
     0
 43
0.0
 10
78.195808
 20
108.334024
 10
78.224703
 20
108.38514
 10
78.390288
 20
108.750256
 10
78.497265
 20
109.136005
  0
LINE
  5
10C1
100
AcDbEntity
  8
ALPHA
100
AcDbLine
 10
76.395899
 20
110.097818
 30
0.0
 11
76.569828
 21
110.073258
 31
0.0
  0
LWPOLYLINE
  5
10C2
100
AcDbEntity
  8
ALPHA
100
AcDbPolyline
 90
        5
 70
     0
 43
0.0
 10
76.365899
 20
110.094687
 10
76.335006
 20
110.095589
 10
76.306258
 20
110.105108
 10
76.282277
 20
110.124057
 10
76.268039
 20
110.151475
  0
LWPOLYLINE
  5
10C9
100
AcDbEntity
  8
ALPHA
100
AcDbPolyline
 90
        5
 70
     0
 43
0.0
 10
75.523759
 20
110.151475
 10
75.509519
 20
110.124054
 10
75.485535
 20
110.105105
 10
75.456792
 20
110.095589
 10
75.425899
 20
110.094687
  0
LINE
  5
10D0
100
AcDbEntity
  8
ALPHA
100
AcDbLine
 10
75.22197
 20
110.073258
 30
0.0
 11
75.395899
 21
110.097818
 31
0.0
  0
LINE
  5
10D1
100
AcDbEntity
  8
ALPHA
100
AcDbLine
 10
76.395899
 20
109.364603
 30
0.0
 11
76.395899
 21
109.401421
 31
0.0
  0
LINE
  5
10D2
100
AcDbEntity
  8
ALPHA
100
AcDbLine
 10
76.395899
 20
109.274278
 30
0.0
 11
76.395899
 21
109.364603
 31
0.0
  0
LINE
  5
10D3
100
AcDbEntity
  8
ALPHA
100
AcDbLine
 10
76.395899
 20
109.244734
 30
0.0
 11
76.395899
 21
109.274278
 31
0.0
  0
LINE
  5
10D4
100
AcDbEntity
  8
ALPHA
100
AcDbLine
 10
76.265899
 20
109.010234
 30
0.0
 11
76.265899
 21
109.266887
 31
0.0
  0
LINE
  5
10D5
100
AcDbEntity
  8
ALPHA
100
AcDbLine
 10
75.395899
 20
109.364603
 30
0.0
 11
75.395899
 21
109.401421
 31
0.0
  0
LINE
  5
10D6
100
AcDbEntity
  8
ALPHA
100
AcDbLine
 10
75.395899
 20
109.274278
 30
0.0
 11
75.395899
 21
109.364603
 31
0.0
  0
LINE
  5
10D7
100
AcDbEntity
  8
ALPHA
100
AcDbLine
 10
75.395899
 20
109.274278
 30
0.0
 11
75.395899
 21
109.244734
 31
0.0
  0
LINE
  5
10D8
100
AcDbEntity
  8
ALPHA
100
AcDbLine
 10
75.525899
 20
110.448656
 30
0.0
 11
75.525899
 21
111.435284
 31
0.0
  0
LINE
  5
10D9
100
AcDbEntity
  8
ALPHA
100
AcDbLine
 10
75.525899
 20
110.171739
 30
0.0
 11
75.525899
 21
110.448656
 31
0.0
  0
LINE
  5
10DA
100
AcDbEntity
  8
ALPHA
100
AcDbLine
 10
75.525899
 20
109.010234
 30
0.0
 11
75.525899
 21
109.266887
 31
0.0
  0
LINE
  5
10DB
100
AcDbEntity
  8
ALPHA
100
AcDbLine
 10
75.525899
 20
107.295298
 30
0.0
 11
75.525899
 21
108.98997
 31
0.0
  0
LINE
  5
10DC
100
AcDbEntity
  8
ALPHA
100
AcDbLine
 10
76.265899
 20
111.442838
 30
0.0
 11
76.265899
 21
110.171739
 31
0.0
  0
LINE
  5
10DD
100
AcDbEntity
  8
ALPHA
100
AcDbLine
 10
76.265899
 20
108.98997
 30
0.0
 11
76.265899
 21
107.295298
 31
0.0
  0
LINE
  5
10DE
100
AcDbEntity
  8
ALPHA
100
AcDbLine
 10
73.59599
 20
108.334024
 30
0.0
 11
73.464873
 21
108.559973
 31
0.0
  0
LINE
  5
10DF
100
AcDbEntity
  8
ALPHA
100
AcDbLine
 10
76.395899
 20
110.097818
 30
0.0
 11
76.365899
 21
110.094687
 31
0.0
  0
LINE
  5
10E0
100
AcDbEntity
  8
ALPHA
100
AcDbLine
 10
73.122244
 20
109.598495
 30
0.0
 11
73.103795
 21
109.829354
 31
0.0
  0
LWPOLYLINE
  5
10E1
100
AcDbEntity
  8
ALPHA
100
AcDbPolyline
 90
        3
 70
     0
 43
0.0
 10
73.145122
 20
109.436283
 10
73.130372
 20
109.496789
 10
73.122244
 20
109.598495
  0
LINE
  5
10E6
100
AcDbEntity
  8
ALPHA
100
AcDbLine
 10
73.20618
 20
109.18582
 30
0.0
 11
73.145122
 21
109.436283
 31
0.0
  0
LWPOLYLINE
  5
10E7
100
AcDbEntity
  8
ALPHA
100
AcDbPolyline
 90
        3
 70
     0
 43
0.0
 10
73.248176
 20
109.039825
 10
73.232941
 20
109.076048
 10
73.20618
 20
109.18582
  0
LINE
  5
10EC
100
AcDbEntity
  8
ALPHA
100
AcDbLine
 10
73.363596
 20
108.765412
 30
0.0
 11
73.248176
 21
109.039825
 31
0.0
  0
LWPOLYLINE
  5
10ED
100
AcDbEntity
  8
ALPHA
100
AcDbPolyline
 90
        3
 70
     0
 43
0.0
 10
73.413343
 20
108.653941
 10
73.401081
 20
108.676289
 10
73.363596
 20
108.765412
  0
LINE
  5
10F2
100
AcDbEntity
  8
ALPHA
100
AcDbLine
 10
73.421946
 20
108.638261
 30
0.0
 11
73.413343
 21
108.653941
 31
0.0
  0
LINE
  5
10F3
100
AcDbEntity
  8
ALPHA
100
AcDbLine
 10
73.464823
 20
108.560115
 30
0.0
 11
73.421946
 21
108.638261
 31
0.0
  0
LINE
  5
10F4
100
AcDbEntity
  8
ALPHA
100
AcDbLine
 10
75.425899
 20
110.094687
 30
0.0
 11
75.395899
 21
110.097818
 31
0.0
  0
LWPOLYLINE
  5
10F5
100
AcDbEntity
  8
ALPHA
100
AcDbPolyline
 90
       15
 70
     0
 43
0.0
 10
78.195738
 20
108.333903
 10
77.995954
 20
108.03826
 10
77.720498
 20
107.736856
 10
77.401085
 20
107.481141
 10
77.0452
 20
107.277174
 10
76.661603
 20
107.130032
 10
76.259532
 20
107.043257
 10
75.848666
 20
107.018944
 10
75.438978
 20
107.057681
 10
75.040434
 20
107.158485
 10
74.662544
 20
107.318912
 10
74.314465
 20
107.535038
 10
74.004604
 20
107.801565
 10
73.740254
 20
108.112164
 10
73.596057
 20
108.333908
  0
LINE
  5
1106
100
AcDbEntity
  8
ALPHA
100
AcDbLine
 10
78.195808
 20
108.334024
 30
0.0
 11
78.326926
 21
108.559973
 31
0.0
  0
LINE
  5
1107
100
AcDbEntity
  8
ALPHA
100
AcDbLine
 10
78.66991
 20
109.602945
 30
0.0
 11
78.686446
 21
109.809866
 31
0.0
  0
LWPOLYLINE
  5
1108
100
AcDbEntity
  8
ALPHA
100
AcDbPolyline
 90
        3
 70
     0
 43
0.0
 10
78.656359
 20
109.476001
 10
78.661426
 20
109.496789
 10
78.66991
 20
109.602945
  0
LINE
  5
110D
100
AcDbEntity
  8
ALPHA
100
AcDbLine
 10
78.559578
 20
109.079004
 30
0.0
 11
78.656359
 21
109.476001
 31
0.0
  0
LWPOLYLINE
  5
110E
100
AcDbEntity
  8
ALPHA
100
AcDbPolyline
 90
        3
 70
     0
 43
0.0
 10
78.54446
 20
109.041818
 10
78.558857
 20
109.076048
 10
78.559578
 20
109.079004
  0
LINE
  5
1113
100
AcDbEntity
  8
ALPHA
100
AcDbLine
 10
78.401335
 20
108.701533
 30
0.0
 11
78.54446
 21
109.041818
 31
0.0
  0
LWPOLYLINE
  5
1114
100
AcDbEntity
  8
ALPHA
100
AcDbPolyline
 90
        3
 70
     0
 43
0.0
 10
78.326975
 20
108.560115
 10
78.390717
 20
108.676289
 10
78.401335
 20
108.701533
  0
LWPOLYLINE
  5
1119
100
AcDbEntity
  8
ALPHA
100
AcDbPolyline
 90
        3
 70
     0
 43
0.0
 10
75.525899
 20
110.171739
 10
75.525348
 20
110.161412
 10
75.523759
 20
110.151475
  0
LWPOLYLINE
  5
111E
100
AcDbEntity
  8
ALPHA
100
AcDbPolyline
 90
        3
 70
     0
 43
0.0
 10
76.268039
 20
110.151475
 10
76.26645
 20
110.161412
 10
76.265899
 20
110.171739
  0
LINE
  5
1123
100
AcDbEntity
  8
ALPHA
100
AcDbLine
 10
76.569828
 20
110.073258
 30
0.0
 11
78.192218
 21
110.073258
 31
0.0
  0
LINE
  5
1124
100
AcDbEntity
  8
ALPHA
100
AcDbLine
 10
73.59958
 20
110.073258
 30
0.0
 11
75.22197
 21
110.073258
 31
0.0
  0
LINE
  5
1125
100
AcDbEntity
  8
ALPHA
100
AcDbLine
 10
76.265899
 20
109.010234
 30
0.0
 11
76.265899
 21
109.266887
 31
0.0
  0
LWPOLYLINE
  5
1126
100
AcDbEntity
  8
ALPHA
100
AcDbPolyline
 90
        7
 70
     0
 43
0.0
 10
78.192218
 20
110.073258
 10
78.267314
 20
110.074843
 10
78.338827
 20
110.0796
 10
78.399853
 20
110.087038
 10
78.448371
 20
110.096783
 10
78.481876
 20
110.108439
 10
78.496816
 20
110.120451
  0
LWPOLYLINE
  5
112F
100
AcDbEntity
  8
ALPHA
100
AcDbPolyline
 90
        7
 70
     0
 43
0.0
 10
73.297277
 20
110.118606
 10
73.309922
 20
110.108439
 10
73.343427
 20
110.096783
 10
73.391946
 20
110.087038
 10
73.452971
 20
110.0796
 10
73.524484
 20
110.074843
 10
73.59958
 20
110.073258
  0
LINE
  5
1138
100
AcDbEntity
  8
ALPHA
100
AcDbLine
 10
73.294533
 20
110.120812
 30
0.0
 11
73.297277
 21
110.118606
 31
0.0
  0
LINE
  5
1139
100
AcDbEntity
  8
ALPHA
100
AcDbLine
 10
76.265899
 20
107.295298
 30
0.0
 11
76.265899
 21
107.288681
 31
0.0
  0
LINE
  5
113A
100
AcDbEntity
  8
ALPHA
100
AcDbLine
 10
75.525899
 20
107.288681
 30
0.0
 11
75.525899
 21
107.295298
 31
0.0
  0
LINE
  5
113B
100
AcDbEntity
  8
ALPHA
100
AcDbLine
 10
76.395899
 20
109.364603
 30
0.0
 11
76.395899
 21
109.401421
 31
0.0
  0
LINE
  5
113C
100
AcDbEntity
  8
ALPHA
100
AcDbLine
 10
76.395899
 20
109.274278
 30
0.0
 11
76.395899
 21
109.364603
 31
0.0
  0
LINE
  5
113D
100
AcDbEntity
  8
ALPHA
100
AcDbLine
 10
55.545899
 20
102.190413
 30
0.0
 11
55.545899
 21
102.040413
 31
0.0
  0
LINE
  5
113E
100
AcDbEntity
  8
ALPHA
100
AcDbLine
 10
53.245899
 20
102.040413
 30
0.0
 11
53.245899
 21
102.190413
 31
0.0
  0
LINE
  5
113F
100
AcDbEntity
  8
ALPHA
100
AcDbLine
 10
53.245899
 20
97.890413
 30
0.0
 11
53.245899
 21
98.040413
 31
0.0
  0
LINE
  5
1140
100
AcDbEntity
  8
ALPHA
100
AcDbLine
 10
55.545899
 20
98.040413
 30
0.0
 11
55.545899
 21
97.890413
 31
0.0
  0
LINE
  5
1141
100
AcDbEntity
  8
ALPHA
100
AcDbLine
 10
75.545899
 20
102.190413
 30
0.0
 11
75.545899
 21
102.040413
 31
0.0
  0
LINE
  5
1142
100
AcDbEntity
  8
ALPHA
100
AcDbLine
 10
73.245899
 20
102.040413
 30
0.0
 11
73.245899
 21
102.190413
 31
0.0
  0
LINE
  5
1143
100
AcDbEntity
  8
ALPHA
100
AcDbLine
 10
73.245899
 20
97.890413
 30
0.0
 11
73.245899
 21
98.040413
 31
0.0
  0
LINE
  5
1144
100
AcDbEntity
  8
ALPHA
100
AcDbLine
 10
75.545899
 20
98.040413
 30
0.0
 11
75.545899
 21
97.890413
 31
0.0
  0
LINE
  5
1145
100
AcDbEntity
  8
ALPHA
100
AcDbLine
 10
67.062625
 20
110.812491
 30
0.0
 11
66.395899
 21
110.180453
 31
0.0
  0
LWPOLYLINE
  5
1146
100
AcDbEntity
  8
ALPHA
100
AcDbPolyline
 90
        3
 70
     0
 43
0.0
 10
65.571118
 20
107.371277
 10
65.548573
 20
107.371287
 10
65.525899
 20
107.371317
  0
LINE
  5
114B
100
AcDbEntity
  8
ALPHA
100
AcDbLine
 10
64.729173
 20
110.812491
 30
0.0
 11
65.395899
 21
110.180453
 31
0.0
  0
LWPOLYLINE
  5
114C
100
AcDbEntity
  8
ALPHA
100
AcDbPolyline
 90
        5
 70
     0
 43
0.0
 10
66.268039
 20
109.092869
 10
66.28228
 20
109.13294
 10
66.306267
 20
109.164079
 10
66.33501
 20
109.183784
 10
66.365899
 20
109.192514
  0
LINE
  5
1153
100
AcDbEntity
  8
ALPHA
100
AcDbLine
 10
67.062625
 20
108.514489
 30
0.0
 11
66.395899
 21
109.195645
 31
0.0
  0
LINE
  5
1154
100
AcDbEntity
  8
ALPHA
100
AcDbLine
 10
66.569828
 20
109.171086
 30
0.0
 11
66.395899
 21
109.195645
 31
0.0
  0
LWPOLYLINE
  5
1155
100
AcDbEntity
  8
ALPHA
100
AcDbPolyline
 90
        5
 70
     0
 43
0.0
 10
66.879912
 20
109.455394
 10
66.776532
 20
109.488855
 10
66.67828
 20
109.520111
 10
66.584849
 20
109.549173
 10
66.495899
 20
109.576028
  0
LINE
  5
115C
100
AcDbEntity
  8
ALPHA
100
AcDbLine
 10
66.495899
 20
109.455394
 30
0.0
 11
66.495899
 21
109.576028
 31
0.0
  0
LINE
  5
115D
100
AcDbEntity
  8
ALPHA
100
AcDbLine
 10
66.495899
 20
109.455394
 30
0.0
 11
66.879912
 21
109.455394
 31
0.0
  0
LWPOLYLINE
  5
115E
100
AcDbEntity
  8
ALPHA
100
AcDbPolyline
 90
        3
 70
     0
 43
0.0
 10
63.711387
 20
110.511733
 10
63.699457
 20
110.486687
 10
63.59958
 20
110.155893
  0
LWPOLYLINE
  5
1163
100
AcDbEntity
  8
ALPHA
100
AcDbPolyline
 90
        5
 70
     0
 43
0.0
 10
65.425899
 20
109.192514
 10
65.456792
 20
109.183782
 10
65.48554
 20
109.164071
 10
65.509521
 20
109.132935
 10
65.523759
 20
109.092869
  0
LINE
  5
116A
100
AcDbEntity
  8
ALPHA
100
AcDbLine
 10
65.395899
 20
109.195645
 30
0.0
 11
65.22197
 21
109.171086
 31
0.0
  0
LINE
  5
116B
100
AcDbEntity
  8
ALPHA
100
AcDbLine
 10
65.425899
 20
109.192514
 30
0.0
 11
65.425899
 21
109.454512
 31
0.0
  0
LWPOLYLINE
  5
116C
100
AcDbEntity
  8
ALPHA
100
AcDbPolyline
 90
        3
 70
     0
 43
0.0
 10
65.425899
 20
109.454512
 10
65.410934
 20
109.450912
 10
65.395899
 20
109.447238
  0
LINE
  5
1171
100
AcDbEntity
  8
ALPHA
100
AcDbLine
 10
64.729173
 20
108.514489
 30
0.0
 11
65.395899
 21
109.195645
 31
0.0
  0
LINE
  5
1172
100
AcDbEntity
  8
ALPHA
100
AcDbLine
 10
63.238771
 20
109.327369
 30
0.0
 11
65.395899
 21
109.327369
 31
0.0
  0
LWPOLYLINE
  5
1173
100
AcDbEntity
  8
ALPHA
100
AcDbPolyline
 90
        4
 70
     0
 43
0.0
 10
63.294533
 20
109.21864
 10
63.276002
 20
109.254763
 10
63.257415
 20
109.291006
 10
63.238771
 20
109.327369
  0
LINE
  5
1179
100
AcDbEntity
  8
ALPHA
100
AcDbLine
 10
65.395899
 20
109.195645
 30
0.0
 11
65.425899
 21
109.192514
 31
0.0
  0
LWPOLYLINE
  5
117A
100
AcDbEntity
  8
ALPHA
100
AcDbPolyline
 90
        4
 70
     0
 43
0.0
 10
68.553027
 20
109.327369
 10
68.534383
 20
109.291007
 10
68.515796
 20
109.254764
 10
68.497265
 20
109.21864
  0
LINE
  5
1180
100
AcDbEntity
  8
ALPHA
100
AcDbLine
 10
66.395899
 20
109.327369
 30
0.0
 11
68.553027
 21
109.327369
 31
0.0
  0
LWPOLYLINE
  5
1181
100
AcDbEntity
  8
ALPHA
100
AcDbPolyline
 90
        3
 70
     0
 43
0.0
 10
66.395899
 20
109.447238
 10
66.380869
 20
109.450911
 10
66.365899
 20
109.454512
  0
LINE
  5
1186
100
AcDbEntity
  8
ALPHA
100
AcDbLine
 10
66.365899
 20
109.192514
 30
0.0
 11
66.365899
 21
109.454512
 31
0.0
  0
LINE
  5
1187
100
AcDbEntity
  8
ALPHA
100
AcDbLine
 10
66.365899
 20
109.192514
 30
0.0
 11
66.395899
 21
109.195645
 31
0.0
  0
LWPOLYLINE
  5
1188
100
AcDbEntity
  8
ALPHA
100
AcDbPolyline
 90
        3
 70
     0
 43
0.0
 10
63.238771
 20
109.327369
 10
63.203842
 20
109.572276
 10
63.19549
 20
109.748861
  0
LWPOLYLINE
  5
118D
100
AcDbEntity
  8
ALPHA
100
AcDbPolyline
 90
        6
 70
     0
 43
0.0
 10
66.395899
 20
109.356913
 10
66.400793
 20
109.387346
 10
66.414997
 20
109.414799
 10
66.437121
 20
109.436586
 10
66.464997
 20
109.450574
 10
66.495899
 20
109.455394
  0
LINE
  5
1195
100
AcDbEntity
  8
ALPHA
100
AcDbLine
 10
65.295899
 20
109.455394
 30
0.0
 11
65.295899
 21
109.576028
 31
0.0
  0
LWPOLYLINE
  5
1196
100
AcDbEntity
  8
ALPHA
100
AcDbPolyline
 90
        5
 70
     0
 43
0.0
 10
65.295899
 20
109.576028
 10
65.207074
 20
109.549211
 10
65.113684
 20
109.520163
 10
65.01539
 20
109.488894
 10
64.911886
 20
109.455394
  0
LINE
  5
119D
100
AcDbEntity
  8
ALPHA
100
AcDbLine
 10
64.911886
 20
109.455394
 30
0.0
 11
65.295899
 21
109.455394
 31
0.0
  0
LWPOLYLINE
  5
119E
100
AcDbEntity
  8
ALPHA
100
AcDbPolyline
 90
        5
 70
     0
 43
0.0
 10
64.911886
 20
109.455394
 10
64.861575
 20
109.634599
 10
64.844623
 20
109.819773
 10
64.861575
 20
110.004947
 10
64.903952
 20
110.155893
  0
LWPOLYLINE
  5
11A5
100
AcDbEntity
  8
ALPHA
100
AcDbPolyline
 90
        6
 70
     0
 43
0.0
 10
65.295899
 20
109.455394
 10
65.326801
 20
109.450574
 10
65.354678
 20
109.436586
 10
65.376801
 20
109.414799
 10
65.391005
 20
109.387346
 10
65.395899
 20
109.356913
  0
LWPOLYLINE
  5
11AD
100
AcDbEntity
  8
ALPHA
100
AcDbPolyline
 90
        3
 70
     0
 43
0.0
 10
68.59622
 20
109.747011
 10
68.587956
 20
109.572276
 10
68.553027
 20
109.327369
  0
LWPOLYLINE
  5
11B2
100
AcDbEntity
  8
ALPHA
100
AcDbPolyline
 90
        5
 70
     0
 43
0.0
 10
66.887846
 20
110.155893
 10
66.930223
 20
110.004947
 10
66.947176
 20
109.819773
 10
66.930223
 20
109.634599
 10
66.879912
 20
109.455394
  0
LWPOLYLINE
  5
11B9
100
AcDbEntity
  8
ALPHA
100
AcDbPolyline
 90
        9
 70
     0
 43
0.0
 10
63.59958
 20
109.171086
 10
63.699457
 20
108.840293
 10
63.848939
 20
108.526459
 10
64.044234
 20
108.238266
 10
64.281085
 20
107.98196
 10
64.554113
 20
107.763375
 10
64.857204
 20
107.587391
 10
65.183572
 20
107.457944
 10
65.525899
 20
107.377934
  0
LWPOLYLINE
  5
11C4
100
AcDbEntity
  8
ALPHA
100
AcDbPolyline
 90
        4
 70
     0
 43
0.0
 10
65.895899
 20
110.855078
 10
66.021903
 20
110.847615
 10
66.145557
 20
110.82546
 10
66.265899
 20
110.788837
  0
LWPOLYLINE
  5
11CA
100
AcDbEntity
  8
ALPHA
100
AcDbPolyline
 90
        4
 70
     0
 43
0.0
 10
65.525899
 20
110.788837
 10
65.646241
 20
110.82546
 10
65.769895
 20
110.847615
 10
65.895899
 20
110.855078
  0
LWPOLYLINE
  5
11D0
100
AcDbEntity
  8
ALPHA
100
AcDbPolyline
 90
        4
 70
     0
 43
0.0
 10
66.265899
 20
108.850709
 10
66.145557
 20
108.814085
 10
66.021903
 20
108.791931
 10
65.895899
 20
108.784468
  0
LWPOLYLINE
  5
11D6
100
AcDbEntity
  8
ALPHA
100
AcDbPolyline
 90
        4
 70
     0
 43
0.0
 10
65.895899
 20
108.784468
 10
65.769895
 20
108.791931
 10
65.646241
 20
108.814085
 10
65.525899
 20
108.850709
  0
LINE
  5
11DC
100
AcDbEntity
  8
ALPHA
100
AcDbLine
 10
65.525899
 20
107.850157
 30
0.0
 11
66.265899
 21
107.850157
 31
0.0
  0
LWPOLYLINE
  5
11DD
100
AcDbEntity
  8
ALPHA
100
AcDbPolyline
 90
        7
 70
     0
 43
0.0
 10
63.59958
 20
109.171086
 10
63.524484
 20
109.17267
 10
63.452971
 20
109.177427
 10
63.391946
 20
109.184866
 10
63.343427
 20
109.19461
 10
63.309922
 20
109.206267
 10
63.294533
 20
109.21864
  0
LINE
  5
11E6
100
AcDbEntity
  8
ALPHA
100
AcDbLine
 10
66.22068
 20
107.371277
 30
0.0
 11
65.571118
 21
107.371277
 31
0.0
  0
LINE
  5
11E7
100
AcDbEntity
  8
ALPHA
100
AcDbLine
 10
66.569828
 20
109.171086
 30
0.0
 11
68.192218
 21
109.171086
 31
0.0
  0
LINE
  5
11E8
100
AcDbEntity
  8
ALPHA
100
AcDbLine
 10
67.062625
 20
108.514489
 30
0.0
 11
66.569828
 21
109.171086
 31
0.0
  0
LINE
  5
11E9
100
AcDbEntity
  8
ALPHA
100
AcDbLine
 10
66.276282
 20
109.086869
 30
0.0
 11
66.268039
 21
109.092869
 31
0.0
  0
LINE
  5
11EA
100
AcDbEntity
  8
ALPHA
100
AcDbLine
 10
67.062625
 20
108.514489
 30
0.0
 11
66.276282
 21
109.086869
 31
0.0
  0
LWPOLYLINE
  5
11EB
100
AcDbEntity
  8
ALPHA
100
AcDbPolyline
 90
        3
 70
     0
 43
0.0
 10
66.265899
 20
109.072605
 10
66.26645
 20
109.082932
 10
66.268039
 20
109.092869
  0
LWPOLYLINE
  5
11F0
100
AcDbEntity
  8
ALPHA
100
AcDbPolyline
 90
       10
 70
     0
 43
0.0
 10
66.265899
 20
109.349522
 10
66.267287
 20
109.370516
 10
66.271036
 20
109.389009
 10
66.278285
 20
109.408687
 10
66.287869
 20
109.42494
 10
66.301234
 20
109.439498
 10
66.316013
 20
109.449356
 10
66.332939
 20
109.455251
 10
66.348267
 20
109.456728
 10
66.365899
 20
109.454512
  0
LINE
  5
11FC
100
AcDbEntity
  8
ALPHA
100
AcDbLine
 10
67.062625
 20
110.812491
 30
0.0
 11
66.268039
 21
110.23411
 31
0.0
  0
LINE
  5
11FD
100
AcDbEntity
  8
ALPHA
100
AcDbLine
 10
67.062625
 20
110.812491
 30
0.0
 11
66.569828
 21
110.155893
 31
0.0
  0
LWPOLYLINE
  5
11FE
100
AcDbEntity
  8
ALPHA
100
AcDbPolyline
 90
        7
 70
     0
 43
0.0
 10
68.497265
 20
109.21864
 10
68.481876
 20
109.206267
 10
68.448371
 20
109.19461
 10
68.399853
 20
109.184866
 10
68.338827
 20
109.177427
 10
68.267314
 20
109.17267
 10
68.192218
 20
109.171086
  0
LWPOLYLINE
  5
1207
100
AcDbEntity
  8
ALPHA
100
AcDbPolyline
 90
        3
 70
     0
 43
0.0
 10
65.523759
 20
109.092869
 10
65.525348
 20
109.082932
 10
65.525899
 20
109.072605
  0
LINE
  5
120C
100
AcDbEntity
  8
ALPHA
100
AcDbLine
 10
65.515516
 20
109.086869
 30
0.0
 11
65.523759
 21
109.092869
 31
0.0
  0
LINE
  5
120D
100
AcDbEntity
  8
ALPHA
100
AcDbLine
 10
64.729173
 20
108.514489
 30
0.0
 11
65.515516
 21
109.086869
 31
0.0
  0
LWPOLYLINE
  5
120E
100
AcDbEntity
  8
ALPHA
100
AcDbPolyline
 90
        4
 70
     0
 43
0.0
 10
63.59599
 20
108.416659
 10
63.567095
 20
108.467775
 10
63.40151
 20
108.832891
 10
63.294533
 20
109.21864
  0
LINE
  5
1214
100
AcDbEntity
  8
ALPHA
100
AcDbLine
 10
64.729173
 20
108.514489
 30
0.0
 11
65.22197
 21
109.171086
 31
0.0
  0
LINE
  5
1215
100
AcDbEntity
  8
ALPHA
100
AcDbLine
 10
63.59958
 20
109.171086
 30
0.0
 11
65.22197
 21
109.171086
 31
0.0
  0
LWPOLYLINE
  5
1216
100
AcDbEntity
  8
ALPHA
100
AcDbPolyline
 90
        9
 70
     0
 43
0.0
 10
66.265899
 20
107.377934
 10
66.608226
 20
107.457944
 10
66.934594
 20
107.587391
 10
67.237685
 20
107.763375
 10
67.510713
 20
107.98196
 10
67.747564
 20
108.238266
 10
67.942859
 20
108.526459
 10
68.092341
 20
108.840293
 10
68.192218
 20
109.171086
  0
LINE
  5
1221
100
AcDbEntity
  8
ALPHA
100
AcDbLine
 10
64.729173
 20
110.812491
 30
0.0
 11
65.22197
 21
110.155893
 31
0.0
  0
LINE
  5
1222
100
AcDbEntity
  8
ALPHA
100
AcDbLine
 10
64.729173
 20
110.812491
 30
0.0
 11
65.523759
 21
110.23411
 31
0.0
  0
LWPOLYLINE
  5
1223
100
AcDbEntity
  8
ALPHA
100
AcDbPolyline
 90
       10
 70
     0
 43
0.0
 10
66.395899
 20
109.484056
 10
66.397427
 20
109.504923
 10
66.40138
 20
109.522411
 10
66.409134
 20
109.54098
 10
66.41961
 20
109.556075
 10
66.433445
 20
109.568277
 10
66.447758
 20
109.575546
 10
66.464253
 20
109.579296
 10
66.47925
 20
109.579309
 10
66.495899
 20
109.576028
  0
LWPOLYLINE
  5
122F
100
AcDbEntity
  8
ALPHA
100
AcDbPolyline
 90
       10
 70
     0
 43
0.0
 10
65.284492
 20
110.164722
 10
65.262196
 20
110.101973
 10
65.245899
 20
109.959531
 10
65.262196
 20
109.81709
 10
65.310269
 20
109.681791
 10
65.387709
 20
109.56042
 10
65.490631
 20
109.459061
 10
65.613875
 20
109.382799
 10
65.75126
 20
109.335456
 10
65.895899
 20
109.319406
  0
LWPOLYLINE
  5
123B
100
AcDbEntity
  8
ALPHA
100
AcDbPolyline
 90
        4
 70
     0
 43
0.0
 10
65.895899
 20
110.599656
 10
65.75126
 20
110.583607
 10
65.613875
 20
110.536264
 10
65.525899
 20
110.481825
  0
LWPOLYLINE
  5
1241
100
AcDbEntity
  8
ALPHA
100
AcDbPolyline
 90
       10
 70
     0
 43
0.0
 10
65.295899
 20
109.576028
 10
65.312502
 20
109.579304
 10
65.327539
 20
109.579296
 10
65.344104
 20
109.575523
 10
65.35844
 20
109.568219
 10
65.372178
 20
109.556086
 10
65.382567
 20
109.541157
 10
65.390311
 20
109.522757
 10
65.394332
 20
109.505178
 10
65.395899
 20
109.484056
  0
LWPOLYLINE
  5
124D
100
AcDbEntity
  8
ALPHA
100
AcDbPolyline
 90
       10
 70
     0
 43
0.0
 10
65.425899
 20
109.454512
 10
65.443313
 20
109.456725
 10
65.45855
 20
109.455315
 10
65.475616
 20
109.44944
 10
65.490552
 20
109.439509
 10
65.503998
 20
109.424845
 10
65.513548
 20
109.408613
 10
65.52076
 20
109.389017
 10
65.524503
 20
109.370574
 10
65.525899
 20
109.349522
  0
LWPOLYLINE
  5
1259
100
AcDbEntity
  8
ALPHA
100
AcDbPolyline
 90
       10
 70
     0
 43
0.0
 10
66.507307
 20
110.164722
 10
66.529602
 20
110.101973
 10
66.545899
 20
109.959531
 10
66.529602
 20
109.81709
 10
66.481529
 20
109.681791
 10
66.40409
 20
109.56042
 10
66.301167
 20
109.459061
 10
66.177923
 20
109.382799
 10
66.040538
 20
109.335456
 10
65.895899
 20
109.319406
  0
LWPOLYLINE
  5
1265
100
AcDbEntity
  8
ALPHA
100
AcDbPolyline
 90
        4
 70
     0
 43
0.0
 10
65.895899
 20
110.599656
 10
66.040538
 20
110.583607
 10
66.177923
 20
110.536264
 10
66.265899
 20
110.481825
  0
LWPOLYLINE
  5
126B
100
AcDbEntity
  8
ALPHA
100
AcDbPolyline
 90
        3
 70
     0
 43
0.0
 10
66.265899
 20
107.371317
 10
66.243227
 20
107.371287
 10
66.22068
 20
107.371277
  0
LINE
  5
1270
100
AcDbEntity
  8
ALPHA
100
AcDbLine
 10
68.192218
 20
110.155893
 30
0.0
 11
68.095338
 21
110.476762
 31
0.0
  0
LWPOLYLINE
  5
1271
100
AcDbEntity
  8
ALPHA
100
AcDbPolyline
 90
        3
 70
     0
 43
0.0
 10
65.571118
 20
107.371277
 10
65.895899
 20
107.34907
 10
66.22068
 20
107.371277
  0
LWPOLYLINE
  5
1276
100
AcDbEntity
  8
ALPHA
100
AcDbPolyline
 90
        4
 70
     0
 43
0.0
 10
68.195808
 20
108.416659
 10
68.224703
 20
108.467775
 10
68.390288
 20
108.832891
 10
68.497265
 20
109.21864
  0
LINE
  5
127C
100
AcDbEntity
  8
ALPHA
100
AcDbLine
 10
66.395899
 20
110.180453
 30
0.0
 11
66.569828
 21
110.155893
 31
0.0
  0
LWPOLYLINE
  5
127D
100
AcDbEntity
  8
ALPHA
100
AcDbPolyline
 90
        5
 70
     0
 43
0.0
 10
66.365899
 20
110.177322
 10
66.335006
 20
110.178224
 10
66.306258
 20
110.187743
 10
66.282277
 20
110.206692
 10
66.268039
 20
110.23411
  0
LWPOLYLINE
  5
1284
100
AcDbEntity
  8
ALPHA
100
AcDbPolyline
 90
        5
 70
     0
 43
0.0
 10
65.523759
 20
110.23411
 10
65.509519
 20
110.206689
 10
65.485535
 20
110.187741
 10
65.456792
 20
110.178224
 10
65.425899
 20
110.177322
  0
LINE
  5
128B
100
AcDbEntity
  8
ALPHA
100
AcDbLine
 10
65.22197
 20
110.155893
 30
0.0
 11
65.395899
 21
110.180453
 31
0.0
  0
LINE
  5
128C
100
AcDbEntity
  8
ALPHA
100
AcDbLine
 10
66.395899
 20
109.447238
 30
0.0
 11
66.395899
 21
109.484056
 31
0.0
  0
LINE
  5
128D
100
AcDbEntity
  8
ALPHA
100
AcDbLine
 10
66.395899
 20
109.356913
 30
0.0
 11
66.395899
 21
109.447238
 31
0.0
  0
LINE
  5
128E
100
AcDbEntity
  8
ALPHA
100
AcDbLine
 10
66.395899
 20
109.327369
 30
0.0
 11
66.395899
 21
109.356913
 31
0.0
  0
LINE
  5
128F
100
AcDbEntity
  8
ALPHA
100
AcDbLine
 10
66.265899
 20
109.092869
 30
0.0
 11
66.265899
 21
109.349522
 31
0.0
  0
LINE
  5
1290
100
AcDbEntity
  8
ALPHA
100
AcDbLine
 10
65.395899
 20
109.447238
 30
0.0
 11
65.395899
 21
109.484056
 31
0.0
  0
LINE
  5
1291
100
AcDbEntity
  8
ALPHA
100
AcDbLine
 10
65.395899
 20
109.356913
 30
0.0
 11
65.395899
 21
109.447238
 31
0.0
  0
LINE
  5
1292
100
AcDbEntity
  8
ALPHA
100
AcDbLine
 10
65.395899
 20
109.356913
 30
0.0
 11
65.395899
 21
109.327369
 31
0.0
  0
LINE
  5
1293
100
AcDbEntity
  8
ALPHA
100
AcDbLine
 10
65.525899
 20
110.531291
 30
0.0
 11
65.525899
 21
111.446879
 31
0.0
  0
LINE
  5
1294
100
AcDbEntity
  8
ALPHA
100
AcDbLine
 10
65.525899
 20
110.254374
 30
0.0
 11
65.525899
 21
110.531291
 31
0.0
  0
LINE
  5
1295
100
AcDbEntity
  8
ALPHA
100
AcDbLine
 10
65.525899
 20
109.092869
 30
0.0
 11
65.525899
 21
109.349522
 31
0.0
  0
LINE
  5
1296
100
AcDbEntity
  8
ALPHA
100
AcDbLine
 10
65.525899
 20
107.377934
 30
0.0
 11
65.525899
 21
109.072605
 31
0.0
  0
LINE
  5
1297
100
AcDbEntity
  8
ALPHA
100
AcDbLine
 10
66.265899
 20
111.435985
 30
0.0
 11
66.265899
 21
110.254374
 31
0.0
  0
LINE
  5
1298
100
AcDbEntity
  8
ALPHA
100
AcDbLine
 10
66.265899
 20
109.072605
 30
0.0
 11
66.265899
 21
107.377934
 31
0.0
  0
LINE
  5
1299
100
AcDbEntity
  8
ALPHA
100
AcDbLine
 10
63.59599
 20
108.416659
 30
0.0
 11
63.464873
 21
108.642608
 31
0.0
  0
LINE
  5
129A
100
AcDbEntity
  8
ALPHA
100
AcDbLine
 10
66.395899
 20
110.180453
 30
0.0
 11
66.365899
 21
110.177322
 31
0.0
  0
LWPOLYLINE
  5
129B
100
AcDbEntity
  8
ALPHA
100
AcDbPolyline
 90
        3
 70
     0
 43
0.0
 10
63.145122
 20
109.518918
 10
63.130372
 20
109.579424
 10
63.128818
 20
109.598867
  0
LINE
  5
12A0
100
AcDbEntity
  8
ALPHA
100
AcDbLine
 10
63.20618
 20
109.268455
 30
0.0
 11
63.145122
 21
109.518918
 31
0.0
  0
LWPOLYLINE
  5
12A1
100
AcDbEntity
  8
ALPHA
100
AcDbPolyline
 90
        3
 70
     0
 43
0.0
 10
63.248176
 20
109.122461
 10
63.232941
 20
109.158683
 10
63.20618
 20
109.268455
  0
LINE
  5
12A6
100
AcDbEntity
  8
ALPHA
100
AcDbLine
 10
63.363596
 20
108.848047
 30
0.0
 11
63.248176
 21
109.122461
 31
0.0
  0
LWPOLYLINE
  5
12A7
100
AcDbEntity
  8
ALPHA
100
AcDbPolyline
 90
        3
 70
     0
 43
0.0
 10
63.413343
 20
108.736576
 10
63.401081
 20
108.758925
 10
63.363596
 20
108.848047
  0
LINE
  5
12AC
100
AcDbEntity
  8
ALPHA
100
AcDbLine
 10
63.421946
 20
108.720896
 30
0.0
 11
63.413343
 21
108.736576
 31
0.0
  0
LINE
  5
12AD
100
AcDbEntity
  8
ALPHA
100
AcDbLine
 10
63.464823
 20
108.64275
 30
0.0
 11
63.421946
 21
108.720896
 31
0.0
  0
LINE
  5
12AE
100
AcDbEntity
  8
ALPHA
100
AcDbLine
 10
65.425899
 20
110.177322
 30
0.0
 11
65.395899
 21
110.180453
 31
0.0
  0
LWPOLYLINE
  5
12AF
100
AcDbEntity
  8
ALPHA
100
AcDbPolyline
 90
       15
 70
     0
 43
0.0
 10
68.195738
 20
108.416538
 10
67.995954
 20
108.120896
 10
67.720498
 20
107.819491
 10
67.401085
 20
107.563777
 10
67.0452
 20
107.359809
 10
66.661603
 20
107.212667
 10
66.259532
 20
107.125892
 10
65.848666
 20
107.10158
 10
65.438978
 20
107.140316
 10
65.040434
 20
107.24112
 10
64.662544
 20
107.401547
 10
64.314465
 20
107.617674
 10
64.004604
 20
107.8842
 10
63.740254
 20
108.194799
 10
63.596057
 20
108.416544
  0
LINE
  5
12C0
100
AcDbEntity
  8
ALPHA
100
AcDbLine
 10
68.195808
 20
108.416659
 30
0.0
 11
68.326926
 21
108.642608
 31
0.0
  0
LINE
  5
12C1
100
AcDbEntity
  8
ALPHA
100
AcDbLine
 10
68.656359
 20
109.558636
 30
0.0
 11
68.660431
 21
109.575343
 31
0.0
  0
LINE
  5
12C2
100
AcDbEntity
  8
ALPHA
100
AcDbLine
 10
68.559578
 20
109.161639
 30
0.0
 11
68.656359
 21
109.558636
 31
0.0
  0
LWPOLYLINE
  5
12C3
100
AcDbEntity
  8
ALPHA
100
AcDbPolyline
 90
        3
 70
     0
 43
0.0
 10
68.54446
 20
109.124453
 10
68.558857
 20
109.158683
 10
68.559578
 20
109.161639
  0
LINE
  5
12C8
100
AcDbEntity
  8
ALPHA
100
AcDbLine
 10
68.401335
 20
108.784168
 30
0.0
 11
68.54446
 21
109.124453
 31
0.0
  0
LWPOLYLINE
  5
12C9
100
AcDbEntity
  8
ALPHA
100
AcDbPolyline
 90
        3
 70
     0
 43
0.0
 10
68.326975
 20
108.64275
 10
68.390717
 20
108.758925
 10
68.401335
 20
108.784168
  0
LWPOLYLINE
  5
12CE
100
AcDbEntity
  8
ALPHA
100
AcDbPolyline
 90
        3
 70
     0
 43
0.0
 10
65.525899
 20
110.254374
 10
65.525348
 20
110.244047
 10
65.523759
 20
110.23411
  0
LWPOLYLINE
  5
12D3
100
AcDbEntity
  8
ALPHA
100
AcDbPolyline
 90
        3
 70
     0
 43
0.0
 10
66.268039
 20
110.23411
 10
66.26645
 20
110.244047
 10
66.265899
 20
110.254374
  0
LINE
  5
12D8
100
AcDbEntity
  8
ALPHA
100
AcDbLine
 10
66.569828
 20
110.155893
 30
0.0
 11
68.192218
 21
110.155893
 31
0.0
  0
LINE
  5
12D9
100
AcDbEntity
  8
ALPHA
100
AcDbLine
 10
63.59958
 20
110.155893
 30
0.0
 11
65.22197
 21
110.155893
 31
0.0
  0
LINE
  5
12DA
100
AcDbEntity
  8
ALPHA
100
AcDbLine
 10
66.265899
 20
109.092869
 30
0.0
 11
66.265899
 21
109.349522
 31
0.0
  0
LWPOLYLINE
  5
12DB
100
AcDbEntity
  8
ALPHA
100
AcDbPolyline
 90
        4
 70
     0
 43
0.0
 10
68.192218
 20
110.155893
 10
68.267314
 20
110.157478
 10
68.338827
 20
110.162235
 10
68.349409
 20
110.163525
  0
LWPOLYLINE
  5
12E1
100
AcDbEntity
  8
ALPHA
100
AcDbPolyline
 90
        4
 70
     0
 43
0.0
 10
63.434885
 20
110.164439
 10
63.452971
 20
110.162235
 10
63.524484
 20
110.157478
 10
63.59958
 20
110.155893
  0
LINE
  5
12E7
100
AcDbEntity
  8
ALPHA
100
AcDbLine
 10
66.265899
 20
107.377934
 30
0.0
 11
66.265899
 21
107.371317
 31
0.0
  0
LINE
  5
12E8
100
AcDbEntity
  8
ALPHA
100
AcDbLine
 10
65.525899
 20
107.371317
 30
0.0
 11
65.525899
 21
107.377934
 31
0.0
  0
LINE
  5
12E9
100
AcDbEntity
  8
ALPHA
100
AcDbLine
 10
66.395899
 20
109.447238
 30
0.0
 11
66.395899
 21
109.484056
 31
0.0
  0
LINE
  5
12EA
100
AcDbEntity
  8
ALPHA
100
AcDbLine
 10
66.395899
 20
109.356913
 30
0.0
 11
66.395899
 21
109.447238
 31
0.0
  0
LINE
  5
12EB
100
AcDbEntity
  8
ALPHA
100
AcDbLine
 10
58.66991
 20
109.602945
 30
0.0
 11
58.694113
 21
109.82967
 31
0.0
  0
LINE
  5
12EC
100
AcDbEntity
  8
ALPHA
100
AcDbLine
 10
58.656359
 20
109.476001
 30
0.0
 11
58.66991
 21
109.602945
 31
0.0
  0
LWPOLYLINE
  5
12ED
100
AcDbEntity
  8
ALPHA
100
AcDbPolyline
 90
        4
 70
     0
 43
0.0
 10
58.559578
 20
109.079004
 10
58.560886
 20
109.082221
 10
58.653734
 20
109.45141
 10
58.656359
 20
109.476001
  0
LINE
  5
12F3
100
AcDbEntity
  8
ALPHA
100
AcDbLine
 10
58.54446
 20
109.041818
 30
0.0
 11
58.559578
 21
109.079004
 31
0.0
  0
LWPOLYLINE
  5
12F4
100
AcDbEntity
  8
ALPHA
100
AcDbPolyline
 90
        3
 70
     0
 43
0.0
 10
58.401335
 20
108.701533
 10
58.417335
 20
108.729126
 10
58.54446
 20
109.041818
  0
LINE
  5
12F9
100
AcDbEntity
  8
ALPHA
100
AcDbLine
 10
58.321254
 20
108.563432
 30
0.0
 11
58.401335
 21
108.701533
 31
0.0
  0
LWPOLYLINE
  5
12FA
100
AcDbEntity
  8
ALPHA
100
AcDbPolyline
 90
        3
 70
     0
 43
0.0
 10
53.413343
 20
108.653941
 10
53.416343
 20
108.647218
 10
53.421946
 20
108.638261
  0
LINE
  5
12FF
100
AcDbEntity
  8
ALPHA
100
AcDbLine
 10
53.363596
 20
108.765412
 30
0.0
 11
53.413343
 21
108.653941
 31
0.0
  0
LWPOLYLINE
  5
1300
100
AcDbEntity
  8
ALPHA
100
AcDbPolyline
 90
        3
 70
     0
 43
0.0
 10
53.248176
 20
109.039825
 10
53.260954
 20
108.995405
 10
53.363596
 20
108.765412
  0
LINE
  5
1305
100
AcDbEntity
  8
ALPHA
100
AcDbLine
 10
53.20618
 20
109.18582
 30
0.0
 11
53.248176
 21
109.039825
 31
0.0
  0
LWPOLYLINE
  5
1306
100
AcDbEntity
  8
ALPHA
100
AcDbPolyline
 90
        3
 70
     0
 43
0.0
 10
53.145122
 20
109.436283
 10
53.155692
 20
109.361337
 10
53.20618
 20
109.18582
  0
LINE
  5
130B
100
AcDbEntity
  8
ALPHA
100
AcDbLine
 10
53.122244
 20
109.598495
 30
0.0
 11
53.145122
 21
109.436283
 31
0.0
  0
LWPOLYLINE
  5
130C
100
AcDbEntity
  8
ALPHA
100
AcDbPolyline
 90
        3
 70
     0
 43
0.0
 10
53.099619
 20
109.82229
 10
53.102561
 20
109.738052
 10
53.122244
 20
109.598495
  0
LINE
  5
1311
100
AcDbEntity
  8
ALPHA
100
AcDbLine
 10
78.66991
 20
109.602945
 30
0.0
 11
78.694113
 21
109.82967
 31
0.0
  0
LINE
  5
1312
100
AcDbEntity
  8
ALPHA
100
AcDbLine
 10
78.656359
 20
109.476001
 30
0.0
 11
78.66991
 21
109.602945
 31
0.0
  0
LWPOLYLINE
  5
1313
100
AcDbEntity
  8
ALPHA
100
AcDbPolyline
 90
        4
 70
     0
 43
0.0
 10
78.559578
 20
109.079004
 10
78.560886
 20
109.082221
 10
78.653734
 20
109.45141
 10
78.656359
 20
109.476001
  0
LINE
  5
1319
100
AcDbEntity
  8
ALPHA
100
AcDbLine
 10
78.54446
 20
109.041818
 30
0.0
 11
78.559578
 21
109.079004
 31
0.0
  0
LWPOLYLINE
  5
131A
100
AcDbEntity
  8
ALPHA
100
AcDbPolyline
 90
        3
 70
     0
 43
0.0
 10
78.401335
 20
108.701533
 10
78.417335
 20
108.729126
 10
78.54446
 20
109.041818
  0
LINE
  5
131F
100
AcDbEntity
  8
ALPHA
100
AcDbLine
 10
78.321254
 20
108.563432
 30
0.0
 11
78.401335
 21
108.701533
 31
0.0
  0
LWPOLYLINE
  5
1320
100
AcDbEntity
  8
ALPHA
100
AcDbPolyline
 90
        3
 70
     0
 43
0.0
 10
73.413343
 20
108.653941
 10
73.416343
 20
108.647218
 10
73.421946
 20
108.638261
  0
LINE
  5
1325
100
AcDbEntity
  8
ALPHA
100
AcDbLine
 10
73.363596
 20
108.765412
 30
0.0
 11
73.413343
 21
108.653941
 31
0.0
  0
LWPOLYLINE
  5
1326
100
AcDbEntity
  8
ALPHA
100
AcDbPolyline
 90
        3
 70
     0
 43
0.0
 10
73.248176
 20
109.039825
 10
73.260954
 20
108.995405
 10
73.363596
 20
108.765412
  0
LINE
  5
132B
100
AcDbEntity
  8
ALPHA
100
AcDbLine
 10
73.20618
 20
109.18582
 30
0.0
 11
73.248176
 21
109.039825
 31
0.0
  0
LWPOLYLINE
  5
132C
100
AcDbEntity
  8
ALPHA
100
AcDbPolyline
 90
        3
 70
     0
 43
0.0
 10
73.145122
 20
109.436283
 10
73.155692
 20
109.361337
 10
73.20618
 20
109.18582
  0
LINE
  5
1331
100
AcDbEntity
  8
ALPHA
100
AcDbLine
 10
73.122244
 20
109.598495
 30
0.0
 11
73.145122
 21
109.436283
 31
0.0
  0
LWPOLYLINE
  5
1332
100
AcDbEntity
  8
ALPHA
100
AcDbPolyline
 90
        3
 70
     0
 43
0.0
 10
73.099619
 20
109.82229
 10
73.102561
 20
109.738052
 10
73.122244
 20
109.598495
  0
LINE
  5
1337
100
AcDbEntity
  8
ALPHA
100
AcDbLine
 10
68.656359
 20
109.558636
 30
0.0
 11
68.65865
 21
109.580104
 31
0.0
  0
LWPOLYLINE
  5
1338
100
AcDbEntity
  8
ALPHA
100
AcDbPolyline
 90
        4
 70
     0
 43
0.0
 10
68.559578
 20
109.161639
 10
68.560886
 20
109.164856
 10
68.653734
 20
109.534045
 10
68.656359
 20
109.558636
  0
LINE
  5
133E
100
AcDbEntity
  8
ALPHA
100
AcDbLine
 10
68.54446
 20
109.124453
 30
0.0
 11
68.559578
 21
109.161639
 31
0.0
  0
LWPOLYLINE
  5
133F
100
AcDbEntity
  8
ALPHA
100
AcDbPolyline
 90
        3
 70
     0
 43
0.0
 10
68.401335
 20
108.784168
 10
68.417335
 20
108.811761
 10
68.54446
 20
109.124453
  0
LINE
  5
1344
100
AcDbEntity
  8
ALPHA
100
AcDbLine
 10
68.321254
 20
108.646067
 30
0.0
 11
68.401335
 21
108.784168
 31
0.0
  0
LWPOLYLINE
  5
1345
100
AcDbEntity
  8
ALPHA
100
AcDbPolyline
 90
        3
 70
     0
 43
0.0
 10
63.413343
 20
108.736576
 10
63.416343
 20
108.729853
 10
63.421946
 20
108.720896
  0
LINE
  5
134A
100
AcDbEntity
  8
ALPHA
100
AcDbLine
 10
63.363596
 20
108.848047
 30
0.0
 11
63.413343
 21
108.736576
 31
0.0
  0
LWPOLYLINE
  5
134B
100
AcDbEntity
  8
ALPHA
100
AcDbPolyline
 90
        3
 70
     0
 43
0.0
 10
63.248176
 20
109.122461
 10
63.260954
 20
109.078041
 10
63.363596
 20
108.848047
  0
LINE
  5
1350
100
AcDbEntity
  8
ALPHA
100
AcDbLine
 10
63.20618
 20
109.268455
 30
0.0
 11
63.248176
 21
109.122461
 31
0.0
  0
LWPOLYLINE
  5
1351
100
AcDbEntity
  8
ALPHA
100
AcDbPolyline
 90
        3
 70
     0
 43
0.0
 10
63.145122
 20
109.518918
 10
63.155692
 20
109.443972
 10
63.20618
 20
109.268455
  0
LINE
  5
1356
100
AcDbEntity
  8
ALPHA
100
AcDbLine
 10
63.132521
 20
109.608259
 30
0.0
 11
63.145122
 21
109.518918
 31
0.0
  0
ENDSEC
  0
SECTION
  2
OBJECTS
  0
DICTIONARY
  5
1FC5
100
AcDbDictionary
  3
ACAD_GROUP
350
1FC6
  3
ACAD_MLINESTYLE
350
1FD3
  3
ACDBVARIABLEDICTIONARY
350
1FE3
  0
DICTIONARY
  5
1FC6
102
{ACAD_REACTORS
330
1FC5
102
}
100
AcDbDictionary
  0
DICTIONARY
  5
1FD3
102
{ACAD_REACTORS
330
1FC5
102
}
100
AcDbDictionary
  3
STANDARD
350
1FD4
  0
DICTIONARY
  5
1FE3
102
{ACAD_REACTORS
330
1FC5
102
}
100
AcDbDictionary
  3
DIMADEC
350
1FE4
  0
MLINESTYLE
  5
1FD4
102
{ACAD_REACTORS
330
1FD3
102
}
100
AcDbMlineStyle
  2
STANDARD
 70
     0
  3

 62
   256
 51
90.0
 52
90.0
 71
     2
 49
0.5
 62
   256
  6
BYLAYER
 49
-0.5
 62
   256
  6
BYLAYER
  0
DICTIONARYVAR
  5
1FE4
102
{ACAD_REACTORS
330
1FE3
102
}
100
DictionaryVariables
280
     0
  1
0
  0
ENDSEC
  0
EOF
