  0
SECTION
  2
HEADER
  9
$ACADVER
  1
AC1012
  9
$DWGCODEPAGE
  3
ANSI_1252
  9
$INSBASE
 10
0.0
 20
0.0
 30
0.0
  9
$EXTMIN
 10
28.643866
 20
28.208656
 30
-0.001526
  9
$EXTMAX
 10
128.86599
 20
370.773071
 30
0.0
  9
$LIMMIN
 10
21.500324
 20
168.366123
  9
$LIMMAX
 10
144.764979
 20
237.902791
  9
$ORTHOMODE
 70
     1
  9
$REGENMODE
 70
     1
  9
$FILLMODE
 70
     1
  9
$QTEXTMODE
 70
     0
  9
$MIRRTEXT
 70
     1
  9
$DRAGMODE
 70
     2
  9
$LTSCALE
 40
10.0
  9
$OSMODE
 70
    39
  9
$ATTMODE
 70
     1
  9
$TEXTSIZE
 40
0.2
  9
$TRACEWID
 40
0.05
  9
$TEXTSTYLE
  7
STANDARD
  9
$CLAYER
  8
0
  9
$CELTYPE
  6
CONTINUOUS
  9
$CECOLOR
 62
   256
  9
$CELTSCALE
 40
1.0
  9
$DELOBJ
 70
     1
  9
$DISPSILH
 70
     0
  9
$DIMSCALE
 40
1.0
  9
$DIMASZ
 40
0.18
  9
$DIMEXO
 40
0.0625
  9
$DIMDLI
 40
0.38
  9
$DIMRND
 40
0.0
  9
$DIMDLE
 40
0.0
  9
$DIMEXE
 40
0.18
  9
$DIMTP
 40
0.0
  9
$DIMTM
 40
0.0
  9
$DIMTXT
 40
0.18
  9
$DIMCEN
 40
0.09
  9
$DIMTSZ
 40
0.0
  9
$DIMTOL
 70
     0
  9
$DIMLIM
 70
     0
  9
$DIMTIH
 70
     1
  9
$DIMTOH
 70
     1
  9
$DIMSE1
 70
     0
  9
$DIMSE2
 70
     0
  9
$DIMTAD
 70
     0
  9
$DIMZIN
 70
     0
  9
$DIMBLK
  1

  9
$DIMASO
 70
     1
  9
$DIMSHO
 70
     1
  9
$DIMPOST
  1

  9
$DIMAPOST
  1

  9
$DIMALT
 70
     0
  9
$DIMALTD
 70
     2
  9
$DIMALTF
 40
25.4
  9
$DIMLFAC
 40
1.0
  9
$DIMTOFL
 70
     0
  9
$DIMTVP
 40
0.0
  9
$DIMTIX
 70
     0
  9
$DIMSOXD
 70
     0
  9
$DIMSAH
 70
     0
  9
$DIMBLK1
  1

  9
$DIMBLK2
  1

  9
$DIMSTYLE
  2
STANDARD
  9
$DIMCLRD
 70
     0
  9
$DIMCLRE
 70
     0
  9
$DIMCLRT
 70
     0
  9
$DIMTFAC
 40
1.0
  9
$DIMGAP
 40
0.09
  9
$DIMJUST
 70
     0
  9
$DIMSD1
 70
     0
  9
$DIMSD2
 70
     0
  9
$DIMTOLJ
 70
     1
  9
$DIMTZIN
 70
     0
  9
$DIMALTZ
 70
     0
  9
$DIMALTTZ
 70
     0
  9
$DIMFIT
 70
     3
  9
$DIMUPT
 70
     0
  9
$DIMUNIT
 70
     2
  9
$DIMDEC
 70
     4
  9
$DIMTDEC
 70
     4
  9
$DIMALTU
 70
     2
  9
$DIMALTTD
 70
     2
  9
$DIMTXSTY
  7
STANDARD
  9
$DIMAUNIT
 70
     0
  9
$LUNITS
 70
     2
  9
$LUPREC
 70
     4
  9
$SKETCHINC
 40
0.1
  9
$FILLETRAD
 40
0.0
  9
$AUNITS
 70
     0
  9
$AUPREC
 70
     0
  9
$MENU
  1
acad
  9
$ELEVATION
 40
0.0
  9
$PELEVATION
 40
0.0
  9
$THICKNESS
 40
0.0
  9
$LIMCHECK
 70
     0
  9
$BLIPMODE
 70
     0
  9
$CHAMFERA
 40
0.0
  9
$CHAMFERB
 40
0.0
  9
$CHAMFERC
 40
0.0
  9
$CHAMFERD
 40
0.0
  9
$SKPOLY
 70
     0
  9
$TDCREATE
 40
2453627.679171909
  9
$TDUPDATE
 40
2453689.696627697
  9
$TDINDWG
 40
0.1134468171
  9
$TDUSRTIMER
 40
0.1134462731
  9
$USRTIMER
 70
     1
  9
$ANGBASE
 50
0.0
  9
$ANGDIR
 70
     0
  9
$PDMODE
 70
     0
  9
$PDSIZE
 40
0.0
  9
$PLINEWID
 40
0.0
  9
$COORDS
 70
     0
  9
$SPLFRAME
 70
     0
  9
$SPLINETYPE
 70
     6
  9
$SPLINESEGS
 70
     8
  9
$ATTDIA
 70
     0
  9
$ATTREQ
 70
     1
  9
$HANDLING
 70
     1
  9
$HANDSEED
  5
9B0
  9
$SURFTAB1
 70
     6
  9
$SURFTAB2
 70
     6
  9
$SURFTYPE
 70
     6
  9
$SURFU
 70
     6
  9
$SURFV
 70
     6
  9
$UCSNAME
  2

  9
$UCSORG
 10
0.0
 20
0.0
 30
0.0
  9
$UCSXDIR
 10
1.0
 20
0.0
 30
0.0
  9
$UCSYDIR
 10
0.0
 20
1.0
 30
0.0
  9
$PUCSNAME
  2

  9
$PUCSORG
 10
0.0
 20
0.0
 30
0.0
  9
$PUCSXDIR
 10
1.0
 20
0.0
 30
0.0
  9
$PUCSYDIR
 10
0.0
 20
1.0
 30
0.0
  9
$USERI1
 70
     0
  9
$USERI2
 70
     0
  9
$USERI3
 70
     0
  9
$USERI4
 70
     0
  9
$USERI5
 70
     0
  9
$USERR1
 40
0.0
  9
$USERR2
 40
0.0
  9
$USERR3
 40
0.0
  9
$USERR4
 40
0.0
  9
$USERR5
 40
0.0
  9
$WORLDVIEW
 70
     1
  9
$SHADEDGE
 70
     3
  9
$SHADEDIF
 70
    70
  9
$TILEMODE
 70
     1
  9
$MAXACTVP
 70
    16
  9
$PINSBASE
 10
0.0
 20
0.0
 30
0.0
  9
$PLIMCHECK
 70
     0
  9
$PEXTMIN
 10
1.000000E+20
 20
1.000000E+20
 30
1.000000E+20
  9
$PEXTMAX
 10
-1.000000E+20
 20
-1.000000E+20
 30
-1.000000E+20
  9
$PLIMMIN
 10
0.0
 20
0.0
  9
$PLIMMAX
 10
12.0
 20
9.0
  9
$UNITMODE
 70
     0
  9
$VISRETAIN
 70
     0
  9
$PLINEGEN
 70
     1
  9
$PSLTSCALE
 70
     0
  9
$TREEDEPTH
 70
  3020
  9
$PICKSTYLE
 70
     1
  9
$CMLSTYLE
  2
STANDARD
  9
$CMLJUST
 70
     0
  9
$CMLSCALE
 40
1.0
  9
$SAVEIMAGES
 70
     0
  0
ENDSEC
  0
SECTION
  2
CLASSES
  0
CLASS
  1
LWPOLYLINE
  2
AcDbPolyline
  3
"AutoCAD"
 90
    32768
280
     0
281
     1
  0
CLASS
  1
IMAGE
  2
AcDbRasterImage
  3
ISM
 90
    32895
280
     0
281
     1
  0
CLASS
  1
OLE2FRAME
  2
AcDbOle2Frame
  3
""
 90
    32768
280
     0
281
     1
  0
CLASS
  1
HATCH
  2
AcDbHatch
  3
"ACAD_SEDONA"
 90
    32768
280
     0
281
     1
  0
CLASS
  1
DICTIONARYVAR
  2
AcDbDictionaryVar
  3
"AutoCAD"
 90
    32768
280
     0
281
     0
  0
CLASS
  1
RASTERVARIABLES
  2
AcDbRasterVariables
  3
ISM
 90
    32768
280
     0
281
     0
  0
CLASS
  1
IMAGEDEF
  2
AcDbRasterImageDef
  3
ISM
 90
    32768
280
     0
281
     0
  0
CLASS
  1
IMAGEDEF_REACTOR
  2
AcDbRasterImageDefReactor
  3
ISM
 90
    32769
280
     0
281
     0
  0
CLASS
  1
SPATIAL_FILTER
  2
AcDbSpatialFilter
  3
"Acad"
 90
    32768
280
     0
281
     0
  0
CLASS
  1
XRECORD
  2
AcDbXrecord
  3
"<Built In>"
 90
    32768
280
     0
281
     0
  0
CLASS
  1
SORTENTSTABLE
  2
AcDbSortentsTable
  3
"AutoCAD"
 90
    32768
280
     0
281
     0
  0
CLASS
  1
LAYER_INDEX
  2
AcDbLayerIndex
  3
"Acad"
 90
    32768
280
     0
281
     0
  0
CLASS
  1
SPATIAL_INDEX
  2
AcDbSpatialIndex
  3
"Acad"
 90
    32768
280
     0
281
     0
  0
CLASS
  1
OBJECT_PTR
  2
CAseDLPNTableRecord
  3
"ASE-LPNTableRecord"
 90
    32769
280
     0
281
     0
  0
CLASS
  1
LAYOUT
  2
AcDbLayout
  3
AutoCAD 2000
 90
    32768
280
     0
281
     0
  0
CLASS
  1
PLOTSETTINGS
  2
AcDbPlotSettings
  3
AutoCAD 2000
 90
    32768
280
     0
281
     0
  0
CLASS
  1
ACDBDICTIONARYWDFLT
  2
AcDbDictionaryWithDefault
  3
AutoCAD 2000
 90
    32768
280
     0
281
     0
  0
CLASS
  1
ACDBPLACEHOLDER
  2
AcDbPlaceHolder
  3
AutoCAD 2000
 90
    32768
280
     0
281
     0
  0
CLASS
  1
VBA_PROJECT
  2
AcDbVbaProject
  3
acad
 90
    32768
280
     0
281
     0
  0
CLASS
  1
WIPEOUT
  2
AcDbWipeout
  3
"WipeOut|Product Desc: Object Enabler for WipeOut entity^I^I^I^I^I^I|Company: Autodesk, Inc.^I^I^I^I^I^I|WEB Address: www.autodesk.com"
 90
    32895
280
     0
281
     1
  0
CLASS
  1
WIPEOUTVARIABLES
  2
AcDbWipeoutVariables
  3
"WipeOut|Product Desc:     WipeOut Dbx Application|Company:          Autodesk, Inc.|WEB Address:      www.autodesk.com"
 90
    32768
280
     0
281
     0
  0
CLASS
  1
RTEXT
  2
RText
  3
RText|AutoCAD Express Tool|expresstools@autodesk.com
 90
    32768
280
     0
281
     1
  0
CLASS
  1
ARCALIGNEDTEXT
  2
AcDbArcAlignedText
  3
ATEXT|AutoCAD Express Tool|expresstools@autodesk.com
 90
    32768
280
     0
281
     1
  0
CLASS
  1
TABLESTYLE
  2
AcDbTableStyle
  3
ObjectDBX Classes
 90
    34815
280
     0
281
     0
  0
CLASS
  1
ACAD_PROXY_OBJECT_WRAPPER
  2
AcDbProxyObjectWrapper
  3
AutoCAD 2000
 90
    32768
280
     0
281
     0
  0
CLASS
  1
LONG_TRANSACTION
  2
AcDbLongTransaction
  3
AutoCAD 2000
 90
    32768
280
     0
281
     0
  0
CLASS
  1
LWPOLYLINE
  2
AcDbPolyline
  3
"AutoCAD"
 90
    32768
280
     0
281
     1
  0
CLASS
  1
HATCH
  2
AcDbHatch
  3
"ACAD_SEDONA"
 90
    32768
280
     0
281
     1
  0
CLASS
  1
XRECORD
  2
AcDbXrecord
  3
"<Built In>"
 90
    32768
280
     0
281
     0
  0
ENDSEC
  0
SECTION
  2
TABLES
  0
TABLE
  2
VPORT
  5
7
100
AcDbSymbolTable
 70
     2
  0
VPORT
  5
9AF
100
AcDbSymbolTableRecord
100
AcDbViewportTableRecord
  2
*ACTIVE
 70
     0
 10
0.0
 20
0.0
 11
1.0
 21
1.0
 12
78.754928
 22
199.490863
 13
0.0
 23
0.0
 14
1.0
 24
1.0
 15
0.0
 25
0.0
 16
0.0
 26
0.0
 36
1.0
 17
0.0
 27
0.0
 37
0.0
 40
346.12661
 41
1.673611
 42
50.0
 43
0.0
 44
0.0
 50
0.0
 51
0.0
 71
     0
 72
   100
 73
     1
 74
     3
 75
     0
 76
     0
 77
     0
 78
     0
  0
ENDTAB
  0
TABLE
  2
LTYPE
  5
4
100
AcDbSymbolTable
 70
     2
  0
LTYPE
  5
11
102
{ACAD_XDICTIONARY
360
970
102
}
100
AcDbSymbolTableRecord
100
AcDbLinetypeTableRecord
  2
BYBLOCK
 70
     0
  3

 72
    65
 73
     0
 40
0.0
  0
LTYPE
  5
12
102
{ACAD_XDICTIONARY
360
972
102
}
100
AcDbSymbolTableRecord
100
AcDbLinetypeTableRecord
  2
BYLAYER
 70
     0
  3

 72
    65
 73
     0
 40
0.0
  0
LTYPE
  5
13
102
{ACAD_XDICTIONARY
360
974
102
}
100
AcDbSymbolTableRecord
100
AcDbLinetypeTableRecord
  2
CONTINUOUS
 70
     0
  3
Solid line
 72
    65
 73
     0
 40
0.0
  0
LTYPE
  5
FA
100
AcDbSymbolTableRecord
100
AcDbLinetypeTableRecord
  2
AXES2
 70
     0
  3
___ _ ___ _ ___ _ ___ _ ___ _ ___ _ ___ _ ___ _
 72
    65
 73
     4
 40
1.125
 49
0.75
 74
     0
 49
-0.125
 74
     0
 49
0.125
 74
     0
 49
-0.125
 74
     0
  0
ENDTAB
  0
TABLE
  2
LAYER
  5
2
100
AcDbSymbolTable
 70
     5
  0
LAYER
  5
14
100
AcDbSymbolTableRecord
100
AcDbLayerTableRecord
  2
0
 70
     0
 62
     7
  6
CONTINUOUS
  0
LAYER
  5
FC
100
AcDbSymbolTableRecord
100
AcDbLayerTableRecord
  2
COTATION1
 70
     0
 62
     2
  6
CONTINUOUS
  0
LAYER
  5
FD
100
AcDbSymbolTableRecord
100
AcDbLayerTableRecord
  2
AXE
 70
     0
 62
    80
  6
AXES2
  0
LAYER
  5
FE
102
{ACAD_XDICTIONARY
360
9A6
102
}
100
AcDbSymbolTableRecord
100
AcDbLayerTableRecord
  2
DEFPOINTS
 70
     0
 62
     7
  6
CONTINUOUS
  0
LAYER
  5
FF
100
AcDbSymbolTableRecord
100
AcDbLayerTableRecord
  2
ALPHA
 70
     0
 62
   254
  6
CONTINUOUS
  0
ENDTAB
  0
TABLE
  2
STYLE
  5
3
100
AcDbSymbolTable
 70
     2
  0
STYLE
  5
17
102
{ACAD_XDICTIONARY
360
976
102
}
100
AcDbSymbolTableRecord
100
AcDbTextStyleTableRecord
  2
STANDARD
 70
     0
 40
0.0
 41
1.0
 50
0.0
 71
     0
 42
0.0
  3
txt
  4

  0
STYLE
  5
101
100
AcDbSymbolTableRecord
100
AcDbTextStyleTableRecord
  2
ROMANS
 70
     0
 40
0.0
 41
1.0
 50
0.0
 71
     0
 42
6.0
  3
romans
  4

  0
ENDTAB
  0
TABLE
  2
VIEW
  5
5
100
AcDbSymbolTable
 70
     0
  0
ENDTAB
  0
TABLE
  2
UCS
  5
6
100
AcDbSymbolTable
 70
     0
  0
ENDTAB
  0
TABLE
  2
APPID
  5
8
100
AcDbSymbolTable
 70
     1
  0
APPID
  5
16
100
AcDbSymbolTableRecord
100
AcDbRegAppTableRecord
  2
ACAD
 70
     0
  0
ENDTAB
  0
TABLE
  2
DIMSTYLE
  5
9
100
AcDbSymbolTable
 70
     2
  0
DIMSTYLE
105
18
102
{ACAD_XDICTIONARY
360
96E
102
}
100
AcDbSymbolTableRecord
100
AcDbDimStyleTableRecord
  2
STANDARD
 70
     0
  3

  4

  5

  6

  7

 40
1.0
 41
0.18
 42
0.0625
 43
0.38
 44
0.18
 45
0.0
 46
0.0
 47
0.0
 48
0.0
140
0.18
141
0.09
142
0.0
143
25.4
144
1.0
145
0.0
146
1.0
147
0.09
 71
     0
 72
     0
 73
     1
 74
     1
 75
     0
 76
     0
 77
     0
 78
     0
170
     0
171
     2
172
     0
173
     0
174
     0
175
     0
176
     0
177
     0
178
     0
270
     2
271
     4
272
     4
273
     2
274
     2
340
17
275
     0
280
     0
281
     0
282
     0
283
     1
284
     0
285
     0
286
     0
287
     3
288
     0
  0
DIMSTYLE
105
102
102
{ACAD_XDICTIONARY
360
9A8
102
}
102
{ACAD_REACTORS
330
61B
330
61C
330
61F
330
620
102
}
100
AcDbSymbolTableRecord
100
AcDbDimStyleTableRecord
  2
SC_DEFAUT
 70
     0
  3

  4

  5
OPEN30
  6

  7

 40
1.0
 41
5.0
 42
2.0
 43
0.38
 44
2.5
 45
0.0
 46
0.0
 47
0.0
 48
0.0
140
2.5
141
0.0
142
0.0
143
25.4
144
1.0
145
0.0
146
1.0
147
2.0
 71
     0
 72
     0
 73
     1
 74
     1
 75
     0
 76
     0
 77
     1
 78
    12
170
     0
171
     2
172
     0
173
     0
174
     0
175
     0
176
     0
177
     0
178
     0
270
     2
271
     1
272
     1
273
     2
274
     2
340
101
275
     0
280
     0
281
     0
282
     0
283
     1
284
    12
285
    12
286
    12
287
     5
288
     0
  0
ENDTAB
  0
TABLE
  2
BLOCK_RECORD
  5
1
100
AcDbSymbolTable
 70
     5
  0
BLOCK_RECORD
  5
A
102
{ACAD_XDICTIONARY
360
1B0
102
}
100
AcDbSymbolTableRecord
100
AcDbBlockTableRecord
  2
*MODEL_SPACE
  0
BLOCK_RECORD
  5
B
102
{ACAD_XDICTIONARY
360
99C
102
}
100
AcDbSymbolTableRecord
100
AcDbBlockTableRecord
  2
*PAPER_SPACE
  0
BLOCK_RECORD
  5
CF
100
AcDbSymbolTableRecord
100
AcDbBlockTableRecord
  2
_OPEN30
  0
BLOCK_RECORD
  5
621
100
AcDbSymbolTableRecord
100
AcDbBlockTableRecord
  2
*D1
  0
BLOCK_RECORD
  5
62E
100
AcDbSymbolTableRecord
100
AcDbBlockTableRecord
  2
*D2
  0
BLOCK_RECORD
  5
63B
100
AcDbSymbolTableRecord
100
AcDbBlockTableRecord
  2
*D3
  0
BLOCK_RECORD
  5
647
100
AcDbSymbolTableRecord
100
AcDbBlockTableRecord
  2
*D4
  0
ENDTAB
  0
ENDSEC
  0
SECTION
  2
BLOCKS
  0
BLOCK
  5
D
100
AcDbEntity
  8
0
100
AcDbBlockBegin
  2
*MODEL_SPACE
 70
     0
 10
0.0
 20
0.0
 30
0.0
  3
*MODEL_SPACE
  1

  0
ENDBLK
  5
E
100
AcDbEntity
  8
0
100
AcDbBlockEnd
  0
BLOCK
  5
F
100
AcDbEntity
 67
     1
  8
0
100
AcDbBlockBegin
  2
*PAPER_SPACE
 70
     0
 10
0.0
 20
0.0
 30
0.0
  3
*PAPER_SPACE
  1

  0
ENDBLK
  5
10
100
AcDbEntity
 67
     1
  8
0
100
AcDbBlockEnd
  0
BLOCK
  5
D0
100
AcDbEntity
  8
0
100
AcDbBlockBegin
  2
_OPEN30
 70
     0
 10
0.0
 20
0.0
 30
0.0
  3
_OPEN30
  1

  0
LINE
  5
D1
100
AcDbEntity
  8
COTATION1
 62
     0
100
AcDbLine
 10
-1.0
 20
0.267949
 30
0.0
 11
0.0
 21
0.0
 31
0.0
1001
ACAD
1000
RTLwPs
1070
   158
  0
LINE
  5
D2
100
AcDbEntity
  8
COTATION1
 62
     0
100
AcDbLine
 10
0.0
 20
0.0
 30
0.0
 11
-1.0
 21
-0.267949
 31
0.0
1001
ACAD
1000
RTLwPs
1070
   158
  0
LINE
  5
D3
100
AcDbEntity
  8
COTATION1
 62
     0
100
AcDbLine
 10
0.0
 20
0.0
 30
0.0
 11
-1.0
 21
0.0
 31
0.0
1001
ACAD
1000
RTLwPs
1070
   158
  0
ENDBLK
  5
D4
100
AcDbEntity
  8
0
100
AcDbBlockEnd
  0
BLOCK
  5
62C
100
AcDbEntity
  8
0
100
AcDbBlockBegin
  2
*D1
 70
     1
 10
0.0
 20
0.0
 30
0.0
  3
*D1
  1

1001
ACAD
1000
RTLwPs
1070
   128
  0
LINE
  5
8C9
100
AcDbEntity
  8
COTATION1
 62
     0
100
AcDbLine
 10
84.806247
 20
65.690285
 30
0.0
 11
128.144156
 21
65.690285
 31
0.0
1001
ACAD
1000
RTLwPs
1070
   158
  0
LINE
  5
8CA
100
AcDbEntity
  8
COTATION1
 62
     0
100
AcDbLine
 10
66.693863
 20
360.652363
 30
0.0
 11
128.144156
 21
360.652363
 31
0.0
1001
ACAD
1000
RTLwPs
1070
   158
  0
LINE
  5
8CB
100
AcDbEntity
  8
COTATION1
 62
     0
100
AcDbLine
 10
125.644156
 20
70.690285
 30
0.0
 11
125.644156
 21
209.921324
 31
0.0
1001
ACAD
1000
RTLwPs
1070
   158
  0
LINE
  5
8CC
100
AcDbEntity
  8
COTATION1
 62
     0
100
AcDbLine
 10
125.644156
 20
355.652363
 30
0.0
 11
125.644156
 21
216.421324
 31
0.0
1001
ACAD
1000
RTLwPs
1070
   158
  0
INSERT
  5
8CD
100
AcDbEntity
  8
COTATION1
 62
     0
100
AcDbBlockReference
  2
_OPEN30
 10
125.644156
 20
65.690285
 30
0.0
 41
5.0
 42
5.0
 43
5.0
 50
270.0
1001
ACAD
1000
RTLwPs
1070
   158
  0
INSERT
  5
8CE
100
AcDbEntity
  8
COTATION1
 62
     0
100
AcDbBlockReference
  2
_OPEN30
 10
125.644156
 20
360.652363
 30
0.0
 41
5.0
 42
5.0
 43
5.0
 50
90.0
1001
ACAD
1000
RTLwPs
1070
   158
  0
MTEXT
  5
8CF
100
AcDbEntity
  8
COTATION1
 62
     0
100
AcDbMText
 10
125.644156
 20
213.171324
 30
0.0
 40
2.5
 41
0.0
 71
     5
 72
     1
  1
\A1;295
  7
ROMANS
1001
ACAD
1000
MTEXTBEGIN
1070
    73
1070
     1
1070
    44
1040
1.0
1070
    74
1070
     0
1000
MTEXTEND
  0
POINT
  5
8D0
100
AcDbEntity
  8
DEFPOINTS
 62
     0
100
AcDbPoint
 10
82.806247
 20
65.690285
 30
0.0
1001
ACAD
1000
RTLwPs
1070
   128
  0
POINT
  5
8D1
100
AcDbEntity
  8
DEFPOINTS
 62
     0
100
AcDbPoint
 10
64.693863
 20
360.652363
 30
0.0
1001
ACAD
1000
RTLwPs
1070
   128
  0
POINT
  5
8D2
100
AcDbEntity
  8
DEFPOINTS
 62
     0
100
AcDbPoint
 10
125.644156
 20
360.652363
 30
0.0
1001
ACAD
1000
RTLwPs
1070
   128
  0
ENDBLK
  5
62D
100
AcDbEntity
  8
0
100
AcDbBlockEnd
1001
ACAD
1000
RTLwPs
1070
   128
  0
BLOCK
  5
639
100
AcDbEntity
  8
0
100
AcDbBlockBegin
  2
*D2
 70
     1
 10
0.0
 20
0.0
 30
0.0
  3
*D2
  1

1001
ACAD
1000
RTLwPs
1070
   128
  0
LINE
  5
8D3
100
AcDbEntity
  8
COTATION1
 62
     0
100
AcDbLine
 10
84.806247
 20
65.690285
 30
0.0
 11
118.144878
 21
65.690285
 31
0.0
1001
ACAD
1000
RTLwPs
1070
   158
  0
LINE
  5
8D4
100
AcDbEntity
  8
COTATION1
 62
     0
100
AcDbLine
 10
83.778765
 20
300.739548
 30
0.0
 11
118.144878
 21
300.739548
 31
0.0
1001
ACAD
1000
RTLwPs
1070
   158
  0
LINE
  5
8D5
100
AcDbEntity
  8
COTATION1
 62
     0
100
AcDbLine
 10
115.644878
 20
70.690285
 30
0.0
 11
115.644878
 21
179.964916
 31
0.0
1001
ACAD
1000
RTLwPs
1070
   158
  0
LINE
  5
8D6
100
AcDbEntity
  8
COTATION1
 62
     0
100
AcDbLine
 10
115.644878
 20
295.739548
 30
0.0
 11
115.644878
 21
186.464916
 31
0.0
1001
ACAD
1000
RTLwPs
1070
   158
  0
INSERT
  5
8D7
100
AcDbEntity
  8
COTATION1
 62
     0
100
AcDbBlockReference
  2
_OPEN30
 10
115.644878
 20
65.690285
 30
0.0
 41
5.0
 42
5.0
 43
5.0
 50
270.0
1001
ACAD
1000
RTLwPs
1070
   158
  0
INSERT
  5
8D8
100
AcDbEntity
  8
COTATION1
 62
     0
100
AcDbBlockReference
  2
_OPEN30
 10
115.644878
 20
300.739548
 30
0.0
 41
5.0
 42
5.0
 43
5.0
 50
90.0
1001
ACAD
1000
RTLwPs
1070
   158
  0
MTEXT
  5
8D9
100
AcDbEntity
  8
COTATION1
 62
     0
100
AcDbMText
 10
115.644878
 20
183.214916
 30
0.0
 40
2.5
 41
0.0
 71
     5
 72
     1
  1
\A1;235
  7
ROMANS
1001
ACAD
1000
MTEXTBEGIN
1070
    73
1070
     1
1070
    44
1040
1.0
1070
    74
1070
     0
1000
MTEXTEND
  0
POINT
  5
8DA
100
AcDbEntity
  8
DEFPOINTS
 62
     0
100
AcDbPoint
 10
82.806247
 20
65.690285
 30
0.0
1001
ACAD
1000
RTLwPs
1070
   128
  0
POINT
  5
8DB
100
AcDbEntity
  8
DEFPOINTS
 62
     0
100
AcDbPoint
 10
81.778765
 20
300.739548
 30
0.0
1001
ACAD
1000
RTLwPs
1070
   128
  0
POINT
  5
8DC
100
AcDbEntity
  8
DEFPOINTS
 62
     0
100
AcDbPoint
 10
115.644878
 20
300.739548
 30
0.0
1001
ACAD
1000
RTLwPs
1070
   128
  0
ENDBLK
  5
63A
100
AcDbEntity
  8
0
100
AcDbBlockEnd
1001
ACAD
1000
RTLwPs
1070
   128
  0
BLOCK
  5
645
100
AcDbEntity
  8
0
100
AcDbBlockBegin
  2
*D3
 70
     1
 10
0.0
 20
0.0
 30
0.0
  3
*D3
  1

1001
ACAD
1000
RTLwPs
1070
   128
  0
LINE
  5
8DD
100
AcDbEntity
  8
COTATION1
 62
     0
100
AcDbLine
 10
43.354018
 20
67.852209
 30
0.0
 11
43.354018
 21
38.219108
 31
0.0
1001
ACAD
1000
RTLwPs
1070
   158
  0
LINE
  5
8DE
100
AcDbEntity
  8
COTATION1
 62
     0
100
AcDbLine
 10
86.287089
 20
67.942288
 30
0.0
 11
86.287089
 21
38.219108
 31
0.0
1001
ACAD
1000
RTLwPs
1070
   158
  0
LINE
  5
8DF
100
AcDbEntity
  8
COTATION1
 62
     0
100
AcDbLine
 10
48.354018
 20
40.719108
 30
0.0
 11
81.287089
 21
40.719108
 31
0.0
1001
ACAD
1000
RTLwPs
1070
   158
  0
INSERT
  5
8E0
100
AcDbEntity
  8
COTATION1
 62
     0
100
AcDbBlockReference
  2
_OPEN30
 10
43.354018
 20
40.719108
 30
0.0
 41
5.0
 42
5.0
 43
5.0
 50
180.0
1001
ACAD
1000
RTLwPs
1070
   158
  0
INSERT
  5
8E1
100
AcDbEntity
  8
COTATION1
 62
     0
100
AcDbBlockReference
  2
_OPEN30
 10
86.287089
 20
40.719108
 30
0.0
 41
5.0
 42
5.0
 43
5.0
1001
ACAD
1000
RTLwPs
1070
   158
  0
MTEXT
  5
8E2
100
AcDbEntity
  8
COTATION1
 62
     0
100
AcDbMText
 10
64.820553
 20
43.969108
 30
0.0
 40
2.5
 41
0.0
 71
     5
 72
     1
  1
\A1;39
  7
ROMANS
1001
ACAD
1000
MTEXTBEGIN
1070
    73
1070
     1
1070
    44
1040
1.0
1070
    74
1070
     0
1000
MTEXTEND
  0
POINT
  5
8E3
100
AcDbEntity
  8
DEFPOINTS
 62
     0
100
AcDbPoint
 10
43.354018
 20
69.852209
 30
0.0
1001
ACAD
1000
RTLwPs
1070
   128
  0
POINT
  5
8E4
100
AcDbEntity
  8
DEFPOINTS
 62
     0
100
AcDbPoint
 10
86.287089
 20
69.942288
 30
0.0
1001
ACAD
1000
RTLwPs
1070
   128
  0
POINT
  5
8E5
100
AcDbEntity
  8
DEFPOINTS
 62
     0
100
AcDbPoint
 10
86.287089
 20
40.719108
 30
0.0
1001
ACAD
1000
RTLwPs
1070
   128
  0
ENDBLK
  5
646
100
AcDbEntity
  8
0
100
AcDbBlockEnd
1001
ACAD
1000
RTLwPs
1070
   128
  0
BLOCK
  5
651
100
AcDbEntity
  8
0
100
AcDbBlockBegin
  2
*D4
 70
     1
 10
0.0
 20
0.0
 30
0.0
  3
*D4
  1

1001
ACAD
1000
RTLwPs
1070
   128
  0
LINE
  5
8E6
100
AcDbEntity
  8
COTATION1
 62
     0
100
AcDbLine
 10
38.817525
 20
188.590558
 30
0.0
 11
38.817525
 21
28.219108
 31
0.0
1001
ACAD
1000
RTLwPs
1070
   158
  0
LINE
  5
8E7
100
AcDbEntity
  8
COTATION1
 62
     0
100
AcDbLine
 10
90.808203
 20
188.521717
 30
0.0
 11
90.808203
 21
28.219108
 31
0.0
1001
ACAD
1000
RTLwPs
1070
   158
  0
LINE
  5
8E8
100
AcDbEntity
  8
COTATION1
 62
     0
100
AcDbLine
 10
43.817525
 20
30.719108
 30
0.0
 11
85.808203
 21
30.719108
 31
0.0
1001
ACAD
1000
RTLwPs
1070
   158
  0
INSERT
  5
8E9
100
AcDbEntity
  8
COTATION1
 62
     0
100
AcDbBlockReference
  2
_OPEN30
 10
38.817525
 20
30.719108
 30
0.0
 41
5.0
 42
5.0
 43
5.0
 50
180.0
1001
ACAD
1000
RTLwPs
1070
   158
  0
INSERT
  5
8EA
100
AcDbEntity
  8
COTATION1
 62
     0
100
AcDbBlockReference
  2
_OPEN30
 10
90.808203
 20
30.719108
 30
0.0
 41
5.0
 42
5.0
 43
5.0
1001
ACAD
1000
RTLwPs
1070
   158
  0
MTEXT
  5
8EB
100
AcDbEntity
  8
COTATION1
 62
     0
100
AcDbMText
 10
64.812864
 20
33.969108
 30
0.0
 40
2.5
 41
0.0
 71
     5
 72
     1
  1
\A1;52
  7
ROMANS
1001
ACAD
1000
MTEXTBEGIN
1070
    73
1070
     1
1070
    44
1040
1.0
1070
    74
1070
     0
1000
MTEXTEND
  0
POINT
  5
8EC
100
AcDbEntity
  8
DEFPOINTS
 62
     0
100
AcDbPoint
 10
38.817525
 20
190.590558
 30
0.0
1001
ACAD
1000
RTLwPs
1070
   128
  0
POINT
  5
8ED
100
AcDbEntity
  8
DEFPOINTS
 62
     0
100
AcDbPoint
 10
90.808203
 20
190.521717
 30
0.0
1001
ACAD
1000
RTLwPs
1070
   128
  0
POINT
  5
8EE
100
AcDbEntity
  8
DEFPOINTS
 62
     0
100
AcDbPoint
 10
90.808203
 20
30.719108
 30
0.0
1001
ACAD
1000
RTLwPs
1070
   128
  0
ENDBLK
  5
652
100
AcDbEntity
  8
0
100
AcDbBlockEnd
1001
ACAD
1000
RTLwPs
1070
   128
  0
ENDSEC
  0
SECTION
  2
ENTITIES
  0
SPLINE
  5
A7
100
AcDbEntity
  8
ALPHA
100
AcDbSpline
210
0.0
220
0.0
230
-1.0
 70
     8
 71
     3
 72
    26
 73
    22
 74
     0
 42
0.0000001
 43
0.0000001
 40
0.0
 40
0.0
 40
0.0
 40
0.0
 40
1.0
 40
1.0
 40
1.0
 40
2.0
 40
2.0
 40
2.0
 40
3.0
 40
3.0
 40
3.0
 40
4.0
 40
4.0
 40
4.0
 40
5.0
 40
5.0
 40
5.0
 40
6.0
 40
6.0
 40
6.0
 40
7.0
 40
7.0
 40
7.0
 40
7.0
 10
60.13646626006289
 20
353.4263021307759
 30
0.0
 10
60.13646626006289
 20
353.4263021307759
 30
0.0
 10
60.89957114697154
 20
358.491209422388
 30
0.0
 10
60.89957114697154
 20
358.491209422388
 30
0.0
 10
60.50996289377059
 20
358.491209422388
 30
0.0
 10
60.19432162097058
 20
358.9210967243223
 30
0.0
 10
60.19432162097058
 20
359.4527801676001
 30
0.0
 10
60.19432162097058
 20
359.9815342255158
 30
0.0
 10
60.50996289377059
 20
360.6523634735082
 30
0.0
 10
60.89957114697154
 20
360.6523634735082
 30
0.0
 10
60.89957114697154
 20
360.6523634735082
 30
0.0
 10
68.48741158196225
 20
360.6523634735082
 30
0.0
 10
68.48741158196225
 20
360.6523634735082
 30
0.0
 10
68.87701983516326
 20
360.6523634735082
 30
0.0
 10
69.19339345430393
 20
359.9815342255158
 30
0.0
 10
69.19339345430393
 20
359.4527801676001
 30
0.0
 10
69.19339345430393
 20
358.9210967243223
 30
0.0
 10
68.87701983516326
 20
358.491209422388
 30
0.0
 10
68.48741158196225
 20
358.491209422388
 30
0.0
 10
68.48741158196225
 20
358.491209422388
 30
0.0
 10
69.25198116155224
 20
353.4263021307759
 30
0.0
 10
69.25198116155224
 20
353.4263021307759
 30
0.0
  0
LINE
  5
A6
100
AcDbEntity
  8
ALPHA
100
AcDbLine
 10
68.487409
 20
358.491211
 30
0.0
 11
60.899572
 21
358.491211
 31
0.0
  0
LINE
  5
A4
100
AcDbEntity
  8
ALPHA
100
AcDbLine
 10
58.582429
 20
345.22915
 30
0.0
 11
70.983249
 21
345.22915
 31
0.0
  0
LINE
  5
A3
100
AcDbEntity
  8
ALPHA
100
AcDbLine
 10
70.983249
 20
343.066532
 30
0.0
 11
58.582429
 21
343.066532
 31
0.0
  0
LINE
  5
A2
100
AcDbEntity
  8
ALPHA
100
AcDbLine
 10
57.781241
 20
337.575397
 30
0.0
 11
71.782239
 21
337.575397
 31
0.0
  0
LINE
  5
A1
100
AcDbEntity
  8
ALPHA
100
AcDbLine
 10
71.782239
 20
335.425963
 30
0.0
 11
57.59669
 21
335.425963
 31
0.0
  0
LINE
  5
A0
100
AcDbEntity
  8
ALPHA
100
AcDbLine
 10
56.1796
 20
327.44119
 30
0.0
 11
73.463706
 21
327.44119
 31
0.0
  0
LINE
  5
9F
100
AcDbEntity
  8
ALPHA
100
AcDbLine
 10
69.941849
 20
351.117948
 30
0.0
 11
59.620163
 21
351.117948
 31
0.0
  0
SPLINE
  5
9E
100
AcDbEntity
  8
ALPHA
100
AcDbSpline
210
0.0
220
0.0
230
-1.0
 70
    11
 71
     3
 72
    35
 73
    31
 74
     0
 42
0.0000001
 43
0.0000001
 40
0.0
 40
0.0
 40
0.0
 40
0.0
 40
1.0
 40
1.0
 40
1.0
 40
2.0
 40
2.0
 40
2.0
 40
3.0
 40
3.0
 40
3.0
 40
4.0
 40
4.0
 40
4.0
 40
5.0
 40
5.0
 40
5.0
 40
6.0
 40
6.0
 40
6.0
 40
7.0
 40
7.0
 40
7.0
 40
8.0
 40
8.0
 40
8.0
 40
9.0
 40
9.0
 40
9.0
 40
10.0
 40
10.0
 40
10.0
 40
10.0
 10
51.05170990488208
 20
300.7395481026179
 30
0.0
 10
51.05170990488208
 20
300.7395481026179
 30
0.0
 10
51.05170990487903
 20
325.9545262020648
 30
0.0
 10
51.05170990487903
 20
325.9545262020648
 30
0.0
 10
51.05170990487903
 20
330.2746372652837
 30
0.0
 10
61.13392197596454
 20
330.1948115141578
 30
0.0
 10
64.49465933299308
 20
330.0344276655657
 30
0.0
 10
67.85612903636229
 20
329.8740438169736
 30
0.0
 10
79.21848251082247
 20
330.5954049624678
 30
0.0
 10
79.21848251082247
 20
325.9545262020648
 30
0.0
 10
79.21848251082247
 20
325.9545262020648
 30
0.0
 10
79.21848251082252
 20
300.7395481026159
 30
0.0
 10
79.21848251082252
 20
300.7395481026159
 30
0.0
 10
79.21848251082252
 20
300.7395481026159
 30
0.0
 10
81.77876531757164
 20
300.7395481026153
 30
0.0
 10
81.77876531757164
 20
300.7395481026153
 30
0.0
 10
81.77876531757164
 20
300.7395481026153
 30
0.0
 10
81.77876531757158
 20
325.9545262020648
 30
0.0
 10
81.77876531757158
 20
325.9545262020648
 30
0.0
 10
81.77876531757158
 20
330.2746372652837
 30
0.0
 10
77.29753805941999
 20
332.3559655652781
 30
0.0
 10
64.49465933299308
 20
332.3559655652781
 30
0.0
 10
51.69178060656628
 20
332.3559655652781
 30
0.0
 10
48.49142709812984
 20
329.9567989534617
 30
0.0
 10
48.49142709812984
 20
325.9545262020648
 30
0.0
 10
48.49142709812984
 20
325.9545262020648
 30
0.0
 10
48.49142709812989
 20
300.7395481026179
 30
0.0
 10
48.49142709812989
 20
300.7395481026179
 30
0.0
 10
48.49142709812989
 20
300.7395481026179
 30
0.0
 10
51.05170990488208
 20
300.7395481026179
 30
0.0
 10
51.05170990488208
 20
300.7395481026179
 30
0.0
  0
SPLINE
  5
9D
100
AcDbEntity
  8
ALPHA
100
AcDbSpline
210
0.0
220
0.0
230
-1.0
 70
    11
 71
     3
 72
    47
 73
    43
 74
     0
 42
0.0000001
 43
0.0000001
 40
0.0
 40
0.0
 40
0.0
 40
0.0
 40
1.0
 40
1.0
 40
1.0
 40
2.0
 40
2.0
 40
2.0
 40
3.0
 40
3.0
 40
3.0
 40
4.0
 40
4.0
 40
4.0
 40
5.0
 40
5.0
 40
5.0
 40
6.0
 40
6.0
 40
6.0
 40
7.0
 40
7.0
 40
7.0
 40
8.0
 40
8.0
 40
8.0
 40
9.0
 40
9.0
 40
9.0
 40
10.0
 40
10.0
 40
10.0
 40
11.0
 40
11.0
 40
11.0
 40
12.0
 40
12.0
 40
12.0
 40
13.0
 40
13.0
 40
13.0
 40
14.0
 40
14.0
 40
14.0
 40
14.0
 10
79.9222673441422
 20
65.69028484408659
 30
0.0
 10
81.89447603938686
 20
65.99933499982125
 30
0.0
 10
83.40310950102974
 20
67.88292978785296
 30
0.0
 10
83.40310950102974
 20
69.94228769762924
 30
0.0
 10
83.40310950102974
 20
69.94228769762924
 30
0.0
 10
83.39285665226128
 20
178.6474538677548
 30
0.0
 10
83.39285665226128
 20
178.6474538677548
 30
0.0
 10
83.39285665226128
 20
180.4622080997698
 30
0.0
 10
84.16035561721349
 20
182.2513302098633
 30
0.0
 10
85.24203116228454
 20
183.5607654668624
 30
0.0
 10
86.45259966330185
 20
184.9060856945505
 30
0.0
 10
87.47202576942157
 20
188.5883230951037
 30
0.0
 10
87.47202576942157
 20
190.5217174342966
 30
0.0
 10
87.47202576942157
 20
190.5217174342966
 30
0.0
 10
87.46177292065324
 20
295.6175177964385
 30
0.0
 10
87.46177292065324
 20
295.6175177964385
 30
0.0
 10
87.46177292065324
 20
298.446571710189
 30
0.0
 10
85.31892752804798
 20
300.7395481026179
 30
0.0
 10
82.48987361429744
 20
300.7395481026179
 30
0.0
 10
82.48987361429744
 20
300.7395481026179
 30
0.0
 10
47.18785061185599
 20
300.7395481026179
 30
0.0
 10
47.18785061185599
 20
300.7395481026179
 30
0.0
 10
44.3609937371273
 20
300.7395481026179
 30
0.0
 10
42.157363598252
 20
298.446571710189
 30
0.0
 10
42.157363598252
 20
295.6175177964385
 30
0.0
 10
42.157363598252
 20
295.6175177964385
 30
0.0
 10
42.14564605680223
 20
190.5905579903134
 30
0.0
 10
42.14564605680223
 20
190.5905579903134
 30
0.0
 10
42.14564605680223
 20
188.6578959974615
 30
0.0
 10
43.17752205071232
 20
184.9060856945505
 30
0.0
 10
44.38809055172959
 20
183.5607654668624
 30
0.0
 10
45.46756905777877
 20
182.2513302098633
 30
0.0
 10
46.25044729588376
 20
180.5691306654977
 30
0.0
 10
46.25044729588376
 20
178.7536440871424
 30
0.0
 10
46.25044729588376
 20
178.7536440871424
 30
0.0
 10
46.2401944471153
 20
69.85220909773523
 30
0.0
 10
46.2401944471153
 20
69.85220909773523
 30
0.0
 10
46.2401944471153
 20
67.89830906100553
 30
0.0
 10
47.59723221625321
 20
66.11797510699898
 30
0.0
 10
49.42150695069603
 20
65.69028484408659
 30
0.0
 10
49.42150695069603
 20
65.69028484408659
 30
0.0
 10
79.9222673441422
 20
65.69028484408659
 30
0.0
 10
79.9222673441422
 20
65.69028484408659
 30
0.0
  0
LINE
  5
9C
100
AcDbEntity
  8
ALPHA
100
AcDbLine
 10
53.03124
 20
72.066093
 30
0.0
 11
49.119781
 21
68.161956
 31
0.0
  0
LINE
  5
9B
100
AcDbEntity
  8
ALPHA
100
AcDbLine
 10
76.524914
 20
72.066093
 30
0.0
 11
80.433444
 21
68.161956
 31
0.0
  0
LINE
  5
9A
100
AcDbEntity
  8
ALPHA
100
AcDbLine
 10
73.639469
 20
72.066093
 30
0.0
 11
55.743121
 21
72.066093
 31
0.0
  0
SPLINE
  5
99
100
AcDbEntity
  8
ALPHA
100
AcDbSpline
210
0.0
220
0.0
230
1.0
 70
    11
 71
     3
 72
    23
 73
    19
 74
     0
 42
0.0000001
 43
0.0000001
 40
0.0
 40
0.0
 40
0.0
 40
0.0
 40
1.0
 40
1.0
 40
1.0
 40
2.0
 40
2.0
 40
2.0
 40
3.0
 40
3.0
 40
3.0
 40
4.0
 40
4.0
 40
4.0
 40
5.0
 40
5.0
 40
5.0
 40
6.0
 40
6.0
 40
6.0
 40
6.0
 10
46.25630606660855
 20
218.8686472400287
 30
0.0
 10
46.25630606660855
 20
218.8686472400287
 30
0.0
 10
46.25630606660855
 20
194.1241290837243
 30
0.0
 10
46.25630606660855
 20
194.1241290837243
 30
0.0
 10
46.25630606660855
 20
192.9860628704266
 30
0.0
 10
47.18052714844993
 20
192.0618417885853
 30
0.0
 10
48.3185933617475
 20
192.0618417885853
 30
0.0
 10
48.3185933617475
 20
192.0618417885853
 30
0.0
 10
81.31079600592608
 20
192.0618417885853
 30
0.0
 10
81.31079600592608
 20
192.0618417885853
 30
0.0
 10
82.4495945655642
 20
192.0618417885853
 30
0.0
 10
83.37308330106498
 20
192.9860628704266
 30
0.0
 10
83.37308330106498
 20
194.1241290837243
 30
0.0
 10
83.37308330106498
 20
194.1241290837243
 30
0.0
 10
83.37308330106498
 20
218.8686472400287
 30
0.0
 10
83.37308330106498
 20
218.8686472400287
 30
0.0
 10
83.37308330106498
 20
218.8686472400287
 30
0.0
 10
46.25630606660855
 20
218.8686472400287
 30
0.0
 10
46.25630606660855
 20
218.8686472400287
 30
0.0
  0
SPLINE
  5
98
100
AcDbEntity
  8
ALPHA
100
AcDbSpline
210
0.0
220
0.0
230
1.0
 70
    11
 71
     3
 72
    29
 73
    25
 74
     0
 42
0.0000001
 43
0.0000001
 40
0.0
 40
0.0
 40
0.0
 40
0.0
 40
1.0
 40
1.0
 40
1.0
 40
2.0
 40
2.0
 40
2.0
 40
3.0
 40
3.0
 40
3.0
 40
4.0
 40
4.0
 40
4.0
 40
5.0
 40
5.0
 40
5.0
 40
6.0
 40
6.0
 40
6.0
 40
7.0
 40
7.0
 40
7.0
 40
8.0
 40
8.0
 40
8.0
 40
8.0
 10
71.00082422291279
 20
195.1560050776345
 30
0.0
 10
73.27915368852967
 20
195.1560050776345
 30
0.0
 10
75.12539881319066
 20
197.0022502022954
 30
0.0
 10
75.12539881319066
 20
199.279114975231
 30
0.0
 10
75.12539881319066
 20
199.279114975231
 30
0.0
 10
75.12539881319066
 20
211.651374053383
 30
0.0
 10
75.12539881319066
 20
211.651374053383
 30
0.0
 10
75.12539881319066
 20
213.929703519
 30
0.0
 10
73.27915368852967
 20
215.7759486436609
 30
0.0
 10
71.00082422291279
 20
215.7759486436609
 30
0.0
 10
71.00082422291279
 20
215.7759486436609
 30
0.0
 10
58.62856514476067
 20
215.7759486436609
 30
0.0
 10
58.62856514476067
 20
215.7759486436609
 30
0.0
 10
56.35023567914385
 20
215.7759486436609
 30
0.0
 10
54.50545524716415
 20
213.929703519
 30
0.0
 10
54.50545524716415
 20
211.651374053383
 30
0.0
 10
54.50545524716415
 20
211.651374053383
 30
0.0
 10
54.50545524716415
 20
199.279114975231
 30
0.0
 10
54.50545524716415
 20
199.279114975231
 30
0.0
 10
54.50545524716415
 20
197.0022502022954
 30
0.0
 10
56.35023567914385
 20
195.1560050776345
 30
0.0
 10
58.62856514476067
 20
195.1560050776345
 30
0.0
 10
58.62856514476067
 20
195.1560050776345
 30
0.0
 10
71.00082422291279
 20
195.1560050776345
 30
0.0
 10
71.00082422291279
 20
195.1560050776345
 30
0.0
  0
SPLINE
  5
97
100
AcDbEntity
  8
ALPHA
100
AcDbSpline
210
0.0
220
0.0
230
1.0
 70
     8
 71
     3
 72
    11
 73
     7
 74
     0
 42
0.0000001
 43
0.0000001
 40
0.0
 40
0.0
 40
0.0
 40
0.0
 40
1.0
 40
1.0
 40
1.0
 40
2.0
 40
2.0
 40
2.0
 40
2.0
 10
46.30464092508839
 20
179.3929824424889
 30
0.0
 10
46.30464092508839
 20
188.336518182661
 30
0.0
 10
48.79901256118325
 20
139.4360966501576
 30
0.0
 10
52.84669078569766
 20
139.4360966501576
 30
0.0
 10
52.84669078569766
 20
139.4360966501576
 30
0.0
 10
52.84669078569766
 20
74.95080432101531
 30
0.0
 10
52.84669078569766
 20
74.95080432101531
 30
0.0
  0
SPLINE
  5
96
100
AcDbEntity
  8
ALPHA
100
AcDbSpline
210
0.0
220
0.0
230
-1.0
 70
     8
 71
     3
 72
    11
 73
     7
 74
     0
 42
0.0000001
 43
0.0000001
 40
0.0
 40
0.0
 40
0.0
 40
0.0
 40
1.0
 40
1.0
 40
1.0
 40
2.0
 40
2.0
 40
2.0
 40
2.0
 10
83.32548078892575
 20
179.3929824424889
 30
0.0
 10
83.32548078892575
 20
188.336518182661
 30
0.0
 10
80.64655787499891
 20
139.3372298941762
 30
0.0
 10
76.59814730414388
 20
139.3372298941762
 30
0.0
 10
76.59814730414388
 20
139.3372298941762
 30
0.0
 10
76.59814730414388
 20
74.95080432101531
 30
0.0
 10
76.59814730414388
 20
74.95080432101531
 30
0.0
  0
SPLINE
  5
95
100
AcDbEntity
  8
ALPHA
100
AcDbSpline
210
0.0
220
0.0
230
1.0
 70
     8
 71
     3
 72
    26
 73
    22
 74
     0
 42
0.0000001
 43
0.0000001
 40
0.0
 40
0.0
 40
0.0
 40
0.0
 40
1.0
 40
1.0
 40
1.0
 40
2.0
 40
2.0
 40
2.0
 40
3.0
 40
3.0
 40
3.0
 40
4.0
 40
4.0
 40
4.0
 40
5.0
 40
5.0
 40
5.0
 40
6.0
 40
6.0
 40
6.0
 40
7.0
 40
7.0
 40
7.0
 40
7.0
 10
83.48439994483664
 20
179.5650838325306
 30
0.0
 10
83.82494099321718
 20
181.8763688834746
 30
0.0
 10
84.01388634909285
 20
185.6472201912411
 30
0.0
 10
84.01388634909285
 20
188.8014358802194
 30
0.0
 10
84.01388634909285
 20
188.8014358802194
 30
0.0
 10
84.0014364613026
 20
258.0521058476676
 30
0.0
 10
84.0014364613026
 20
258.0521058476676
 30
0.0
 10
84.0014364613026
 20
259.8207222602244
 30
0.0
 10
82.462776799695
 20
261.233418351248
 30
0.0
 10
80.16027990483838
 20
261.2531917024446
 30
0.0
 10
80.16027990483838
 20
261.2531917024446
 30
0.0
 10
49.43322449214571
 20
261.2531917024446
 30
0.0
 10
49.43322449214571
 20
261.2531917024446
 30
0.0
 10
47.31088479707728
 20
261.2531917024446
 30
0.0
 10
45.62209413564613
 20
259.8207222602244
 30
0.0
 10
45.62209413564613
 20
258.0521058476676
 30
0.0
 10
45.62209413564613
 20
258.0521058476676
 30
0.0
 10
45.61330597955887
 20
188.5824643243791
 30
0.0
 10
45.61330597955887
 20
188.5824643243791
 30
0.0
 10
45.61330597955887
 20
185.3052144501795
 30
0.0
 10
45.8212923402902
 20
181.6486091715472
 30
0.0
 10
46.18453612522947
 20
179.298509764551
 30
0.0
  0
SPLINE
  5
8B
100
AcDbEntity
  8
ALPHA
100
AcDbSpline
210
0.0
220
0.0
230
-1.0
 70
    11
 71
     3
 72
    23
 73
    19
 74
     0
 42
0.0000001
 43
0.0000001
 40
0.0
 40
0.0
 40
0.0
 40
0.0
 40
1.0
 40
1.0
 40
1.0
 40
2.0
 40
2.0
 40
2.0
 40
3.0
 40
3.0
 40
3.0
 40
4.0
 40
4.0
 40
4.0
 40
5.0
 40
5.0
 40
5.0
 40
6.0
 40
6.0
 40
6.0
 40
6.0
 10
46.25630606660855
 20
221.3425131785864
 30
0.0
 10
46.25630606660855
 20
221.3425131785864
 30
0.0
 10
46.25630606660855
 20
246.0862989885501
 30
0.0
 10
46.25630606660855
 20
246.0862989885501
 30
0.0
 10
46.25630606660855
 20
247.2250975481883
 30
0.0
 10
47.18052714844993
 20
248.1471215910077
 30
0.0
 10
48.3185933617475
 20
248.1471215910077
 30
0.0
 10
48.3185933617475
 20
248.1471215910077
 30
0.0
 10
81.31079600592608
 20
248.1471215910077
 30
0.0
 10
81.31079600592608
 20
248.1471215910077
 30
0.0
 10
82.4495945655642
 20
248.1471215910077
 30
0.0
 10
83.37308330106498
 20
247.2250975481883
 30
0.0
 10
83.37308330106498
 20
246.0862989885501
 30
0.0
 10
83.37308330106498
 20
246.0862989885501
 30
0.0
 10
83.37308330106498
 20
221.3425131785864
 30
0.0
 10
83.37308330106498
 20
221.3425131785864
 30
0.0
 10
83.37308330106498
 20
221.3425131785864
 30
0.0
 10
46.25630606660855
 20
221.3425131785864
 30
0.0
 10
46.25630606660855
 20
221.3425131785864
 30
0.0
  0
SPLINE
  5
8A
100
AcDbEntity
  8
ALPHA
100
AcDbSpline
210
0.0
220
0.0
230
-1.0
 70
    11
 71
     3
 72
    29
 73
    25
 74
     0
 42
0.0000001
 43
0.0000001
 40
0.0
 40
0.0
 40
0.0
 40
0.0
 40
1.0
 40
1.0
 40
1.0
 40
2.0
 40
2.0
 40
2.0
 40
3.0
 40
3.0
 40
3.0
 40
4.0
 40
4.0
 40
4.0
 40
5.0
 40
5.0
 40
5.0
 40
6.0
 40
6.0
 40
6.0
 40
7.0
 40
7.0
 40
7.0
 40
8.0
 40
8.0
 40
8.0
 40
8.0
 10
71.00082422291279
 20
245.0544229946401
 30
0.0
 10
73.27915368852967
 20
245.0544229946401
 30
0.0
 10
75.12539881319066
 20
243.208177869979
 30
0.0
 10
75.12539881319066
 20
240.9313130970436
 30
0.0
 10
75.12539881319066
 20
240.9313130970436
 30
0.0
 10
75.12539881319066
 20
228.5575893262102
 30
0.0
 10
75.12539881319066
 20
228.5575893262102
 30
0.0
 10
75.12539881319066
 20
226.2814568996152
 30
0.0
 10
73.27915368852967
 20
224.4344794286134
 30
0.0
 10
71.00082422291279
 20
224.4344794286134
 30
0.0
 10
71.00082422291279
 20
224.4344794286134
 30
0.0
 10
58.62856514476067
 20
224.4344794286134
 30
0.0
 10
58.62856514476067
 20
224.4344794286134
 30
0.0
 10
56.35023567914385
 20
224.4344794286134
 30
0.0
 10
54.50545524716415
 20
226.2814568996152
 30
0.0
 10
54.50545524716415
 20
228.5575893262102
 30
0.0
 10
54.50545524716415
 20
228.5575893262102
 30
0.0
 10
54.50545524716415
 20
240.9313130970436
 30
0.0
 10
54.50545524716415
 20
240.9313130970436
 30
0.0
 10
54.50545524716415
 20
243.208177869979
 30
0.0
 10
56.35023567914385
 20
245.0544229946401
 30
0.0
 10
58.62856514476067
 20
245.0544229946401
 30
0.0
 10
58.62856514476067
 20
245.0544229946401
 30
0.0
 10
71.00082422291279
 20
245.0544229946401
 30
0.0
 10
71.00082422291279
 20
245.0544229946401
 30
0.0
  0
POLYLINE
  5
7A
100
AcDbEntity
  8
ALPHA
100
AcDb2dPolyline
 66
     1
 10
0.0
 20
0.0
 30
0.0
 70
     1
  0
VERTEX
  5
7B
100
AcDbEntity
  8
ALPHA
100
AcDbVertex
100
AcDb2dVertex
 10
46.295851
 20
278.958835
 30
0.0
  0
VERTEX
  5
7C
100
AcDbEntity
  8
ALPHA
100
AcDbVertex
100
AcDb2dVertex
 10
83.4119
 20
278.958835
 30
0.0
  0
VERTEX
  5
7D
100
AcDbEntity
  8
ALPHA
100
AcDbVertex
100
AcDb2dVertex
 10
83.4119
 20
291.32963
 30
0.0
  0
VERTEX
  5
7E
100
AcDbEntity
  8
ALPHA
100
AcDbVertex
100
AcDb2dVertex
 10
46.295851
 20
291.32963
 30
0.0
  0
SEQEND
  5
7F
100
AcDbEntity
  8
ALPHA
  0
SPLINE
  5
520
100
AcDbEntity
  8
ALPHA
100
AcDbSpline
210
0.0
220
0.0
230
1.0
 70
     8
 71
     3
 72
     8
 73
     4
 74
     0
 42
0.0000001
 43
0.0000001
 40
0.0
 40
0.0
 40
0.0
 40
0.0
 40
1.0
 40
1.0
 40
1.0
 40
1.0
 10
82.806247233438
 20
65.69028484408659
 30
0.0
 10
84.77845592868272
 20
65.99933499982125
 30
0.0
 10
86.28708939032549
 20
67.88292978785296
 30
0.0
 10
86.28708939032549
 20
69.94228769762924
 30
0.0
  0
SPLINE
  5
521
100
AcDbEntity
  8
ALPHA
100
AcDbSpline
210
-0.999999996732127
220
-0.0000808439595664
230
0.0
 70
    24
 71
     3
 72
     8
 73
     4
 74
     0
 42
0.0000001
 43
0.0000001
 40
1.0
 40
1.0
 40
1.0
 40
1.0
 40
2.0
 40
2.0
 40
2.0
 40
2.0
 10
86.28708939032549
 20
69.94228769762924
 30
0.0
 10
86.28708939032549
 20
69.94228769762924
 30
0.0
 10
86.27830123423825
 20
178.6474538677548
 30
0.0
 10
86.27830123423825
 20
178.6474538677548
 30
0.0
  0
SPLINE
  5
522
100
AcDbEntity
  8
ALPHA
100
AcDbSpline
210
0.0
220
0.0
230
-1.0
 70
     8
 71
     3
 72
     8
 73
     4
 74
     0
 42
0.0000001
 43
0.0000001
 40
2.0
 40
2.0
 40
2.0
 40
2.0
 40
3.0
 40
3.0
 40
3.0
 40
3.0
 10
86.27830123423825
 20
178.6474538677548
 30
0.0
 10
86.27830123423825
 20
180.4622080997698
 30
0.0
 10
87.04653254553113
 20
182.2513302098633
 30
0.0
 10
88.12747574426163
 20
183.5607654668624
 30
0.0
  0
SPLINE
  5
523
100
AcDbEntity
  8
ALPHA
100
AcDbSpline
210
0.0
220
0.0
230
1.0
 70
     8
 71
     3
 72
     8
 73
     4
 74
     0
 42
0.0000001
 43
0.0000001
 40
3.0
 40
3.0
 40
3.0
 40
3.0
 40
4.0
 40
4.0
 40
4.0
 40
4.0
 10
88.12747574426163
 20
183.5607654668624
 30
0.0
 10
89.78804424527885
 20
184.9060856945505
 30
0.0
 10
90.80820269773926
 20
188.5883230951037
 30
0.0
 10
90.80820269773926
 20
190.5217174342966
 30
0.0
  0
SPLINE
  5
524
100
AcDbEntity
  8
ALPHA
100
AcDbSpline
210
-0.999999994537206
220
-0.000104525537759
230
0.0
 70
    24
 71
     3
 72
     8
 73
     4
 74
     0
 42
0.0000001
 43
0.0000001
 40
4.0
 40
4.0
 40
4.0
 40
4.0
 40
5.0
 40
5.0
 40
5.0
 40
5.0
 10
90.80820269773926
 20
190.5217174342966
 30
0.0
 10
90.80820269773926
 20
190.5217174342966
 30
0.0
 10
90.79721750263018
 20
295.6175177964385
 30
0.0
 10
90.79721750263018
 20
295.6175177964385
 30
0.0
  0
SPLINE
  5
525
100
AcDbEntity
  8
ALPHA
100
AcDbSpline
210
0.0
220
0.0
230
-1.0
 70
     8
 71
     3
 72
     8
 73
     4
 74
     0
 42
0.0000001
 43
0.0000001
 40
5.0
 40
5.0
 40
5.0
 40
5.0
 40
6.0
 40
6.0
 40
6.0
 40
6.0
 10
90.79721750263018
 20
295.6175177964385
 30
0.0
 10
90.79721750263018
 20
298.446571710189
 30
0.0
 10
88.20437211002497
 20
300.7395481026179
 30
0.0
 10
85.37531819627441
 20
300.7395481026179
 30
0.0
  0
SPLINE
  5
526
100
AcDbEntity
  8
ALPHA
100
AcDbSpline
210
0.0
220
1.0
230
0.0
 70
    24
 71
     3
 72
     8
 73
     4
 74
     0
 42
0.0000001
 43
0.0000001
 40
6.0
 40
6.0
 40
6.0
 40
6.0
 40
7.0
 40
7.0
 40
7.0
 40
7.0
 10
85.37531819627441
 20
300.7395481026179
 30
0.0
 10
85.37531819627441
 20
300.7395481026179
 30
0.0
 10
44.30387072256024
 20
300.7395481026179
 30
0.0
 10
44.30387072256024
 20
300.7395481026179
 30
0.0
  0
SPLINE
  5
527
100
AcDbEntity
  8
ALPHA
100
AcDbSpline
210
0.0
220
0.0
230
-1.0
 70
     8
 71
     3
 72
    14
 73
    10
 74
     0
 42
0.0000001
 43
0.0000001
 40
7.0
 40
7.0
 40
7.0
 40
7.0
 40
8.0
 40
8.0
 40
8.0
 40
9.0
 40
9.0
 40
9.0
 40
10.0
 40
10.0
 40
10.0
 40
10.0
 10
44.30387072256024
 20
300.7395481026179
 30
0.0
 10
41.47481680880972
 20
300.7395481026179
 30
0.0
 10
38.81752493823137
 20
298.446571710189
 30
0.0
 10
38.81752493823137
 20
295.6175177964385
 30
0.0
 10
38.81752493823137
 20
295.6175177964385
 30
0.0
 10
38.81752493823131
 20
190.5905579903134
 30
0.0
 10
38.81752493823131
 20
190.5905579903134
 30
0.0
 10
38.81752493823131
 20
188.6578959974615
 30
0.0
 10
39.84354216141648
 20
184.9060856945505
 30
0.0
 10
41.50191362341198
 20
183.5607654668624
 30
0.0
  0
SPLINE
  5
528
100
AcDbEntity
  8
ALPHA
100
AcDbSpline
210
0.0
220
0.0
230
1.0
 70
     8
 71
     3
 72
     8
 73
     4
 74
     0
 42
0.0000001
 43
0.0000001
 40
10.0
 40
10.0
 40
10.0
 40
10.0
 40
11.0
 40
11.0
 40
11.0
 40
11.0
 10
41.50191362341198
 20
183.5607654668624
 30
0.0
 10
42.58358916848303
 20
182.2513302098633
 30
0.0
 10
43.36500271390676
 20
180.5691306654977
 30
0.0
 10
43.36500271390676
 20
178.7536440871424
 30
0.0
  0
SPLINE
  5
529
100
AcDbEntity
  8
ALPHA
100
AcDbSpline
210
-0.999999994912337
220
0.0001008728218707
230
0.0
 70
    24
 71
     3
 72
     8
 73
     4
 74
     0
 42
0.0000001
 43
0.0000001
 40
11.0
 40
11.0
 40
11.0
 40
11.0
 40
12.0
 40
12.0
 40
12.0
 40
12.0
 10
43.36500271390676
 20
178.7536440871424
 30
0.0
 10
43.36500271390676
 20
178.7536440871424
 30
0.0
 10
43.35401751879771
 20
69.85220909773523
 30
0.0
 10
43.35401751879771
 20
69.85220909773523
 30
0.0
  0
SPLINE
  5
52A
100
AcDbEntity
  8
ALPHA
100
AcDbSpline
210
0.0
220
0.0
230
-1.0
 70
     8
 71
     3
 72
     8
 73
     4
 74
     0
 42
0.0000001
 43
0.0000001
 40
12.0
 40
12.0
 40
12.0
 40
12.0
 40
13.0
 40
13.0
 40
13.0
 40
13.0
 10
43.35401751879771
 20
69.85220909773523
 30
0.0
 10
43.35401751879771
 20
67.89830906100553
 30
0.0
 10
44.71178763427625
 20
66.11797510699898
 30
0.0
 10
46.53533002237844
 20
65.69028484408659
 30
0.0
  0
SPLINE
  5
52B
100
AcDbEntity
  8
ALPHA
100
AcDbSpline
210
0.0
220
1.0
230
0.0
 70
    24
 71
     3
 72
     8
 73
     4
 74
     0
 42
0.0000001
 43
0.0000001
 40
13.0
 40
13.0
 40
13.0
 40
13.0
 40
14.0
 40
14.0
 40
14.0
 40
14.0
 10
46.53533002237844
 20
65.69028484408659
 30
0.0
 10
46.53533002237844
 20
65.69028484408659
 30
0.0
 10
82.806247233438
 20
65.69028484408659
 30
0.0
 10
82.806247233438
 20
65.69028484408659
 30
0.0
  0
SPLINE
  5
532
100
AcDbEntity
  8
ALPHA
100
AcDbSpline
210
-1.0
220
-0.0000000000000022
230
0.0
 70
    24
 71
     3
 72
     8
 73
     4
 74
     0
 42
0.0000001
 43
0.0000001
 40
0.0
 40
0.0
 40
0.0
 40
0.0
 40
1.0
 40
1.0
 40
1.0
 40
1.0
 10
55.21656354389
 20
300.7366187172556
 30
0.0
 10
55.21656354389
 20
300.7366187172556
 30
0.0
 10
55.21656354388994
 20
326.2430706602624
 30
0.0
 10
55.21656354388994
 20
326.2430706602624
 30
0.0
  0
SPLINE
  5
533
100
AcDbEntity
  8
ALPHA
100
AcDbSpline
210
0.0
220
0.0
230
1.0
 70
     8
 71
     3
 72
     8
 73
     4
 74
     0
 42
0.0000001
 43
0.0000001
 40
1.0
 40
1.0
 40
1.0
 40
1.0
 40
2.0
 40
2.0
 40
2.0
 40
2.0
 10
55.21656354388994
 20
326.2430706602624
 30
0.0
 10
55.21656354388994
 20
326.7710923718373
 30
0.0
 10
55.65157727020829
 20
327.4411892734893
 30
0.0
 10
56.17959898178327
 20
327.4411892734893
 30
0.0
  0
SPLINE
  5
534
100
AcDbEntity
  8
ALPHA
100
AcDbSpline
210
-0.9846497808086564
220
0.1745417117867969
230
0.0
 70
    24
 71
     3
 72
     8
 73
     4
 74
     0
 42
0.0000001
 43
0.0000001
 40
2.0
 40
2.0
 40
2.0
 40
2.0
 40
2.349262182554156
 40
2.349262182554156
 40
2.349262182554156
 40
2.349262182554156
 10
56.17959898178327
 20
327.4411892734893
 30
0.0
 10
56.17959898178327
 20
327.4411892734893
 30
0.0
 10
56.35246141122755
 20
328.4163656454861
 30
0.0
 10
56.57743765133744
 20
329.6855339333619
 30
0.0
  0
SPLINE
  5
535
100
AcDbEntity
  8
ALPHA
100
AcDbSpline
210
0.0
220
0.0
230
-1.0
 70
     8
 71
     3
 72
    11
 73
     7
 74
     0
 42
0.0000001
 43
0.0000001
 40
3.0
 40
3.0
 40
3.0
 40
3.0
 40
4.0
 40
4.0
 40
4.0
 40
5.0
 40
5.0
 40
5.0
 40
5.0
 10
57.59668915085064
 20
335.435481927515
 30
0.0
 10
57.15435196112628
 20
335.5211664493657
 30
0.0
 10
56.81966968347058
 20
335.9093100098851
 30
0.0
 10
56.81966968347058
 20
336.3772793215308
 30
0.0
 10
56.81966968347058
 20
336.9082304184682
 30
0.0
 10
57.25028933174531
 20
337.5753979347578
 30
0.0
 10
57.78124042868274
 20
337.5753979347578
 30
0.0
  0
SPLINE
  5
536
100
AcDbEntity
  8
ALPHA
100
AcDbSpline
210
-0.9895227708425373
220
0.1443768886771967
230
0.0
 70
    24
 71
     3
 72
     8
 73
     4
 74
     0
 42
0.0000001
 43
0.0000001
 40
5.0
 40
5.0
 40
5.0
 40
5.0
 40
6.0
 40
6.0
 40
6.0
 40
6.0
 10
57.78124042868274
 20
337.5753979347578
 30
0.0
 10
57.78124042868274
 20
337.5753979347578
 30
0.0
 10
58.58242732530266
 20
343.0665307966013
 30
0.0
 10
58.58242732530266
 20
343.0665307966013
 30
0.0
  0
SPLINE
  5
537
100
AcDbEntity
  8
ALPHA
100
AcDbSpline
210
0.0
220
0.0
230
-1.0
 70
     8
 71
     3
 72
    11
 73
     7
 74
     0
 42
0.0000001
 43
0.0000001
 40
6.0
 40
6.0
 40
6.0
 40
6.0
 40
7.0
 40
7.0
 40
7.0
 40
8.0
 40
8.0
 40
8.0
 40
8.0
 10
58.58242732530266
 20
343.0665307966013
 30
0.0
 10
58.05147622836535
 20
343.0665307966013
 30
0.0
 10
57.62085658009056
 20
343.4971504448763
 30
0.0
 10
57.62085658009056
 20
344.0281015418136
 30
0.0
 10
57.62085658009056
 20
344.5590526387509
 30
0.0
 10
58.05147622836535
 20
345.2291495404028
 30
0.0
 10
58.58242732530266
 20
345.2291495404028
 30
0.0
  0
SPLINE
  5
538
100
AcDbEntity
  8
ALPHA
100
AcDbSpline
210
-0.9848254513086255
220
0.1735477757125173
230
0.0
 70
    24
 71
     3
 72
     8
 73
     4
 74
     0
 42
0.0000001
 43
0.0000001
 40
8.0
 40
8.0
 40
8.0
 40
8.0
 40
9.0
 40
9.0
 40
9.0
 40
9.0
 10
58.58242732530266
 20
345.2291495404028
 30
0.0
 10
58.58242732530266
 20
345.2291495404028
 30
0.0
 10
59.62016208993759
 20
351.1179464651941
 30
0.0
 10
59.62016208993759
 20
351.1179464651941
 30
0.0
  0
SPLINE
  5
539
100
AcDbEntity
  8
ALPHA
100
AcDbSpline
210
0.0
220
0.0
230
-1.0
 70
     8
 71
     3
 72
    11
 73
     7
 74
     0
 42
0.0000001
 43
0.0000001
 40
9.0
 40
9.0
 40
9.0
 40
9.0
 40
10.0
 40
10.0
 40
10.0
 40
11.0
 40
11.0
 40
11.0
 40
11.0
 10
59.62016208993759
 20
351.1179464651941
 30
0.0
 10
59.08921099300016
 20
351.1179464651941
 30
0.0
 10
58.66152073008788
 20
351.5478337671282
 30
0.0
 10
58.66152073008788
 20
352.0795172104063
 30
0.0
 10
58.66152073008788
 20
352.6082712683217
 30
0.0
 10
59.08921099300016
 20
353.2805652089957
 30
0.0
 10
59.62016208993759
 20
353.2805652089957
 30
0.0
  0
SPLINE
  5
53A
100
AcDbEntity
  8
ALPHA
100
AcDbSpline
210
0.0
220
1.0
230
0.0
 70
    24
 71
     3
 72
     8
 73
     4
 74
     0
 42
0.0000001
 43
0.0000001
 40
11.0
 40
11.0
 40
11.0
 40
11.0
 40
12.0
 40
12.0
 40
12.0
 40
12.0
 10
59.62016208993759
 20
353.2805652089957
 30
0.0
 10
59.62016208993759
 20
353.2805652089957
 30
0.0
 10
69.94185141440045
 20
353.2805652089957
 30
0.0
 10
69.94185141440045
 20
353.2805652089957
 30
0.0
  0
SPLINE
  5
53B
100
AcDbEntity
  8
ALPHA
100
AcDbSpline
210
0.0
220
0.0
230
1.0
 70
     8
 71
     3
 72
    11
 73
     7
 74
     0
 42
0.0000001
 43
0.0000001
 40
12.0
 40
12.0
 40
12.0
 40
12.0
 40
13.0
 40
13.0
 40
13.0
 40
14.0
 40
14.0
 40
14.0
 40
14.0
 10
69.94185141440045
 20
353.2805652089957
 30
0.0
 10
70.47133781865665
 20
353.2805652089957
 30
0.0
 10
70.90195746693138
 20
352.6082712683217
 30
0.0
 10
70.90195746693138
 20
352.0795172104063
 30
0.0
 10
70.90195746693138
 20
351.5478337671282
 30
0.0
 10
70.47133781865665
 20
351.1179464651941
 30
0.0
 10
69.94185141440045
 20
351.1179464651941
 30
0.0
  0
SPLINE
  5
53C
100
AcDbEntity
  8
ALPHA
100
AcDbSpline
210
-0.9847206193452423
220
-0.1741416143152529
230
0.0
 70
    24
 71
     3
 72
     8
 73
     4
 74
     0
 42
0.0000001
 43
0.0000001
 40
14.0
 40
14.0
 40
14.0
 40
14.0
 40
15.0
 40
15.0
 40
15.0
 40
15.0
 10
69.94185141440045
 20
351.1179464651941
 30
0.0
 10
69.94185141440045
 20
351.1179464651941
 30
0.0
 10
70.98324791073839
 20
345.2291495404028
 30
0.0
 10
70.98324791073839
 20
345.2291495404028
 30
0.0
  0
SPLINE
  5
53D
100
AcDbEntity
  8
ALPHA
100
AcDbSpline
210
0.0
220
0.0
230
1.0
 70
     8
 71
     3
 72
    11
 73
     7
 74
     0
 42
0.0000001
 43
0.0000001
 40
15.0
 40
15.0
 40
15.0
 40
15.0
 40
16.0
 40
16.0
 40
16.0
 40
17.0
 40
17.0
 40
17.0
 40
17.0
 10
70.98324791073839
 20
345.2291495404028
 30
0.0
 10
71.51273431499453
 20
345.2291495404028
 30
0.0
 10
71.9426216169287
 20
344.5590526387509
 30
0.0
 10
71.9426216169287
 20
344.0281015418136
 30
0.0
 10
71.9426216169287
 20
343.4971504448763
 30
0.0
 10
71.51273431499453
 20
343.0665307966013
 30
0.0
 10
70.98324791073839
 20
343.0665307966013
 30
0.0
  0
SPLINE
  5
53E
100
AcDbEntity
  8
ALPHA
100
AcDbSpline
210
-0.9895792601686583
220
-0.1439891934974671
230
0.0
 70
    24
 71
     3
 72
     8
 73
     4
 74
     0
 42
0.0000001
 43
0.0000001
 40
17.0
 40
17.0
 40
17.0
 40
17.0
 40
18.0
 40
18.0
 40
18.0
 40
18.0
 10
70.98324791073839
 20
343.0665307966013
 30
0.0
 10
70.98324791073839
 20
343.0665307966013
 30
0.0
 10
71.78223776833658
 20
337.5753979347578
 30
0.0
 10
71.78223776833658
 20
337.5753979347578
 30
0.0
  0
SPLINE
  5
53F
100
AcDbEntity
  8
ALPHA
100
AcDbSpline
210
0.0
220
0.0
230
1.0
 70
     8
 71
     3
 72
    11
 73
     7
 74
     0
 42
0.0000001
 43
0.0000001
 40
18.0
 40
18.0
 40
18.0
 40
18.0
 40
19.0
 40
19.0
 40
19.0
 40
20.0
 40
20.0
 40
20.0
 40
20.0
 10
71.78223776833658
 20
337.5753979347578
 30
0.0
 10
72.3131888652739
 20
337.5753979347578
 30
0.0
 10
72.74380851354869
 20
336.9082304184682
 30
0.0
 10
72.74380851354869
 20
336.3772793215308
 30
0.0
 10
72.74380851354869
 20
335.8477929172747
 30
0.0
 10
72.3131888652739
 20
335.4157085763188
 30
0.0
 10
71.78223776833658
 20
335.4157085763188
 30
0.0
  0
SPLINE
  5
540
100
AcDbEntity
  8
ALPHA
100
AcDbSpline
210
-0.9784849038922784
220
-0.2063184258734999
230
0.0
 70
    24
 71
     3
 72
     8
 73
     4
 74
     0
 42
0.0000001
 43
0.0000001
 40
20.0
 40
20.0
 40
20.0
 40
20.0
 40
20.45429624017682
 40
20.45429624017682
 40
20.45429624017682
 40
20.45429624017682
 10
71.78223776833658
 20
335.4157085763188
 30
0.0
 10
71.78223776833658
 20
335.4157085763188
 30
0.0
 10
72.1292675001585
 20
333.7698868211754
 30
0.0
 10
72.50801835900984
 20
331.9736245816144
 30
0.0
  0
SPLINE
  5
541
100
AcDbEntity
  8
ALPHA
100
AcDbSpline
210
0.0
220
0.0
230
1.0
 70
     8
 71
     3
 72
     8
 73
     4
 74
     0
 42
0.0000001
 43
0.0000001
 40
21.0
 40
21.0
 40
21.0
 40
21.0
 40
22.0
 40
22.0
 40
22.0
 40
22.0
 10
73.46370496636172
 20
327.4411892734893
 30
0.0
 10
73.99465606329915
 20
327.4411892734893
 30
0.0
 10
74.41282582378358
 20
326.3023907138514
 30
0.0
 10
74.41282582378358
 20
326.3023907138514
 30
0.0
  0
SPLINE
  5
542
100
AcDbEntity
  8
ALPHA
100
AcDbSpline
210
-1.0
220
-0.0000000000000022
230
0.0
 70
    24
 71
     3
 72
     8
 73
     4
 74
     0
 42
0.0000001
 43
0.0000001
 40
22.0
 40
22.0
 40
22.0
 40
22.0
 40
23.0
 40
23.0
 40
23.0
 40
23.0
 10
74.41282582378358
 20
326.3023907138514
 30
0.0
 10
74.41282582378358
 20
326.3023907138514
 30
0.0
 10
74.41282582378363
 20
300.7366187172556
 30
0.0
 10
74.41282582378363
 20
300.7366187172556
 30
0.0
  0
SPLINE
  5
543
100
AcDbEntity
  8
ALPHA
100
AcDbSpline
210
0.0
220
1.0
230
0.0
 70
    24
 71
     3
 72
     8
 73
     4
 74
     0
 42
0.0000001
 43
0.0000001
 40
23.0
 40
23.0
 40
23.0
 40
23.0
 40
24.0
 40
24.0
 40
24.0
 40
24.0
 10
74.41282582378363
 20
300.7366187172556
 30
0.0
 10
74.41282582378363
 20
300.7366187172556
 30
0.0
 10
55.21656354389
 20
300.7366187172556
 30
0.0
 10
55.21656354389
 20
300.7366187172556
 30
0.0
  0
SPLINE
  5
544
100
AcDbEntity
  8
ALPHA
100
AcDbSpline
210
-0.9846497808086567
220
0.1745417117867936
230
0.0
 70
    24
 71
     3
 72
     8
 73
     4
 74
     0
 42
0.0000001
 43
0.0000001
 40
2.544416293902135
 40
2.544416293902135
 40
2.544416293902135
 40
2.544416293902135
 40
3.0
 40
3.0
 40
3.0
 40
3.0
 10
56.98230856203309
 20
331.9695498822785
 30
0.0
 10
57.30256285638137
 20
333.7762144182505
 30
0.0
 10
57.59668915085064
 20
335.435481927515
 30
0.0
 10
57.59668915085064
 20
335.435481927515
 30
0.0
  0
SPLINE
  5
545
100
AcDbEntity
  8
ALPHA
100
AcDbSpline
210
-0.9784849038922754
220
-0.2063184258735138
230
0.0
 70
    24
 71
     3
 72
     8
 73
     4
 74
     0
 42
0.0000001
 43
0.0000001
 40
20.64974370503551
 40
20.64974370503551
 40
20.64974370503551
 40
20.64974370503551
 40
21.0
 40
21.0
 40
21.0
 40
21.0
 10
72.98936323506811
 20
329.6908003850119
 30
0.0
 10
73.25742345804986
 20
328.419499092308
 30
0.0
 10
73.46370496636172
 20
327.4411892734893
 30
0.0
 10
73.46370496636172
 20
327.4411892734893
 30
0.0
  0
LINE
  5
5B8
100
AcDbEntity
  8
AXE
100
AcDbLine
 10
28.649327
 20
270.919773
 30
0.0
 11
105.649311
 21
270.919773
 31
0.0
  0
TEXT
  5
5B9
100
AcDbEntity
  8
AXE
100
AcDbText
 10
99.17312
 20
271.919773
 30
0.0
 40
8.0
  1
X
  7
ROMANS
 72
     2
 11
105.649311
 21
271.919773
 31
0.0
100
AcDbText
  0
DIMENSION
  5
61B
100
AcDbEntity
  8
COTATION1
100
AcDbDimension
  2
*D1
 10
125.644156
 20
360.652363
 30
0.0
 11
125.644156
 21
213.171324
 31
0.0
 70
    32
  3
SC_DEFAUT
100
AcDbAlignedDimension
 13
82.806247
 23
65.690285
 33
0.0
 14
64.693863
 24
360.652363
 34
0.0
 50
90.0
100
AcDbRotatedDimension
  0
DIMENSION
  5
61C
100
AcDbEntity
  8
COTATION1
100
AcDbDimension
  2
*D2
 10
115.644878
 20
300.739548
 30
0.0
 11
115.644878
 21
183.214916
 31
0.0
 70
    32
  3
SC_DEFAUT
100
AcDbAlignedDimension
 13
82.806247
 23
65.690285
 33
0.0
 14
81.778765
 24
300.739548
 34
0.0
 50
90.0
100
AcDbRotatedDimension
  0
LINE
  5
61D
100
AcDbEntity
  8
AXE
100
AcDbLine
 10
64.655111
 20
50.719108
 30
0.0
 11
64.655111
 21
370.762616
 31
0.0
  0
TEXT
  5
61E
100
AcDbEntity
  8
AXE
100
AcDbText
 10
57.178921
 20
50.719108
 30
0.0
 40
8.0
  1
Y
  7
ROMANS
 72
     2
 11
63.655111
 21
50.719108
 31
0.0
100
AcDbText
  0
DIMENSION
  5
61F
100
AcDbEntity
  8
COTATION1
100
AcDbDimension
  2
*D3
 10
86.287089
 20
40.719108
 30
0.0
 11
64.820553
 21
43.969108
 31
0.0
 70
    32
  1
39
  3
SC_DEFAUT
100
AcDbAlignedDimension
 13
43.354018
 23
69.852209
 33
0.0
 14
86.287089
 24
69.942288
 34
0.0
100
AcDbRotatedDimension
  0
DIMENSION
  5
620
100
AcDbEntity
  8
COTATION1
100
AcDbDimension
  2
*D4
 10
90.808203
 20
30.719108
 30
0.0
 11
64.812864
 21
33.969108
 31
0.0
 70
    32
  3
SC_DEFAUT
100
AcDbAlignedDimension
 13
38.817525
 23
190.590558
 33
0.0
 14
90.808203
 24
190.521717
 34
0.0
100
AcDbRotatedDimension
  0
POLYLINE
  5
92A
100
AcDbEntity
  8
ALPHA
100
AcDb2dPolyline
 66
     1
 10
0.0
 20
0.0
 30
0.0
 70
     1
  0
VERTEX
  5
92B
100
AcDbEntity
  8
ALPHA
100
AcDbVertex
100
AcDb2dVertex
 10
59.694196
 20
213.831936
 30
0.0
  0
VERTEX
  5
92C
100
AcDbEntity
  8
ALPHA
100
AcDbVertex
100
AcDb2dVertex
 10
64.656574
 20
205.830322
 30
0.0
  0
VERTEX
  5
92D
100
AcDbEntity
  8
ALPHA
100
AcDbVertex
100
AcDb2dVertex
 10
69.938258
 20
213.831936
 30
0.0
  0
SEQEND
  5
92E
100
AcDbEntity
  8
ALPHA
  0
POLYLINE
  5
92F
100
AcDbEntity
  8
ALPHA
100
AcDb2dPolyline
 66
     1
 10
0.0
 20
0.0
 30
0.0
 70
     1
  0
VERTEX
  5
930
100
AcDbEntity
  8
ALPHA
100
AcDbVertex
100
AcDb2dVertex
 10
64.655111
 20
197.100018
 30
0.0
  0
VERTEX
  5
931
100
AcDbEntity
  8
ALPHA
100
AcDbVertex
100
AcDb2dVertex
 10
66.551889
 20
205.694103
 30
0.0
  0
VERTEX
  5
932
100
AcDbEntity
  8
ALPHA
100
AcDbVertex
100
AcDb2dVertex
 10
62.7598
 20
205.694103
 30
0.0
  0
SEQEND
  5
933
100
AcDbEntity
  8
ALPHA
  0
POLYLINE
  5
936
100
AcDbEntity
  8
ALPHA
100
AcDb2dPolyline
 66
     1
 10
0.0
 20
0.0
 30
0.0
 70
     1
  0
VERTEX
  5
937
100
AcDbEntity
  8
ALPHA
100
AcDbVertex
100
AcDb2dVertex
 10
59.694196
 20
226.379225
 30
0.0
  0
VERTEX
  5
938
100
AcDbEntity
  8
ALPHA
100
AcDbVertex
100
AcDb2dVertex
 10
64.656574
 20
234.380838
 30
0.0
  0
VERTEX
  5
939
100
AcDbEntity
  8
ALPHA
100
AcDbVertex
100
AcDb2dVertex
 10
69.938258
 20
226.379225
 30
0.0
  0
SEQEND
  5
93A
100
AcDbEntity
  8
ALPHA
  0
POLYLINE
  5
93B
100
AcDbEntity
  8
ALPHA
100
AcDb2dPolyline
 66
     1
 10
0.0
 20
0.0
 30
0.0
 70
     1
  0
VERTEX
  5
93C
100
AcDbEntity
  8
ALPHA
100
AcDbVertex
100
AcDb2dVertex
 10
64.655111
 20
243.111142
 30
0.0
  0
VERTEX
  5
93D
100
AcDbEntity
  8
ALPHA
100
AcDbVertex
100
AcDb2dVertex
 10
66.551889
 20
234.517057
 30
0.0
  0
VERTEX
  5
93E
100
AcDbEntity
  8
ALPHA
100
AcDbVertex
100
AcDb2dVertex
 10
62.7598
 20
234.517057
 30
0.0
  0
SEQEND
  5
93F
100
AcDbEntity
  8
ALPHA
  0
ENDSEC
  0
SECTION
  2
OBJECTS
  0
DICTIONARY
  5
19
102
{ACAD_XDICTIONARY
360
99E
102
}
100
AcDbDictionary
  3
ACAD_COLOR
350
BF
  3
ACAD_GROUP
350
1A
  3
ACAD_LAYOUT
350
1E
  3
ACAD_MATERIAL
350
BE
  3
ACAD_MLINESTYLE
350
1B
  3
ACAD_PLOTSETTINGS
350
22
  3
ACAD_PLOTSTYLENAME
350
1F
  3
ACAD_TABLESTYLE
350
C0
  3
ACAD_WIPEOUT_VARS
350
23
  3
ACDBHEADERROUNDTRIPXREC
350
97A
  3
ACDBVARIABLEDICTIONARY
350
1D2
  0
DICTIONARY
  5
970
100
AcDbDictionary
  3
ACAD_XREC_ROUNDTRIP
360
971
  0
DICTIONARY
  5
972
100
AcDbDictionary
  3
ACAD_XREC_ROUNDTRIP
360
973
  0
DICTIONARY
  5
974
100
AcDbDictionary
  3
ACAD_XREC_ROUNDTRIP
360
975
  0
DICTIONARY
  5
9A6
100
AcDbDictionary
  3
ACAD_XREC_ROUNDTRIP
360
9A7
  0
DICTIONARY
  5
976
100
AcDbDictionary
  3
ACAD_XREC_ROUNDTRIP
360
977
  0
DICTIONARY
  5
96E
100
AcDbDictionary
  3
ACAD_XREC_ROUNDTRIP
360
96F
  0
DICTIONARY
  5
9A8
100
AcDbDictionary
  3
ACAD_XREC_ROUNDTRIP
360
9A9
  0
DICTIONARY
  5
1B0
100
AcDbDictionary
  3
ACAD_LAYOUTSELFREF
360
99B
  3
ACAD_SORTENTS
360
1B1
  0
DICTIONARY
  5
99C
100
AcDbDictionary
  3
ACAD_LAYOUTSELFREF
360
99D
  0
DICTIONARY
  5
99E
100
AcDbDictionary
  3
ACAD_XREC_ROUNDTRIP
360
99F
  0
DICTIONARY
  5
BF
102
{ACAD_REACTORS
330
19
102
}
100
AcDbDictionary
  0
DICTIONARY
  5
1A
102
{ACAD_REACTORS
330
19
102
}
100
AcDbDictionary
  0
DICTIONARY
  5
1E
102
{ACAD_XDICTIONARY
360
9A2
102
}
102
{ACAD_REACTORS
330
19
102
}
100
AcDbDictionary
  3
LAYOUT1
350
21
  3
MODEL
350
20
  0
DICTIONARY
  5
BE
102
{ACAD_REACTORS
330
19
102
}
100
AcDbDictionary
  0
DICTIONARY
  5
1B
102
{ACAD_XDICTIONARY
360
9A0
102
}
102
{ACAD_REACTORS
330
19
102
}
100
AcDbDictionary
  3
STANDARD
350
1C
  0
DICTIONARY
  5
22
102
{ACAD_REACTORS
330
19
102
}
100
AcDbDictionary
  0
ACAD_ZOMBIE_OBJECT
  5
1F
102
{ACAD_REACTORS
330
19
102
}
100
AcDbZombieObject
 90
      499
 91
      517
 93
       86
310
405010041939BDC9B585B2
350
1D
340
1D
 94
        0
  0
DICTIONARY
  5
C0
102
{ACAD_XDICTIONARY
360
9A4
102
}
102
{ACAD_REACTORS
330
19
102
}
100
AcDbDictionary
  3
STANDARD
350
C1
  0
ACAD_ZOMBIE_OBJECT
  5
23
102
{ACAD_REACTORS
330
19
102
}
100
AcDbZombieObject
 90
      499
 91
      525
 93
       10
310
4041
 94
        0
1001
ACAD
1000
AcadProxyRoundTripData
1071
      521
1071
   851991
1070
     0
  0
DICTIONARY
  5
97A
102
{ACAD_REACTORS
330
19
102
}
100
AcDbDictionary
  3
CEPSNTYPE
350
984
  3
DIMSTYLEDATA
350
988
  3
FINGERPRINTGUID
350
985
  3
HYPERLINKBASE
350
97D
  3
INSUNITS
350
983
  3
LAYOUTDICT
350
97F
  3
LWETCUNION
350
982
  3
PLOTSETDICT
350
980
  3
PLOTSTYLNAMDICT
350
981
  3
PSVPSCALE
350
987
  3
PUCSBASE
350
98B
  3
PUCSORGBACK
350
991
  3
PUCSORGBOTTOM
350
98D
  3
PUCSORGFRONT
350
990
  3
PUCSORGLEFT
350
98E
  3
PUCSORGRIGHT
350
98F
  3
PUCSORGTOP
350
98C
  3
PUCSORTHOREF
350
989
  3
PUCSORTHOVIEW
350
98A
  3
STYLESHEET
350
97E
  3
TSTACKALIGN
350
97B
  3
TSTACKSIZE
350
97C
  3
UCSBASE
350
994
  3
UCSORGBACK
350
99A
  3
UCSORGBOTTOM
350
996
  3
UCSORGFRONT
350
999
  3
UCSORGLEFT
350
997
  3
UCSORGRIGHT
350
998
  3
UCSORGTOP
350
995
  3
UCSORTHOREF
350
992
  3
UCSORTHOVIEW
350
993
  3
VERSIONGUID
350
986
  0
DICTIONARY
  5
1D2
102
{ACAD_REACTORS
330
19
102
}
100
AcDbDictionary
  3
CTABLESTYLE
350
1D3
  3
DIMASSOC
350
1D4
  3
PROJECTNAME
350
1D5
  0
XRECORD
  5
971
102
{ACAD_REACTORS
330
970
102
}
100
AcDbXrecord
102
EXTNAMES
  1
BYBLOCK
  2
ByBlock
  0
XRECORD
  5
973
102
{ACAD_REACTORS
330
972
102
}
100
AcDbXrecord
102
EXTNAMES
  1
BYLAYER
  2
ByLayer
  0
XRECORD
  5
975
102
{ACAD_REACTORS
330
974
102
}
100
AcDbXrecord
102
EXTNAMES
  1
CONTINUOUS
  2
Continuous
  0
XRECORD
  5
9A7
102
{ACAD_REACTORS
330
9A6
102
}
100
AcDbXrecord
102
PLOTBIT
280
     0
  0
XRECORD
  5
977
102
{ACAD_REACTORS
330
976
102
}
100
AcDbXrecord
102
EXTNAMES
  1
STANDARD
  2
Standard
  0
XRECORD
  5
96F
102
{ACAD_REACTORS
330
96E
102
}
100
AcDbXrecord
102
EXTNAMES
  1
STANDARD
  2
Standard
  0
XRECORD
  5
9A9
102
{ACAD_REACTORS
330
9A8
102
}
100
AcDbXrecord
102
ACADR14ROUNDTRIP
1000
DSTYLE
1002
{
1070
   279
 70
     2
1070
   341
340
CF
1070
   342
340
CF
1002
}
  0
XRECORD
  5
99B
102
{ACAD_REACTORS
330
1B0
102
}
100
AcDbXrecord
340
A
  0
SORTENTSTABLE
  5
1B1
102
{ACAD_REACTORS
330
1B0
102
}
100
AcDbSortentsTable
330
A
331
A7
  5
2B0
331
52B
  5
2D2
331
A6
  5
2AF
331
545
  5
2AB
331
52A
  5
2D1
331
544
  5
1FA
331
529
  5
2D0
331
A4
  5
1F4
331
543
  5
2AE
331
528
  5
2CF
331
A3
  5
1F3
331
542
  5
2AD
331
A2
  5
1F2
331
541
  5
2AC
331
A1
  5
1F1
331
540
  5
2AA
331
A0
  5
1F0
331
53F
  5
2A9
331
9F
  5
1EF
331
53E
  5
2A8
331
8B
  5
1E3
331
9E
  5
1EE
331
53D
  5
235
331
8A
  5
1E2
331
9D
  5
1ED
331
53C
  5
202
331
9C
  5
1EC
331
53B
  5
201
331
527
  5
2CE
331
9B
  5
1EB
331
53A
  5
200
331
526
  5
2CD
331
9A
  5
1EA
331
539
  5
1FF
331
525
  5
2B6
331
99
  5
1E9
331
538
  5
1FE
331
524
  5
2B5
331
98
  5
1E8
331
537
  5
1FD
331
523
  5
2B4
331
536
  5
1FC
331
522
  5
2B3
331
535
  5
1FB
331
7A
  5
1C0
331
521
  5
2B2
331
534
  5
1F9
331
520
  5
2B1
331
533
  5
1F7
331
532
  5
1F6
331
97
  5
1E7
331
96
  5
1E6
331
95
  5
1E5
  0
XRECORD
  5
99D
102
{ACAD_REACTORS
330
99C
102
}
100
AcDbXrecord
340
B
  0
XRECORD
  5
99F
102
{ACAD_REACTORS
330
99E
102
}
100
AcDbXrecord
102
EXTNAMES
  1
ACDBVARIABLEDICTIONARY
  2
AcDbVariableDictionary
  0
DICTIONARY
  5
9A2
100
AcDbDictionary
  3
ACAD_XREC_ROUNDTRIP
360
9A3
  0
ACAD_ZOMBIE_OBJECT
  5
21
102
{ACAD_XDICTIONARY
360
967
102
}
102
{ACAD_REACTORS
330
1E
102
}
100
AcDbZombieObject
 90
      499
 91
      515
 93
      812
310
AAAAAAAAAA5A69074C61796F757431406A800000000000000000000000000000000000000000000A1000000000000008902A6A6A10232D5E076BC5510408CB5781DAF154410232D5E076BC5510408CB5781DAF15C410232D5E076BC5710408CB5781DAF15C42
330
B
330
0
340
0
340
0
 94
        0
  0
ACAD_ZOMBIE_OBJECT
  5
20
102
{ACAD_XDICTIONARY
360
965
102
}
102
{ACAD_REACTORS
330
1E
102
}
100
AcDbZombieObject
 90
      499
 91
      515
 93
      420
310
A00012AAAAAAAA5A69054D6F64656CAA80000000000000000000000000000000000000000000000000000000000000002AAAAAAAA8
330
A
330
0
340
0
340
0
 94
        0
  0
DICTIONARY
  5
9A0
100
AcDbDictionary
  3
ACAD_XREC_ROUNDTRIP
360
9A1
  0
MLINESTYLE
  5
1C
102
{ACAD_REACTORS
330
1B
102
}
100
AcDbMlineStyle
  2
STANDARD
 70
     0
  3

 62
     0
 51
90.0
 52
90.0
 71
     2
 49
0.5
 62
   256
  6
BYLAYER
 49
-0.5
 62
   256
  6
BYLAYER
  0
ACAD_ZOMBIE_OBJECT
  5
1D
102
{ACAD_REACTORS
330
1F
102
}
100
AcDbZombieObject
 90
      499
 91
      518
 93
        0
 94
        0
  0
DICTIONARY
  5
9A4
100
AcDbDictionary
  3
ACAD_XREC_ROUNDTRIP
360
9A5
  0
ACAD_ZOMBIE_OBJECT
  5
C1
102
{ACAD_REACTORS
330
C0
102
}
100
AcDbZombieObject
 90
      499
 91
      525
 93
     1841
310
4214DD185B99185C9928000000000000F83F0000000000003E0FC00000000000004901028000000C1008070000C3001FDFF8000000C1003FBFF000000182007F7FE00000030400FEFFC00000060801FDFF8000000C1003FBFF000000182000000000000000C2020B0000001820100E000186003FBFF000000182007F7FE000
310
00030400FEFFC00000060801FDFF8000000C1003FBFF000000182007F7FE0000003040000000000000012404160000003040201C00030C007F7FE00000030400FEFFC00000060801FDFF8000000C1003FBFF000000182007F7FE00000030400FEFFC000000608000
340
17
340
17
340
17
 94
        0
1001
ACAD
1000
AcadProxyRoundTripData
1071
      524
1071
   851991
1070
     0
  0
XRECORD
  5
984
102
{ACAD_REACTORS
330
97A
102
}
100
AcDbXrecord
 90
        0
  0
XRECORD
  5
988
102
{ACAD_REACTORS
330
97A
102
}
100
AcDbXrecord
1000
DSTYLE
1002
{
1070
   278
 70
     0
1070
   371
 70
     0
1070
   372
 70
     0
1002
}
  0
XRECORD
  5
985
102
{ACAD_REACTORS
330
97A
102
}
100
AcDbXrecord
  1

  0
XRECORD
  5
97D
102
{ACAD_REACTORS
330
97A
102
}
100
AcDbXrecord
  1

  0
XRECORD
  5
983
102
{ACAD_REACTORS
330
97A
102
}
100
AcDbXrecord
 90
        0
  0
XRECORD
  5
97F
102
{ACAD_REACTORS
330
97A
102
}
100
AcDbXrecord
340
1E
  0
XRECORD
  5
982
102
{ACAD_REACTORS
330
97A
102
}
100
AcDbXrecord
 90
    10752
  0
XRECORD
  5
980
102
{ACAD_REACTORS
330
97A
102
}
100
AcDbXrecord
340
22
  0
XRECORD
  5
981
102
{ACAD_REACTORS
330
97A
102
}
100
AcDbXrecord
340
1F
  0
XRECORD
  5
987
102
{ACAD_REACTORS
330
97A
102
}
100
AcDbXrecord
 40
0.0
  0
XRECORD
  5
98B
102
{ACAD_REACTORS
330
97A
102
}
100
AcDbXrecord
340
0
  0
XRECORD
  5
991
102
{ACAD_REACTORS
330
97A
102
}
100
AcDbXrecord
 10
0.0
 20
0.0
 30
0.0
  0
XRECORD
  5
98D
102
{ACAD_REACTORS
330
97A
102
}
100
AcDbXrecord
 10
0.0
 20
0.0
 30
0.0
  0
XRECORD
  5
990
102
{ACAD_REACTORS
330
97A
102
}
100
AcDbXrecord
 10
0.0
 20
0.0
 30
0.0
  0
XRECORD
  5
98E
102
{ACAD_REACTORS
330
97A
102
}
100
AcDbXrecord
 10
0.0
 20
0.0
 30
0.0
  0
XRECORD
  5
98F
102
{ACAD_REACTORS
330
97A
102
}
100
AcDbXrecord
 10
0.0
 20
0.0
 30
0.0
  0
XRECORD
  5
98C
102
{ACAD_REACTORS
330
97A
102
}
100
AcDbXrecord
 10
0.0
 20
0.0
 30
0.0
  0
XRECORD
  5
989
102
{ACAD_REACTORS
330
97A
102
}
100
AcDbXrecord
340
0
  0
XRECORD
  5
98A
102
{ACAD_REACTORS
330
97A
102
}
100
AcDbXrecord
 70
     0
  0
XRECORD
  5
97E
102
{ACAD_REACTORS
330
97A
102
}
100
AcDbXrecord
  1

  0
XRECORD
  5
97B
102
{ACAD_REACTORS
330
97A
102
}
100
AcDbXrecord
 90
        1
  0
XRECORD
  5
97C
102
{ACAD_REACTORS
330
97A
102
}
100
AcDbXrecord
 90
       70
  0
XRECORD
  5
994
102
{ACAD_REACTORS
330
97A
102
}
100
AcDbXrecord
340
0
  0
XRECORD
  5
99A
102
{ACAD_REACTORS
330
97A
102
}
100
AcDbXrecord
 10
0.0
 20
0.0
 30
0.0
  0
XRECORD
  5
996
102
{ACAD_REACTORS
330
97A
102
}
100
AcDbXrecord
 10
0.0
 20
0.0
 30
0.0
  0
XRECORD
  5
999
102
{ACAD_REACTORS
330
97A
102
}
100
AcDbXrecord
 10
0.0
 20
0.0
 30
0.0
  0
XRECORD
  5
997
102
{ACAD_REACTORS
330
97A
102
}
100
AcDbXrecord
 10
0.0
 20
0.0
 30
0.0
  0
XRECORD
  5
998
102
{ACAD_REACTORS
330
97A
102
}
100
AcDbXrecord
 10
0.0
 20
0.0
 30
0.0
  0
XRECORD
  5
995
102
{ACAD_REACTORS
330
97A
102
}
100
AcDbXrecord
 10
0.0
 20
0.0
 30
0.0
  0
XRECORD
  5
992
102
{ACAD_REACTORS
330
97A
102
}
100
AcDbXrecord
340
0
  0
XRECORD
  5
993
102
{ACAD_REACTORS
330
97A
102
}
100
AcDbXrecord
 70
     0
  0
XRECORD
  5
986
102
{ACAD_REACTORS
330
97A
102
}
100
AcDbXrecord
  1
{47D88B3F-D992-489B-958D-B79A64C9BCAC}
  0
DICTIONARYVAR
  5
1D3
102
{ACAD_REACTORS
330
1D2
102
}
100
DictionaryVariables
280
     0
  1
STANDARD
  0
DICTIONARYVAR
  5
1D4
102
{ACAD_REACTORS
330
1D2
102
}
100
DictionaryVariables
280
     0
  1
1
  0
DICTIONARYVAR
  5
1D5
102
{ACAD_REACTORS
330
1D2
102
}
100
DictionaryVariables
280
     0
  1

  0
XRECORD
  5
9A3
102
{ACAD_REACTORS
330
9A2
102
}
100
AcDbXrecord
102
EXTNAMES
  1
LAYOUT1
  2
Layout1
  1
MODEL
  2
Model
  0
DICTIONARY
  5
967
100
AcDbDictionary
  3
ACAD_XREC_ROUNDTRIP
360
968
  0
DICTIONARY
  5
965
100
AcDbDictionary
  3
ACAD_XREC_ROUNDTRIP
360
966
  0
XRECORD
  5
9A1
102
{ACAD_REACTORS
330
9A0
102
}
100
AcDbXrecord
102
EXTNAMES
  1
STANDARD
  2
Standard
  0
XRECORD
  5
9A5
102
{ACAD_REACTORS
330
9A4
102
}
100
AcDbXrecord
102
EXTNAMES
  1
STANDARD
  2
Standard
  0
XRECORD
  5
968
102
{ACAD_REACTORS
330
967
102
}
100
AcDbXrecord
102
SHADEPLOT
 70
     0
102
SHADEPLOTRESLEVEL
 70
     2
102
SHADEPLOTCUSTOMDPI
 70
   300
  0
XRECORD
  5
966
102
{ACAD_REACTORS
330
965
102
}
100
AcDbXrecord
102
SHADEPLOT
 70
     0
102
SHADEPLOTRESLEVEL
 70
     2
102
SHADEPLOTCUSTOMDPI
 70
   300
  0
ENDSEC
  0
EOF
