  0
SECTION
  2
HEADER
  9
$ACADVER
  1
AC1014
  9
$ACADMAINTVER
 70
     0
  9
$DWGCODEPAGE
  3
ANSI_1252
  9
$INSBASE
 10
0.0
 20
0.0
 30
0.0
  9
$EXTMIN
 10
72.97349
 20
139.5
 30
0.0
  9
$EXTMAX
 10
125.5
 20
186.414873
 30
0.0
  9
$LIMMIN
 10
0.0
 20
0.0
  9
$LIMMAX
 10
210.0
 20
297.0
  9
$ORTHOMODE
 70
     0
  9
$REGENMODE
 70
     1
  9
$FILLMODE
 70
     1
  9
$QTEXTMODE
 70
     0
  9
$MIRRTEXT
 70
     1
  9
$DRAGMODE
 70
     2
  9
$LTSCALE
 40
10.0
  9
$OSMODE
 70
     0
  9
$ATTMODE
 70
     1
  9
$TEXTSIZE
 40
2.9
  9
$TRACEWID
 40
0.05
  9
$TEXTSTYLE
  7
ROMANS
  9
$CLAYER
  8
COTATION1
  9
$CELTYPE
  6
BYLAYER
  9
$CECOLOR
 62
   256
  9
$CELTSCALE
 40
1.0
  9
$DELOBJ
 70
     1
  9
$DISPSILH
 70
     0
  9
$DIMSCALE
 40
1.0
  9
$DIMASZ
 40
3.0
  9
$DIMEXO
 40
0.0625
  9
$DIMDLI
 40
0.38
  9
$DIMRND
 40
0.01
  9
$DIMDLE
 40
0.0
  9
$DIMEXE
 40
0.18
  9
$DIMTP
 40
0.0
  9
$DIMTM
 40
0.0
  9
$DIMTXT
 40
2.5
  9
$DIMCEN
 40
0.09
  9
$DIMTSZ
 40
0.0
  9
$DIMTOL
 70
     0
  9
$DIMLIM
 70
     0
  9
$DIMTIH
 70
     0
  9
$DIMTOH
 70
     0
  9
$DIMSE1
 70
     0
  9
$DIMSE2
 70
     0
  9
$DIMTAD
 70
     1
  9
$DIMZIN
 70
    12
  9
$DIMBLK
  1

  9
$DIMASO
 70
     1
  9
$DIMSHO
 70
     1
  9
$DIMPOST
  1

  9
$DIMAPOST
  1

  9
$DIMALT
 70
     0
  9
$DIMALTD
 70
     2
  9
$DIMALTF
 40
25.4
  9
$DIMLFAC
 40
1.0
  9
$DIMTOFL
 70
     1
  9
$DIMTVP
 40
0.0
  9
$DIMTIX
 70
     0
  9
$DIMSOXD
 70
     0
  9
$DIMSAH
 70
     0
  9
$DIMBLK1
  1

  9
$DIMBLK2
  1

  9
$DIMSTYLE
  2
SC_STAND
  9
$DIMCLRD
 70
     0
  9
$DIMCLRE
 70
     0
  9
$DIMCLRT
 70
     0
  9
$DIMTFAC
 40
1.0
  9
$DIMGAP
 40
1.0
  9
$DIMJUST
 70
     0
  9
$DIMSD1
 70
     0
  9
$DIMSD2
 70
     0
  9
$DIMTOLJ
 70
     1
  9
$DIMTZIN
 70
    12
  9
$DIMALTZ
 70
    12
  9
$DIMALTTZ
 70
    12
  9
$DIMFIT
 70
     5
  9
$DIMUPT
 70
     0
  9
$DIMUNIT
 70
     2
  9
$DIMDEC
 70
     4
  9
$DIMTDEC
 70
     4
  9
$DIMALTU
 70
     2
  9
$DIMALTTD
 70
     2
  9
$DIMTXSTY
  7
ROMANS
  9
$DIMAUNIT
 70
     0
  9
$LUNITS
 70
     2
  9
$LUPREC
 70
     4
  9
$SKETCHINC
 40
0.1
  9
$FILLETRAD
 40
0.0
  9
$AUNITS
 70
     0
  9
$AUPREC
 70
     0
  9
$MENU
  1
.
  9
$ELEVATION
 40
0.0
  9
$PELEVATION
 40
0.0
  9
$THICKNESS
 40
0.0
  9
$LIMCHECK
 70
     0
  9
$BLIPMODE
 70
     1
  9
$CHAMFERA
 40
0.0
  9
$CHAMFERB
 40
0.0
  9
$CHAMFERC
 40
0.0
  9
$CHAMFERD
 40
0.0
  9
$SKPOLY
 70
     0
  9
$TDCREATE
 40
2450989.445444444
  9
$TDUPDATE
 40
2451387.897319502
  9
$TDINDWG
 40
0.0014105324
  9
$TDUSRTIMER
 40
0.0014105324
  9
$USRTIMER
 70
     1
  9
$ANGBASE
 50
0.0
  9
$ANGDIR
 70
     0
  9
$PDMODE
 70
     0
  9
$PDSIZE
 40
0.0
  9
$PLINEWID
 40
0.0
  9
$COORDS
 70
     1
  9
$SPLFRAME
 70
     0
  9
$SPLINETYPE
 70
     6
  9
$SPLINESEGS
 70
     8
  9
$ATTDIA
 70
     1
  9
$ATTREQ
 70
     1
  9
$HANDLING
 70
     1
  9
$HANDSEED
  5
3DA
  9
$SURFTAB1
 70
     6
  9
$SURFTAB2
 70
     6
  9
$SURFTYPE
 70
     6
  9
$SURFU
 70
     6
  9
$SURFV
 70
     6
  9
$UCSNAME
  2

  9
$UCSORG
 10
0.0
 20
0.0
 30
0.0
  9
$UCSXDIR
 10
1.0
 20
0.0
 30
0.0
  9
$UCSYDIR
 10
0.0
 20
1.0
 30
0.0
  9
$PUCSNAME
  2

  9
$PUCSORG
 10
0.0
 20
0.0
 30
0.0
  9
$PUCSXDIR
 10
1.0
 20
0.0
 30
0.0
  9
$PUCSYDIR
 10
0.0
 20
1.0
 30
0.0
  9
$USERI1
 70
     0
  9
$USERI2
 70
     0
  9
$USERI3
 70
     0
  9
$USERI4
 70
     0
  9
$USERI5
 70
     0
  9
$USERR1
 40
0.0
  9
$USERR2
 40
0.0
  9
$USERR3
 40
0.0
  9
$USERR4
 40
0.0
  9
$USERR5
 40
0.0
  9
$WORLDVIEW
 70
     1
  9
$SHADEDGE
 70
     3
  9
$SHADEDIF
 70
    70
  9
$TILEMODE
 70
     1
  9
$MAXACTVP
 70
    16
  9
$PINSBASE
 10
0.0
 20
0.0
 30
0.0
  9
$PLIMCHECK
 70
     0
  9
$PEXTMIN
 10
0.0
 20
0.0
 30
0.0
  9
$PEXTMAX
 10
420.0
 20
297.0
 30
0.0
  9
$PLIMMIN
 10
0.0
 20
0.0
  9
$PLIMMAX
 10
420.0
 20
297.0
  9
$UNITMODE
 70
     0
  9
$VISRETAIN
 70
     0
  9
$PLINEGEN
 70
     0
  9
$PSLTSCALE
 70
     1
  9
$TREEDEPTH
 70
  3020
  9
$PICKSTYLE
 70
     1
  9
$CMLSTYLE
  2
STANDARD
  9
$CMLJUST
 70
     0
  9
$CMLSCALE
 40
1.0
  9
$PROXYGRAPHICS
 70
     1
  9
$MEASUREMENT
 70
     0
  0
ENDSEC
  0
SECTION
  2
CLASSES
  0
CLASS
  1
DICTIONARYVAR
  2
AcDbDictionaryVar
  3
"AutoCAD"
 90
        0
280
     0
281
     0
  0
CLASS
  1
LWPOLYLINE
  2
AcDbPolyline
  3
"AutoCAD"
 90
        0
280
     0
281
     1
  0
ENDSEC
  0
SECTION
  2
TABLES
  0
TABLE
  2
VPORT
  5
37C
100
AcDbSymbolTable
 70
     1
  0
VPORT
  5
3D5
100
AcDbSymbolTableRecord
100
AcDbViewportTableRecord
  2
*ACTIVE
 70
     0
 10
0.0
 20
0.0
 11
1.0
 21
1.0
 12
257.127367
 22
153.871495
 13
0.0
 23
0.0
 14
2.5
 24
2.5
 15
10.0
 25
10.0
 16
0.0
 26
0.0
 36
1.0
 17
0.0
 27
0.0
 37
0.0
 40
307.74299
 41
1.671053
 42
50.0
 43
0.0
 44
0.0
 50
0.0
 51
0.0
 71
     0
 72
   100
 73
     1
 74
     1
 75
     1
 76
     1
 77
     0
 78
     0
  0
ENDTAB
  0
TABLE
  2
LTYPE
  5
379
100
AcDbSymbolTable
 70
    23
  0
LTYPE
  5
385
100
AcDbSymbolTableRecord
100
AcDbLinetypeTableRecord
  2
BYBLOCK
 70
     0
  3

 72
    65
 73
     0
 40
0.0
  0
LTYPE
  5
386
100
AcDbSymbolTableRecord
100
AcDbLinetypeTableRecord
  2
BYLAYER
 70
     0
  3

 72
    65
 73
     0
 40
0.0
  0
LTYPE
  5
387
100
AcDbSymbolTableRecord
100
AcDbLinetypeTableRecord
  2
CONTINUOUS
 70
     0
  3
Solid line
 72
    65
 73
     0
 40
0.0
  0
LTYPE
  5
39B
100
AcDbSymbolTableRecord
100
AcDbLinetypeTableRecord
  2
AXES
 70
     0
  3
____ _ ____ _ ____ _ ____ _ ____ _ ____ _ ____ 
 72
    65
 73
     4
 40
2.0
 49
1.25
 74
     0
 49
-0.25
 74
     0
 49
0.25
 74
     0
 49
-0.25
 74
     0
  0
LTYPE
  5
39C
100
AcDbSymbolTableRecord
100
AcDbLinetypeTableRecord
  2
AXES2
 70
     0
  3
___ _ ___ _ ___ _ ___ _ ___ _ ___ _ ___ _ ___ _
 72
    65
 73
     4
 40
1.125
 49
0.75
 74
     0
 49
-0.125
 74
     0
 49
0.125
 74
     0
 49
-0.125
 74
     0
  0
LTYPE
  5
39D
100
AcDbSymbolTableRecord
100
AcDbLinetypeTableRecord
  2
AXESX2
 70
     0
  3
________  __  ________  __  ________  __  _____
 72
    65
 73
     4
 40
4.0
 49
2.5
 74
     0
 49
-0.5
 74
     0
 49
0.5
 74
     0
 49
-0.5
 74
     0
  0
LTYPE
  5
39E
100
AcDbSymbolTableRecord
100
AcDbLinetypeTableRecord
  2
TIRETPT
 70
     0
  3
__ . __ . __ . __ . __ . __ . __ . __ . __ . __
 72
    65
 73
     4
 40
1.0
 49
0.5
 74
     0
 49
-0.25
 74
     0
 49
0.0
 74
     0
 49
-0.25
 74
     0
  0
LTYPE
  5
39F
100
AcDbSymbolTableRecord
100
AcDbLinetypeTableRecord
  2
TIRETPT2
 70
     0
  3
_._._._._._._._._._._._._._._._._._._._._._._._
 72
    65
 73
     4
 40
0.5
 49
0.25
 74
     0
 49
-0.125
 74
     0
 49
0.0
 74
     0
 49
-0.125
 74
     0
  0
LTYPE
  5
3A0
100
AcDbSymbolTableRecord
100
AcDbLinetypeTableRecord
  2
TIRETPTX2
 70
     0
  3
____  .  ____  .  ____  .  ____  .  ____  .  __
 72
    65
 73
     4
 40
2.0
 49
1.0
 74
     0
 49
-0.5
 74
     0
 49
0.0
 74
     0
 49
-0.5
 74
     0
  0
LTYPE
  5
3A1
100
AcDbSymbolTableRecord
100
AcDbLinetypeTableRecord
  2
DISCONTINU
 70
     0
  3
__ __ __ __ __ __ __ __ __ __ __ __ __ __ __ __
 72
    65
 73
     2
 40
0.75
 49
0.5
 74
     0
 49
-0.25
 74
     0
  0
LTYPE
  5
3A2
100
AcDbSymbolTableRecord
100
AcDbLinetypeTableRecord
  2
DISCONTINU2
 70
     0
  3
_ _ _ _ _ _ _ _ _ _ _ _ _ _ _ _ _ _ _ _ _ _ _ _
 72
    65
 73
     2
 40
0.375
 49
0.25
 74
     0
 49
-0.125
 74
     0
  0
LTYPE
  5
3A3
100
AcDbSymbolTableRecord
100
AcDbLinetypeTableRecord
  2
DISCONTINUX2
 70
     0
  3
____  ____  ____  ____  ____  ____  ____  ____ 
 72
    65
 73
     2
 40
1.5
 49
1.0
 74
     0
 49
-0.5
 74
     0
  0
LTYPE
  5
3A4
100
AcDbSymbolTableRecord
100
AcDbLinetypeTableRecord
  2
DIVISE
 70
     0
  3
____ . . ____ . . ____ . . ____ . . ____ . . __
 72
    65
 73
     6
 40
1.25
 49
0.5
 74
     0
 49
-0.25
 74
     0
 49
0.0
 74
     0
 49
-0.25
 74
     0
 49
0.0
 74
     0
 49
-0.25
 74
     0
  0
LTYPE
  5
3A5
100
AcDbSymbolTableRecord
100
AcDbLinetypeTableRecord
  2
DIVISE2
 70
     0
  3
__..__..__..__..__..__..__..__..__..__..__..__.
 72
    65
 73
     6
 40
0.625
 49
0.25
 74
     0
 49
-0.125
 74
     0
 49
0.0
 74
     0
 49
-0.125
 74
     0
 49
0.0
 74
     0
 49
-0.125
 74
     0
  0
LTYPE
  5
3A6
100
AcDbSymbolTableRecord
100
AcDbLinetypeTableRecord
  2
DIVISEX2
 70
     0
  3
________  .  .  ________  .  .  ________  .  . 
 72
    65
 73
     6
 40
2.5
 49
1.0
 74
     0
 49
-0.5
 74
     0
 49
0.0
 74
     0
 49
-0.5
 74
     0
 49
0.0
 74
     0
 49
-0.5
 74
     0
  0
LTYPE
  5
3A7
100
AcDbSymbolTableRecord
100
AcDbLinetypeTableRecord
  2
POINTILLE
 70
     0
  3
. . . . . . . . . . . . . . . . . . . . . . . .
 72
    65
 73
     2
 40
0.25
 49
0.0
 74
     0
 49
-0.25
 74
     0
  0
LTYPE
  5
3A8
100
AcDbSymbolTableRecord
100
AcDbLinetypeTableRecord
  2
POINTILLE2
 70
     0
  3
...............................................
 72
    65
 73
     2
 40
0.125
 49
0.0
 74
     0
 49
-0.125
 74
     0
  0
LTYPE
  5
3A9
100
AcDbSymbolTableRecord
100
AcDbLinetypeTableRecord
  2
POINTILLEX2
 70
     0
  3
.  .  .  .  .  .  .  .  .  .  .  .  .  .  .  . 
 72
    65
 73
     2
 40
0.5
 49
0.0
 74
     0
 49
-0.5
 74
     0
  0
LTYPE
  5
3AA
100
AcDbSymbolTableRecord
100
AcDbLinetypeTableRecord
  2
CACHE
 70
     0
  3
__ __ __ __ __ __ __ __ __ __ __ __ __ __ __ __
 72
    65
 73
     2
 40
0.375
 49
0.25
 74
     0
 49
-0.125
 74
     0
  0
LTYPE
  5
3AB
100
AcDbSymbolTableRecord
100
AcDbLinetypeTableRecord
  2
CACHE2
 70
     0
  3
_ _ _ _ _ _ _ _ _ _ _ _ _ _ _ _ _ _ _ _ _ _ _ _
 72
    65
 73
     2
 40
0.1875
 49
0.125
 74
     0
 49
-0.0625
 74
     0
  0
LTYPE
  5
3AC
100
AcDbSymbolTableRecord
100
AcDbLinetypeTableRecord
  2
CACHEX2
 70
     0
  3
____ ____ ____ ____ ____ ____ ____ ____ ____ __
 72
    65
 73
     2
 40
0.75
 49
0.5
 74
     0
 49
-0.25
 74
     0
  0
LTYPE
  5
3AD
100
AcDbSymbolTableRecord
100
AcDbLinetypeTableRecord
  2
FANTOME
 70
     0
  3
______  __  __  ______  __  __  ______  __  __ 
 72
    65
 73
     6
 40
2.5
 49
1.25
 74
     0
 49
-0.25
 74
     0
 49
0.25
 74
     0
 49
-0.25
 74
     0
 49
0.25
 74
     0
 49
-0.25
 74
     0
  0
LTYPE
  5
3AE
100
AcDbSymbolTableRecord
100
AcDbLinetypeTableRecord
  2
FANTOME2
 70
     0
  3
___ _ _ ___ _ _ ___ _ _ ___ _ _ ___ _ _ ___ _ _
 72
    65
 73
     6
 40
1.25
 49
0.625
 74
     0
 49
-0.125
 74
     0
 49
0.125
 74
     0
 49
-0.125
 74
     0
 49
0.125
 74
     0
 49
-0.125
 74
     0
  0
LTYPE
  5
3AF
100
AcDbSymbolTableRecord
100
AcDbLinetypeTableRecord
  2
FANTOMEX2
 70
     0
  3
____________    ____    ____    ____________   
 72
    65
 73
     6
 40
5.0
 49
2.5
 74
     0
 49
-0.5
 74
     0
 49
0.5
 74
     0
 49
-0.5
 74
     0
 49
0.5
 74
     0
 49
-0.5
 74
     0
  0
LTYPE
  5
3B0
100
AcDbSymbolTableRecord
100
AcDbLinetypeTableRecord
  2
0
 70
     0
  3
MEDUSA PEN 0
 72
    65
 73
     0
 40
0.0
  0
ENDTAB
  0
TABLE
  2
LAYER
  5
376
100
AcDbSymbolTable
 70
    21
  0
LAYER
  5
382
100
AcDbSymbolTableRecord
100
AcDbLayerTableRecord
  2
0
 70
     0
 62
   255
  6
CONTINUOUS
  0
LAYER
  5
3B8
100
AcDbSymbolTableRecord
100
AcDbLayerTableRecord
  2
COTATION1
 70
     0
 62
     2
  6
CONTINUOUS
  0
LAYER
  5
3B9
100
AcDbSymbolTableRecord
100
AcDbLayerTableRecord
  2
ASHADE
 70
     0
 62
     7
  6
CONTINUOUS
  0
LAYER
  5
3BA
100
AcDbSymbolTableRecord
100
AcDbLayerTableRecord
  2
ALPHA
 70
     0
 62
   255
  6
CONTINUOUS
  0
LAYER
  5
3BB
100
AcDbSymbolTableRecord
100
AcDbLayerTableRecord
  2
DEFPOINTS
 70
     0
 62
     7
  6
CONTINUOUS
  0
LAYER
  5
3BC
100
AcDbSymbolTableRecord
100
AcDbLayerTableRecord
  2
AXE
 70
     0
 62
    80
  6
AXES2
  0
LAYER
  5
3BD
100
AcDbSymbolTableRecord
100
AcDbLayerTableRecord
  2
CONSTRUCTION
 70
     0
 62
     6
  6
CONTINUOUS
  0
LAYER
  5
3BE
100
AcDbSymbolTableRecord
100
AcDbLayerTableRecord
  2
HACHURES
 70
     0
 62
     9
  6
CONTINUOUS
  0
LAYER
  5
3BF
100
AcDbSymbolTableRecord
100
AcDbLayerTableRecord
  2
FMULT
 70
     0
 62
     6
  6
CONTINUOUS
  0
LAYER
  5
3C0
100
AcDbSymbolTableRecord
100
AcDbLayerTableRecord
  2
TEXTE
 70
     0
 62
   131
  6
CONTINUOUS
  0
LAYER
  5
3C1
100
AcDbSymbolTableRecord
100
AcDbLayerTableRecord
  2
FDP_CARTOUCHE
 70
     0
 62
     4
  6
CONTINUOUS
  0
LAYER
  5
3C2
100
AcDbSymbolTableRecord
100
AcDbLayerTableRecord
  2
FDP_TEXTES
 70
     0
 62
     5
  6
CONTINUOUS
  0
LAYER
  5
3C3
100
AcDbSymbolTableRecord
100
AcDbLayerTableRecord
  2
FDP_LOGO_MG
 70
     0
 62
    30
  6
CONTINUOUS
  0
LAYER
  5
3C4
100
AcDbSymbolTableRecord
100
AcDbLayerTableRecord
  2
FDP_LOGO_SCH
 70
     0
 62
     3
  6
CONTINUOUS
  0
LAYER
  5
3C5
100
AcDbSymbolTableRecord
100
AcDbLayerTableRecord
  2
FDP_FDP
 70
     0
 62
     5
  6
CONTINUOUS
  0
LAYER
  5
3C6
100
AcDbSymbolTableRecord
100
AcDbLayerTableRecord
  2
COTATION2
 70
     0
 62
     2
  6
CONTINUOUS
  0
LAYER
  5
3C7
100
AcDbSymbolTableRecord
100
AcDbLayerTableRecord
  2
COTATION3
 70
     0
 62
     2
  6
CONTINUOUS
  0
LAYER
  5
3C8
100
AcDbSymbolTableRecord
100
AcDbLayerTableRecord
  2
COTATION4
 70
     0
 62
     2
  6
CONTINUOUS
  0
LAYER
  5
3C9
100
AcDbSymbolTableRecord
100
AcDbLayerTableRecord
  2
POINTILLE_COURT
 70
     0
 62
    40
  6
CACHE2
  0
LAYER
  5
3CA
100
AcDbSymbolTableRecord
100
AcDbLayerTableRecord
  2
POINTILLE_MOYEN
 70
     0
 62
   140
  6
CACHE
  0
LAYER
  5
3CB
100
AcDbSymbolTableRecord
100
AcDbLayerTableRecord
  2
POINTILLE_LONG
 70
     0
 62
   240
  6
CACHEX2
  0
ENDTAB
  0
TABLE
  2
STYLE
  5
377
100
AcDbSymbolTable
 70
     4
  0
STYLE
  5
383
100
AcDbSymbolTableRecord
100
AcDbTextStyleTableRecord
  2
STANDARD
 70
     0
 40
0.0
 41
1.0
 50
0.0
 71
     0
 42
0.2
  3
txt
  4

  0
STYLE
  5
398
100
AcDbSymbolTableRecord
100
AcDbTextStyleTableRecord
  2
ROMANS
 70
     0
 40
0.0
 41
1.0
 50
0.0
 71
     0
 42
2.9
  3
romans.shx
  4

  0
STYLE
  5
399
100
AcDbSymbolTableRecord
100
AcDbTextStyleTableRecord
  2
INFOCAR
 70
     0
 40
0.0
 41
1.34
 50
0.0
 71
     0
 42
2.0
  3
ROMANS.SHX
  4

  0
STYLE
  5
39A
100
AcDbSymbolTableRecord
100
AcDbTextStyleTableRecord
  2
CARTOUCHE
 70
     0
 40
0.0
 41
1.0
 50
0.0
 71
     0
 42
0.2
  3
ROMANS.SHX
  4

  0
ENDTAB
  0
TABLE
  2
VIEW
  5
37A
100
AcDbSymbolTable
 70
     0
  0
ENDTAB
  0
TABLE
  2
UCS
  5
37B
100
AcDbSymbolTable
 70
     0
  0
ENDTAB
  0
TABLE
  2
APPID
  5
37D
100
AcDbSymbolTable
 70
     3
  0
APPID
  5
384
100
AcDbSymbolTableRecord
100
AcDbRegAppTableRecord
  2
ACAD
 70
     0
  0
APPID
  5
3B2
100
AcDbSymbolTableRecord
100
AcDbRegAppTableRecord
  2
AVE_RENDER
 70
     0
  0
APPID
  5
3B3
100
AcDbSymbolTableRecord
100
AcDbRegAppTableRecord
  2
AVE_MATERIAL
 70
     0
  0
ENDTAB
  0
TABLE
  2
DIMSTYLE
  5
37E
100
AcDbSymbolTable
 70
     2
  0
DIMSTYLE
105
3B4
102
{ACAD_REACTORS
330
1E2
330
1F4
330
202
330
20F
330
21C
102
}
100
AcDbSymbolTableRecord
100
AcDbDimStyleTableRecord
  2
SC_STAND
 70
     0
  3

  4

  5

  6

  7

 40
1.0
 41
3.0
 42
0.0625
 43
0.38
 44
0.18
 45
0.01
 46
0.0
 47
0.0
 48
0.0
140
2.5
141
0.09
142
0.0
143
25.4
144
1.0
145
0.0
146
1.0
147
1.0
 71
     0
 72
     0
 73
     0
 74
     0
 75
     0
 76
     0
 77
     1
 78
    12
170
     0
171
     2
172
     1
173
     0
174
     0
175
     0
176
     0
177
     0
178
     0
270
     2
271
     4
272
     4
273
     2
274
     2
340
398
275
     0
280
     0
281
     0
282
     0
283
     1
284
    12
285
    12
286
    12
287
     5
288
     0
  0
DIMSTYLE
105
3B5
100
AcDbSymbolTableRecord
100
AcDbDimStyleTableRecord
  2
STANDARD
 70
     0
  3

  4

  5

  6

  7

 40
1.0
 41
0.18
 42
0.0625
 43
0.38
 44
0.18
 45
0.0
 46
0.0
 47
0.0
 48
0.0
140
0.18
141
0.09
142
0.0
143
25.4
144
1.0
145
0.0
146
1.0
147
0.09
 71
     0
 72
     0
 73
     1
 74
     1
 75
     0
 76
     0
 77
     0
 78
     0
170
     0
171
     2
172
     0
173
     0
174
     0
175
     0
176
     0
177
     0
178
     0
270
     2
271
     4
272
     4
273
     2
274
     2
340
398
275
     0
280
     0
281
     0
282
     0
283
     1
284
    12
285
    12
286
    12
287
     5
288
     0
  0
ENDTAB
  0
TABLE
  2
BLOCK_RECORD
  5
375
100
AcDbSymbolTable
 70
     8
  0
BLOCK_RECORD
  5
38B
100
AcDbSymbolTableRecord
100
AcDbBlockTableRecord
  2
*MODEL_SPACE
  0
BLOCK_RECORD
  5
388
100
AcDbSymbolTableRecord
100
AcDbBlockTableRecord
  2
*PAPER_SPACE
  0
BLOCK_RECORD
  5
390
100
AcDbSymbolTableRecord
100
AcDbBlockTableRecord
  2
AVE_RENDER
  0
BLOCK_RECORD
  5
391
100
AcDbSymbolTableRecord
100
AcDbBlockTableRecord
  2
AVE_GLOBAL
  0
BLOCK_RECORD
  5
392
100
AcDbSymbolTableRecord
100
AcDbBlockTableRecord
  2
*D2
  0
BLOCK_RECORD
  5
393
100
AcDbSymbolTableRecord
100
AcDbBlockTableRecord
  2
*D3
  0
BLOCK_RECORD
  5
394
100
AcDbSymbolTableRecord
100
AcDbBlockTableRecord
  2
*D4
  0
BLOCK_RECORD
  5
395
100
AcDbSymbolTableRecord
100
AcDbBlockTableRecord
  2
*D5
  0
BLOCK_RECORD
  5
396
100
AcDbSymbolTableRecord
100
AcDbBlockTableRecord
  2
*D6
  0
BLOCK_RECORD
  5
397
100
AcDbSymbolTableRecord
100
AcDbBlockTableRecord
  2
SCH_ISO
  0
ENDTAB
  0
ENDSEC
  0
SECTION
  2
BLOCKS
  0
BLOCK
  5
3CE
100
AcDbEntity
  8
0
100
AcDbBlockBegin
  2
*MODEL_SPACE
 70
     0
 10
0.0
 20
0.0
 30
0.0
  3
*MODEL_SPACE
  1

  0
ENDBLK
  5
3CF
100
AcDbEntity
  8
0
100
AcDbBlockEnd
  0
BLOCK
  5
3CC
100
AcDbEntity
 67
     1
  8
0
100
AcDbBlockBegin
  2
*PAPER_SPACE
 70
     0
 10
0.0
 20
0.0
 30
0.0
  3
*PAPER_SPACE
  1

  0
ENDBLK
  5
3CD
100
AcDbEntity
 67
     1
  8
0
100
AcDbBlockEnd
  0
BLOCK
  5
8
100
AcDbEntity
  8
0
100
AcDbBlockBegin
  2
AVE_RENDER
 70
     0
 10
0.0
 20
0.0
 30
0.0
  3
AVE_RENDER
  1
AVE_RENDER
  0
ENDBLK
  5
A
100
AcDbEntity
  8
0
100
AcDbBlockEnd
  0
BLOCK
  5
16
100
AcDbEntity
  8
0
100
AcDbBlockBegin
  2
AVE_GLOBAL
 70
     0
 10
0.0
 20
0.0
 30
0.0
  3
AVE_GLOBAL
  1
AVE_GLOBAL
  0
ENDBLK
  5
17
100
AcDbEntity
  8
0
100
AcDbBlockEnd
  0
BLOCK
  5
1F2
100
AcDbEntity
  8
0
100
AcDbBlockBegin
  2
*D2
 70
     1
 10
0.0
 20
0.0
 30
0.0
  3
*D2
  1
AVE_RENDER
  0
LINE
  5
1E7
100
AcDbEntity
  8
0
  6
BYBLOCK
 62
     0
100
AcDbLine
 10
73.09994
 20
162.902373
 30
0.0
 11
73.09994
 21
139.82
 31
0.0
  0
LINE
  5
1E9
100
AcDbEntity
  8
0
  6
BYBLOCK
 62
     0
100
AcDbLine
 10
102.059023
 20
163.511098
 30
0.0
 11
102.059023
 21
139.82
 31
0.0
  0
LINE
  5
1EA
100
AcDbEntity
  8
0
  6
BYBLOCK
 62
     0
100
AcDbLine
 10
76.09994
 20
140.0
 30
0.0
 11
99.059023
 21
140.0
 31
0.0
  0
SOLID
  5
1EB
100
AcDbEntity
  8
0
  6
BYBLOCK
 62
     0
100
AcDbTrace
 10
76.09994
 20
140.5
 30
0.0
 11
76.09994
 21
139.5
 31
0.0
 12
73.09994
 22
140.0
 32
0.0
 13
73.09994
 23
140.0
 33
0.0
  0
SOLID
  5
1EC
100
AcDbEntity
  8
0
  6
BYBLOCK
 62
     0
100
AcDbTrace
 10
99.059023
 20
140.5
 30
0.0
 11
99.059023
 21
139.5
 31
0.0
 12
102.059023
 22
140.0
 32
0.0
 13
102.059023
 23
140.0
 33
0.0
  0
TEXT
  5
1ED
100
AcDbEntity
  8
0
  6
BYBLOCK
 62
     0
100
AcDbText
 10
82.222339
 20
141.0
 30
0.0
 40
2.5
  1
28.96
  7
ROMANS
100
AcDbText
  0
POINT
  5
1EE
100
AcDbEntity
  8
DEFPOINTS
  6
BYBLOCK
 62
     0
100
AcDbPoint
 10
73.09994
 20
162.964873
 30
0.0
  0
POINT
  5
1F0
100
AcDbEntity
  8
DEFPOINTS
  6
BYBLOCK
 62
     0
100
AcDbPoint
 10
102.059023
 20
163.573598
 30
0.0
  0
POINT
  5
1F1
100
AcDbEntity
  8
DEFPOINTS
  6
BYBLOCK
 62
     0
100
AcDbPoint
 10
102.059023
 20
140.0
 30
0.0
  0
ENDBLK
  5
1F3
100
AcDbEntity
  8
0
100
AcDbBlockEnd
  0
BLOCK
  5
200
100
AcDbEntity
  8
0
100
AcDbBlockBegin
  2
*D3
 70
     1
 10
0.0
 20
0.0
 30
0.0
  3
*D3
  1
AVE_RENDER
  0
LINE
  5
1F6
100
AcDbEntity
  8
0
  6
BYBLOCK
 62
     0
100
AcDbLine
 10
73.09994
 20
162.839873
 30
0.0
 11
73.09994
 21
147.32
 31
0.0
  0
LINE
  5
1F7
100
AcDbEntity
  8
0
  6
BYBLOCK
 62
     0
100
AcDbLine
 10
83.159023
 20
157.852373
 30
0.0
 11
83.159023
 21
147.32
 31
0.0
  0
LINE
  5
1F8
100
AcDbEntity
  8
0
  6
BYBLOCK
 62
     0
100
AcDbLine
 10
76.09994
 20
147.5
 30
0.0
 11
80.159023
 21
147.5
 31
0.0
  0
LINE
  5
1F9
100
AcDbEntity
  8
0
  6
BYBLOCK
 62
     0
100
AcDbLine
 10
83.159023
 20
147.5
 30
0.0
 11
98.039976
 21
147.5
 31
0.0
  0
SOLID
  5
1FA
100
AcDbEntity
  8
0
  6
BYBLOCK
 62
     0
100
AcDbTrace
 10
76.09994
 20
148.0
 30
0.0
 11
76.09994
 21
147.0
 31
0.0
 12
73.09994
 22
147.5
 32
0.0
 13
73.09994
 23
147.5
 33
0.0
  0
SOLID
  5
1FB
100
AcDbEntity
  8
0
  6
BYBLOCK
 62
     0
100
AcDbTrace
 10
80.159023
 20
148.0
 30
0.0
 11
80.159023
 21
147.0
 31
0.0
 12
83.159023
 22
147.5
 32
0.0
 13
83.159023
 23
147.5
 33
0.0
  0
TEXT
  5
1FC
100
AcDbEntity
  8
0
  6
BYBLOCK
 62
     0
100
AcDbText
 10
86.563785
 20
148.5
 30
0.0
 40
2.5
  1
10.06
  7
ROMANS
100
AcDbText
  0
POINT
  5
1FD
100
AcDbEntity
  8
DEFPOINTS
  6
BYBLOCK
 62
     0
100
AcDbPoint
 10
73.09994
 20
162.902373
 30
0.0
  0
POINT
  5
1FE
100
AcDbEntity
  8
DEFPOINTS
  6
BYBLOCK
 62
     0
100
AcDbPoint
 10
83.159023
 20
157.914873
 30
0.0
  0
POINT
  5
1FF
100
AcDbEntity
  8
DEFPOINTS
  6
BYBLOCK
 62
     0
100
AcDbPoint
 10
83.159023
 20
147.5
 30
0.0
  0
ENDBLK
  5
201
100
AcDbEntity
  8
0
100
AcDbBlockEnd
  0
BLOCK
  5
20D
100
AcDbEntity
  8
0
100
AcDbBlockBegin
  2
*D4
 70
     1
 10
0.0
 20
0.0
 30
0.0
  3
*D4
  1
AVE_RENDER
  0
LINE
  5
204
100
AcDbEntity
  8
0
  6
BYBLOCK
 62
     0
100
AcDbLine
 10
83.221523
 20
157.914873
 30
0.0
 11
125.18
 21
157.914873
 31
0.0
  0
LINE
  5
205
100
AcDbEntity
  8
0
  6
BYBLOCK
 62
     0
100
AcDbLine
 10
83.221523
 20
186.414873
 30
0.0
 11
125.18
 21
186.414873
 31
0.0
  0
LINE
  5
206
100
AcDbEntity
  8
0
  6
BYBLOCK
 62
     0
100
AcDbLine
 10
125.0
 20
160.914873
 30
0.0
 11
125.0
 21
183.414873
 31
0.0
  0
SOLID
  5
207
100
AcDbEntity
  8
0
  6
BYBLOCK
 62
     0
100
AcDbTrace
 10
124.5
 20
160.914873
 30
0.0
 11
125.5
 21
160.914873
 31
0.0
 12
125.0
 22
157.914873
 32
0.0
 13
125.0
 23
157.914873
 33
0.0
  0
SOLID
  5
208
100
AcDbEntity
  8
0
  6
BYBLOCK
 62
     0
100
AcDbTrace
 10
124.5
 20
183.414873
 30
0.0
 11
125.5
 21
183.414873
 31
0.0
 12
125.0
 22
186.414873
 32
0.0
 13
125.0
 23
186.414873
 33
0.0
  0
TEXT
  5
209
100
AcDbEntity
  8
0
  6
BYBLOCK
 62
     0
100
AcDbText
 10
124.0
 20
167.998206
 30
0.0
 40
2.5
  1
28.5
 50
90.0
  7
ROMANS
100
AcDbText
  0
POINT
  5
20A
100
AcDbEntity
  8
DEFPOINTS
  6
BYBLOCK
 62
     0
100
AcDbPoint
 10
83.159023
 20
157.914873
 30
0.0
  0
POINT
  5
20B
100
AcDbEntity
  8
DEFPOINTS
  6
BYBLOCK
 62
     0
100
AcDbPoint
 10
83.159023
 20
186.414873
 30
0.0
  0
POINT
  5
20C
100
AcDbEntity
  8
DEFPOINTS
  6
BYBLOCK
 62
     0
100
AcDbPoint
 10
125.0
 20
186.414873
 30
0.0
  0
ENDBLK
  5
20E
100
AcDbEntity
  8
0
100
AcDbBlockEnd
  0
BLOCK
  5
21A
100
AcDbEntity
  8
0
100
AcDbBlockBegin
  2
*D5
 70
     1
 10
0.0
 20
0.0
 30
0.0
  3
*D5
  1
AVE_RENDER
  0
LINE
  5
211
100
AcDbEntity
  8
0
  6
BYBLOCK
 62
     0
100
AcDbLine
 10
84.421523
 20
185.664854
 30
0.0
 11
117.68
 21
185.664854
 31
0.0
  0
LINE
  5
212
100
AcDbEntity
  8
0
  6
BYBLOCK
 62
     0
100
AcDbLine
 10
84.421523
 20
158.664891
 30
0.0
 11
117.68
 21
158.664891
 31
0.0
  0
LINE
  5
213
100
AcDbEntity
  8
0
  6
BYBLOCK
 62
     0
100
AcDbLine
 10
117.5
 20
182.664854
 30
0.0
 11
117.5
 21
161.664891
 31
0.0
  0
SOLID
  5
214
100
AcDbEntity
  8
0
  6
BYBLOCK
 62
     0
100
AcDbTrace
 10
117.0
 20
182.664854
 30
0.0
 11
118.0
 21
182.664854
 31
0.0
 12
117.5
 22
185.664854
 32
0.0
 13
117.5
 23
185.664854
 33
0.0
  0
SOLID
  5
215
100
AcDbEntity
  8
0
  6
BYBLOCK
 62
     0
100
AcDbTrace
 10
117.0
 20
161.664891
 30
0.0
 11
118.0
 21
161.664891
 31
0.0
 12
117.5
 22
158.664891
 32
0.0
 13
117.5
 23
158.664891
 33
0.0
  0
TEXT
  5
216
100
AcDbEntity
  8
0
  6
BYBLOCK
 62
     0
100
AcDbText
 10
116.5
 20
169.78392
 30
0.0
 40
2.5
  1
27
 50
90.0
  7
ROMANS
100
AcDbText
  0
POINT
  5
217
100
AcDbEntity
  8
DEFPOINTS
  6
BYBLOCK
 62
     0
100
AcDbPoint
 10
84.359023
 20
185.664854
 30
0.0
  0
POINT
  5
218
100
AcDbEntity
  8
DEFPOINTS
  6
BYBLOCK
 62
     0
100
AcDbPoint
 10
84.359023
 20
158.664891
 30
0.0
  0
POINT
  5
219
100
AcDbEntity
  8
DEFPOINTS
  6
BYBLOCK
 62
     0
100
AcDbPoint
 10
117.5
 20
158.664891
 30
0.0
  0
ENDBLK
  5
21B
100
AcDbEntity
  8
0
100
AcDbBlockEnd
  0
BLOCK
  5
227
100
AcDbEntity
  8
0
100
AcDbBlockBegin
  2
*D6
 70
     1
 10
0.0
 20
0.0
 30
0.0
  3
*D6
  1
AVE_RENDER
  0
LINE
  5
21E
100
AcDbEntity
  8
0
  6
BYBLOCK
 62
     0
100
AcDbLine
 10
87.221523
 20
183.164873
 30
0.0
 11
110.18
 21
183.164873
 31
0.0
  0
LINE
  5
21F
100
AcDbEntity
  8
0
  6
BYBLOCK
 62
     0
100
AcDbLine
 10
87.221523
 20
161.164873
 30
0.0
 11
110.18
 21
161.164873
 31
0.0
  0
LINE
  5
220
100
AcDbEntity
  8
0
  6
BYBLOCK
 62
     0
100
AcDbLine
 10
110.0
 20
180.164873
 30
0.0
 11
110.0
 21
164.164873
 31
0.0
  0
SOLID
  5
221
100
AcDbEntity
  8
0
  6
BYBLOCK
 62
     0
100
AcDbTrace
 10
109.5
 20
180.164873
 30
0.0
 11
110.5
 21
180.164873
 31
0.0
 12
110.0
 22
183.164873
 32
0.0
 13
110.0
 23
183.164873
 33
0.0
  0
SOLID
  5
222
100
AcDbEntity
  8
0
  6
BYBLOCK
 62
     0
100
AcDbTrace
 10
109.5
 20
164.164873
 30
0.0
 11
110.5
 21
164.164873
 31
0.0
 12
110.0
 22
161.164873
 32
0.0
 13
110.0
 23
161.164873
 33
0.0
  0
TEXT
  5
223
100
AcDbEntity
  8
0
  6
BYBLOCK
 62
     0
100
AcDbText
 10
109.0
 20
169.78392
 30
0.0
 40
2.5
  1
22
 50
90.0
  7
ROMANS
100
AcDbText
  0
POINT
  5
224
100
AcDbEntity
  8
DEFPOINTS
  6
BYBLOCK
 62
     0
100
AcDbPoint
 10
87.159023
 20
183.164873
 30
0.0
  0
POINT
  5
225
100
AcDbEntity
  8
DEFPOINTS
  6
BYBLOCK
 62
     0
100
AcDbPoint
 10
87.159023
 20
161.164873
 30
0.0
  0
POINT
  5
226
100
AcDbEntity
  8
DEFPOINTS
  6
BYBLOCK
 62
     0
100
AcDbPoint
 10
110.0
 20
161.164873
 30
0.0
  0
ENDBLK
  5
228
100
AcDbEntity
  8
0
100
AcDbBlockEnd
  0
BLOCK
  5
277
100
AcDbEntity
  8
0
100
AcDbBlockBegin
  2
SCH_ISO
 70
     0
 10
0.0
 20
0.0
 30
0.0
  3
SCH_ISO
  1

  0
INSERT
  5
26E
100
AcDbEntity
  8
ASHADE
 62
     1
100
AcDbBlockReference
  2
AVE_RENDER
 10
0.0
 20
0.0
 30
0.0
1001
AVE_RENDER
1002
{
1070
     6
1000
Pref
1070
    50
1070
    20
1070
     1
1070
     0
1000

1070
    10
1070
     1
1070
    30
1040
25.4
1070
     1
1040
0.3
1040
0.7
1040
0.0
1040
10.0
1010
-1.0
1020
-1.0
1030
-1.0
1040
0.3
1070
    49
1070
     0
1070
     0
1010
1.0
1020
1.0
1030
1.0
1040
45.0
1070
     1
1070
     0
1000
WCS
1040
0.0
1002
}
  0
INSERT
  5
26F
100
AcDbEntity
  8
ASHADE
 62
     3
100
AcDbBlockReference
  2
AVE_RENDER
 10
0.0
 20
0.0
 30
0.0
1001
AVE_RENDER
1002
{
1070
     0
1000
Full Opt
1070
     0
1070
     1
1070
     1
1070
     1
1070
     0
1070
     0
1070
     0
1070
     1
1070
     1
1040
0.0001
1040
0.0001
1002
}
  0
INSERT
  5
270
100
AcDbEntity
  8
ASHADE
 62
     4
100
AcDbBlockReference
  2
AVE_RENDER
 10
0.0
 20
0.0
 30
0.0
1001
AVE_RENDER
1002
{
1070
     0
1000
Quick Opt
1070
     0
1070
     1
1070
     1
1070
     1
1070
     0
1070
     0
1070
     1
1002
}
  0
INSERT
  5
271
100
AcDbEntity
  8
ASHADE
 62
     5
100
AcDbBlockReference
  2
AVE_RENDER
 10
0.0
 20
0.0
 30
0.0
1001
AVE_RENDER
1002
{
1070
     1
1000
Scanl Opt
1070
     2
1070
     0
1070
     2
1040
2.0
1040
4.0
1070
     0
1070
     1
1070
     0
1040
0.03
1002
}
  0
INSERT
  5
272
100
AcDbEntity
  8
ASHADE
 62
     6
100
AcDbBlockReference
  2
AVE_RENDER
 10
0.0
 20
0.0
 30
0.0
1001
AVE_RENDER
1002
{
1070
     2
1000
Raytr Opt
1070
     2
1070
     0
1070
     2
1040
2.0
1040
4.0
1070
     0
1070
     1
1070
     1
1040
0.03
1070
     3
1040
0.03
1002
}
  0
INSERT
  5
273
100
AcDbEntity
  8
ASHADE
 62
     7
100
AcDbBlockReference
  2
AVE_RENDER
 10
0.0
 20
0.0
 30
0.0
1001
AVE_RENDER
1002
{
1070
     0
1000
RFile Opt
1070
     5
1070
   640
1070
   480
1070
 10000
1070
     3
1070
    32
1070
    24
1070
     0
1070
     0
1070
     0
1070
     1
1070
     0
1070
     0
1070
     0
1002
}
  0
INSERT
  5
274
100
AcDbEntity
  8
ASHADE
 62
     8
100
AcDbBlockReference
  2
AVE_RENDER
 10
0.0
 20
0.0
 30
0.0
1001
AVE_RENDER
1002
{
1070
     0
1000
Fog Opt
1070
     0
1070
     0
1040
0.0
1040
1.0
1040
0.0
1040
1.0
1010
0.5
1020
0.5
1030
0.5
1002
}
  0
INSERT
  5
275
100
AcDbEntity
  8
ASHADE
 62
     9
100
AcDbBlockReference
  2
AVE_RENDER
 10
0.0
 20
0.0
 30
0.0
1001
AVE_RENDER
1002
{
1070
     0
1000
BG Opt
1070
     0
1070
     1
1010
0.0
1020
0.0
1030
0.0
1010
1.0
1020
0.0
1030
0.0
1010
0.0
1020
1.0
1030
0.0
1010
0.0
1020
0.0
1030
1.0
1040
0.5
1040
0.33
1040
0.0
1000

1070
     1
1000

1070
     1
1070
     1
1040
1.0
1040
1.0
1040
0.0
1040
0.0
1070
     0
1002
}
  0
INSERT
  5
276
100
AcDbEntity
  8
ASHADE
 62
     1
100
AcDbBlockReference
  2
AVE_GLOBAL
 10
0.0
 20
0.0
 30
0.0
1001
AVE_MATERIAL
1002
{
1000
*GLOBAL*
1000
1
1000
Finition globale.
1002
{
1002
}
1002
{
1070
    63
1002
{
1002
{
1010
-1.0
1020
-1.0
1030
-1.0
1002
}
1040
0.1
1000

1040
0.0
1002
{
1002
}
1040
0.0
1002
{
1002
}
1040
0.0
1002
}
1002
{
1002
{
1010
-1.0
1020
-1.0
1030
-1.0
1002
}
1040
0.7
1000

1040
0.0
1002
{
1002
}
1040
0.0
1002
{
1002
}
1040
0.0
1002
}
1002
{
1002
{
1010
-1.0
1020
-1.0
1030
-1.0
1002
}
1040
0.2
1000

1040
0.0
1002
{
1002
}
1040
0.0
1002
{
1002
}
1040
0.0
1002
}
1002
{
1070
     0
1002
{
1070
     1
1002
{
1040
1.0
1040
1.0
1000

1040
0.0
1002
{
1002
}
1040
0.0
1002
{
1002
}
1040
0.0
1002
}
1002
}
1040
1.0
1040
0.0
1040
0.0
1002
}
1002
{
1040
1.0
1040
1.0
1000

1040
0.0
1002
{
1002
}
1040
0.0
1002
{
1002
}
1040
0.0
1002
}
1002
{
1040
0.5
1040
1.0
1000

1040
0.0
1002
{
1002
}
1040
0.0
1002
{
1002
}
1040
0.0
1002
}
1002
{
1070
     0
1040
0.0
1002
{
1002
}
1040
1.0
1002
{
1002
}
1040
0.0
1002
}
1002
{
1040
0.0
1002
{
1002
{
1010
0.0
1020
0.0
1030
0.0
1002
}
1040
1.0
1000

1040
0.0
1002
{
1002
}
1040
0.0
1002
{
1002
}
1040
0.0
1002
}
1002
}
1002
{
1002
{
1070
     1
1002
{
1040
0.0
1040
1.0
1000

1040
0.0
1002
{
1002
}
1040
0.0
1002
{
1002
}
1040
0.0
1002
}
1002
}
1040
0.0
1002
{
1002
}
1010
1.0
1020
0.0
1030
0.0
1010
0.0
1020
1.0
1030
0.0
1010
0.0
1020
0.0
1030
1.0
1070
     0
1002
}
1002
{
1002
{
1040
1.0
1040
1.0
1002
{
1070
     1
1002
{
1040
1.0
1040
1.0
1000

1040
0.0
1002
{
1002
}
1040
0.0
1002
{
1002
}
1040
0.0
1002
}
1002
}
1002
}
1070
     0
1040
0.0
1002
{
1002
}
1002
}
1002
{
1002
}
1002
}
1002
{
1071
        3
1070
     3
1070
     0
1002
{
1070
     2
1070
     0
1070
     0
1040
0.0
1002
}
1070
     0
1070
     2
1002
{
1002
}
1002
}
1002
{
1040
8030.0
1040
190.300003
1040
0.305
1040
228.0
1040
545.0
1040
14.0
1040
17.4
1040
0.456
1002
}
1002
}
  0
ENDBLK
  5
278
100
AcDbEntity
  8
0
100
AcDbBlockEnd
  0
ENDSEC
  0
SECTION
  2
ENTITIES
  0
INSERT
  5
3
100
AcDbEntity
  8
ALPHA
100
AcDbBlockReference
  2
AVE_RENDER
 10
0.0
 20
0.0
 30
0.0
1001
AVE_RENDER
1002
{
1070
     6
1000
Pref
1070
    50
1070
    20
1070
     1
1070
     0
1000

1070
    10
1070
     1
1070
    30
1040
25.4
1070
     1
1040
0.3
1040
0.7
1040
0.0
1040
10.0
1010
-1.0
1020
-1.0
1030
-1.0
1040
0.3
1070
    49
1070
     0
1070
     0
1010
1.0
1020
1.0
1030
1.0
1040
45.0
1070
     1
1070
     0
1000
WCS
1040
0.0
1002
}
  0
INSERT
  5
D
100
AcDbEntity
  8
ALPHA
100
AcDbBlockReference
  2
AVE_RENDER
 10
0.0
 20
0.0
 30
0.0
1001
AVE_RENDER
1002
{
1070
     0
1000
Full Opt
1070
     0
1070
     1
1070
     1
1070
     1
1070
     0
1070
     0
1070
     0
1070
     1
1070
     1
1040
0.0001
1040
0.0001
1002
}
  0
INSERT
  5
E
100
AcDbEntity
  8
ALPHA
100
AcDbBlockReference
  2
AVE_RENDER
 10
0.0
 20
0.0
 30
0.0
1001
AVE_RENDER
1002
{
1070
     0
1000
Quick Opt
1070
     0
1070
     1
1070
     1
1070
     1
1070
     0
1070
     0
1070
     1
1002
}
  0
INSERT
  5
F
100
AcDbEntity
  8
ALPHA
100
AcDbBlockReference
  2
AVE_RENDER
 10
0.0
 20
0.0
 30
0.0
1001
AVE_RENDER
1002
{
1070
     1
1000
Scanl Opt
1070
     2
1070
     0
1070
     2
1040
2.0
1040
4.0
1070
     0
1070
     1
1070
     0
1040
0.03
1002
}
  0
INSERT
  5
10
100
AcDbEntity
  8
ALPHA
100
AcDbBlockReference
  2
AVE_RENDER
 10
0.0
 20
0.0
 30
0.0
1001
AVE_RENDER
1002
{
1070
     2
1000
Raytr Opt
1070
     2
1070
     0
1070
     2
1040
2.0
1040
4.0
1070
     0
1070
     1
1070
     1
1040
0.03
1070
     3
1040
0.03
1002
}
  0
INSERT
  5
11
100
AcDbEntity
  8
ALPHA
100
AcDbBlockReference
  2
AVE_RENDER
 10
0.0
 20
0.0
 30
0.0
1001
AVE_RENDER
1002
{
1070
     0
1000
RFile Opt
1070
     5
1070
   640
1070
   480
1070
 10000
1070
     3
1070
    32
1070
    24
1070
     0
1070
     0
1070
     0
1070
     1
1070
     0
1070
     0
1070
     0
1002
}
  0
INSERT
  5
12
100
AcDbEntity
  8
ALPHA
100
AcDbBlockReference
  2
AVE_RENDER
 10
0.0
 20
0.0
 30
0.0
1001
AVE_RENDER
1002
{
1070
     0
1000
Fog Opt
1070
     0
1070
     0
1040
0.0
1040
1.0
1040
0.0
1040
1.0
1010
0.5
1020
0.5
1030
0.5
1002
}
  0
INSERT
  5
13
100
AcDbEntity
  8
ALPHA
100
AcDbBlockReference
  2
AVE_RENDER
 10
0.0
 20
0.0
 30
0.0
1001
AVE_RENDER
1002
{
1070
     0
1000
BG Opt
1070
     0
1070
     1
1010
0.0
1020
0.0
1030
0.0
1010
1.0
1020
0.0
1030
0.0
1010
0.0
1020
1.0
1030
0.0
1010
0.0
1020
0.0
1030
1.0
1040
0.5
1040
0.33
1040
0.0
1000

1070
     1
1000

1070
     1
1070
     1
1040
1.0
1040
1.0
1040
0.0
1040
0.0
1070
     0
1002
}
  0
INSERT
  5
14
100
AcDbEntity
  8
ALPHA
100
AcDbBlockReference
  2
AVE_GLOBAL
 10
0.0
 20
0.0
 30
0.0
1001
AVE_MATERIAL
1002
{
1000
*GLOBAL*
1000
1
1000
Finition globale.
1002
{
1002
}
1002
{
1070
    63
1002
{
1002
{
1010
-1.0
1020
-1.0
1030
-1.0
1002
}
1040
0.1
1000

1040
0.0
1002
{
1002
}
1040
0.0
1002
{
1002
}
1040
0.0
1002
}
1002
{
1002
{
1010
-1.0
1020
-1.0
1030
-1.0
1002
}
1040
0.7
1000

1040
0.0
1002
{
1002
}
1040
0.0
1002
{
1002
}
1040
0.0
1002
}
1002
{
1002
{
1010
-1.0
1020
-1.0
1030
-1.0
1002
}
1040
0.2
1000

1040
0.0
1002
{
1002
}
1040
0.0
1002
{
1002
}
1040
0.0
1002
}
1002
{
1070
     0
1002
{
1070
     1
1002
{
1040
1.0
1040
1.0
1000

1040
0.0
1002
{
1002
}
1040
0.0
1002
{
1002
}
1040
0.0
1002
}
1002
}
1040
1.0
1040
0.0
1040
0.0
1002
}
1002
{
1040
1.0
1040
1.0
1000

1040
0.0
1002
{
1002
}
1040
0.0
1002
{
1002
}
1040
0.0
1002
}
1002
{
1040
0.5
1040
1.0
1000

1040
0.0
1002
{
1002
}
1040
0.0
1002
{
1002
}
1040
0.0
1002
}
1002
{
1070
     0
1040
0.0
1002
{
1002
}
1040
1.0
1002
{
1002
}
1040
0.0
1002
}
1002
{
1040
0.0
1002
{
1002
{
1010
0.0
1020
0.0
1030
0.0
1002
}
1040
1.0
1000

1040
0.0
1002
{
1002
}
1040
0.0
1002
{
1002
}
1040
0.0
1002
}
1002
}
1002
{
1002
{
1070
     1
1002
{
1040
0.0
1040
1.0
1000

1040
0.0
1002
{
1002
}
1040
0.0
1002
{
1002
}
1040
0.0
1002
}
1002
}
1040
0.0
1002
{
1002
}
1010
1.0
1020
0.0
1030
0.0
1010
0.0
1020
1.0
1030
0.0
1010
0.0
1020
0.0
1030
1.0
1070
     0
1002
}
1002
{
1002
{
1040
1.0
1040
1.0
1002
{
1070
     1
1002
{
1040
1.0
1040
1.0
1000

1040
0.0
1002
{
1002
}
1040
0.0
1002
{
1002
}
1040
0.0
1002
}
1002
}
1002
}
1070
     0
1040
0.0
1002
{
1002
}
1002
}
1002
{
1002
}
1002
}
1002
{
1071
        3
1070
     3
1070
     0
1002
{
1070
     2
1070
     0
1070
     0
1040
0.0
1002
}
1070
     0
1070
     2
1002
{
1002
}
1002
}
1002
{
1040
8030.0
1040
190.300003
1040
0.305
1040
228.0
1040
545.0
1040
14.0
1040
17.4
1040
0.456
1002
}
1002
}
  0
LINE
  5
19
100
AcDbEntity
  8
ALPHA
100
AcDbLine
 10
98.659023
 20
179.991111
 30
0.0
 11
100.459023
 21
179.991111
 31
0.0
  0
LWPOLYLINE
  5
1A
100
AcDbEntity
  8
ALPHA
100
AcDbPolyline
 90
        4
 70
     0
 43
0.0
 10
101.859023
 20
177.979509
 10
101.43908
 20
178.616951
 10
100.972914
 20
179.286838
 10
100.459023
 20
179.991111
  0
LINE
  5
20
100
AcDbEntity
  8
ALPHA
100
AcDbLine
 10
98.659023
 20
168.288682
 30
0.0
 11
99.293565
 21
168.288682
 31
0.0
  0
LINE
  5
21
100
AcDbEntity
  8
ALPHA
100
AcDbLine
 10
95.959023
 20
180.650154
 30
0.0
 11
87.759023
 21
180.650154
 31
0.0
  0
LINE
  5
22
100
AcDbEntity
  8
ALPHA
100
AcDbLine
 10
95.959023
 20
179.991111
 30
0.0
 11
87.759023
 21
179.991111
 31
0.0
  0
LWPOLYLINE
  5
23
100
AcDbEntity
  8
ALPHA
100
AcDbPolyline
 90
        5
 70
     0
 43
0.0
 10
96.359023
 20
164.990787
 10
96.359023
 20
165.797154
 10
96.359023
 20
166.907888
 10
96.359023
 20
168.151494
 10
96.359023
 20
169.49654
  0
LINE
  5
2A
100
AcDbEntity
  8
ALPHA
100
AcDbLine
 10
96.359023
 20
164.864913
 30
0.0
 11
96.359023
 21
164.990787
 31
0.0
  0
LINE
  5
2B
100
AcDbEntity
  8
ALPHA
100
AcDbLine
 10
96.359023
 20
164.847365
 30
0.0
 11
96.359023
 21
164.864913
 31
0.0
  0
LINE
  5
2C
100
AcDbEntity
  8
ALPHA
100
AcDbLine
 10
96.359023
 20
164.178165
 30
0.0
 11
96.359023
 21
164.847365
 31
0.0
  0
LWPOLYLINE
  5
2D
100
AcDbEntity
  8
ALPHA
100
AcDbPolyline
 90
        5
 70
     0
 43
0.0
 10
96.359023
 20
163.064873
 10
96.359023
 20
163.179875
 10
96.359023
 20
163.521976
 10
96.359023
 20
164.082529
 10
96.359023
 20
164.178165
  0
LINE
  5
34
100
AcDbEntity
  8
ALPHA
100
AcDbLine
 10
102.059023
 20
166.664873
 30
0.0
 11
102.518605
 21
166.664873
 31
0.0
  0
LWPOLYLINE
  5
35
100
AcDbEntity
  8
ALPHA
100
AcDbPolyline
 90
       10
 70
     0
 43
0.0
 10
101.910469
 20
166.113428
 10
101.860774
 20
166.155752
 10
101.80994
 20
166.18531
 10
101.758224
 20
166.201853
 10
101.705161
 20
166.203378
 10
101.653991
 20
166.185892
 10
101.60777
 20
166.144247
 10
101.578567
 20
166.089782
 10
101.563603
 20
166.031489
 10
101.559023
 20
165.970555
  0
LWPOLYLINE
  5
41
100
AcDbEntity
  8
ALPHA
100
AcDbPolyline
 90
        3
 70
     0
 43
0.0
 10
99.293565
 20
168.288682
 10
100.480892
 20
167.073743
 10
101.559023
 20
165.970555
  0
LWPOLYLINE
  5
46
100
AcDbEntity
  8
ALPHA
100
AcDbPolyline
 90
        6
 70
     0
 43
0.0
 10
99.470343
 20
168.553555
 10
99.474944
 20
168.525727
 10
99.45571
 20
168.478324
 10
99.415167
 20
168.417575
 10
99.358642
 20
168.351463
 10
99.293565
 20
168.288679
  0
LWPOLYLINE
  5
4E
100
AcDbEntity
  8
ALPHA
100
AcDbPolyline
 90
        3
 70
     0
 43
0.0
 10
102.518605
 20
166.664873
 10
102.866575
 20
167.329217
 10
103.167538
 20
167.964873
  0
LWPOLYLINE
  5
53
100
AcDbEntity
  8
ALPHA
100
AcDbPolyline
 90
        4
 70
     0
 43
0.0
 10
92.588203
 20
182.664873
 10
92.567948
 20
182.664314
 10
92.510242
 20
182.662935
 10
92.422367
 20
182.661444
  0
LWPOLYLINE
  5
59
100
AcDbEntity
  8
ALPHA
100
AcDbPolyline
 90
        4
 70
     0
 43
0.0
 10
101.859023
 20
174.833206
 10
101.859023
 20
175.953856
 10
101.859023
 20
177.008728
 10
101.859023
 20
177.979509
  0
LWPOLYLINE
  5
5F
100
AcDbEntity
  8
ALPHA
100
AcDbPolyline
 90
        4
 70
     0
 43
0.0
 10
100.459023
 20
179.991111
 10
100.459023
 20
180.954696
 10
100.459023
 20
181.718405
 10
100.459023
 20
182.264873
  0
LWPOLYLINE
  5
65
100
AcDbEntity
  8
ALPHA
100
AcDbPolyline
 90
       13
 70
     0
 43
0.0
 10
98.95547
 20
168.964873
 10
98.957044
 20
168.961726
 10
98.961903
 20
168.952007
 10
98.970476
 20
168.934861
 10
98.983444
 20
168.908926
 10
99.001663
 20
168.872489
 10
99.026027
 20
168.823762
 10
99.05724
 20
168.761334
 10
99.09547
 20
168.684876
 10
99.139934
 20
168.595943
 10
99.189193
 20
168.497435
 10
99.24123
 20
168.393337
 10
99.293565
 20
168.288682
  0
LWPOLYLINE
  5
74
100
AcDbEntity
  8
ALPHA
100
AcDbPolyline
 90
        7
 70
     0
 43
0.0
 10
102.518605
 20
166.664873
 10
102.483148
 20
166.583443
 10
102.46872
 20
166.511313
 10
102.473587
 20
166.451988
 10
102.496619
 20
166.4059
 10
102.538099
 20
166.375577
 10
102.596594
 20
166.364873
  0
LWPOLYLINE
  5
7D
100
AcDbEntity
  8
ALPHA
100
AcDbPolyline
 90
        3
 70
     0
 43
0.0
 10
101.559023
 20
165.364873
 10
101.559023
 20
165.663927
 10
101.559023
 20
165.970555
  0
LINE
  5
82
100
AcDbEntity
  8
ALPHA
100
AcDbLine
 10
92.422367
 20
182.264873
 30
0.0
 11
92.422367
 21
182.661444
 31
0.0
  0
LINE
  5
83
100
AcDbEntity
  8
ALPHA
100
AcDbLine
 10
98.659023
 20
177.979509
 30
0.0
 11
101.859023
 21
177.979509
 31
0.0
  0
LINE
  5
84
100
AcDbEntity
  8
ALPHA
100
AcDbLine
 10
101.859023
 20
174.833206
 30
0.0
 11
96.359023
 21
174.833206
 31
0.0
  0
LWPOLYLINE
  5
85
100
AcDbEntity
  8
ALPHA
100
AcDbPolyline
 90
        4
 70
     0
 43
0.0
 10
88.959023
 20
182.472637
 10
90.103204
 20
182.567328
 10
91.259409
 20
182.630427
 10
92.422367
 20
182.661444
  0
LWPOLYLINE
  5
8B
100
AcDbEntity
  8
ALPHA
100
AcDbPolyline
 90
        5
 70
     0
 43
0.0
 10
96.359023
 20
179.338958
 10
96.359023
 20
178.532592
 10
96.359023
 20
177.421857
 10
96.359023
 20
176.178251
 10
96.359023
 20
174.833206
  0
LINE
  5
92
100
AcDbEntity
  8
ALPHA
100
AcDbLine
 10
96.359023
 20
179.464832
 30
0.0
 11
96.359023
 21
179.338958
 31
0.0
  0
LINE
  5
93
100
AcDbEntity
  8
ALPHA
100
AcDbLine
 10
96.359023
 20
179.48238
 30
0.0
 11
96.359023
 21
179.464832
 31
0.0
  0
LINE
  5
94
100
AcDbEntity
  8
ALPHA
100
AcDbLine
 10
96.359023
 20
180.15158
 30
0.0
 11
96.359023
 21
179.48238
 31
0.0
  0
LWPOLYLINE
  5
95
100
AcDbEntity
  8
ALPHA
100
AcDbPolyline
 90
        5
 70
     0
 43
0.0
 10
96.359023
 20
181.264873
 10
96.359023
 20
181.14987
 10
96.359023
 20
180.807769
 10
96.359023
 20
180.247216
 10
96.359023
 20
180.15158
  0
LWPOLYLINE
  5
9C
100
AcDbEntity
  8
ALPHA
100
AcDbPolyline
 90
        3
 70
     0
 43
0.0
 10
101.942856
 20
166.08104
 10
102.001522
 20
166.183999
 10
102.059023
 20
166.286097
  0
LWPOLYLINE
  5
A1
100
AcDbEntity
  8
ALPHA
100
AcDbPolyline
 90
        3
 70
     0
 43
0.0
 10
102.059023
 20
174.041039
 10
101.967707
 20
174.435066
 10
101.859023
 20
174.833206
  0
LINE
  5
A6
100
AcDbEntity
  8
ALPHA
100
AcDbLine
 10
98.659023
 20
169.49654
 30
0.0
 11
96.359023
 21
169.49654
 31
0.0
  0
LINE
  5
A7
100
AcDbEntity
  8
ALPHA
100
AcDbLine
 10
95.959023
 20
162.064873
 30
0.0
 11
88.959023
 21
162.064873
 31
0.0
  0
LINE
  5
A8
100
AcDbEntity
  8
ALPHA
100
AcDbLine
 10
95.959023
 20
182.264873
 30
0.0
 11
87.759023
 21
182.264873
 31
0.0
  0
LINE
  5
A9
100
AcDbEntity
  8
ALPHA
100
AcDbLine
 10
88.959023
 20
182.264873
 30
0.0
 11
88.959023
 21
182.472637
 31
0.0
  0
LINE
  5
AA
100
AcDbEntity
  8
ALPHA
100
AcDbLine
 10
81.759023
 20
170.664873
 30
0.0
 11
81.759023
 21
172.164873
 31
0.0
  0
LINE
  5
AB
100
AcDbEntity
  8
ALPHA
100
AcDbLine
 10
81.759023
 20
172.164873
 30
0.0
 11
81.759023
 21
173.664873
 31
0.0
  0
LINE
  5
AC
100
AcDbEntity
  8
ALPHA
100
AcDbLine
 10
83.159023
 20
170.542389
 30
0.0
 11
81.759023
 21
170.664873
 31
0.0
  0
LINE
  5
AD
100
AcDbEntity
  8
ALPHA
100
AcDbLine
 10
83.159023
 20
173.787357
 30
0.0
 11
81.759023
 21
173.664873
 31
0.0
  0
LINE
  5
AE
100
AcDbEntity
  8
ALPHA
100
AcDbLine
 10
96.359023
 20
169.49654
 30
0.0
 11
96.359023
 21
172.164873
 31
0.0
  0
LINE
  5
AF
100
AcDbEntity
  8
ALPHA
100
AcDbLine
 10
96.359023
 20
174.833206
 30
0.0
 11
96.359023
 21
172.164873
 31
0.0
  0
LINE
  5
B0
100
AcDbEntity
  8
ALPHA
100
AcDbLine
 10
87.759023
 20
179.991111
 30
0.0
 11
87.759023
 21
180.650154
 31
0.0
  0
LINE
  5
B1
100
AcDbEntity
  8
ALPHA
100
AcDbLine
 10
87.759023
 20
180.650154
 30
0.0
 11
87.759023
 21
182.264873
 31
0.0
  0
LINE
  5
B2
100
AcDbEntity
  8
ALPHA
100
AcDbLine
 10
87.759023
 20
165.364873
 30
0.0
 11
95.959023
 21
165.364873
 31
0.0
  0
LINE
  5
B3
100
AcDbEntity
  8
ALPHA
100
AcDbLine
 10
87.759023
 20
168.964873
 30
0.0
 11
95.959023
 21
168.964873
 31
0.0
  0
LINE
  5
B4
100
AcDbEntity
  8
ALPHA
100
AcDbLine
 10
87.759023
 20
168.964873
 30
0.0
 11
87.759023
 21
165.364873
 31
0.0
  0
LINE
  5
B5
100
AcDbEntity
  8
ALPHA
100
AcDbLine
 10
103.259023
 20
167.964873
 30
0.0
 11
103.167538
 21
167.964873
 31
0.0
  0
LWPOLYLINE
  5
B6
100
AcDbEntity
  8
ALPHA
100
AcDbPolyline
 90
        3
 70
     0
 43
0.0
 10
102.059023
 20
180.06424
 10
101.910197
 20
180.231548
 10
101.759023
 20
180.40077
  0
LINE
  5
BB
100
AcDbEntity
  8
ALPHA
100
AcDbLine
 10
101.759023
 20
180.40077
 30
0.0
 11
101.759023
 21
181.364798
 31
0.0
  0
LINE
  5
BC
100
AcDbEntity
  8
ALPHA
100
AcDbLine
 10
101.942856
 20
166.08104
 30
0.0
 11
101.910468
 21
166.113429
 31
0.0
  0
LINE
  5
BD
100
AcDbEntity
  8
ALPHA
100
AcDbLine
 10
102.059023
 20
163.573598
 30
0.0
 11
100.359023
 21
163.573598
 31
0.0
  0
LINE
  5
BE
100
AcDbEntity
  8
ALPHA
100
AcDbLine
 10
102.059023
 20
170.664873
 30
0.0
 11
102.059023
 21
166.286097
 31
0.0
  0
ARC
  5
BF
100
AcDbEntity
  8
ALPHA
100
AcDbCircle
 10
102.059023
 20
172.164873
 30
0.0
 40
1.5
100
AcDbArc
 50
90.0
 51
270.0
  0
LINE
  5
C0
100
AcDbEntity
  8
ALPHA
100
AcDbLine
 10
102.059023
 20
174.041039
 30
0.0
 11
102.059023
 21
173.664873
 31
0.0
  0
LINE
  5
C1
100
AcDbEntity
  8
ALPHA
100
AcDbLine
 10
98.659023
 20
182.264873
 30
0.0
 11
100.459023
 21
182.264873
 31
0.0
  0
LINE
  5
C2
100
AcDbEntity
  8
ALPHA
100
AcDbLine
 10
100.459023
 20
182.264873
 30
0.0
 11
100.85903
 21
182.264873
 31
0.0
  0
LINE
  5
C3
100
AcDbEntity
  8
ALPHA
100
AcDbLine
 10
103.259023
 20
166.364873
 30
0.0
 11
103.259023
 21
167.964873
 31
0.0
  0
LINE
  5
C4
100
AcDbEntity
  8
ALPHA
100
AcDbLine
 10
102.059023
 20
165.364873
 30
0.0
 11
101.559023
 21
165.364873
 31
0.0
  0
LINE
  5
C5
100
AcDbEntity
  8
ALPHA
100
AcDbLine
 10
101.559023
 20
165.364873
 30
0.0
 11
98.659023
 21
165.364873
 31
0.0
  0
LINE
  5
C6
100
AcDbEntity
  8
ALPHA
100
AcDbLine
 10
103.259023
 20
166.364873
 30
0.0
 11
102.596594
 21
166.364873
 31
0.0
  0
LINE
  5
C7
100
AcDbEntity
  8
ALPHA
100
AcDbLine
 10
102.059023
 20
166.364873
 30
0.0
 11
102.596594
 21
166.364873
 31
0.0
  0
LINE
  5
C8
100
AcDbEntity
  8
ALPHA
100
AcDbLine
 10
102.059023
 20
167.964873
 30
0.0
 11
103.167538
 21
167.964873
 31
0.0
  0
LINE
  5
C9
100
AcDbEntity
  8
ALPHA
100
AcDbLine
 10
102.059023
 20
165.364873
 30
0.0
 11
102.059023
 21
166.286097
 31
0.0
  0
LINE
  5
CA
100
AcDbEntity
  8
ALPHA
100
AcDbLine
 10
102.059023
 20
163.573598
 30
0.0
 11
102.059023
 21
165.364873
 31
0.0
  0
LINE
  5
CB
100
AcDbEntity
  8
ALPHA
100
AcDbLine
 10
98.659023
 20
168.288682
 30
0.0
 11
98.659023
 21
168.964873
 31
0.0
  0
LINE
  5
CC
100
AcDbEntity
  8
ALPHA
100
AcDbLine
 10
98.659023
 20
168.964873
 30
0.0
 11
98.95547
 21
168.964873
 31
0.0
  0
LINE
  5
CD
100
AcDbEntity
  8
ALPHA
100
AcDbLine
 10
99.470342
 20
168.553554
 30
0.0
 11
101.910468
 21
166.113429
 31
0.0
  0
LINE
  5
CE
100
AcDbEntity
  8
ALPHA
100
AcDbLine
 10
102.059023
 20
174.041039
 30
0.0
 11
102.059023
 21
180.06424
 31
0.0
  0
LINE
  5
CF
100
AcDbEntity
  8
ALPHA
100
AcDbLine
 10
99.132247
 20
168.89165
 30
0.0
 11
99.470342
 21
168.553554
 31
0.0
  0
ARC
  5
D0
100
AcDbEntity
  8
ALPHA
100
AcDbCircle
 10
98.95547
 20
168.714873
 30
0.0
 40
0.25
100
AcDbArc
 50
45.000003
 51
90.000002
  0
LINE
  5
D1
100
AcDbEntity
  8
ALPHA
100
AcDbLine
 10
98.659023
 20
165.364873
 30
0.0
 11
98.659023
 21
168.288682
 31
0.0
  0
LINE
  5
D2
100
AcDbEntity
  8
ALPHA
100
AcDbLine
 10
83.159023
 20
157.914873
 30
0.0
 11
76.159023
 21
157.914873
 31
0.0
  0
LINE
  5
D3
100
AcDbEntity
  8
ALPHA
100
AcDbLine
 10
83.159023
 20
167.719369
 30
0.0
 11
83.159023
 21
170.542389
 31
0.0
  0
LINE
  5
D4
100
AcDbEntity
  8
ALPHA
100
AcDbLine
 10
83.159023
 20
167.327518
 30
0.0
 11
83.159023
 21
167.719369
 31
0.0
  0
LINE
  5
D5
100
AcDbEntity
  8
ALPHA
100
AcDbLine
 10
83.159023
 20
167.065853
 30
0.0
 11
83.159023
 21
167.327518
 31
0.0
  0
LINE
  5
D6
100
AcDbEntity
  8
ALPHA
100
AcDbLine
 10
83.159023
 20
162.664873
 30
0.0
 11
83.159023
 21
167.065853
 31
0.0
  0
LINE
  5
D7
100
AcDbEntity
  8
ALPHA
100
AcDbLine
 10
83.159023
 20
162.363472
 30
0.0
 11
83.159023
 21
162.664873
 31
0.0
  0
LINE
  5
D8
100
AcDbEntity
  8
ALPHA
100
AcDbLine
 10
83.159023
 20
162.10049
 30
0.0
 11
83.159023
 21
162.363472
 31
0.0
  0
LINE
  5
D9
100
AcDbEntity
  8
ALPHA
100
AcDbLine
 10
83.159023
 20
162.064873
 30
0.0
 11
83.159023
 21
162.10049
 31
0.0
  0
LINE
  5
DA
100
AcDbEntity
  8
ALPHA
100
AcDbLine
 10
83.159023
 20
160.264944
 30
0.0
 11
83.159023
 21
162.064873
 31
0.0
  0
LINE
  5
DB
100
AcDbEntity
  8
ALPHA
100
AcDbLine
 10
83.159023
 20
160.114873
 30
0.0
 11
83.159023
 21
160.264944
 31
0.0
  0
LINE
  5
DC
100
AcDbEntity
  8
ALPHA
100
AcDbLine
 10
83.159023
 20
158.763739
 30
0.0
 11
83.159023
 21
160.114873
 31
0.0
  0
LINE
  5
DD
100
AcDbEntity
  8
ALPHA
100
AcDbLine
 10
83.159023
 20
158.664873
 30
0.0
 11
83.159023
 21
158.763739
 31
0.0
  0
LINE
  5
DE
100
AcDbEntity
  8
ALPHA
100
AcDbLine
 10
83.159023
 20
157.915103
 30
0.0
 11
83.159023
 21
158.664873
 31
0.0
  0
LINE
  5
DF
100
AcDbEntity
  8
ALPHA
100
AcDbLine
 10
76.159023
 20
170.750013
 30
0.0
 11
76.159023
 21
172.164873
 31
0.0
  0
LINE
  5
E0
100
AcDbEntity
  8
ALPHA
100
AcDbLine
 10
76.159023
 20
168.802237
 30
0.0
 11
76.159023
 21
170.750013
 31
0.0
  0
LINE
  5
E1
100
AcDbEntity
  8
ALPHA
100
AcDbLine
 10
76.159023
 20
160.179882
 30
0.0
 11
76.159023
 21
168.802237
 31
0.0
  0
LINE
  5
E2
100
AcDbEntity
  8
ALPHA
100
AcDbLine
 10
76.159023
 20
158.539873
 30
0.0
 11
76.159023
 21
160.179882
 31
0.0
  0
LINE
  5
E3
100
AcDbEntity
  8
ALPHA
100
AcDbLine
 10
76.159023
 20
158.036783
 30
0.0
 11
76.159023
 21
158.539873
 31
0.0
  0
LINE
  5
E4
100
AcDbEntity
  8
ALPHA
100
AcDbLine
 10
76.159023
 20
157.914873
 30
0.0
 11
76.159023
 21
158.036783
 31
0.0
  0
LINE
  5
E5
100
AcDbEntity
  8
ALPHA
100
AcDbLine
 10
98.659023
 20
169.49654
 30
0.0
 11
98.659023
 21
168.964873
 31
0.0
  0
LINE
  5
E6
100
AcDbEntity
  8
ALPHA
100
AcDbLine
 10
98.659023
 20
179.991111
 30
0.0
 11
98.659023
 21
177.979509
 31
0.0
  0
LINE
  5
E7
100
AcDbEntity
  8
ALPHA
100
AcDbLine
 10
98.659023
 20
179.991111
 30
0.0
 11
98.659023
 21
182.264873
 31
0.0
  0
LINE
  5
E8
100
AcDbEntity
  8
ALPHA
100
AcDbLine
 10
88.959023
 20
161.664873
 30
0.0
 11
87.159023
 21
161.664873
 31
0.0
  0
LINE
  5
E9
100
AcDbEntity
  8
ALPHA
100
AcDbLine
 10
88.959023
 20
161.664873
 30
0.0
 11
88.959023
 21
162.064873
 31
0.0
  0
LINE
  5
EA
100
AcDbEntity
  8
ALPHA
100
AcDbLine
 10
100.359023
 20
163.064873
 30
0.0
 11
96.359023
 21
163.064873
 31
0.0
  0
LINE
  5
EB
100
AcDbEntity
  8
ALPHA
100
AcDbLine
 10
100.359023
 20
163.064942
 30
0.0
 11
100.359023
 21
163.573598
 31
0.0
  0
LINE
  5
EC
100
AcDbEntity
  8
ALPHA
100
AcDbLine
 10
83.159023
 20
186.414873
 30
0.0
 11
76.159023
 21
186.414873
 31
0.0
  0
LINE
  5
ED
100
AcDbEntity
  8
ALPHA
100
AcDbLine
 10
83.159023
 20
177.263892
 30
0.0
 11
83.159023
 21
173.787357
 31
0.0
  0
LINE
  5
EE
100
AcDbEntity
  8
ALPHA
100
AcDbLine
 10
83.159023
 20
180.804462
 30
0.0
 11
83.159023
 21
177.263892
 31
0.0
  0
LINE
  5
EF
100
AcDbEntity
  8
ALPHA
100
AcDbLine
 10
83.159023
 20
181.002575
 30
0.0
 11
83.159023
 21
180.804462
 31
0.0
  0
LINE
  5
F0
100
AcDbEntity
  8
ALPHA
100
AcDbLine
 10
83.159023
 20
181.012471
 30
0.0
 11
83.159023
 21
181.002575
 31
0.0
  0
LINE
  5
F1
100
AcDbEntity
  8
ALPHA
100
AcDbLine
 10
83.159023
 20
181.966274
 30
0.0
 11
83.159023
 21
181.012471
 31
0.0
  0
LINE
  5
F2
100
AcDbEntity
  8
ALPHA
100
AcDbLine
 10
83.159023
 20
182.264873
 30
0.0
 11
83.159023
 21
181.966274
 31
0.0
  0
LINE
  5
F3
100
AcDbEntity
  8
ALPHA
100
AcDbLine
 10
83.159023
 20
182.724861
 30
0.0
 11
83.159023
 21
182.264873
 31
0.0
  0
LINE
  5
F4
100
AcDbEntity
  8
ALPHA
100
AcDbLine
 10
83.159023
 20
182.764873
 30
0.0
 11
83.159023
 21
182.724861
 31
0.0
  0
LINE
  5
F5
100
AcDbEntity
  8
ALPHA
100
AcDbLine
 10
83.159023
 20
184.112301
 30
0.0
 11
83.159023
 21
182.764873
 31
0.0
  0
LINE
  5
F6
100
AcDbEntity
  8
ALPHA
100
AcDbLine
 10
83.159023
 20
184.264815
 30
0.0
 11
83.159023
 21
184.112301
 31
0.0
  0
LINE
  5
F7
100
AcDbEntity
  8
ALPHA
100
AcDbLine
 10
83.159023
 20
184.864873
 30
0.0
 11
83.159023
 21
184.264815
 31
0.0
  0
LINE
  5
F8
100
AcDbEntity
  8
ALPHA
100
AcDbLine
 10
83.159023
 20
185.566007
 30
0.0
 11
83.159023
 21
184.864873
 31
0.0
  0
LINE
  5
F9
100
AcDbEntity
  8
ALPHA
100
AcDbLine
 10
83.159023
 20
185.664854
 30
0.0
 11
83.159023
 21
185.566007
 31
0.0
  0
LINE
  5
FA
100
AcDbEntity
  8
ALPHA
100
AcDbLine
 10
83.159023
 20
186.414643
 30
0.0
 11
83.159023
 21
185.664854
 31
0.0
  0
LINE
  5
FB
100
AcDbEntity
  8
ALPHA
100
AcDbLine
 10
76.159023
 20
173.579732
 30
0.0
 11
76.159023
 21
172.164873
 31
0.0
  0
LINE
  5
FC
100
AcDbEntity
  8
ALPHA
100
AcDbLine
 10
76.159023
 20
175.527509
 30
0.0
 11
76.159023
 21
173.579732
 31
0.0
  0
LINE
  5
FD
100
AcDbEntity
  8
ALPHA
100
AcDbLine
 10
76.159023
 20
184.149863
 30
0.0
 11
76.159023
 21
175.527509
 31
0.0
  0
LINE
  5
FE
100
AcDbEntity
  8
ALPHA
100
AcDbLine
 10
76.159023
 20
185.789873
 30
0.0
 11
76.159023
 21
184.149863
 31
0.0
  0
LINE
  5
FF
100
AcDbEntity
  8
ALPHA
100
AcDbLine
 10
76.159023
 20
186.292962
 30
0.0
 11
76.159023
 21
185.789873
 31
0.0
  0
LINE
  5
100
100
AcDbEntity
  8
ALPHA
100
AcDbLine
 10
76.159023
 20
186.414873
 30
0.0
 11
76.159023
 21
186.292962
 31
0.0
  0
LINE
  5
101
100
AcDbEntity
  8
ALPHA
100
AcDbLine
 10
92.422367
 20
182.664873
 30
0.0
 11
87.159023
 21
182.664873
 31
0.0
  0
LINE
  5
102
100
AcDbEntity
  8
ALPHA
100
AcDbLine
 10
98.659023
 20
181.264873
 30
0.0
 11
96.359023
 21
181.264873
 31
0.0
  0
LINE
  5
103
100
AcDbEntity
  8
ALPHA
100
AcDbLine
 10
96.359023
 20
163.064873
 30
0.0
 11
95.959023
 21
162.664873
 31
0.0
  0
LINE
  5
104
100
AcDbEntity
  8
ALPHA
100
AcDbLine
 10
95.959023
 20
182.264873
 30
0.0
 11
95.959023
 21
180.650154
 31
0.0
  0
LINE
  5
105
100
AcDbEntity
  8
ALPHA
100
AcDbLine
 10
95.959023
 20
180.650154
 30
0.0
 11
95.959023
 21
179.991091
 31
0.0
  0
LINE
  5
106
100
AcDbEntity
  8
ALPHA
100
AcDbLine
 10
95.959023
 20
179.991091
 30
0.0
 11
95.959023
 21
172.164873
 31
0.0
  0
LINE
  5
107
100
AcDbEntity
  8
ALPHA
100
AcDbLine
 10
95.959023
 20
168.964873
 30
0.0
 11
95.959023
 21
172.164873
 31
0.0
  0
LINE
  5
108
100
AcDbEntity
  8
ALPHA
100
AcDbLine
 10
96.359023
 20
181.264873
 30
0.0
 11
95.959023
 21
181.664873
 31
0.0
  0
LINE
  5
109
100
AcDbEntity
  8
ALPHA
100
AcDbLine
 10
95.959023
 20
168.964873
 30
0.0
 11
95.959023
 21
165.364873
 31
0.0
  0
LINE
  5
10A
100
AcDbEntity
  8
ALPHA
100
AcDbLine
 10
95.959023
 20
162.064873
 30
0.0
 11
95.959023
 21
165.364873
 31
0.0
  0
LINE
  5
10B
100
AcDbEntity
  8
ALPHA
100
AcDbLine
 10
100.84307
 20
182.280826
 30
0.0
 11
101.759023
 21
181.364873
 31
0.0
  0
LINE
  5
10C
100
AcDbEntity
  8
ALPHA
100
AcDbLine
 10
92.588203
 20
182.664873
 30
0.0
 11
92.588203
 21
182.264873
 31
0.0
  0
LINE
  5
10D
100
AcDbEntity
  8
ALPHA
100
AcDbLine
 10
83.159023
 20
173.787357
 30
0.0
 11
83.159023
 21
170.542389
 31
0.0
  0
LWPOLYLINE
  5
10E
100
AcDbEntity
  8
ALPHA
100
AcDbPolyline
 90
       35
 70
     0
 43
0.0
 10
74.080394
 20
186.364873
 10
74.080394
 20
186.304298
 10
74.080394
 20
186.123091
 10
74.080394
 20
185.822797
 10
74.080394
 20
185.405978
 10
74.080394
 20
184.876191
 10
74.080394
 20
184.237956
 10
74.080394
 20
183.496717
 10
74.080394
 20
182.658799
 10
74.080394
 20
181.731351
 10
74.080394
 20
180.722285
 10
74.080394
 20
179.640209
 10
74.080394
 20
178.494357
 10
74.080394
 20
177.294504
 10
74.080394
 20
176.050887
 10
74.080394
 20
174.774116
 10
74.080394
 20
173.475083
 10
74.080394
 20
172.164873
 10
74.080394
 20
170.854662
 10
74.080394
 20
169.55563
 10
74.080394
 20
168.278858
 10
74.080394
 20
167.035241
 10
74.080394
 20
165.835388
 10
74.080394
 20
164.689536
 10
74.080394
 20
163.607461
 10
74.080394
 20
162.598395
 10
74.080394
 20
161.670946
 10
74.080394
 20
160.833028
 10
74.080394
 20
160.091789
 10
74.080394
 20
159.453554
 10
74.080394
 20
158.923767
 10
74.080394
 20
158.506949
 10
74.080394
 20
158.206655
 10
74.080394
 20
158.025447
 10
74.080394
 20
157.964873
  0
LINE
  5
133
100
AcDbEntity
  8
ALPHA
100
AcDbLine
 10
73.666427
 20
159.422616
 30
0.0
 11
73.666427
 21
159.360962
 31
0.0
  0
LWPOLYLINE
  5
134
100
AcDbEntity
  8
ALPHA
100
AcDbPolyline
 90
       31
 70
     0
 43
0.0
 10
73.666427
 20
184.90713
 10
73.666427
 20
184.72276
 10
73.666427
 20
184.417452
 10
73.666427
 20
183.994144
 10
73.666427
 20
183.456914
 10
73.666427
 20
182.810936
 10
73.666427
 20
182.06243
 10
73.666427
 20
181.218605
 10
73.666427
 20
180.287588
 10
73.666427
 20
179.278345
 10
73.666427
 20
178.200595
 10
73.666427
 20
177.064717
 10
73.666427
 20
175.881652
 10
73.666427
 20
174.662792
 10
73.666427
 20
173.419876
 10
73.666427
 20
172.164873
 10
73.666427
 20
170.90987
 10
73.666427
 20
169.666954
 10
73.666427
 20
168.448094
 10
73.666427
 20
167.265028
 10
73.666427
 20
166.129151
 10
73.666427
 20
165.051401
 10
73.666427
 20
164.042157
 10
73.666427
 20
163.11114
 10
73.666427
 20
162.267316
 10
73.666427
 20
161.51881
 10
73.666427
 20
160.872831
 10
73.666427
 20
160.335601
 10
73.666427
 20
159.912294
 10
73.666427
 20
159.606985
 10
73.666427
 20
159.422616
  0
LINE
  5
155
100
AcDbEntity
  8
ALPHA
100
AcDbLine
 10
73.666427
 20
184.968784
 30
0.0
 11
73.666427
 21
184.90713
 31
0.0
  0
LINE
  5
156
100
AcDbEntity
  8
ALPHA
100
AcDbLine
 10
73.666427
 20
184.968784
 30
0.0
 11
73.659023
 21
184.914873
 31
0.0
  0
LINE
  5
157
100
AcDbEntity
  8
ALPHA
100
AcDbLine
 10
73.666427
 20
159.360962
 30
0.0
 11
73.659023
 21
159.414873
 31
0.0
  0
LINE
  5
158
100
AcDbEntity
  8
ALPHA
100
AcDbLine
 10
74.080394
 20
186.364873
 30
0.0
 11
73.666427
 21
184.968784
 31
0.0
  0
LINE
  5
159
100
AcDbEntity
  8
ALPHA
100
AcDbLine
 10
74.080394
 20
157.964873
 30
0.0
 11
73.666427
 21
159.360962
 31
0.0
  0
LINE
  5
15A
100
AcDbEntity
  8
ALPHA
100
AcDbLine
 10
76.159023
 20
157.964873
 30
0.0
 11
74.080394
 21
157.964873
 31
0.0
  0
LINE
  5
15B
100
AcDbEntity
  8
ALPHA
100
AcDbLine
 10
76.159023
 20
186.364873
 30
0.0
 11
74.080394
 21
186.364873
 31
0.0
  0
LINE
  5
15C
100
AcDbEntity
  8
ALPHA
100
AcDbLine
 10
73.659023
 20
184.914873
 30
0.0
 11
73.659023
 21
159.414873
 31
0.0
  0
LINE
  5
15D
100
AcDbEntity
  8
ALPHA
100
AcDbLine
 10
73.666427
 20
184.968784
 30
0.0
 11
73.659023
 21
184.914873
 31
0.0
  0
LINE
  5
15E
100
AcDbEntity
  8
ALPHA
100
AcDbLine
 10
73.666427
 20
159.360962
 30
0.0
 11
73.659023
 21
159.414873
 31
0.0
  0
LINE
  5
15F
100
AcDbEntity
  8
ALPHA
100
AcDbLine
 10
74.080394
 20
186.364873
 30
0.0
 11
73.666427
 21
184.968784
 31
0.0
  0
LINE
  5
160
100
AcDbEntity
  8
ALPHA
100
AcDbLine
 10
74.080394
 20
157.964873
 30
0.0
 11
73.666427
 21
159.360962
 31
0.0
  0
LINE
  5
161
100
AcDbEntity
  8
ALPHA
100
AcDbLine
 10
76.159023
 20
157.964873
 30
0.0
 11
74.080394
 21
157.964873
 31
0.0
  0
LINE
  5
162
100
AcDbEntity
  8
ALPHA
100
AcDbLine
 10
76.159023
 20
186.364873
 30
0.0
 11
74.080394
 21
186.364873
 31
0.0
  0
LINE
  5
163
100
AcDbEntity
  8
ALPHA
100
AcDbLine
 10
84.359023
 20
177.263892
 30
0.0
 11
83.159023
 21
177.263892
 31
0.0
  0
LINE
  5
164
100
AcDbEntity
  8
ALPHA
100
AcDbLine
 10
84.359023
 20
167.065853
 30
0.0
 11
83.159023
 21
167.065853
 31
0.0
  0
LWPOLYLINE
  5
165
100
AcDbEntity
  8
ALPHA
100
AcDbPolyline
 90
        5
 70
     0
 43
0.0
 10
87.159023
 20
167.476382
 10
86.580423
 20
167.615729
 10
85.954638
 20
167.778376
 10
85.280977
 20
167.959701
 10
84.559023
 20
168.159428
  0
LINE
  5
16C
100
AcDbEntity
  8
ALPHA
100
AcDbLine
 10
84.559023
 20
169.821911
 30
0.0
 11
84.359023
 21
169.821911
 31
0.0
  0
LINE
  5
16D
100
AcDbEntity
  8
ALPHA
100
AcDbLine
 10
84.559023
 20
162.203473
 30
0.0
 11
84.359023
 21
162.203473
 31
0.0
  0
LWPOLYLINE
  5
16E
100
AcDbEntity
  8
ALPHA
100
AcDbPolyline
 90
        6
 70
     0
 43
0.0
 10
86.546881
 20
174.664873
 10
86.361568
 20
173.663357
 10
86.270357
 20
172.664072
 10
86.270357
 20
171.665674
 10
86.361568
 20
170.666388
 10
86.546881
 20
169.664873
  0
LWPOLYLINE
  5
176
100
AcDbEntity
  8
ALPHA
100
AcDbPolyline
 90
        5
 70
     0
 43
0.0
 10
84.559023
 20
165.295318
 10
85.274659
 20
165.463285
 10
85.945231
 20
165.619862
 10
86.572424
 20
165.764169
 10
87.159023
 20
165.891488
  0
LINE
  5
17D
100
AcDbEntity
  8
ALPHA
100
AcDbLine
 10
84.559023
 20
182.601813
 30
0.0
 11
84.359023
 21
182.601813
 31
0.0
  0
LWPOLYLINE
  5
17E
100
AcDbEntity
  8
ALPHA
100
AcDbPolyline
 90
        3
 70
     0
 43
0.0
 10
87.159023
 20
182.115655
 10
86.580422
 20
182.180126
 10
86.168669
 20
182.227666
  0
LWPOLYLINE
  5
183
100
AcDbEntity
  8
ALPHA
100
AcDbPolyline
 90
        5
 70
     0
 43
0.0
 10
84.559023
 20
180.756102
 10
85.280965
 20
180.888893
 10
85.954623
 20
181.007462
 10
86.580407
 20
181.112171
 10
87.159023
 20
181.200615
  0
LINE
  5
18A
100
AcDbEntity
  8
ALPHA
100
AcDbLine
 10
84.559023
 20
182.459101
 30
0.0
 11
84.559023
 21
182.601813
 31
0.0
  0
LINE
  5
18B
100
AcDbEntity
  8
ALPHA
100
AcDbLine
 10
84.559023
 20
178.543366
 30
0.0
 11
84.559023
 21
180.756067
 31
0.0
  0
LINE
  5
18C
100
AcDbEntity
  8
ALPHA
100
AcDbLine
 10
84.559023
 20
162.203473
 30
0.0
 11
84.559023
 21
165.295276
 31
0.0
  0
LINE
  5
18D
100
AcDbEntity
  8
ALPHA
100
AcDbLine
 10
84.559023
 20
168.159467
 30
0.0
 11
84.559023
 21
165.295287
 31
0.0
  0
LINE
  5
18E
100
AcDbEntity
  8
ALPHA
100
AcDbLine
 10
84.559023
 20
168.159468
 30
0.0
 11
84.559023
 21
169.821911
 31
0.0
  0
LINE
  5
18F
100
AcDbEntity
  8
ALPHA
100
AcDbLine
 10
84.559023
 20
178.543366
 30
0.0
 11
84.359023
 21
178.543366
 31
0.0
  0
LINE
  5
190
100
AcDbEntity
  8
ALPHA
100
AcDbLine
 10
87.159023
 20
165.891488
 30
0.0
 11
87.159023
 21
167.476382
 31
0.0
  0
LINE
  5
191
100
AcDbEntity
  8
ALPHA
100
AcDbLine
 10
87.159023
 20
181.324945
 30
0.0
 11
87.159023
 21
181.200615
 31
0.0
  0
LINE
  5
192
100
AcDbEntity
  8
ALPHA
100
AcDbLine
 10
87.159023
 20
182.115655
 30
0.0
 11
87.159023
 21
181.314873
 31
0.0
  0
LINE
  5
193
100
AcDbEntity
  8
ALPHA
100
AcDbLine
 10
85.659023
 20
182.952713
 30
0.0
 11
85.659023
 21
183.164873
 31
0.0
  0
LINE
  5
194
100
AcDbEntity
  8
ALPHA
100
AcDbLine
 10
85.659023
 20
182.952713
 30
0.0
 11
84.359023
 21
182.952713
 31
0.0
  0
ARC
  5
195
100
AcDbEntity
  8
ALPHA
100
AcDbCircle
 10
89.759023
 20
174.664873
 30
0.0
 40
3.0
100
AcDbArc
 50
150.073565
 51
180.0
  0
LINE
  5
196
100
AcDbEntity
  8
ALPHA
100
AcDbLine
 10
87.159023
 20
181.200615
 30
0.0
 11
87.159023
 21
176.161536
 31
0.0
  0
LINE
  5
197
100
AcDbEntity
  8
ALPHA
100
AcDbLine
 10
87.159023
 20
168.16821
 30
0.0
 11
87.159023
 21
167.476382
 31
0.0
  0
ARC
  5
198
100
AcDbEntity
  8
ALPHA
100
AcDbCircle
 10
89.759023
 20
169.664873
 30
0.0
 40
3.0
100
AcDbArc
 50
180.0
 51
209.926435
  0
LINE
  5
199
100
AcDbEntity
  8
ALPHA
100
AcDbLine
 10
86.759023
 20
169.664873
 30
0.0
 11
86.759023
 21
174.664873
 31
0.0
  0
LINE
  5
19A
100
AcDbEntity
  8
ALPHA
100
AcDbLine
 10
86.546881
 20
174.664873
 30
0.0
 11
86.759023
 21
174.664873
 31
0.0
  0
LINE
  5
19B
100
AcDbEntity
  8
ALPHA
100
AcDbLine
 10
86.546881
 20
169.664873
 30
0.0
 11
86.759023
 21
169.664873
 31
0.0
  0
LINE
  5
19C
100
AcDbEntity
  8
ALPHA
100
AcDbLine
 10
87.159023
 20
165.891488
 30
0.0
 11
87.159023
 21
161.164873
 31
0.0
  0
LINE
  5
19D
100
AcDbEntity
  8
ALPHA
100
AcDbLine
 10
84.359023
 20
185.664873
 30
0.0
 11
83.159023
 21
185.664873
 31
0.0
  0
LINE
  5
19E
100
AcDbEntity
  8
ALPHA
100
AcDbLine
 10
87.159023
 20
161.164873
 30
0.0
 11
84.359023
 21
161.164873
 31
0.0
  0
LINE
  5
19F
100
AcDbEntity
  8
ALPHA
100
AcDbLine
 10
87.159023
 20
183.164873
 30
0.0
 11
85.659023
 21
183.164873
 31
0.0
  0
LINE
  5
1A0
100
AcDbEntity
  8
ALPHA
100
AcDbLine
 10
87.159023
 20
183.164809
 30
0.0
 11
87.159023
 21
182.115655
 31
0.0
  0
LINE
  5
1A1
100
AcDbEntity
  8
ALPHA
100
AcDbLine
 10
84.359023
 20
184.264811
 30
0.0
 11
84.359023
 21
185.664854
 31
0.0
  0
LINE
  5
1A2
100
AcDbEntity
  8
ALPHA
100
AcDbLine
 10
84.359023
 20
184.125783
 30
0.0
 11
84.359023
 21
184.264811
 31
0.0
  0
LINE
  5
1A3
100
AcDbEntity
  8
ALPHA
100
AcDbLine
 10
84.359023
 20
184.115239
 30
0.0
 11
84.359023
 21
184.125783
 31
0.0
  0
LINE
  5
1A4
100
AcDbEntity
  8
ALPHA
100
AcDbLine
 10
84.359023
 20
182.952713
 30
0.0
 11
84.359023
 21
184.115239
 31
0.0
  0
LINE
  5
1A5
100
AcDbEntity
  8
ALPHA
100
AcDbLine
 10
84.359023
 20
182.764873
 30
0.0
 11
84.359023
 21
182.952713
 31
0.0
  0
LINE
  5
1A6
100
AcDbEntity
  8
ALPHA
100
AcDbLine
 10
84.359023
 20
182.601813
 30
0.0
 11
84.359023
 21
182.764873
 31
0.0
  0
LINE
  5
1A7
100
AcDbEntity
  8
ALPHA
100
AcDbLine
 10
84.359023
 20
178.543366
 30
0.0
 11
84.359023
 21
182.601813
 31
0.0
  0
LINE
  5
1A8
100
AcDbEntity
  8
ALPHA
100
AcDbLine
 10
84.359023
 20
177.263892
 30
0.0
 11
84.359023
 21
178.543366
 31
0.0
  0
LINE
  5
1A9
100
AcDbEntity
  8
ALPHA
100
AcDbLine
 10
84.359023
 20
177.263892
 30
0.0
 11
84.359023
 21
167.065853
 31
0.0
  0
LINE
  5
1AA
100
AcDbEntity
  8
ALPHA
100
AcDbLine
 10
84.359023
 20
161.164873
 30
0.0
 11
84.359023
 21
158.664891
 31
0.0
  0
LINE
  5
1AB
100
AcDbEntity
  8
ALPHA
100
AcDbLine
 10
84.359023
 20
162.064873
 30
0.0
 11
84.359023
 21
161.164873
 31
0.0
  0
LINE
  5
1AC
100
AcDbEntity
  8
ALPHA
100
AcDbLine
 10
84.359023
 20
162.203473
 30
0.0
 11
84.359023
 21
162.064873
 31
0.0
  0
LINE
  5
1AD
100
AcDbEntity
  8
ALPHA
100
AcDbLine
 10
84.359023
 20
167.065853
 30
0.0
 11
84.359023
 21
162.203473
 31
0.0
  0
LINE
  5
1AE
100
AcDbEntity
  8
ALPHA
100
AcDbLine
 10
84.359023
 20
158.664873
 30
0.0
 11
83.159023
 21
158.664873
 31
0.0
  0
LWPOLYLINE
  5
1AF
100
AcDbEntity
  8
ALPHA
100
AcDbPolyline
 90
        5
 70
     0
 43
0.0
 10
86.168699
 20
182.227707
 10
85.929669
 20
182.257105
 10
85.483205
 20
182.318483
 10
85.003187
 20
182.389988
 10
84.559023
 20
182.459101
  0
LINE
  5
1B6
100
AcDbEntity
  8
ALPHA
100
AcDbLine
 10
84.559023
 20
181.731807
 30
0.0
 11
84.559023
 21
180.756067
 31
0.0
  0
LINE
  5
1B7
100
AcDbEntity
  8
ALPHA
100
AcDbLine
 10
84.559023
 20
181.763405
 30
0.0
 11
84.559023
 21
181.73505
 31
0.0
  0
LINE
  5
1B8
100
AcDbEntity
  8
ALPHA
100
AcDbLine
 10
84.559023
 20
181.869862
 30
0.0
 11
84.559023
 21
181.763405
 31
0.0
  0
LINE
  5
1B9
100
AcDbEntity
  8
ALPHA
100
AcDbLine
 10
84.559023
 20
182.45907
 30
0.0
 11
84.559023
 21
181.859163
 31
0.0
  0
LWPOLYLINE
  5
1BA
100
AcDbEntity
  8
ALPHA
100
AcDbPolyline
 90
       14
 70
     0
 43
0.0
 10
73.609023
 20
159.814873
 10
73.609023
 20
159.839243
 10
73.609023
 20
160.033625
 10
73.609023
 20
160.419325
 10
73.609023
 20
160.990259
 10
73.609023
 20
161.737423
 10
73.609023
 20
162.649034
 10
73.609023
 20
163.710716
 10
73.609023
 20
164.905725
 10
73.609023
 20
166.215215
 10
73.609023
 20
167.618535
 10
73.609023
 20
169.093553
 10
73.609023
 20
170.617007
 10
73.609023
 20
172.164873
  0
LWPOLYLINE
  5
1CA
100
AcDbEntity
  8
ALPHA
100
AcDbPolyline
 90
       14
 70
     0
 43
0.0
 10
73.609023
 20
184.514873
 10
73.609023
 20
184.490503
 10
73.609023
 20
184.29612
 10
73.609023
 20
183.910421
 10
73.609023
 20
183.339487
 10
73.609023
 20
182.592323
 10
73.609023
 20
181.680711
 10
73.609023
 20
180.61903
 10
73.609023
 20
179.424021
 10
73.609023
 20
178.114531
 10
73.609023
 20
176.711211
 10
73.609023
 20
175.236193
 10
73.609023
 20
173.712738
 10
73.609023
 20
172.164873
  0
LINE
  5
1DA
100
AcDbEntity
  8
ALPHA
100
AcDbLine
 10
73.09994
 20
172.164873
 30
0.0
 11
73.09994
 21
163.402489
 31
0.0
  0
LINE
  5
1DB
100
AcDbEntity
  8
ALPHA
100
AcDbLine
 10
73.09994
 20
162.964873
 30
0.0
 11
73.09994
 21
163.402489
 31
0.0
  0
ARC
  5
1DC
100
AcDbEntity
  8
ALPHA
100
AcDbCircle
 10
83.09994
 20
162.964873
 30
0.0
 40
10.0
100
AcDbArc
 50
180.0
 51
198.360814
  0
LINE
  5
1DD
100
AcDbEntity
  8
ALPHA
100
AcDbLine
 10
73.659023
 20
159.814873
 30
0.0
 11
73.609023
 21
159.814873
 31
0.0
  0
LINE
  5
1DE
100
AcDbEntity
  8
ALPHA
100
AcDbLine
 10
73.09994
 20
181.343425
 30
0.0
 11
73.09994
 21
172.164873
 31
0.0
  0
LINE
  5
1DF
100
AcDbEntity
  8
ALPHA
100
AcDbLine
 10
73.09994
 20
181.343425
 30
0.0
 11
73.09994
 21
181.364873
 31
0.0
  0
ARC
  5
1E0
100
AcDbEntity
  8
ALPHA
100
AcDbCircle
 10
83.09994
 20
181.364873
 30
0.0
 40
10.0
100
AcDbArc
 50
161.639186
 51
180.0
  0
LINE
  5
1E1
100
AcDbEntity
  8
ALPHA
100
AcDbLine
 10
73.659023
 20
184.514873
 30
0.0
 11
73.609023
 21
184.514873
 31
0.0
  0
DIMENSION
  5
1E2
100
AcDbEntity
  8
COTATION1
100
AcDbDimension
  2
*D2
 10
102.059023
 20
140.0
 30
0.0
 11
87.579482
 21
142.25
 31
0.0
  3
SC_STAND
100
AcDbAlignedDimension
 13
73.09994
 23
162.964873
 33
0.0
 14
102.059023
 24
163.573598
 34
0.0
100
AcDbRotatedDimension
  0
DIMENSION
  5
1F4
100
AcDbEntity
  8
COTATION1
100
AcDbDimension
  2
*D3
 10
83.159023
 20
147.5
 30
0.0
 11
92.0995
 21
149.75
 31
0.0
  3
SC_STAND
100
AcDbAlignedDimension
 13
73.09994
 23
162.902373
 33
0.0
 14
83.159023
 24
157.914873
 34
0.0
100
AcDbRotatedDimension
  0
DIMENSION
  5
202
100
AcDbEntity
  8
COTATION1
100
AcDbDimension
  2
*D4
 10
125.0
 20
186.414873
 30
0.0
 11
122.75
 21
172.164873
 31
0.0
  3
SC_STAND
100
AcDbAlignedDimension
 13
83.159023
 23
157.914873
 33
0.0
 14
83.159023
 24
186.414873
 34
0.0
 50
90.0
100
AcDbRotatedDimension
  0
DIMENSION
  5
20F
100
AcDbEntity
  8
COTATION1
100
AcDbDimension
  2
*D5
 10
117.5
 20
158.664891
 30
0.0
 11
115.25
 21
172.164873
 31
0.0
  3
SC_STAND
100
AcDbAlignedDimension
 13
84.359023
 23
185.664854
 33
0.0
 14
84.359023
 24
158.664891
 34
0.0
 50
90.0
100
AcDbRotatedDimension
  0
DIMENSION
  5
21C
100
AcDbEntity
  8
COTATION1
100
AcDbDimension
  2
*D6
 10
110.0
 20
161.164873
 30
0.0
 11
107.75
 21
172.164873
 31
0.0
  3
SC_STAND
100
AcDbAlignedDimension
 13
87.159023
 23
183.164873
 33
0.0
 14
87.159023
 24
161.164873
 34
0.0
 50
90.0
100
AcDbRotatedDimension
  0
INSERT
  5
279
100
AcDbEntity
  8
COTATION1
100
AcDbBlockReference
  2
SCH_ISO
 10
0.0
 20
0.0
 30
0.0
  0
VIEWPORT
  5
22C
100
AcDbEntity
 67
     1
  8
0
100
AcDbViewport
 10
251.108558
 20
148.5
 30
0.0
 40
8035.473851
 41
4752.0
 68
    -1
 69
     1
1001
ACAD
1000
MVIEW
1002
{
1070
    16
1010
0.0
1020
0.0
1030
0.0
1010
0.0
1020
0.0
1030
1.0
1040
0.0
1040
4752.0
1040
251.108558
1040
148.5
1040
50.0
1040
0.0
1040
0.0
1070
     0
1070
   100
1070
     1
1070
     1
1070
     0
1070
     0
1070
     0
1070
     0
1040
0.0
1040
0.0
1040
0.0
1040
1.0
1040
1.0
1040
0.0
1040
0.0
1070
     0
1002
{
1002
}
1002
}
  0
ENDSEC
  0
SECTION
  2
OBJECTS
  0
DICTIONARY
  5
380
100
AcDbDictionary
  3
ACAD_GROUP
350
381
  3
ACAD_MLINESTYLE
350
38E
  3
ACDBVARIABLEDICTIONARY
350
3D0
  0
DICTIONARY
  5
381
102
{ACAD_REACTORS
330
380
102
}
100
AcDbDictionary
  0
DICTIONARY
  5
38E
102
{ACAD_REACTORS
330
380
102
}
100
AcDbDictionary
  3
STANDARD
350
38F
  0
DICTIONARY
  5
3D0
102
{ACAD_REACTORS
330
380
102
}
100
AcDbDictionary
  3
DIMADEC
350
3D1
  0
MLINESTYLE
  5
38F
102
{ACAD_REACTORS
330
38E
102
}
100
AcDbMlineStyle
  2
STANDARD
 70
     0
  3

 62
   256
 51
90.0
 52
90.0
 71
     2
 49
0.5
 62
   256
  6
BYLAYER
 49
-0.5
 62
   256
  6
BYLAYER
  0
DICTIONARYVAR
  5
3D1
102
{ACAD_REACTORS
330
3D0
102
}
100
DictionaryVariables
280
     0
  1
0
  0
ENDSEC
  0
EOF
