  0
SECTION
  2
HEADER
  9
$ACADVER
  1
AC1009
  9
$INSBASE
 10
402.590624
 20
-1.041018
 30
0.0
  9
$EXTMIN
 10
-188.402653
 20
28.332779
 30
0.0
  9
$EXTMAX
 10
-87.646179
 20
268.332779
 30
0.0
  9
$LIMMIN
 10
-407.970438
 20
-367.832444
  9
$LIMMAX
 10
429.804077
 20
234.370848
  9
$ORTHOMODE
 70
     1
  9
$REGENMODE
 70
     1
  9
$FILLMODE
 70
     1
  9
$QTEXTMODE
 70
     0
  9
$MIRRTEXT
 70
     1
  9
$DRAGMODE
 70
     2
  9
$LTSCALE
 40
10.0
  9
$OSMODE
 70
    37
  9
$ATTMODE
 70
     1
  9
$TEXTSIZE
 40
6.0
  9
$TRACEWID
 40
1.0
  9
$TEXTSTYLE
  7
ROMANS
  9
$CLAYER
  8
ALPHA
  9
$CELTYPE
  6
BYLAYER
  9
$CECOLOR
 62
   256
  9
$DIMSCALE
 40
1.0
  9
$DIMASZ
 40
5.0
  9
$DIMEXO
 40
2.0
  9
$DIMDLI
 40
0.38
  9
$DIMRND
 40
0.0
  9
$DIMDLE
 40
0.0
  9
$DIMEXE
 40
2.5
  9
$DIMTP
 40
0.0
  9
$DIMTM
 40
0.0
  9
$DIMTXT
 40
2.5
  9
$DIMCEN
 40
0.0
  9
$DIMTSZ
 40
0.0
  9
$DIMTOL
 70
     0
  9
$DIMLIM
 70
     0
  9
$DIMTIH
 70
     1
  9
$DIMTOH
 70
     1
  9
$DIMSE1
 70
     0
  9
$DIMSE2
 70
     0
  9
$DIMTAD
 70
     1
  9
$DIMZIN
 70
    12
  9
$DIMBLK
  1
OPEN30
  9
$DIMASO
 70
     1
  9
$DIMSHO
 70
     1
  9
$DIMPOST
  1

  9
$DIMAPOST
  1

  9
$DIMALT
 70
     0
  9
$DIMALTD
 70
     2
  9
$DIMALTF
 40
25.4
  9
$DIMLFAC
 40
1.0
  9
$DIMTOFL
 70
     0
  9
$DIMTVP
 40
0.0
  9
$DIMTIX
 70
     0
  9
$DIMSOXD
 70
     0
  9
$DIMSAH
 70
     0
  9
$DIMBLK1
  1

  9
$DIMBLK2
  1

  9
$DIMSTYLE
  2
SC_DEFAUT
  9
$DIMCLRD
 70
     0
  9
$DIMCLRE
 70
     0
  9
$DIMCLRT
 70
     0
  9
$DIMTFAC
 40
1.0
  9
$DIMGAP
 40
2.0
  9
$LUNITS
 70
     2
  9
$LUPREC
 70
     1
  9
$SKETCHINC
 40
0.1
  9
$FILLETRAD
 40
5.0
  9
$AUNITS
 70
     0
  9
$AUPREC
 70
     0
  9
$MENU
  1
acad
  9
$ELEVATION
 40
0.0
  9
$PELEVATION
 40
0.0
  9
$THICKNESS
 40
0.0
  9
$LIMCHECK
 70
     0
  9
$BLIPMODE
 70
     0
  9
$CHAMFERA
 40
0.0
  9
$CHAMFERB
 40
0.0
  9
$SKPOLY
 70
     0
  9
$TDCREATE
 40
2450373.687919
  9
$TDUPDATE
 40
2452850.412259
  9
$TDINDWG
 40
1.572354
  9
$TDUSRTIMER
 40
1.572354
  9
$USRTIMER
 70
     1
  9
$ANGBASE
 50
0.0
  9
$ANGDIR
 70
     0
  9
$PDMODE
 70
    32
  9
$PDSIZE
 40
0.0
  9
$PLINEWID
 40
0.0
  9
$COORDS
 70
     1
  9
$SPLFRAME
 70
     0
  9
$SPLINETYPE
 70
     6
  9
$SPLINESEGS
 70
     8
  9
$ATTDIA
 70
     0
  9
$ATTREQ
 70
     1
  9
$HANDLING
 70
     1
  9
$HANDSEED
  5
10FEF
  9
$SURFTAB1
 70
     6
  9
$SURFTAB2
 70
     6
  9
$SURFTYPE
 70
     6
  9
$SURFU
 70
     6
  9
$SURFV
 70
     6
  9
$UCSNAME
  2

  9
$UCSORG
 10
0.0
 20
0.0
 30
0.0
  9
$UCSXDIR
 10
1.0
 20
0.0
 30
0.0
  9
$UCSYDIR
 10
0.0
 20
1.0
 30
0.0
  9
$PUCSNAME
  2

  9
$PUCSORG
 10
0.0
 20
0.0
 30
0.0
  9
$PUCSXDIR
 10
1.0
 20
0.0
 30
0.0
  9
$PUCSYDIR
 10
0.0
 20
1.0
 30
0.0
  9
$USERI1
 70
     0
  9
$USERI2
 70
     0
  9
$USERI3
 70
     0
  9
$USERI4
 70
     0
  9
$USERI5
 70
     0
  9
$USERR1
 40
0.0
  9
$USERR2
 40
0.0
  9
$USERR3
 40
0.0
  9
$USERR4
 40
0.0
  9
$USERR5
 40
0.0
  9
$WORLDVIEW
 70
     1
  9
$SHADEDGE
 70
     3
  9
$SHADEDIF
 70
    70
  9
$TILEMODE
 70
     1
  9
$MAXACTVP
 70
    16
  9
$PLIMCHECK
 70
     0
  9
$PEXTMIN
 10
-1.452248
 20
-0.437698
 30
0.0
  9
$PEXTMAX
 10
12.749749
 20
8.310198
 30
0.0
  9
$PLIMMIN
 10
0.0
 20
0.0
  9
$PLIMMAX
 10
12.0
 20
9.0
  9
$UNITMODE
 70
     0
  9
$VISRETAIN
 70
     0
  9
$PLINEGEN
 70
     0
  9
$PSLTSCALE
 70
     0
  0
ENDSEC
  0
SECTION
  2
TABLES
  0
TABLE
  2
VPORT
 70
     2
  0
VPORT
  2
*ACTIVE
 70
     0
 10
0.0
 20
0.0
 11
1.0
 21
1.0
 12
-138.042034
 22
148.331401
 13
0.0
 23
0.0
 14
1.0
 24
1.0
 15
10.0
 25
10.0
 16
0.0
 26
0.0
 36
1.0
 17
0.0
 27
0.0
 37
0.0
 40
242.115129
 41
1.56
 42
50.0
 43
0.0
 44
0.0
 50
0.0
 51
0.0
 71
     0
 72
   100
 73
     1
 74
     0
 75
     0
 76
     0
 77
     0
 78
     0
  0
ENDTAB
  0
TABLE
  2
LTYPE
 70
     2
  0
LTYPE
  2
CONTINUOUS
 70
     0
  3
Solid line
 72
    65
 73
     0
 40
0.0
  0
LTYPE
  2
AXES2
 70
     0
  3
___ _ ___ _ ___ _ ___ _ ___ _ ___ _ ___ _ ___ _
 72
    65
 73
     4
 40
1.125
 49
0.75
 49
-0.125
 49
0.125
 49
-0.125
  0
ENDTAB
  0
TABLE
  2
LAYER
 70
     5
  0
LAYER
  2
0
 70
     0
 62
   255
  6
CONTINUOUS
  0
LAYER
  2
COTATION1
 70
     0
 62
     2
  6
CONTINUOUS
  0
LAYER
  2
AXE
 70
     0
 62
    80
  6
AXES2
  0
LAYER
  2
DEFPOINTS
 70
     0
 62
     7
  6
CONTINUOUS
  0
LAYER
  2
ALPHA
 70
     0
 62
   254
  6
CONTINUOUS
  0
ENDTAB
  0
TABLE
  2
STYLE
 70
     2
  0
STYLE
  2
ROMANS
 70
     0
 40
0.0
 41
1.0
 50
0.0
 71
     0
 42
6.0
  3
romans
  4

  0
STYLE
  2
STANDARD
 70
     0
 40
0.2
 41
1.0
 50
0.0
 71
     0
 42
0.2
  3
txt
  4

  0
ENDTAB
  0
TABLE
  2
VIEW
 70
     0
  0
ENDTAB
  0
TABLE
  2
UCS
 70
     0
  0
ENDTAB
  0
TABLE
  2
APPID
 70
     1
  0
APPID
  2
ACAD
 70
     0
  0
ENDTAB
  0
TABLE
  2
DIMSTYLE
 70
     1
  0
DIMSTYLE
  2
SC_DEFAUT
 70
     0
  3

  4

  5
OPEN30
  6

  7

 40
1.0
 41
5.0
 42
2.0
 43
0.38
 44
2.5
 45
0.0
 46
0.0
 47
0.0
 48
0.0
140
2.5
141
0.0
142
0.0
143
25.4
144
1.0
145
0.0
146
1.0
147
2.0
 71
     0
 72
     0
 73
     1
 74
     1
 75
     0
 76
     0
 77
     1
 78
    12
170
     0
171
     2
172
     0
173
     0
174
     0
175
     0
176
     0
177
     0
178
     0
  0
ENDTAB
  0
ENDSEC
  0
SECTION
  2
BLOCKS
  0
BLOCK
  8
0
  2
$MODEL_SPACE
 70
     0
 10
0.0
 20
0.0
 30
0.0
  3
$MODEL_SPACE
  1

  0
ENDBLK
  5
10DDE
  8
0
  0
BLOCK
 67
     1
  8
0
  2
$PAPER_SPACE
 70
     0
 10
0.0
 20
0.0
 30
0.0
  3
$PAPER_SPACE
  1

  0
ENDBLK
  5
10DDC
 67
     1
  8
0
  0
BLOCK
  8
0
  2
COTE
 70
     0
 10
0.0
 20
0.0
 30
0.0
  3
COTE
  1

  0
ENDBLK
  5
F
  8
0
  0
BLOCK
  8
0
  2
FOND
 70
     0
 10
0.0
 20
0.0
 30
0.0
  3
FOND
  1

  0
ENDBLK
  5
75
  8
0
  0
BLOCK
  8
0
  2
_OPEN30
 70
     0
 10
0.0
 20
0.0
 30
0.0
  3
_OPEN30
  1

  0
LINE
  5
4B05
  8
COTATION1
 62
     0
 10
-1.0
 20
0.267949
 30
0.0
 11
0.0
 21
0.0
 31
0.0
1001
ACAD
1000
RTLwPs
1070
   158
  0
LINE
  5
4B06
  8
COTATION1
 62
     0
 10
0.0
 20
0.0
 30
0.0
 11
-1.0
 21
-0.267949
 31
0.0
1001
ACAD
1000
RTLwPs
1070
   158
  0
LINE
  5
4B07
  8
COTATION1
 62
     0
 10
0.0
 20
0.0
 30
0.0
 11
-1.0
 21
0.0
 31
0.0
1001
ACAD
1000
RTLwPs
1070
   158
  0
ENDBLK
  5
4B09
  8
0
  0
BLOCK
  8
0
  2
*D3
 70
     1
 10
0.0
 20
0.0
 30
0.0
  3
*D3
  1

  0
LINE
  5
10AC9
  8
COTATION1
 62
     0
 10
-143.480495
 20
248.832779
 30
0.0
 11
-88.181894
 21
248.832779
 31
0.0
1001
ACAD
1000
RTLwPs
1070
   158
  0
LINE
  5
10ACA
  8
COTATION1
 62
     0
 10
-133.681894
 20
66.832779
 30
0.0
 11
-88.181894
 21
66.832779
 31
0.0
1001
ACAD
1000
RTLwPs
1070
   158
  0
LINE
  5
10ACB
  8
COTATION1
 62
     0
 10
-90.681894
 20
243.832779
 30
0.0
 11
-90.681894
 21
161.082779
 31
0.0
1001
ACAD
1000
RTLwPs
1070
   158
  0
LINE
  5
10ACC
  8
COTATION1
 62
     0
 10
-90.681894
 20
71.832779
 30
0.0
 11
-90.681894
 21
154.582779
 31
0.0
1001
ACAD
1000
RTLwPs
1070
   158
  0
INSERT
  5
10ACD
  8
COTATION1
 62
     0
  2
_OPEN30
 10
-90.681894
 20
248.832779
 30
0.0
 41
5.0
 42
5.0
 43
5.0
 50
90.0
1001
ACAD
1000
RTLwPs
1070
   158
  0
INSERT
  5
10ACE
  8
COTATION1
 62
     0
  2
_OPEN30
 10
-90.681894
 20
66.832779
 30
0.0
 41
5.0
 42
5.0
 43
5.0
 50
270.0
1001
ACAD
1000
RTLwPs
1070
   158
  0
TEXT
  5
10ACF
  8
COTATION1
 62
     0
 10
-94.431894
 20
156.582779
 30
0.0
 40
2.5
  1
182
1001
ACAD
1000
MTEXTBEGIN
1070
    73
1070
     1
1070
    44
1040
1.0
1070
    74
1070
     0
1000
MTEXTEND
  0
POINT
  5
10AD0
  8
DEFPOINTS
 62
     0
 10
-145.480495
 20
248.832779
 30
0.0
  0
POINT
  5
10AD1
  8
DEFPOINTS
 62
     0
 10
-135.681894
 20
66.832779
 30
0.0
  0
POINT
  5
10AD2
  8
DEFPOINTS
 62
     0
 10
-90.681894
 20
66.832779
 30
0.0
  0
ENDBLK
  5
FF9B
  8
0
  0
BLOCK
  8
0
  2
*D4
 70
     1
 10
0.0
 20
0.0
 30
0.0
  3
*D4
  1

  0
LINE
  5
102ED
  8
COTATION1
 62
     0
 10
-143.802225
 20
116.832779
 30
0.0
 11
-98.181894
 21
116.832779
 31
0.0
1001
ACAD
1000
RTLwPs
1070
   158
  0
LINE
  5
102EE
  8
COTATION1
 62
     0
 10
-133.681894
 20
66.832779
 30
0.0
 11
-98.181894
 21
66.832779
 31
0.0
1001
ACAD
1000
RTLwPs
1070
   158
  0
LINE
  5
102EF
  8
COTATION1
 62
     0
 10
-100.681894
 20
111.832779
 30
0.0
 11
-100.681894
 21
95.082779
 31
0.0
1001
ACAD
1000
RTLwPs
1070
   158
  0
LINE
  5
102F0
  8
COTATION1
 62
     0
 10
-100.681894
 20
71.832779
 30
0.0
 11
-100.681894
 21
88.582779
 31
0.0
1001
ACAD
1000
RTLwPs
1070
   158
  0
INSERT
  5
102F1
  8
COTATION1
 62
     0
  2
_OPEN30
 10
-100.681894
 20
116.832779
 30
0.0
 41
5.0
 42
5.0
 43
5.0
 50
90.0
1001
ACAD
1000
RTLwPs
1070
   158
  0
INSERT
  5
102F2
  8
COTATION1
 62
     0
  2
_OPEN30
 10
-100.681894
 20
66.832779
 30
0.0
 41
5.0
 42
5.0
 43
5.0
 50
270.0
1001
ACAD
1000
RTLwPs
1070
   158
  0
TEXT
  5
102F3
  8
COTATION1
 62
     0
 10
-103.062846
 20
90.582779
 30
0.0
 40
2.5
  1
50
1001
ACAD
1000
MTEXTBEGIN
1070
    73
1070
     1
1070
    44
1040
1.0
1070
    74
1070
     0
1000
MTEXTEND
1000
MTEXTBEGIN
1070
    73
1070
     1
1070
    44
1040
1.0
1070
    74
1070
     0
1000
MTEXTEND
1000
MTEXTBEGIN
1070
    73
1070
     1
1070
    44
1040
1.0
1070
    74
1070
     0
1000
MTEXTEND
  0
POINT
  5
102F4
  8
DEFPOINTS
 62
     0
 10
-145.802225
 20
116.832779
 30
0.0
  0
POINT
  5
102F5
  8
DEFPOINTS
 62
     0
 10
-135.681894
 20
66.832779
 30
0.0
  0
POINT
  5
102F6
  8
DEFPOINTS
 62
     0
 10
-100.681894
 20
66.832779
 30
0.0
  0
ENDBLK
  5
FFB5
  8
0
  0
BLOCK
  8
0
  2
*D5
 70
     1
 10
0.0
 20
0.0
 30
0.0
  3
*D5
  1

  0
LINE
  5
10429
  8
COTATION1
 62
     0
 10
-127.302225
 20
106.832779
 30
0.0
 11
-108.181894
 21
106.832779
 31
0.0
1001
ACAD
1000
RTLwPs
1070
   158
  0
LINE
  5
1042A
  8
COTATION1
 62
     0
 10
-133.681894
 20
66.832779
 30
0.0
 11
-108.181894
 21
66.832779
 31
0.0
1001
ACAD
1000
RTLwPs
1070
   158
  0
LINE
  5
1042B
  8
COTATION1
 62
     0
 10
-110.681894
 20
101.832779
 30
0.0
 11
-110.681894
 21
90.082779
 31
0.0
1001
ACAD
1000
RTLwPs
1070
   158
  0
LINE
  5
1042C
  8
COTATION1
 62
     0
 10
-110.681894
 20
71.832779
 30
0.0
 11
-110.681894
 21
83.582779
 31
0.0
1001
ACAD
1000
RTLwPs
1070
   158
  0
INSERT
  5
1042D
  8
COTATION1
 62
     0
  2
_OPEN30
 10
-110.681894
 20
106.832779
 30
0.0
 41
5.0
 42
5.0
 43
5.0
 50
90.0
1001
ACAD
1000
RTLwPs
1070
   158
  0
INSERT
  5
1042E
  8
COTATION1
 62
     0
  2
_OPEN30
 10
-110.681894
 20
66.832779
 30
0.0
 41
5.0
 42
5.0
 43
5.0
 50
270.0
1001
ACAD
1000
RTLwPs
1070
   158
  0
TEXT
  5
1042F
  8
COTATION1
 62
     0
 10
-113.062846
 20
85.582779
 30
0.0
 40
2.5
  1
40
1001
ACAD
1000
MTEXTBEGIN
1070
    73
1070
     1
1070
    44
1040
1.0
1070
    74
1070
     0
1000
MTEXTEND
1000
MTEXTBEGIN
1070
    73
1070
     1
1070
    44
1040
1.0
1070
    74
1070
     0
1000
MTEXTEND
1000
MTEXTBEGIN
1070
    73
1070
     1
1070
    44
1040
1.0
1070
    74
1070
     0
1000
MTEXTEND
  0
POINT
  5
10430
  8
DEFPOINTS
 62
     0
 10
-129.302225
 20
106.832779
 30
0.0
  0
POINT
  5
10431
  8
DEFPOINTS
 62
     0
 10
-135.681894
 20
66.832779
 30
0.0
  0
POINT
  5
10432
  8
DEFPOINTS
 62
     0
 10
-110.681894
 20
66.832779
 30
0.0
  0
ENDBLK
  5
FFC2
  8
0
  0
BLOCK
  8
0
  2
*D6
 70
     1
 10
0.0
 20
0.0
 30
0.0
  3
*D6
  1

  0
LINE
  5
1043C
  8
COTATION1
 62
     0
 10
-155.802225
 20
98.332779
 30
0.0
 11
-155.802225
 21
38.332779
 31
0.0
1001
ACAD
1000
RTLwPs
1070
   158
  0
LINE
  5
1043D
  8
COTATION1
 62
     0
 10
-135.802225
 20
98.332779
 30
0.0
 11
-135.802225
 21
38.332779
 31
0.0
1001
ACAD
1000
RTLwPs
1070
   158
  0
LINE
  5
1043E
  8
COTATION1
 62
     0
 10
-150.802225
 20
40.832779
 30
0.0
 11
-140.802225
 21
40.832779
 31
0.0
1001
ACAD
1000
RTLwPs
1070
   158
  0
INSERT
  5
1043F
  8
COTATION1
 62
     0
  2
_OPEN30
 10
-155.802225
 20
40.832779
 30
0.0
 41
5.0
 42
5.0
 43
5.0
 50
180.0
1001
ACAD
1000
RTLwPs
1070
   158
  0
INSERT
  5
10440
  8
COTATION1
 62
     0
  2
_OPEN30
 10
-135.802225
 20
40.832779
 30
0.0
 41
5.0
 42
5.0
 43
5.0
1001
ACAD
1000
RTLwPs
1070
   158
  0
TEXT
  5
10441
  8
COTATION1
 62
     0
 10
-148.183177
 20
42.832779
 30
0.0
 40
2.5
  1
20
1001
ACAD
1000
MTEXTBEGIN
1070
    73
1070
     1
1070
    44
1040
1.0
1070
    74
1070
     0
1000
MTEXTEND
1000
MTEXTBEGIN
1070
    73
1070
     1
1070
    44
1040
1.0
1070
    74
1070
     0
1000
MTEXTEND
1000
MTEXTBEGIN
1070
    73
1070
     1
1070
    44
1040
1.0
1070
    74
1070
     0
1000
MTEXTEND
  0
POINT
  5
10442
  8
DEFPOINTS
 62
     0
 10
-155.802225
 20
100.332779
 30
0.0
  0
POINT
  5
10443
  8
DEFPOINTS
 62
     0
 10
-135.802225
 20
100.332779
 30
0.0
  0
POINT
  5
10444
  8
DEFPOINTS
 62
     0
 10
-135.802225
 20
40.832779
 30
0.0
  0
ENDBLK
  5
FFCE
  8
0
  0
BLOCK
  8
0
  2
*D7
 70
     1
 10
0.0
 20
0.0
 30
0.0
  3
*D7
  1

  0
LINE
  5
10300
  8
COTATION1
 62
     0
 10
-160.681894
 20
64.832779
 30
0.0
 11
-160.681894
 21
28.332779
 31
0.0
1001
ACAD
1000
RTLwPs
1070
   158
  0
LINE
  5
10301
  8
COTATION1
 62
     0
 10
-130.681894
 20
69.832779
 30
0.0
 11
-130.681894
 21
28.332779
 31
0.0
1001
ACAD
1000
RTLwPs
1070
   158
  0
LINE
  5
10302
  8
COTATION1
 62
     0
 10
-155.681894
 20
30.832779
 30
0.0
 11
-135.681894
 21
30.832779
 31
0.0
1001
ACAD
1000
RTLwPs
1070
   158
  0
INSERT
  5
10303
  8
COTATION1
 62
     0
  2
_OPEN30
 10
-160.681894
 20
30.832779
 30
0.0
 41
5.0
 42
5.0
 43
5.0
 50
180.0
1001
ACAD
1000
RTLwPs
1070
   158
  0
INSERT
  5
10304
  8
COTATION1
 62
     0
  2
_OPEN30
 10
-130.681894
 20
30.832779
 30
0.0
 41
5.0
 42
5.0
 43
5.0
1001
ACAD
1000
RTLwPs
1070
   158
  0
TEXT
  5
10305
  8
COTATION1
 62
     0
 10
-148.062846
 20
32.832779
 30
0.0
 40
2.5
  1
30
1001
ACAD
1000
MTEXTBEGIN
1070
    73
1070
     1
1070
    44
1040
1.0
1070
    74
1070
     0
1000
MTEXTEND
1000
MTEXTBEGIN
1070
    73
1070
     1
1070
    44
1040
1.0
1070
    74
1070
     0
1000
MTEXTEND
1000
MTEXTBEGIN
1070
    73
1070
     1
1070
    44
1040
1.0
1070
    74
1070
     0
1000
MTEXTEND
  0
POINT
  5
10306
  8
DEFPOINTS
 62
     0
 10
-160.681894
 20
66.832779
 30
0.0
  0
POINT
  5
10307
  8
DEFPOINTS
 62
     0
 10
-130.681894
 20
71.832779
 30
0.0
  0
POINT
  5
10308
  8
DEFPOINTS
 62
     0
 10
-130.681894
 20
30.832779
 30
0.0
  0
ENDBLK
  5
FFDA
  8
0
  0
BLOCK
  8
0
  2
*D8
 70
     1
 10
0.0
 20
0.0
 30
0.0
  3
*D8
  1

  0
LINE
  5
1036D
  8
COTATION1
 62
     0
 10
-174.090626
 20
116.592548
 30
0.0
 11
-164.590626
 21
116.592548
 31
0.0
1001
ACAD
1000
RTLwPs
1070
   158
  0
LINE
  5
1036E
  8
COTATION1
 62
     0
 10
-164.590626
 20
116.592548
 30
0.0
 11
-160.553251
 21
112.108928
 31
0.0
1001
ACAD
1000
RTLwPs
1070
   158
  0
TEXT
  5
1036F
  8
COTATION1
 62
     0
 10
-174.328721
 20
118.592548
 30
0.0
 40
2.5
  1
%%c4.2
1001
ACAD
1000
MTEXTBEGIN
1070
    73
1070
     1
1070
    44
1040
1.0
1070
    74
1070
     0
1000
MTEXTEND
1000
MTEXTBEGIN
1070
    73
1070
     1
1070
    44
1040
1.0
1070
    74
1070
     0
1000
MTEXTEND
1000
MTEXTBEGIN
1070
    73
1070
     1
1070
    44
1040
1.0
1070
    74
1070
     0
1000
MTEXTEND
  0
INSERT
  5
10370
  8
COTATION1
 62
     0
  2
_OPEN30
 10
-157.207458
 20
108.39333
 30
0.0
 41
5.0
 42
5.0
 43
5.0
 50
312.002156
1001
ACAD
1000
RTLwPs
1070
   158
  0
POINT
  5
10371
  8
DEFPOINTS
 62
     0
 10
-157.207458
 20
108.39333
 30
0.0
  0
POINT
  5
10372
  8
DEFPOINTS
 62
     0
 10
-154.396992
 20
105.272227
 30
0.0
  0
ENDBLK
  5
10363
  8
0
  0
BLOCK
  8
0
  2
*D9
 70
     1
 10
0.0
 20
0.0
 30
0.0
  3
*D9
  1

  0
LINE
  5
10379
  8
COTATION1
 62
     0
 10
-183.827086
 20
93.482114
 30
0.0
 11
-177.898515
 21
93.482114
 31
0.0
1001
ACAD
1000
RTLwPs
1070
   158
  0
LINE
  5
1037A
  8
COTATION1
 62
     0
 10
-177.898515
 20
93.482114
 30
0.0
 11
-163.505338
 21
102.178528
 31
0.0
1001
ACAD
1000
RTLwPs
1070
   158
  0
TEXT
  5
1037B
  8
COTATION1
 62
     0
 10
-184.065182
 20
95.482114
 30
0.0
 40
2.5
  1
%%c8
1001
ACAD
1000
MTEXTBEGIN
1070
    73
1070
     1
1070
    44
1040
1.0
1070
    74
1070
     0
1000
MTEXTEND
1000
MTEXTBEGIN
1070
    73
1070
     1
1070
    44
1040
1.0
1070
    74
1070
     0
1000
MTEXTEND
1000
MTEXTBEGIN
1070
    73
1070
     1
1070
    44
1040
1.0
1070
    74
1070
     0
1000
MTEXTEND
  0
INSERT
  5
1037C
  8
COTATION1
 62
     0
  2
_OPEN30
 10
-159.225831
 20
104.764223
 30
0.0
 41
5.0
 42
5.0
 43
5.0
 50
31.140535
1001
ACAD
1000
RTLwPs
1070
   158
  0
POINT
  5
1037D
  8
DEFPOINTS
 62
     0
 10
-159.225831
 20
104.764223
 30
0.0
  0
POINT
  5
1037E
  8
DEFPOINTS
 62
     0
 10
-152.378619
 20
108.901335
 30
0.0
  0
ENDBLK
  5
1036C
  8
0
  0
BLOCK
  8
0
  2
*D10
 70
     1
 10
0.0
 20
0.0
 30
0.0
  3
*D10
  1

  0
LINE
  5
10ABF
  8
COTATION1
 62
     0
 10
-147.480495
 20
248.832779
 30
0.0
 11
-187.866939
 21
248.832779
 31
0.0
1001
ACAD
1000
RTLwPs
1070
   158
  0
LINE
  5
10AC0
  8
COTATION1
 62
     0
 10
-164.302225
 20
106.832779
 30
0.0
 11
-187.866939
 21
106.832779
 31
0.0
1001
ACAD
1000
RTLwPs
1070
   158
  0
LINE
  5
10AC1
  8
COTATION1
 62
     0
 10
-185.366939
 20
243.832779
 30
0.0
 11
-185.366939
 21
181.082779
 31
0.0
1001
ACAD
1000
RTLwPs
1070
   158
  0
LINE
  5
10AC2
  8
COTATION1
 62
     0
 10
-185.366939
 20
111.832779
 30
0.0
 11
-185.366939
 21
174.582779
 31
0.0
1001
ACAD
1000
RTLwPs
1070
   158
  0
INSERT
  5
10AC3
  8
COTATION1
 62
     0
  2
_OPEN30
 10
-185.366939
 20
248.832779
 30
0.0
 41
5.0
 42
5.0
 43
5.0
 50
90.0
1001
ACAD
1000
RTLwPs
1070
   158
  0
INSERT
  5
10AC4
  8
COTATION1
 62
     0
  2
_OPEN30
 10
-185.366939
 20
106.832779
 30
0.0
 41
5.0
 42
5.0
 43
5.0
 50
270.0
1001
ACAD
1000
RTLwPs
1070
   158
  0
TEXT
  5
10AC5
  8
COTATION1
 62
     0
 10
-189.116939
 20
176.582779
 30
0.0
 40
2.5
  1
142
1001
ACAD
1000
MTEXTBEGIN
1070
    73
1070
     1
1070
    44
1040
1.0
1070
    74
1070
     0
1000
MTEXTEND
  0
POINT
  5
10AC6
  8
DEFPOINTS
 62
     0
 10
-145.480495
 20
248.832779
 30
0.0
  0
POINT
  5
10AC7
  8
DEFPOINTS
 62
     0
 10
-162.302225
 20
106.832779
 30
0.0
  0
POINT
  5
10AC8
  8
DEFPOINTS
 62
     0
 10
-185.366939
 20
106.832779
 30
0.0
  0
ENDBLK
  5
10ABE
  8
0
  0
BLOCK
  8
0
  2
*D11
 70
     1
 10
0.0
 20
0.0
 30
0.0
  3
*D11
  1

  0
LINE
  5
10AE2
  8
COTATION1
 62
     0
 10
-145.480495
 20
250.832779
 30
0.0
 11
-145.480495
 21
266.332779
 31
0.0
1001
ACAD
1000
RTLwPs
1070
   158
  0
LINE
  5
10AE3
  8
COTATION1
 62
     0
 10
-144.281686
 20
250.679259
 30
0.0
 11
-144.281686
 21
266.332779
 31
0.0
1001
ACAD
1000
RTLwPs
1070
   158
  0
LINE
  5
10AE4
  8
COTATION1
 62
     0
 10
-139.281686
 20
263.832779
 30
0.0
 11
-134.281686
 21
263.832779
 31
0.0
1001
ACAD
1000
RTLwPs
1070
   158
  0
LINE
  5
10AE5
  8
COTATION1
 62
     0
 10
-150.480495
 20
263.832779
 30
0.0
 11
-166.980495
 21
263.832779
 31
0.0
1001
ACAD
1000
RTLwPs
1070
   158
  0
INSERT
  5
10AE6
  8
COTATION1
 62
     0
  2
_OPEN30
 10
-144.281686
 20
263.832779
 30
0.0
 41
5.0
 42
5.0
 43
5.0
 50
180.0
1001
ACAD
1000
RTLwPs
1070
   158
  0
INSERT
  5
10AE7
  8
COTATION1
 62
     0
  2
_OPEN30
 10
-145.480495
 20
263.832779
 30
0.0
 41
5.0
 42
5.0
 43
5.0
1001
ACAD
1000
RTLwPs
1070
   158
  0
TEXT
  5
10AE8
  8
COTATION1
 62
     0
 10
-165.21859
 20
265.832779
 30
0.0
 40
2.5
  1
%%c
1001
ACAD
1000
MTEXTBEGIN
1070
    73
1070
     1
1070
    44
1040
1.0
1070
    74
1070
     0
1000
MTEXTEND
  0
TEXT
  5
10DA9
  8
COTATION1
 62
     0
 10
-162.956686
 20
265.832779
 30
0.0
 40
2.5
  1
1.2
1001
ACAD
1000
R13OBJECT
1002
{
1005
10AE8
1002
}
  0
POINT
  5
10AE9
  8
DEFPOINTS
 62
     0
 10
-145.480495
 20
248.832779
 30
0.0
  0
POINT
  5
10AEA
  8
DEFPOINTS
 62
     0
 10
-144.281686
 20
248.679259
 30
0.0
  0
POINT
  5
10AEB
  8
DEFPOINTS
 62
     0
 10
-144.281686
 20
263.832779
 30
0.0
  0
ENDBLK
  5
10AE1
  8
0
  0
ENDSEC
  0
SECTION
  2
ENTITIES
  0
INSERT
  5
A
  8
0
  2
COTE
 10
0.0
 20
0.0
 30
0.0
  0
INSERT
  5
17
  8
0
  2
COTE
 10
284.010391
 20
6.373258
 30
0.0
  0
INSERT
  5
72
  8
0
  2
FOND
 10
0.0
 20
0.0
 30
0.0
  0
DIMENSION
  5
FF3F
  8
COTATION1
  2
*D3
 10
-90.681894
 20
66.832779
 30
0.0
 11
-90.681894
 21
157.832779
 31
0.0
 13
-145.480495
 23
248.832779
 33
0.0
 14
-135.681894
 24
66.832779
 34
0.0
 50
90.0
  0
LINE
  5
FF41
  8
AXE
 10
-145.802225
 20
171.941996
 30
0.0
 11
-145.802225
 21
50.832779
 31
0.0
  0
DIMENSION
  5
FF42
  8
COTATION1
  2
*D4
 10
-100.681894
 20
66.832779
 30
0.0
 11
-100.681894
 21
91.832779
 31
0.0
 13
-145.802225
 23
116.832779
 33
0.0
 14
-135.681894
 24
66.832779
 34
0.0
 50
90.0
  0
DIMENSION
  5
FF43
  8
COTATION1
  2
*D5
 10
-110.681894
 20
66.832779
 30
0.0
 11
-110.681894
 21
86.832779
 31
0.0
 13
-129.302225
 23
106.832779
 33
0.0
 14
-135.681894
 24
66.832779
 34
0.0
 50
90.0
  0
LINE
  5
FF44
  8
AXE
 10
-165.681894
 20
91.832779
 30
0.0
 11
-118.181894
 21
91.832779
 31
0.0
  0
ARC
  5
FF45
  8
ALPHA
 10
-149.069586
 20
53.014506
 30
0.0
 40
26.27482
 50
17.344588
 51
45.588038
  0
ARC
  5
FF46
  8
ALPHA
 10
-154.019333
 20
48.064759
 30
0.0
 40
26.27482
 50
17.344588
 51
45.586396
  0
LINE
  5
FF47
  8
AXE
 10
-122.928845
 20
61.908158
 30
0.0
 11
-129.999913
 21
54.83709
 31
0.0
  0
DIMENSION
  5
FF48
  8
COTATION1
  2
*D6
 10
-135.802225
 20
40.832779
 30
0.0
 11
-145.802225
 21
44.082779
 31
0.0
 13
-155.802225
 23
100.332779
 33
0.0
 14
-135.802225
 24
100.332779
 34
0.0
  0
LINE
  5
FF49
  8
ALPHA
 10
-130.681894
 20
71.832779
 30
0.0
 11
-130.681894
 21
114.832779
 31
0.0
  0
LINE
  5
FF4A
  8
ALPHA
 10
-160.681894
 20
66.832779
 30
0.0
 11
-160.681894
 21
114.832779
 31
0.0
  0
DIMENSION
  5
FF4B
  8
COTATION1
  2
*D7
 10
-130.681894
 20
30.832779
 30
0.0
 11
-145.681894
 21
34.082779
 31
0.0
 13
-160.681894
 23
66.832779
 33
0.0
 14
-130.681894
 24
71.832779
 34
0.0
  0
LINE
  5
FF4C
  8
ALPHA
 10
-149.302225
 20
71.132779
 30
0.0
 11
-145.802225
 21
71.132779
 31
0.0
  0
LINE
  5
FF4D
  8
ALPHA
 10
-149.302225
 20
69.132779
 30
0.0
 11
-145.802225
 21
69.132779
 31
0.0
  0
LINE
  5
FF4E
  8
ALPHA
 10
-160.681894
 20
66.832779
 30
0.0
 11
-135.681894
 21
66.832779
 31
0.0
  0
TEXT
  5
FF4F
  8
AXE
 10
-153.278415
 20
50.832779
 30
0.0
 40
8.0
  1
Y
 72
     2
 11
-146.802225
 21
50.832779
 31
0.0
  0
ARC
  5
FF50
  8
ALPHA
 10
-149.302225
 20
70.132779
 30
0.0
 40
1.0
 50
90.0
 51
270.0
  0
ARC
  5
FF51
  8
ALPHA
 10
-142.302225
 20
70.132779
 30
0.0
 40
1.0
 50
270.0
 51
90.0
  0
LINE
  5
FF52
  8
ALPHA
 10
-142.302225
 20
71.132779
 30
0.0
 11
-145.802225
 21
71.132779
 31
0.0
  0
LINE
  5
FF53
  8
ALPHA
 10
-142.302225
 20
69.132779
 30
0.0
 11
-145.802225
 21
69.132779
 31
0.0
  0
ARC
  5
FF54
  8
ALPHA
 10
-135.681894
 20
71.832779
 30
0.0
 40
5.0
 50
270.0
 51
0.0
  0
ARC
  5
FF58
  8
ALPHA
 10
-145.681894
 20
59.586399
 30
0.0
 40
57.246507
 50
74.809764
 51
105.190236
  0
TEXT
  5
FF7C
  8
AXE
 10
-124.658084
 20
92.832779
 30
0.0
 40
8.0
  1
X
 72
     2
 11
-118.181894
 21
92.832779
 31
0.0
  0
DIMENSION
  5
10351
  8
COTATION1
  2
*D8
 10
-154.396992
 20
105.272227
 30
0.0
 11
-170.340626
 21
116.592548
 31
0.0
 70
   131
 15
-157.207458
 25
108.39333
 35
0.0
 40
0.0
  0
CIRCLE
  5
10352
  8
ALPHA
 10
-155.802225
 20
106.832779
 30
0.0
 40
4.0
  0
CIRCLE
  5
10353
  8
ALPHA
 10
-155.802225
 20
106.832779
 30
0.0
 40
2.1
  0
LINE
  5
10354
  8
AXE
 10
-162.302225
 20
106.832779
 30
0.0
 11
-149.302225
 21
106.832779
 31
0.0
  0
CIRCLE
  5
10355
  8
ALPHA
 10
-135.802225
 20
106.832779
 30
0.0
 40
4.0
  0
CIRCLE
  5
10356
  8
ALPHA
 10
-135.802225
 20
106.832779
 30
0.0
 40
2.1
  0
LINE
  5
10357
  8
AXE
 10
-135.802225
 20
100.332779
 30
0.0
 11
-135.802225
 21
113.332779
 31
0.0
  0
LINE
  5
10358
  8
AXE
 10
-129.302225
 20
106.832779
 30
0.0
 11
-142.302225
 21
106.832779
 31
0.0
  0
LINE
  5
10359
  8
AXE
 10
-155.802225
 20
100.332779
 30
0.0
 11
-155.802225
 21
113.332779
 31
0.0
  0
DIMENSION
  5
1035A
  8
COTATION1
  2
*D9
 10
-152.378619
 20
108.901335
 30
0.0
 11
-181.862801
 21
93.482114
 31
0.0
 70
   131
 15
-159.225831
 25
104.764223
 35
0.0
 40
0.0
  0
SOLID
  5
10445
  8
COTATION1
  6
CONTINUOUS
 10
125.917883
 20
57.282386
 30
0.0
 11
127.423725
 21
62.122519
 31
0.0
 12
124.429507
 22
58.032396
 32
0.0
 13
124.429507
 23
58.032396
 33
0.0
210
0.0
220
0.0
230
-1.0
1001
ACAD
1000
DSTYLE
1002
{
1070
     5
1000
OPEN30
1070
   342
1005
54070D0300004B04
1002
}
  0
POLYLINE
  5
10B9D
  8
COTATION1
 66
     1
 10
0.0
 20
0.0
 30
0.0
 70
   128
1001
ACAD
1000
R13OBJECT
1002
{
1005
10445
1002
}
  0
VERTEX
  5
10FEA
  8
COTATION1
 10
-125.173695
 20
57.657391
 30
0.0
  0
VERTEX
  5
10FEB
  8
COTATION1
 10
-121.475411
 20
50.318238
 30
0.0
  0
VERTEX
  5
10FEC
  8
COTATION1
 10
-106.975411
 20
50.318238
 30
0.0
  0
SEQEND
  5
10FED
  8
COTATION1
  0
TEXT
  5
10446
  8
COTATION1
 10
-115.741606
 20
52.15522
 30
0.0
 40
2.5
  1
%%c
1001
ACAD
1000
MTEXTBEGIN
1070
    73
1070
     1
1070
    44
1040
1.0
1070
    74
1070
     0
1000
MTEXTEND
1000
MTEXTBEGIN
1070
    73
1070
     1
1070
    44
1040
1.0
1070
    74
1070
     0
1000
MTEXTEND
1000
MTEXTBEGIN
1070
    73
1070
     1
1070
    44
1040
1.0
1070
    74
1070
     0
1000
MTEXTEND
  0
TEXT
  5
10BA2
  8
COTATION1
 10
-113.479702
 20
52.15522
 30
0.0
 40
2.5
  1
7,5
1001
ACAD
1000
R13OBJECT
1002
{
1005
10446
1002
}
  0
POLYLINE
  5
10602
  8
ALPHA
 66
     1
 10
0.0
 20
0.0
 30
0.0
 70
   128
210
0.0
220
0.0
230
-1.0
  0
VERTEX
  5
10DE4
  8
ALPHA
 10
142.356379
 20
111.949789
 30
0.0
  0
VERTEX
  5
10DE5
  8
ALPHA
 10
143.720196
 20
107.017873
 30
0.0
  0
VERTEX
  5
10DE6
  8
ALPHA
 10
144.674715
 20
104.955335
 30
0.0
  0
VERTEX
  5
10DE7
  8
ALPHA
 10
145.218117
 20
104.336006
 30
0.0
  0
VERTEX
  5
10DE8
  8
ALPHA
 10
145.80485
 20
104.109812
 30
0.0
  0
VERTEX
  5
10DE9
  8
ALPHA
 10
146.391581
 20
104.336006
 30
0.0
  0
VERTEX
  5
10DEA
  8
ALPHA
 10
146.934976
 20
104.955335
 30
0.0
  0
VERTEX
  5
10DEB
  8
ALPHA
 10
147.88943
 20
107.017873
 30
0.0
  0
VERTEX
  5
10DEC
  8
ALPHA
 10
149.252737
 20
111.949789
 30
0.0
  0
SEQEND
  5
10DED
  8
ALPHA
  0
LINE
  5
10603
  8
ALPHA
 10
-136.444467
 20
114.116382
 30
0.0
 11
-155.164065
 21
114.116382
 31
0.0
  0
LINE
  5
10604
  8
ALPHA
 10
-155.164065
 20
111.94979
 30
0.0
 11
-146.29649
 21
111.94979
 31
0.0
  0
LINE
  5
10605
  8
ALPHA
 10
-155.164065
 20
114.116382
 30
0.0
 11
-155.164065
 21
111.94979
 31
0.0
  0
LINE
  5
10606
  8
ALPHA
 10
-145.31146
 20
111.94979
 30
0.0
 11
-136.444467
 21
111.94979
 31
0.0
  0
LINE
  5
10607
  8
ALPHA
 10
-146.29649
 20
111.94979
 30
0.0
 11
-146.29649
 21
112.934817
 31
0.0
  0
LINE
  5
10608
  8
ALPHA
 10
-146.29649
 20
112.934817
 30
0.0
 11
-145.31146
 21
112.934817
 31
0.0
  0
LINE
  5
10609
  8
ALPHA
 10
-145.31146
 20
112.934817
 30
0.0
 11
-145.31146
 21
111.94979
 31
0.0
  0
LINE
  5
1060A
  8
ALPHA
 10
-136.444467
 20
111.94979
 30
0.0
 11
-136.444467
 21
114.116382
 31
0.0
  0
LINE
  5
10A6B
  8
ALPHA
 10
-139.561713
 20
119.98827
 30
0.0
 11
-139.561713
 21
122.258839
 31
0.0
  0
LINE
  5
10A6C
  8
ALPHA
 10
-152.042737
 20
119.98827
 30
0.0
 11
-152.042737
 21
122.258839
 31
0.0
  0
LINE
  5
10A6D
  8
ALPHA
 10
-153.052225
 20
118.232779
 30
0.0
 11
-145.802225
 21
118.232779
 31
0.0
  0
LINE
  5
10A6E
  8
ALPHA
 10
-153.552225
 20
117.732779
 30
0.0
 11
-145.802225
 21
117.732779
 31
0.0
  0
POLYLINE
  5
10A6F
  8
ALPHA
 66
     1
 10
0.0
 20
0.0
 30
0.0
 70
   128
  0
VERTEX
  5
10DEE
  8
ALPHA
 10
-152.040511
 20
120.013857
 30
0.0
  0
VERTEX
  5
10DEF
  8
ALPHA
 10
-151.50503
 20
120.013857
 30
0.0
  0
VERTEX
  5
10DF0
  8
ALPHA
 10
-150.092704
 20
120.013857
 30
0.0
  0
VERTEX
  5
10DF1
  8
ALPHA
 10
-148.09471
 20
120.013857
 30
0.0
  0
VERTEX
  5
10DF2
  8
ALPHA
 10
-145.802225
 20
120.013857
 30
0.0
  0
SEQEND
  5
10DF3
  8
ALPHA
  0
POLYLINE
  5
10A70
  8
ALPHA
 66
     1
 10
0.0
 20
0.0
 30
0.0
 70
   128
  0
VERTEX
  5
10DF4
  8
ALPHA
 10
-145.802225
 20
119.007064
 30
0.0
  0
VERTEX
  5
10DF5
  8
ALPHA
 10
-148.09471
 20
119.007064
 30
0.0
  0
VERTEX
  5
10DF6
  8
ALPHA
 10
-150.092704
 20
119.007064
 30
0.0
  0
VERTEX
  5
10DF7
  8
ALPHA
 10
-151.50503
 20
119.007064
 30
0.0
  0
VERTEX
  5
10DF8
  8
ALPHA
 10
-152.040511
 20
119.007064
 30
0.0
  0
SEQEND
  5
10DF9
  8
ALPHA
  0
LINE
  5
10A71
  8
ALPHA
 10
-153.552225
 20
117.732779
 30
0.0
 11
-153.552225
 21
116.289312
 31
0.0
  0
LINE
  5
10A72
  8
ALPHA
 10
-153.552225
 20
117.732779
 30
0.0
 11
-153.052225
 21
118.232779
 31
0.0
  0
LINE
  5
10A73
  8
ALPHA
 10
-152.042737
 20
119.03265
 30
0.0
 11
-152.042737
 21
118.232779
 31
0.0
  0
POLYLINE
  5
10A74
  8
ALPHA
 66
     1
 10
0.0
 20
0.0
 30
0.0
 70
   128
210
0.0
220
0.0
230
-1.0
  0
VERTEX
  5
10DFA
  8
ALPHA
 10
152.040511
 20
119.007064
 30
0.0
  0
VERTEX
  5
10DFB
  8
ALPHA
 10
152.396226
 20
119.154189
 30
0.0
  0
VERTEX
  5
10DFC
  8
ALPHA
 10
152.543352
 20
119.509904
 30
0.0
  0
VERTEX
  5
10DFD
  8
ALPHA
 10
152.396226
 20
119.866176
 30
0.0
  0
VERTEX
  5
10DFE
  8
ALPHA
 10
152.040511
 20
120.013857
 30
0.0
  0
SEQEND
  5
10DFF
  8
ALPHA
  0
LINE
  5
10A75
  8
ALPHA
 10
-138.052225
 20
117.732779
 30
0.0
 11
-145.802225
 21
117.732779
 31
0.0
  0
LINE
  5
10A76
  8
ALPHA
 10
-138.552225
 20
118.232779
 30
0.0
 11
-145.802225
 21
118.232779
 31
0.0
  0
POLYLINE
  5
10A77
  8
ALPHA
 66
     1
 10
0.0
 20
0.0
 30
0.0
 70
   128
  0
VERTEX
  5
10E00
  8
ALPHA
 10
-139.563938
 20
120.013857
 30
0.0
  0
VERTEX
  5
10E01
  8
ALPHA
 10
-140.09942
 20
120.013857
 30
0.0
  0
VERTEX
  5
10E02
  8
ALPHA
 10
-141.511746
 20
120.013857
 30
0.0
  0
VERTEX
  5
10E03
  8
ALPHA
 10
-143.50974
 20
120.013857
 30
0.0
  0
VERTEX
  5
10E04
  8
ALPHA
 10
-145.802225
 20
120.013857
 30
0.0
  0
SEQEND
  5
10E05
  8
ALPHA
  0
POLYLINE
  5
10A78
  8
ALPHA
 66
     1
 10
0.0
 20
0.0
 30
0.0
 70
   128
  0
VERTEX
  5
10E06
  8
ALPHA
 10
-145.802225
 20
119.007064
 30
0.0
  0
VERTEX
  5
10E07
  8
ALPHA
 10
-143.50974
 20
119.007064
 30
0.0
  0
VERTEX
  5
10E08
  8
ALPHA
 10
-141.511746
 20
119.007064
 30
0.0
  0
VERTEX
  5
10E09
  8
ALPHA
 10
-140.09942
 20
119.007064
 30
0.0
  0
VERTEX
  5
10E0A
  8
ALPHA
 10
-139.563938
 20
119.007064
 30
0.0
  0
SEQEND
  5
10E0B
  8
ALPHA
  0
LINE
  5
10A79
  8
ALPHA
 10
-138.052225
 20
117.732779
 30
0.0
 11
-138.052225
 21
116.322196
 31
0.0
  0
LINE
  5
10A7A
  8
ALPHA
 10
-138.052225
 20
117.732779
 30
0.0
 11
-138.552225
 21
118.232779
 31
0.0
  0
LINE
  5
10A7B
  8
ALPHA
 10
-139.561713
 20
119.03265
 30
0.0
 11
-139.561713
 21
118.232779
 31
0.0
  0
POLYLINE
  5
10A7C
  8
ALPHA
 66
     1
 10
0.0
 20
0.0
 30
0.0
 70
   128
  0
VERTEX
  5
10E0C
  8
ALPHA
 10
-139.563938
 20
119.007064
 30
0.0
  0
VERTEX
  5
10E0D
  8
ALPHA
 10
-139.208223
 20
119.154189
 30
0.0
  0
VERTEX
  5
10E0E
  8
ALPHA
 10
-139.061098
 20
119.509904
 30
0.0
  0
VERTEX
  5
10E0F
  8
ALPHA
 10
-139.208223
 20
119.866176
 30
0.0
  0
VERTEX
  5
10E10
  8
ALPHA
 10
-139.563938
 20
120.013857
 30
0.0
  0
SEQEND
  5
10E11
  8
ALPHA
  0
LINE
  5
10A7D
  8
ALPHA
 10
-145.480495
 20
175.259966
 30
0.0
 11
-145.480495
 21
248.832779
 31
0.0
  0
LINE
  5
10A7E
  8
ALPHA
 10
-144.281686
 20
248.679259
 30
0.0
 11
-144.281686
 21
175.736553
 31
0.0
  0
LINE
  5
10A7F
  8
ALPHA
 10
-145.480495
 20
173.08596
 30
0.0
 11
-145.480495
 21
248.832779
 31
0.0
  0
LINE
  5
10A80
  8
ALPHA
 10
-144.281686
 20
248.679259
 30
0.0
 11
-144.281688
 21
173.561879
 31
0.0
  0
POLYLINE
  5
10A81
  8
ALPHA
 66
     1
 10
0.0
 20
0.0
 30
0.0
 70
   128
  0
VERTEX
  5
10E12
  8
ALPHA
 10
-144.281688
 20
173.561879
 30
0.0
  0
VERTEX
  5
10E13
  8
ALPHA
 10
-144.281688
 20
173.066413
 30
0.0
  0
VERTEX
  5
10E14
  8
ALPHA
 10
-144.281688
 20
171.760185
 30
0.0
  0
VERTEX
  5
10E15
  8
ALPHA
 10
-144.281688
 20
169.913448
 30
0.0
  0
VERTEX
  5
10E16
  8
ALPHA
 10
-144.281688
 20
167.796458
 30
0.0
  0
VERTEX
  5
10E17
  8
ALPHA
 10
-144.281688
 20
165.679467
 30
0.0
  0
VERTEX
  5
10E18
  8
ALPHA
 10
-144.281688
 20
163.83273
 30
0.0
  0
VERTEX
  5
10E19
  8
ALPHA
 10
-144.281688
 20
162.526502
 30
0.0
  0
VERTEX
  5
10E1A
  8
ALPHA
 10
-144.281688
 20
162.031036
 30
0.0
  0
VERTEX
  5
10E1B
  8
ALPHA
 10
-144.431748
 20
160.725932
 30
0.0
  0
VERTEX
  5
10E1C
  8
ALPHA
 10
-145.034614
 20
159.792785
 30
0.0
  0
VERTEX
  5
10E1D
  8
ALPHA
 10
-145.904809
 20
159.232346
 30
0.0
  0
VERTEX
  5
10E1E
  8
ALPHA
 10
-146.856854
 20
159.045366
 30
0.0
  0
SEQEND
  5
10E1F
  8
ALPHA
  0
POLYLINE
  5
10A82
  8
ALPHA
 66
     1
 10
0.0
 20
0.0
 30
0.0
 70
   128
  0
VERTEX
  5
10E20
  8
ALPHA
 10
-145.480495
 20
161.960283
 30
0.0
  0
VERTEX
  5
10E21
  8
ALPHA
 10
-145.480495
 20
162.438339
 30
0.0
  0
VERTEX
  5
10E22
  8
ALPHA
 10
-145.480495
 20
163.69867
 30
0.0
  0
VERTEX
  5
10E23
  8
ALPHA
 10
-145.480495
 20
167.523121
 30
0.0
  0
VERTEX
  5
10E24
  8
ALPHA
 10
-145.480495
 20
171.347573
 30
0.0
  0
VERTEX
  5
10E25
  8
ALPHA
 10
-145.480495
 20
172.607904
 30
0.0
  0
VERTEX
  5
10E26
  8
ALPHA
 10
-145.480495
 20
173.08596
 30
0.0
  0
SEQEND
  5
10E27
  8
ALPHA
  0
POLYLINE
  5
10A83
  8
ALPHA
 66
     1
 10
0.0
 20
0.0
 30
0.0
 70
   128
  0
VERTEX
  5
10E28
  8
ALPHA
 10
-144.281688
 20
173.561879
 30
0.0
  0
VERTEX
  5
10E29
  8
ALPHA
 10
-144.281688
 20
173.066413
 30
0.0
  0
VERTEX
  5
10E2A
  8
ALPHA
 10
-144.281688
 20
171.760185
 30
0.0
  0
VERTEX
  5
10E2B
  8
ALPHA
 10
-144.281688
 20
169.913448
 30
0.0
  0
VERTEX
  5
10E2C
  8
ALPHA
 10
-144.281688
 20
167.796458
 30
0.0
  0
VERTEX
  5
10E2D
  8
ALPHA
 10
-144.281688
 20
165.679467
 30
0.0
  0
VERTEX
  5
10E2E
  8
ALPHA
 10
-144.281688
 20
163.83273
 30
0.0
  0
VERTEX
  5
10E2F
  8
ALPHA
 10
-144.281688
 20
162.526502
 30
0.0
  0
VERTEX
  5
10E30
  8
ALPHA
 10
-144.281688
 20
162.031036
 30
0.0
  0
VERTEX
  5
10E31
  8
ALPHA
 10
-144.431748
 20
160.725932
 30
0.0
  0
VERTEX
  5
10E32
  8
ALPHA
 10
-145.034614
 20
159.792785
 30
0.0
  0
VERTEX
  5
10E33
  8
ALPHA
 10
-145.904809
 20
159.232346
 30
0.0
  0
VERTEX
  5
10E34
  8
ALPHA
 10
-146.856854
 20
159.045366
 30
0.0
  0
SEQEND
  5
10E35
  8
ALPHA
  0
POLYLINE
  5
10A84
  8
ALPHA
 66
     1
 10
0.0
 20
0.0
 30
0.0
 70
   128
  0
VERTEX
  5
10E36
  8
ALPHA
 10
-145.480495
 20
161.960283
 30
0.0
  0
VERTEX
  5
10E37
  8
ALPHA
 10
-145.480495
 20
162.438339
 30
0.0
  0
VERTEX
  5
10E38
  8
ALPHA
 10
-145.480495
 20
163.69867
 30
0.0
  0
VERTEX
  5
10E39
  8
ALPHA
 10
-145.480495
 20
167.523121
 30
0.0
  0
VERTEX
  5
10E3A
  8
ALPHA
 10
-145.480495
 20
171.347573
 30
0.0
  0
VERTEX
  5
10E3B
  8
ALPHA
 10
-145.480495
 20
172.607904
 30
0.0
  0
VERTEX
  5
10E3C
  8
ALPHA
 10
-145.480495
 20
173.08596
 30
0.0
  0
SEQEND
  5
10E3D
  8
ALPHA
  0
POLYLINE
  5
10A85
  8
ALPHA
 66
     1
 10
0.0
 20
0.0
 30
0.0
 70
   128
  0
VERTEX
  5
10E3E
  8
ALPHA
 10
-142.296063
 20
135.765568
 30
0.0
  0
VERTEX
  5
10E3F
  8
ALPHA
 10
-142.47038
 20
135.765568
 30
0.0
  0
VERTEX
  5
10E40
  8
ALPHA
 10
-142.946847
 20
135.765568
 30
0.0
  0
VERTEX
  5
10E41
  8
ALPHA
 10
-144.527322
 20
135.765568
 30
0.0
  0
VERTEX
  5
10E42
  8
ALPHA
 10
-148.246086
 20
135.765568
 30
0.0
  0
VERTEX
  5
10E43
  8
ALPHA
 10
-149.268746
 20
135.765568
 30
0.0
  0
VERTEX
  5
10E44
  8
ALPHA
 10
-149.509663
 20
135.65267
 30
0.0
  0
VERTEX
  5
10E45
  8
ALPHA
 10
-149.976377
 20
135.282798
 30
0.0
  0
VERTEX
  5
10E46
  8
ALPHA
 10
-151.498734
 20
133.403404
 30
0.0
  0
VERTEX
  5
10E47
  8
ALPHA
 10
-152.286856
 20
131.067199
 30
0.0
  0
VERTEX
  5
10E48
  8
ALPHA
 10
-152.340562
 20
130.44037
 30
0.0
  0
VERTEX
  5
10E49
  8
ALPHA
 10
-152.343568
 20
130.135876
 30
0.0
  0
VERTEX
  5
10E4A
  8
ALPHA
 10
-152.333885
 20
129.857938
 30
0.0
  0
VERTEX
  5
10E4B
  8
ALPHA
 10
-152.183527
 20
128.777965
 30
0.0
  0
SEQEND
  5
10E4C
  8
ALPHA
  0
POLYLINE
  5
10A86
  8
ALPHA
 66
     1
 10
0.0
 20
0.0
 30
0.0
 70
   128
  0
VERTEX
  5
10E4D
  8
ALPHA
 10
-142.296063
 20
135.765568
 30
0.0
  0
VERTEX
  5
10E4E
  8
ALPHA
 10
-142.47038
 20
135.765568
 30
0.0
  0
VERTEX
  5
10E4F
  8
ALPHA
 10
-142.946847
 20
135.765568
 30
0.0
  0
VERTEX
  5
10E50
  8
ALPHA
 10
-144.527322
 20
135.765568
 30
0.0
  0
VERTEX
  5
10E51
  8
ALPHA
 10
-148.246086
 20
135.765568
 30
0.0
  0
VERTEX
  5
10E52
  8
ALPHA
 10
-149.268746
 20
135.765568
 30
0.0
  0
VERTEX
  5
10E53
  8
ALPHA
 10
-149.509663
 20
135.65267
 30
0.0
  0
VERTEX
  5
10E54
  8
ALPHA
 10
-149.976377
 20
135.282798
 30
0.0
  0
VERTEX
  5
10E55
  8
ALPHA
 10
-151.498734
 20
133.403404
 30
0.0
  0
VERTEX
  5
10E56
  8
ALPHA
 10
-152.286856
 20
131.067199
 30
0.0
  0
VERTEX
  5
10E57
  8
ALPHA
 10
-152.340562
 20
130.44037
 30
0.0
  0
VERTEX
  5
10E58
  8
ALPHA
 10
-152.343568
 20
130.135876
 30
0.0
  0
VERTEX
  5
10E59
  8
ALPHA
 10
-152.333885
 20
129.857938
 30
0.0
  0
VERTEX
  5
10E5A
  8
ALPHA
 10
-152.183527
 20
128.777965
 30
0.0
  0
SEQEND
  5
10E5B
  8
ALPHA
  0
LINE
  5
10A87
  8
ALPHA
 10
-152.042737
 20
122.258839
 30
0.0
 11
-145.802225
 21
122.258839
 31
0.0
  0
POLYLINE
  5
10A88
  8
ALPHA
 66
     1
 10
0.0
 20
0.0
 30
0.0
 70
   128
  0
VERTEX
  5
10E5C
  8
ALPHA
 10
-152.183527
 20
128.777965
 30
0.0
  0
VERTEX
  5
10E5D
  8
ALPHA
 10
-152.08139
 20
128.497846
 30
0.0
  0
VERTEX
  5
10E5E
  8
ALPHA
 10
-151.812121
 20
127.759352
 30
0.0
  0
VERTEX
  5
10E5F
  8
ALPHA
 10
-150.995029
 20
125.518402
 30
0.0
  0
VERTEX
  5
10E60
  8
ALPHA
 10
-150.177936
 20
123.277453
 30
0.0
  0
VERTEX
  5
10E61
  8
ALPHA
 10
-149.908667
 20
122.538958
 30
0.0
  0
VERTEX
  5
10E62
  8
ALPHA
 10
-149.806531
 20
122.258839
 30
0.0
  0
SEQEND
  5
10E63
  8
ALPHA
  0
POLYLINE
  5
10A89
  8
ALPHA
 66
     1
 10
0.0
 20
0.0
 30
0.0
 70
   128
  0
VERTEX
  5
10E64
  8
ALPHA
 10
-152.183527
 20
128.777965
 30
0.0
  0
VERTEX
  5
10E65
  8
ALPHA
 10
-152.08139
 20
128.497846
 30
0.0
  0
VERTEX
  5
10E66
  8
ALPHA
 10
-151.812121
 20
127.759352
 30
0.0
  0
VERTEX
  5
10E67
  8
ALPHA
 10
-150.995029
 20
125.518402
 30
0.0
  0
VERTEX
  5
10E68
  8
ALPHA
 10
-150.177936
 20
123.277453
 30
0.0
  0
VERTEX
  5
10E69
  8
ALPHA
 10
-149.908667
 20
122.538958
 30
0.0
  0
VERTEX
  5
10E6A
  8
ALPHA
 10
-149.806531
 20
122.258839
 30
0.0
  0
SEQEND
  5
10E6B
  8
ALPHA
  0
LINE
  5
10A8A
  8
ALPHA
 10
-148.837958
 20
144.323935
 30
0.0
 11
-142.763822
 21
144.982077
 31
0.0
  0
POLYLINE
  5
10A8B
  8
ALPHA
 66
     1
 10
0.0
 20
0.0
 30
0.0
 70
   128
  0
VERTEX
  5
10E6C
  8
ALPHA
 10
-148.837956
 20
139.493997
 30
0.0
  0
VERTEX
  5
10E6D
  8
ALPHA
 10
-148.56124
 20
139.523925
 30
0.0
  0
VERTEX
  5
10E6E
  8
ALPHA
 10
-147.835157
 20
139.602455
 30
0.0
  0
VERTEX
  5
10E6F
  8
ALPHA
 10
-145.659272
 20
139.837789
 30
0.0
  0
VERTEX
  5
10E70
  8
ALPHA
 10
-143.55907
 20
140.064938
 30
0.0
  0
VERTEX
  5
10E71
  8
ALPHA
 10
-142.92759
 20
140.133236
 30
0.0
  0
VERTEX
  5
10E72
  8
ALPHA
 10
-142.734059
 20
140.151592
 30
0.0
  0
VERTEX
  5
10E73
  8
ALPHA
 10
-142.307965
 20
140.35967
 30
0.0
  0
VERTEX
  5
10E74
  8
ALPHA
 10
-142.163539
 20
140.816004
 30
0.0
  0
VERTEX
  5
10E75
  8
ALPHA
 10
-142.391901
 20
141.229897
 30
0.0
  0
VERTEX
  5
10E76
  8
ALPHA
 10
-142.673118
 20
141.365897
 30
0.0
  0
VERTEX
  5
10E77
  8
ALPHA
 10
-142.272055
 20
141.612846
 30
0.0
  0
VERTEX
  5
10E78
  8
ALPHA
 10
-142.172707
 20
142.084113
 30
0.0
  0
VERTEX
  5
10E79
  8
ALPHA
 10
-142.438965
 20
142.470833
 30
0.0
  0
VERTEX
  5
10E7A
  8
ALPHA
 10
-142.664661
 20
142.557644
 30
0.0
  0
VERTEX
  5
10E7B
  8
ALPHA
 10
-142.613303
 20
142.584827
 30
0.0
  0
VERTEX
  5
10E7C
  8
ALPHA
 10
-142.240542
 20
142.869611
 30
0.0
  0
VERTEX
  5
10E7D
  8
ALPHA
 10
-142.187614
 20
143.350134
 30
0.0
  0
VERTEX
  5
10E7E
  8
ALPHA
 10
-142.489491
 20
143.708004
 30
0.0
  0
VERTEX
  5
10E7F
  8
ALPHA
 10
-142.725162
 20
143.772703
 30
0.0
  0
VERTEX
  5
10E80
  8
ALPHA
 10
-142.556688
 20
143.810485
 30
0.0
  0
VERTEX
  5
10E81
  8
ALPHA
 10
-142.213848
 20
144.128798
 30
0.0
  0
VERTEX
  5
10E82
  8
ALPHA
 10
-142.207951
 20
144.612623
 30
0.0
  0
VERTEX
  5
10E83
  8
ALPHA
 10
-142.542916
 20
144.940099
 30
0.0
  0
VERTEX
  5
10E84
  8
ALPHA
 10
-142.740554
 20
144.982519
 30
0.0
  0
VERTEX
  5
10E85
  8
ALPHA
 10
-142.502588
 20
145.041466
 30
0.0
  0
VERTEX
  5
10E86
  8
ALPHA
 10
-142.192201
 20
145.39109
 30
0.0
  0
VERTEX
  5
10E87
  8
ALPHA
 10
-142.233412
 20
145.873199
 30
0.0
  0
VERTEX
  5
10E88
  8
ALPHA
 10
-142.59893
 20
146.167263
 30
0.0
  0
VERTEX
  5
10E89
  8
ALPHA
 10
-142.679617
 20
146.196074
 30
0.0
  0
VERTEX
  5
10E8A
  8
ALPHA
 10
-142.451308
 20
146.277527
 30
0.0
  0
VERTEX
  5
10E8B
  8
ALPHA
 10
-142.175908
 20
146.65806
 30
0.0
  0
VERTEX
  5
10E8C
  8
ALPHA
 10
-142.263689
 20
147.130964
 30
0.0
  0
VERTEX
  5
10E8D
  8
ALPHA
 10
-142.657229
 20
147.387596
 30
0.0
  0
VERTEX
  5
10E8E
  8
ALPHA
 10
-142.620541
 20
147.414196
 30
0.0
  0
VERTEX
  5
10E8F
  8
ALPHA
 10
-142.403156
 20
147.516733
 30
0.0
  0
VERTEX
  5
10E90
  8
ALPHA
 10
-142.165276
 20
147.922982
 30
0.0
  0
VERTEX
  5
10E91
  8
ALPHA
 10
-142.298476
 20
148.384357
 30
0.0
  0
VERTEX
  5
10E92
  8
ALPHA
 10
-142.717504
 20
148.602765
 30
0.0
  0
VERTEX
  5
10E93
  8
ALPHA
 10
-142.358439
 20
148.761416
 30
0.0
  0
VERTEX
  5
10E94
  8
ALPHA
 10
-142.160611
 20
149.193009
 30
0.0
  0
VERTEX
  5
10E95
  8
ALPHA
 10
-142.337465
 20
149.635798
 30
0.0
  0
VERTEX
  5
10E96
  8
ALPHA
 10
-142.748286
 20
149.812879
 30
0.0
  0
VERTEX
  5
10E97
  8
ALPHA
 10
-142.317464
 20
150.010013
 30
0.0
  0
VERTEX
  5
10E98
  8
ALPHA
 10
-142.162178
 20
150.463256
 30
0.0
  0
VERTEX
  5
10E99
  8
ALPHA
 10
-142.380349
 20
150.883328
 30
0.0
  0
VERTEX
  5
10E9A
  8
ALPHA
 10
-142.687138
 20
151.026353
 30
0.0
  0
VERTEX
  5
10E9B
  8
ALPHA
 10
-142.280538
 20
151.264097
 30
0.0
  0
VERTEX
  5
10E9C
  8
ALPHA
 10
-142.169865
 20
151.732759
 30
0.0
  0
VERTEX
  5
10E9D
  8
ALPHA
 10
-142.426822
 20
152.127608
 30
0.0
  0
VERTEX
  5
10E9E
  8
ALPHA
 10
-142.649827
 20
152.220158
 30
0.0
  0
VERTEX
  5
10E9F
  8
ALPHA
 10
-142.627813
 20
152.246485
 30
0.0
  0
VERTEX
  5
10EA0
  8
ALPHA
 10
-142.247968
 20
152.522072
 30
0.0
  0
VERTEX
  5
10EA1
  8
ALPHA
 10
-142.183366
 20
153.000481
 30
0.0
  0
VERTEX
  5
10EA2
  8
ALPHA
 10
-142.476576
 20
153.366256
 30
0.0
  0
VERTEX
  5
10EA3
  8
ALPHA
 10
-142.709872
 20
153.436749
 30
0.0
  0
VERTEX
  5
10EA4
  8
ALPHA
 10
-142.570618
 20
153.470939
 30
0.0
  0
VERTEX
  5
10EA5
  8
ALPHA
 10
-142.22006
 20
153.78181
 30
0.0
  0
VERTEX
  5
10EA6
  8
ALPHA
 10
-142.202375
 20
154.265709
 30
0.0
  0
VERTEX
  5
10EA7
  8
ALPHA
 10
-142.529305
 20
154.6006
 30
0.0
  0
VERTEX
  5
10EA8
  8
ALPHA
 10
-142.756043
 20
154.64801
 30
0.0
  0
VERTEX
  5
10EA9
  8
ALPHA
 10
-142.515861
 20
154.701511
 30
0.0
  0
VERTEX
  5
10EAA
  8
ALPHA
 10
-142.197123
 20
155.04482
 30
0.0
  0
VERTEX
  5
10EAB
  8
ALPHA
 10
-142.226583
 20
155.527967
 30
0.0
  0
VERTEX
  5
10EAC
  8
ALPHA
 10
-142.584701
 20
155.83029
 30
0.0
  0
VERTEX
  5
10EAD
  8
ALPHA
 10
-142.694688
 20
155.861393
 30
0.0
  0
VERTEX
  5
10EAE
  8
ALPHA
 10
-142.463847
 20
155.937551
 30
0.0
  0
VERTEX
  5
10EAF
  8
ALPHA
 10
-142.179463
 20
156.309935
 30
0.0
  0
VERTEX
  5
10EB0
  8
ALPHA
 10
-142.255685
 20
156.786029
 30
0.0
  0
VERTEX
  5
10EB1
  8
ALPHA
 10
-142.642457
 20
157.052635
 30
0.0
  0
VERTEX
  5
10EB2
  8
ALPHA
 10
-142.635119
 20
157.078752
 30
0.0
  0
VERTEX
  5
10EB3
  8
ALPHA
 10
-142.414884
 20
157.176346
 30
0.0
  0
VERTEX
  5
10EB4
  8
ALPHA
 10
-142.167387
 20
157.576984
 30
0.0
  0
VERTEX
  5
10EB5
  8
ALPHA
 10
-142.289373
 20
158.041495
 30
0.0
  0
VERTEX
  5
10EB6
  8
ALPHA
 10
-142.702266
 20
158.268646
 30
0.0
  0
VERTEX
  5
10EB7
  8
ALPHA
 10
-142.36928
 20
158.419811
 30
0.0
  0
VERTEX
  5
10EB8
  8
ALPHA
 10
-142.161201
 20
158.846118
 30
0.0
  0
VERTEX
  5
10EB9
  8
ALPHA
 10
-142.32734
 20
159.294301
 30
0.0
  0
VERTEX
  5
10EBA
  8
ALPHA
 10
-142.763822
 20
159.481903
 30
0.0
  0
SEQEND
  5
10EBB
  8
ALPHA
  0
POLYLINE
  5
10A8C
  8
ALPHA
 66
     1
 10
0.0
 20
0.0
 30
0.0
 70
   128
  0
VERTEX
  5
10EBC
  8
ALPHA
 10
-148.837956
 20
139.493997
 30
0.0
  0
VERTEX
  5
10EBD
  8
ALPHA
 10
-148.56124
 20
139.523925
 30
0.0
  0
VERTEX
  5
10EBE
  8
ALPHA
 10
-147.835157
 20
139.602455
 30
0.0
  0
VERTEX
  5
10EBF
  8
ALPHA
 10
-145.659272
 20
139.837789
 30
0.0
  0
VERTEX
  5
10EC0
  8
ALPHA
 10
-143.55907
 20
140.064938
 30
0.0
  0
VERTEX
  5
10EC1
  8
ALPHA
 10
-142.92759
 20
140.133236
 30
0.0
  0
VERTEX
  5
10EC2
  8
ALPHA
 10
-142.734059
 20
140.151592
 30
0.0
  0
VERTEX
  5
10EC3
  8
ALPHA
 10
-142.307965
 20
140.35967
 30
0.0
  0
VERTEX
  5
10EC4
  8
ALPHA
 10
-142.163539
 20
140.816004
 30
0.0
  0
VERTEX
  5
10EC5
  8
ALPHA
 10
-142.391901
 20
141.229897
 30
0.0
  0
VERTEX
  5
10EC6
  8
ALPHA
 10
-142.673118
 20
141.365897
 30
0.0
  0
VERTEX
  5
10EC7
  8
ALPHA
 10
-142.272055
 20
141.612846
 30
0.0
  0
VERTEX
  5
10EC8
  8
ALPHA
 10
-142.172707
 20
142.084113
 30
0.0
  0
VERTEX
  5
10EC9
  8
ALPHA
 10
-142.438965
 20
142.470833
 30
0.0
  0
VERTEX
  5
10ECA
  8
ALPHA
 10
-142.664661
 20
142.557644
 30
0.0
  0
VERTEX
  5
10ECB
  8
ALPHA
 10
-142.613303
 20
142.584827
 30
0.0
  0
VERTEX
  5
10ECC
  8
ALPHA
 10
-142.240542
 20
142.869611
 30
0.0
  0
VERTEX
  5
10ECD
  8
ALPHA
 10
-142.187614
 20
143.350134
 30
0.0
  0
VERTEX
  5
10ECE
  8
ALPHA
 10
-142.489491
 20
143.708004
 30
0.0
  0
VERTEX
  5
10ECF
  8
ALPHA
 10
-142.725162
 20
143.772703
 30
0.0
  0
VERTEX
  5
10ED0
  8
ALPHA
 10
-142.556688
 20
143.810485
 30
0.0
  0
VERTEX
  5
10ED1
  8
ALPHA
 10
-142.213848
 20
144.128798
 30
0.0
  0
VERTEX
  5
10ED2
  8
ALPHA
 10
-142.207951
 20
144.612623
 30
0.0
  0
VERTEX
  5
10ED3
  8
ALPHA
 10
-142.542916
 20
144.940099
 30
0.0
  0
VERTEX
  5
10ED4
  8
ALPHA
 10
-142.740554
 20
144.982519
 30
0.0
  0
VERTEX
  5
10ED5
  8
ALPHA
 10
-142.502588
 20
145.041466
 30
0.0
  0
VERTEX
  5
10ED6
  8
ALPHA
 10
-142.192201
 20
145.39109
 30
0.0
  0
VERTEX
  5
10ED7
  8
ALPHA
 10
-142.233412
 20
145.873199
 30
0.0
  0
VERTEX
  5
10ED8
  8
ALPHA
 10
-142.59893
 20
146.167263
 30
0.0
  0
VERTEX
  5
10ED9
  8
ALPHA
 10
-142.679617
 20
146.196074
 30
0.0
  0
VERTEX
  5
10EDA
  8
ALPHA
 10
-142.451308
 20
146.277527
 30
0.0
  0
VERTEX
  5
10EDB
  8
ALPHA
 10
-142.175908
 20
146.65806
 30
0.0
  0
VERTEX
  5
10EDC
  8
ALPHA
 10
-142.263689
 20
147.130964
 30
0.0
  0
VERTEX
  5
10EDD
  8
ALPHA
 10
-142.657229
 20
147.387596
 30
0.0
  0
VERTEX
  5
10EDE
  8
ALPHA
 10
-142.620541
 20
147.414196
 30
0.0
  0
VERTEX
  5
10EDF
  8
ALPHA
 10
-142.403156
 20
147.516733
 30
0.0
  0
VERTEX
  5
10EE0
  8
ALPHA
 10
-142.165276
 20
147.922982
 30
0.0
  0
VERTEX
  5
10EE1
  8
ALPHA
 10
-142.298476
 20
148.384357
 30
0.0
  0
VERTEX
  5
10EE2
  8
ALPHA
 10
-142.717504
 20
148.602765
 30
0.0
  0
VERTEX
  5
10EE3
  8
ALPHA
 10
-142.358439
 20
148.761416
 30
0.0
  0
VERTEX
  5
10EE4
  8
ALPHA
 10
-142.160611
 20
149.193009
 30
0.0
  0
VERTEX
  5
10EE5
  8
ALPHA
 10
-142.337465
 20
149.635798
 30
0.0
  0
VERTEX
  5
10EE6
  8
ALPHA
 10
-142.748286
 20
149.812879
 30
0.0
  0
VERTEX
  5
10EE7
  8
ALPHA
 10
-142.317464
 20
150.010013
 30
0.0
  0
VERTEX
  5
10EE8
  8
ALPHA
 10
-142.162178
 20
150.463256
 30
0.0
  0
VERTEX
  5
10EE9
  8
ALPHA
 10
-142.380349
 20
150.883328
 30
0.0
  0
VERTEX
  5
10EEA
  8
ALPHA
 10
-142.687138
 20
151.026353
 30
0.0
  0
VERTEX
  5
10EEB
  8
ALPHA
 10
-142.280538
 20
151.264097
 30
0.0
  0
VERTEX
  5
10EEC
  8
ALPHA
 10
-142.169865
 20
151.732759
 30
0.0
  0
VERTEX
  5
10EED
  8
ALPHA
 10
-142.426822
 20
152.127608
 30
0.0
  0
VERTEX
  5
10EEE
  8
ALPHA
 10
-142.649827
 20
152.220158
 30
0.0
  0
VERTEX
  5
10EEF
  8
ALPHA
 10
-142.627813
 20
152.246485
 30
0.0
  0
VERTEX
  5
10EF0
  8
ALPHA
 10
-142.247968
 20
152.522072
 30
0.0
  0
VERTEX
  5
10EF1
  8
ALPHA
 10
-142.183366
 20
153.000481
 30
0.0
  0
VERTEX
  5
10EF2
  8
ALPHA
 10
-142.476576
 20
153.366256
 30
0.0
  0
VERTEX
  5
10EF3
  8
ALPHA
 10
-142.709872
 20
153.436749
 30
0.0
  0
VERTEX
  5
10EF4
  8
ALPHA
 10
-142.570618
 20
153.470939
 30
0.0
  0
VERTEX
  5
10EF5
  8
ALPHA
 10
-142.22006
 20
153.78181
 30
0.0
  0
VERTEX
  5
10EF6
  8
ALPHA
 10
-142.202375
 20
154.265709
 30
0.0
  0
VERTEX
  5
10EF7
  8
ALPHA
 10
-142.529305
 20
154.6006
 30
0.0
  0
VERTEX
  5
10EF8
  8
ALPHA
 10
-142.756043
 20
154.64801
 30
0.0
  0
VERTEX
  5
10EF9
  8
ALPHA
 10
-142.515861
 20
154.701511
 30
0.0
  0
VERTEX
  5
10EFA
  8
ALPHA
 10
-142.197123
 20
155.04482
 30
0.0
  0
VERTEX
  5
10EFB
  8
ALPHA
 10
-142.226583
 20
155.527967
 30
0.0
  0
VERTEX
  5
10EFC
  8
ALPHA
 10
-142.584701
 20
155.83029
 30
0.0
  0
VERTEX
  5
10EFD
  8
ALPHA
 10
-142.694688
 20
155.861393
 30
0.0
  0
VERTEX
  5
10EFE
  8
ALPHA
 10
-142.463847
 20
155.937551
 30
0.0
  0
VERTEX
  5
10EFF
  8
ALPHA
 10
-142.179463
 20
156.309935
 30
0.0
  0
VERTEX
  5
10F00
  8
ALPHA
 10
-142.255685
 20
156.786029
 30
0.0
  0
VERTEX
  5
10F01
  8
ALPHA
 10
-142.642457
 20
157.052635
 30
0.0
  0
VERTEX
  5
10F02
  8
ALPHA
 10
-142.635119
 20
157.078752
 30
0.0
  0
VERTEX
  5
10F03
  8
ALPHA
 10
-142.414884
 20
157.176346
 30
0.0
  0
VERTEX
  5
10F04
  8
ALPHA
 10
-142.167387
 20
157.576984
 30
0.0
  0
VERTEX
  5
10F05
  8
ALPHA
 10
-142.289373
 20
158.041495
 30
0.0
  0
VERTEX
  5
10F06
  8
ALPHA
 10
-142.702266
 20
158.268646
 30
0.0
  0
VERTEX
  5
10F07
  8
ALPHA
 10
-142.36928
 20
158.419811
 30
0.0
  0
VERTEX
  5
10F08
  8
ALPHA
 10
-142.161201
 20
158.846118
 30
0.0
  0
VERTEX
  5
10F09
  8
ALPHA
 10
-142.32734
 20
159.294301
 30
0.0
  0
VERTEX
  5
10F0A
  8
ALPHA
 10
-142.763822
 20
159.481903
 30
0.0
  0
SEQEND
  5
10F0B
  8
ALPHA
  0
POLYLINE
  5
10A8D
  8
ALPHA
 66
     1
 10
0.0
 20
0.0
 30
0.0
 70
   128
  0
VERTEX
  5
10F0C
  8
ALPHA
 10
-142.763822
 20
159.481903
 30
0.0
  0
VERTEX
  5
10F0D
  8
ALPHA
 10
-143.040599
 20
159.451944
 30
0.0
  0
VERTEX
  5
10F0E
  8
ALPHA
 10
-143.766842
 20
159.373334
 30
0.0
  0
VERTEX
  5
10F0F
  8
ALPHA
 10
-145.943205
 20
159.137761
 30
0.0
  0
VERTEX
  5
10F10
  8
ALPHA
 10
-148.043869
 20
158.910381
 30
0.0
  0
VERTEX
  5
10F11
  8
ALPHA
 10
-148.675488
 20
158.842013
 30
0.0
  0
VERTEX
  5
10F12
  8
ALPHA
 10
-148.869054
 20
158.82364
 30
0.0
  0
VERTEX
  5
10F13
  8
ALPHA
 10
-149.295148
 20
158.615125
 30
0.0
  0
VERTEX
  5
10F14
  8
ALPHA
 10
-149.439575
 20
158.156896
 30
0.0
  0
VERTEX
  5
10F15
  8
ALPHA
 10
-149.211212
 20
157.743695
 30
0.0
  0
VERTEX
  5
10F16
  8
ALPHA
 10
-148.929996
 20
157.607349
 30
0.0
  0
VERTEX
  5
10F17
  8
ALPHA
 10
-149.331059
 20
157.360825
 30
0.0
  0
VERTEX
  5
10F18
  8
ALPHA
 10
-149.430403
 20
156.889755
 30
0.0
  0
VERTEX
  5
10F19
  8
ALPHA
 10
-149.163797
 20
156.502593
 30
0.0
  0
VERTEX
  5
10F1A
  8
ALPHA
 10
-148.937484
 20
156.415605
 30
0.0
  0
VERTEX
  5
10F1B
  8
ALPHA
 10
-148.989009
 20
156.388492
 30
0.0
  0
VERTEX
  5
10F1C
  8
ALPHA
 10
-149.362524
 20
156.104819
 30
0.0
  0
VERTEX
  5
10F1D
  8
ALPHA
 10
-149.41549
 20
155.624852
 30
0.0
  0
VERTEX
  5
10F1E
  8
ALPHA
 10
-149.113158
 20
155.265124
 30
0.0
  0
VERTEX
  5
10F1F
  8
ALPHA
 10
-148.876767
 20
155.199871
 30
0.0
  0
VERTEX
  5
10F20
  8
ALPHA
 10
-149.045788
 20
155.162009
 30
0.0
  0
VERTEX
  5
10F21
  8
ALPHA
 10
-149.38924
 20
154.843741
 30
0.0
  0
VERTEX
  5
10F22
  8
ALPHA
 10
-149.395141
 20
154.360502
 30
0.0
  0
VERTEX
  5
10F23
  8
ALPHA
 10
-149.059599
 20
154.032556
 30
0.0
  0
VERTEX
  5
10F24
  8
ALPHA
 10
-148.861316
 20
153.990043
 30
0.0
  0
VERTEX
  5
10F25
  8
ALPHA
 10
-149.10003
 20
153.931036
 30
0.0
  0
VERTEX
  5
10F26
  8
ALPHA
 10
-149.410901
 20
153.580121
 30
0.0
  0
VERTEX
  5
10F27
  8
ALPHA
 10
-149.369661
 20
153.098045
 30
0.0
  0
VERTEX
  5
10F28
  8
ALPHA
 10
-149.003425
 20
152.804622
 30
0.0
  0
VERTEX
  5
10F29
  8
ALPHA
 10
-148.922477
 20
152.775807
 30
0.0
  0
VERTEX
  5
10F2A
  8
ALPHA
 10
-149.151428
 20
152.694186
 30
0.0
  0
VERTEX
  5
10F2B
  8
ALPHA
 10
-149.427201
 20
152.313203
 30
0.0
  0
VERTEX
  5
10F2C
  8
ALPHA
 10
-149.339354
 20
151.839043
 30
0.0
  0
VERTEX
  5
10F2D
  8
ALPHA
 10
-148.944942
 20
151.581652
 30
0.0
  0
VERTEX
  5
10F2E
  8
ALPHA
 10
-148.981748
 20
151.554949
 30
0.0
  0
VERTEX
  5
10F2F
  8
ALPHA
 10
-149.199678
 20
151.45201
 30
0.0
  0
VERTEX
  5
10F30
  8
ALPHA
 10
-149.437837
 20
151.044931
 30
0.0
  0
VERTEX
  5
10F31
  8
ALPHA
 10
-149.304526
 20
150.583532
 30
0.0
  0
VERTEX
  5
10F32
  8
ALPHA
 10
-148.884454
 20
150.365124
 30
0.0
  0
VERTEX
  5
10F33
  8
ALPHA
 10
-149.244474
 20
150.206474
 30
0.0
  0
VERTEX
  5
10F34
  8
ALPHA
 10
-149.442502
 20
149.77488
 30
0.0
  0
VERTEX
  5
10F35
  8
ALPHA
 10
-149.265482
 20
149.332342
 30
0.0
  0
VERTEX
  5
10F36
  8
ALPHA
 10
-148.853554
 20
149.15501
 30
0.0
  0
VERTEX
  5
10F37
  8
ALPHA
 10
-149.285512
 20
148.957082
 30
0.0
  0
VERTEX
  5
10F38
  8
ALPHA
 10
-149.440935
 20
148.504638
 30
0.0
  0
VERTEX
  5
10F39
  8
ALPHA
 10
-149.222527
 20
148.084958
 30
0.0
  0
VERTEX
  5
10F3A
  8
ALPHA
 10
-148.914929
 20
147.942193
 30
0.0
  0
VERTEX
  5
10F3B
  8
ALPHA
 10
-149.322486
 20
147.704313
 30
0.0
  0
VERTEX
  5
10F3C
  8
ALPHA
 10
-149.433246
 20
147.236706
 30
0.0
  0
VERTEX
  5
10F3D
  8
ALPHA
 10
-149.175965
 20
146.843162
 30
0.0
  0
VERTEX
  5
10F3E
  8
ALPHA
 10
-148.952368
 20
146.751017
 30
0.0
  0
VERTEX
  5
10F3F
  8
ALPHA
 10
-148.974453
 20
146.72474
 30
0.0
  0
VERTEX
  5
10F40
  8
ALPHA
 10
-149.355091
 20
146.448967
 30
0.0
  0
VERTEX
  5
10F41
  8
ALPHA
 10
-149.41974
 20
145.970131
 30
0.0
  0
VERTEX
  5
10F42
  8
ALPHA
 10
-149.126103
 20
145.604816
 30
0.0
  0
VERTEX
  5
10F43
  8
ALPHA
 10
-148.892114
 20
145.534472
 30
0.0
  0
VERTEX
  5
10F44
  8
ALPHA
 10
-149.031819
 20
145.500431
 30
0.0
  0
VERTEX
  5
10F45
  8
ALPHA
 10
-149.383023
 20
145.190494
 30
0.0
  0
VERTEX
  5
10F46
  8
ALPHA
 10
-149.400721
 20
144.707036
 30
0.0
  0
VERTEX
  5
10F47
  8
ALPHA
 10
-149.073245
 20
144.371493
 30
0.0
  0
VERTEX
  5
10F48
  8
ALPHA
 10
-148.845767
 20
144.323885
 30
0.0
  0
VERTEX
  5
10F49
  8
ALPHA
 10
-149.086724
 20
144.270708
 30
0.0
  0
VERTEX
  5
10F4A
  8
ALPHA
 10
-149.405976
 20
143.928195
 30
0.0
  0
VERTEX
  5
10F4B
  8
ALPHA
 10
-149.376495
 20
143.446195
 30
0.0
  0
VERTEX
  5
10F4C
  8
ALPHA
 10
-149.017697
 20
143.144318
 30
0.0
  0
VERTEX
  5
10F4D
  8
ALPHA
 10
-148.907352
 20
143.113171
 30
0.0
  0
VERTEX
  5
10F4E
  8
ALPHA
 10
-149.138862
 20
143.036942
 30
0.0
  0
VERTEX
  5
10F4F
  8
ALPHA
 10
-149.423645
 20
142.663427
 30
0.0
  0
VERTEX
  5
10F50
  8
ALPHA
 10
-149.347366
 20
142.18791
 30
0.0
  0
VERTEX
  5
10F51
  8
ALPHA
 10
-148.959762
 20
141.922537
 30
0.0
  0
VERTEX
  5
10F52
  8
ALPHA
 10
-148.967124
 20
141.896448
 30
0.0
  0
VERTEX
  5
10F53
  8
ALPHA
 10
-149.187927
 20
141.79866
 30
0.0
  0
VERTEX
  5
10F54
  8
ALPHA
 10
-149.435726
 20
141.397597
 30
0.0
  0
VERTEX
  5
10F55
  8
ALPHA
 10
-149.31364
 20
140.932813
 30
0.0
  0
VERTEX
  5
10F56
  8
ALPHA
 10
-148.899747
 20
140.705259
 30
0.0
  0
VERTEX
  5
10F57
  8
ALPHA
 10
-149.233615
 20
140.554597
 30
0.0
  0
VERTEX
  5
10F58
  8
ALPHA
 10
-149.441912
 20
140.128504
 30
0.0
  0
VERTEX
  5
10F59
  8
ALPHA
 10
-149.275621
 20
139.6809
 30
0.0
  0
VERTEX
  5
10F5A
  8
ALPHA
 10
-148.837956
 20
139.493997
 30
0.0
  0
SEQEND
  5
10F5B
  8
ALPHA
  0
POLYLINE
  5
10A8E
  8
ALPHA
 66
     1
 10
0.0
 20
0.0
 30
0.0
 70
   128
  0
VERTEX
  5
10F5C
  8
ALPHA
 10
-142.763822
 20
159.481903
 30
0.0
  0
VERTEX
  5
10F5D
  8
ALPHA
 10
-143.040599
 20
159.451944
 30
0.0
  0
VERTEX
  5
10F5E
  8
ALPHA
 10
-143.766842
 20
159.373334
 30
0.0
  0
VERTEX
  5
10F5F
  8
ALPHA
 10
-145.943205
 20
159.137761
 30
0.0
  0
VERTEX
  5
10F60
  8
ALPHA
 10
-148.043869
 20
158.910381
 30
0.0
  0
VERTEX
  5
10F61
  8
ALPHA
 10
-148.675488
 20
158.842013
 30
0.0
  0
VERTEX
  5
10F62
  8
ALPHA
 10
-148.869054
 20
158.82364
 30
0.0
  0
VERTEX
  5
10F63
  8
ALPHA
 10
-149.295148
 20
158.615125
 30
0.0
  0
VERTEX
  5
10F64
  8
ALPHA
 10
-149.439575
 20
158.156896
 30
0.0
  0
VERTEX
  5
10F65
  8
ALPHA
 10
-149.211212
 20
157.743695
 30
0.0
  0
VERTEX
  5
10F66
  8
ALPHA
 10
-148.929996
 20
157.607349
 30
0.0
  0
VERTEX
  5
10F67
  8
ALPHA
 10
-149.331059
 20
157.360825
 30
0.0
  0
VERTEX
  5
10F68
  8
ALPHA
 10
-149.430403
 20
156.889755
 30
0.0
  0
VERTEX
  5
10F69
  8
ALPHA
 10
-149.163797
 20
156.502593
 30
0.0
  0
VERTEX
  5
10F6A
  8
ALPHA
 10
-148.937484
 20
156.415605
 30
0.0
  0
VERTEX
  5
10F6B
  8
ALPHA
 10
-148.989009
 20
156.388492
 30
0.0
  0
VERTEX
  5
10F6C
  8
ALPHA
 10
-149.362524
 20
156.104819
 30
0.0
  0
VERTEX
  5
10F6D
  8
ALPHA
 10
-149.41549
 20
155.624852
 30
0.0
  0
VERTEX
  5
10F6E
  8
ALPHA
 10
-149.113158
 20
155.265124
 30
0.0
  0
VERTEX
  5
10F6F
  8
ALPHA
 10
-148.876767
 20
155.199871
 30
0.0
  0
VERTEX
  5
10F70
  8
ALPHA
 10
-149.045788
 20
155.162009
 30
0.0
  0
VERTEX
  5
10F71
  8
ALPHA
 10
-149.38924
 20
154.843741
 30
0.0
  0
VERTEX
  5
10F72
  8
ALPHA
 10
-149.395141
 20
154.360502
 30
0.0
  0
VERTEX
  5
10F73
  8
ALPHA
 10
-149.059599
 20
154.032556
 30
0.0
  0
VERTEX
  5
10F74
  8
ALPHA
 10
-148.861316
 20
153.990043
 30
0.0
  0
VERTEX
  5
10F75
  8
ALPHA
 10
-149.10003
 20
153.931036
 30
0.0
  0
VERTEX
  5
10F76
  8
ALPHA
 10
-149.410901
 20
153.580121
 30
0.0
  0
VERTEX
  5
10F77
  8
ALPHA
 10
-149.369661
 20
153.098045
 30
0.0
  0
VERTEX
  5
10F78
  8
ALPHA
 10
-149.003425
 20
152.804622
 30
0.0
  0
VERTEX
  5
10F79
  8
ALPHA
 10
-148.922477
 20
152.775807
 30
0.0
  0
VERTEX
  5
10F7A
  8
ALPHA
 10
-149.151428
 20
152.694186
 30
0.0
  0
VERTEX
  5
10F7B
  8
ALPHA
 10
-149.427201
 20
152.313203
 30
0.0
  0
VERTEX
  5
10F7C
  8
ALPHA
 10
-149.339354
 20
151.839043
 30
0.0
  0
VERTEX
  5
10F7D
  8
ALPHA
 10
-148.944942
 20
151.581652
 30
0.0
  0
VERTEX
  5
10F7E
  8
ALPHA
 10
-148.981748
 20
151.554949
 30
0.0
  0
VERTEX
  5
10F7F
  8
ALPHA
 10
-149.199678
 20
151.45201
 30
0.0
  0
VERTEX
  5
10F80
  8
ALPHA
 10
-149.437837
 20
151.044931
 30
0.0
  0
VERTEX
  5
10F81
  8
ALPHA
 10
-149.304526
 20
150.583532
 30
0.0
  0
VERTEX
  5
10F82
  8
ALPHA
 10
-148.884454
 20
150.365124
 30
0.0
  0
VERTEX
  5
10F83
  8
ALPHA
 10
-149.244474
 20
150.206474
 30
0.0
  0
VERTEX
  5
10F84
  8
ALPHA
 10
-149.442502
 20
149.77488
 30
0.0
  0
VERTEX
  5
10F85
  8
ALPHA
 10
-149.265482
 20
149.332342
 30
0.0
  0
VERTEX
  5
10F86
  8
ALPHA
 10
-148.853554
 20
149.15501
 30
0.0
  0
VERTEX
  5
10F87
  8
ALPHA
 10
-149.285512
 20
148.957082
 30
0.0
  0
VERTEX
  5
10F88
  8
ALPHA
 10
-149.440935
 20
148.504638
 30
0.0
  0
VERTEX
  5
10F89
  8
ALPHA
 10
-149.222527
 20
148.084958
 30
0.0
  0
VERTEX
  5
10F8A
  8
ALPHA
 10
-148.914929
 20
147.942193
 30
0.0
  0
VERTEX
  5
10F8B
  8
ALPHA
 10
-149.322486
 20
147.704313
 30
0.0
  0
VERTEX
  5
10F8C
  8
ALPHA
 10
-149.433246
 20
147.236706
 30
0.0
  0
VERTEX
  5
10F8D
  8
ALPHA
 10
-149.175965
 20
146.843162
 30
0.0
  0
VERTEX
  5
10F8E
  8
ALPHA
 10
-148.952368
 20
146.751017
 30
0.0
  0
VERTEX
  5
10F8F
  8
ALPHA
 10
-148.974453
 20
146.72474
 30
0.0
  0
VERTEX
  5
10F90
  8
ALPHA
 10
-149.355091
 20
146.448967
 30
0.0
  0
VERTEX
  5
10F91
  8
ALPHA
 10
-149.41974
 20
145.970131
 30
0.0
  0
VERTEX
  5
10F92
  8
ALPHA
 10
-149.126103
 20
145.604816
 30
0.0
  0
VERTEX
  5
10F93
  8
ALPHA
 10
-148.892114
 20
145.534472
 30
0.0
  0
VERTEX
  5
10F94
  8
ALPHA
 10
-149.031819
 20
145.500431
 30
0.0
  0
VERTEX
  5
10F95
  8
ALPHA
 10
-149.383023
 20
145.190494
 30
0.0
  0
VERTEX
  5
10F96
  8
ALPHA
 10
-149.400721
 20
144.707036
 30
0.0
  0
VERTEX
  5
10F97
  8
ALPHA
 10
-149.073245
 20
144.371493
 30
0.0
  0
VERTEX
  5
10F98
  8
ALPHA
 10
-148.845767
 20
144.323885
 30
0.0
  0
VERTEX
  5
10F99
  8
ALPHA
 10
-149.086724
 20
144.270708
 30
0.0
  0
VERTEX
  5
10F9A
  8
ALPHA
 10
-149.405976
 20
143.928195
 30
0.0
  0
VERTEX
  5
10F9B
  8
ALPHA
 10
-149.376495
 20
143.446195
 30
0.0
  0
VERTEX
  5
10F9C
  8
ALPHA
 10
-149.017697
 20
143.144318
 30
0.0
  0
VERTEX
  5
10F9D
  8
ALPHA
 10
-148.907352
 20
143.113171
 30
0.0
  0
VERTEX
  5
10F9E
  8
ALPHA
 10
-149.138862
 20
143.036942
 30
0.0
  0
VERTEX
  5
10F9F
  8
ALPHA
 10
-149.423645
 20
142.663427
 30
0.0
  0
VERTEX
  5
10FA0
  8
ALPHA
 10
-149.347366
 20
142.18791
 30
0.0
  0
VERTEX
  5
10FA1
  8
ALPHA
 10
-148.959762
 20
141.922537
 30
0.0
  0
VERTEX
  5
10FA2
  8
ALPHA
 10
-148.967124
 20
141.896448
 30
0.0
  0
VERTEX
  5
10FA3
  8
ALPHA
 10
-149.187927
 20
141.79866
 30
0.0
  0
VERTEX
  5
10FA4
  8
ALPHA
 10
-149.435726
 20
141.397597
 30
0.0
  0
VERTEX
  5
10FA5
  8
ALPHA
 10
-149.31364
 20
140.932813
 30
0.0
  0
VERTEX
  5
10FA6
  8
ALPHA
 10
-148.899747
 20
140.705259
 30
0.0
  0
VERTEX
  5
10FA7
  8
ALPHA
 10
-149.233615
 20
140.554597
 30
0.0
  0
VERTEX
  5
10FA8
  8
ALPHA
 10
-149.441912
 20
140.128504
 30
0.0
  0
VERTEX
  5
10FA9
  8
ALPHA
 10
-149.275621
 20
139.6809
 30
0.0
  0
VERTEX
  5
10FAA
  8
ALPHA
 10
-148.837956
 20
139.493997
 30
0.0
  0
SEQEND
  5
10FAB
  8
ALPHA
  0
POLYLINE
  5
10A8F
  8
ALPHA
 66
     1
 10
0.0
 20
0.0
 30
0.0
 70
   128
  0
VERTEX
  5
10FAC
  8
ALPHA
 10
-141.79792
 20
122.258839
 30
0.0
  0
VERTEX
  5
10FAD
  8
ALPHA
 10
-141.739223
 20
122.419957
 30
0.0
  0
VERTEX
  5
10FAE
  8
ALPHA
 10
-141.578786
 20
122.860344
 30
0.0
  0
VERTEX
  5
10FAF
  8
ALPHA
 10
-141.046605
 20
124.32114
 30
0.0
  0
VERTEX
  5
10FB0
  8
ALPHA
 10
-139.794415
 20
127.758309
 30
0.0
  0
VERTEX
  5
10FB1
  8
ALPHA
 10
-139.450063
 20
128.70353
 30
0.0
  0
VERTEX
  5
10FB2
  8
ALPHA
 10
-139.385562
 20
128.952449
 30
0.0
  0
VERTEX
  5
10FB3
  8
ALPHA
 10
-139.302104
 20
129.490415
 30
0.0
  0
VERTEX
  5
10FB4
  8
ALPHA
 10
-139.264015
 20
130.042461
 30
0.0
  0
VERTEX
  5
10FB5
  8
ALPHA
 10
-139.261627
 20
130.182351
 30
0.0
  0
VERTEX
  5
10FB6
  8
ALPHA
 10
-139.275382
 20
130.66275
 30
0.0
  0
VERTEX
  5
10FB7
  8
ALPHA
 10
-139.477494
 20
131.914653
 30
0.0
  0
VERTEX
  5
10FB8
  8
ALPHA
 10
-140.529242
 20
134.118969
 30
0.0
  0
VERTEX
  5
10FB9
  8
ALPHA
 10
-142.296063
 20
135.765568
 30
0.0
  0
SEQEND
  5
10FBA
  8
ALPHA
  0
POLYLINE
  5
10A90
  8
ALPHA
 66
     1
 10
0.0
 20
0.0
 30
0.0
 70
   128
  0
VERTEX
  5
10FBB
  8
ALPHA
 10
-141.79792
 20
122.258839
 30
0.0
  0
VERTEX
  5
10FBC
  8
ALPHA
 10
-141.739223
 20
122.419957
 30
0.0
  0
VERTEX
  5
10FBD
  8
ALPHA
 10
-141.578786
 20
122.860344
 30
0.0
  0
VERTEX
  5
10FBE
  8
ALPHA
 10
-141.046605
 20
124.32114
 30
0.0
  0
VERTEX
  5
10FBF
  8
ALPHA
 10
-139.794415
 20
127.758309
 30
0.0
  0
VERTEX
  5
10FC0
  8
ALPHA
 10
-139.450063
 20
128.70353
 30
0.0
  0
VERTEX
  5
10FC1
  8
ALPHA
 10
-139.385562
 20
128.952449
 30
0.0
  0
VERTEX
  5
10FC2
  8
ALPHA
 10
-139.302104
 20
129.490415
 30
0.0
  0
VERTEX
  5
10FC3
  8
ALPHA
 10
-139.264015
 20
130.042461
 30
0.0
  0
VERTEX
  5
10FC4
  8
ALPHA
 10
-139.261627
 20
130.182351
 30
0.0
  0
VERTEX
  5
10FC5
  8
ALPHA
 10
-139.275382
 20
130.66275
 30
0.0
  0
VERTEX
  5
10FC6
  8
ALPHA
 10
-139.477494
 20
131.914653
 30
0.0
  0
VERTEX
  5
10FC7
  8
ALPHA
 10
-140.529242
 20
134.118969
 30
0.0
  0
VERTEX
  5
10FC8
  8
ALPHA
 10
-142.296063
 20
135.765568
 30
0.0
  0
SEQEND
  5
10FC9
  8
ALPHA
  0
LINE
  5
10A91
  8
ALPHA
 10
-139.561713
 20
122.258839
 30
0.0
 11
-145.802225
 21
122.258839
 31
0.0
  0
LINE
  5
10A92
  8
ALPHA
 10
-148.837958
 20
141.910302
 30
0.0
 11
-142.763822
 21
142.565774
 31
0.0
  0
LINE
  5
10A93
  8
ALPHA
 10
-148.837958
 20
143.117117
 30
0.0
 11
-142.763822
 21
143.773925
 31
0.0
  0
LINE
  5
10A94
  8
ALPHA
 10
-148.837958
 20
140.702151
 30
0.0
 11
-142.765159
 21
141.358955
 31
0.0
  0
LINE
  5
10A95
  8
ALPHA
 10
-142.801624
 20
138.939983
 30
0.0
 11
-148.804064
 21
138.939983
 31
0.0
  0
LINE
  5
10A96
  8
ALPHA
 10
-142.801624
 20
138.939983
 30
0.0
 11
-148.804064
 21
138.939983
 31
0.0
  0
CIRCLE
  5
10A97
  8
ALPHA
 10
-142.695738
 20
139.542057
 30
0.0
 40
0.603407
  0
CIRCLE
  5
10A98
  8
ALPHA
 10
-142.695738
 20
139.542057
 30
0.0
 40
0.603407
  0
LINE
  5
10A99
  8
ALPHA
 10
-148.05376
 20
138.939983
 30
0.0
 11
-143.549456
 21
138.939983
 31
0.0
  0
LINE
  5
10A9A
  8
ALPHA
 10
-143.368566
 20
140.086727
 30
0.0
 11
-143.368566
 21
138.939983
 31
0.0
  0
LINE
  5
10A9B
  8
ALPHA
 10
-148.233214
 20
139.560746
 30
0.0
 11
-148.233214
 21
138.939983
 31
0.0
  0
LINE
  5
10A9C
  8
ALPHA
 10
-148.233214
 20
139.560746
 30
0.0
 11
-148.233214
 21
138.939983
 31
0.0
  0
LINE
  5
10A9D
  8
ALPHA
 10
-143.368566
 20
138.939983
 30
0.0
 11
-143.368566
 21
140.086727
 31
0.0
  0
LINE
  5
10A9E
  8
ALPHA
 10
-148.804064
 20
138.939983
 30
0.0
 11
-149.328164
 21
135.765568
 31
0.0
  0
LINE
  5
10A9F
  8
ALPHA
 10
-142.276285
 20
135.765568
 30
0.0
 11
-142.801624
 21
138.939983
 31
0.0
  0
LINE
  5
10AA0
  8
ALPHA
 10
-148.837958
 20
156.407456
 30
0.0
 11
-142.763822
 21
157.064931
 31
0.0
  0
LINE
  5
10AA1
  8
ALPHA
 10
-148.837958
 20
152.781665
 30
0.0
 11
-142.763822
 21
153.43914
 31
0.0
  0
LINE
  5
10AA2
  8
ALPHA
 10
-148.837958
 20
153.990487
 30
0.0
 11
-142.763822
 21
154.647962
 31
0.0
  0
LINE
  5
10AA3
  8
ALPHA
 10
-148.837958
 20
155.198638
 30
0.0
 11
-142.763822
 21
155.857446
 31
0.0
  0
LINE
  5
10AA4
  8
ALPHA
 10
-148.837958
 20
149.155207
 30
0.0
 11
-142.763822
 21
149.812683
 31
0.0
  0
LINE
  5
10AA5
  8
ALPHA
 10
-148.837958
 20
150.363359
 30
0.0
 11
-142.763822
 21
151.0215
 31
0.0
  0
LINE
  5
10AA6
  8
ALPHA
 10
-148.837958
 20
151.572181
 30
0.0
 11
-142.763822
 21
152.230989
 31
0.0
  0
LINE
  5
10AA7
  8
ALPHA
 10
-148.837958
 20
146.740238
 30
0.0
 11
-142.763822
 21
147.397046
 31
0.0
  0
LINE
  5
10AA8
  8
ALPHA
 10
-148.837958
 20
145.532086
 30
0.0
 11
-142.763822
 21
146.190228
 31
0.0
  0
LINE
  5
10AA9
  8
ALPHA
 10
-148.837958
 20
147.947056
 30
0.0
 11
-142.763822
 21
148.604531
 31
0.0
  0
LINE
  5
10AAA
  8
ALPHA
 10
-145.140076
 20
159.697501
 30
0.0
 11
-142.763822
 21
159.481904
 31
0.0
  0
LINE
  5
10AAB
  8
ALPHA
 10
-142.763822
 20
159.481904
 30
0.0
 11
-145.140076
 21
159.697501
 31
0.0
  0
LINE
  5
10AAC
  8
ALPHA
 10
-148.837958
 20
157.614274
 30
0.0
 11
-142.763822
 21
158.271749
 31
0.0
  0
POLYLINE
  5
10AAD
  8
ALPHA
 66
     1
 10
0.0
 20
0.0
 30
0.0
 70
   128
  0
VERTEX
  5
10FCA
  8
ALPHA
 10
-148.837956
 20
160.03258
 30
0.0
  0
VERTEX
  5
10FCB
  8
ALPHA
 10
-148.532164
 20
160.067623
 30
0.0
  0
VERTEX
  5
10FCC
  8
ALPHA
 10
-147.85942
 20
160.144717
 30
0.0
  0
VERTEX
  5
10FCD
  8
ALPHA
 10
-147.186676
 20
160.221812
 30
0.0
  0
VERTEX
  5
10FCE
  8
ALPHA
 10
-146.880884
 20
160.256855
 30
0.0
  0
VERTEX
  5
10FCF
  8
ALPHA
 10
-146.137741
 20
160.445014
 30
0.0
  0
VERTEX
  5
10FD0
  8
ALPHA
 10
-145.714616
 20
160.80845
 30
0.0
  0
VERTEX
  5
10FD1
  8
ALPHA
 10
-145.480495
 20
161.960283
 30
0.0
  0
SEQEND
  5
10FD2
  8
ALPHA
  0
POLYLINE
  5
10AAE
  8
ALPHA
 66
     1
 10
0.0
 20
0.0
 30
0.0
 70
   128
  0
VERTEX
  5
10FD3
  8
ALPHA
 10
-148.837956
 20
160.03258
 30
0.0
  0
VERTEX
  5
10FD4
  8
ALPHA
 10
-148.532164
 20
160.067623
 30
0.0
  0
VERTEX
  5
10FD5
  8
ALPHA
 10
-147.85942
 20
160.144717
 30
0.0
  0
VERTEX
  5
10FD6
  8
ALPHA
 10
-147.186676
 20
160.221812
 30
0.0
  0
VERTEX
  5
10FD7
  8
ALPHA
 10
-146.880884
 20
160.256855
 30
0.0
  0
VERTEX
  5
10FD8
  8
ALPHA
 10
-146.137741
 20
160.445014
 30
0.0
  0
VERTEX
  5
10FD9
  8
ALPHA
 10
-145.714616
 20
160.80845
 30
0.0
  0
VERTEX
  5
10FDA
  8
ALPHA
 10
-145.480495
 20
161.960283
 30
0.0
  0
SEQEND
  5
10FDB
  8
ALPHA
  0
POLYLINE
  5
10AAF
  8
ALPHA
 66
     1
 10
0.0
 20
0.0
 30
0.0
 70
   128
  0
VERTEX
  5
10FDC
  8
ALPHA
 10
-146.856854
 20
159.045366
 30
0.0
  0
VERTEX
  5
10FDD
  8
ALPHA
 10
-147.483687
 20
158.97546
 30
0.0
  0
VERTEX
  5
10FDE
  8
ALPHA
 10
-148.528409
 20
158.858949
 30
0.0
  0
VERTEX
  5
10FDF
  8
ALPHA
 10
-149.265482
 20
159.001312
 30
0.0
  0
VERTEX
  5
10FE0
  8
ALPHA
 10
-149.395141
 20
159.663407
 30
0.0
  0
VERTEX
  5
10FE1
  8
ALPHA
 10
-148.837956
 20
160.03258
 30
0.0
  0
SEQEND
  5
10FE2
  8
ALPHA
  0
POLYLINE
  5
10AB0
  8
ALPHA
 66
     1
 10
0.0
 20
0.0
 30
0.0
 70
   128
  0
VERTEX
  5
10FE3
  8
ALPHA
 10
-146.856854
 20
159.045366
 30
0.0
  0
VERTEX
  5
10FE4
  8
ALPHA
 10
-147.483687
 20
158.97546
 30
0.0
  0
VERTEX
  5
10FE5
  8
ALPHA
 10
-148.528409
 20
158.858949
 30
0.0
  0
VERTEX
  5
10FE6
  8
ALPHA
 10
-149.265482
 20
159.001312
 30
0.0
  0
VERTEX
  5
10FE7
  8
ALPHA
 10
-149.395141
 20
159.663407
 30
0.0
  0
VERTEX
  5
10FE8
  8
ALPHA
 10
-148.837956
 20
160.03258
 30
0.0
  0
SEQEND
  5
10FE9
  8
ALPHA
  0
DIMENSION
  5
10AB1
  8
COTATION1
  2
*D10
 10
-185.366939
 20
106.832779
 30
0.0
 11
-185.366939
 21
177.832779
 31
0.0
 70
   128
 13
-145.480495
 23
248.832779
 33
0.0
 14
-162.302225
 24
106.832779
 34
0.0
 50
90.0
  0
DIMENSION
  5
10AD3
  8
COTATION1
  2
*D11
 10
-144.281686
 20
263.832779
 30
0.0
 11
-161.230495
 21
263.832779
 31
0.0
 70
   128
  1
%%c1.2
 13
-145.480495
 23
248.832779
 33
0.0
 14
-144.281686
 24
248.679259
 34
0.0
  0
LINE
  5
10AD4
  8
ALPHA
 10
-145.480495
 20
248.832779
 30
0.0
 11
-144.281686
 21
248.679259
 31
0.0
  0
VIEWPORT
  5
494D
 67
     1
  8
0
 10
4.995325
 20
6.556512
 30
0.0
 40
22.70986
 41
13.988421
 68
    -1
 69
     1
1001
ACAD
1000
MVIEW
1002
{
1070
    16
1010
0.0
1020
0.0
1030
0.0
1010
0.0
1020
0.0
1030
1.0
1040
0.0
1040
13.988421
1040
4.995325
1040
6.556512
1040
50.0
1040
0.0
1040
0.0
1070
     0
1070
   100
1070
     1
1070
     1
1070
     0
1070
     0
1070
     0
1070
     0
1040
0.0
1040
0.0
1040
0.0
1040
10.0
1040
10.0
1040
10.0
1040
10.0
1070
     0
1002
{
1002
}
1002
}
  0
ENDSEC
  0
EOF
