  0
SECTION
  2
HEADER
  9
$ACADVER
  1
AC1009
  9
$INSBASE
 10
-146.27124
 20
-153.796096
 30
0.0
  9
$EXTMIN
 10
613.440806
 20
-89.974724
 30
0.0
  9
$EXTMAX
 10
656.200082
 20
12.497593
 30
0.0
  9
$LIMMIN
 10
-407.970438
 20
-367.832444
  9
$LIMMAX
 10
429.804077
 20
234.370848
  9
$ORTHOMODE
 70
     1
  9
$REGENMODE
 70
     1
  9
$FILLMODE
 70
     1
  9
$QTEXTMODE
 70
     0
  9
$MIRRTEXT
 70
     1
  9
$DRAGMODE
 70
     2
  9
$LTSCALE
 40
10.0
  9
$OSMODE
 70
   165
  9
$ATTMODE
 70
     1
  9
$TEXTSIZE
 40
6.0
  9
$TRACEWID
 40
1.0
  9
$TEXTSTYLE
  7
ROMANS
  9
$CLAYER
  8
ALPHA_FIN
  9
$CELTYPE
  6
BYLAYER
  9
$CECOLOR
 62
   256
  9
$DIMSCALE
 40
1.0
  9
$DIMASZ
 40
2.0
  9
$DIMEXO
 40
0.3
  9
$DIMDLI
 40
0.1
  9
$DIMRND
 40
0.0
  9
$DIMDLE
 40
0.0
  9
$DIMEXE
 40
0.5
  9
$DIMTP
 40
0.0
  9
$DIMTM
 40
0.0
  9
$DIMTXT
 40
2.0
  9
$DIMCEN
 40
0.0
  9
$DIMTSZ
 40
0.0
  9
$DIMTOL
 70
     0
  9
$DIMLIM
 70
     0
  9
$DIMTIH
 70
     0
  9
$DIMTOH
 70
     0
  9
$DIMSE1
 70
     0
  9
$DIMSE2
 70
     0
  9
$DIMTAD
 70
     1
  9
$DIMZIN
 70
    12
  9
$DIMBLK
  1
OPEN30
  9
$DIMASO
 70
     1
  9
$DIMSHO
 70
     1
  9
$DIMPOST
  1

  9
$DIMAPOST
  1

  9
$DIMALT
 70
     0
  9
$DIMALTD
 70
     2
  9
$DIMALTF
 40
25.4
  9
$DIMLFAC
 40
1.0
  9
$DIMTOFL
 70
     0
  9
$DIMTVP
 40
0.0
  9
$DIMTIX
 70
     0
  9
$DIMSOXD
 70
     0
  9
$DIMSAH
 70
     0
  9
$DIMBLK1
  1

  9
$DIMBLK2
  1

  9
$DIMSTYLE
  2
SC_DEFAUT
  9
$DIMCLRD
 70
     0
  9
$DIMCLRE
 70
     0
  9
$DIMCLRT
 70
     0
  9
$DIMTFAC
 40
1.0
  9
$DIMGAP
 40
0.6
  9
$LUNITS
 70
     2
  9
$LUPREC
 70
     1
  9
$SKETCHINC
 40
0.1
  9
$FILLETRAD
 40
0.0
  9
$AUNITS
 70
     0
  9
$AUPREC
 70
     0
  9
$MENU
  1
acad
  9
$ELEVATION
 40
0.0
  9
$PELEVATION
 40
0.0
  9
$THICKNESS
 40
0.0
  9
$LIMCHECK
 70
     0
  9
$BLIPMODE
 70
     0
  9
$CHAMFERA
 40
0.0
  9
$CHAMFERB
 40
0.0
  9
$SKPOLY
 70
     0
  9
$TDCREATE
 40
2450365.355314
  9
$TDUPDATE
 40
2452587.485761
  9
$TDINDWG
 40
0.528035
  9
$TDUSRTIMER
 40
0.528035
  9
$USRTIMER
 70
     1
  9
$ANGBASE
 50
0.0
  9
$ANGDIR
 70
     0
  9
$PDMODE
 70
    32
  9
$PDSIZE
 40
0.0
  9
$PLINEWID
 40
0.0
  9
$COORDS
 70
     2
  9
$SPLFRAME
 70
     0
  9
$SPLINETYPE
 70
     6
  9
$SPLINESEGS
 70
     8
  9
$ATTDIA
 70
     0
  9
$ATTREQ
 70
     1
  9
$HANDLING
 70
     1
  9
$HANDSEED
  5
3C02
  9
$SURFTAB1
 70
     6
  9
$SURFTAB2
 70
     6
  9
$SURFTYPE
 70
     6
  9
$SURFU
 70
     6
  9
$SURFV
 70
     6
  9
$UCSNAME
  2

  9
$UCSORG
 10
0.0
 20
0.0
 30
0.0
  9
$UCSXDIR
 10
1.0
 20
0.0
 30
0.0
  9
$UCSYDIR
 10
0.0
 20
1.0
 30
0.0
  9
$PUCSNAME
  2

  9
$PUCSORG
 10
0.0
 20
0.0
 30
0.0
  9
$PUCSXDIR
 10
1.0
 20
0.0
 30
0.0
  9
$PUCSYDIR
 10
0.0
 20
1.0
 30
0.0
  9
$USERI1
 70
     0
  9
$USERI2
 70
     0
  9
$USERI3
 70
     0
  9
$USERI4
 70
     0
  9
$USERI5
 70
     0
  9
$USERR1
 40
0.0
  9
$USERR2
 40
0.0
  9
$USERR3
 40
0.0
  9
$USERR4
 40
0.0
  9
$USERR5
 40
0.0
  9
$WORLDVIEW
 70
     1
  9
$SHADEDGE
 70
     3
  9
$SHADEDIF
 70
    70
  9
$TILEMODE
 70
     1
  9
$MAXACTVP
 70
    16
  9
$PLIMCHECK
 70
     0
  9
$PEXTMIN
 10
1.000000E+020
 20
1.000000E+020
 30
1.000000E+020
  9
$PEXTMAX
 10
-1.000000E+020
 20
-1.000000E+020
 30
-1.000000E+020
  9
$PLIMMIN
 10
0.0
 20
0.0
  9
$PLIMMAX
 10
12.0
 20
9.0
  9
$UNITMODE
 70
     0
  9
$VISRETAIN
 70
     0
  9
$PLINEGEN
 70
     0
  9
$PSLTSCALE
 70
     0
  0
ENDSEC
  0
SECTION
  2
TABLES
  0
TABLE
  2
VPORT
 70
     2
  0
VPORT
  2
*ACTIVE
 70
     0
 10
0.0
 20
0.0
 11
1.0
 21
1.0
 12
634.798462
 22
-38.727645
 13
0.0
 23
0.0
 14
1.0
 24
1.0
 15
10.0
 25
10.0
 16
0.0
 26
0.0
 36
1.0
 17
0.0
 27
0.0
 37
0.0
 40
103.429722
 41
1.63142
 42
50.0
 43
0.0
 44
0.0
 50
0.0
 51
0.0
 71
     0
 72
   100
 73
     1
 74
     0
 75
     0
 76
     0
 77
     0
 78
     0
  0
ENDTAB
  0
TABLE
  2
LTYPE
 70
    25
  0
LTYPE
  2
CONTINUOUS
 70
     0
  3
Solid line
 72
    65
 73
     0
 40
0.0
  0
LTYPE
  2
AXES2
 70
     0
  3
___ _ ___ _ ___ _ ___ _ ___ _ ___ _ ___ _ ___ _
 72
    65
 73
     4
 40
1.125
 49
0.75
 49
-0.125
 49
0.125
 49
-0.125
  0
LTYPE
  2
ACAD_ISO04W100
 70
     0
  3
ISO Lang gestrichelt punktiert ____ . ____ . __
 72
    65
 73
     4
 40
30.5
 49
24.0
 49
-3.0
 49
0.5
 49
-3.0
  0
LTYPE
  2
AXES
 70
     0
  3
____ _ ____ _ ____ _ ____ _ ____ _ ____ _ ____ 
 72
    65
 73
     4
 40
2.0
 49
1.25
 49
-0.25
 49
0.25
 49
-0.25
  0
LTYPE
  2
AXESX2
 70
     0
  3
________  __  ________  __  ________  __  _____
 72
    65
 73
     4
 40
4.0
 49
2.5
 49
-0.5
 49
0.5
 49
-0.5
  0
LTYPE
  2
TIRETPT
 70
     0
  3
__ . __ . __ . __ . __ . __ . __ . __ . __ . __
 72
    65
 73
     4
 40
1.0
 49
0.5
 49
-0.25
 49
0.0
 49
-0.25
  0
LTYPE
  2
TIRETPT2
 70
     0
  3
_._._._._._._._._._._._._._._._._._._._._._._._
 72
    65
 73
     4
 40
0.5
 49
0.25
 49
-0.125
 49
0.0
 49
-0.125
  0
LTYPE
  2
TIRETPTX2
 70
     0
  3
____  .  ____  .  ____  .  ____  .  ____  .  __
 72
    65
 73
     4
 40
2.0
 49
1.0
 49
-0.5
 49
0.0
 49
-0.5
  0
LTYPE
  2
DISCONTINU
 70
     0
  3
__ __ __ __ __ __ __ __ __ __ __ __ __ __ __ __
 72
    65
 73
     2
 40
0.75
 49
0.5
 49
-0.25
  0
LTYPE
  2
DISCONTINU2
 70
     0
  3
_ _ _ _ _ _ _ _ _ _ _ _ _ _ _ _ _ _ _ _ _ _ _ _
 72
    65
 73
     2
 40
0.375
 49
0.25
 49
-0.125
  0
LTYPE
  2
DISCONTINUX2
 70
     0
  3
____  ____  ____  ____  ____  ____  ____  ____ 
 72
    65
 73
     2
 40
1.5
 49
1.0
 49
-0.5
  0
LTYPE
  2
DIVISE
 70
     0
  3
____ . . ____ . . ____ . . ____ . . ____ . . __
 72
    65
 73
     6
 40
1.25
 49
0.5
 49
-0.25
 49
0.0
 49
-0.25
 49
0.0
 49
-0.25
  0
LTYPE
  2
DIVISE2
 70
     0
  3
__..__..__..__..__..__..__..__..__..__..__..__.
 72
    65
 73
     6
 40
0.625
 49
0.25
 49
-0.125
 49
0.0
 49
-0.125
 49
0.0
 49
-0.125
  0
LTYPE
  2
DIVISEX2
 70
     0
  3
________  .  .  ________  .  .  ________  .  . 
 72
    65
 73
     6
 40
2.5
 49
1.0
 49
-0.5
 49
0.0
 49
-0.5
 49
0.0
 49
-0.5
  0
LTYPE
  2
POINTILLE
 70
     0
  3
. . . . . . . . . . . . . . . . . . . . . . . .
 72
    65
 73
     2
 40
0.25
 49
0.0
 49
-0.25
  0
LTYPE
  2
POINTILLE2
 70
     0
  3
...............................................
 72
    65
 73
     2
 40
0.125
 49
0.0
 49
-0.125
  0
LTYPE
  2
POINTILLEX2
 70
     0
  3
.  .  .  .  .  .  .  .  .  .  .  .  .  .  .  . 
 72
    65
 73
     2
 40
0.5
 49
0.0
 49
-0.5
  0
LTYPE
  2
CACHE
 70
     0
  3
__ __ __ __ __ __ __ __ __ __ __ __ __ __ __ __
 72
    65
 73
     2
 40
0.375
 49
0.25
 49
-0.125
  0
LTYPE
  2
CACHE2
 70
     0
  3
_ _ _ _ _ _ _ _ _ _ _ _ _ _ _ _ _ _ _ _ _ _ _ _
 72
    65
 73
     2
 40
0.1875
 49
0.125
 49
-0.0625
  0
LTYPE
  2
CACHEX2
 70
     0
  3
____ ____ ____ ____ ____ ____ ____ ____ ____ __
 72
    65
 73
     2
 40
0.75
 49
0.5
 49
-0.25
  0
LTYPE
  2
FANTOME
 70
     0
  3
______  __  __  ______  __  __  ______  __  __ 
 72
    65
 73
     6
 40
2.5
 49
1.25
 49
-0.25
 49
0.25
 49
-0.25
 49
0.25
 49
-0.25
  0
LTYPE
  2
FANTOME2
 70
     0
  3
___ _ _ ___ _ _ ___ _ _ ___ _ _ ___ _ _ ___ _ _
 72
    65
 73
     6
 40
1.25
 49
0.625
 49
-0.125
 49
0.125
 49
-0.125
 49
0.125
 49
-0.125
  0
LTYPE
  2
FANTOMEX2
 70
     0
  3
____________    ____    ____    ____________   
 72
    65
 73
     6
 40
5.0
 49
2.5
 49
-0.5
 49
0.5
 49
-0.5
 49
0.5
 49
-0.5
  0
LTYPE
  2
0
 70
     0
  3
MEDUSA PEN 0
 72
    65
 73
     0
 40
0.0
  0
LTYPE
  2
AI9-LTYPE1
 70
     0
  3
Illustrator Dash Style No.1
 72
    65
 73
     2
 40
1.33491
 49
1.026935
 49
-0.307975
  0
ENDTAB
  0
TABLE
  2
LAYER
 70
    17
  0
LAYER
  2
0
 70
     0
 62
     7
  6
CONTINUOUS
  0
LAYER
  2
TEXTE_MOYEN
 70
     0
 62
   131
  6
CONTINUOUS
  0
LAYER
  2
ALPHA
 70
     0
 62
   254
  6
CONTINUOUS
  0
LAYER
  2
COTATION1
 70
     0
 62
    50
  6
CONTINUOUS
  0
LAYER
  2
AXE
 70
     0
 62
    80
  6
AXES2
  0
LAYER
  2
DEFPOINTS
 70
     0
 62
     7
  6
CONTINUOUS
  0
LAYER
  2
HACHURES1
 70
     0
 62
   130
  6
CONTINUOUS
  0
LAYER
  2
FMULT
 70
     0
 62
   210
  6
CONTINUOUS
  0
LAYER
  2
FDP_CARTOUCHE
 70
     0
 62
   136
  6
CONTINUOUS
  0
LAYER
  2
FDP_TEXTES
 70
     0
 62
   171
  6
CONTINUOUS
  0
LAYER
  2
FDP_LOGO_MG
 70
     0
 62
    30
  6
CONTINUOUS
  0
LAYER
  2
FDP_LOGO_SCH
 70
     0
 62
    90
  6
CONTINUOUS
  0
LAYER
  2
FDP_FDP
 70
     0
 62
   170
  6
CONTINUOUS
  0
LAYER
  2
POINTILLE_COURT2
 70
     0
 62
    41
  6
CACHE2
  0
LAYER
  2
POINTILLE_MOYEN2
 70
     0
 62
   141
  6
CACHE
  0
LAYER
  2
POINTILLE_LONG2
 70
     0
 62
   241
  6
CACHEX2
  0
LAYER
  2
ALPHA_FIN
 70
     0
 62
   255
  6
CONTINUOUS
  0
ENDTAB
  0
TABLE
  2
STYLE
 70
     5
  0
STYLE
  2
ROMANS
 70
     0
 40
0.0
 41
1.0
 50
0.0
 71
     0
 42
6.0
  3
romans
  4

  0
STYLE
  2
STANDARD
 70
     0
 40
0.2
 41
1.0
 50
0.0
 71
     0
 42
0.2
  3
txt
  4

  0
STYLE
  2
STD
 70
     0
 40
0.0
 41
1.0
 50
0.0
 71
     0
 42
0.0
  3
txt
  4

  0
STYLE
  2
INFOCAR
 70
     0
 40
0.0
 41
1.34
 50
0.0
 71
     0
 42
2.0
  3
ROMANS.SHX
  4

  0
STYLE
  2
CARTOUCHE
 70
     0
 40
0.0
 41
1.0
 50
0.0
 71
     0
 42
0.2
  3
ROMANS.SHX
  4

  0
ENDTAB
  0
TABLE
  2
VIEW
 70
     0
  0
ENDTAB
  0
TABLE
  2
UCS
 70
     0
  0
ENDTAB
  0
TABLE
  2
APPID
 70
     3
  0
APPID
  2
ACAD
 70
     0
  0
APPID
  2
AVE_RENDER
 70
     0
  0
APPID
  2
AVE_MATERIAL
 70
     0
  0
ENDTAB
  0
TABLE
  2
DIMSTYLE
 70
     2
  0
DIMSTYLE
  2
SC_DEFAUT
 70
     0
  3

  4

  5
OPEN30
  6

  7

 40
1.0
 41
2.0
 42
0.3
 43
0.1
 44
0.5
 45
0.0
 46
0.0
 47
0.0
 48
0.0
140
2.0
141
0.0
142
0.0
143
25.4
144
1.0
145
0.0
146
1.0
147
0.6
 71
     0
 72
     0
 73
     0
 74
     0
 75
     0
 76
     0
 77
     1
 78
    12
170
     0
171
     2
172
     0
173
     0
174
     0
175
     0
176
     0
177
     0
178
     0
  0
DIMSTYLE
  2
ROMANS
 70
     0
  3

  4

  5
OPEN30
  6

  7

 40
1.0
 41
2.0
 42
0.5
 43
0.38
 44
0.18
 45
0.0
 46
0.0
 47
0.0
 48
0.0
140
2.0
141
0.09
142
0.0
143
25.4
144
1.0
145
0.0
146
1.0
147
0.5
 71
     0
 72
     0
 73
     0
 74
     0
 75
     0
 76
     0
 77
     1
 78
    12
170
     0
171
     2
172
     0
173
     0
174
     0
175
     0
176
     0
177
     0
178
     0
  0
ENDTAB
  0
ENDSEC
  0
SECTION
  2
BLOCKS
  0
BLOCK
  8
0
  2
$MODEL_SPACE
 70
     0
 10
0.0
 20
0.0
 30
0.0
  3
$MODEL_SPACE
  1

  0
ENDBLK
  5
3B08
  8
0
  0
BLOCK
 67
     1
  8
0
  2
$PAPER_SPACE
 70
     0
 10
0.0
 20
0.0
 30
0.0
  3
$PAPER_SPACE
  1

  0
ENDBLK
  5
3B06
 67
     1
  8
0
  0
BLOCK
  8
0
  2
COTE
 70
     0
 10
0.0
 20
0.0
 30
0.0
  3
COTE
  1

  0
ENDBLK
  5
35
  8
0
  0
BLOCK
  8
0
  2
FOND
 70
     0
 10
0.0
 20
0.0
 30
0.0
  3
FOND
  1

  0
ENDBLK
  5
39
  8
0
  0
BLOCK
  8
0
  2
SCH_ISO
 70
     0
 10
0.0
 20
0.0
 30
0.0
  3
SCH_ISO
  1

  0
ENDBLK
  5
24AD
  8
0
  0
BLOCK
  8
0
  2
_OPEN30
 70
     0
 10
0.0
 20
0.0
 30
0.0
  3
_OPEN30
  1

  0
LINE
  5
27E1
  8
COTATION1
 62
     0
 10
-1.0
 20
0.267949
 30
0.0
 11
0.0
 21
0.0
 31
0.0
1001
ACAD
1000
RTLwPs
1070
   158
  0
LINE
  5
27E2
  8
COTATION1
 62
     0
 10
0.0
 20
0.0
 30
0.0
 11
-1.0
 21
-0.267949
 31
0.0
1001
ACAD
1000
RTLwPs
1070
   158
  0
LINE
  5
27E3
  8
COTATION1
 62
     0
 10
0.0
 20
0.0
 30
0.0
 11
-1.0
 21
0.0
 31
0.0
1001
ACAD
1000
RTLwPs
1070
   158
  0
ENDBLK
  5
27E5
  8
0
  0
BLOCK
  8
0
  2
*D4
 70
     1
 10
0.0
 20
0.0
 30
0.0
  3
*D4
  1

  0
LINE
  5
371F
  8
COTATION1
 62
     0
 10
634.830522
 20
-46.511105
 30
0.0
 11
634.830522
 21
-35.044084
 31
0.0
1001
ACAD
1000
RTLwPs
1070
   158
  0
LINE
  5
3720
  8
COTATION1
 62
     0
 10
632.630569
 20
-46.511105
 30
0.0
 11
632.630569
 21
-35.044084
 31
0.0
1001
ACAD
1000
RTLwPs
1070
   158
  0
LINE
  5
3721
  8
COTATION1
 62
     0
 10
636.830522
 20
-35.544084
 30
0.0
 11
638.830522
 21
-35.544084
 31
0.0
1001
ACAD
1000
RTLwPs
1070
   158
  0
LINE
  5
3722
  8
COTATION1
 62
     0
 10
630.630569
 20
-35.544084
 30
0.0
 11
621.144855
 21
-35.544084
 31
0.0
1001
ACAD
1000
RTLwPs
1070
   158
  0
INSERT
  5
3723
  8
COTATION1
 62
     0
  2
_OPEN30
 10
634.830522
 20
-35.544084
 30
0.0
 41
2.0
 42
2.0
 43
2.0
 50
180.0
1001
ACAD
1000
RTLwPs
1070
   158
  0
INSERT
  5
3724
  8
COTATION1
 62
     0
  2
_OPEN30
 10
632.630569
 20
-35.544084
 30
0.0
 41
2.0
 42
2.0
 43
2.0
1001
ACAD
1000
RTLwPs
1070
   158
  0
TEXT
  5
3725
  8
COTATION1
 62
     0
 10
621.459141
 20
-34.944084
 30
0.0
 40
2.0
  1
Ø2.2
1001
ACAD
1000
MTEXTBEGIN
1070
    73
1070
     1
1070
    44
1040
1.0
1070
    74
1070
     0
1000
MTEXTEND
1000
MTEXTBEGIN
1070
    73
1070
     1
1070
    44
1040
1.0
1070
    74
1070
     0
1000
MTEXTEND
  0
POINT
  5
3726
  8
DEFPOINTS
 62
     0
 10
634.830522
 20
-46.811105
 30
0.0
  0
POINT
  5
3727
  8
DEFPOINTS
 62
     0
 10
632.630569
 20
-46.811105
 30
0.0
  0
POINT
  5
3728
  8
DEFPOINTS
 62
     0
 10
632.630569
 20
-35.544084
 30
0.0
  0
ENDBLK
  5
30B0
  8
0
  0
BLOCK
  8
0
  2
*D5
 70
     1
 10
0.0
 20
0.0
 30
0.0
  3
*D5
  1

  0
LINE
  5
3733
  8
COTATION1
 62
     0
 10
631.857236
 20
-46.811105
 30
0.0
 11
631.857236
 21
-39.98893
 31
0.0
1001
ACAD
1000
RTLwPs
1070
   158
  0
LINE
  5
3734
  8
COTATION1
 62
     0
 10
637.857225
 20
-46.811105
 30
0.0
 11
637.857225
 21
-39.98893
 31
0.0
1001
ACAD
1000
RTLwPs
1070
   158
  0
LINE
  5
3735
  8
COTATION1
 62
     0
 10
633.857236
 20
-40.48893
 30
0.0
 11
635.857225
 21
-40.48893
 31
0.0
1001
ACAD
1000
RTLwPs
1070
   158
  0
LINE
  5
3736
  8
COTATION1
 62
     0
 10
637.857225
 20
-40.48893
 30
0.0
 11
656.200082
 21
-40.48893
 31
0.0
1001
ACAD
1000
RTLwPs
1070
   158
  0
INSERT
  5
3737
  8
COTATION1
 62
     0
  2
_OPEN30
 10
631.857236
 20
-40.48893
 30
0.0
 41
2.0
 42
2.0
 43
2.0
 50
180.0
1001
ACAD
1000
RTLwPs
1070
   158
  0
INSERT
  5
3738
  8
COTATION1
 62
     0
  2
_OPEN30
 10
637.857225
 20
-40.48893
 30
0.0
 41
2.0
 42
2.0
 43
2.0
1001
ACAD
1000
RTLwPs
1070
   158
  0
TEXT
  5
3739
  8
COTATION1
 62
     0
 10
643.409606
 20
-39.88893
 30
0.0
 40
2.0
  1
M6x0.75
1001
ACAD
1000
MTEXTBEGIN
1070
    73
1070
     1
1070
    44
1040
1.0
1070
    74
1070
     0
1000
MTEXTEND
1000
MTEXTBEGIN
1070
    73
1070
     1
1070
    44
1040
1.0
1070
    74
1070
     0
1000
MTEXTEND
  0
POINT
  5
373A
  8
DEFPOINTS
 62
     0
 10
631.857236
 20
-47.111105
 30
0.0
  0
POINT
  5
373B
  8
DEFPOINTS
 62
     0
 10
637.857225
 20
-47.111105
 30
0.0
  0
POINT
  5
373C
  8
DEFPOINTS
 62
     0
 10
637.857225
 20
-40.48893
 30
0.0
  0
ENDBLK
  5
30BE
  8
0
  0
BLOCK
  8
0
  2
*D6
 70
     1
 10
0.0
 20
0.0
 30
0.0
  3
*D6
  1

  0
LINE
  5
3940
  8
COTATION1
 62
     0
 10
631.557136
 20
-46.811105
 30
0.0
 11
617.56277
 21
-46.811105
 31
0.0
1001
ACAD
1000
RTLwPs
1070
   158
  0
LINE
  5
3941
  8
COTATION1
 62
     0
 10
631.856426
 20
-61.811111
 30
0.0
 11
617.56277
 21
-61.811111
 31
0.0
1001
ACAD
1000
RTLwPs
1070
   158
  0
LINE
  5
3942
  8
COTATION1
 62
     0
 10
618.06277
 20
-48.811105
 30
0.0
 11
618.06277
 21
-59.811111
 31
0.0
1001
ACAD
1000
RTLwPs
1070
   158
  0
INSERT
  5
3943
  8
COTATION1
 62
     0
  2
_OPEN30
 10
618.06277
 20
-46.811105
 30
0.0
 41
2.0
 42
2.0
 43
2.0
 50
90.0
1001
ACAD
1000
RTLwPs
1070
   158
  0
INSERT
  5
3944
  8
COTATION1
 62
     0
  2
_OPEN30
 10
618.06277
 20
-61.811111
 30
0.0
 41
2.0
 42
2.0
 43
2.0
 50
270.0
1001
ACAD
1000
RTLwPs
1070
   158
  0
TEXT
  5
3945
  8
COTATION1
 62
     0
 10
617.46277
 20
-56.358727
 30
0.0
 40
2.0
  1
15
 50
90.0
1001
ACAD
1000
MTEXTBEGIN
1070
    73
1070
     1
1070
    44
1040
1.0
1070
    74
1070
     0
1000
MTEXTEND
  0
POINT
  5
3946
  8
DEFPOINTS
 62
     0
 10
631.857136
 20
-46.811105
 30
0.0
  0
POINT
  5
3947
  8
DEFPOINTS
 62
     0
 10
632.156426
 20
-61.811111
 30
0.0
  0
POINT
  5
3948
  8
DEFPOINTS
 62
     0
 10
618.06277
 20
-61.811111
 30
0.0
  0
ENDBLK
  5
30CC
  8
0
  0
BLOCK
  8
0
  2
*D7
 70
     1
 10
0.0
 20
0.0
 30
0.0
  3
*D7
  1

  0
LINE
  5
37F5
  8
COTATION1
 62
     0
 10
636.831271
 20
-69.813134
 30
0.0
 11
636.831271
 21
-76.770361
 31
0.0
1001
ACAD
1000
RTLwPs
1070
   158
  0
LINE
  5
37F6
  8
COTATION1
 62
     0
 10
632.831283
 20
-69.811112
 30
0.0
 11
632.831283
 21
-76.770361
 31
0.0
1001
ACAD
1000
RTLwPs
1070
   158
  0
LINE
  5
37F7
  8
COTATION1
 62
     0
 10
638.831271
 20
-76.270361
 30
0.0
 11
640.831271
 21
-76.270361
 31
0.0
1001
ACAD
1000
RTLwPs
1070
   158
  0
LINE
  5
37F8
  8
COTATION1
 62
     0
 10
630.831283
 20
-76.270361
 30
0.0
 11
613.440806
 21
-76.270361
 31
0.0
1001
ACAD
1000
RTLwPs
1070
   158
  0
INSERT
  5
37F9
  8
COTATION1
 62
     0
  2
_OPEN30
 10
636.831271
 20
-76.270361
 30
0.0
 41
2.0
 42
2.0
 43
2.0
 50
180.0
1001
ACAD
1000
RTLwPs
1070
   158
  0
INSERT
  5
37FA
  8
COTATION1
 62
     0
  2
_OPEN30
 10
632.831283
 20
-76.270361
 30
0.0
 41
2.0
 42
2.0
 43
2.0
1001
ACAD
1000
RTLwPs
1070
   158
  0
TEXT
  5
37FB
  8
COTATION1
 62
     0
 10
613.659854
 20
-75.670361
 30
0.0
 40
2.0
  1
M4x0.7
1001
ACAD
1000
MTEXTBEGIN
1070
    73
1070
     1
1070
    44
1040
1.0
1070
    74
1070
     0
1000
MTEXTEND
1000
MTEXTBEGIN
1070
    73
1070
     1
1070
    44
1040
1.0
1070
    74
1070
     0
1000
MTEXTEND
  0
POINT
  5
37FC
  8
DEFPOINTS
 62
     0
 10
636.831271
 20
-69.513134
 30
0.0
  0
POINT
  5
37FD
  8
DEFPOINTS
 62
     0
 10
632.831283
 20
-69.511112
 30
0.0
  0
POINT
  5
37FE
  8
DEFPOINTS
 62
     0
 10
632.831283
 20
-76.270361
 30
0.0
  0
ENDBLK
  5
35A4
  8
0
  0
BLOCK
  8
0
  2
*D8
 70
     1
 10
0.0
 20
0.0
 30
0.0
  3
*D8
  1

  0
LINE
  5
3937
  8
COTATION1
 62
     0
 10
632.829763
 20
-69.811112
 30
0.0
 11
617.56277
 21
-69.811112
 31
0.0
1001
ACAD
1000
RTLwPs
1070
   158
  0
LINE
  5
3938
  8
COTATION1
 62
     0
 10
631.856426
 20
-61.811111
 30
0.0
 11
617.56277
 21
-61.811111
 31
0.0
1001
ACAD
1000
RTLwPs
1070
   158
  0
LINE
  5
3939
  8
COTATION1
 62
     0
 10
618.06277
 20
-67.811112
 30
0.0
 11
618.06277
 21
-63.811111
 31
0.0
1001
ACAD
1000
RTLwPs
1070
   158
  0
INSERT
  5
393A
  8
COTATION1
 62
     0
  2
_OPEN30
 10
618.06277
 20
-69.811112
 30
0.0
 41
2.0
 42
2.0
 43
2.0
 50
270.0
1001
ACAD
1000
RTLwPs
1070
   158
  0
INSERT
  5
393B
  8
COTATION1
 62
     0
  2
_OPEN30
 10
618.06277
 20
-61.811111
 30
0.0
 41
2.0
 42
2.0
 43
2.0
 50
90.0
1001
ACAD
1000
RTLwPs
1070
   158
  0
TEXT
  5
393C
  8
COTATION1
 62
     0
 10
617.46277
 20
-66.763493
 30
0.0
 40
2.0
  1
8
 50
90.0
1001
ACAD
1000
MTEXTBEGIN
1070
    73
1070
     1
1070
    44
1040
1.0
1070
    74
1070
     0
1000
MTEXTEND
  0
POINT
  5
393D
  8
DEFPOINTS
 62
     0
 10
633.129763
 20
-69.811112
 30
0.0
  0
POINT
  5
393E
  8
DEFPOINTS
 62
     0
 10
632.156426
 20
-61.811111
 30
0.0
  0
POINT
  5
393F
  8
DEFPOINTS
 62
     0
 10
618.06277
 20
-61.811111
 30
0.0
  0
ENDBLK
  5
35B2
  8
0
  0
ENDSEC
  0
SECTION
  2
ENTITIES
  0
INSERT
  5
32
  8
0
  2
COTE
 10
0.0
 20
0.0
 30
0.0
  0
INSERT
  5
36
  8
0
  2
FOND
 10
0.0
 20
0.0
 30
0.0
  0
INSERT
  5
24AE
  8
ALPHA
  2
SCH_ISO
 10
-66.27012
 20
-238.940658
 30
0.0
  0
LINE
  5
2FE7
  8
ALPHA
 10
637.874046
 20
-52.229983
 30
0.0
 11
637.841835
 21
-54.806102
 31
0.0
  0
LINE
  5
2FE8
  8
ALPHA
 10
631.850694
 20
-52.229983
 30
0.0
 11
631.857136
 21
-54.823281
 31
0.0
  0
POLYLINE
  5
2FE9
  8
ALPHA
 66
     1
 10
0.0
 20
0.0
 30
0.0
 70
     1
  0
VERTEX
  5
3B0E
  8
ALPHA
 10
641.141616
 20
-54.830439
 30
0.0
  0
VERTEX
  5
3B0F
  8
ALPHA
 10
641.141616
 20
-51.82091
 30
0.0
  0
VERTEX
  5
3B10
  8
ALPHA
 10
640.119113
 20
-51.305543
 30
0.0
  0
VERTEX
  5
3B11
  8
ALPHA
 10
629.585942
 20
-51.305543
 30
0.0
  0
VERTEX
  5
3B12
  8
ALPHA
 10
628.519419
 20
-51.961562
 30
0.0
  0
VERTEX
  5
3B13
  8
ALPHA
 10
628.519419
 20
-54.830439
 30
0.0
  0
SEQEND
  5
3B14
  8
ALPHA
  0
POLYLINE
  5
2FFF
  8
ALPHA
 66
     1
 10
0.0
 20
0.0
 30
0.0
 70
   128
  0
VERTEX
  5
3B15
  8
ALPHA
 10
631.850694
 20
-58.587607
 30
0.0
  0
VERTEX
  5
3B16
  8
ALPHA
 10
632.08739
 20
-58.925123
 30
0.0
  0
VERTEX
  5
3B17
  8
ALPHA
 10
632.732857
 20
-59.200769
 30
0.0
  0
VERTEX
  5
3B18
  8
ALPHA
 10
633.690162
 20
-59.386627
 30
0.0
  0
VERTEX
  5
3B19
  8
ALPHA
 10
634.86237
 20
-59.454784
 30
0.0
  0
VERTEX
  5
3B1A
  8
ALPHA
 10
636.034578
 20
-59.386627
 30
0.0
  0
VERTEX
  5
3B1B
  8
ALPHA
 10
636.991882
 20
-59.200769
 30
0.0
  0
VERTEX
  5
3B1C
  8
ALPHA
 10
637.637349
 20
-58.925123
 30
0.0
  0
VERTEX
  5
3B1D
  8
ALPHA
 10
637.874046
 20
-58.587607
 30
0.0
  0
SEQEND
  5
3B1E
  8
ALPHA
  0
POLYLINE
  5
3000
  8
ALPHA
 66
     1
 10
0.0
 20
0.0
 30
0.0
 70
     1
  0
VERTEX
  5
3B1F
  8
ALPHA
 10
641.141616
 20
-55.986435
 30
0.0
  0
VERTEX
  5
3B20
  8
ALPHA
 10
641.141616
 20
-58.99668
 30
0.0
  0
VERTEX
  5
3B21
  8
ALPHA
 10
640.119113
 20
-59.512762
 30
0.0
  0
VERTEX
  5
3B22
  8
ALPHA
 10
629.585942
 20
-59.512762
 30
0.0
  0
VERTEX
  5
3B23
  8
ALPHA
 10
628.519419
 20
-58.856743
 30
0.0
  0
VERTEX
  5
3B24
  8
ALPHA
 10
628.519419
 20
-55.986435
 30
0.0
  0
SEQEND
  5
3B25
  8
ALPHA
  0
POLYLINE
  5
3008
  8
ALPHA
 66
     1
 10
0.0
 20
0.0
 30
0.0
 70
     1
  0
VERTEX
  5
3B26
  8
ALPHA
 10
628.106767
 20
-54.830439
 30
0.0
  0
VERTEX
  5
3B27
  8
ALPHA
 10
641.484836
 20
-54.830439
 30
0.0
  0
VERTEX
  5
3B28
  8
ALPHA
 10
641.484836
 20
-55.986435
 30
0.0
  0
VERTEX
  5
3B29
  8
ALPHA
 10
628.106767
 20
-55.986435
 30
0.0
  0
SEQEND
  5
3B2A
  8
ALPHA
  0
LINE
  5
301E
  8
ALPHA
 10
631.850694
 20
-58.587607
 30
0.0
 11
631.857136
 21
-55.995025
 31
0.0
  0
POLYLINE
  5
301F
  8
ALPHA
 66
     1
 10
0.0
 20
0.0
 30
0.0
 70
   128
  0
VERTEX
  5
3B2B
  8
ALPHA
 10
628.565587
 20
-58.587607
 30
0.0
  0
VERTEX
  5
3B2C
  8
ALPHA
 10
628.694625
 20
-58.925123
 30
0.0
  0
VERTEX
  5
3B2D
  8
ALPHA
 10
629.046552
 20
-59.200769
 30
0.0
  0
VERTEX
  5
3B2E
  8
ALPHA
 10
629.56859
 20
-59.386627
 30
0.0
  0
VERTEX
  5
3B2F
  8
ALPHA
 10
630.207962
 20
-59.454784
 30
0.0
  0
VERTEX
  5
3B30
  8
ALPHA
 10
630.84754
 20
-59.386627
 30
0.0
  0
VERTEX
  5
3B31
  8
ALPHA
 10
631.369685
 20
-59.200769
 30
0.0
  0
VERTEX
  5
3B32
  8
ALPHA
 10
631.721651
 20
-58.925123
 30
0.0
  0
VERTEX
  5
3B33
  8
ALPHA
 10
631.850694
 20
-58.587607
 30
0.0
  0
SEQEND
  5
3B34
  8
ALPHA
  0
LINE
  5
3020
  8
ALPHA
 10
637.874046
 20
-58.587607
 30
0.0
 11
637.841835
 21
-56.012204
 31
0.0
  0
POLYLINE
  5
3021
  8
ALPHA
 66
     1
 10
0.0
 20
0.0
 30
0.0
 70
   128
  0
VERTEX
  5
3B35
  8
ALPHA
 10
637.874046
 20
-58.587607
 30
0.0
  0
VERTEX
  5
3B36
  8
ALPHA
 10
638.003139
 20
-58.925123
 30
0.0
  0
VERTEX
  5
3B37
  8
ALPHA
 10
638.355189
 20
-59.200769
 30
0.0
  0
VERTEX
  5
3B38
  8
ALPHA
 10
638.87735
 20
-59.386627
 30
0.0
  0
VERTEX
  5
3B39
  8
ALPHA
 10
639.516778
 20
-59.454784
 30
0.0
  0
VERTEX
  5
3B3A
  8
ALPHA
 10
640.156205
 20
-59.386627
 30
0.0
  0
VERTEX
  5
3B3B
  8
ALPHA
 10
640.678367
 20
-59.200769
 30
0.0
  0
VERTEX
  5
3B3C
  8
ALPHA
 10
641.030417
 20
-58.925123
 30
0.0
  0
VERTEX
  5
3B3D
  8
ALPHA
 10
641.15951
 20
-58.587607
 30
0.0
  0
SEQEND
  5
3B3E
  8
ALPHA
  0
POLYLINE
  5
3022
  8
ALPHA
 66
     1
 10
0.0
 20
0.0
 30
0.0
 70
   128
210
0.0
220
0.0
230
-1.0
  0
VERTEX
  5
3B3F
  8
ALPHA
 10
-631.850694
 20
-52.229983
 30
0.0
  0
VERTEX
  5
3B40
  8
ALPHA
 10
-632.08739
 20
-51.89288
 30
0.0
  0
VERTEX
  5
3B41
  8
ALPHA
 10
-632.732857
 20
-51.617448
 30
0.0
  0
VERTEX
  5
3B42
  8
ALPHA
 10
-633.690162
 20
-51.431667
 30
0.0
  0
VERTEX
  5
3B43
  8
ALPHA
 10
-634.86237
 20
-51.363522
 30
0.0
  0
VERTEX
  5
3B44
  8
ALPHA
 10
-636.034578
 20
-51.431667
 30
0.0
  0
VERTEX
  5
3B45
  8
ALPHA
 10
-636.991882
 20
-51.617448
 30
0.0
  0
VERTEX
  5
3B46
  8
ALPHA
 10
-637.637349
 20
-51.89288
 30
0.0
  0
VERTEX
  5
3B47
  8
ALPHA
 10
-637.874046
 20
-52.229983
 30
0.0
  0
SEQEND
  5
3B48
  8
ALPHA
  0
POLYLINE
  5
3034
  8
ALPHA
 66
     1
 10
0.0
 20
0.0
 30
0.0
 70
   128
210
0.0
220
0.0
230
-1.0
  0
VERTEX
  5
3B49
  8
ALPHA
 10
-628.565587
 20
-52.229983
 30
0.0
  0
VERTEX
  5
3B4A
  8
ALPHA
 10
-628.694625
 20
-51.89288
 30
0.0
  0
VERTEX
  5
3B4B
  8
ALPHA
 10
-629.046552
 20
-51.617448
 30
0.0
  0
VERTEX
  5
3B4C
  8
ALPHA
 10
-629.56859
 20
-51.431667
 30
0.0
  0
VERTEX
  5
3B4D
  8
ALPHA
 10
-630.207962
 20
-51.363522
 30
0.0
  0
VERTEX
  5
3B4E
  8
ALPHA
 10
-630.84754
 20
-51.431667
 30
0.0
  0
VERTEX
  5
3B4F
  8
ALPHA
 10
-631.369685
 20
-51.617448
 30
0.0
  0
VERTEX
  5
3B50
  8
ALPHA
 10
-631.721651
 20
-51.89288
 30
0.0
  0
VERTEX
  5
3B51
  8
ALPHA
 10
-631.850694
 20
-52.229983
 30
0.0
  0
SEQEND
  5
3B52
  8
ALPHA
  0
POLYLINE
  5
303B
  8
ALPHA
 66
     1
 10
0.0
 20
0.0
 30
0.0
 70
   128
210
0.0
220
0.0
230
-1.0
  0
VERTEX
  5
3B53
  8
ALPHA
 10
-637.874046
 20
-52.229983
 30
0.0
  0
VERTEX
  5
3B54
  8
ALPHA
 10
-638.003139
 20
-51.89288
 30
0.0
  0
VERTEX
  5
3B55
  8
ALPHA
 10
-638.355189
 20
-51.617448
 30
0.0
  0
VERTEX
  5
3B56
  8
ALPHA
 10
-638.87735
 20
-51.431667
 30
0.0
  0
VERTEX
  5
3B57
  8
ALPHA
 10
-639.516778
 20
-51.363522
 30
0.0
  0
VERTEX
  5
3B58
  8
ALPHA
 10
-640.156205
 20
-51.431667
 30
0.0
  0
VERTEX
  5
3B59
  8
ALPHA
 10
-640.678367
 20
-51.617448
 30
0.0
  0
VERTEX
  5
3B5A
  8
ALPHA
 10
-641.030417
 20
-51.89288
 30
0.0
  0
VERTEX
  5
3B5B
  8
ALPHA
 10
-641.15951
 20
-52.229983
 30
0.0
  0
SEQEND
  5
3B5C
  8
ALPHA
  0
DIMENSION
  5
30A3
  8
COTATION1
  2
*D4
 10
632.630569
 20
-35.544084
 30
0.0
 11
624.887712
 21
-33.944084
 31
0.0
  1
Ø<>
 13
634.830522
 23
-46.811105
 33
0.0
 14
632.630569
 24
-46.811105
 34
0.0
  0
DIMENSION
  5
30B1
  8
COTATION1
  2
*D5
 10
637.857225
 20
-40.48893
 30
0.0
 11
649.69532
 21
-40.48893
 31
0.0
 70
   128
  1
M<>x0.75
 13
631.857236
 23
-47.111105
 33
0.0
 14
637.857225
 24
-47.111105
 34
0.0
1001
ACAD
1000
DSTYLE
1002
{
1070
   271
1070
     3
1002
}
  0
DIMENSION
  5
30BF
  8
COTATION1
  2
*D6
 10
618.06277
 20
-61.811111
 30
0.0
 11
618.06277
 21
-54.311108
 31
0.0
 70
   128
 13
631.857136
 23
-46.811105
 33
0.0
 14
632.156426
 24
-61.811111
 34
0.0
 50
90.0
  0
POLYLINE
  5
322C
  8
ALPHA
 66
     1
 10
0.0
 20
0.0
 30
0.0
 70
   128
210
0.0
220
0.0
230
-1.0
  0
VERTEX
  5
3B5D
  8
ALPHA
 10
-626.254861
 20
8.251762
 30
0.0
  0
VERTEX
  5
3B5E
  8
ALPHA
 10
-627.718509
 20
8.234233
 30
0.0
  0
VERTEX
  5
3B5F
  8
ALPHA
 10
-628.990542
 20
7.867895
 30
0.0
  0
VERTEX
  5
3B60
  8
ALPHA
 10
-630.071526
 20
7.191068
 30
0.0
  0
VERTEX
  5
3B61
  8
ALPHA
 10
-630.962029
 20
6.242074
 30
0.0
  0
VERTEX
  5
3B62
  8
ALPHA
 10
-631.662618
 20
5.059235
 30
0.0
  0
VERTEX
  5
3B63
  8
ALPHA
 10
-632.17386
 20
3.680871
 30
0.0
  0
VERTEX
  5
3B64
  8
ALPHA
 10
-632.496321
 20
2.145306
 30
0.0
  0
VERTEX
  5
3B65
  8
ALPHA
 10
-632.630569
 20
0.490859
 30
0.0
  0
SEQEND
  5
3B66
  8
ALPHA
  0
POLYLINE
  5
322D
  8
ALPHA
 66
     1
 10
0.0
 20
0.0
 30
0.0
 70
   128
  0
VERTEX
  5
3B67
  8
ALPHA
 10
632.630569
 20
0.490859
 30
0.0
  0
VERTEX
  5
3B68
  8
ALPHA
 10
632.630569
 20
0.355166
 30
0.0
  0
VERTEX
  5
3B69
  8
ALPHA
 10
632.630569
 20
-0.040365
 30
0.0
  0
VERTEX
  5
3B6A
  8
ALPHA
 10
632.630569
 20
-0.67841
 30
0.0
  0
VERTEX
  5
3B6B
  8
ALPHA
 10
632.630569
 20
-1.541648
 30
0.0
  0
VERTEX
  5
3B6C
  8
ALPHA
 10
632.630569
 20
-2.612755
 30
0.0
  0
VERTEX
  5
3B6D
  8
ALPHA
 10
632.630569
 20
-3.87441
 30
0.0
  0
VERTEX
  5
3B6E
  8
ALPHA
 10
632.630569
 20
-6.900073
 30
0.0
  0
VERTEX
  5
3B6F
  8
ALPHA
 10
632.630569
 20
-10.480056
 30
0.0
  0
VERTEX
  5
3B70
  8
ALPHA
 10
632.630569
 20
-14.475778
 30
0.0
  0
VERTEX
  5
3B71
  8
ALPHA
 10
632.630569
 20
-23.160123
 30
0.0
  0
VERTEX
  5
3B72
  8
ALPHA
 10
632.630569
 20
-31.844468
 30
0.0
  0
VERTEX
  5
3B73
  8
ALPHA
 10
632.630569
 20
-35.84019
 30
0.0
  0
VERTEX
  5
3B74
  8
ALPHA
 10
632.630569
 20
-39.420173
 30
0.0
  0
VERTEX
  5
3B75
  8
ALPHA
 10
632.630569
 20
-42.445836
 30
0.0
  0
VERTEX
  5
3B76
  8
ALPHA
 10
632.630569
 20
-43.707491
 30
0.0
  0
VERTEX
  5
3B77
  8
ALPHA
 10
632.630569
 20
-44.778599
 30
0.0
  0
VERTEX
  5
3B78
  8
ALPHA
 10
632.630569
 20
-45.641836
 30
0.0
  0
VERTEX
  5
3B79
  8
ALPHA
 10
632.630569
 20
-46.279882
 30
0.0
  0
VERTEX
  5
3B7A
  8
ALPHA
 10
632.630569
 20
-46.675412
 30
0.0
  0
VERTEX
  5
3B7B
  8
ALPHA
 10
632.630569
 20
-46.811105
 30
0.0
  0
SEQEND
  5
3B7C
  8
ALPHA
  0
POLYLINE
  5
322E
  8
ALPHA
 66
     1
 10
0.0
 20
0.0
 30
0.0
 70
   128
  0
VERTEX
  5
3B7D
  8
ALPHA
 10
632.915519
 20
-46.811105
 30
0.0
  0
VERTEX
  5
3B7E
  8
ALPHA
 10
633.228026
 20
-46.811105
 30
0.0
  0
VERTEX
  5
3B7F
  8
ALPHA
 10
633.915543
 20
-46.811105
 30
0.0
  0
VERTEX
  5
3B80
  8
ALPHA
 10
634.60306
 20
-46.811105
 30
0.0
  0
VERTEX
  5
3B81
  8
ALPHA
 10
634.915567
 20
-46.811105
 30
0.0
  0
SEQEND
  5
3B82
  8
ALPHA
  0
POLYLINE
  5
322F
  8
ALPHA
 66
     1
 10
0.0
 20
0.0
 30
0.0
 70
   128
  0
VERTEX
  5
3B83
  8
ALPHA
 10
634.830517
 20
-46.811105
 30
0.0
  0
VERTEX
  5
3B84
  8
ALPHA
 10
634.830517
 20
-46.675412
 30
0.0
  0
VERTEX
  5
3B85
  8
ALPHA
 10
634.830517
 20
-46.279882
 30
0.0
  0
VERTEX
  5
3B86
  8
ALPHA
 10
634.830517
 20
-45.641836
 30
0.0
  0
VERTEX
  5
3B87
  8
ALPHA
 10
634.830517
 20
-44.778599
 30
0.0
  0
VERTEX
  5
3B88
  8
ALPHA
 10
634.830517
 20
-43.707491
 30
0.0
  0
VERTEX
  5
3B89
  8
ALPHA
 10
634.830517
 20
-42.445836
 30
0.0
  0
VERTEX
  5
3B8A
  8
ALPHA
 10
634.830517
 20
-39.420173
 30
0.0
  0
VERTEX
  5
3B8B
  8
ALPHA
 10
634.830517
 20
-35.84019
 30
0.0
  0
VERTEX
  5
3B8C
  8
ALPHA
 10
634.830517
 20
-31.844468
 30
0.0
  0
VERTEX
  5
3B8D
  8
ALPHA
 10
634.830517
 20
-23.160123
 30
0.0
  0
VERTEX
  5
3B8E
  8
ALPHA
 10
634.830517
 20
-14.475778
 30
0.0
  0
VERTEX
  5
3B8F
  8
ALPHA
 10
634.830517
 20
-10.480056
 30
0.0
  0
VERTEX
  5
3B90
  8
ALPHA
 10
634.830517
 20
-6.900073
 30
0.0
  0
VERTEX
  5
3B91
  8
ALPHA
 10
634.830517
 20
-3.87441
 30
0.0
  0
VERTEX
  5
3B92
  8
ALPHA
 10
634.830517
 20
-2.612755
 30
0.0
  0
VERTEX
  5
3B93
  8
ALPHA
 10
634.830517
 20
-1.541648
 30
0.0
  0
VERTEX
  5
3B94
  8
ALPHA
 10
634.830517
 20
-0.67841
 30
0.0
  0
VERTEX
  5
3B95
  8
ALPHA
 10
634.830517
 20
-0.040365
 30
0.0
  0
VERTEX
  5
3B96
  8
ALPHA
 10
634.830517
 20
0.355166
 30
0.0
  0
VERTEX
  5
3B97
  8
ALPHA
 10
634.830517
 20
0.490859
 30
0.0
  0
SEQEND
  5
3B98
  8
ALPHA
  0
POLYLINE
  5
3230
  8
ALPHA
 66
     1
 10
0.0
 20
0.0
 30
0.0
 70
   128
  0
VERTEX
  5
3B99
  8
ALPHA
 10
634.830517
 20
0.490859
 30
0.0
  0
VERTEX
  5
3B9A
  8
ALPHA
 10
634.68344
 20
2.412864
 30
0.0
  0
VERTEX
  5
3B9B
  8
ALPHA
 10
634.251468
 20
4.27605
 30
0.0
  0
VERTEX
  5
3B9C
  8
ALPHA
 10
633.548493
 20
6.009555
 30
0.0
  0
VERTEX
  5
3B9D
  8
ALPHA
 10
632.588406
 20
7.542518
 30
0.0
  0
VERTEX
  5
3B9E
  8
ALPHA
 10
631.385099
 20
8.804077
 30
0.0
  0
VERTEX
  5
3B9F
  8
ALPHA
 10
629.952461
 20
9.723371
 30
0.0
  0
VERTEX
  5
3BA0
  8
ALPHA
 10
628.304385
 20
10.229538
 30
0.0
  0
VERTEX
  5
3BA1
  8
ALPHA
 10
626.454761
 20
10.251717
 30
0.0
  0
SEQEND
  5
3BA2
  8
ALPHA
  0
LINE
  5
32A8
  8
AXE
 10
652.787662
 20
-55.408437
 30
0.0
 11
623.800364
 21
-55.408437
 31
0.0
  0
LINE
  5
32A9
  8
AXE
 10
634.830517
 20
12.497593
 30
0.0
 11
634.830517
 21
-89.974724
 31
0.0
  0
TEXT
  5
32AA
  8
AXE
 10
627.223795
 20
-89.89236
 30
0.0
 40
8.0
  1
Y
 72
     2
 11
633.699986
 21
-89.89236
 31
0.0
  0
TEXT
  5
32AB
  8
AXE
 10
646.153351
 20
-54.408437
 30
0.0
 40
8.0
  1
X
 72
     2
 11
652.629542
 21
-54.408437
 31
0.0
  0
DIMENSION
  5
3598
  8
COTATION1
  2
*D7
 10
632.831283
 20
-76.270361
 30
0.0
 11
618.993187
 21
-76.270361
 31
0.0
 70
   128
  1
M<>x0.7
 13
636.831271
 23
-69.513134
 33
0.0
 14
632.831283
 24
-69.511112
 34
0.0
  0
DIMENSION
  5
35A5
  8
COTATION1
  2
*D8
 10
618.06277
 20
-61.811111
 30
0.0
 11
616.46277
 21
-65.811112
 31
0.0
 13
633.129763
 23
-69.811112
 33
0.0
 14
632.156426
 24
-61.811111
 34
0.0
 50
90.0
  0
LINE
  5
36DA
  8
ALPHA_FIN
 10
631.857946
 20
-61.511111
 30
0.0
 11
637.857934
 21
-61.511111
 31
0.0
  0
LINE
  5
36DC
  8
ALPHA
 10
631.857946
 20
-61.511111
 30
0.0
 11
632.156426
 21
-61.811111
 31
0.0
  0
LINE
  5
36DF
  8
ALPHA_FIN
 10
637.557934
 20
-61.811111
 30
0.0
 11
637.557934
 21
-59.512762
 31
0.0
  0
LINE
  5
36E0
  8
ALPHA
 10
637.857934
 20
-61.511111
 30
0.0
 11
637.557934
 21
-61.811111
 31
0.0
  0
LINE
  5
36E2
  8
ALPHA_FIN
 10
637.857225
 20
-47.111105
 30
0.0
 11
631.857236
 21
-47.111105
 31
0.0
  0
POLYLINE
  5
36E3
  8
ALPHA
 66
     1
 10
0.0
 20
0.0
 30
0.0
  0
VERTEX
  5
3BA3
  8
ALPHA
 10
637.557225
 20
-46.811105
 30
0.0
  0
VERTEX
  5
3BA4
  8
ALPHA
 10
632.157236
 20
-46.811105
 30
0.0
  0
SEQEND
  5
3BA5
  8
ALPHA
  0
LINE
  5
36E4
  8
ALPHA
 10
632.157236
 20
-46.811105
 30
0.0
 11
631.857236
 21
-47.111105
 31
0.0
  0
LINE
  5
36E5
  8
ALPHA_FIN
 10
632.157236
 20
-46.811105
 30
0.0
 11
632.157236
 21
-51.305543
 31
0.0
  0
POLYLINE
  5
36E6
  8
ALPHA
 66
     1
 10
0.0
 20
0.0
 30
0.0
  0
VERTEX
  5
3BA6
  8
ALPHA
 10
631.857236
 20
-47.111105
 30
0.0
  0
VERTEX
  5
3BA7
  8
ALPHA
 10
631.857236
 20
-51.305543
 30
0.0
  0
SEQEND
  5
3BA8
  8
ALPHA
  0
LINE
  5
36E7
  8
ALPHA
 10
637.557225
 20
-46.811105
 30
0.0
 11
637.857225
 21
-47.111105
 31
0.0
  0
POLYLINE
  5
36E8
  8
ALPHA_FIN
 66
     1
 10
0.0
 20
0.0
 30
0.0
  0
VERTEX
  5
3BA9
  8
ALPHA_FIN
 10
637.557225
 20
-51.305543
 30
0.0
  0
VERTEX
  5
3BAA
  8
ALPHA_FIN
 10
637.557225
 20
-46.811105
 30
0.0
  0
SEQEND
  5
3BAB
  8
ALPHA_FIN
  0
POLYLINE
  5
36E9
  8
ALPHA
 66
     1
 10
0.0
 20
0.0
 30
0.0
  0
VERTEX
  5
3BAC
  8
ALPHA
 10
637.857225
 20
-51.305543
 30
0.0
  0
VERTEX
  5
3BAD
  8
ALPHA
 10
637.857225
 20
-47.111105
 30
0.0
  0
SEQEND
  5
3BAE
  8
ALPHA
  0
LINE
  5
373D
  8
ALPHA
 10
637.857934
 20
-61.511111
 30
0.0
 11
637.857934
 21
-59.512762
 31
0.0
  0
LINE
  5
373E
  8
ALPHA_FIN
 10
632.156426
 20
-59.512762
 30
0.0
 11
632.156426
 21
-61.811111
 31
0.0
  0
LINE
  5
373F
  8
ALPHA
 10
631.857946
 20
-59.512762
 30
0.0
 11
631.857946
 21
-61.511111
 31
0.0
  0
LINE
  5
3740
  8
ALPHA
 10
632.156426
 20
-61.811111
 30
0.0
 11
637.557934
 21
-61.811111
 31
0.0
  0
LINE
  5
37BB
  8
ALPHA_FIN
 10
632.831283
 20
-69.511112
 30
0.0
 11
636.831271
 21
-69.511112
 31
0.0
  0
LINE
  5
37BC
  8
ALPHA
 10
632.831283
 20
-69.511112
 30
0.0
 11
633.129763
 21
-69.811112
 31
0.0
  0
POLYLINE
  5
37BE
  8
ALPHA
 66
     1
 10
0.0
 20
0.0
 30
0.0
  0
VERTEX
  5
3BAF
  8
ALPHA
 10
632.831283
 20
-61.811111
 30
0.0
  0
VERTEX
  5
3BB0
  8
ALPHA
 10
632.831283
 20
-69.511112
 30
0.0
  0
SEQEND
  5
3BB1
  8
ALPHA
  0
POLYLINE
  5
37C4
  8
ALPHA
 66
     1
 10
0.0
 20
0.0
 30
0.0
  0
VERTEX
  5
3BB2
  8
ALPHA
 10
636.831271
 20
-69.511112
 30
0.0
  0
VERTEX
  5
3BB3
  8
ALPHA
 10
636.831271
 20
-61.811111
 30
0.0
  0
SEQEND
  5
3BB4
  8
ALPHA
  0
POLYLINE
  5
37C5
  8
ALPHA
 66
     1
 10
0.0
 20
0.0
 30
0.0
  0
VERTEX
  5
3BB5
  8
ALPHA
 10
633.129763
 20
-69.811112
 30
0.0
  0
VERTEX
  5
3BB6
  8
ALPHA
 10
636.531271
 20
-69.811112
 30
0.0
  0
SEQEND
  5
3BB7
  8
ALPHA
  0
LINE
  5
37C6
  8
ALPHA_FIN
 10
636.531271
 20
-69.811112
 30
0.0
 11
636.531271
 21
-61.811111
 31
0.0
  0
LINE
  5
37C7
  8
ALPHA
 10
636.831271
 20
-69.511112
 30
0.0
 11
636.531271
 21
-69.811112
 31
0.0
  0
POLYLINE
  5
37C8
  8
ALPHA_FIN
 66
     1
 10
0.0
 20
0.0
 30
0.0
  0
VERTEX
  5
3BB8
  8
ALPHA_FIN
 10
633.129763
 20
-61.811111
 30
0.0
  0
VERTEX
  5
3BB9
  8
ALPHA_FIN
 10
633.129763
 20
-69.811112
 30
0.0
  0
SEQEND
  5
3BBA
  8
ALPHA_FIN
  0
POLYLINE
  5
38A0
  8
ALPHA
 66
     1
 10
0.0
 20
0.0
 30
0.0
 70
   128
  0
VERTEX
  5
3BBB
  8
ALPHA
 10
636.794425
 20
-46.811105
 30
0.0
  0
VERTEX
  5
3BBC
  8
ALPHA
 10
636.487565
 20
-46.811105
 30
0.0
  0
VERTEX
  5
3BBD
  8
ALPHA
 10
635.812471
 20
-46.811105
 30
0.0
  0
VERTEX
  5
3BBE
  8
ALPHA
 10
635.137378
 20
-46.811105
 30
0.0
  0
VERTEX
  5
3BBF
  8
ALPHA
 10
634.830517
 20
-46.811105
 30
0.0
  0
SEQEND
  5
3BC0
  8
ALPHA
  0
POLYLINE
  5
38A1
  8
ALPHA
 66
     1
 10
0.0
 20
0.0
 30
0.0
 70
   128
  0
VERTEX
  5
3BC1
  8
ALPHA
 10
634.830517
 20
-46.811105
 30
0.0
  0
VERTEX
  5
3BC2
  8
ALPHA
 10
634.830517
 20
-46.675412
 30
0.0
  0
VERTEX
  5
3BC3
  8
ALPHA
 10
634.830517
 20
-46.279882
 30
0.0
  0
VERTEX
  5
3BC4
  8
ALPHA
 10
634.830517
 20
-45.641836
 30
0.0
  0
VERTEX
  5
3BC5
  8
ALPHA
 10
634.830517
 20
-44.778599
 30
0.0
  0
VERTEX
  5
3BC6
  8
ALPHA
 10
634.830517
 20
-43.707491
 30
0.0
  0
VERTEX
  5
3BC7
  8
ALPHA
 10
634.830517
 20
-42.445836
 30
0.0
  0
VERTEX
  5
3BC8
  8
ALPHA
 10
634.830517
 20
-39.420173
 30
0.0
  0
VERTEX
  5
3BC9
  8
ALPHA
 10
634.830517
 20
-35.84019
 30
0.0
  0
VERTEX
  5
3BCA
  8
ALPHA
 10
634.830517
 20
-31.844468
 30
0.0
  0
VERTEX
  5
3BCB
  8
ALPHA
 10
634.830517
 20
-23.160123
 30
0.0
  0
VERTEX
  5
3BCC
  8
ALPHA
 10
634.830517
 20
-14.475778
 30
0.0
  0
VERTEX
  5
3BCD
  8
ALPHA
 10
634.830517
 20
-10.480056
 30
0.0
  0
VERTEX
  5
3BCE
  8
ALPHA
 10
634.830517
 20
-6.900073
 30
0.0
  0
VERTEX
  5
3BCF
  8
ALPHA
 10
634.830517
 20
-3.87441
 30
0.0
  0
VERTEX
  5
3BD0
  8
ALPHA
 10
634.830517
 20
-2.612755
 30
0.0
  0
VERTEX
  5
3BD1
  8
ALPHA
 10
634.830517
 20
-1.541648
 30
0.0
  0
VERTEX
  5
3BD2
  8
ALPHA
 10
634.830517
 20
-0.67841
 30
0.0
  0
VERTEX
  5
3BD3
  8
ALPHA
 10
634.830517
 20
-0.040365
 30
0.0
  0
VERTEX
  5
3BD4
  8
ALPHA
 10
634.830517
 20
0.355166
 30
0.0
  0
VERTEX
  5
3BD5
  8
ALPHA
 10
634.830517
 20
0.490859
 30
0.0
  0
SEQEND
  5
3BD6
  8
ALPHA
  0
POLYLINE
  5
38A2
  8
ALPHA
 66
     1
 10
0.0
 20
0.0
 30
0.0
 70
   128
210
0.0
220
0.0
230
-1.0
  0
VERTEX
  5
3BD7
  8
ALPHA
 10
-634.830517
 20
0.490859
 30
0.0
  0
VERTEX
  5
3BD8
  8
ALPHA
 10
-634.965666
 20
2.412864
 30
0.0
  0
VERTEX
  5
3BD9
  8
ALPHA
 10
-635.388673
 20
4.27605
 30
0.0
  0
VERTEX
  5
3BDA
  8
ALPHA
 10
-636.085225
 20
6.009555
 30
0.0
  0
VERTEX
  5
3BDB
  8
ALPHA
 10
-637.041006
 20
7.542518
 30
0.0
  0
VERTEX
  5
3BDC
  8
ALPHA
 10
-638.241702
 20
8.804077
 30
0.0
  0
VERTEX
  5
3BDD
  8
ALPHA
 10
-639.672998
 20
9.723371
 30
0.0
  0
VERTEX
  5
3BDE
  8
ALPHA
 10
-641.32058
 20
10.229538
 30
0.0
  0
VERTEX
  5
3BDF
  8
ALPHA
 10
-643.170133
 20
10.251717
 30
0.0
  0
SEQEND
  5
3BE0
  8
ALPHA
  0
POLYLINE
  5
38A3
  8
ALPHA
 66
     1
 10
0.0
 20
0.0
 30
0.0
 70
   128
  0
VERTEX
  5
3BE1
  8
ALPHA
 10
643.406173
 20
8.251762
 30
0.0
  0
VERTEX
  5
3BE2
  8
ALPHA
 10
641.942525
 20
8.234233
 30
0.0
  0
VERTEX
  5
3BE3
  8
ALPHA
 10
640.670493
 20
7.867895
 30
0.0
  0
VERTEX
  5
3BE4
  8
ALPHA
 10
639.589508
 20
7.191068
 30
0.0
  0
VERTEX
  5
3BE5
  8
ALPHA
 10
638.699005
 20
6.242074
 30
0.0
  0
VERTEX
  5
3BE6
  8
ALPHA
 10
637.998416
 20
5.059235
 30
0.0
  0
VERTEX
  5
3BE7
  8
ALPHA
 10
637.487175
 20
3.680871
 30
0.0
  0
VERTEX
  5
3BE8
  8
ALPHA
 10
637.164713
 20
2.145306
 30
0.0
  0
VERTEX
  5
3BE9
  8
ALPHA
 10
637.030465
 20
0.490859
 30
0.0
  0
SEQEND
  5
3BEA
  8
ALPHA
  0
POLYLINE
  5
38A4
  8
ALPHA
 66
     1
 10
0.0
 20
0.0
 30
0.0
 70
   128
  0
VERTEX
  5
3BEB
  8
ALPHA
 10
637.030465
 20
0.490859
 30
0.0
  0
VERTEX
  5
3BEC
  8
ALPHA
 10
637.030465
 20
0.355166
 30
0.0
  0
VERTEX
  5
3BED
  8
ALPHA
 10
637.030465
 20
-0.040365
 30
0.0
  0
VERTEX
  5
3BEE
  8
ALPHA
 10
637.030465
 20
-0.67841
 30
0.0
  0
VERTEX
  5
3BEF
  8
ALPHA
 10
637.030465
 20
-1.541648
 30
0.0
  0
VERTEX
  5
3BF0
  8
ALPHA
 10
637.030465
 20
-2.612755
 30
0.0
  0
VERTEX
  5
3BF1
  8
ALPHA
 10
637.030465
 20
-3.87441
 30
0.0
  0
VERTEX
  5
3BF2
  8
ALPHA
 10
637.030465
 20
-6.900073
 30
0.0
  0
VERTEX
  5
3BF3
  8
ALPHA
 10
637.030465
 20
-10.480056
 30
0.0
  0
VERTEX
  5
3BF4
  8
ALPHA
 10
637.030465
 20
-14.475778
 30
0.0
  0
VERTEX
  5
3BF5
  8
ALPHA
 10
637.030465
 20
-23.160123
 30
0.0
  0
VERTEX
  5
3BF6
  8
ALPHA
 10
637.030465
 20
-31.844468
 30
0.0
  0
VERTEX
  5
3BF7
  8
ALPHA
 10
637.030465
 20
-35.84019
 30
0.0
  0
VERTEX
  5
3BF8
  8
ALPHA
 10
637.030465
 20
-39.420173
 30
0.0
  0
VERTEX
  5
3BF9
  8
ALPHA
 10
637.030465
 20
-42.445836
 30
0.0
  0
VERTEX
  5
3BFA
  8
ALPHA
 10
637.030465
 20
-43.707491
 30
0.0
  0
VERTEX
  5
3BFB
  8
ALPHA
 10
637.030465
 20
-44.778599
 30
0.0
  0
VERTEX
  5
3BFC
  8
ALPHA
 10
637.030465
 20
-45.641836
 30
0.0
  0
VERTEX
  5
3BFD
  8
ALPHA
 10
637.030465
 20
-46.279882
 30
0.0
  0
VERTEX
  5
3BFE
  8
ALPHA
 10
637.030465
 20
-46.675412
 30
0.0
  0
VERTEX
  5
3BFF
  8
ALPHA
 10
637.030465
 20
-46.811105
 30
0.0
  0
SEQEND
  5
3C00
  8
ALPHA
  0
ENDSEC
  0
EOF
