  0
SECTION
  2
HEADER
  9
$ACADVER
  1
AC1009
  9
$INSBASE
 10
402.590624
 20
-1.041018
 30
0.0
  9
$EXTMIN
 10
-21.586407
 20
35.228457
 30
0.0
  9
$EXTMAX
 10
121.621891
 20
213.333949
 30
0.0
  9
$LIMMIN
 10
-407.970438
 20
-367.832444
  9
$LIMMAX
 10
429.804077
 20
234.370848
  9
$ORTHOMODE
 70
     1
  9
$REGENMODE
 70
     1
  9
$FILLMODE
 70
     1
  9
$QTEXTMODE
 70
     0
  9
$MIRRTEXT
 70
     1
  9
$DRAGMODE
 70
     2
  9
$LTSCALE
 40
10.0
  9
$OSMODE
 70
    33
  9
$ATTMODE
 70
     1
  9
$TEXTSIZE
 40
6.0
  9
$TRACEWID
 40
1.0
  9
$TEXTSTYLE
  7
ROMANS
  9
$CLAYER
  8
ALPHA
  9
$CELTYPE
  6
BYLAYER
  9
$CECOLOR
 62
   256
  9
$DIMSCALE
 40
1.0
  9
$DIMASZ
 40
5.0
  9
$DIMEXO
 40
2.0
  9
$DIMDLI
 40
0.38
  9
$DIMRND
 40
0.0
  9
$DIMDLE
 40
0.0
  9
$DIMEXE
 40
2.5
  9
$DIMTP
 40
0.0
  9
$DIMTM
 40
0.0
  9
$DIMTXT
 40
2.5
  9
$DIMCEN
 40
0.0
  9
$DIMTSZ
 40
0.0
  9
$DIMTOL
 70
     0
  9
$DIMLIM
 70
     0
  9
$DIMTIH
 70
     1
  9
$DIMTOH
 70
     1
  9
$DIMSE1
 70
     0
  9
$DIMSE2
 70
     0
  9
$DIMTAD
 70
     1
  9
$DIMZIN
 70
    12
  9
$DIMBLK
  1
OPEN30
  9
$DIMASO
 70
     1
  9
$DIMSHO
 70
     1
  9
$DIMPOST
  1

  9
$DIMAPOST
  1

  9
$DIMALT
 70
     0
  9
$DIMALTD
 70
     2
  9
$DIMALTF
 40
25.4
  9
$DIMLFAC
 40
1.0
  9
$DIMTOFL
 70
     0
  9
$DIMTVP
 40
0.0
  9
$DIMTIX
 70
     0
  9
$DIMSOXD
 70
     0
  9
$DIMSAH
 70
     0
  9
$DIMBLK1
  1

  9
$DIMBLK2
  1

  9
$DIMSTYLE
  2
SC_DEFAUT
  9
$DIMCLRD
 70
     0
  9
$DIMCLRE
 70
     0
  9
$DIMCLRT
 70
     0
  9
$DIMTFAC
 40
1.0
  9
$DIMGAP
 40
2.0
  9
$LUNITS
 70
     2
  9
$LUPREC
 70
     1
  9
$SKETCHINC
 40
0.1
  9
$FILLETRAD
 40
0.0
  9
$AUNITS
 70
     0
  9
$AUPREC
 70
     0
  9
$MENU
  1
acad
  9
$ELEVATION
 40
0.0
  9
$PELEVATION
 40
0.0
  9
$THICKNESS
 40
0.0
  9
$LIMCHECK
 70
     0
  9
$BLIPMODE
 70
     0
  9
$CHAMFERA
 40
0.0
  9
$CHAMFERB
 40
0.0
  9
$SKPOLY
 70
     0
  9
$TDCREATE
 40
2450373.687919
  9
$TDUPDATE
 40
2452839.615576
  9
$TDINDWG
 40
1.764276
  9
$TDUSRTIMER
 40
1.764276
  9
$USRTIMER
 70
     1
  9
$ANGBASE
 50
0.0
  9
$ANGDIR
 70
     0
  9
$PDMODE
 70
    32
  9
$PDSIZE
 40
0.0
  9
$PLINEWID
 40
0.0
  9
$COORDS
 70
     1
  9
$SPLFRAME
 70
     0
  9
$SPLINETYPE
 70
     6
  9
$SPLINESEGS
 70
     8
  9
$ATTDIA
 70
     0
  9
$ATTREQ
 70
     1
  9
$HANDLING
 70
     1
  9
$HANDSEED
  5
14F47
  9
$SURFTAB1
 70
     6
  9
$SURFTAB2
 70
     6
  9
$SURFTYPE
 70
     6
  9
$SURFU
 70
     6
  9
$SURFV
 70
     6
  9
$UCSNAME
  2

  9
$UCSORG
 10
0.0
 20
0.0
 30
0.0
  9
$UCSXDIR
 10
1.0
 20
0.0
 30
0.0
  9
$UCSYDIR
 10
0.0
 20
1.0
 30
0.0
  9
$PUCSNAME
  2

  9
$PUCSORG
 10
0.0
 20
0.0
 30
0.0
  9
$PUCSXDIR
 10
1.0
 20
0.0
 30
0.0
  9
$PUCSYDIR
 10
0.0
 20
1.0
 30
0.0
  9
$USERI1
 70
     0
  9
$USERI2
 70
     0
  9
$USERI3
 70
     0
  9
$USERI4
 70
     0
  9
$USERI5
 70
     0
  9
$USERR1
 40
0.0
  9
$USERR2
 40
0.0
  9
$USERR3
 40
0.0
  9
$USERR4
 40
0.0
  9
$USERR5
 40
0.0
  9
$WORLDVIEW
 70
     1
  9
$SHADEDGE
 70
     3
  9
$SHADEDIF
 70
    70
  9
$TILEMODE
 70
     1
  9
$MAXACTVP
 70
    16
  9
$PLIMCHECK
 70
     0
  9
$PEXTMIN
 10
-1.452248
 20
-0.437698
 30
0.0
  9
$PEXTMAX
 10
12.749749
 20
8.310198
 30
0.0
  9
$PLIMMIN
 10
0.0
 20
0.0
  9
$PLIMMAX
 10
12.0
 20
9.0
  9
$UNITMODE
 70
     0
  9
$VISRETAIN
 70
     0
  9
$PLINEGEN
 70
     0
  9
$PSLTSCALE
 70
     0
  0
ENDSEC
  0
SECTION
  2
TABLES
  0
TABLE
  2
VPORT
 70
     2
  0
VPORT
  2
*ACTIVE
 70
     0
 10
0.0
 20
0.0
 11
1.0
 21
1.0
 12
50.034101
 22
124.283317
 13
0.0
 23
0.0
 14
1.0
 24
1.0
 15
10.0
 25
10.0
 16
0.0
 26
0.0
 36
1.0
 17
0.0
 27
0.0
 37
0.0
 40
179.651313
 41
1.56
 42
50.0
 43
0.0
 44
0.0
 50
0.0
 51
0.0
 71
     0
 72
   100
 73
     1
 74
     0
 75
     0
 76
     0
 77
     0
 78
     0
  0
ENDTAB
  0
TABLE
  2
LTYPE
 70
     2
  0
LTYPE
  2
CONTINUOUS
 70
     0
  3
Solid line
 72
    65
 73
     0
 40
0.0
  0
LTYPE
  2
AXES2
 70
     0
  3
___ _ ___ _ ___ _ ___ _ ___ _ ___ _ ___ _ ___ _
 72
    65
 73
     4
 40
1.125
 49
0.75
 49
-0.125
 49
0.125
 49
-0.125
  0
ENDTAB
  0
TABLE
  2
LAYER
 70
     5
  0
LAYER
  2
0
 70
     0
 62
   255
  6
CONTINUOUS
  0
LAYER
  2
COTATION1
 70
     0
 62
     2
  6
CONTINUOUS
  0
LAYER
  2
AXE
 70
     0
 62
    80
  6
AXES2
  0
LAYER
  2
DEFPOINTS
 70
     0
 62
     7
  6
CONTINUOUS
  0
LAYER
  2
ALPHA
 70
     0
 62
   254
  6
CONTINUOUS
  0
ENDTAB
  0
TABLE
  2
STYLE
 70
     2
  0
STYLE
  2
ROMANS
 70
     0
 40
0.0
 41
1.0
 50
0.0
 71
     0
 42
6.0
  3
romans
  4

  0
STYLE
  2
STANDARD
 70
     0
 40
0.2
 41
1.0
 50
0.0
 71
     0
 42
0.2
  3
txt
  4

  0
ENDTAB
  0
TABLE
  2
VIEW
 70
     0
  0
ENDTAB
  0
TABLE
  2
UCS
 70
     0
  0
ENDTAB
  0
TABLE
  2
APPID
 70
     1
  0
APPID
  2
ACAD
 70
     0
  0
ENDTAB
  0
TABLE
  2
DIMSTYLE
 70
     1
  0
DIMSTYLE
  2
SC_DEFAUT
 70
     0
  3

  4

  5
OPEN30
  6

  7

 40
1.0
 41
5.0
 42
2.0
 43
0.38
 44
2.5
 45
0.0
 46
0.0
 47
0.0
 48
0.0
140
2.5
141
0.0
142
0.0
143
25.4
144
1.0
145
0.0
146
1.0
147
2.0
 71
     0
 72
     0
 73
     1
 74
     1
 75
     0
 76
     0
 77
     1
 78
    12
170
     0
171
     2
172
     0
173
     0
174
     0
175
     0
176
     0
177
     0
178
     0
  0
ENDTAB
  0
ENDSEC
  0
SECTION
  2
BLOCKS
  0
BLOCK
  8
0
  2
$MODEL_SPACE
 70
     0
 10
0.0
 20
0.0
 30
0.0
  3
$MODEL_SPACE
  1

  0
ENDBLK
  5
14CEC
  8
0
  0
BLOCK
 67
     1
  8
0
  2
$PAPER_SPACE
 70
     0
 10
0.0
 20
0.0
 30
0.0
  3
$PAPER_SPACE
  1

  0
ENDBLK
  5
14CEA
 67
     1
  8
0
  0
BLOCK
  8
0
  2
COTE
 70
     0
 10
0.0
 20
0.0
 30
0.0
  3
COTE
  1

  0
ENDBLK
  5
F
  8
0
  0
BLOCK
  8
0
  2
FOND
 70
     0
 10
0.0
 20
0.0
 30
0.0
  3
FOND
  1

  0
ENDBLK
  5
75
  8
0
  0
BLOCK
  8
0
  2
_OPEN30
 70
     0
 10
0.0
 20
0.0
 30
0.0
  3
_OPEN30
  1

  0
LINE
  5
4B05
  8
COTATION1
 62
     0
 10
-1.0
 20
0.267949
 30
0.0
 11
0.0
 21
0.0
 31
0.0
1001
ACAD
1000
RTLwPs
1070
   158
  0
LINE
  5
4B06
  8
COTATION1
 62
     0
 10
0.0
 20
0.0
 30
0.0
 11
-1.0
 21
-0.267949
 31
0.0
1001
ACAD
1000
RTLwPs
1070
   158
  0
LINE
  5
4B07
  8
COTATION1
 62
     0
 10
0.0
 20
0.0
 30
0.0
 11
-1.0
 21
0.0
 31
0.0
1001
ACAD
1000
RTLwPs
1070
   158
  0
ENDBLK
  5
4B09
  8
0
  0
BLOCK
  8
0
  2
*D3
 70
     1
 10
0.0
 20
0.0
 30
0.0
  3
*D3
  1

  0
LINE
  5
14982
  8
COTATION1
 62
     0
 10
37.141915
 20
118.078457
 30
0.0
 11
37.141915
 21
70.724432
 31
0.0
1001
ACAD
1000
RTLwPs
1070
   158
  0
LINE
  5
14983
  8
COTATION1
 62
     0
 10
59.141915
 20
118.078457
 30
0.0
 11
59.141915
 21
70.724432
 31
0.0
1001
ACAD
1000
RTLwPs
1070
   158
  0
LINE
  5
14984
  8
COTATION1
 62
     0
 10
42.141915
 20
73.224432
 30
0.0
 11
54.141915
 21
73.224432
 31
0.0
1001
ACAD
1000
RTLwPs
1070
   158
  0
INSERT
  5
14985
  8
COTATION1
 62
     0
  2
_OPEN30
 10
37.141915
 20
73.224432
 30
0.0
 41
5.0
 42
5.0
 43
5.0
 50
180.0
1001
ACAD
1000
RTLwPs
1070
   158
  0
INSERT
  5
14986
  8
COTATION1
 62
     0
  2
_OPEN30
 10
59.141915
 20
73.224432
 30
0.0
 41
5.0
 42
5.0
 43
5.0
1001
ACAD
1000
RTLwPs
1070
   158
  0
TEXT
  5
14987
  8
COTATION1
 62
     0
 10
45.760963
 20
75.224432
 30
0.0
 40
2.5
  1
22
1001
ACAD
1000
MTEXTBEGIN
1070
    73
1070
     1
1070
    44
1040
1.0
1070
    74
1070
     0
1000
MTEXTEND
  0
POINT
  5
14988
  8
DEFPOINTS
 62
     0
 10
37.141915
 20
120.078457
 30
0.0
  0
POINT
  5
14989
  8
DEFPOINTS
 62
     0
 10
59.141915
 20
120.078457
 30
0.0
  0
POINT
  5
1498A
  8
DEFPOINTS
 62
     0
 10
59.141915
 20
73.224432
 30
0.0
  0
ENDBLK
  5
FF39
  8
0
  0
BLOCK
  8
0
  2
*D4
 70
     1
 10
0.0
 20
0.0
 30
0.0
  3
*D4
  1

  0
LINE
  5
1498B
  8
COTATION1
 62
     0
 10
38.141915
 20
116.078457
 30
0.0
 11
38.141915
 21
79.972419
 31
0.0
1001
ACAD
1000
RTLwPs
1070
   158
  0
LINE
  5
1498C
  8
COTATION1
 62
     0
 10
58.141915
 20
116.078457
 30
0.0
 11
58.141915
 21
79.972419
 31
0.0
1001
ACAD
1000
RTLwPs
1070
   158
  0
LINE
  5
1498D
  8
COTATION1
 62
     0
 10
43.141915
 20
82.472419
 30
0.0
 11
53.141915
 21
82.472419
 31
0.0
1001
ACAD
1000
RTLwPs
1070
   158
  0
INSERT
  5
1498E
  8
COTATION1
 62
     0
  2
_OPEN30
 10
38.141915
 20
82.472419
 30
0.0
 41
5.0
 42
5.0
 43
5.0
 50
180.0
1001
ACAD
1000
RTLwPs
1070
   158
  0
INSERT
  5
1498F
  8
COTATION1
 62
     0
  2
_OPEN30
 10
58.141915
 20
82.472419
 30
0.0
 41
5.0
 42
5.0
 43
5.0
1001
ACAD
1000
RTLwPs
1070
   158
  0
TEXT
  5
14990
  8
COTATION1
 62
     0
 10
45.760963
 20
84.472419
 30
0.0
 40
2.5
  1
20
1001
ACAD
1000
MTEXTBEGIN
1070
    73
1070
     1
1070
    44
1040
1.0
1070
    74
1070
     0
1000
MTEXTEND
  0
POINT
  5
14991
  8
DEFPOINTS
 62
     0
 10
38.141915
 20
118.078457
 30
0.0
  0
POINT
  5
14992
  8
DEFPOINTS
 62
     0
 10
58.141915
 20
118.078457
 30
0.0
  0
POINT
  5
14993
  8
DEFPOINTS
 62
     0
 10
58.141915
 20
82.472419
 30
0.0
  0
ENDBLK
  5
FF45
  8
0
  0
BLOCK
  8
0
  2
*D5
 70
     1
 10
0.0
 20
0.0
 30
0.0
  3
*D5
  1

  0
LINE
  5
148DA
  8
COTATION1
 62
     0
 10
46.141915
 20
200.228457
 30
0.0
 11
4.839804
 21
200.228457
 31
0.0
1001
ACAD
1000
RTLwPs
1070
   158
  0
LINE
  5
148DB
  8
COTATION1
 62
     0
 10
34.629214
 20
140.228457
 30
0.0
 11
4.839804
 21
140.228457
 31
0.0
1001
ACAD
1000
RTLwPs
1070
   158
  0
LINE
  5
148DC
  8
COTATION1
 62
     0
 10
7.339804
 20
195.228457
 30
0.0
 11
7.339804
 21
174.087835
 31
0.0
1001
ACAD
1000
RTLwPs
1070
   158
  0
LINE
  5
148DD
  8
COTATION1
 62
     0
 10
7.339804
 20
145.228457
 30
0.0
 11
7.339804
 21
167.587835
 31
0.0
1001
ACAD
1000
RTLwPs
1070
   158
  0
INSERT
  5
148DE
  8
COTATION1
 62
     0
  2
_OPEN30
 10
7.339804
 20
200.228457
 30
0.0
 41
5.0
 42
5.0
 43
5.0
 50
90.0
1001
ACAD
1000
RTLwPs
1070
   158
  0
INSERT
  5
148DF
  8
COTATION1
 62
     0
  2
_OPEN30
 10
7.339804
 20
140.228457
 30
0.0
 41
5.0
 42
5.0
 43
5.0
 50
270.0
1001
ACAD
1000
RTLwPs
1070
   158
  0
TEXT
  5
148E0
  8
COTATION1
 62
     0
 10
-0.457815
 20
169.587835
 30
0.0
 40
2.5
  1
60...100
1001
ACAD
1000
MTEXTBEGIN
1070
    73
1070
     1
1070
    44
1040
1.0
1070
    74
1070
     0
1000
MTEXTEND
  0
POINT
  5
148E1
  8
DEFPOINTS
 62
     0
 10
48.141915
 20
200.228457
 30
0.0
  0
POINT
  5
148E2
  8
DEFPOINTS
 62
     0
 10
36.629214
 20
140.228457
 30
0.0
  0
POINT
  5
148E3
  8
DEFPOINTS
 62
     0
 10
7.339804
 20
140.228457
 30
0.0
  0
ENDBLK
  5
10363
  8
0
  0
BLOCK
  8
0
  2
*D6
 70
     1
 10
0.0
 20
0.0
 30
0.0
  3
*D6
  1

  0
LINE
  5
148EE
  8
COTATION1
 62
     0
 10
50.141915
 20
200.228457
 30
0.0
 11
112.157605
 21
200.228457
 31
0.0
1001
ACAD
1000
RTLwPs
1070
   158
  0
LINE
  5
148EF
  8
COTATION1
 62
     0
 10
65.141915
 20
67.728457
 30
0.0
 11
112.157605
 21
67.728457
 31
0.0
1001
ACAD
1000
RTLwPs
1070
   158
  0
LINE
  5
148F0
  8
COTATION1
 62
     0
 10
109.657605
 20
195.228457
 30
0.0
 11
109.657605
 21
137.228457
 31
0.0
1001
ACAD
1000
RTLwPs
1070
   158
  0
LINE
  5
148F1
  8
COTATION1
 62
     0
 10
109.657605
 20
72.728457
 30
0.0
 11
109.657605
 21
130.728457
 31
0.0
1001
ACAD
1000
RTLwPs
1070
   158
  0
INSERT
  5
148F2
  8
COTATION1
 62
     0
  2
_OPEN30
 10
109.657605
 20
200.228457
 30
0.0
 41
5.0
 42
5.0
 43
5.0
 50
90.0
1001
ACAD
1000
RTLwPs
1070
   158
  0
INSERT
  5
148F3
  8
COTATION1
 62
     0
  2
_OPEN30
 10
109.657605
 20
67.728457
 30
0.0
 41
5.0
 42
5.0
 43
5.0
 50
270.0
1001
ACAD
1000
RTLwPs
1070
   158
  0
TEXT
  5
148F4
  8
COTATION1
 62
     0
 10
96.979034
 20
132.728457
 30
0.0
 40
2.5
  1
132.5...172.5
1001
ACAD
1000
MTEXTBEGIN
1070
    73
1070
     1
1070
    44
1040
1.0
1070
    74
1070
     0
1000
MTEXTEND
  0
POINT
  5
148F5
  8
DEFPOINTS
 62
     0
 10
48.141915
 20
200.228457
 30
0.0
  0
POINT
  5
148F6
  8
DEFPOINTS
 62
     0
 10
63.141915
 20
67.728457
 30
0.0
  0
POINT
  5
148F7
  8
DEFPOINTS
 62
     0
 10
109.657605
 20
67.728457
 30
0.0
  0
ENDBLK
  5
10370
  8
0
  0
BLOCK
  8
0
  2
*D7
 70
     1
 10
0.0
 20
0.0
 30
0.0
  3
*D7
  1

  0
LINE
  5
14634
  8
COTATION1
 62
     0
 10
33.141915
 20
65.728457
 30
0.0
 11
33.141915
 21
35.228457
 31
0.0
1001
ACAD
1000
RTLwPs
1070
   158
  0
LINE
  5
14635
  8
COTATION1
 62
     0
 10
63.141915
 20
65.728457
 30
0.0
 11
63.141915
 21
35.228457
 31
0.0
1001
ACAD
1000
RTLwPs
1070
   158
  0
LINE
  5
14636
  8
COTATION1
 62
     0
 10
38.141915
 20
37.728457
 30
0.0
 11
58.141915
 21
37.728457
 31
0.0
1001
ACAD
1000
RTLwPs
1070
   158
  0
INSERT
  5
14637
  8
COTATION1
 62
     0
  2
_OPEN30
 10
33.141915
 20
37.728457
 30
0.0
 41
5.0
 42
5.0
 43
5.0
 50
180.0
1001
ACAD
1000
RTLwPs
1070
   158
  0
INSERT
  5
14638
  8
COTATION1
 62
     0
  2
_OPEN30
 10
63.141915
 20
37.728457
 30
0.0
 41
5.0
 42
5.0
 43
5.0
1001
ACAD
1000
RTLwPs
1070
   158
  0
TEXT
  5
14639
  8
COTATION1
 62
     0
 10
45.760963
 20
39.728457
 30
0.0
 40
2.5
  1
30
1001
ACAD
1000
MTEXTBEGIN
1070
    73
1070
     1
1070
    44
1040
1.0
1070
    74
1070
     0
1000
MTEXTEND
1000
MTEXTBEGIN
1070
    73
1070
     1
1070
    44
1040
1.0
1070
    74
1070
     0
1000
MTEXTEND
  0
POINT
  5
1463A
  8
DEFPOINTS
 62
     0
 10
33.141915
 20
67.728457
 30
0.0
  0
POINT
  5
1463B
  8
DEFPOINTS
 62
     0
 10
63.141915
 20
67.728457
 30
0.0
  0
POINT
  5
1463C
  8
DEFPOINTS
 62
     0
 10
63.141915
 20
37.728457
 30
0.0
  0
ENDBLK
  5
1037C
  8
0
  0
BLOCK
  8
0
  2
*D8
 70
     1
 10
0.0
 20
0.0
 30
0.0
  3
*D8
  1

  0
LINE
  5
14A56
  8
COTATION1
 62
     0
 10
65.291915
 20
124.228457
 30
0.0
 11
89.152295
 21
124.228457
 31
0.0
  0
LINE
  5
14A57
  8
COTATION1
 62
     0
 10
64.291915
 20
122.228457
 30
0.0
 11
89.152295
 21
122.228457
 31
0.0
  0
LINE
  5
14A58
  8
COTATION1
 62
     0
 10
86.652295
 20
129.228457
 30
0.0
 11
86.652295
 21
134.228457
 31
0.0
  0
LINE
  5
14A59
  8
COTATION1
 62
     0
 10
86.652295
 20
117.228457
 30
0.0
 11
86.652295
 21
112.228457
 31
0.0
  0
TEXT
  5
14A5A
  8
COTATION1
 62
     0
 10
82.628485
 20
112.926735
 30
0.0
 40
2.5
  1
2
  0
INSERT
  5
14A5B
  8
COTATION1
 62
     0
  2
_OPEN30
 10
86.652295
 20
124.228457
 30
0.0
 41
5.0
 42
5.0
 43
5.0
 50
270.0
  0
INSERT
  5
14A5C
  8
COTATION1
 62
     0
  2
_OPEN30
 10
86.652295
 20
122.228457
 30
0.0
 41
5.0
 42
5.0
 43
5.0
 50
90.0
  0
POINT
  5
14A5D
  8
DEFPOINTS
 62
     0
 10
63.291915
 20
124.228457
 30
0.0
  0
POINT
  5
14A5E
  8
DEFPOINTS
 62
     0
 10
62.291915
 20
122.228457
 30
0.0
  0
POINT
  5
14A5F
  8
DEFPOINTS
 62
     0
 10
86.652295
 20
122.228457
 30
0.0
  0
ENDBLK
  5
103A2
  8
0
  0
BLOCK
  8
0
  2
*D9
 70
     1
 10
0.0
 20
0.0
 30
0.0
  3
*D9
  1

  0
LINE
  5
1461B
  8
COTATION1
 62
     0
 10
89.168892
 20
136.874539
 30
0.0
 11
64.039758
 21
136.874539
 31
0.0
1001
ACAD
1000
RTLwPs
1070
   158
  0
LINE
  5
1461C
  8
COTATION1
 62
     0
 10
64.039758
 20
136.874539
 30
0.0
 11
61.724208
 21
130.89586
 31
0.0
1001
ACAD
1000
RTLwPs
1070
   158
  0
TEXT
  5
1461D
  8
COTATION1
 62
     0
 10
68.930796
 20
138.874539
 30
0.0
 40
2.5
  1
2x%%c4.3x6.3
1001
ACAD
1000
MTEXTBEGIN
1070
    73
1070
     1
1070
    44
1040
1.0
1070
    74
1070
     0
1000
MTEXTEND
1000
MTEXTBEGIN
1070
    73
1070
     1
1070
    44
1040
1.0
1070
    74
1070
     0
1000
MTEXTEND
  0
INSERT
  5
1461E
  8
COTATION1
 62
     0
  2
_OPEN30
 10
59.918409
 20
126.233341
 30
0.0
 41
5.0
 42
5.0
 43
5.0
 50
248.828555
1001
ACAD
1000
RTLwPs
1070
   158
  0
POINT
  5
1461F
  8
DEFPOINTS
 62
     0
 10
59.918409
 20
126.233341
 30
0.0
  0
POINT
  5
14620
  8
DEFPOINTS
 62
     0
 10
58.365421
 20
122.223574
 30
0.0
  0
ENDBLK
  5
10481
  8
0
  0
BLOCK
  8
0
  2
*D10
 70
     1
 10
0.0
 20
0.0
 30
0.0
  3
*D10
  1

  0
LINE
  5
1463D
  8
COTATION1
 62
     0
 10
80.865766
 20
85.42229
 30
0.0
 11
66.961004
 21
85.42229
 31
0.0
1001
ACAD
1000
RTLwPs
1070
   158
  0
LINE
  5
1463E
  8
COTATION1
 62
     0
 10
66.961004
 20
85.42229
 30
0.0
 11
42.549872
 21
116.598855
 31
0.0
1001
ACAD
1000
RTLwPs
1070
   158
  0
TEXT
  5
1463F
  8
COTATION1
 62
     0
 10
68.603861
 20
87.42229
 30
0.0
 40
2.5
  1
2x%%c4.3
1001
ACAD
1000
MTEXTBEGIN
1070
    73
1070
     1
1070
    44
1040
1.0
1070
    74
1070
     0
1000
MTEXTEND
1000
MTEXTBEGIN
1070
    73
1070
     1
1070
    44
1040
1.0
1070
    74
1070
     0
1000
MTEXTEND
  0
INSERT
  5
14640
  8
COTATION1
 62
     0
  2
_OPEN30
 10
39.467385
 20
120.53564
 30
0.0
 41
5.0
 42
5.0
 43
5.0
 50
128.060809
1001
ACAD
1000
RTLwPs
1070
   158
  0
POINT
  5
14641
  8
DEFPOINTS
 62
     0
 10
39.467385
 20
120.53564
 30
0.0
  0
POINT
  5
14642
  8
DEFPOINTS
 62
     0
 10
36.816445
 20
123.921274
 30
0.0
  0
ENDBLK
  5
1048A
  8
0
  0
BLOCK
  8
0
  2
*D11
 70
     1
 10
0.0
 20
0.0
 30
0.0
  3
*D11
  1

  0
LINE
  5
148E4
  8
COTATION1
 62
     0
 10
46.141915
 20
200.228457
 30
0.0
 11
-16.705454
 21
200.228457
 31
0.0
1001
ACAD
1000
RTLwPs
1070
   158
  0
LINE
  5
148E5
  8
COTATION1
 62
     0
 10
31.991915
 20
122.228457
 30
0.0
 11
-16.705454
 21
122.228457
 31
0.0
1001
ACAD
1000
RTLwPs
1070
   158
  0
LINE
  5
148E6
  8
COTATION1
 62
     0
 10
-14.205454
 20
195.228457
 30
0.0
 11
-14.205454
 21
164.478457
 31
0.0
1001
ACAD
1000
RTLwPs
1070
   158
  0
LINE
  5
148E7
  8
COTATION1
 62
     0
 10
-14.205454
 20
127.228457
 30
0.0
 11
-14.205454
 21
157.978457
 31
0.0
1001
ACAD
1000
RTLwPs
1070
   158
  0
INSERT
  5
148E8
  8
COTATION1
 62
     0
  2
_OPEN30
 10
-14.205454
 20
200.228457
 30
0.0
 41
5.0
 42
5.0
 43
5.0
 50
90.0
1001
ACAD
1000
RTLwPs
1070
   158
  0
INSERT
  5
148E9
  8
COTATION1
 62
     0
  2
_OPEN30
 10
-14.205454
 20
122.228457
 30
0.0
 41
5.0
 42
5.0
 43
5.0
 50
270.0
1001
ACAD
1000
RTLwPs
1070
   158
  0
TEXT
  5
148EA
  8
COTATION1
 62
     0
 10
-21.943549
 20
159.978457
 30
0.0
 40
2.5
  1
78...118
1001
ACAD
1000
MTEXTBEGIN
1070
    73
1070
     1
1070
    44
1040
1.0
1070
    74
1070
     0
1000
MTEXTEND
  0
POINT
  5
148EB
  8
DEFPOINTS
 62
     0
 10
48.141915
 20
200.228457
 30
0.0
  0
POINT
  5
148EC
  8
DEFPOINTS
 62
     0
 10
33.991915
 20
122.228457
 30
0.0
  0
POINT
  5
148ED
  8
DEFPOINTS
 62
     0
 10
-14.205454
 20
122.228457
 30
0.0
  0
ENDBLK
  5
13AFA
  8
0
  0
BLOCK
  8
0
  2
*D12
 70
     1
 10
0.0
 20
0.0
 30
0.0
  3
*D12
  1

  0
LINE
  5
14913
  8
COTATION1
 62
     0
 10
85.143757
 20
208.833949
 30
0.0
 11
76.834233
 21
208.833949
 31
0.0
1001
ACAD
1000
RTLwPs
1070
   158
  0
LINE
  5
14914
  8
COTATION1
 62
     0
 10
76.834233
 20
208.833949
 30
0.0
 11
67.621633
 21
198.043815
 31
0.0
1001
ACAD
1000
RTLwPs
1070
   158
  0
TEXT
  5
14915
  8
COTATION1
 62
     0
 10
78.596138
 20
210.833949
 30
0.0
 40
2.5
  1
%%c50
1001
ACAD
1000
MTEXTBEGIN
1070
    73
1070
     1
1070
    44
1040
1.0
1070
    74
1070
     0
1000
MTEXTEND
  0
INSERT
  5
14916
  8
COTATION1
 62
     0
  2
_OPEN30
 10
64.375014
 20
194.241256
 30
0.0
 41
5.0
 42
5.0
 43
5.0
 50
229.50935
1001
ACAD
1000
RTLwPs
1070
   158
  0
POINT
  5
14917
  8
DEFPOINTS
 62
     0
 10
64.375014
 20
194.241256
 30
0.0
  0
POINT
  5
14918
  8
DEFPOINTS
 62
     0
 10
31.908816
 20
156.215659
 30
0.0
  0
ENDBLK
  5
14912
  8
0
  0
ENDSEC
  0
SECTION
  2
ENTITIES
  0
INSERT
  5
A
  8
0
  2
COTE
 10
0.0
 20
0.0
 30
0.0
  0
INSERT
  5
17
  8
0
  2
COTE
 10
284.010391
 20
6.373258
 30
0.0
  0
INSERT
  5
72
  8
0
  2
FOND
 10
0.0
 20
0.0
 30
0.0
  0
LINE
  5
FCF2
  8
ALPHA
 10
33.141915
 20
67.728457
 30
0.0
 11
63.141915
 21
67.728457
 31
0.0
  0
LINE
  5
FCF4
  8
ALPHA
 10
33.141915
 20
67.728457
 30
0.0
 11
33.141915
 21
128.228457
 31
0.0
  0
LINE
  5
FCF5
  8
AXE
 10
48.141915
 20
205.228457
 30
0.0
 11
48.141915
 21
51.728457
 31
0.0
  0
TEXT
  5
FCF6
  8
AXE
 10
40.665725
 20
51.728457
 30
0.0
 40
8.0
  1
Y
 72
     2
 11
47.141915
 21
51.728457
 31
0.0
  0
LINE
  5
FD13
  8
ALPHA
 10
42.891915
 20
128.228457
 30
0.0
 11
48.141915
 21
128.228457
 31
0.0
  0
LINE
  5
FD15
  8
ALPHA
 10
35.641915
 20
132.128457
 30
0.0
 11
39.428442
 21
132.128457
 31
0.0
  0
LINE
  5
FD1D
  8
ALPHA
 10
35.641915
 20
148.128457
 30
0.0
 11
35.641915
 21
128.228457
 31
0.0
  0
LINE
  5
FD1F
  8
ALPHA
 10
33.141915
 20
128.228457
 30
0.0
 11
35.641915
 21
128.228457
 31
0.0
  0
LINE
  5
FD22
  8
ALPHA
 10
60.641915
 20
132.128457
 30
0.0
 11
56.855387
 21
132.128457
 31
0.0
  0
LINE
  5
FD24
  8
ALPHA
 10
63.141915
 20
128.228457
 30
0.0
 11
60.641915
 21
128.228457
 31
0.0
  0
LINE
  5
FD26
  8
ALPHA
 10
53.391915
 20
128.228457
 30
0.0
 11
48.141915
 21
128.228457
 31
0.0
  0
LINE
  5
FD27
  8
ALPHA
 10
63.141915
 20
128.228457
 30
0.0
 11
63.141915
 21
67.728457
 31
0.0
  0
DIMENSION
  5
FF01
  8
COTATION1
  2
*D3
 10
59.141915
 20
73.224432
 30
0.0
 11
48.141915
 21
76.474432
 31
0.0
 13
37.141915
 23
120.078457
 33
0.0
 14
59.141915
 24
120.078457
 34
0.0
  0
DIMENSION
  5
FF02
  8
COTATION1
  2
*D4
 10
58.141915
 20
82.472419
 30
0.0
 11
48.141915
 21
85.722419
 31
0.0
 13
38.141915
 23
118.078457
 33
0.0
 14
58.141915
 24
118.078457
 34
0.0
  0
ARC
  5
FF0C
  8
ALPHA
 10
38.141915
 20
122.228457
 30
0.0
 40
2.15
 50
270.0
 51
313.14986
  0
LINE
  5
FF0D
  8
ALPHA
 10
34.991915
 20
124.228457
 30
0.0
 11
34.991915
 21
122.228457
 31
0.0
  0
LINE
  5
FF0E
  8
AXE
 10
37.141915
 20
120.078457
 30
0.0
 11
37.141915
 21
128.378457
 31
0.0
  0
LINE
  5
FF0F
  8
AXE
 10
38.141915
 20
118.078457
 30
0.0
 11
38.141915
 21
126.378457
 31
0.0
  0
ARC
  5
FF10
  8
ALPHA
 10
37.141915
 20
122.228457
 30
0.0
 40
2.15
 50
180.0
 51
270.0
  0
LINE
  5
FF11
  8
ALPHA
 10
37.141915
 20
120.078457
 30
0.0
 11
38.141915
 21
120.078457
 31
0.0
  0
ARC
  5
FF12
  8
ALPHA
 10
37.141915
 20
124.228457
 30
0.0
 40
2.15
 50
0.0
 51
0.118585
  0
LINE
  5
FF16
  8
ALPHA
 10
39.291915
 20
124.228457
 30
0.0
 11
39.291915
 21
124.045047
 31
0.0
  0
ARC
  5
FF17
  8
ALPHA
 10
59.141915
 20
122.228457
 30
0.0
 40
2.15
 50
270.0
 51
0.0
  0
ARC
  5
FF18
  8
ALPHA
 10
59.141915
 20
124.228457
 30
0.0
 40
2.15
 50
0.0
 51
180.0
  0
ARC
  5
FF1A
  8
ALPHA
 10
58.141915
 20
122.228457
 30
0.0
 40
2.15
 50
122.336026
 51
270.0
  0
LINE
  5
FF1C
  8
AXE
 10
59.141915
 20
120.078457
 30
0.0
 11
59.141915
 21
128.378457
 31
0.0
  0
LINE
  5
FF1D
  8
AXE
 10
58.141915
 20
118.078457
 30
0.0
 11
58.141915
 21
126.378457
 31
0.0
  0
LINE
  5
FF27
  8
ALPHA
 10
59.141915
 20
120.078457
 30
0.0
 11
58.141915
 21
120.078457
 31
0.0
  0
LINE
  5
FF2C
  8
ALPHA
 10
56.991915
 20
124.228457
 30
0.0
 11
56.991915
 21
124.045047
 31
0.0
  0
LINE
  5
FF2D
  8
ALPHA
 10
61.291915
 20
124.228457
 30
0.0
 11
61.291915
 21
122.228457
 31
0.0
  0
DIMENSION
  5
10344
  8
COTATION1
  2
*D6
 10
109.657605
 20
67.728457
 30
0.0
 11
109.657605
 21
133.978457
 31
0.0
  1
132.5...172.5
 13
48.141915
 23
200.228457
 33
0.0
 14
63.141915
 24
67.728457
 34
0.0
 50
90.0
  0
DIMENSION
  5
10346
  8
COTATION1
  2
*D8
 10
86.652295
 20
122.228457
 30
0.0
 11
83.818962
 21
114.176735
 31
0.0
 70
   128
 13
63.291915
 23
124.228457
 33
0.0
 14
62.291915
 24
122.228457
 34
0.0
 50
90.0
1001
ACAD
1000
DSTYLE
1002
{
1070
   287
1070
     5
1070
   287
1070
     5
1070
   287
1070
     5
1070
   287
1070
     5
1070
   287
1070
     5
1070
   287
1070
     5
1070
   287
1070
     5
1070
   287
1070
     5
1070
   287
1070
     5
1070
   287
1070
     5
1070
   287
1070
     5
1070
   279
1070
     2
1070
   289
1070
     3
1002
}
  0
DIMENSION
  5
10348
  8
COTATION1
  2
*D7
 10
63.141915
 20
37.728457
 30
0.0
 11
48.141915
 21
40.978457
 31
0.0
 13
33.141915
 23
67.728457
 33
0.0
 14
63.141915
 24
67.728457
 34
0.0
  0
DIMENSION
  5
10349
  8
COTATION1
  2
*D5
 10
7.339804
 20
140.228457
 30
0.0
 11
7.339804
 21
170.837835
 31
0.0
 70
   128
  1
60...100
 13
48.141915
 23
200.228457
 33
0.0
 14
36.629214
 24
140.228457
 34
0.0
 50
90.0
  0
DIMENSION
  5
10471
  8
COTATION1
  2
*D10
 10
36.816445
 20
123.921274
 30
0.0
 11
74.913385
 21
85.42229
 31
0.0
 70
   131
  1
2x<>
 15
39.467385
 25
120.53564
 35
0.0
 40
0.0
1001
ACAD
1000
DSTYLE
1002
{
1070
   288
1070
     1
1002
}
  0
DIMENSION
  5
10472
  8
COTATION1
  2
*D9
 10
58.365421
 20
122.223574
 30
0.0
 11
79.228415
 21
136.874539
 31
0.0
 70
   131
  1
2x<>x6.3
 15
59.918409
 25
126.233341
 35
0.0
 40
0.0
1001
ACAD
1000
DSTYLE
1002
{
1070
   288
1070
     1
1002
}
  0
LINE
  5
10473
  8
AXE
 10
28.641915
 20
99.678457
 30
0.0
 11
78.641915
 21
99.678457
 31
0.0
  0
TEXT
  5
10474
  8
AXE
 10
72.165725
 20
100.678457
 30
0.0
 40
8.0
  1
X
 72
     2
 11
78.641915
 21
100.678457
 31
0.0
  0
LINE
  5
10475
  8
AXE
 10
62.291915
 20
122.228457
 30
0.0
 11
53.991915
 21
122.228457
 31
0.0
  0
LINE
  5
10476
  8
AXE
 10
63.291915
 20
124.228457
 30
0.0
 11
54.991915
 21
124.228457
 31
0.0
  0
LINE
  5
10477
  8
AXE
 10
33.991915
 20
122.228457
 30
0.0
 11
42.291915
 21
122.228457
 31
0.0
  0
LINE
  5
10478
  8
AXE
 10
32.991915
 20
124.228457
 30
0.0
 11
41.291915
 21
124.228457
 31
0.0
  0
CIRCLE
  5
105B1
  8
ALPHA
 10
48.141915
 20
122.728457
 30
0.0
 40
2.492187
  0
LINE
  5
105B4
  8
ALPHA
 10
45.723032
 20
123.328457
 30
0.0
 11
50.560798
 21
123.328457
 31
0.0
  0
LINE
  5
105B5
  8
ALPHA
 10
45.723032
 20
122.128457
 30
0.0
 11
50.560798
 21
122.128457
 31
0.0
  0
LINE
  5
10805
  8
ALPHA
 10
57.658286
 20
115.800008
 30
0.0
 11
56.852464
 21
115.96178
 31
0.0
  0
LINE
  5
10897
  8
ALPHA
 10
39.420199
 20
115.972946
 30
0.0
 11
38.753062
 21
115.775719
 31
0.0
  0
POLYLINE
  5
10898
  8
ALPHA
 66
     1
 10
0.0
 20
0.0
 30
0.0
 70
   128
  0
VERTEX
  5
14CF2
  8
ALPHA
 10
44.048832
 20
123.830572
 30
0.0
  0
VERTEX
  5
14CF3
  8
ALPHA
 10
43.937516
 20
123.507764
 30
0.0
  0
VERTEX
  5
14CF4
  8
ALPHA
 10
43.655578
 20
122.69017
 30
0.0
  0
VERTEX
  5
14CF5
  8
ALPHA
 10
42.891915
 20
120.475616
 30
0.0
  0
SEQEND
  5
14CF6
  8
ALPHA
  0
LINE
  5
10899
  8
ALPHA
 10
38.753062
 20
115.775719
 30
0.0
 11
33.141915
 21
114.217502
 31
0.0
  0
LINE
  5
1089A
  8
ALPHA
 10
45.155502
 20
125.582419
 30
0.0
 11
44.048832
 21
123.830572
 31
0.0
  0
POLYLINE
  5
1089B
  8
ALPHA
 66
     1
 10
0.0
 20
0.0
 30
0.0
 70
   128
  0
VERTEX
  5
14CF7
  8
ALPHA
 10
46.61664
 20
127.183978
 30
0.0
  0
VERTEX
  5
14CF8
  8
ALPHA
 10
46.388337
 20
126.933734
 30
0.0
  0
VERTEX
  5
14CF9
  8
ALPHA
 10
45.886071
 20
126.383199
 30
0.0
  0
VERTEX
  5
14CFA
  8
ALPHA
 10
45.383805
 20
125.832663
 30
0.0
  0
VERTEX
  5
14CFB
  8
ALPHA
 10
45.155502
 20
125.582419
 30
0.0
  0
SEQEND
  5
14CFC
  8
ALPHA
  0
POLYLINE
  5
1089C
  8
ALPHA
 66
     1
 10
0.0
 20
0.0
 30
0.0
 70
   128
  0
VERTEX
  5
14CFD
  8
ALPHA
 10
51.226244
 20
125.582419
 30
0.0
  0
VERTEX
  5
14CFE
  8
ALPHA
 10
50.998179
 20
125.832663
 30
0.0
  0
VERTEX
  5
14CFF
  8
ALPHA
 10
50.496435
 20
126.383199
 30
0.0
  0
VERTEX
  5
14D00
  8
ALPHA
 10
49.99469
 20
126.933734
 30
0.0
  0
VERTEX
  5
14D01
  8
ALPHA
 10
49.766625
 20
127.183978
 30
0.0
  0
SEQEND
  5
14D02
  8
ALPHA
  0
LINE
  5
1089D
  8
ALPHA
 10
52.334432
 20
123.830572
 30
0.0
 11
51.226244
 21
125.582419
 31
0.0
  0
POLYLINE
  5
1089E
  8
ALPHA
 66
     1
 10
0.0
 20
0.0
 30
0.0
 70
   128
  0
VERTEX
  5
14D03
  8
ALPHA
 10
49.766625
 20
127.183978
 30
0.0
  0
VERTEX
  5
14D04
  8
ALPHA
 10
49.057878
 20
127.64566
 30
0.0
  0
VERTEX
  5
14D05
  8
ALPHA
 10
48.19315
 20
127.812457
 30
0.0
  0
VERTEX
  5
14D06
  8
ALPHA
 10
47.324627
 20
127.64566
 30
0.0
  0
VERTEX
  5
14D07
  8
ALPHA
 10
46.61664
 20
127.183978
 30
0.0
  0
SEQEND
  5
14D08
  8
ALPHA
  0
POLYLINE
  5
1089F
  8
ALPHA
 66
     1
 10
0.0
 20
0.0
 30
0.0
 70
   128
  0
VERTEX
  5
14D09
  8
ALPHA
 10
53.391915
 20
120.761199
 30
0.0
  0
VERTEX
  5
14D0A
  8
ALPHA
 10
52.68371
 20
122.816782
 30
0.0
  0
VERTEX
  5
14D0B
  8
ALPHA
 10
52.432365
 20
123.546319
 30
0.0
  0
VERTEX
  5
14D0C
  8
ALPHA
 10
52.334432
 20
123.830572
 30
0.0
  0
SEQEND
  5
14D0D
  8
ALPHA
  0
LINE
  5
108A0
  8
ALPHA
 10
57.643106
 20
115.780273
 30
0.0
 11
56.898088
 21
116.007403
 31
0.0
  0
LINE
  5
108A1
  8
ALPHA
 10
63.141915
 20
114.284942
 30
0.0
 11
57.643106
 21
115.780273
 31
0.0
  0
LINE
  5
11CD8
  8
ALPHA
 10
60.641915
 20
148.128457
 30
0.0
 11
60.641915
 21
128.228457
 31
0.0
  0
LINE
  5
125DE
  8
ALPHA
 10
60.641915
 20
148.128457
 30
0.0
 11
56.692643
 21
148.128457
 31
0.0
  0
LINE
  5
1363D
  8
ALPHA
 10
53.391915
 20
150.785922
 30
0.0
 11
53.391915
 21
145.236281
 31
0.0
  0
LINE
  5
1363E
  8
ALPHA
 10
42.891915
 20
150.785922
 30
0.0
 11
42.891915
 21
145.236281
 31
0.0
  0
ARC
  5
13640
  8
ALPHA
 10
48.141915
 20
99.678457
 30
0.0
 40
5.25
 50
180.0
 51
0.0
  0
POLYLINE
  5
136CF
  8
ALPHA
 66
     1
 10
0.0
 20
0.0
 30
0.0
 70
   128
  0
VERTEX
  5
14D0E
  8
ALPHA
 10
39.641915
 20
99.560005
 30
0.0
  0
VERTEX
  5
14D0F
  8
ALPHA
 10
39.739285
 20
99.126209
 30
0.0
  0
VERTEX
  5
14D10
  8
ALPHA
 10
39.995988
 20
97.982565
 30
0.0
  0
VERTEX
  5
14D11
  8
ALPHA
 10
40.774947
 20
94.512195
 30
0.0
  0
VERTEX
  5
14D12
  8
ALPHA
 10
41.553907
 20
91.041826
 30
0.0
  0
VERTEX
  5
14D13
  8
ALPHA
 10
41.81061
 20
89.898181
 30
0.0
  0
VERTEX
  5
14D14
  8
ALPHA
 10
41.90798
 20
89.464385
 30
0.0
  0
VERTEX
  5
14D15
  8
ALPHA
 10
42.343664
 20
88.501932
 30
0.0
  0
SEQEND
  5
14D16
  8
ALPHA
  0
POLYLINE
  5
136D0
  8
ALPHA
 66
     1
 10
0.0
 20
0.0
 30
0.0
 70
   128
  0
VERTEX
  5
14D17
  8
ALPHA
 10
42.343664
 20
88.501932
 30
0.0
  0
VERTEX
  5
14D18
  8
ALPHA
 10
42.850698
 20
87.803622
 30
0.0
  0
VERTEX
  5
14D19
  8
ALPHA
 10
43.664298
 20
87.416515
 30
0.0
  0
VERTEX
  5
14D1A
  8
ALPHA
 10
44.46129
 20
87.809604
 30
0.0
  0
VERTEX
  5
14D1B
  8
ALPHA
 10
46.078307
 20
89.06904
 30
0.0
  0
VERTEX
  5
14D1C
  8
ALPHA
 10
48.141915
 20
89.53877
 30
0.0
  0
SEQEND
  5
14D1D
  8
ALPHA
  0
LINE
  5
1373F
  8
ALPHA
 10
39.574519
 20
151.66603
 30
0.0
 11
39.233556
 21
151.246551
 31
0.0
  0
LINE
  5
13740
  8
ALPHA
 10
39.233556
 20
151.246551
 30
0.0
 11
39.641915
 21
150.841228
 31
0.0
  0
LINE
  5
1374D
  8
ALPHA
 10
39.641915
 20
140.860217
 30
0.0
 11
39.233556
 21
140.453375
 31
0.0
  0
LINE
  5
1374E
  8
ALPHA
 10
39.233556
 20
140.453375
 30
0.0
 11
39.641915
 21
140.046534
 31
0.0
  0
LINE
  5
1374F
  8
ALPHA
 10
39.641915
 20
140.046534
 30
0.0
 11
39.233556
 21
139.641211
 31
0.0
  0
LINE
  5
13750
  8
ALPHA
 10
39.233556
 20
139.641211
 30
0.0
 11
39.641915
 21
139.232851
 31
0.0
  0
LINE
  5
13751
  8
ALPHA
 10
39.641915
 20
139.232851
 30
0.0
 11
39.233556
 21
138.827528
 31
0.0
  0
LINE
  5
13752
  8
ALPHA
 10
39.233556
 20
138.827528
 30
0.0
 11
39.641915
 21
138.420686
 31
0.0
  0
LINE
  5
13753
  8
ALPHA
 10
39.641915
 20
138.420686
 30
0.0
 11
39.233556
 21
138.015363
 31
0.0
  0
LINE
  5
13754
  8
ALPHA
 10
39.233556
 20
138.015363
 30
0.0
 11
39.641915
 21
137.607004
 31
0.0
  0
LINE
  5
13755
  8
ALPHA
 10
39.641915
 20
137.607004
 30
0.0
 11
39.233556
 21
137.20168
 31
0.0
  0
LINE
  5
13756
  8
ALPHA
 10
39.233556
 20
137.20168
 30
0.0
 11
39.641915
 21
136.794839
 31
0.0
  0
LINE
  5
13757
  8
ALPHA
 10
39.641915
 20
136.794839
 30
0.0
 11
39.233556
 21
136.386479
 31
0.0
  0
LINE
  5
13758
  8
ALPHA
 10
39.233556
 20
136.386479
 30
0.0
 11
39.641915
 21
135.981156
 31
0.0
  0
LINE
  5
13759
  8
ALPHA
 10
39.233556
 20
131.507419
 30
0.0
 11
39.641915
 21
131.102095
 31
0.0
  0
LINE
  5
1375A
  8
ALPHA
 10
39.641915
 20
131.915778
 30
0.0
 11
39.233556
 21
131.507419
 31
0.0
  0
LINE
  5
1375B
  8
ALPHA
 10
39.233556
 20
132.32262
 30
0.0
 11
39.641915
 21
131.915778
 31
0.0
  0
LINE
  5
1375C
  8
ALPHA
 10
39.641915
 20
132.727943
 30
0.0
 11
39.233556
 21
132.32262
 31
0.0
  0
LINE
  5
1375D
  8
ALPHA
 10
39.233556
 20
133.136302
 30
0.0
 11
39.641915
 21
132.727943
 31
0.0
  0
LINE
  5
1375E
  8
ALPHA
 10
39.641915
 20
133.541626
 30
0.0
 11
39.233556
 21
133.136302
 31
0.0
  0
LINE
  5
1375F
  8
ALPHA
 10
39.233556
 20
133.948467
 30
0.0
 11
39.641915
 21
133.541626
 31
0.0
  0
LINE
  5
13760
  8
ALPHA
 10
39.641915
 20
134.35379
 30
0.0
 11
39.233556
 21
133.948467
 31
0.0
  0
LINE
  5
13761
  8
ALPHA
 10
39.233556
 20
134.76215
 30
0.0
 11
39.641915
 21
134.35379
 31
0.0
  0
LINE
  5
13762
  8
ALPHA
 10
39.641915
 20
135.167473
 30
0.0
 11
39.233556
 21
134.76215
 31
0.0
  0
LINE
  5
13763
  8
ALPHA
 10
39.233556
 20
135.574315
 30
0.0
 11
39.641915
 21
135.167473
 31
0.0
  0
LINE
  5
13764
  8
ALPHA
 10
39.641915
 20
135.981156
 30
0.0
 11
39.233556
 21
135.574315
 31
0.0
  0
LINE
  5
13765
  8
ALPHA
 10
39.641915
 20
145.739277
 30
0.0
 11
39.233556
 21
145.332436
 31
0.0
  0
LINE
  5
13766
  8
ALPHA
 10
39.233556
 20
145.332436
 30
0.0
 11
39.641915
 21
144.925594
 31
0.0
  0
LINE
  5
13767
  8
ALPHA
 10
39.641915
 20
144.925594
 30
0.0
 11
39.233556
 21
144.520271
 31
0.0
  0
LINE
  5
13768
  8
ALPHA
 10
39.233556
 20
144.520271
 30
0.0
 11
39.641915
 21
144.111912
 31
0.0
  0
LINE
  5
13769
  8
ALPHA
 10
39.641915
 20
144.111912
 30
0.0
 11
39.233556
 21
143.706588
 31
0.0
  0
LINE
  5
1376A
  8
ALPHA
 10
39.233556
 20
143.706588
 30
0.0
 11
39.641915
 21
143.299747
 31
0.0
  0
LINE
  5
1376B
  8
ALPHA
 10
39.641915
 20
143.299747
 30
0.0
 11
39.233556
 21
142.894424
 31
0.0
  0
LINE
  5
1376C
  8
ALPHA
 10
39.233556
 20
142.894424
 30
0.0
 11
39.641915
 21
142.486064
 31
0.0
  0
LINE
  5
1376D
  8
ALPHA
 10
39.641915
 20
142.486064
 30
0.0
 11
39.233556
 21
142.080741
 31
0.0
  0
LINE
  5
1376E
  8
ALPHA
 10
39.233556
 20
142.080741
 30
0.0
 11
39.641915
 21
141.673899
 31
0.0
  0
LINE
  5
1376F
  8
ALPHA
 10
39.641915
 20
141.673899
 30
0.0
 11
39.233556
 21
141.26554
 31
0.0
  0
LINE
  5
13770
  8
ALPHA
 10
39.233556
 20
141.26554
 30
0.0
 11
39.641915
 21
140.860217
 31
0.0
  0
LINE
  5
13771
  8
ALPHA
 10
39.233556
 20
146.144601
 30
0.0
 11
39.641915
 21
145.739277
 31
0.0
  0
LINE
  5
13772
  8
ALPHA
 10
39.641915
 20
146.55296
 30
0.0
 11
39.233556
 21
146.144601
 31
0.0
  0
LINE
  5
13773
  8
ALPHA
 10
39.233556
 20
146.959801
 30
0.0
 11
39.641915
 21
146.55296
 31
0.0
  0
LINE
  5
13774
  8
ALPHA
 10
39.641915
 20
147.365125
 30
0.0
 11
39.233556
 21
146.959801
 31
0.0
  0
LINE
  5
13775
  8
ALPHA
 10
39.233556
 20
147.773484
 30
0.0
 11
39.641915
 21
147.365125
 31
0.0
  0
LINE
  5
13776
  8
ALPHA
 10
39.641915
 20
148.178808
 30
0.0
 11
39.233556
 21
147.773484
 31
0.0
  0
LINE
  5
13777
  8
ALPHA
 10
39.233556
 20
148.585649
 30
0.0
 11
39.641915
 21
148.178808
 31
0.0
  0
LINE
  5
13778
  8
ALPHA
 10
39.641915
 20
148.990972
 30
0.0
 11
39.233556
 21
148.585649
 31
0.0
  0
LINE
  5
13779
  8
ALPHA
 10
39.233556
 20
149.399332
 30
0.0
 11
39.641915
 21
148.990972
 31
0.0
  0
LINE
  5
1377A
  8
ALPHA
 10
39.641915
 20
149.804655
 30
0.0
 11
39.233556
 21
149.399332
 31
0.0
  0
LINE
  5
1377B
  8
ALPHA
 10
39.233556
 20
150.434386
 30
0.0
 11
39.641915
 21
150.027545
 31
0.0
  0
LINE
  5
1377C
  8
ALPHA
 10
39.641915
 20
150.841228
 30
0.0
 11
39.233556
 21
150.434386
 31
0.0
  0
LINE
  5
1377D
  8
ALPHA
 10
39.641915
 20
122.257657
 30
0.0
 11
39.233556
 21
121.850816
 31
0.0
  0
LINE
  5
1377E
  8
ALPHA
 10
39.233556
 20
121.850816
 30
0.0
 11
39.641915
 21
121.443974
 31
0.0
  0
LINE
  5
1377F
  8
ALPHA
 10
39.641915
 20
121.443974
 30
0.0
 11
39.233556
 21
121.038651
 31
0.0
  0
LINE
  5
13780
  8
ALPHA
 10
39.233556
 20
121.038651
 30
0.0
 11
39.641915
 21
120.630291
 31
0.0
  0
LINE
  5
13781
  8
ALPHA
 10
39.641915
 20
120.630291
 30
0.0
 11
39.233556
 21
120.224968
 31
0.0
  0
LINE
  5
13782
  8
ALPHA
 10
39.233556
 20
120.224968
 30
0.0
 11
39.641915
 21
119.818127
 31
0.0
  0
LINE
  5
13783
  8
ALPHA
 10
39.641915
 20
119.818127
 30
0.0
 11
39.233556
 21
119.412803
 31
0.0
  0
LINE
  5
13784
  8
ALPHA
 10
39.233556
 20
119.412803
 30
0.0
 11
39.641915
 21
119.004444
 31
0.0
  0
LINE
  5
13785
  8
ALPHA
 10
39.641915
 20
119.004444
 30
0.0
 11
39.233556
 21
118.599121
 31
0.0
  0
LINE
  5
13786
  8
ALPHA
 10
39.233556
 20
118.599121
 30
0.0
 11
39.641915
 21
118.192279
 31
0.0
  0
LINE
  5
13787
  8
ALPHA
 10
39.641915
 20
118.192279
 30
0.0
 11
39.233556
 21
117.78392
 31
0.0
  0
LINE
  5
13788
  8
ALPHA
 10
39.233556
 20
117.78392
 30
0.0
 11
39.641915
 21
117.378596
 31
0.0
  0
LINE
  5
13789
  8
ALPHA
 10
39.233556
 20
102.404859
 30
0.0
 11
39.641915
 21
101.999536
 31
0.0
  0
LINE
  5
1378A
  8
ALPHA
 10
39.641915
 20
102.813219
 30
0.0
 11
39.233556
 21
102.404859
 31
0.0
  0
LINE
  5
1378B
  8
ALPHA
 10
39.233556
 20
103.22006
 30
0.0
 11
39.641915
 21
102.813219
 31
0.0
  0
LINE
  5
1378C
  8
ALPHA
 10
39.641915
 20
114.125383
 30
0.0
 11
39.233556
 21
113.72006
 31
0.0
  0
LINE
  5
1378D
  8
ALPHA
 10
39.233556
 20
114.533743
 30
0.0
 11
39.641915
 21
114.125383
 31
0.0
  0
LINE
  5
1378E
  8
ALPHA
 10
39.641915
 20
114.939066
 30
0.0
 11
39.233556
 21
114.533743
 31
0.0
  0
LINE
  5
1378F
  8
ALPHA
 10
39.233556
 20
115.345907
 30
0.0
 11
39.641915
 21
114.939066
 31
0.0
  0
LINE
  5
13790
  8
ALPHA
 10
39.641915
 20
115.751231
 30
0.0
 11
39.233556
 21
115.345907
 31
0.0
  0
LINE
  5
13791
  8
ALPHA
 10
39.233556
 20
116.15959
 30
0.0
 11
39.641915
 21
115.751231
 31
0.0
  0
LINE
  5
13792
  8
ALPHA
 10
39.641915
 20
116.564914
 30
0.0
 11
39.233556
 21
116.15959
 31
0.0
  0
LINE
  5
13793
  8
ALPHA
 10
39.233556
 20
116.971755
 30
0.0
 11
39.641915
 21
116.564914
 31
0.0
  0
LINE
  5
13794
  8
ALPHA
 10
39.641915
 20
117.378596
 30
0.0
 11
39.233556
 21
116.971755
 31
0.0
  0
LINE
  5
137A7
  8
ALPHA
 10
39.233556
 20
99.966847
 30
0.0
 11
39.641915
 21
99.560005
 31
0.0
  0
LINE
  5
137A8
  8
ALPHA
 10
39.641915
 20
100.37217
 30
0.0
 11
39.233556
 21
99.966847
 31
0.0
  0
LINE
  5
137A9
  8
ALPHA
 10
39.233556
 20
100.78053
 30
0.0
 11
39.641915
 21
100.37217
 31
0.0
  0
LINE
  5
137AA
  8
ALPHA
 10
39.641915
 20
101.185853
 30
0.0
 11
39.233556
 21
100.78053
 31
0.0
  0
LINE
  5
137AB
  8
ALPHA
 10
39.233556
 20
101.592694
 30
0.0
 11
39.641915
 21
101.185853
 31
0.0
  0
LINE
  5
137AC
  8
ALPHA
 10
39.641915
 20
101.999536
 30
0.0
 11
39.233556
 21
101.592694
 31
0.0
  0
LINE
  5
137AD
  8
ALPHA
 10
39.233556
 20
131.508937
 30
0.0
 11
39.641915
 21
131.102095
 31
0.0
  0
LINE
  5
137AE
  8
ALPHA
 10
39.641915
 20
131.102095
 30
0.0
 11
39.233556
 21
130.696772
 31
0.0
  0
LINE
  5
137AF
  8
ALPHA
 10
39.233556
 20
130.696772
 30
0.0
 11
39.641915
 21
130.288413
 31
0.0
  0
LINE
  5
137B0
  8
ALPHA
 10
39.641915
 20
130.288413
 30
0.0
 11
39.233556
 21
129.983089
 31
0.0
  0
LINE
  5
137B1
  8
ALPHA
 10
39.233556
 20
129.983089
 30
0.0
 11
39.641915
 21
129.576248
 31
0.0
  0
LINE
  5
137B2
  8
ALPHA
 10
39.641915
 20
129.576248
 30
0.0
 11
39.233556
 21
129.170925
 31
0.0
  0
LINE
  5
137B3
  8
ALPHA
 10
39.233556
 20
129.170925
 30
0.0
 11
39.641915
 21
128.762565
 31
0.0
  0
LINE
  5
137B4
  8
ALPHA
 10
39.641915
 20
128.762565
 30
0.0
 11
39.233556
 21
128.357242
 31
0.0
  0
LINE
  5
137B5
  8
ALPHA
 10
39.233556
 20
128.357242
 30
0.0
 11
39.641915
 21
127.9504
 31
0.0
  0
LINE
  5
137B6
  8
ALPHA
 10
39.641915
 20
127.9504
 30
0.0
 11
39.233556
 21
127.542041
 31
0.0
  0
LINE
  5
137B7
  8
ALPHA
 10
39.233556
 20
127.542041
 30
0.0
 11
39.641915
 21
127.136718
 31
0.0
  0
LINE
  5
137B8
  8
ALPHA
 10
39.233556
 20
122.66298
 30
0.0
 11
39.641915
 21
122.257657
 31
0.0
  0
LINE
  5
137B9
  8
ALPHA
 10
39.641915
 20
123.07134
 30
0.0
 11
39.233556
 21
122.66298
 31
0.0
  0
LINE
  5
137BA
  8
ALPHA
 10
39.233556
 20
123.478181
 30
0.0
 11
39.641915
 21
123.07134
 31
0.0
  0
LINE
  5
137BB
  8
ALPHA
 10
39.641915
 20
123.883505
 30
0.0
 11
39.233556
 21
123.478181
 31
0.0
  0
LINE
  5
137BC
  8
ALPHA
 10
39.233556
 20
124.291864
 30
0.0
 11
39.641915
 21
123.883505
 31
0.0
  0
LINE
  5
137BD
  8
ALPHA
 10
39.641915
 20
124.697187
 30
0.0
 11
39.233556
 21
124.291864
 31
0.0
  0
LINE
  5
137BE
  8
ALPHA
 10
39.233556
 20
125.104029
 30
0.0
 11
39.641915
 21
124.697187
 31
0.0
  0
LINE
  5
137BF
  8
ALPHA
 10
39.641915
 20
125.509352
 30
0.0
 11
39.233556
 21
125.104029
 31
0.0
  0
LINE
  5
137C0
  8
ALPHA
 10
39.233556
 20
125.917711
 30
0.0
 11
39.641915
 21
125.509352
 31
0.0
  0
LINE
  5
137C1
  8
ALPHA
 10
39.641915
 20
126.323035
 30
0.0
 11
39.233556
 21
125.917711
 31
0.0
  0
LINE
  5
137C2
  8
ALPHA
 10
39.233556
 20
126.729876
 30
0.0
 11
39.641915
 21
126.323035
 31
0.0
  0
LINE
  5
137C3
  8
ALPHA
 10
39.641915
 20
127.136718
 30
0.0
 11
39.233556
 21
126.729876
 31
0.0
  0
LINE
  5
137C4
  8
ALPHA
 10
56.641915
 20
128.762565
 30
0.0
 11
57.050274
 21
128.357242
 31
0.0
  0
LINE
  5
137C5
  8
ALPHA
 10
57.050274
 20
129.170925
 30
0.0
 11
56.641915
 21
128.762565
 31
0.0
  0
LINE
  5
137C6
  8
ALPHA
 10
56.641915
 20
129.576248
 30
0.0
 11
57.050274
 21
129.170925
 31
0.0
  0
LINE
  5
137C7
  8
ALPHA
 10
57.050274
 20
129.983089
 30
0.0
 11
56.641915
 21
129.576248
 31
0.0
  0
LINE
  5
137C8
  8
ALPHA
 10
56.641915
 20
130.288413
 30
0.0
 11
57.050274
 21
129.983089
 31
0.0
  0
LINE
  5
137C9
  8
ALPHA
 10
57.050274
 20
130.696772
 30
0.0
 11
56.641915
 21
130.288413
 31
0.0
  0
LINE
  5
137CA
  8
ALPHA
 10
56.641915
 20
131.102095
 30
0.0
 11
57.050274
 21
130.696772
 31
0.0
  0
LINE
  5
137CB
  8
ALPHA
 10
57.050274
 20
131.508937
 30
0.0
 11
56.641915
 21
131.102095
 31
0.0
  0
LINE
  5
137CC
  8
ALPHA
 10
56.641915
 20
150.841228
 30
0.0
 11
57.050274
 21
150.434386
 31
0.0
  0
LINE
  5
137CD
  8
ALPHA
 10
57.050274
 20
150.434386
 30
0.0
 11
56.641915
 21
150.027545
 31
0.0
  0
LINE
  5
137CE
  8
ALPHA
 10
56.641915
 20
149.804655
 30
0.0
 11
57.050274
 21
149.399332
 31
0.0
  0
LINE
  5
137CF
  8
ALPHA
 10
57.050274
 20
149.399332
 30
0.0
 11
56.641915
 21
148.990972
 31
0.0
  0
LINE
  5
137D0
  8
ALPHA
 10
56.641915
 20
148.990972
 30
0.0
 11
57.050274
 21
148.585649
 31
0.0
  0
LINE
  5
137D1
  8
ALPHA
 10
57.050274
 20
148.585649
 30
0.0
 11
56.641915
 21
148.178808
 31
0.0
  0
LINE
  5
137D2
  8
ALPHA
 10
56.641915
 20
148.178808
 30
0.0
 11
57.050274
 21
147.773484
 31
0.0
  0
LINE
  5
137D3
  8
ALPHA
 10
57.050274
 20
147.773484
 30
0.0
 11
56.641915
 21
147.365125
 31
0.0
  0
LINE
  5
137D4
  8
ALPHA
 10
56.641915
 20
147.365125
 30
0.0
 11
57.050274
 21
146.959801
 31
0.0
  0
LINE
  5
137D5
  8
ALPHA
 10
57.050274
 20
146.959801
 30
0.0
 11
56.641915
 21
146.55296
 31
0.0
  0
LINE
  5
137D6
  8
ALPHA
 10
56.641915
 20
146.55296
 30
0.0
 11
57.050274
 21
146.144601
 31
0.0
  0
LINE
  5
137D7
  8
ALPHA
 10
57.050274
 20
146.144601
 30
0.0
 11
56.641915
 21
145.739277
 31
0.0
  0
LINE
  5
137D8
  8
ALPHA
 10
57.050274
 20
141.26554
 30
0.0
 11
56.641915
 21
140.860217
 31
0.0
  0
LINE
  5
137D9
  8
ALPHA
 10
56.641915
 20
141.673899
 30
0.0
 11
57.050274
 21
141.26554
 31
0.0
  0
LINE
  5
137DA
  8
ALPHA
 10
57.050274
 20
142.080741
 30
0.0
 11
56.641915
 21
141.673899
 31
0.0
  0
LINE
  5
137DB
  8
ALPHA
 10
56.641915
 20
142.486064
 30
0.0
 11
57.050274
 21
142.080741
 31
0.0
  0
LINE
  5
137DC
  8
ALPHA
 10
57.050274
 20
142.894424
 30
0.0
 11
56.641915
 21
142.486064
 31
0.0
  0
LINE
  5
137DD
  8
ALPHA
 10
56.641915
 20
143.299747
 30
0.0
 11
57.050274
 21
142.894424
 31
0.0
  0
LINE
  5
137DE
  8
ALPHA
 10
57.050274
 20
143.706588
 30
0.0
 11
56.641915
 21
143.299747
 31
0.0
  0
LINE
  5
137DF
  8
ALPHA
 10
56.641915
 20
144.111912
 30
0.0
 11
57.050274
 21
143.706588
 31
0.0
  0
LINE
  5
137E0
  8
ALPHA
 10
57.050274
 20
144.520271
 30
0.0
 11
56.641915
 21
144.111912
 31
0.0
  0
LINE
  5
137E1
  8
ALPHA
 10
56.641915
 20
144.925594
 30
0.0
 11
57.050274
 21
144.520271
 31
0.0
  0
LINE
  5
137E2
  8
ALPHA
 10
57.050274
 20
145.332436
 30
0.0
 11
56.641915
 21
144.925594
 31
0.0
  0
LINE
  5
137E3
  8
ALPHA
 10
56.641915
 20
145.739277
 30
0.0
 11
57.050274
 21
145.332436
 31
0.0
  0
LINE
  5
137E4
  8
ALPHA
 10
56.641915
 20
135.981156
 30
0.0
 11
57.050274
 21
135.574315
 31
0.0
  0
LINE
  5
137E5
  8
ALPHA
 10
57.050274
 20
135.574315
 30
0.0
 11
56.641915
 21
135.167473
 31
0.0
  0
LINE
  5
137E6
  8
ALPHA
 10
56.641915
 20
135.167473
 30
0.0
 11
57.050274
 21
134.76215
 31
0.0
  0
LINE
  5
137E7
  8
ALPHA
 10
57.050274
 20
134.76215
 30
0.0
 11
56.641915
 21
134.35379
 31
0.0
  0
LINE
  5
137E8
  8
ALPHA
 10
56.641915
 20
134.35379
 30
0.0
 11
57.050274
 21
133.948467
 31
0.0
  0
LINE
  5
137E9
  8
ALPHA
 10
57.050274
 20
133.948467
 30
0.0
 11
56.641915
 21
133.541626
 31
0.0
  0
LINE
  5
137EA
  8
ALPHA
 10
56.641915
 20
133.541626
 30
0.0
 11
57.050274
 21
133.136302
 31
0.0
  0
LINE
  5
137EB
  8
ALPHA
 10
57.050274
 20
133.136302
 30
0.0
 11
56.641915
 21
132.727943
 31
0.0
  0
LINE
  5
137EC
  8
ALPHA
 10
56.641915
 20
132.727943
 30
0.0
 11
57.050274
 21
132.32262
 31
0.0
  0
LINE
  5
137ED
  8
ALPHA
 10
57.050274
 20
132.32262
 30
0.0
 11
56.641915
 21
131.915778
 31
0.0
  0
LINE
  5
137EE
  8
ALPHA
 10
56.641915
 20
131.915778
 30
0.0
 11
57.050274
 21
131.507419
 31
0.0
  0
LINE
  5
137EF
  8
ALPHA
 10
57.050274
 20
131.507419
 30
0.0
 11
56.641915
 21
131.102095
 31
0.0
  0
LINE
  5
137F0
  8
ALPHA
 10
57.050274
 20
136.386479
 30
0.0
 11
56.641915
 21
135.981156
 31
0.0
  0
LINE
  5
137F1
  8
ALPHA
 10
56.641915
 20
136.794839
 30
0.0
 11
57.050274
 21
136.386479
 31
0.0
  0
LINE
  5
137F2
  8
ALPHA
 10
57.050274
 20
137.20168
 30
0.0
 11
56.641915
 21
136.794839
 31
0.0
  0
LINE
  5
137F3
  8
ALPHA
 10
56.641915
 20
137.607004
 30
0.0
 11
57.050274
 21
137.20168
 31
0.0
  0
LINE
  5
137F4
  8
ALPHA
 10
57.050274
 20
138.015363
 30
0.0
 11
56.641915
 21
137.607004
 31
0.0
  0
LINE
  5
137F5
  8
ALPHA
 10
56.641915
 20
138.420686
 30
0.0
 11
57.050274
 21
138.015363
 31
0.0
  0
LINE
  5
137F6
  8
ALPHA
 10
57.050274
 20
138.827528
 30
0.0
 11
56.641915
 21
138.420686
 31
0.0
  0
LINE
  5
137F7
  8
ALPHA
 10
56.641915
 20
139.232851
 30
0.0
 11
57.050274
 21
138.827528
 31
0.0
  0
LINE
  5
137F8
  8
ALPHA
 10
57.050274
 20
139.641211
 30
0.0
 11
56.641915
 21
139.232851
 31
0.0
  0
LINE
  5
137F9
  8
ALPHA
 10
56.641915
 20
140.046534
 30
0.0
 11
57.050274
 21
139.641211
 31
0.0
  0
LINE
  5
137FA
  8
ALPHA
 10
57.050274
 20
140.453375
 30
0.0
 11
56.641915
 21
140.046534
 31
0.0
  0
LINE
  5
137FB
  8
ALPHA
 10
56.641915
 20
140.860217
 30
0.0
 11
57.050274
 21
140.453375
 31
0.0
  0
LINE
  5
13808
  8
ALPHA
 10
57.050274
 20
151.246551
 30
0.0
 11
56.641915
 21
150.841228
 31
0.0
  0
LINE
  5
13809
  8
ALPHA
 10
56.714314
 20
151.669961
 30
0.0
 11
57.050274
 21
151.246551
 31
0.0
  0
LINE
  5
1382D
  8
ALPHA
 10
56.641915
 20
127.136718
 30
0.0
 11
57.050274
 21
126.729876
 31
0.0
  0
LINE
  5
1382E
  8
ALPHA
 10
57.050274
 20
126.729876
 30
0.0
 11
56.641915
 21
126.323035
 31
0.0
  0
LINE
  5
1382F
  8
ALPHA
 10
56.641915
 20
126.323035
 30
0.0
 11
57.050274
 21
125.917711
 31
0.0
  0
LINE
  5
13830
  8
ALPHA
 10
57.050274
 20
125.917711
 30
0.0
 11
56.641915
 21
125.509352
 31
0.0
  0
LINE
  5
13831
  8
ALPHA
 10
56.641915
 20
125.509352
 30
0.0
 11
57.050274
 21
125.104029
 31
0.0
  0
LINE
  5
13832
  8
ALPHA
 10
57.050274
 20
127.542041
 30
0.0
 11
56.641915
 21
127.136718
 31
0.0
  0
LINE
  5
13833
  8
ALPHA
 10
56.641915
 20
127.9504
 30
0.0
 11
57.050274
 21
127.542041
 31
0.0
  0
LINE
  5
13834
  8
ALPHA
 10
57.050274
 20
128.357242
 30
0.0
 11
56.641915
 21
127.9504
 31
0.0
  0
LINE
  5
13835
  8
ALPHA
 10
57.050274
 20
125.104029
 30
0.0
 11
56.641915
 21
124.697187
 31
0.0
  0
LINE
  5
13836
  8
ALPHA
 10
56.641915
 20
124.697187
 30
0.0
 11
57.050274
 21
124.291864
 31
0.0
  0
LINE
  5
13837
  8
ALPHA
 10
57.050274
 20
124.291864
 30
0.0
 11
56.641915
 21
123.883505
 31
0.0
  0
LINE
  5
13838
  8
ALPHA
 10
56.641915
 20
123.883505
 30
0.0
 11
57.050274
 21
123.478181
 31
0.0
  0
LINE
  5
13839
  8
ALPHA
 10
57.050274
 20
123.478181
 30
0.0
 11
56.641915
 21
123.07134
 31
0.0
  0
LINE
  5
1383A
  8
ALPHA
 10
56.641915
 20
123.07134
 30
0.0
 11
57.050274
 21
122.66298
 31
0.0
  0
LINE
  5
1383B
  8
ALPHA
 10
57.050274
 20
122.66298
 30
0.0
 11
56.641915
 21
122.257657
 31
0.0
  0
LINE
  5
1383C
  8
ALPHA
 10
57.050274
 20
119.412803
 30
0.0
 11
56.641915
 21
119.004444
 31
0.0
  0
LINE
  5
1383D
  8
ALPHA
 10
56.641915
 20
119.818127
 30
0.0
 11
57.050274
 21
119.412803
 31
0.0
  0
LINE
  5
1383E
  8
ALPHA
 10
57.050274
 20
120.224968
 30
0.0
 11
56.641915
 21
119.818127
 31
0.0
  0
LINE
  5
1383F
  8
ALPHA
 10
56.641915
 20
120.630291
 30
0.0
 11
57.050274
 21
120.224968
 31
0.0
  0
LINE
  5
13840
  8
ALPHA
 10
57.050274
 20
121.038651
 30
0.0
 11
56.641915
 21
120.630291
 31
0.0
  0
LINE
  5
13841
  8
ALPHA
 10
56.641915
 20
121.443974
 30
0.0
 11
57.050274
 21
121.038651
 31
0.0
  0
LINE
  5
13842
  8
ALPHA
 10
57.050274
 20
121.850816
 30
0.0
 11
56.641915
 21
121.443974
 31
0.0
  0
LINE
  5
13843
  8
ALPHA
 10
56.641915
 20
122.257657
 30
0.0
 11
57.050274
 21
121.850816
 31
0.0
  0
LINE
  5
1384A
  8
ALPHA
 10
56.641915
 20
117.378596
 30
0.0
 11
57.050274
 21
116.971755
 31
0.0
  0
LINE
  5
1384B
  8
ALPHA
 10
57.050274
 20
116.971755
 30
0.0
 11
56.641915
 21
116.564914
 31
0.0
  0
LINE
  5
1384C
  8
ALPHA
 10
56.641915
 20
116.564914
 30
0.0
 11
57.050274
 21
116.15959
 31
0.0
  0
LINE
  5
1384D
  8
ALPHA
 10
57.050274
 20
116.15959
 30
0.0
 11
56.641915
 21
115.751231
 31
0.0
  0
LINE
  5
1384E
  8
ALPHA
 10
56.641915
 20
115.751231
 30
0.0
 11
57.050274
 21
115.345907
 31
0.0
  0
LINE
  5
1384F
  8
ALPHA
 10
57.050274
 20
115.345907
 30
0.0
 11
56.641915
 21
114.939066
 31
0.0
  0
LINE
  5
13850
  8
ALPHA
 10
56.641915
 20
114.939066
 30
0.0
 11
57.050274
 21
114.533743
 31
0.0
  0
LINE
  5
13851
  8
ALPHA
 10
57.050274
 20
114.533743
 30
0.0
 11
56.641915
 21
114.125383
 31
0.0
  0
LINE
  5
13852
  8
ALPHA
 10
56.641915
 20
114.125383
 30
0.0
 11
57.050274
 21
113.72006
 31
0.0
  0
LINE
  5
13856
  8
ALPHA
 10
57.050274
 20
117.78392
 30
0.0
 11
56.641915
 21
117.378596
 31
0.0
  0
LINE
  5
13857
  8
ALPHA
 10
56.641915
 20
118.192279
 30
0.0
 11
57.050274
 21
117.78392
 31
0.0
  0
LINE
  5
13858
  8
ALPHA
 10
57.050274
 20
118.599121
 30
0.0
 11
56.641915
 21
118.192279
 31
0.0
  0
LINE
  5
13859
  8
ALPHA
 10
56.641915
 20
119.004444
 30
0.0
 11
57.050274
 21
118.599121
 31
0.0
  0
POLYLINE
  5
1385A
  8
ALPHA
 66
     1
 10
0.0
 20
0.0
 30
0.0
 70
   128
  0
VERTEX
  5
14D1E
  8
ALPHA
 10
56.641915
 20
99.560005
 30
0.0
  0
VERTEX
  5
14D1F
  8
ALPHA
 10
56.544545
 20
99.126209
 30
0.0
  0
VERTEX
  5
14D20
  8
ALPHA
 10
56.287842
 20
97.982565
 30
0.0
  0
VERTEX
  5
14D21
  8
ALPHA
 10
55.508883
 20
94.512195
 30
0.0
  0
VERTEX
  5
14D22
  8
ALPHA
 10
54.729923
 20
91.041826
 30
0.0
  0
VERTEX
  5
14D23
  8
ALPHA
 10
54.47322
 20
89.898181
 30
0.0
  0
VERTEX
  5
14D24
  8
ALPHA
 10
54.37585
 20
89.464385
 30
0.0
  0
VERTEX
  5
14D25
  8
ALPHA
 10
53.940166
 20
88.501932
 30
0.0
  0
SEQEND
  5
14D26
  8
ALPHA
  0
POLYLINE
  5
1385B
  8
ALPHA
 66
     1
 10
0.0
 20
0.0
 30
0.0
 70
   128
210
0.0
220
0.0
230
-1.0
  0
VERTEX
  5
14D27
  8
ALPHA
 10
-53.940166
 20
88.501932
 30
0.0
  0
VERTEX
  5
14D28
  8
ALPHA
 10
-53.433132
 20
87.803622
 30
0.0
  0
VERTEX
  5
14D29
  8
ALPHA
 10
-52.619532
 20
87.416515
 30
0.0
  0
VERTEX
  5
14D2A
  8
ALPHA
 10
-51.82254
 20
87.809604
 30
0.0
  0
VERTEX
  5
14D2B
  8
ALPHA
 10
-50.205523
 20
89.06904
 30
0.0
  0
VERTEX
  5
14D2C
  8
ALPHA
 10
-48.141915
 20
89.53877
 30
0.0
  0
SEQEND
  5
14D2D
  8
ALPHA
  0
LINE
  5
1385C
  8
ALPHA
 10
39.461406
 20
115.93174
 30
0.0
 11
38.75458
 21
115.787863
 31
0.0
  0
POLYLINE
  5
138A3
  8
ALPHA
 66
     1
 10
0.0
 20
0.0
 30
0.0
 70
   128
  0
VERTEX
  5
14D2E
  8
ALPHA
 10
53.391915
 20
116.486377
 30
0.0
  0
VERTEX
  5
14D2F
  8
ALPHA
 10
48.152869
 20
116.774539
 30
0.0
  0
VERTEX
  5
14D30
  8
ALPHA
 10
42.891915
 20
116.465624
 30
0.0
  0
SEQEND
  5
14D31
  8
ALPHA
  0
ARC
  5
138A4
  8
ALPHA
 10
38.141915
 20
122.228457
 30
0.0
 40
2.15
 50
48.002199
 51
57.663974
  0
ARC
  5
138A5
  8
ALPHA
 10
37.141915
 20
124.228457
 30
0.0
 40
2.15
 50
3.100204
 51
180.0
  0
LINE
  5
138A7
  8
ALPHA
 10
39.591187
 20
148.128457
 30
0.0
 11
35.641915
 21
148.128457
 31
0.0
  0
LINE
  5
138F1
  8
ALPHA
 10
50.257338
 20
139.524077
 30
0.0
 11
50.257338
 21
140.932842
 31
0.0
  0
LINE
  5
138F2
  8
ALPHA
 10
48.771152
 20
140.932842
 30
0.0
 11
48.771152
 21
144.42499
 31
0.0
  0
LINE
  5
138F3
  8
ALPHA
 10
48.771152
 20
136.031924
 30
0.0
 11
48.771152
 21
139.524077
 31
0.0
  0
LINE
  5
138F4
  8
ALPHA
 10
47.512674
 20
139.524077
 30
0.0
 11
46.024972
 21
139.524077
 31
0.0
  0
LINE
  5
138F5
  8
ALPHA
 10
46.024972
 20
139.524077
 30
0.0
 11
46.024972
 21
140.932842
 31
0.0
  0
LINE
  5
138F6
  8
ALPHA
 10
46.024972
 20
140.932842
 30
0.0
 11
47.512674
 21
140.932842
 31
0.0
  0
LINE
  5
138F7
  8
ALPHA
 10
47.512674
 20
140.932842
 30
0.0
 11
47.512674
 21
144.425218
 31
0.0
  0
LINE
  5
138F8
  8
ALPHA
 10
47.512674
 20
136.031696
 30
0.0
 11
47.512674
 21
139.524077
 31
0.0
  0
LINE
  5
138F9
  8
ALPHA
 10
48.771152
 20
139.524077
 30
0.0
 11
50.257338
 21
139.524077
 31
0.0
  0
LINE
  5
138FA
  8
ALPHA
 10
50.257338
 20
140.932842
 30
0.0
 11
48.771152
 21
140.932842
 31
0.0
  0
POLYLINE
  5
138FB
  8
ALPHA
 66
     1
 10
0.0
 20
0.0
 30
0.0
 70
   128
  0
VERTEX
  5
14D32
  8
ALPHA
 10
49.243269
 20
148.290902
 30
0.0
  0
VERTEX
  5
14D33
  8
ALPHA
 10
49.243269
 20
147.974009
 30
0.0
  0
VERTEX
  5
14D34
  8
ALPHA
 10
49.243269
 20
147.399776
 30
0.0
  0
SEQEND
  5
14D35
  8
ALPHA
  0
POLYLINE
  5
138FC
  8
ALPHA
 66
     1
 10
0.0
 20
0.0
 30
0.0
 70
   128
  0
VERTEX
  5
14D36
  8
ALPHA
 10
53.302575
 20
146.51932
 30
0.0
  0
VERTEX
  5
14D37
  8
ALPHA
 10
51.420364
 20
147.677224
 30
0.0
  0
VERTEX
  5
14D38
  8
ALPHA
 10
49.243269
 20
148.290902
 30
0.0
  0
SEQEND
  5
14D39
  8
ALPHA
  0
POLYLINE
  5
138FD
  8
ALPHA
 66
     1
 10
0.0
 20
0.0
 30
0.0
 70
   128
  0
VERTEX
  5
14D3A
  8
ALPHA
 10
47.039039
 20
148.290902
 30
0.0
  0
VERTEX
  5
14D3B
  8
ALPHA
 10
47.039039
 20
147.973887
 30
0.0
  0
VERTEX
  5
14D3C
  8
ALPHA
 10
47.039039
 20
147.399542
 30
0.0
  0
SEQEND
  5
14D3D
  8
ALPHA
  0
POLYLINE
  5
138FE
  8
ALPHA
 66
     1
 10
0.0
 20
0.0
 30
0.0
 70
   128
210
0.0
220
0.0
230
-1.0
  0
VERTEX
  5
14D3E
  8
ALPHA
 10
-42.979733
 20
146.51932
 30
0.0
  0
VERTEX
  5
14D3F
  8
ALPHA
 10
-44.863083
 20
147.677224
 30
0.0
  0
VERTEX
  5
14D40
  8
ALPHA
 10
-47.039039
 20
148.290902
 30
0.0
  0
SEQEND
  5
14D41
  8
ALPHA
  0
POLYLINE
  5
138FF
  8
ALPHA
 66
     1
 10
0.0
 20
0.0
 30
0.0
 70
   128
210
0.0
220
0.0
230
-1.0
  0
VERTEX
  5
14D42
  8
ALPHA
 10
-47.034485
 20
131.432791
 30
0.0
  0
VERTEX
  5
14D43
  8
ALPHA
 10
-46.629877
 20
131.442567
 30
0.0
  0
VERTEX
  5
14D44
  8
ALPHA
 10
-45.641166
 20
131.744399
 30
0.0
  0
VERTEX
  5
14D45
  8
ALPHA
 10
-44.40602
 20
132.747045
 30
0.0
  0
VERTEX
  5
14D46
  8
ALPHA
 10
-43.801556
 20
133.638908
 30
0.0
  0
VERTEX
  5
14D47
  8
ALPHA
 10
-43.262108
 20
134.85926
 30
0.0
  0
SEQEND
  5
14D48
  8
ALPHA
  0
POLYLINE
  5
13900
  8
ALPHA
 66
     1
 10
0.0
 20
0.0
 30
0.0
 70
   128
  0
VERTEX
  5
14D49
  8
ALPHA
 10
47.034485
 20
133.058074
 30
0.0
  0
VERTEX
  5
14D4A
  8
ALPHA
 10
47.034485
 20
132.058406
 30
0.0
  0
VERTEX
  5
14D4B
  8
ALPHA
 10
47.034485
 20
131.616607
 30
0.0
  0
VERTEX
  5
14D4C
  8
ALPHA
 10
47.034485
 20
131.432791
 30
0.0
  0
SEQEND
  5
14D4D
  8
ALPHA
  0
POLYLINE
  5
13901
  8
ALPHA
 66
     1
 10
0.0
 20
0.0
 30
0.0
 70
   128
  0
VERTEX
  5
14D4E
  8
ALPHA
 10
49.249342
 20
133.058073
 30
0.0
  0
VERTEX
  5
14D4F
  8
ALPHA
 10
49.249342
 20
132.058406
 30
0.0
  0
VERTEX
  5
14D50
  8
ALPHA
 10
49.249342
 20
131.616607
 30
0.0
  0
VERTEX
  5
14D51
  8
ALPHA
 10
49.249342
 20
131.432791
 30
0.0
  0
SEQEND
  5
14D52
  8
ALPHA
  0
POLYLINE
  5
13902
  8
ALPHA
 66
     1
 10
0.0
 20
0.0
 30
0.0
 70
   128
  0
VERTEX
  5
14D53
  8
ALPHA
 10
49.249342
 20
131.432791
 30
0.0
  0
VERTEX
  5
14D54
  8
ALPHA
 10
49.653588
 20
131.442551
 30
0.0
  0
VERTEX
  5
14D55
  8
ALPHA
 10
50.641511
 20
131.744188
 30
0.0
  0
VERTEX
  5
14D56
  8
ALPHA
 10
51.875887
 20
132.746237
 30
0.0
  0
VERTEX
  5
14D57
  8
ALPHA
 10
52.480112
 20
133.637583
 30
0.0
  0
VERTEX
  5
14D58
  8
ALPHA
 10
53.019491
 20
134.857233
 30
0.0
  0
SEQEND
  5
14D59
  8
ALPHA
  0
POLYLINE
  5
13903
  8
ALPHA
 66
     1
 10
0.0
 20
0.0
 30
0.0
 70
   128
210
0.0
220
0.0
230
-1.0
  0
VERTEX
  5
14D5A
  8
ALPHA
 10
-43.007059
 20
147.846109
 30
0.0
  0
VERTEX
  5
14D5B
  8
ALPHA
 10
-45.410914
 20
149.001356
 30
0.0
  0
VERTEX
  5
14D5C
  8
ALPHA
 10
-48.142672
 20
149.41427
 30
0.0
  0
VERTEX
  5
14D5D
  8
ALPHA
 10
-50.846346
 20
149.010465
 30
0.0
  0
VERTEX
  5
14D5E
  8
ALPHA
 10
-53.231226
 20
147.877988
 30
0.0
  0
SEQEND
  5
14D5F
  8
ALPHA
  0
POLYLINE
  5
13904
  8
ALPHA
 66
     1
 10
0.0
 20
0.0
 30
0.0
 70
   128
210
0.0
220
0.0
230
-1.0
  0
VERTEX
  5
14D60
  8
ALPHA
 10
-53.276768
 20
132.612328
 30
0.0
  0
VERTEX
  5
14D61
  8
ALPHA
 10
-50.873102
 20
131.45708
 30
0.0
  0
VERTEX
  5
14D62
  8
ALPHA
 10
-48.142672
 20
131.044166
 30
0.0
  0
VERTEX
  5
14D63
  8
ALPHA
 10
-45.43027
 20
131.450059
 30
0.0
  0
VERTEX
  5
14D64
  8
ALPHA
 10
-43.038938
 20
132.588038
 30
0.0
  0
SEQEND
  5
14D65
  8
ALPHA
  0
LINE
  5
13906
  8
ALPHA
 10
42.891915
 20
135.220633
 30
0.0
 11
42.891915
 21
99.678457
 31
0.0
  0
LINE
  5
13907
  8
ALPHA
 10
53.391915
 20
135.220633
 30
0.0
 11
53.391915
 21
99.678457
 31
0.0
  0
DIMENSION
  5
13AED
  8
COTATION1
  2
*D11
 10
-14.205454
 20
122.228457
 30
0.0
 11
-14.205454
 21
161.228457
 31
0.0
 70
   128
  1
78...118
 13
48.141915
 23
200.228457
 33
0.0
 14
33.991915
 24
122.228457
 34
0.0
 50
90.0
  0
LINE
  5
13B49
  8
AXE
 10
59.654616
 20
140.228457
 30
0.0
 11
36.629214
 21
140.228457
 31
0.0
  0
CIRCLE
  5
13BCE
  8
ALPHA
 10
48.141915
 20
140.228457
 30
0.0
 40
7.255398
  0
CIRCLE
  5
13BD1
  8
ALPHA
 10
48.141153
 20
140.228457
 30
0.0
 40
6.144174
  0
CIRCLE
  5
13BD2
  8
ALPHA
 10
48.141153
 20
140.228457
 30
0.0
 40
4.243558
  0
LINE
  5
14765
  8
ALPHA
 10
64.143025
 20
192.43637
 30
0.0
 11
64.407155
 21
193.029903
 31
0.0
  0
LINE
  5
14766
  8
ALPHA
 10
64.407155
 20
193.029903
 30
0.0
 11
60.902121
 21
195.690936
 31
0.0
  0
LINE
  5
14767
  8
ALPHA
 10
60.902121
 20
195.690936
 30
0.0
 11
59.753004
 21
195.335727
 31
0.0
  0
LINE
  5
14768
  8
ALPHA
 10
59.753004
 20
195.335727
 30
0.0
 11
59.466104
 21
196.519758
 31
0.0
  0
POLYLINE
  5
14769
  8
ALPHA
 66
     1
 10
0.0
 20
0.0
 30
0.0
 70
   128
  0
VERTEX
  5
14D66
  8
ALPHA
 10
61.014452
 20
193.73425
 30
0.0
  0
VERTEX
  5
14D67
  8
ALPHA
 10
60.161533
 20
193.846581
 30
0.0
  0
VERTEX
  5
14D68
  8
ALPHA
 10
59.478248
 20
193.321357
 30
0.0
  0
SEQEND
  5
14D69
  8
ALPHA
  0
LINE
  5
1476A
  8
ALPHA
 10
71.693498
 20
180.416941
 30
0.0
 11
71.045317
 21
180.498912
 31
0.0
  0
POLYLINE
  5
1476B
  8
ALPHA
 66
     1
 10
0.0
 20
0.0
 30
0.0
 70
   128
  0
VERTEX
  5
14D6A
  8
ALPHA
 10
69.481789
 20
175.999596
 30
0.0
  0
VERTEX
  5
14D6B
  8
ALPHA
 10
70.274938
 20
176.332225
 30
0.0
  0
VERTEX
  5
14D6C
  8
ALPHA
 10
70.603582
 20
177.130497
 30
0.0
  0
SEQEND
  5
14D6D
  8
ALPHA
  0
POLYLINE
  5
1476C
  8
ALPHA
 66
     1
 10
0.0
 20
0.0
 30
0.0
 70
   128
  0
VERTEX
  5
14D6E
  8
ALPHA
 10
70.603582
 20
173.332491
 30
0.0
  0
VERTEX
  5
14D6F
  8
ALPHA
 10
70.274938
 20
174.128486
 30
0.0
  0
VERTEX
  5
14D70
  8
ALPHA
 10
69.481789
 20
174.458838
 30
0.0
  0
SEQEND
  5
14D71
  8
ALPHA
  0
LINE
  5
1476D
  8
ALPHA
 10
71.049871
 20
169.985328
 30
0.0
 11
71.696534
 21
170.053637
 31
0.0
  0
LINE
  5
1476E
  8
ALPHA
 10
71.696534
 20
170.053637
 30
0.0
 11
72.241491
 21
174.42696
 31
0.0
  0
LINE
  5
1476F
  8
ALPHA
 10
72.241491
 20
174.42696
 30
0.0
 11
71.361058
 21
175.228458
 31
0.0
  0
LINE
  5
14770
  8
ALPHA
 10
71.361058
 20
175.228458
 30
0.0
 11
72.239973
 21
176.048172
 31
0.0
  0
LINE
  5
14771
  8
ALPHA
 10
72.239973
 20
176.048172
 30
0.0
 11
71.693498
 21
180.416941
 31
0.0
  0
POLYLINE
  5
14772
  8
ALPHA
 66
     1
 10
0.0
 20
0.0
 30
0.0
 70
   128
210
0.0
220
0.0
230
-1.0
  0
VERTEX
  5
14D72
  8
ALPHA
 10
-60.51048
 20
192.902392
 30
0.0
  0
VERTEX
  5
14D73
  8
ALPHA
 10
-64.001212
 20
189.850501
 30
0.0
  0
VERTEX
  5
14D74
  8
ALPHA
 10
-66.76516
 20
186.12135
 30
0.0
  0
VERTEX
  5
14D75
  8
ALPHA
 10
-67.836922
 20
184.040381
 30
0.0
  0
VERTEX
  5
14D76
  8
ALPHA
 10
-68.681786
 20
181.835192
 30
0.0
  0
VERTEX
  5
14D77
  8
ALPHA
 10
-69.284685
 20
179.520815
 30
0.0
  0
VERTEX
  5
14D78
  8
ALPHA
 10
-69.630552
 20
177.112281
 30
0.0
  0
SEQEND
  5
14D79
  8
ALPHA
  0
POLYLINE
  5
14773
  8
ALPHA
 66
     1
 10
0.0
 20
0.0
 30
0.0
 70
   128
  0
VERTEX
  5
14D7A
  8
ALPHA
 10
71.045317
 20
180.498912
 30
0.0
  0
VERTEX
  5
14D7B
  8
ALPHA
 10
69.989034
 20
183.882745
 30
0.0
  0
VERTEX
  5
14D7C
  8
ALPHA
 10
68.457147
 20
187.032333
 30
0.0
  0
VERTEX
  5
14D7D
  8
ALPHA
 10
66.493772
 20
189.899575
 30
0.0
  0
VERTEX
  5
14D7E
  8
ALPHA
 10
64.143025
 20
192.43637
 30
0.0
  0
SEQEND
  5
14D7F
  8
ALPHA
  0
POLYLINE
  5
14774
  8
ALPHA
 66
     1
 10
0.0
 20
0.0
 30
0.0
 70
   128
  0
VERTEX
  5
14D80
  8
ALPHA
 10
70.603582
 20
177.130497
 30
0.0
  0
VERTEX
  5
14D81
  8
ALPHA
 10
70.246028
 20
179.663462
 30
0.0
  0
VERTEX
  5
14D82
  8
ALPHA
 10
69.61568
 20
182.098587
 30
0.0
  0
VERTEX
  5
14D83
  8
ALPHA
 10
68.728781
 20
184.419437
 30
0.0
  0
VERTEX
  5
14D84
  8
ALPHA
 10
67.601571
 20
186.609573
 30
0.0
  0
VERTEX
  5
14D85
  8
ALPHA
 10
66.250292
 20
188.65256
 30
0.0
  0
VERTEX
  5
14D86
  8
ALPHA
 10
64.691185
 20
190.531959
 30
0.0
  0
VERTEX
  5
14D87
  8
ALPHA
 10
62.940491
 20
192.231335
 30
0.0
  0
VERTEX
  5
14D88
  8
ALPHA
 10
61.014452
 20
193.73425
 30
0.0
  0
SEQEND
  5
14D89
  8
ALPHA
  0
LINE
  5
14775
  8
ALPHA
 10
55.419149
 20
198.221422
 30
0.0
 11
55.03358
 21
197.696198
 31
0.0
  0
POLYLINE
  5
14776
  8
ALPHA
 66
     1
 10
0.0
 20
0.0
 30
0.0
 70
   128
210
0.0
220
0.0
230
-1.0
  0
VERTEX
  5
14D8A
  8
ALPHA
 10
-57.72649
 20
195.633253
 30
0.0
  0
VERTEX
  5
14D8B
  8
ALPHA
 10
-58.25475
 20
194.94883
 30
0.0
  0
VERTEX
  5
14D8C
  8
ALPHA
 10
-58.145455
 20
194.092495
 30
0.0
  0
SEQEND
  5
14D8D
  8
ALPHA
  0
LINE
  5
14777
  8
ALPHA
 10
41.241141
 20
197.693162
 30
0.0
 11
40.861644
 21
198.219904
 31
0.0
  0
POLYLINE
  5
14778
  8
ALPHA
 66
     1
 10
0.0
 20
0.0
 30
0.0
 70
   128
210
0.0
220
0.0
230
-1.0
  0
VERTEX
  5
14D8E
  8
ALPHA
 10
-38.141409
 20
194.092495
 30
0.0
  0
VERTEX
  5
14D8F
  8
ALPHA
 10
-38.030596
 20
194.94883
 30
0.0
  0
VERTEX
  5
14D90
  8
ALPHA
 10
-38.557338
 20
195.633253
 30
0.0
  0
SEQEND
  5
14D91
  8
ALPHA
  0
POLYLINE
  5
14779
  8
ALPHA
 66
     1
 10
0.0
 20
0.0
 30
0.0
 70
   128
  0
VERTEX
  5
14D92
  8
ALPHA
 10
36.80558
 20
193.321357
 30
0.0
  0
VERTEX
  5
14D93
  8
ALPHA
 10
36.114706
 20
193.840509
 30
0.0
  0
VERTEX
  5
14D94
  8
ALPHA
 10
35.254196
 20
193.722106
 30
0.0
  0
SEQEND
  5
14D95
  8
ALPHA
  0
LINE
  5
1477A
  8
ALPHA
 10
36.807098
 20
196.513686
 30
0.0
 11
36.532342
 21
195.335727
 31
0.0
  0
LINE
  5
1477B
  8
ALPHA
 10
36.532342
 20
195.335727
 30
0.0
 11
35.374117
 21
195.686382
 31
0.0
  0
LINE
  5
1477C
  8
ALPHA
 10
35.374117
 20
195.686382
 30
0.0
 11
31.875155
 21
193.028385
 31
0.0
  0
LINE
  5
1477D
  8
ALPHA
 10
31.875155
 20
193.028385
 30
0.0
 11
32.143839
 21
192.439406
 31
0.0
  0
LINE
  5
1477E
  8
ALPHA
 10
40.861644
 20
198.219904
 30
0.0
 11
36.807098
 21
196.513686
 31
0.0
  0
POLYLINE
  5
1477F
  8
ALPHA
 66
     1
 10
0.0
 20
0.0
 30
0.0
 70
   128
  0
VERTEX
  5
14D96
  8
ALPHA
 10
57.249842
 20
194.784697
 30
0.0
  0
VERTEX
  5
14D97
  8
ALPHA
 10
52.879175
 20
196.283331
 30
0.0
  0
VERTEX
  5
14D98
  8
ALPHA
 10
50.549111
 20
196.678577
 30
0.0
  0
VERTEX
  5
14D99
  8
ALPHA
 10
48.141914
 20
196.814247
 30
0.0
  0
VERTEX
  5
14D9A
  8
ALPHA
 10
45.734717
 20
196.678577
 30
0.0
  0
VERTEX
  5
14D9B
  8
ALPHA
 10
43.404653
 20
196.283331
 30
0.0
  0
VERTEX
  5
14D9C
  8
ALPHA
 10
39.033986
 20
194.784697
 30
0.0
  0
SEQEND
  5
14D9D
  8
ALPHA
  0
POLYLINE
  5
14780
  8
ALPHA
 66
     1
 10
0.0
 20
0.0
 30
0.0
 70
   128
210
0.0
220
0.0
230
-1.0
  0
VERTEX
  5
14D9E
  8
ALPHA
 10
-38.557338
 20
195.633253
 30
0.0
  0
VERTEX
  5
14D9F
  8
ALPHA
 10
-40.799715
 20
196.543737
 30
0.0
  0
VERTEX
  5
14DA0
  8
ALPHA
 10
-43.155513
 20
197.213288
 30
0.0
  0
VERTEX
  5
14DA1
  8
ALPHA
 10
-45.608368
 20
197.626395
 30
0.0
  0
VERTEX
  5
14DA2
  8
ALPHA
 10
-48.141914
 20
197.767544
 30
0.0
  0
VERTEX
  5
14DA3
  8
ALPHA
 10
-50.6761
 20
197.626395
 30
0.0
  0
VERTEX
  5
14DA4
  8
ALPHA
 10
-53.128884
 20
197.213288
 30
0.0
  0
VERTEX
  5
14DA5
  8
ALPHA
 10
-55.484327
 20
196.543737
 30
0.0
  0
VERTEX
  5
14DA6
  8
ALPHA
 10
-57.72649
 20
195.633253
 30
0.0
  0
SEQEND
  5
14DA7
  8
ALPHA
  0
POLYLINE
  5
14781
  8
ALPHA
 66
     1
 10
0.0
 20
0.0
 30
0.0
 70
   128
  0
VERTEX
  5
14DA8
  8
ALPHA
 10
55.03358
 20
197.696198
 30
0.0
  0
VERTEX
  5
14DA9
  8
ALPHA
 10
51.669149
 20
198.456521
 30
0.0
  0
VERTEX
  5
14DAA
  8
ALPHA
 10
48.141914
 20
198.719322
 30
0.0
  0
VERTEX
  5
14DAB
  8
ALPHA
 10
44.608987
 20
198.45671
 30
0.0
  0
VERTEX
  5
14DAC
  8
ALPHA
 10
41.241141
 20
197.693162
 30
0.0
  0
SEQEND
  5
14DAD
  8
ALPHA
  0
LINE
  5
14782
  8
ALPHA
 10
46.994315
 20
180.933057
 30
0.0
 11
49.265225
 21
180.937611
 31
0.0
  0
LINE
  5
14783
  8
ALPHA
 10
46.994315
 20
180.933057
 30
0.0
 11
46.579904
 21
179.477306
 31
0.0
  0
LINE
  5
14784
  8
ALPHA
 10
49.703924
 20
179.477306
 30
0.0
 11
49.265225
 21
180.937611
 31
0.0
  0
LINE
  5
14785
  8
ALPHA
 10
51.039753
 20
178.706169
 30
0.0
 11
52.516755
 21
179.065932
 31
0.0
  0
LINE
  5
14786
  8
ALPHA
 10
52.521309
 20
171.397056
 30
0.0
 11
53.650693
 21
173.352225
 31
0.0
  0
LINE
  5
14787
  8
ALPHA
 10
53.643103
 20
177.130497
 30
0.0
 11
52.601763
 21
175.999596
 31
0.0
  0
LINE
  5
14788
  8
ALPHA
 10
52.601763
 20
174.45732
 30
0.0
 11
53.650693
 21
173.352225
 31
0.0
  0
LINE
  5
14789
  8
ALPHA
 10
47.009495
 20
169.520823
 30
0.0
 11
49.266743
 21
169.519305
 31
0.0
  0
LINE
  5
1478A
  8
ALPHA
 10
47.009495
 20
169.520823
 30
0.0
 11
46.579904
 21
170.981128
 31
0.0
  0
LINE
  5
1478B
  8
ALPHA
 10
49.702406
 20
170.981128
 30
0.0
 11
49.266743
 21
169.519305
 31
0.0
  0
LINE
  5
1478C
  8
ALPHA
 10
52.521309
 20
171.397056
 30
0.0
 11
51.039753
 21
171.752266
 31
0.0
  0
LINE
  5
1478D
  8
ALPHA
 10
53.643103
 20
177.130497
 30
0.0
 11
52.516755
 21
179.065932
 31
0.0
  0
LINE
  5
1478E
  8
ALPHA
 10
42.6301
 20
173.358297
 30
0.0
 11
43.751893
 21
171.4092
 31
0.0
  0
LINE
  5
1478F
  8
ALPHA
 10
43.682065
 20
175.999596
 30
0.0
 11
42.643762
 21
177.133533
 31
0.0
  0
LINE
  5
14790
  8
ALPHA
 10
42.6301
 20
173.358297
 30
0.0
 11
43.682065
 21
174.45732
 31
0.0
  0
LINE
  5
14791
  8
ALPHA
 10
43.753411
 20
179.047716
 30
0.0
 11
42.643762
 21
177.133533
 31
0.0
  0
LINE
  5
14793
  8
ALPHA
 10
43.753411
 20
179.047716
 30
0.0
 11
45.247111
 21
178.706169
 31
0.0
  0
LINE
  5
14794
  8
ALPHA
 10
45.245593
 20
171.752266
 30
0.0
 11
43.751893
 21
171.4092
 31
0.0
  0
POLYLINE
  5
14795
  8
ALPHA
 66
     1
 10
0.0
 20
0.0
 30
0.0
 70
   128
  0
VERTEX
  5
14DAE
  8
ALPHA
 10
39.033986
 20
194.784697
 30
0.0
  0
VERTEX
  5
14DAF
  8
ALPHA
 10
39.123384
 20
194.629137
 30
0.0
  0
VERTEX
  5
14DB0
  8
ALPHA
 10
39.376032
 20
194.18951
 30
0.0
  0
VERTEX
  5
14DB1
  8
ALPHA
 10
40.277788
 20
192.620379
 30
0.0
  0
VERTEX
  5
14DB2
  8
ALPHA
 10
41.552684
 20
190.401952
 30
0.0
  0
VERTEX
  5
14DB3
  8
ALPHA
 10
43.014151
 20
187.858877
 30
0.0
  0
VERTEX
  5
14DB4
  8
ALPHA
 10
44.475617
 20
185.315803
 30
0.0
  0
VERTEX
  5
14DB5
  8
ALPHA
 10
45.750514
 20
183.097376
 30
0.0
  0
VERTEX
  5
14DB6
  8
ALPHA
 10
46.65227
 20
181.528245
 30
0.0
  0
VERTEX
  5
14DB7
  8
ALPHA
 10
46.904917
 20
181.088617
 30
0.0
  0
VERTEX
  5
14DB8
  8
ALPHA
 10
46.994315
 20
180.933057
 30
0.0
  0
SEQEND
  5
14DB9
  8
ALPHA
  0
POLYLINE
  5
14796
  8
ALPHA
 66
     1
 10
0.0
 20
0.0
 30
0.0
 70
   128
  0
VERTEX
  5
14DBA
  8
ALPHA
 10
49.265225
 20
180.937611
 30
0.0
  0
VERTEX
  5
14DBB
  8
ALPHA
 10
49.354896
 20
181.09312
 30
0.0
  0
VERTEX
  5
14DBC
  8
ALPHA
 10
49.608314
 20
181.532603
 30
0.0
  0
VERTEX
  5
14DBD
  8
ALPHA
 10
50.512822
 20
183.101218
 30
0.0
  0
VERTEX
  5
14DBE
  8
ALPHA
 10
51.791608
 20
185.318916
 30
0.0
  0
VERTEX
  5
14DBF
  8
ALPHA
 10
53.257534
 20
187.861154
 30
0.0
  0
VERTEX
  5
14DC0
  8
ALPHA
 10
54.723459
 20
190.403393
 30
0.0
  0
VERTEX
  5
14DC1
  8
ALPHA
 10
56.002246
 20
192.62109
 30
0.0
  0
VERTEX
  5
14DC2
  8
ALPHA
 10
56.906753
 20
194.189705
 30
0.0
  0
VERTEX
  5
14DC3
  8
ALPHA
 10
57.160171
 20
194.629188
 30
0.0
  0
VERTEX
  5
14DC4
  8
ALPHA
 10
57.249842
 20
194.784697
 30
0.0
  0
SEQEND
  5
14DC5
  8
ALPHA
  0
POLYLINE
  5
14797
  8
ALPHA
 66
     1
 10
0.0
 20
0.0
 30
0.0
 70
   128
  0
VERTEX
  5
14DC6
  8
ALPHA
 10
46.579904
 20
179.477306
 30
0.0
  0
VERTEX
  5
14DC7
  8
ALPHA
 10
46.485136
 20
179.641442
 30
0.0
  0
VERTEX
  5
14DC8
  8
ALPHA
 10
46.217313
 20
180.105303
 30
0.0
  0
VERTEX
  5
14DC9
  8
ALPHA
 10
45.26139
 20
181.76093
 30
0.0
  0
VERTEX
  5
14DCA
  8
ALPHA
 10
43.909912
 20
184.101643
 30
0.0
  0
VERTEX
  5
14DCB
  8
ALPHA
 10
42.360657
 20
186.784901
 30
0.0
  0
VERTEX
  5
14DCC
  8
ALPHA
 10
40.811402
 20
189.468158
 30
0.0
  0
VERTEX
  5
14DCD
  8
ALPHA
 10
39.459924
 20
191.808872
 30
0.0
  0
VERTEX
  5
14DCE
  8
ALPHA
 10
38.504001
 20
193.464498
 30
0.0
  0
VERTEX
  5
14DCF
  8
ALPHA
 10
38.236178
 20
193.928359
 30
0.0
  0
VERTEX
  5
14DD0
  8
ALPHA
 10
38.141409
 20
194.092495
 30
0.0
  0
SEQEND
  5
14DD1
  8
ALPHA
  0
POLYLINE
  5
14798
  8
ALPHA
 66
     1
 10
0.0
 20
0.0
 30
0.0
 70
   128
  0
VERTEX
  5
14DD2
  8
ALPHA
 10
58.145455
 20
194.092495
 30
0.0
  0
VERTEX
  5
14DD3
  8
ALPHA
 10
58.050653
 20
193.928359
 30
0.0
  0
VERTEX
  5
14DD4
  8
ALPHA
 10
57.782733
 20
193.464498
 30
0.0
  0
VERTEX
  5
14DD5
  8
ALPHA
 10
56.826466
 20
191.808872
 30
0.0
  0
VERTEX
  5
14DD6
  8
ALPHA
 10
55.474502
 20
189.468158
 30
0.0
  0
VERTEX
  5
14DD7
  8
ALPHA
 10
53.924689
 20
186.784901
 30
0.0
  0
VERTEX
  5
14DD8
  8
ALPHA
 10
52.374877
 20
184.101643
 30
0.0
  0
VERTEX
  5
14DD9
  8
ALPHA
 10
51.022913
 20
181.76093
 30
0.0
  0
VERTEX
  5
14DDA
  8
ALPHA
 10
50.066646
 20
180.105303
 30
0.0
  0
VERTEX
  5
14DDB
  8
ALPHA
 10
49.798726
 20
179.641442
 30
0.0
  0
VERTEX
  5
14DDC
  8
ALPHA
 10
49.703924
 20
179.477306
 30
0.0
  0
SEQEND
  5
14DDD
  8
ALPHA
  0
POLYLINE
  5
14799
  8
ALPHA
 66
     1
 10
0.0
 20
0.0
 30
0.0
 70
   128
  0
VERTEX
  5
14DDE
  8
ALPHA
 10
35.782456
 20
192.906946
 30
0.0
  0
VERTEX
  5
14DDF
  8
ALPHA
 10
35.871974
 20
192.751301
 30
0.0
  0
VERTEX
  5
14DE0
  8
ALPHA
 10
36.124958
 20
192.311432
 30
0.0
  0
VERTEX
  5
14DE1
  8
ALPHA
 10
37.027918
 20
190.741441
 30
0.0
  0
VERTEX
  5
14DE2
  8
ALPHA
 10
38.304516
 20
188.521799
 30
0.0
  0
VERTEX
  5
14DE3
  8
ALPHA
 10
39.767933
 20
185.977331
 30
0.0
  0
VERTEX
  5
14DE4
  8
ALPHA
 10
41.231351
 20
183.432863
 30
0.0
  0
VERTEX
  5
14DE5
  8
ALPHA
 10
42.507949
 20
181.213221
 30
0.0
  0
VERTEX
  5
14DE6
  8
ALPHA
 10
43.410909
 20
179.64323
 30
0.0
  0
VERTEX
  5
14DE7
  8
ALPHA
 10
43.663893
 20
179.203362
 30
0.0
  0
VERTEX
  5
14DE8
  8
ALPHA
 10
43.753411
 20
179.047716
 30
0.0
  0
SEQEND
  5
14DE9
  8
ALPHA
  0
POLYLINE
  5
1479A
  8
ALPHA
 66
     1
 10
0.0
 20
0.0
 30
0.0
 70
   128
  0
VERTEX
  5
14DEA
  8
ALPHA
 10
45.247111
 20
178.706169
 30
0.0
  0
VERTEX
  5
14DEB
  8
ALPHA
 10
45.152309
 20
178.870304
 30
0.0
  0
VERTEX
  5
14DEC
  8
ALPHA
 10
44.884389
 20
179.334165
 30
0.0
  0
VERTEX
  5
14DED
  8
ALPHA
 10
43.928122
 20
180.989792
 30
0.0
  0
VERTEX
  5
14DEE
  8
ALPHA
 10
42.576158
 20
183.330506
 30
0.0
  0
VERTEX
  5
14DEF
  8
ALPHA
 10
41.026345
 20
186.013763
 30
0.0
  0
VERTEX
  5
14DF0
  8
ALPHA
 10
39.476533
 20
188.69702
 30
0.0
  0
VERTEX
  5
14DF1
  8
ALPHA
 10
38.124569
 20
191.037734
 30
0.0
  0
VERTEX
  5
14DF2
  8
ALPHA
 10
37.168302
 20
192.693361
 30
0.0
  0
VERTEX
  5
14DF3
  8
ALPHA
 10
36.900382
 20
193.157221
 30
0.0
  0
VERTEX
  5
14DF4
  8
ALPHA
 10
36.80558
 20
193.321357
 30
0.0
  0
SEQEND
  5
14DF5
  8
ALPHA
  0
POLYLINE
  5
1479B
  8
ALPHA
 66
     1
 10
0.0
 20
0.0
 30
0.0
 70
   128
  0
VERTEX
  5
14DF6
  8
ALPHA
 10
69.630552
 20
177.112281
 30
0.0
  0
VERTEX
  5
14DF7
  8
ALPHA
 10
69.451005
 20
177.112486
 30
0.0
  0
VERTEX
  5
14DF8
  8
ALPHA
 10
68.943591
 20
177.113064
 30
0.0
  0
VERTEX
  5
14DF9
  8
ALPHA
 10
67.132513
 20
177.115127
 30
0.0
  0
VERTEX
  5
14DFA
  8
ALPHA
 10
64.572023
 20
177.118045
 30
0.0
  0
VERTEX
  5
14DFB
  8
ALPHA
 10
61.636827
 20
177.121389
 30
0.0
  0
VERTEX
  5
14DFC
  8
ALPHA
 10
58.701631
 20
177.124733
 30
0.0
  0
VERTEX
  5
14DFD
  8
ALPHA
 10
56.141142
 20
177.127651
 30
0.0
  0
VERTEX
  5
14DFE
  8
ALPHA
 10
54.330063
 20
177.129714
 30
0.0
  0
VERTEX
  5
14DFF
  8
ALPHA
 10
53.822649
 20
177.130292
 30
0.0
  0
VERTEX
  5
14E00
  8
ALPHA
 10
53.643103
 20
177.130497
 30
0.0
  0
SEQEND
  5
14E01
  8
ALPHA
  0
POLYLINE
  5
1479C
  8
ALPHA
 66
     1
 10
0.0
 20
0.0
 30
0.0
 70
   128
  0
VERTEX
  5
14E02
  8
ALPHA
 10
52.516755
 20
179.065932
 30
0.0
  0
VERTEX
  5
14E03
  8
ALPHA
 10
52.606529
 20
179.221322
 30
0.0
  0
VERTEX
  5
14E04
  8
ALPHA
 10
52.860236
 20
179.660467
 30
0.0
  0
VERTEX
  5
14E05
  8
ALPHA
 10
53.765775
 20
181.227879
 30
0.0
  0
VERTEX
  5
14E06
  8
ALPHA
 10
55.04602
 20
183.443874
 30
0.0
  0
VERTEX
  5
14E07
  8
ALPHA
 10
56.513618
 20
185.984162
 30
0.0
  0
VERTEX
  5
14E08
  8
ALPHA
 10
57.981216
 20
188.52445
 30
0.0
  0
VERTEX
  5
14E09
  8
ALPHA
 10
59.261461
 20
190.740445
 30
0.0
  0
VERTEX
  5
14E0A
  8
ALPHA
 10
60.167
 20
192.307857
 30
0.0
  0
VERTEX
  5
14E0B
  8
ALPHA
 10
60.420707
 20
192.747002
 30
0.0
  0
VERTEX
  5
14E0C
  8
ALPHA
 10
60.51048
 20
192.902392
 30
0.0
  0
SEQEND
  5
14E0D
  8
ALPHA
  0
LINE
  5
1479D
  8
ALPHA
 10
59.466104
 20
196.519758
 30
0.0
 11
55.419149
 21
198.221422
 31
0.0
  0
POLYLINE
  5
1479E
  8
ALPHA
 66
     1
 10
0.0
 20
0.0
 30
0.0
 70
   128
  0
VERTEX
  5
14E0E
  8
ALPHA
 10
53.650693
 20
173.352225
 30
0.0
  0
VERTEX
  5
14E0F
  8
ALPHA
 10
53.830171
 20
173.35231
 30
0.0
  0
VERTEX
  5
14E10
  8
ALPHA
 10
54.337392
 20
173.352551
 30
0.0
  0
VERTEX
  5
14E11
  8
ALPHA
 10
56.147783
 20
173.353411
 30
0.0
  0
VERTEX
  5
14E12
  8
ALPHA
 10
58.7073
 20
173.354626
 30
0.0
  0
VERTEX
  5
14E13
  8
ALPHA
 10
61.641381
 20
173.35602
 30
0.0
  0
VERTEX
  5
14E14
  8
ALPHA
 10
64.575462
 20
173.357413
 30
0.0
  0
VERTEX
  5
14E15
  8
ALPHA
 10
67.13498
 20
173.358629
 30
0.0
  0
VERTEX
  5
14E16
  8
ALPHA
 10
68.94537
 20
173.359489
 30
0.0
  0
VERTEX
  5
14E17
  8
ALPHA
 10
69.452592
 20
173.35973
 30
0.0
  0
VERTEX
  5
14E18
  8
ALPHA
 10
69.63207
 20
173.359815
 30
0.0
  0
SEQEND
  5
14E19
  8
ALPHA
  0
POLYLINE
  5
1479F
  8
ALPHA
 66
     1
 10
0.0
 20
0.0
 30
0.0
 70
   128
  0
VERTEX
  5
14E1A
  8
ALPHA
 10
52.601763
 20
175.999596
 30
0.0
  0
VERTEX
  5
14E1B
  8
ALPHA
 10
52.791333
 20
175.999596
 30
0.0
  0
VERTEX
  5
14E1C
  8
ALPHA
 10
53.327076
 20
175.999596
 30
0.0
  0
VERTEX
  5
14E1D
  8
ALPHA
 10
55.239267
 20
175.999596
 30
0.0
  0
VERTEX
  5
14E1E
  8
ALPHA
 10
57.942709
 20
175.999596
 30
0.0
  0
VERTEX
  5
14E1F
  8
ALPHA
 10
61.041776
 20
175.999596
 30
0.0
  0
VERTEX
  5
14E20
  8
ALPHA
 10
64.140843
 20
175.999596
 30
0.0
  0
VERTEX
  5
14E21
  8
ALPHA
 10
66.844285
 20
175.999596
 30
0.0
  0
VERTEX
  5
14E22
  8
ALPHA
 10
68.756476
 20
175.999596
 30
0.0
  0
VERTEX
  5
14E23
  8
ALPHA
 10
69.292219
 20
175.999596
 30
0.0
  0
VERTEX
  5
14E24
  8
ALPHA
 10
69.481789
 20
175.999596
 30
0.0
  0
SEQEND
  5
14E25
  8
ALPHA
  0
POLYLINE
  5
147A0
  8
ALPHA
 66
     1
 10
0.0
 20
0.0
 30
0.0
 70
   128
  0
VERTEX
  5
14E26
  8
ALPHA
 10
59.478248
 20
193.321357
 30
0.0
  0
VERTEX
  5
14E27
  8
ALPHA
 10
59.38348
 20
193.157221
 30
0.0
  0
VERTEX
  5
14E28
  8
ALPHA
 10
59.115657
 20
192.693361
 30
0.0
  0
VERTEX
  5
14E29
  8
ALPHA
 10
58.159734
 20
191.037734
 30
0.0
  0
VERTEX
  5
14E2A
  8
ALPHA
 10
56.808256
 20
188.69702
 30
0.0
  0
VERTEX
  5
14E2B
  8
ALPHA
 10
55.259001
 20
186.013763
 30
0.0
  0
VERTEX
  5
14E2C
  8
ALPHA
 10
53.709746
 20
183.330506
 30
0.0
  0
VERTEX
  5
14E2D
  8
ALPHA
 10
52.358268
 20
180.989792
 30
0.0
  0
VERTEX
  5
14E2E
  8
ALPHA
 10
51.402345
 20
179.334165
 30
0.0
  0
VERTEX
  5
14E2F
  8
ALPHA
 10
51.134521
 20
178.870304
 30
0.0
  0
VERTEX
  5
14E30
  8
ALPHA
 10
51.039753
 20
178.706169
 30
0.0
  0
SEQEND
  5
14E31
  8
ALPHA
  0
POLYLINE
  5
147A1
  8
ALPHA
 66
     1
 10
0.0
 20
0.0
 30
0.0
 70
   128
  0
VERTEX
  5
14E32
  8
ALPHA
 10
69.481789
 20
174.458838
 30
0.0
  0
VERTEX
  5
14E33
  8
ALPHA
 10
69.292219
 20
174.458821
 30
0.0
  0
VERTEX
  5
14E34
  8
ALPHA
 10
68.756476
 20
174.458773
 30
0.0
  0
VERTEX
  5
14E35
  8
ALPHA
 10
66.844285
 20
174.458601
 30
0.0
  0
VERTEX
  5
14E36
  8
ALPHA
 10
64.140843
 20
174.458358
 30
0.0
  0
VERTEX
  5
14E37
  8
ALPHA
 10
61.041776
 20
174.458079
 30
0.0
  0
VERTEX
  5
14E38
  8
ALPHA
 10
57.942709
 20
174.457801
 30
0.0
  0
VERTEX
  5
14E39
  8
ALPHA
 10
55.239267
 20
174.457557
 30
0.0
  0
VERTEX
  5
14E3A
  8
ALPHA
 10
53.327076
 20
174.457385
 30
0.0
  0
VERTEX
  5
14E3B
  8
ALPHA
 10
52.791333
 20
174.457337
 30
0.0
  0
VERTEX
  5
14E3C
  8
ALPHA
 10
52.601763
 20
174.45732
 30
0.0
  0
SEQEND
  5
14E3D
  8
ALPHA
  0
LINE
  5
147A2
  8
ALPHA
 10
25.238511
 20
180.485251
 30
0.0
 11
24.591849
 21
180.416941
 31
0.0
  0
POLYLINE
  5
147A3
  8
ALPHA
 66
     1
 10
0.0
 20
0.0
 30
0.0
 70
   128
  0
VERTEX
  5
14E3E
  8
ALPHA
 10
25.681764
 20
177.118353
 30
0.0
  0
VERTEX
  5
14E3F
  8
ALPHA
 10
26.009839
 20
176.326153
 30
0.0
  0
VERTEX
  5
14E40
  8
ALPHA
 10
26.803557
 20
175.999596
 30
0.0
  0
SEQEND
  5
14E41
  8
ALPHA
  0
POLYLINE
  5
147A4
  8
ALPHA
 66
     1
 10
0.0
 20
0.0
 30
0.0
 70
   128
  0
VERTEX
  5
14E42
  8
ALPHA
 10
26.803557
 20
174.458838
 30
0.0
  0
VERTEX
  5
14E43
  8
ALPHA
 10
26.009839
 20
174.128486
 30
0.0
  0
VERTEX
  5
14E44
  8
ALPHA
 10
25.681764
 20
173.332491
 30
0.0
  0
SEQEND
  5
14E45
  8
ALPHA
  0
LINE
  5
147A5
  8
ALPHA
 10
24.043855
 20
176.048172
 30
0.0
 11
24.924288
 21
175.228458
 31
0.0
  0
LINE
  5
147A6
  8
ALPHA
 10
24.924288
 20
175.228458
 30
0.0
 11
24.043855
 21
174.399637
 31
0.0
  0
LINE
  5
147A7
  8
ALPHA
 10
24.043855
 20
174.399637
 30
0.0
 11
24.591849
 21
170.044529
 31
0.0
  0
LINE
  5
147A8
  8
ALPHA
 10
24.591849
 20
170.044529
 30
0.0
 11
25.236993
 21
169.973184
 31
0.0
  0
LINE
  5
147A9
  8
ALPHA
 10
24.591849
 20
180.416941
 30
0.0
 11
24.043855
 21
176.048172
 31
0.0
  0
POLYLINE
  5
147AC
  8
ALPHA
 66
     1
 10
0.0
 20
0.0
 30
0.0
 70
   128
210
0.0
220
0.0
230
-1.0
  0
VERTEX
  5
14E46
  8
ALPHA
 10
-26.654794
 20
177.109245
 30
0.0
  0
VERTEX
  5
14E47
  8
ALPHA
 10
-27.000116
 20
179.52072
 30
0.0
  0
VERTEX
  5
14E48
  8
ALPHA
 10
-27.602612
 20
181.837185
 30
0.0
  0
VERTEX
  5
14E49
  8
ALPHA
 10
-28.447357
 20
184.043749
 30
0.0
  0
VERTEX
  5
14E4A
  8
ALPHA
 10
-29.519427
 20
186.125525
 30
0.0
  0
VERTEX
  5
14E4B
  8
ALPHA
 10
-32.285842
 20
189.85515
 30
0.0
  0
VERTEX
  5
14E4C
  8
ALPHA
 10
-35.782456
 20
192.906946
 30
0.0
  0
SEQEND
  5
14E4D
  8
ALPHA
  0
POLYLINE
  5
147AD
  8
ALPHA
 66
     1
 10
0.0
 20
0.0
 30
0.0
 70
   128
  0
VERTEX
  5
14E4E
  8
ALPHA
 10
42.643762
 20
177.133533
 30
0.0
  0
VERTEX
  5
14E4F
  8
ALPHA
 10
42.464198
 20
177.13326
 30
0.0
  0
VERTEX
  5
14E50
  8
ALPHA
 10
41.956736
 20
177.132489
 30
0.0
  0
VERTEX
  5
14E51
  8
ALPHA
 10
40.145485
 20
177.129738
 30
0.0
  0
VERTEX
  5
14E52
  8
ALPHA
 10
37.584752
 20
177.125848
 30
0.0
  0
VERTEX
  5
14E53
  8
ALPHA
 10
34.649278
 20
177.121389
 30
0.0
  0
VERTEX
  5
14E54
  8
ALPHA
 10
31.713803
 20
177.11693
 30
0.0
  0
VERTEX
  5
14E55
  8
ALPHA
 10
29.15307
 20
177.11304
 30
0.0
  0
VERTEX
  5
14E56
  8
ALPHA
 10
27.34182
 20
177.110289
 30
0.0
  0
VERTEX
  5
14E57
  8
ALPHA
 10
26.834358
 20
177.109518
 30
0.0
  0
VERTEX
  5
14E58
  8
ALPHA
 10
26.654794
 20
177.109245
 30
0.0
  0
SEQEND
  5
14E59
  8
ALPHA
  0
POLYLINE
  5
147AE
  8
ALPHA
 66
     1
 10
0.0
 20
0.0
 30
0.0
 70
   128
  0
VERTEX
  5
14E5A
  8
ALPHA
 10
26.654794
 20
173.340081
 30
0.0
  0
VERTEX
  5
14E5B
  8
ALPHA
 10
26.834204
 20
173.340286
 30
0.0
  0
VERTEX
  5
14E5C
  8
ALPHA
 10
27.341233
 20
173.340864
 30
0.0
  0
VERTEX
  5
14E5D
  8
ALPHA
 10
29.150936
 20
173.342927
 30
0.0
  0
VERTEX
  5
14E5E
  8
ALPHA
 10
31.709481
 20
173.345845
 30
0.0
  0
VERTEX
  5
14E5F
  8
ALPHA
 10
34.642447
 20
173.349189
 30
0.0
  0
VERTEX
  5
14E60
  8
ALPHA
 10
37.575413
 20
173.352533
 30
0.0
  0
VERTEX
  5
14E61
  8
ALPHA
 10
40.133958
 20
173.355451
 30
0.0
  0
VERTEX
  5
14E62
  8
ALPHA
 10
41.943661
 20
173.357514
 30
0.0
  0
VERTEX
  5
14E63
  8
ALPHA
 10
42.45069
 20
173.358092
 30
0.0
  0
VERTEX
  5
14E64
  8
ALPHA
 10
42.6301
 20
173.358297
 30
0.0
  0
SEQEND
  5
14E65
  8
ALPHA
  0
POLYLINE
  5
147AF
  8
ALPHA
 66
     1
 10
0.0
 20
0.0
 30
0.0
 70
   128
  0
VERTEX
  5
14E66
  8
ALPHA
 10
35.254196
 20
193.722106
 30
0.0
  0
VERTEX
  5
14E67
  8
ALPHA
 10
33.332423
 20
192.217759
 30
0.0
  0
VERTEX
  5
14E68
  8
ALPHA
 10
31.584555
 20
190.517467
 30
0.0
  0
VERTEX
  5
14E69
  8
ALPHA
 10
30.027242
 20
188.637614
 30
0.0
  0
VERTEX
  5
14E6A
  8
ALPHA
 10
28.677134
 20
186.594583
 30
0.0
  0
VERTEX
  5
14E6B
  8
ALPHA
 10
27.550881
 20
184.404758
 30
0.0
  0
VERTEX
  5
14E6C
  8
ALPHA
 10
26.665136
 20
182.084522
 30
0.0
  0
VERTEX
  5
14E6D
  8
ALPHA
 10
26.036546
 20
179.650259
 30
0.0
  0
VERTEX
  5
14E6E
  8
ALPHA
 10
25.681764
 20
177.118353
 30
0.0
  0
SEQEND
  5
14E6F
  8
ALPHA
  0
POLYLINE
  5
147B0
  8
ALPHA
 66
     1
 10
0.0
 20
0.0
 30
0.0
 70
   128
  0
VERTEX
  5
14E70
  8
ALPHA
 10
26.803557
 20
175.999596
 30
0.0
  0
VERTEX
  5
14E71
  8
ALPHA
 10
26.993111
 20
175.999596
 30
0.0
  0
VERTEX
  5
14E72
  8
ALPHA
 10
27.528805
 20
175.999596
 30
0.0
  0
VERTEX
  5
14E73
  8
ALPHA
 10
29.440824
 20
175.999596
 30
0.0
  0
VERTEX
  5
14E74
  8
ALPHA
 10
32.144023
 20
175.999596
 30
0.0
  0
VERTEX
  5
14E75
  8
ALPHA
 10
35.242811
 20
175.999596
 30
0.0
  0
VERTEX
  5
14E76
  8
ALPHA
 10
38.3416
 20
175.999596
 30
0.0
  0
VERTEX
  5
14E77
  8
ALPHA
 10
41.044798
 20
175.999596
 30
0.0
  0
VERTEX
  5
14E78
  8
ALPHA
 10
42.956817
 20
175.999596
 30
0.0
  0
VERTEX
  5
14E79
  8
ALPHA
 10
43.492512
 20
175.999596
 30
0.0
  0
VERTEX
  5
14E7A
  8
ALPHA
 10
43.682065
 20
175.999596
 30
0.0
  0
SEQEND
  5
14E7B
  8
ALPHA
  0
POLYLINE
  5
147B1
  8
ALPHA
 66
     1
 10
0.0
 20
0.0
 30
0.0
 70
   128
  0
VERTEX
  5
14E7C
  8
ALPHA
 10
43.682065
 20
174.45732
 30
0.0
  0
VERTEX
  5
14E7D
  8
ALPHA
 10
43.492512
 20
174.457337
 30
0.0
  0
VERTEX
  5
14E7E
  8
ALPHA
 10
42.956817
 20
174.457385
 30
0.0
  0
VERTEX
  5
14E7F
  8
ALPHA
 10
41.044798
 20
174.457557
 30
0.0
  0
VERTEX
  5
14E80
  8
ALPHA
 10
38.3416
 20
174.457801
 30
0.0
  0
VERTEX
  5
14E81
  8
ALPHA
 10
35.242811
 20
174.458079
 30
0.0
  0
VERTEX
  5
14E82
  8
ALPHA
 10
32.144023
 20
174.458358
 30
0.0
  0
VERTEX
  5
14E83
  8
ALPHA
 10
29.440824
 20
174.458601
 30
0.0
  0
VERTEX
  5
14E84
  8
ALPHA
 10
27.528805
 20
174.458773
 30
0.0
  0
VERTEX
  5
14E85
  8
ALPHA
 10
26.993111
 20
174.458821
 30
0.0
  0
VERTEX
  5
14E86
  8
ALPHA
 10
26.803557
 20
174.458838
 30
0.0
  0
SEQEND
  5
14E87
  8
ALPHA
  0
POLYLINE
  5
147B2
  8
ALPHA
 66
     1
 10
0.0
 20
0.0
 30
0.0
 70
   128
  0
VERTEX
  5
14E88
  8
ALPHA
 10
32.143839
 20
192.439406
 30
0.0
  0
VERTEX
  5
14E89
  8
ALPHA
 10
29.787494
 20
189.899361
 30
0.0
  0
VERTEX
  5
14E8A
  8
ALPHA
 10
27.822506
 20
187.029866
 30
0.0
  0
VERTEX
  5
14E8B
  8
ALPHA
 10
26.291853
 20
183.876602
 30
0.0
  0
VERTEX
  5
14E8C
  8
ALPHA
 10
25.238511
 20
180.485251
 30
0.0
  0
SEQEND
  5
14E8D
  8
ALPHA
  0
POLYLINE
  5
147B3
  8
ALPHA
 66
     1
 10
0.0
 20
0.0
 30
0.0
 70
   128
  0
VERTEX
  5
14E8E
  8
ALPHA
 10
59.478248
 20
157.134041
 30
0.0
  0
VERTEX
  5
14E8F
  8
ALPHA
 10
60.166846
 20
156.613371
 30
0.0
  0
VERTEX
  5
14E90
  8
ALPHA
 10
61.025078
 20
156.730257
 30
0.0
  0
SEQEND
  5
14E91
  8
ALPHA
  0
LINE
  5
147B4
  8
ALPHA
 10
59.473694
 20
153.940195
 30
0.0
 11
59.753004
 21
155.119671
 31
0.0
  0
LINE
  5
147B5
  8
ALPHA
 10
59.753004
 20
155.119671
 30
0.0
 11
60.917301
 21
154.776606
 31
0.0
  0
LINE
  5
147B6
  8
ALPHA
 10
60.917301
 20
154.776606
 30
0.0
 11
64.405637
 21
157.427013
 31
0.0
  0
LINE
  5
147B7
  8
ALPHA
 10
64.405637
 20
157.427013
 30
0.0
 11
64.135436
 21
158.011438
 31
0.0
  0
POLYLINE
  5
147C5
  8
ALPHA
 66
     1
 10
0.0
 20
0.0
 30
0.0
 70
   128
  0
VERTEX
  5
14E92
  8
ALPHA
 10
57.73408
 20
154.8267
 30
0.0
  0
VERTEX
  5
14E93
  8
ALPHA
 10
58.257976
 20
155.509604
 30
0.0
  0
VERTEX
  5
14E94
  8
ALPHA
 10
58.145455
 20
156.364421
 30
0.0
  0
SEQEND
  5
14E95
  8
ALPHA
  0
LINE
  5
147C6
  8
ALPHA
 10
55.035098
 20
152.760718
 30
0.0
 11
55.443436
 21
152.244602
 31
0.0
  0
POLYLINE
  5
147D4
  8
ALPHA
 66
     1
 10
0.0
 20
0.0
 30
0.0
 70
   128
  0
VERTEX
  5
14E96
  8
ALPHA
 10
38.141409
 20
156.364421
 30
0.0
  0
VERTEX
  5
14E97
  8
ALPHA
 10
38.029268
 20
155.508276
 30
0.0
  0
VERTEX
  5
14E98
  8
ALPHA
 10
38.55582
 20
154.825182
 30
0.0
  0
SEQEND
  5
14E99
  8
ALPHA
  0
LINE
  5
147D5
  8
ALPHA
 10
40.8495
 20
152.241566
 30
0.0
 11
41.225961
 21
152.768308
 31
0.0
  0
POLYLINE
  5
147D6
  8
ALPHA
 66
     1
 10
0.0
 20
0.0
 30
0.0
 70
   128
  0
VERTEX
  5
14E9A
  8
ALPHA
 10
35.275448
 20
156.719631
 30
0.0
  0
VERTEX
  5
14E9B
  8
ALPHA
 10
36.124762
 20
156.607489
 30
0.0
  0
VERTEX
  5
14E9C
  8
ALPHA
 10
36.80558
 20
157.134041
 30
0.0
  0
SEQEND
  5
14E9D
  8
ALPHA
  0
LINE
  5
147D7
  8
ALPHA
 10
31.861493
 20
157.442193
 30
0.0
 11
35.380189
 21
154.767498
 31
0.0
  0
LINE
  5
147D8
  8
ALPHA
 10
35.380189
 20
154.767498
 30
0.0
 11
36.532342
 21
155.119671
 31
0.0
  0
LINE
  5
147D9
  8
ALPHA
 10
36.532342
 20
155.119671
 30
0.0
 11
36.814688
 21
153.938677
 31
0.0
  0
LINE
  5
147DA
  8
ALPHA
 10
36.814688
 20
153.938677
 30
0.0
 11
40.8495
 21
152.241566
 31
0.0
  0
LINE
  5
147DB
  8
ALPHA
 10
32.139285
 20
158.020546
 30
0.0
 11
31.861493
 21
157.442193
 31
0.0
  0
POLYLINE
  5
147DD
  8
ALPHA
 66
     1
 10
0.0
 20
0.0
 30
0.0
 70
   128
210
0.0
220
0.0
230
-1.0
  0
VERTEX
  5
14E9E
  8
ALPHA
 10
-57.245288
 20
155.670701
 30
0.0
  0
VERTEX
  5
14E9F
  8
ALPHA
 10
-52.87519
 20
154.173965
 30
0.0
  0
VERTEX
  5
14EA0
  8
ALPHA
 10
-50.546051
 20
153.778529
 30
0.0
  0
VERTEX
  5
14EA1
  8
ALPHA
 10
-48.141914
 20
153.642669
 30
0.0
  0
VERTEX
  5
14EA2
  8
ALPHA
 10
-45.734717
 20
153.778363
 30
0.0
  0
VERTEX
  5
14EA3
  8
ALPHA
 10
-43.404653
 20
154.173775
 30
0.0
  0
VERTEX
  5
14EA4
  8
ALPHA
 10
-39.033986
 20
155.673737
 30
0.0
  0
SEQEND
  5
14EA5
  8
ALPHA
  0
POLYLINE
  5
147DE
  8
ALPHA
 66
     1
 10
0.0
 20
0.0
 30
0.0
 70
   128
  0
VERTEX
  5
14EA6
  8
ALPHA
 10
38.55582
 20
154.825182
 30
0.0
  0
VERTEX
  5
14EA7
  8
ALPHA
 10
40.798007
 20
153.91382
 30
0.0
  0
VERTEX
  5
14EA8
  8
ALPHA
 10
43.153616
 20
153.243818
 30
0.0
  0
VERTEX
  5
14EA9
  8
ALPHA
 10
45.60685
 20
152.830545
 30
0.0
  0
VERTEX
  5
14EAA
  8
ALPHA
 10
48.141914
 20
152.689373
 30
0.0
  0
VERTEX
  5
14EAB
  8
ALPHA
 10
50.67878
 20
152.830569
 30
0.0
  0
VERTEX
  5
14EAC
  8
ALPHA
 10
53.133248
 20
153.244007
 30
0.0
  0
VERTEX
  5
14EAD
  8
ALPHA
 10
55.490091
 20
153.91446
 30
0.0
  0
VERTEX
  5
14EAE
  8
ALPHA
 10
57.73408
 20
154.8267
 30
0.0
  0
SEQEND
  5
14EAF
  8
ALPHA
  0
POLYLINE
  5
147DF
  8
ALPHA
 66
     1
 10
0.0
 20
0.0
 30
0.0
 70
   128
  0
VERTEX
  5
14EB0
  8
ALPHA
 10
41.225961
 20
152.768308
 30
0.0
  0
VERTEX
  5
14EB1
  8
ALPHA
 10
44.600828
 20
152.000206
 30
0.0
  0
VERTEX
  5
14EB2
  8
ALPHA
 10
48.141914
 20
151.737594
 30
0.0
  0
VERTEX
  5
14EB3
  8
ALPHA
 10
51.669908
 20
151.999827
 30
0.0
  0
VERTEX
  5
14EB4
  8
ALPHA
 10
55.035098
 20
152.760718
 30
0.0
  0
SEQEND
  5
14EB5
  8
ALPHA
  0
LINE
  5
147E1
  8
ALPHA
 10
55.443436
 20
152.244602
 30
0.0
 11
59.473694
 21
153.940195
 31
0.0
  0
POLYLINE
  5
147E5
  8
ALPHA
 66
     1
 10
0.0
 20
0.0
 30
0.0
 70
   128
210
0.0
220
0.0
230
-1.0
  0
VERTEX
  5
14EB6
  8
ALPHA
 10
-69.63207
 20
173.359815
 30
0.0
  0
VERTEX
  5
14EB7
  8
ALPHA
 10
-69.289521
 20
170.950332
 30
0.0
  0
VERTEX
  5
14EB8
  8
ALPHA
 10
-68.688783
 20
168.635291
 30
0.0
  0
VERTEX
  5
14EB9
  8
ALPHA
 10
-67.845191
 20
166.42958
 30
0.0
  0
VERTEX
  5
14EBA
  8
ALPHA
 10
-66.774078
 20
164.34809
 30
0.0
  0
VERTEX
  5
14EBB
  8
ALPHA
 10
-64.010628
 20
160.617326
 30
0.0
  0
VERTEX
  5
14EBC
  8
ALPHA
 10
-60.521106
 20
157.562114
 30
0.0
  0
SEQEND
  5
14EBD
  8
ALPHA
  0
POLYLINE
  5
147E6
  8
ALPHA
 66
     1
 10
0.0
 20
0.0
 30
0.0
 70
   128
  0
VERTEX
  5
14EBE
  8
ALPHA
 10
60.521106
 20
157.562114
 30
0.0
  0
VERTEX
  5
14EBF
  8
ALPHA
 10
60.431265
 20
157.717487
 30
0.0
  0
VERTEX
  5
14EC0
  8
ALPHA
 10
60.177365
 20
158.156584
 30
0.0
  0
VERTEX
  5
14EC1
  8
ALPHA
 10
59.271138
 20
159.723824
 30
0.0
  0
VERTEX
  5
14EC2
  8
ALPHA
 10
57.98992
 20
161.939576
 30
0.0
  0
VERTEX
  5
14EC3
  8
ALPHA
 10
56.521208
 20
164.479585
 30
0.0
  0
VERTEX
  5
14EC4
  8
ALPHA
 10
55.052495
 20
167.019594
 30
0.0
  0
VERTEX
  5
14EC5
  8
ALPHA
 10
53.771278
 20
169.235347
 30
0.0
  0
VERTEX
  5
14EC6
  8
ALPHA
 10
52.865051
 20
170.802586
 30
0.0
  0
VERTEX
  5
14EC7
  8
ALPHA
 10
52.611151
 20
171.241684
 30
0.0
  0
VERTEX
  5
14EC8
  8
ALPHA
 10
52.521309
 20
171.397056
 30
0.0
  0
SEQEND
  5
14EC9
  8
ALPHA
  0
POLYLINE
  5
147E7
  8
ALPHA
 66
     1
 10
0.0
 20
0.0
 30
0.0
 70
   128
  0
VERTEX
  5
14ECA
  8
ALPHA
 10
39.033986
 20
155.673737
 30
0.0
  0
VERTEX
  5
14ECB
  8
ALPHA
 10
39.123555
 20
155.829246
 30
0.0
  0
VERTEX
  5
14ECC
  8
ALPHA
 10
39.376684
 20
156.268729
 30
0.0
  0
VERTEX
  5
14ECD
  8
ALPHA
 10
40.280159
 20
157.837344
 30
0.0
  0
VERTEX
  5
14ECE
  8
ALPHA
 10
41.557487
 20
160.055042
 30
0.0
  0
VERTEX
  5
14ECF
  8
ALPHA
 10
43.021741
 20
162.59728
 30
0.0
  0
VERTEX
  5
14ED0
  8
ALPHA
 10
44.485994
 20
165.139519
 30
0.0
  0
VERTEX
  5
14ED1
  8
ALPHA
 10
45.763322
 20
167.357216
 30
0.0
  0
VERTEX
  5
14ED2
  8
ALPHA
 10
46.666797
 20
168.925831
 30
0.0
  0
VERTEX
  5
14ED3
  8
ALPHA
 10
46.919926
 20
169.365314
 30
0.0
  0
VERTEX
  5
14ED4
  8
ALPHA
 10
47.009495
 20
169.520823
 30
0.0
  0
SEQEND
  5
14ED5
  8
ALPHA
  0
POLYLINE
  5
147E8
  8
ALPHA
 66
     1
 10
0.0
 20
0.0
 30
0.0
 70
   128
  0
VERTEX
  5
14ED6
  8
ALPHA
 10
49.266743
 20
169.519305
 30
0.0
  0
VERTEX
  5
14ED7
  8
ALPHA
 10
49.356346
 20
169.363779
 30
0.0
  0
VERTEX
  5
14ED8
  8
ALPHA
 10
49.609571
 20
168.924248
 30
0.0
  0
VERTEX
  5
14ED9
  8
ALPHA
 10
50.513391
 20
167.355461
 30
0.0
  0
VERTEX
  5
14EDA
  8
ALPHA
 10
51.791205
 20
165.13752
 30
0.0
  0
VERTEX
  5
14EDB
  8
ALPHA
 10
53.256016
 20
162.595003
 30
0.0
  0
VERTEX
  5
14EDC
  8
ALPHA
 10
54.720827
 20
160.052486
 30
0.0
  0
VERTEX
  5
14EDD
  8
ALPHA
 10
55.99864
 20
157.834545
 30
0.0
  0
VERTEX
  5
14EDE
  8
ALPHA
 10
56.90246
 20
156.265758
 30
0.0
  0
VERTEX
  5
14EDF
  8
ALPHA
 10
57.155685
 20
155.826227
 30
0.0
  0
VERTEX
  5
14EE0
  8
ALPHA
 10
57.245288
 20
155.670701
 30
0.0
  0
SEQEND
  5
14EE1
  8
ALPHA
  0
POLYLINE
  5
147E9
  8
ALPHA
 66
     1
 10
0.0
 20
0.0
 30
0.0
 70
   128
210
0.0
220
0.0
230
-1.0
  0
VERTEX
  5
14EE2
  8
ALPHA
 10
-35.768794
 20
157.55756
 30
0.0
  0
VERTEX
  5
14EE3
  8
ALPHA
 10
-32.282213
 20
160.609546
 30
0.0
  0
VERTEX
  5
14EE4
  8
ALPHA
 10
-29.519997
 20
164.338223
 30
0.0
  0
VERTEX
  5
14EE5
  8
ALPHA
 10
-28.448505
 20
166.418385
 30
0.0
  0
VERTEX
  5
14EE6
  8
ALPHA
 10
-27.603679
 20
168.622198
 30
0.0
  0
VERTEX
  5
14EE7
  8
ALPHA
 10
-27.000712
 20
170.934488
 30
0.0
  0
VERTEX
  5
14EE8
  8
ALPHA
 10
-26.654794
 20
173.340081
 30
0.0
  0
SEQEND
  5
14EE9
  8
ALPHA
  0
POLYLINE
  5
147EA
  8
ALPHA
 66
     1
 10
0.0
 20
0.0
 30
0.0
 70
   128
  0
VERTEX
  5
14EEA
  8
ALPHA
 10
43.751893
 20
171.4092
 30
0.0
  0
VERTEX
  5
14EEB
  8
ALPHA
 10
43.662239
 20
171.25364
 30
0.0
  0
VERTEX
  5
14EEC
  8
ALPHA
 10
43.408869
 20
170.814013
 30
0.0
  0
VERTEX
  5
14EED
  8
ALPHA
 10
42.504534
 20
169.244882
 30
0.0
  0
VERTEX
  5
14EEE
  8
ALPHA
 10
41.225991
 20
167.026455
 30
0.0
  0
VERTEX
  5
14EEF
  8
ALPHA
 10
39.760343
 20
164.48338
 30
0.0
  0
VERTEX
  5
14EF0
  8
ALPHA
 10
38.294696
 20
161.940306
 30
0.0
  0
VERTEX
  5
14EF1
  8
ALPHA
 10
37.016153
 20
159.721879
 30
0.0
  0
VERTEX
  5
14EF2
  8
ALPHA
 10
36.111818
 20
158.152748
 30
0.0
  0
VERTEX
  5
14EF3
  8
ALPHA
 10
35.858448
 20
157.71312
 30
0.0
  0
VERTEX
  5
14EF4
  8
ALPHA
 10
35.768794
 20
157.55756
 30
0.0
  0
SEQEND
  5
14EF5
  8
ALPHA
  0
POLYLINE
  5
147EB
  8
ALPHA
 66
     1
 10
0.0
 20
0.0
 30
0.0
 70
   128
  0
VERTEX
  5
14EF6
  8
ALPHA
 10
51.039753
 20
171.752266
 30
0.0
  0
VERTEX
  5
14EF7
  8
ALPHA
 10
51.134521
 20
171.588096
 30
0.0
  0
VERTEX
  5
14EF8
  8
ALPHA
 10
51.402345
 20
171.124139
 30
0.0
  0
VERTEX
  5
14EF9
  8
ALPHA
 10
52.358268
 20
169.468168
 30
0.0
  0
VERTEX
  5
14EFA
  8
ALPHA
 10
53.709746
 20
167.126968
 30
0.0
  0
VERTEX
  5
14EFB
  8
ALPHA
 10
55.259001
 20
164.443154
 30
0.0
  0
VERTEX
  5
14EFC
  8
ALPHA
 10
56.808256
 20
161.759339
 30
0.0
  0
VERTEX
  5
14EFD
  8
ALPHA
 10
58.159734
 20
159.418139
 30
0.0
  0
VERTEX
  5
14EFE
  8
ALPHA
 10
59.115657
 20
157.762168
 30
0.0
  0
VERTEX
  5
14EFF
  8
ALPHA
 10
59.38348
 20
157.298211
 30
0.0
  0
VERTEX
  5
14F00
  8
ALPHA
 10
59.478248
 20
157.134041
 30
0.0
  0
SEQEND
  5
14F01
  8
ALPHA
  0
POLYLINE
  5
147EC
  8
ALPHA
 66
     1
 10
0.0
 20
0.0
 30
0.0
 70
   128
  0
VERTEX
  5
14F02
  8
ALPHA
 10
61.025078
 20
156.730257
 30
0.0
  0
VERTEX
  5
14F03
  8
ALPHA
 10
62.947734
 20
158.234165
 30
0.0
  0
VERTEX
  5
14F04
  8
ALPHA
 10
64.696095
 20
159.934231
 30
0.0
  0
VERTEX
  5
14F05
  8
ALPHA
 10
66.253687
 20
161.814001
 30
0.0
  0
VERTEX
  5
14F06
  8
ALPHA
 10
67.604038
 20
163.85702
 30
0.0
  0
VERTEX
  5
14F07
  8
ALPHA
 10
68.730676
 20
166.046834
 30
0.0
  0
VERTEX
  5
14F08
  8
ALPHA
 10
69.617127
 20
168.366986
 30
0.0
  0
VERTEX
  5
14F09
  8
ALPHA
 10
70.24692
 20
170.801024
 30
0.0
  0
VERTEX
  5
14F0A
  8
ALPHA
 10
70.603582
 20
173.332491
 30
0.0
  0
SEQEND
  5
14F0B
  8
ALPHA
  0
POLYLINE
  5
147ED
  8
ALPHA
 66
     1
 10
0.0
 20
0.0
 30
0.0
 70
   128
  0
VERTEX
  5
14F0C
  8
ALPHA
 10
46.579904
 20
170.981128
 30
0.0
  0
VERTEX
  5
14F0D
  8
ALPHA
 10
46.485136
 20
170.816975
 30
0.0
  0
VERTEX
  5
14F0E
  8
ALPHA
 10
46.217313
 20
170.353066
 30
0.0
  0
VERTEX
  5
14F0F
  8
ALPHA
 10
45.26139
 20
168.697267
 30
0.0
  0
VERTEX
  5
14F10
  8
ALPHA
 10
43.909912
 20
166.356311
 30
0.0
  0
VERTEX
  5
14F11
  8
ALPHA
 10
42.360657
 20
163.672775
 30
0.0
  0
VERTEX
  5
14F12
  8
ALPHA
 10
40.811402
 20
160.989239
 30
0.0
  0
VERTEX
  5
14F13
  8
ALPHA
 10
39.459924
 20
158.648282
 30
0.0
  0
VERTEX
  5
14F14
  8
ALPHA
 10
38.504001
 20
156.992483
 30
0.0
  0
VERTEX
  5
14F15
  8
ALPHA
 10
38.236178
 20
156.528574
 30
0.0
  0
VERTEX
  5
14F16
  8
ALPHA
 10
38.141409
 20
156.364421
 30
0.0
  0
SEQEND
  5
14F17
  8
ALPHA
  0
POLYLINE
  5
147EE
  8
ALPHA
 66
     1
 10
0.0
 20
0.0
 30
0.0
 70
   128
  0
VERTEX
  5
14F18
  8
ALPHA
 10
58.145455
 20
156.364421
 30
0.0
  0
VERTEX
  5
14F19
  8
ALPHA
 10
58.050636
 20
156.528574
 30
0.0
  0
VERTEX
  5
14F1A
  8
ALPHA
 10
57.782668
 20
156.992483
 30
0.0
  0
VERTEX
  5
14F1B
  8
ALPHA
 10
56.826228
 20
158.648282
 30
0.0
  0
VERTEX
  5
14F1C
  8
ALPHA
 10
55.474021
 20
160.989239
 30
0.0
  0
VERTEX
  5
14F1D
  8
ALPHA
 10
53.92393
 20
163.672775
 30
0.0
  0
VERTEX
  5
14F1E
  8
ALPHA
 10
52.373839
 20
166.356311
 30
0.0
  0
VERTEX
  5
14F1F
  8
ALPHA
 10
51.021632
 20
168.697267
 30
0.0
  0
VERTEX
  5
14F20
  8
ALPHA
 10
50.065193
 20
170.353066
 30
0.0
  0
VERTEX
  5
14F21
  8
ALPHA
 10
49.797225
 20
170.816975
 30
0.0
  0
VERTEX
  5
14F22
  8
ALPHA
 10
49.702406
 20
170.981128
 30
0.0
  0
SEQEND
  5
14F23
  8
ALPHA
  0
POLYLINE
  5
147EF
  8
ALPHA
 66
     1
 10
0.0
 20
0.0
 30
0.0
 70
   128
  0
VERTEX
  5
14F24
  8
ALPHA
 10
25.681764
 20
173.332491
 30
0.0
  0
VERTEX
  5
14F25
  8
ALPHA
 10
26.037895
 20
170.796147
 30
0.0
  0
VERTEX
  5
14F26
  8
ALPHA
 10
26.667389
 20
168.358709
 30
0.0
  0
VERTEX
  5
14F27
  8
ALPHA
 10
27.554003
 20
166.0364
 30
0.0
  0
VERTEX
  5
14F28
  8
ALPHA
 10
28.681498
 20
163.845446
 30
0.0
  0
VERTEX
  5
14F29
  8
ALPHA
 10
30.033631
 20
161.802068
 30
0.0
  0
VERTEX
  5
14F2A
  8
ALPHA
 10
31.594161
 20
159.92249
 30
0.0
  0
VERTEX
  5
14F2B
  8
ALPHA
 10
33.346847
 20
158.222937
 30
0.0
  0
VERTEX
  5
14F2C
  8
ALPHA
 10
35.275448
 20
156.719631
 30
0.0
  0
SEQEND
  5
14F2D
  8
ALPHA
  0
POLYLINE
  5
147F0
  8
ALPHA
 66
     1
 10
0.0
 20
0.0
 30
0.0
 70
   128
  0
VERTEX
  5
14F2E
  8
ALPHA
 10
36.80558
 20
157.134041
 30
0.0
  0
VERTEX
  5
14F2F
  8
ALPHA
 10
36.900365
 20
157.298211
 30
0.0
  0
VERTEX
  5
14F30
  8
ALPHA
 10
37.168237
 20
157.762168
 30
0.0
  0
VERTEX
  5
14F31
  8
ALPHA
 10
38.124332
 20
159.418139
 30
0.0
  0
VERTEX
  5
14F32
  8
ALPHA
 10
39.476053
 20
161.759339
 30
0.0
  0
VERTEX
  5
14F33
  8
ALPHA
 10
41.025586
 20
164.443154
 30
0.0
  0
VERTEX
  5
14F34
  8
ALPHA
 10
42.57512
 20
167.126968
 30
0.0
  0
VERTEX
  5
14F35
  8
ALPHA
 10
43.926841
 20
169.468168
 30
0.0
  0
VERTEX
  5
14F36
  8
ALPHA
 10
44.882936
 20
171.124139
 30
0.0
  0
VERTEX
  5
14F37
  8
ALPHA
 10
45.150808
 20
171.588096
 30
0.0
  0
VERTEX
  5
14F38
  8
ALPHA
 10
45.245593
 20
171.752266
 30
0.0
  0
SEQEND
  5
14F39
  8
ALPHA
  0
POLYLINE
  5
147F1
  8
ALPHA
 66
     1
 10
0.0
 20
0.0
 30
0.0
 70
   128
  0
VERTEX
  5
14F3A
  8
ALPHA
 10
25.236993
 20
169.973184
 30
0.0
  0
VERTEX
  5
14F3B
  8
ALPHA
 10
26.28986
 20
166.58271
 30
0.0
  0
VERTEX
  5
14F3C
  8
ALPHA
 10
27.820609
 20
163.429897
 30
0.0
  0
VERTEX
  5
14F3D
  8
ALPHA
 10
29.785123
 20
160.560567
 30
0.0
  0
VERTEX
  5
14F3E
  8
ALPHA
 10
32.139285
 20
158.020546
 30
0.0
  0
SEQEND
  5
14F3F
  8
ALPHA
  0
POLYLINE
  5
147F2
  8
ALPHA
 66
     1
 10
0.0
 20
0.0
 30
0.0
 70
   128
  0
VERTEX
  5
14F40
  8
ALPHA
 10
64.135436
 20
158.011438
 30
0.0
  0
VERTEX
  5
14F41
  8
ALPHA
 10
66.498967
 20
160.55542
 30
0.0
  0
VERTEX
  5
14F42
  8
ALPHA
 10
68.467583
 20
163.42743
 30
0.0
  0
VERTEX
  5
14F43
  8
ALPHA
 10
69.998735
 20
166.584916
 30
0.0
  0
VERTEX
  5
14F44
  8
ALPHA
 10
71.049871
 20
169.985328
 30
0.0
  0
SEQEND
  5
14F45
  8
ALPHA
  0
CIRCLE
  5
147F3
  8
ALPHA
 10
48.141915
 20
175.228457
 30
0.0
 40
25.0
  0
CIRCLE
  5
147F4
  8
ALPHA
 10
48.142673
 20
175.228457
 30
0.0
 40
1.013256
  0
CIRCLE
  5
147F5
  8
ALPHA
 10
48.141915
 20
175.228457
 30
0.0
 40
4.5
  0
LINE
  5
14800
  8
ALPHA
 10
39.233556
 20
104.844389
 30
0.0
 11
39.641915
 21
104.439066
 31
0.0
  0
LINE
  5
14801
  8
ALPHA
 10
39.641915
 20
105.252749
 30
0.0
 11
39.233556
 21
104.844389
 31
0.0
  0
LINE
  5
14802
  8
ALPHA
 10
39.233556
 20
105.65959
 30
0.0
 11
39.641915
 21
105.252749
 31
0.0
  0
LINE
  5
14803
  8
ALPHA
 10
39.641915
 20
104.439066
 30
0.0
 11
39.233556
 21
104.032225
 31
0.0
  0
LINE
  5
14804
  8
ALPHA
 10
39.233556
 20
104.032225
 30
0.0
 11
39.641915
 21
103.625383
 31
0.0
  0
LINE
  5
14805
  8
ALPHA
 10
39.641915
 20
103.625383
 30
0.0
 11
39.233556
 21
103.22006
 31
0.0
  0
LINE
  5
14806
  8
ALPHA
 10
39.233556
 20
107.28392
 30
0.0
 11
39.641915
 21
106.878596
 31
0.0
  0
LINE
  5
14807
  8
ALPHA
 10
39.641915
 20
107.692279
 30
0.0
 11
39.233556
 21
107.28392
 31
0.0
  0
LINE
  5
14808
  8
ALPHA
 10
39.233556
 20
108.099121
 30
0.0
 11
39.641915
 21
107.692279
 31
0.0
  0
LINE
  5
14809
  8
ALPHA
 10
39.641915
 20
106.878596
 30
0.0
 11
39.233556
 21
106.471755
 31
0.0
  0
LINE
  5
1480A
  8
ALPHA
 10
39.233556
 20
106.471755
 30
0.0
 11
39.641915
 21
106.064914
 31
0.0
  0
LINE
  5
1480B
  8
ALPHA
 10
39.641915
 20
106.064914
 30
0.0
 11
39.233556
 21
105.65959
 31
0.0
  0
LINE
  5
1480C
  8
ALPHA
 10
39.233556
 20
109.72345
 30
0.0
 11
39.641915
 21
109.318127
 31
0.0
  0
LINE
  5
1480D
  8
ALPHA
 10
39.641915
 20
110.131809
 30
0.0
 11
39.233556
 21
109.72345
 31
0.0
  0
LINE
  5
1480E
  8
ALPHA
 10
39.233556
 20
110.538651
 30
0.0
 11
39.641915
 21
110.131809
 31
0.0
  0
LINE
  5
1480F
  8
ALPHA
 10
39.641915
 20
109.318127
 30
0.0
 11
39.233556
 21
108.911285
 31
0.0
  0
LINE
  5
14810
  8
ALPHA
 10
39.233556
 20
108.911285
 30
0.0
 11
39.641915
 21
108.504444
 31
0.0
  0
LINE
  5
14811
  8
ALPHA
 10
39.641915
 20
108.504444
 30
0.0
 11
39.233556
 21
108.099121
 31
0.0
  0
LINE
  5
14812
  8
ALPHA
 10
39.233556
 20
112.16298
 30
0.0
 11
39.641915
 21
111.757657
 31
0.0
  0
LINE
  5
14813
  8
ALPHA
 10
39.641915
 20
112.57134
 30
0.0
 11
39.233556
 21
112.16298
 31
0.0
  0
LINE
  5
14814
  8
ALPHA
 10
39.233556
 20
112.978181
 30
0.0
 11
39.641915
 21
112.57134
 31
0.0
  0
LINE
  5
14815
  8
ALPHA
 10
39.641915
 20
111.757657
 30
0.0
 11
39.233556
 21
111.350816
 31
0.0
  0
LINE
  5
14816
  8
ALPHA
 10
39.233556
 20
111.350816
 30
0.0
 11
39.641915
 21
110.943974
 31
0.0
  0
LINE
  5
14817
  8
ALPHA
 10
39.641915
 20
110.943974
 30
0.0
 11
39.233556
 21
110.538651
 31
0.0
  0
LINE
  5
14818
  8
ALPHA
 10
39.233556
 20
113.72006
 30
0.0
 11
39.641915
 21
113.386541
 31
0.0
  0
LINE
  5
14819
  8
ALPHA
 10
39.641915
 20
113.386541
 30
0.0
 11
39.233556
 21
112.978181
 31
0.0
  0
LINE
  5
1481A
  8
ALPHA
 10
57.050274
 20
113.72006
 30
0.0
 11
56.641915
 21
113.386541
 31
0.0
  0
LINE
  5
1481B
  8
ALPHA
 10
56.641915
 20
113.386541
 30
0.0
 11
57.050274
 21
112.978181
 31
0.0
  0
LINE
  5
1481C
  8
ALPHA
 10
56.641915
 20
110.943974
 30
0.0
 11
57.050274
 21
110.538651
 31
0.0
  0
LINE
  5
1481D
  8
ALPHA
 10
57.050274
 20
111.350816
 30
0.0
 11
56.641915
 21
110.943974
 31
0.0
  0
LINE
  5
1481E
  8
ALPHA
 10
56.641915
 20
111.757657
 30
0.0
 11
57.050274
 21
111.350816
 31
0.0
  0
LINE
  5
1481F
  8
ALPHA
 10
57.050274
 20
112.978181
 30
0.0
 11
56.641915
 21
112.57134
 31
0.0
  0
LINE
  5
14820
  8
ALPHA
 10
56.641915
 20
112.57134
 30
0.0
 11
57.050274
 21
112.16298
 31
0.0
  0
LINE
  5
14821
  8
ALPHA
 10
57.050274
 20
112.16298
 30
0.0
 11
56.641915
 21
111.757657
 31
0.0
  0
LINE
  5
14822
  8
ALPHA
 10
56.641915
 20
108.504444
 30
0.0
 11
57.050274
 21
108.099121
 31
0.0
  0
LINE
  5
14823
  8
ALPHA
 10
57.050274
 20
108.911285
 30
0.0
 11
56.641915
 21
108.504444
 31
0.0
  0
LINE
  5
14824
  8
ALPHA
 10
56.641915
 20
109.318127
 30
0.0
 11
57.050274
 21
108.911285
 31
0.0
  0
LINE
  5
14825
  8
ALPHA
 10
57.050274
 20
110.538651
 30
0.0
 11
56.641915
 21
110.131809
 31
0.0
  0
LINE
  5
14826
  8
ALPHA
 10
56.641915
 20
110.131809
 30
0.0
 11
57.050274
 21
109.72345
 31
0.0
  0
LINE
  5
14827
  8
ALPHA
 10
57.050274
 20
109.72345
 30
0.0
 11
56.641915
 21
109.318127
 31
0.0
  0
LINE
  5
14828
  8
ALPHA
 10
56.641915
 20
106.064914
 30
0.0
 11
57.050274
 21
105.65959
 31
0.0
  0
LINE
  5
14829
  8
ALPHA
 10
57.050274
 20
106.471755
 30
0.0
 11
56.641915
 21
106.064914
 31
0.0
  0
LINE
  5
1482A
  8
ALPHA
 10
56.641915
 20
106.878596
 30
0.0
 11
57.050274
 21
106.471755
 31
0.0
  0
LINE
  5
1482B
  8
ALPHA
 10
57.050274
 20
108.099121
 30
0.0
 11
56.641915
 21
107.692279
 31
0.0
  0
LINE
  5
1482C
  8
ALPHA
 10
56.641915
 20
107.692279
 30
0.0
 11
57.050274
 21
107.28392
 31
0.0
  0
LINE
  5
1482D
  8
ALPHA
 10
57.050274
 20
107.28392
 30
0.0
 11
56.641915
 21
106.878596
 31
0.0
  0
LINE
  5
1482E
  8
ALPHA
 10
56.641915
 20
103.625383
 30
0.0
 11
57.050274
 21
103.22006
 31
0.0
  0
LINE
  5
1482F
  8
ALPHA
 10
57.050274
 20
104.032225
 30
0.0
 11
56.641915
 21
103.625383
 31
0.0
  0
LINE
  5
14830
  8
ALPHA
 10
56.641915
 20
104.439066
 30
0.0
 11
57.050274
 21
104.032225
 31
0.0
  0
LINE
  5
14831
  8
ALPHA
 10
57.050274
 20
105.65959
 30
0.0
 11
56.641915
 21
105.252749
 31
0.0
  0
LINE
  5
14832
  8
ALPHA
 10
56.641915
 20
105.252749
 30
0.0
 11
57.050274
 21
104.844389
 31
0.0
  0
LINE
  5
14833
  8
ALPHA
 10
57.050274
 20
104.844389
 30
0.0
 11
56.641915
 21
104.439066
 31
0.0
  0
LINE
  5
14834
  8
ALPHA
 10
57.050274
 20
102.404859
 30
0.0
 11
56.641915
 21
101.999536
 31
0.0
  0
LINE
  5
14835
  8
ALPHA
 10
56.641915
 20
102.813219
 30
0.0
 11
57.050274
 21
102.404859
 31
0.0
  0
LINE
  5
14836
  8
ALPHA
 10
57.050274
 20
103.22006
 30
0.0
 11
56.641915
 21
102.813219
 31
0.0
  0
LINE
  5
14837
  8
ALPHA
 10
56.641915
 20
101.999536
 30
0.0
 11
57.050274
 21
101.592694
 31
0.0
  0
LINE
  5
14838
  8
ALPHA
 10
57.050274
 20
101.592694
 30
0.0
 11
56.641915
 21
101.185853
 31
0.0
  0
LINE
  5
14839
  8
ALPHA
 10
56.641915
 20
101.185853
 30
0.0
 11
57.050274
 21
100.78053
 31
0.0
  0
LINE
  5
1483A
  8
ALPHA
 10
57.050274
 20
99.966847
 30
0.0
 11
56.641915
 21
99.560005
 31
0.0
  0
LINE
  5
1483B
  8
ALPHA
 10
57.050274
 20
100.78053
 30
0.0
 11
56.641915
 21
100.37217
 31
0.0
  0
LINE
  5
1483C
  8
ALPHA
 10
56.641915
 20
100.37217
 30
0.0
 11
57.050274
 21
99.966847
 31
0.0
  0
DIMENSION
  5
14909
  8
COTATION1
  2
*D12
 10
31.908816
 20
156.215659
 30
0.0
 11
81.988995
 21
208.833949
 31
0.0
 70
   131
 15
64.375014
 25
194.241256
 35
0.0
 40
0.0
  0
VIEWPORT
  5
494D
 67
     1
  8
0
 10
4.995325
 20
6.556512
 30
0.0
 40
22.70986
 41
13.988421
 68
    -1
 69
     1
1001
ACAD
1000
MVIEW
1002
{
1070
    16
1010
0.0
1020
0.0
1030
0.0
1010
0.0
1020
0.0
1030
1.0
1040
0.0
1040
13.988421
1040
4.995325
1040
6.556512
1040
50.0
1040
0.0
1040
0.0
1070
     0
1070
   100
1070
     1
1070
     1
1070
     0
1070
     0
1070
     0
1070
     0
1040
0.0
1040
0.0
1040
0.0
1040
10.0
1040
10.0
1040
10.0
1040
10.0
1070
     0
1002
{
1002
}
1002
}
  0
ENDSEC
  0
EOF
