  0
SECTION
  2
HEADER
  9
$ACADVER
  1
AC1009
  9
$INSBASE
 10
402.590624
 20
-1.041018
 30
0.0
  9
$EXTMIN
 10
1.027332
 20
29.228457
 30
0.0
  9
$EXTMAX
 10
132.66204
 20
204.728457
 30
0.0
  9
$LIMMIN
 10
-407.970438
 20
-367.832444
  9
$LIMMAX
 10
429.804077
 20
234.370848
  9
$ORTHOMODE
 70
     1
  9
$REGENMODE
 70
     1
  9
$FILLMODE
 70
     1
  9
$QTEXTMODE
 70
     0
  9
$MIRRTEXT
 70
     1
  9
$DRAGMODE
 70
     2
  9
$LTSCALE
 40
10.0
  9
$OSMODE
 70
    37
  9
$ATTMODE
 70
     1
  9
$TEXTSIZE
 40
6.0
  9
$TRACEWID
 40
1.0
  9
$TEXTSTYLE
  7
ROMANS
  9
$CLAYER
  8
ALPHA
  9
$CELTYPE
  6
BYLAYER
  9
$CECOLOR
 62
   256
  9
$DIMSCALE
 40
1.0
  9
$DIMASZ
 40
5.0
  9
$DIMEXO
 40
2.0
  9
$DIMDLI
 40
0.38
  9
$DIMRND
 40
0.0
  9
$DIMDLE
 40
0.0
  9
$DIMEXE
 40
2.5
  9
$DIMTP
 40
0.0
  9
$DIMTM
 40
0.0
  9
$DIMTXT
 40
2.5
  9
$DIMCEN
 40
0.0
  9
$DIMTSZ
 40
0.0
  9
$DIMTOL
 70
     0
  9
$DIMLIM
 70
     0
  9
$DIMTIH
 70
     1
  9
$DIMTOH
 70
     1
  9
$DIMSE1
 70
     0
  9
$DIMSE2
 70
     0
  9
$DIMTAD
 70
     1
  9
$DIMZIN
 70
    12
  9
$DIMBLK
  1
OPEN30
  9
$DIMASO
 70
     1
  9
$DIMSHO
 70
     1
  9
$DIMPOST
  1

  9
$DIMAPOST
  1

  9
$DIMALT
 70
     0
  9
$DIMALTD
 70
     2
  9
$DIMALTF
 40
25.4
  9
$DIMLFAC
 40
1.0
  9
$DIMTOFL
 70
     0
  9
$DIMTVP
 40
0.0
  9
$DIMTIX
 70
     0
  9
$DIMSOXD
 70
     0
  9
$DIMSAH
 70
     0
  9
$DIMBLK1
  1

  9
$DIMBLK2
  1

  9
$DIMSTYLE
  2
SC_DEFAUT
  9
$DIMCLRD
 70
     0
  9
$DIMCLRE
 70
     0
  9
$DIMCLRT
 70
     0
  9
$DIMTFAC
 40
1.0
  9
$DIMGAP
 40
2.0
  9
$LUNITS
 70
     2
  9
$LUPREC
 70
     1
  9
$SKETCHINC
 40
0.1
  9
$FILLETRAD
 40
0.0
  9
$AUNITS
 70
     0
  9
$AUPREC
 70
     0
  9
$MENU
  1
acad
  9
$ELEVATION
 40
0.0
  9
$PELEVATION
 40
0.0
  9
$THICKNESS
 40
0.0
  9
$LIMCHECK
 70
     0
  9
$BLIPMODE
 70
     0
  9
$CHAMFERA
 40
0.0
  9
$CHAMFERB
 40
0.0
  9
$SKPOLY
 70
     0
  9
$TDCREATE
 40
2450373.687919
  9
$TDUPDATE
 40
2452849.634594
  9
$TDINDWG
 40
1.645195
  9
$TDUSRTIMER
 40
1.645195
  9
$USRTIMER
 70
     1
  9
$ANGBASE
 50
0.0
  9
$ANGDIR
 70
     0
  9
$PDMODE
 70
    32
  9
$PDSIZE
 40
0.0
  9
$PLINEWID
 40
0.0
  9
$COORDS
 70
     1
  9
$SPLFRAME
 70
     0
  9
$SPLINETYPE
 70
     6
  9
$SPLINESEGS
 70
     8
  9
$ATTDIA
 70
     0
  9
$ATTREQ
 70
     1
  9
$HANDLING
 70
     1
  9
$HANDSEED
  5
127F8
  9
$SURFTAB1
 70
     6
  9
$SURFTAB2
 70
     6
  9
$SURFTYPE
 70
     6
  9
$SURFU
 70
     6
  9
$SURFV
 70
     6
  9
$UCSNAME
  2

  9
$UCSORG
 10
0.0
 20
0.0
 30
0.0
  9
$UCSXDIR
 10
1.0
 20
0.0
 30
0.0
  9
$UCSYDIR
 10
0.0
 20
1.0
 30
0.0
  9
$PUCSNAME
  2

  9
$PUCSORG
 10
0.0
 20
0.0
 30
0.0
  9
$PUCSXDIR
 10
1.0
 20
0.0
 30
0.0
  9
$PUCSYDIR
 10
0.0
 20
1.0
 30
0.0
  9
$USERI1
 70
     0
  9
$USERI2
 70
     0
  9
$USERI3
 70
     0
  9
$USERI4
 70
     0
  9
$USERI5
 70
     0
  9
$USERR1
 40
0.0
  9
$USERR2
 40
0.0
  9
$USERR3
 40
0.0
  9
$USERR4
 40
0.0
  9
$USERR5
 40
0.0
  9
$WORLDVIEW
 70
     1
  9
$SHADEDGE
 70
     3
  9
$SHADEDIF
 70
    70
  9
$TILEMODE
 70
     1
  9
$MAXACTVP
 70
    16
  9
$PLIMCHECK
 70
     0
  9
$PEXTMIN
 10
-1.452248
 20
-0.437698
 30
0.0
  9
$PEXTMAX
 10
12.749749
 20
8.310198
 30
0.0
  9
$PLIMMIN
 10
0.0
 20
0.0
  9
$PLIMMAX
 10
12.0
 20
9.0
  9
$UNITMODE
 70
     0
  9
$VISRETAIN
 70
     0
  9
$PLINEGEN
 70
     0
  9
$PSLTSCALE
 70
     0
  0
ENDSEC
  0
SECTION
  2
TABLES
  0
TABLE
  2
VPORT
 70
     2
  0
VPORT
  2
*ACTIVE
 70
     0
 10
0.0
 20
0.0
 11
1.0
 21
1.0
 12
66.844304
 22
116.978147
 13
0.0
 23
0.0
 14
1.0
 24
1.0
 15
10.0
 25
10.0
 16
0.0
 26
0.0
 36
1.0
 17
0.0
 27
0.0
 37
0.0
 40
177.056401
 41
1.56
 42
50.0
 43
0.0
 44
0.0
 50
0.0
 51
0.0
 71
     0
 72
   100
 73
     1
 74
     0
 75
     0
 76
     0
 77
     0
 78
     0
  0
ENDTAB
  0
TABLE
  2
LTYPE
 70
     2
  0
LTYPE
  2
CONTINUOUS
 70
     0
  3
Solid line
 72
    65
 73
     0
 40
0.0
  0
LTYPE
  2
AXES2
 70
     0
  3
___ _ ___ _ ___ _ ___ _ ___ _ ___ _ ___ _ ___ _
 72
    65
 73
     4
 40
1.125
 49
0.75
 49
-0.125
 49
0.125
 49
-0.125
  0
ENDTAB
  0
TABLE
  2
LAYER
 70
     5
  0
LAYER
  2
0
 70
     0
 62
   255
  6
CONTINUOUS
  0
LAYER
  2
COTATION1
 70
     0
 62
     2
  6
CONTINUOUS
  0
LAYER
  2
AXE
 70
     0
 62
    80
  6
AXES2
  0
LAYER
  2
DEFPOINTS
 70
     0
 62
     7
  6
CONTINUOUS
  0
LAYER
  2
ALPHA
 70
     0
 62
   254
  6
CONTINUOUS
  0
ENDTAB
  0
TABLE
  2
STYLE
 70
     2
  0
STYLE
  2
ROMANS
 70
     0
 40
0.0
 41
1.0
 50
0.0
 71
     0
 42
6.0
  3
romans
  4

  0
STYLE
  2
STANDARD
 70
     0
 40
0.2
 41
1.0
 50
0.0
 71
     0
 42
0.2
  3
txt
  4

  0
ENDTAB
  0
TABLE
  2
VIEW
 70
     0
  0
ENDTAB
  0
TABLE
  2
UCS
 70
     0
  0
ENDTAB
  0
TABLE
  2
APPID
 70
     1
  0
APPID
  2
ACAD
 70
     0
  0
ENDTAB
  0
TABLE
  2
DIMSTYLE
 70
     1
  0
DIMSTYLE
  2
SC_DEFAUT
 70
     0
  3

  4

  5
OPEN30
  6

  7

 40
1.0
 41
5.0
 42
2.0
 43
0.38
 44
2.5
 45
0.0
 46
0.0
 47
0.0
 48
0.0
140
2.5
141
0.0
142
0.0
143
25.4
144
1.0
145
0.0
146
1.0
147
2.0
 71
     0
 72
     0
 73
     1
 74
     1
 75
     0
 76
     0
 77
     1
 78
    12
170
     0
171
     2
172
     0
173
     0
174
     0
175
     0
176
     0
177
     0
178
     0
  0
ENDTAB
  0
ENDSEC
  0
SECTION
  2
BLOCKS
  0
BLOCK
  8
0
  2
$MODEL_SPACE
 70
     0
 10
0.0
 20
0.0
 30
0.0
  3
$MODEL_SPACE
  1

  0
ENDBLK
  5
127F1
  8
0
  0
BLOCK
 67
     1
  8
0
  2
$PAPER_SPACE
 70
     0
 10
0.0
 20
0.0
 30
0.0
  3
$PAPER_SPACE
  1

  0
ENDBLK
  5
127EF
 67
     1
  8
0
  0
BLOCK
  8
0
  2
COTE
 70
     0
 10
0.0
 20
0.0
 30
0.0
  3
COTE
  1

  0
ENDBLK
  5
F
  8
0
  0
BLOCK
  8
0
  2
FOND
 70
     0
 10
0.0
 20
0.0
 30
0.0
  3
FOND
  1

  0
ENDBLK
  5
75
  8
0
  0
BLOCK
  8
0
  2
_OPEN30
 70
     0
 10
0.0
 20
0.0
 30
0.0
  3
_OPEN30
  1

  0
LINE
  5
4B05
  8
COTATION1
 62
     0
 10
-1.0
 20
0.267949
 30
0.0
 11
0.0
 21
0.0
 31
0.0
1001
ACAD
1000
RTLwPs
1070
   158
  0
LINE
  5
4B06
  8
COTATION1
 62
     0
 10
0.0
 20
0.0
 30
0.0
 11
-1.0
 21
-0.267949
 31
0.0
1001
ACAD
1000
RTLwPs
1070
   158
  0
LINE
  5
4B07
  8
COTATION1
 62
     0
 10
0.0
 20
0.0
 30
0.0
 11
-1.0
 21
0.0
 31
0.0
1001
ACAD
1000
RTLwPs
1070
   158
  0
ENDBLK
  5
4B09
  8
0
  0
BLOCK
  8
0
  2
*D3
 70
     1
 10
0.0
 20
0.0
 30
0.0
  3
*D3
  1

  0
LINE
  5
F48B
  8
COTATION1
 62
     0
 10
45.281088
 20
65.728457
 30
0.0
 11
45.281088
 21
29.228457
 31
0.0
1001
ACAD
1000
RTLwPs
1070
   158
  0
LINE
  5
F48C
  8
COTATION1
 62
     0
 10
75.281088
 20
70.728457
 30
0.0
 11
75.281088
 21
29.228457
 31
0.0
1001
ACAD
1000
RTLwPs
1070
   158
  0
LINE
  5
F48D
  8
COTATION1
 62
     0
 10
50.281088
 20
31.728457
 30
0.0
 11
70.281088
 21
31.728457
 31
0.0
1001
ACAD
1000
RTLwPs
1070
   158
  0
INSERT
  5
F48E
  8
COTATION1
 62
     0
  2
_OPEN30
 10
45.281088
 20
31.728457
 30
0.0
 41
5.0
 42
5.0
 43
5.0
 50
180.0
1001
ACAD
1000
RTLwPs
1070
   158
  0
INSERT
  5
F48F
  8
COTATION1
 62
     0
  2
_OPEN30
 10
75.281088
 20
31.728457
 30
0.0
 41
5.0
 42
5.0
 43
5.0
1001
ACAD
1000
RTLwPs
1070
   158
  0
TEXT
  5
F490
  8
COTATION1
 62
     0
 10
57.900136
 20
33.728457
 30
0.0
 40
2.5
  1
30
1001
ACAD
1000
MTEXTBEGIN
1070
    73
1070
     1
1070
    44
1040
1.0
1070
    74
1070
     0
1000
MTEXTEND
1000
MTEXTBEGIN
1070
    73
1070
     1
1070
    44
1040
1.0
1070
    74
1070
     0
1000
MTEXTEND
1000
MTEXTBEGIN
1070
    73
1070
     1
1070
    44
1040
1.0
1070
    74
1070
     0
1000
MTEXTEND
1000
MTEXTBEGIN
1070
    73
1070
     1
1070
    44
1040
1.0
1070
    74
1070
     0
1000
MTEXTEND
1000
MTEXTBEGIN
1070
    73
1070
     1
1070
    44
1040
1.0
1070
    74
1070
     0
1000
MTEXTEND
1000
MTEXTBEGIN
1070
    73
1070
     1
1070
    44
1040
1.0
1070
    74
1070
     0
1000
MTEXTEND
1000
MTEXTBEGIN
1070
    73
1070
     1
1070
    44
1040
1.0
1070
    74
1070
     0
1000
MTEXTEND
1000
MTEXTBEGIN
1070
    73
1070
     1
1070
    44
1040
1.0
1070
    74
1070
     0
1000
MTEXTEND
1000
MTEXTBEGIN
1070
    73
1070
     1
1070
    44
1040
1.0
1070
    74
1070
     0
1000
MTEXTEND
1000
MTEXTBEGIN
1070
    73
1070
     1
1070
    44
1040
1.0
1070
    74
1070
     0
1000
MTEXTEND
1000
MTEXTBEGIN
1070
    73
1070
     1
1070
    44
1040
1.0
1070
    74
1070
     0
1000
MTEXTEND
1000
MTEXTBEGIN
1070
    73
1070
     1
1070
    44
1040
1.0
1070
    74
1070
     0
1000
MTEXTEND
  0
POINT
  5
F491
  8
DEFPOINTS
 62
     0
 10
45.281088
 20
67.728457
 30
0.0
  0
POINT
  5
F492
  8
DEFPOINTS
 62
     0
 10
75.281088
 20
72.728457
 30
0.0
  0
POINT
  5
F493
  8
DEFPOINTS
 62
     0
 10
75.281088
 20
31.728457
 30
0.0
  0
ENDBLK
  5
F451
  8
0
  0
BLOCK
  8
0
  2
*D4
 70
     1
 10
0.0
 20
0.0
 30
0.0
  3
*D4
  1

  0
LINE
  5
F83A
  8
COTATION1
 62
     0
 10
50.160757
 20
99.228457
 30
0.0
 11
50.160757
 21
39.228457
 31
0.0
1001
ACAD
1000
RTLwPs
1070
   158
  0
LINE
  5
F83B
  8
COTATION1
 62
     0
 10
70.160757
 20
99.228457
 30
0.0
 11
70.160757
 21
39.228457
 31
0.0
1001
ACAD
1000
RTLwPs
1070
   158
  0
LINE
  5
F83C
  8
COTATION1
 62
     0
 10
55.160757
 20
41.728457
 30
0.0
 11
65.160757
 21
41.728457
 31
0.0
1001
ACAD
1000
RTLwPs
1070
   158
  0
INSERT
  5
F83D
  8
COTATION1
 62
     0
  2
_OPEN30
 10
50.160757
 20
41.728457
 30
0.0
 41
5.0
 42
5.0
 43
5.0
 50
180.0
1001
ACAD
1000
RTLwPs
1070
   158
  0
INSERT
  5
F83E
  8
COTATION1
 62
     0
  2
_OPEN30
 10
70.160757
 20
41.728457
 30
0.0
 41
5.0
 42
5.0
 43
5.0
1001
ACAD
1000
RTLwPs
1070
   158
  0
TEXT
  5
F83F
  8
COTATION1
 62
     0
 10
57.779805
 20
43.728457
 30
0.0
 40
2.5
  1
20
1001
ACAD
1000
MTEXTBEGIN
1070
    73
1070
     1
1070
    44
1040
1.0
1070
    74
1070
     0
1000
MTEXTEND
1000
MTEXTBEGIN
1070
    73
1070
     1
1070
    44
1040
1.0
1070
    74
1070
     0
1000
MTEXTEND
1000
MTEXTBEGIN
1070
    73
1070
     1
1070
    44
1040
1.0
1070
    74
1070
     0
1000
MTEXTEND
1000
MTEXTBEGIN
1070
    73
1070
     1
1070
    44
1040
1.0
1070
    74
1070
     0
1000
MTEXTEND
1000
MTEXTBEGIN
1070
    73
1070
     1
1070
    44
1040
1.0
1070
    74
1070
     0
1000
MTEXTEND
1000
MTEXTBEGIN
1070
    73
1070
     1
1070
    44
1040
1.0
1070
    74
1070
     0
1000
MTEXTEND
1000
MTEXTBEGIN
1070
    73
1070
     1
1070
    44
1040
1.0
1070
    74
1070
     0
1000
MTEXTEND
1000
MTEXTBEGIN
1070
    73
1070
     1
1070
    44
1040
1.0
1070
    74
1070
     0
1000
MTEXTEND
1000
MTEXTBEGIN
1070
    73
1070
     1
1070
    44
1040
1.0
1070
    74
1070
     0
1000
MTEXTEND
1000
MTEXTBEGIN
1070
    73
1070
     1
1070
    44
1040
1.0
1070
    74
1070
     0
1000
MTEXTEND
  0
POINT
  5
F840
  8
DEFPOINTS
 62
     0
 10
50.160757
 20
101.228457
 30
0.0
  0
POINT
  5
F841
  8
DEFPOINTS
 62
     0
 10
70.160757
 20
101.228457
 30
0.0
  0
POINT
  5
F842
  8
DEFPOINTS
 62
     0
 10
70.160757
 20
41.728457
 30
0.0
  0
ENDBLK
  5
F45D
  8
0
  0
BLOCK
  8
0
  2
*D5
 70
     1
 10
0.0
 20
0.0
 30
0.0
  3
*D5
  1

  0
LINE
  5
11C63
  8
COTATION1
 62
     0
 10
62.160757
 20
117.728457
 30
0.0
 11
117.781088
 21
117.728457
 31
0.0
1001
ACAD
1000
RTLwPs
1070
   158
  0
LINE
  5
11C64
  8
COTATION1
 62
     0
 10
72.281088
 20
67.728457
 30
0.0
 11
117.781088
 21
67.728457
 31
0.0
1001
ACAD
1000
RTLwPs
1070
   158
  0
LINE
  5
11C65
  8
COTATION1
 62
     0
 10
115.281088
 20
112.728457
 30
0.0
 11
115.281088
 21
95.978457
 31
0.0
1001
ACAD
1000
RTLwPs
1070
   158
  0
LINE
  5
11C66
  8
COTATION1
 62
     0
 10
115.281088
 20
72.728457
 30
0.0
 11
115.281088
 21
89.478457
 31
0.0
1001
ACAD
1000
RTLwPs
1070
   158
  0
INSERT
  5
11C67
  8
COTATION1
 62
     0
  2
_OPEN30
 10
115.281088
 20
117.728457
 30
0.0
 41
5.0
 42
5.0
 43
5.0
 50
90.0
1001
ACAD
1000
RTLwPs
1070
   158
  0
INSERT
  5
11C68
  8
COTATION1
 62
     0
  2
_OPEN30
 10
115.281088
 20
67.728457
 30
0.0
 41
5.0
 42
5.0
 43
5.0
 50
270.0
1001
ACAD
1000
RTLwPs
1070
   158
  0
TEXT
  5
11C69
  8
COTATION1
 62
     0
 10
112.900136
 20
91.478457
 30
0.0
 40
2.5
  1
50
1001
ACAD
1000
MTEXTBEGIN
1070
    73
1070
     1
1070
    44
1040
1.0
1070
    74
1070
     0
1000
MTEXTEND
1000
MTEXTBEGIN
1070
    73
1070
     1
1070
    44
1040
1.0
1070
    74
1070
     0
1000
MTEXTEND
1000
MTEXTBEGIN
1070
    73
1070
     1
1070
    44
1040
1.0
1070
    74
1070
     0
1000
MTEXTEND
1000
MTEXTBEGIN
1070
    73
1070
     1
1070
    44
1040
1.0
1070
    74
1070
     0
1000
MTEXTEND
  0
POINT
  5
11C6A
  8
DEFPOINTS
 62
     0
 10
60.160757
 20
117.728457
 30
0.0
  0
POINT
  5
11C6B
  8
DEFPOINTS
 62
     0
 10
70.281088
 20
67.728457
 30
0.0
  0
POINT
  5
11C6C
  8
DEFPOINTS
 62
     0
 10
115.281088
 20
67.728457
 30
0.0
  0
ENDBLK
  5
F4A4
  8
0
  0
BLOCK
  8
0
  2
*D6
 70
     1
 10
0.0
 20
0.0
 30
0.0
  3
*D6
  1

  0
LINE
  5
FB47
  8
COTATION1
 62
     0
 10
78.660757
 20
107.728457
 30
0.0
 11
107.781088
 21
107.728457
 31
0.0
1001
ACAD
1000
RTLwPs
1070
   158
  0
LINE
  5
FB48
  8
COTATION1
 62
     0
 10
72.281088
 20
67.728457
 30
0.0
 11
107.781088
 21
67.728457
 31
0.0
1001
ACAD
1000
RTLwPs
1070
   158
  0
LINE
  5
FB49
  8
COTATION1
 62
     0
 10
105.281088
 20
102.728457
 30
0.0
 11
105.281088
 21
90.978457
 31
0.0
1001
ACAD
1000
RTLwPs
1070
   158
  0
LINE
  5
FB4A
  8
COTATION1
 62
     0
 10
105.281088
 20
72.728457
 30
0.0
 11
105.281088
 21
84.478457
 31
0.0
1001
ACAD
1000
RTLwPs
1070
   158
  0
INSERT
  5
FB4B
  8
COTATION1
 62
     0
  2
_OPEN30
 10
105.281088
 20
107.728457
 30
0.0
 41
5.0
 42
5.0
 43
5.0
 50
90.0
1001
ACAD
1000
RTLwPs
1070
   158
  0
INSERT
  5
FB4C
  8
COTATION1
 62
     0
  2
_OPEN30
 10
105.281088
 20
67.728457
 30
0.0
 41
5.0
 42
5.0
 43
5.0
 50
270.0
1001
ACAD
1000
RTLwPs
1070
   158
  0
TEXT
  5
FB4D
  8
COTATION1
 62
     0
 10
102.900136
 20
86.478457
 30
0.0
 40
2.5
  1
40
1001
ACAD
1000
MTEXTBEGIN
1070
    73
1070
     1
1070
    44
1040
1.0
1070
    74
1070
     0
1000
MTEXTEND
1000
MTEXTBEGIN
1070
    73
1070
     1
1070
    44
1040
1.0
1070
    74
1070
     0
1000
MTEXTEND
1000
MTEXTBEGIN
1070
    73
1070
     1
1070
    44
1040
1.0
1070
    74
1070
     0
1000
MTEXTEND
1000
MTEXTBEGIN
1070
    73
1070
     1
1070
    44
1040
1.0
1070
    74
1070
     0
1000
MTEXTEND
1000
MTEXTBEGIN
1070
    73
1070
     1
1070
    44
1040
1.0
1070
    74
1070
     0
1000
MTEXTEND
1000
MTEXTBEGIN
1070
    73
1070
     1
1070
    44
1040
1.0
1070
    74
1070
     0
1000
MTEXTEND
1000
MTEXTBEGIN
1070
    73
1070
     1
1070
    44
1040
1.0
1070
    74
1070
     0
1000
MTEXTEND
1000
MTEXTBEGIN
1070
    73
1070
     1
1070
    44
1040
1.0
1070
    74
1070
     0
1000
MTEXTEND
1000
MTEXTBEGIN
1070
    73
1070
     1
1070
    44
1040
1.0
1070
    74
1070
     0
1000
MTEXTEND
1000
MTEXTBEGIN
1070
    73
1070
     1
1070
    44
1040
1.0
1070
    74
1070
     0
1000
MTEXTEND
  0
POINT
  5
FB4E
  8
DEFPOINTS
 62
     0
 10
76.660757
 20
107.728457
 30
0.0
  0
POINT
  5
FB4F
  8
DEFPOINTS
 62
     0
 10
70.281088
 20
67.728457
 30
0.0
  0
POINT
  5
FB50
  8
DEFPOINTS
 62
     0
 10
105.281088
 20
67.728457
 30
0.0
  0
ENDBLK
  5
F4B1
  8
0
  0
BLOCK
  8
0
  2
*D7
 70
     1
 10
0.0
 20
0.0
 30
0.0
  3
*D7
  1

  0
LINE
  5
F86D
  8
COTATION1
 62
     0
 10
31.872356
 20
117.488227
 30
0.0
 11
41.372356
 21
117.488227
 31
0.0
1001
ACAD
1000
RTLwPs
1070
   158
  0
LINE
  5
F86E
  8
COTATION1
 62
     0
 10
41.372356
 20
117.488227
 30
0.0
 11
45.409731
 21
113.004607
 31
0.0
1001
ACAD
1000
RTLwPs
1070
   158
  0
TEXT
  5
F86F
  8
COTATION1
 62
     0
 10
31.634261
 20
119.488227
 30
0.0
 40
2.5
  1
%%c4.2
1001
ACAD
1000
MTEXTBEGIN
1070
    73
1070
     1
1070
    44
1040
1.0
1070
    74
1070
     0
1000
MTEXTEND
1000
MTEXTBEGIN
1070
    73
1070
     1
1070
    44
1040
1.0
1070
    74
1070
     0
1000
MTEXTEND
1000
MTEXTBEGIN
1070
    73
1070
     1
1070
    44
1040
1.0
1070
    74
1070
     0
1000
MTEXTEND
1000
MTEXTBEGIN
1070
    73
1070
     1
1070
    44
1040
1.0
1070
    74
1070
     0
1000
MTEXTEND
1000
MTEXTBEGIN
1070
    73
1070
     1
1070
    44
1040
1.0
1070
    74
1070
     0
1000
MTEXTEND
1000
MTEXTBEGIN
1070
    73
1070
     1
1070
    44
1040
1.0
1070
    74
1070
     0
1000
MTEXTEND
1000
MTEXTBEGIN
1070
    73
1070
     1
1070
    44
1040
1.0
1070
    74
1070
     0
1000
MTEXTEND
1000
MTEXTBEGIN
1070
    73
1070
     1
1070
    44
1040
1.0
1070
    74
1070
     0
1000
MTEXTEND
1000
MTEXTBEGIN
1070
    73
1070
     1
1070
    44
1040
1.0
1070
    74
1070
     0
1000
MTEXTEND
1000
MTEXTBEGIN
1070
    73
1070
     1
1070
    44
1040
1.0
1070
    74
1070
     0
1000
MTEXTEND
  0
INSERT
  5
F870
  8
COTATION1
 62
     0
  2
_OPEN30
 10
48.755524
 20
109.289008
 30
0.0
 41
5.0
 42
5.0
 43
5.0
 50
312.002156
1001
ACAD
1000
RTLwPs
1070
   158
  0
POINT
  5
F871
  8
DEFPOINTS
 62
     0
 10
48.755524
 20
109.289008
 30
0.0
  0
POINT
  5
F872
  8
DEFPOINTS
 62
     0
 10
51.56599
 20
106.167906
 30
0.0
  0
ENDBLK
  5
F856
  8
0
  0
BLOCK
  8
0
  2
*D8
 70
     1
 10
0.0
 20
0.0
 30
0.0
  3
*D8
  1

  0
LINE
  5
12776
  8
COTATION1
 62
     0
 10
19.873991
 20
94.377793
 30
0.0
 11
28.064467
 21
94.377793
 31
0.0
1001
ACAD
1000
RTLwPs
1070
   158
  0
LINE
  5
12777
  8
COTATION1
 62
     0
 10
28.064467
 20
94.377793
 30
0.0
 11
42.457644
 21
103.074206
 31
0.0
1001
ACAD
1000
RTLwPs
1070
   158
  0
TEXT
  5
12778
  8
COTATION1
 62
     0
 10
19.635895
 20
96.377793
 30
0.0
 40
2.5
  1
%%c8
1001
ACAD
1000
MTEXTBEGIN
1070
    73
1070
     1
1070
    44
1040
1.0
1070
    74
1070
     0
1000
MTEXTEND
  0
INSERT
  5
12779
  8
COTATION1
 62
     0
  2
_OPEN30
 10
46.737151
 20
105.659901
 30
0.0
 41
5.0
 42
5.0
 43
5.0
 50
31.140535
1001
ACAD
1000
RTLwPs
1070
   158
  0
POINT
  5
1277A
  8
DEFPOINTS
 62
     0
 10
46.737151
 20
105.659901
 30
0.0
  0
POINT
  5
1277B
  8
DEFPOINTS
 62
     0
 10
53.584363
 20
109.797013
 30
0.0
  0
ENDBLK
  5
F860
  8
0
  0
BLOCK
  8
0
  2
*D9
 70
     1
 10
0.0
 20
0.0
 30
0.0
  3
*D9
  1

  0
LINE
  5
FB87
  8
COTATION1
 62
     0
 10
88.271863
 20
78.978457
 30
0.0
 11
97.781088
 21
78.978457
 31
0.0
1001
ACAD
1000
RTLwPs
1070
   158
  0
LINE
  5
FB88
  8
COTATION1
 62
     0
 10
83.941736
 20
71.478457
 30
0.0
 11
97.781088
 21
71.478457
 31
0.0
1001
ACAD
1000
RTLwPs
1070
   158
  0
LINE
  5
FB89
  8
COTATION1
 62
     0
 10
95.281088
 20
83.978457
 30
0.0
 11
95.281088
 21
88.978457
 31
0.0
1001
ACAD
1000
RTLwPs
1070
   158
  0
LINE
  5
FB8A
  8
COTATION1
 62
     0
 10
95.281088
 20
66.478457
 30
0.0
 11
95.281088
 21
61.478457
 31
0.0
1001
ACAD
1000
RTLwPs
1070
   158
  0
INSERT
  5
FB8B
  8
COTATION1
 62
     0
  2
_OPEN30
 10
95.281088
 20
78.978457
 30
0.0
 41
5.0
 42
5.0
 43
5.0
 50
270.0
1001
ACAD
1000
RTLwPs
1070
   158
  0
INSERT
  5
FB8C
  8
COTATION1
 62
     0
  2
_OPEN30
 10
95.281088
 20
71.478457
 30
0.0
 41
5.0
 42
5.0
 43
5.0
 50
90.0
1001
ACAD
1000
RTLwPs
1070
   158
  0
TEXT
  5
FB8D
  8
COTATION1
 62
     0
 10
91.292993
 20
73.978457
 30
0.0
 40
2.5
  1
%%c
1001
ACAD
1000
MTEXTBEGIN
1070
    73
1070
     1
1070
    44
1040
1.0
1070
    74
1070
     0
1000
MTEXTEND
1000
MTEXTBEGIN
1070
    73
1070
     1
1070
    44
1040
1.0
1070
    74
1070
     0
1000
MTEXTEND
1000
MTEXTBEGIN
1070
    73
1070
     1
1070
    44
1040
1.0
1070
    74
1070
     0
1000
MTEXTEND
1000
MTEXTBEGIN
1070
    73
1070
     1
1070
    44
1040
1.0
1070
    74
1070
     0
1000
MTEXTEND
1000
MTEXTBEGIN
1070
    73
1070
     1
1070
    44
1040
1.0
1070
    74
1070
     0
1000
MTEXTEND
1000
MTEXTBEGIN
1070
    73
1070
     1
1070
    44
1040
1.0
1070
    74
1070
     0
1000
MTEXTEND
1000
MTEXTBEGIN
1070
    73
1070
     1
1070
    44
1040
1.0
1070
    74
1070
     0
1000
MTEXTEND
1000
MTEXTBEGIN
1070
    73
1070
     1
1070
    44
1040
1.0
1070
    74
1070
     0
1000
MTEXTEND
1000
MTEXTBEGIN
1070
    73
1070
     1
1070
    44
1040
1.0
1070
    74
1070
     0
1000
MTEXTEND
1000
MTEXTBEGIN
1070
    73
1070
     1
1070
    44
1040
1.0
1070
    74
1070
     0
1000
MTEXTEND
  0
TEXT
  5
127B9
  8
COTATION1
 62
     0
 10
93.554898
 20
73.978457
 30
0.0
 40
2.5
  1
7.5
1001
ACAD
1000
R13OBJECT
1002
{
1005
FB8D
1002
}
  0
POINT
  5
FB8E
  8
DEFPOINTS
 62
     0
 10
86.271863
 20
78.978457
 30
0.0
  0
POINT
  5
FB8F
  8
DEFPOINTS
 62
     0
 10
81.941736
 20
71.478457
 30
0.0
  0
POINT
  5
FB90
  8
DEFPOINTS
 62
     0
 10
95.281088
 20
71.478457
 30
0.0
  0
ENDBLK
  5
FB68
  8
0
  0
BLOCK
  8
0
  2
*D10
 70
     1
 10
0.0
 20
0.0
 30
0.0
  3
*D10
  1

  0
LINE
  5
123F3
  8
COTATION1
 62
     0
 10
62.160757
 20
185.228457
 30
0.0
 11
127.781088
 21
185.228457
 31
0.0
1001
ACAD
1000
RTLwPs
1070
   158
  0
LINE
  5
123F4
  8
COTATION1
 62
     0
 10
72.281088
 20
67.728457
 30
0.0
 11
127.781088
 21
67.728457
 31
0.0
1001
ACAD
1000
RTLwPs
1070
   158
  0
LINE
  5
123F5
  8
COTATION1
 62
     0
 10
125.281088
 20
180.228457
 30
0.0
 11
125.281088
 21
129.728457
 31
0.0
1001
ACAD
1000
RTLwPs
1070
   158
  0
LINE
  5
123F6
  8
COTATION1
 62
     0
 10
125.281088
 20
72.728457
 30
0.0
 11
125.281088
 21
123.228457
 31
0.0
1001
ACAD
1000
RTLwPs
1070
   158
  0
INSERT
  5
123F7
  8
COTATION1
 62
     0
  2
_OPEN30
 10
125.281088
 20
185.228457
 30
0.0
 41
5.0
 42
5.0
 43
5.0
 50
90.0
1001
ACAD
1000
RTLwPs
1070
   158
  0
INSERT
  5
123F8
  8
COTATION1
 62
     0
  2
_OPEN30
 10
125.281088
 20
67.728457
 30
0.0
 41
5.0
 42
5.0
 43
5.0
 50
270.0
1001
ACAD
1000
RTLwPs
1070
   158
  0
TEXT
  5
123F9
  8
COTATION1
 62
     0
 10
117.542993
 20
125.228457
 30
0.0
 40
2.5
  1
93...143
1001
ACAD
1000
MTEXTBEGIN
1070
    73
1070
     1
1070
    44
1040
1.0
1070
    74
1070
     0
1000
MTEXTEND
1000
MTEXTBEGIN
1070
    73
1070
     1
1070
    44
1040
1.0
1070
    74
1070
     0
1000
MTEXTEND
1000
MTEXTBEGIN
1070
    73
1070
     1
1070
    44
1040
1.0
1070
    74
1070
     0
1000
MTEXTEND
  0
POINT
  5
123FA
  8
DEFPOINTS
 62
     0
 10
60.160757
 20
185.228457
 30
0.0
  0
POINT
  5
123FB
  8
DEFPOINTS
 62
     0
 10
70.281088
 20
67.728457
 30
0.0
  0
POINT
  5
123FC
  8
DEFPOINTS
 62
     0
 10
125.281088
 20
67.728457
 30
0.0
  0
ENDBLK
  5
12149
  8
0
  0
BLOCK
  8
0
  2
*D11
 70
     1
 10
0.0
 20
0.0
 30
0.0
  3
*D11
  1

  0
LINE
  5
123E9
  8
COTATION1
 62
     0
 10
58.160757
 20
185.228457
 30
0.0
 11
5.908284
 21
185.228457
 31
0.0
1001
ACAD
1000
RTLwPs
1070
   158
  0
LINE
  5
123EA
  8
COTATION1
 62
     0
 10
41.660757
 20
107.728457
 30
0.0
 11
5.908284
 21
107.728457
 31
0.0
1001
ACAD
1000
RTLwPs
1070
   158
  0
LINE
  5
123EB
  8
COTATION1
 62
     0
 10
8.408284
 20
180.228457
 30
0.0
 11
8.408284
 21
149.728457
 31
0.0
1001
ACAD
1000
RTLwPs
1070
   158
  0
LINE
  5
123EC
  8
COTATION1
 62
     0
 10
8.408284
 20
112.728457
 30
0.0
 11
8.408284
 21
143.228457
 31
0.0
1001
ACAD
1000
RTLwPs
1070
   158
  0
INSERT
  5
123ED
  8
COTATION1
 62
     0
  2
_OPEN30
 10
8.408284
 20
185.228457
 30
0.0
 41
5.0
 42
5.0
 43
5.0
 50
90.0
1001
ACAD
1000
RTLwPs
1070
   158
  0
INSERT
  5
123EE
  8
COTATION1
 62
     0
  2
_OPEN30
 10
8.408284
 20
107.728457
 30
0.0
 41
5.0
 42
5.0
 43
5.0
 50
270.0
1001
ACAD
1000
RTLwPs
1070
   158
  0
TEXT
  5
123EF
  8
COTATION1
 62
     0
 10
0.670189
 20
145.228457
 30
0.0
 40
2.5
  1
53...103
1001
ACAD
1000
MTEXTBEGIN
1070
    73
1070
     1
1070
    44
1040
1.0
1070
    74
1070
     0
1000
MTEXTEND
1000
MTEXTBEGIN
1070
    73
1070
     1
1070
    44
1040
1.0
1070
    74
1070
     0
1000
MTEXTEND
1000
MTEXTBEGIN
1070
    73
1070
     1
1070
    44
1040
1.0
1070
    74
1070
     0
1000
MTEXTEND
  0
POINT
  5
123F0
  8
DEFPOINTS
 62
     0
 10
60.160757
 20
185.228457
 30
0.0
  0
POINT
  5
123F1
  8
DEFPOINTS
 62
     0
 10
43.660757
 20
107.728457
 30
0.0
  0
POINT
  5
123F2
  8
DEFPOINTS
 62
     0
 10
8.408284
 20
107.728457
 30
0.0
  0
ENDBLK
  5
1235B
  8
0
  0
BLOCK
  8
0
  2
*D12
 70
     1
 10
0.0
 20
0.0
 30
0.0
  3
*D12
  1

  0
LINE
  5
12388
  8
COTATION1
 62
     0
 10
52.160757
 20
172.794908
 30
0.0
 11
52.160757
 21
202.728457
 31
0.0
1001
ACAD
1000
RTLwPs
1070
   158
  0
LINE
  5
12389
  8
COTATION1
 62
     0
 10
68.160757
 20
173.228457
 30
0.0
 11
68.160757
 21
202.728457
 31
0.0
1001
ACAD
1000
RTLwPs
1070
   158
  0
LINE
  5
1238A
  8
COTATION1
 62
     0
 10
57.160757
 20
200.228457
 30
0.0
 11
63.160757
 21
200.228457
 31
0.0
1001
ACAD
1000
RTLwPs
1070
   158
  0
INSERT
  5
1238B
  8
COTATION1
 62
     0
  2
_OPEN30
 10
52.160757
 20
200.228457
 30
0.0
 41
5.0
 42
5.0
 43
5.0
 50
180.0
1001
ACAD
1000
RTLwPs
1070
   158
  0
INSERT
  5
1238C
  8
COTATION1
 62
     0
  2
_OPEN30
 10
68.160757
 20
200.228457
 30
0.0
 41
5.0
 42
5.0
 43
5.0
1001
ACAD
1000
RTLwPs
1070
   158
  0
TEXT
  5
1238D
  8
COTATION1
 62
     0
 10
57.601233
 20
202.228457
 30
0.0
 40
2.5
  1
16
1001
ACAD
1000
MTEXTBEGIN
1070
    73
1070
     1
1070
    44
1040
1.0
1070
    74
1070
     0
1000
MTEXTEND
1000
MTEXTBEGIN
1070
    73
1070
     1
1070
    44
1040
1.0
1070
    74
1070
     0
1000
MTEXTEND
1000
MTEXTBEGIN
1070
    73
1070
     1
1070
    44
1040
1.0
1070
    74
1070
     0
1000
MTEXTEND
  0
POINT
  5
1238E
  8
DEFPOINTS
 62
     0
 10
52.160757
 20
170.794908
 30
0.0
  0
POINT
  5
1238F
  8
DEFPOINTS
 62
     0
 10
68.160757
 20
171.228457
 30
0.0
  0
POINT
  5
12390
  8
DEFPOINTS
 62
     0
 10
68.160757
 20
200.228457
 30
0.0
  0
ENDBLK
  5
12367
  8
0
  0
BLOCK
  8
0
  2
*D13
 70
     1
 10
0.0
 20
0.0
 30
0.0
  3
*D13
  1

  0
LINE
  5
123DF
  8
COTATION1
 62
     0
 10
58.160757
 20
185.228457
 30
0.0
 11
21.966422
 21
185.228457
 31
0.0
1001
ACAD
1000
RTLwPs
1070
   158
  0
LINE
  5
123E0
  8
COTATION1
 62
     0
 10
47.160757
 20
127.228457
 30
0.0
 11
21.966422
 21
127.228457
 31
0.0
1001
ACAD
1000
RTLwPs
1070
   158
  0
LINE
  5
123E1
  8
COTATION1
 62
     0
 10
24.466422
 20
180.228457
 30
0.0
 11
24.466422
 21
162.739376
 31
0.0
1001
ACAD
1000
RTLwPs
1070
   158
  0
LINE
  5
123E2
  8
COTATION1
 62
     0
 10
24.466422
 20
132.228457
 30
0.0
 11
24.466422
 21
156.239376
 31
0.0
1001
ACAD
1000
RTLwPs
1070
   158
  0
INSERT
  5
123E3
  8
COTATION1
 62
     0
  2
_OPEN30
 10
24.466422
 20
185.228457
 30
0.0
 41
5.0
 42
5.0
 43
5.0
 50
90.0
1001
ACAD
1000
RTLwPs
1070
   158
  0
INSERT
  5
123E4
  8
COTATION1
 62
     0
  2
_OPEN30
 10
24.466422
 20
127.228457
 30
0.0
 41
5.0
 42
5.0
 43
5.0
 50
270.0
1001
ACAD
1000
RTLwPs
1070
   158
  0
TEXT
  5
123E5
  8
COTATION1
 62
     0
 10
14.347375
 20
158.239376
 30
0.0
 40
2.5
  1
33.5...83.5
1001
ACAD
1000
MTEXTBEGIN
1070
    73
1070
     1
1070
    44
1040
1.0
1070
    74
1070
     0
1000
MTEXTEND
1000
MTEXTBEGIN
1070
    73
1070
     1
1070
    44
1040
1.0
1070
    74
1070
     0
1000
MTEXTEND
1000
MTEXTBEGIN
1070
    73
1070
     1
1070
    44
1040
1.0
1070
    74
1070
     0
1000
MTEXTEND
  0
POINT
  5
123E6
  8
DEFPOINTS
 62
     0
 10
60.160757
 20
185.228457
 30
0.0
  0
POINT
  5
123E7
  8
DEFPOINTS
 62
     0
 10
49.160757
 20
127.228457
 30
0.0
  0
POINT
  5
123E8
  8
DEFPOINTS
 62
     0
 10
24.466422
 20
127.228457
 30
0.0
  0
ENDBLK
  5
12374
  8
0
  0
BLOCK
  8
0
  2
*D14
 70
     1
 10
0.0
 20
0.0
 30
0.0
  3
*D14
  1

  0
LINE
  5
1239B
  8
COTATION1
 62
     0
 10
87.109365
 20
166.997901
 30
0.0
 11
78.799842
 21
166.997901
 31
0.0
1001
ACAD
1000
RTLwPs
1070
   158
  0
LINE
  5
1239C
  8
COTATION1
 62
     0
 10
78.799842
 20
166.997901
 30
0.0
 11
71.556966
 21
170.973346
 31
0.0
1001
ACAD
1000
RTLwPs
1070
   158
  0
TEXT
  5
1239D
  8
COTATION1
 62
     0
 10
80.561746
 20
168.997901
 30
0.0
 40
2.5
  1
%%c16
1001
ACAD
1000
MTEXTBEGIN
1070
    73
1070
     1
1070
    44
1040
1.0
1070
    74
1070
     0
1000
MTEXTEND
1000
MTEXTBEGIN
1070
    73
1070
     1
1070
    44
1040
1.0
1070
    74
1070
     0
1000
MTEXTEND
1000
MTEXTBEGIN
1070
    73
1070
     1
1070
    44
1040
1.0
1070
    74
1070
     0
1000
MTEXTEND
  0
INSERT
  5
1239E
  8
COTATION1
 62
     0
  2
_OPEN30
 10
67.173809
 20
173.379158
 30
0.0
 41
5.0
 42
5.0
 43
5.0
 50
151.238651
1001
ACAD
1000
RTLwPs
1070
   158
  0
POINT
  5
1239F
  8
DEFPOINTS
 62
     0
 10
67.173809
 20
173.379158
 30
0.0
  0
POINT
  5
123A0
  8
DEFPOINTS
 62
     0
 10
53.147705
 20
181.077756
 30
0.0
  0
ENDBLK
  5
1237D
  8
0
  0
ENDSEC
  0
SECTION
  2
ENTITIES
  0
INSERT
  5
A
  8
0
  2
COTE
 10
0.0
 20
0.0
 30
0.0
  0
INSERT
  5
17
  8
0
  2
COTE
 10
284.010391
 20
6.373258
 30
0.0
  0
INSERT
  5
72
  8
0
  2
FOND
 10
0.0
 20
0.0
 30
0.0
  0
LINE
  5
F22C
  8
ALPHA
 10
45.281088
 20
67.728457
 30
0.0
 11
70.281088
 21
67.728457
 31
0.0
  0
LINE
  5
F264
  8
ALPHA
 10
45.281088
 20
67.728457
 30
0.0
 11
45.281088
 21
115.728457
 31
0.0
  0
LINE
  5
F265
  8
ALPHA
 10
75.281088
 20
72.728457
 30
0.0
 11
75.281088
 21
115.728457
 31
0.0
  0
ARC
  5
F2D2
  8
ALPHA
 10
60.281088
 20
60.482077
 30
0.0
 40
57.246507
 50
74.809764
 51
82.088431
  0
ARC
  5
F2E1
  8
ALPHA
 10
50.160757
 20
107.728457
 30
0.0
 40
2.1
 50
17.75279
 51
342.24721
  0
LINE
  5
F2E2
  8
AXE
 10
50.160757
 20
101.228457
 30
0.0
 11
50.160757
 21
114.228457
 31
0.0
  0
LINE
  5
F2E3
  8
AXE
 10
43.660757
 20
107.728457
 30
0.0
 11
56.660757
 21
107.728457
 31
0.0
  0
ARC
  5
F3D4
  8
ALPHA
 10
70.281088
 20
72.728457
 30
0.0
 40
5.0
 50
270.0
 51
0.0
  0
LINE
  5
F43E
  8
AXE
 10
60.160757
 20
190.228457
 30
0.0
 11
60.160757
 21
51.728457
 31
0.0
  0
TEXT
  5
F43F
  8
AXE
 10
52.684567
 20
51.728457
 30
0.0
 40
8.0
  1
Y
 72
     2
 11
59.160757
 21
51.728457
 31
0.0
  0
LINE
  5
F441
  8
AXE
 10
40.281088
 20
92.728457
 30
0.0
 11
87.781088
 21
92.728457
 31
0.0
  0
TEXT
  5
F442
  8
AXE
 10
81.304898
 20
93.728457
 30
0.0
 40
8.0
  1
X
 72
     2
 11
87.781088
 21
93.728457
 31
0.0
  0
DIMENSION
  5
F444
  8
COTATION1
  2
*D4
 10
70.160757
 20
41.728457
 30
0.0
 11
60.160757
 21
44.978457
 31
0.0
 13
50.160757
 23
101.228457
 33
0.0
 14
70.160757
 24
101.228457
 34
0.0
  0
DIMENSION
  5
F445
  8
COTATION1
  2
*D3
 10
75.281088
 20
31.728457
 30
0.0
 11
60.281088
 21
34.978457
 31
0.0
 13
45.281088
 23
67.728457
 33
0.0
 14
75.281088
 24
72.728457
 34
0.0
  0
DIMENSION
  5
F494
  8
COTATION1
  2
*D6
 10
105.281088
 20
67.728457
 30
0.0
 11
105.281088
 21
87.728457
 31
0.0
 13
76.660757
 23
107.728457
 33
0.0
 14
70.281088
 24
67.728457
 34
0.0
 50
90.0
  0
DIMENSION
  5
F495
  8
COTATION1
  2
*D5
 10
115.281088
 20
67.728457
 30
0.0
 11
115.281088
 21
92.728457
 31
0.0
 13
60.160757
 23
117.728457
 33
0.0
 14
70.281088
 24
67.728457
 34
0.0
 50
90.0
  0
ARC
  5
F81F
  8
ALPHA
 10
50.160757
 20
107.728457
 30
0.0
 40
4.0
 50
60.0
 51
300.0
  0
LINE
  5
F836
  8
AXE
 10
70.160757
 20
101.228457
 30
0.0
 11
70.160757
 21
114.228457
 31
0.0
  0
ARC
  5
F837
  8
ALPHA
 10
70.160757
 20
107.728457
 30
0.0
 40
2.1
 50
197.75279
 51
162.24721
  0
ARC
  5
F838
  8
ALPHA
 10
70.160757
 20
107.728457
 30
0.0
 40
4.0
 50
240.0
 51
120.0
  0
LINE
  5
F839
  8
AXE
 10
76.660757
 20
107.728457
 30
0.0
 11
63.660757
 21
107.728457
 31
0.0
  0
DIMENSION
  5
F84D
  8
COTATION1
  2
*D7
 10
51.56599
 20
106.167906
 30
0.0
 11
35.622356
 21
117.488227
 31
0.0
 70
   131
 15
48.755524
 25
109.289008
 35
0.0
 40
0.0
  0
DIMENSION
  5
F857
  8
COTATION1
  2
*D8
 10
53.584363
 20
109.797013
 30
0.0
 11
21.838276
 21
94.377793
 31
0.0
 70
   131
 15
46.737151
 25
105.659901
 35
0.0
 40
0.0
  0
LINE
  5
FA92
  8
ALPHA
 10
75.281088
 20
78.978457
 30
0.0
 11
86.271863
 21
78.978457
 31
0.0
  0
LINE
  5
FA93
  8
ALPHA
 10
75.122317
 20
71.478457
 30
0.0
 11
81.941736
 21
71.478457
 31
0.0
  0
LINE
  5
FAE6
  8
AXE
 10
81.07571
 20
69.978457
 30
0.0
 11
87.137888
 21
80.478457
 31
0.0
  0
DIMENSION
  5
FB5B
  8
COTATION1
  2
*D9
 10
95.281088
 20
71.478457
 30
0.0
 11
95.281088
 21
75.228457
 31
0.0
  1
%%c<>
 13
86.271863
 23
78.978457
 33
0.0
 14
81.941736
 24
71.478457
 34
0.0
 50
90.0
  0
DIMENSION
  5
120AC
  8
COTATION1
  2
*D10
 10
125.281088
 20
67.728457
 30
0.0
 11
125.281088
 21
126.478457
 31
0.0
  1
93...143
 13
60.160757
 23
185.228457
 33
0.0
 14
70.281088
 24
67.728457
 34
0.0
 50
90.0
  0
ARC
  5
1232A
  8
ALPHA
 10
64.160757
 20
85.228457
 30
0.0
 40
4.0
 50
270.0
 51
0.0
  0
LINE
  5
1232B
  8
AXE
 10
71.160757
 20
177.228457
 30
0.0
 11
49.160757
 21
177.228457
 31
0.0
  0
LINE
  5
1232C
  8
AXE
 10
49.160757
 20
127.228457
 30
0.0
 11
71.160757
 21
127.228457
 31
0.0
  0
DIMENSION
  5
1232D
  8
COTATION1
  2
*D14
 10
53.147705
 20
181.077756
 30
0.0
 11
83.954604
 21
166.997901
 31
0.0
 70
   131
 15
67.173809
 25
173.379158
 35
0.0
 40
0.0
1001
ACAD
1000
DSTYLE
1002
{
1070
   288
1070
     1
1002
}
  0
CIRCLE
  5
1232E
  8
ALPHA
 10
60.160757
 20
127.228457
 30
0.0
 40
6.5
  0
DIMENSION
  5
1232F
  8
COTATION1
  2
*D11
 10
8.408284
 20
107.728457
 30
0.0
 11
8.408284
 21
146.478457
 31
0.0
 70
   128
  1
53...103
 13
60.160757
 23
185.228457
 33
0.0
 14
43.660757
 24
107.728457
 34
0.0
 50
90.0
  0
LINE
  5
12330
  8
ALPHA
 10
56.660757
 20
121.751232
 30
0.0
 11
56.660757
 21
93.228457
 31
0.0
  0
LINE
  5
12331
  8
ALPHA
 10
63.660757
 20
121.751232
 30
0.0
 11
63.660757
 21
93.228457
 31
0.0
  0
LINE
  5
12332
  8
ALPHA
 10
52.160757
 20
171.228457
 30
0.0
 11
52.160757
 21
85.228457
 31
0.0
  0
LINE
  5
12333
  8
ALPHA
 10
68.160757
 20
171.228457
 30
0.0
 11
68.160757
 21
85.228457
 31
0.0
  0
ARC
  5
12334
  8
ALPHA
 10
56.160757
 20
85.228457
 30
0.0
 40
4.0
 50
180.0
 51
270.0
  0
LINE
  5
12335
  8
ALPHA
 10
64.160757
 20
81.228457
 30
0.0
 11
56.160757
 21
81.228457
 31
0.0
  0
ARC
  5
12336
  8
ALPHA
 10
60.160757
 20
93.228457
 30
0.0
 40
3.5
 50
180.0
 51
0.0
  0
ARC
  5
12337
  8
ALPHA
 10
60.160757
 20
127.228457
 30
0.0
 40
10.0
 50
249.512685
 51
290.487315
  0
ARC
  5
12338
  8
ALPHA
 10
60.160757
 20
-27.088794
 30
0.0
 40
143.317251
 50
88.600621
 51
91.399379
  0
DIMENSION
  5
12339
  8
COTATION1
  2
*D13
 10
24.466422
 20
127.228457
 30
0.0
 11
24.466422
 21
159.489376
 31
0.0
 70
   128
  1
33.5...83.5
 13
60.160757
 23
185.228457
 33
0.0
 14
49.160757
 24
127.228457
 34
0.0
 50
90.0
  0
LINE
  5
1233A
  8
ALPHA
 10
63.660757
 20
160.228457
 30
0.0
 11
63.660757
 21
132.705683
 31
0.0
  0
LINE
  5
1233B
  8
ALPHA
 10
56.660757
 20
160.228457
 30
0.0
 11
56.660757
 21
132.705683
 31
0.0
  0
LINE
  5
1233C
  8
ALPHA
 10
57.815315
 20
123.88727
 30
0.0
 11
60.160757
 21
126.233825
 31
0.0
  0
CIRCLE
  5
1233D
  8
ALPHA
 10
60.160757
 20
127.228457
 30
0.0
 40
4.021871
  0
CIRCLE
  5
1233E
  8
ALPHA
 10
60.160757
 20
127.228457
 30
0.0
 40
5.026506
  0
LINE
  5
1233F
  8
ALPHA
 10
60.160757
 20
128.224199
 30
0.0
 11
59.058883
 21
129.325518
 31
0.0
  0
LINE
  5
12340
  8
ALPHA
 10
59.166125
 20
127.228457
 30
0.0
 11
56.81957
 21
124.883012
 31
0.0
  0
LINE
  5
12341
  8
ALPHA
 10
58.063138
 20
128.329776
 30
0.0
 11
59.166125
 21
127.228457
 31
0.0
  0
LINE
  5
12342
  8
ALPHA
 10
59.058883
 20
129.325518
 30
0.0
 11
58.063138
 21
128.329776
 31
0.0
  0
LINE
  5
12343
  8
ALPHA
 10
62.257818
 20
126.127138
 30
0.0
 11
61.156502
 21
127.228457
 31
0.0
  0
LINE
  5
12344
  8
ALPHA
 10
61.262076
 20
125.131393
 30
0.0
 11
62.257818
 21
126.127138
 31
0.0
  0
LINE
  5
12345
  8
ALPHA
 10
60.160757
 20
126.233825
 30
0.0
 11
61.262076
 21
125.131393
 31
0.0
  0
LINE
  5
12346
  8
ALPHA
 10
61.156502
 20
127.228457
 30
0.0
 11
63.501389
 21
129.575012
 31
0.0
  0
LINE
  5
12347
  8
ALPHA
 10
62.507312
 20
130.569644
 30
0.0
 11
60.160757
 21
128.224199
 31
0.0
  0
ARC
  5
12348
  8
ALPHA
 10
60.160757
 20
127.228457
 30
0.0
 40
10.0
 50
69.512685
 51
110.487315
  0
ARC
  5
12349
  8
ALPHA
 10
60.160757
 20
160.228457
 30
0.0
 40
3.5
 50
0.0
 51
180.0
  0
DIMENSION
  5
1234A
  8
COTATION1
  2
*D12
 10
68.160757
 20
200.228457
 30
0.0
 11
60.160757
 21
203.478457
 31
0.0
 13
52.160757
 23
170.794908
 33
0.0
 14
68.160757
 24
171.228457
 34
0.0
  0
CIRCLE
  5
1234B
  8
ALPHA
 10
60.160757
 20
177.228457
 30
0.0
 40
8.0
  0
CIRCLE
  5
1234C
  8
ALPHA
 10
60.160757
 20
177.228457
 30
0.0
 40
4.0
  0
LINE
  5
1234D
  8
ALPHA
 10
53.026854
 20
173.608039
 30
0.0
 11
52.160757
 21
171.228457
 31
0.0
  0
LINE
  5
1234E
  8
ALPHA
 10
67.29466
 20
173.608039
 30
0.0
 11
68.160757
 21
171.228457
 31
0.0
  0
ARC
  5
12685
  8
ALPHA
 10
60.281088
 20
60.482077
 30
0.0
 40
57.246507
 50
98.154825
 51
105.190236
  0
ARC
  5
12686
  8
ALPHA
 10
60.281088
 20
60.482077
 30
0.0
 40
57.246507
 50
92.997903
 51
93.625867
  0
ARC
  5
12687
  8
ALPHA
 10
60.281088
 20
60.482077
 30
0.0
 40
57.246507
 50
86.615454
 51
87.208683
  0
VIEWPORT
  5
494D
 67
     1
  8
0
 10
4.995325
 20
6.556512
 30
0.0
 40
22.70986
 41
13.988421
 68
    -1
 69
     1
1001
ACAD
1000
MVIEW
1002
{
1070
    16
1010
0.0
1020
0.0
1030
0.0
1010
0.0
1020
0.0
1030
1.0
1040
0.0
1040
13.988421
1040
4.995325
1040
6.556512
1040
50.0
1040
0.0
1040
0.0
1070
     0
1070
   100
1070
     1
1070
     1
1070
     0
1070
     0
1070
     0
1070
     0
1040
0.0
1040
0.0
1040
0.0
1040
10.0
1040
10.0
1040
10.0
1040
10.0
1070
     0
1002
{
1002
}
1002
}
  0
ENDSEC
  0
EOF
