  0
SECTION
  2
HEADER
  9
$ACADVER
  1
AC1009
  9
$INSBASE
 10
-146.27124
 20
-153.796096
 30
0.0
  9
$EXTMIN
 10
613.664616
 20
-89.428888
 30
0.0
  9
$EXTMAX
 10
655.883118
 20
-13.065913
 30
0.0
  9
$LIMMIN
 10
-407.970438
 20
-367.832444
  9
$LIMMAX
 10
429.804077
 20
234.370848
  9
$ORTHOMODE
 70
     0
  9
$REGENMODE
 70
     1
  9
$FILLMODE
 70
     1
  9
$QTEXTMODE
 70
     0
  9
$MIRRTEXT
 70
     1
  9
$DRAGMODE
 70
     2
  9
$LTSCALE
 40
10.0
  9
$OSMODE
 70
   165
  9
$ATTMODE
 70
     1
  9
$TEXTSIZE
 40
6.0
  9
$TRACEWID
 40
1.0
  9
$TEXTSTYLE
  7
ROMANS
  9
$CLAYER
  8
COTATION1
  9
$CELTYPE
  6
BYLAYER
  9
$CECOLOR
 62
   256
  9
$DIMSCALE
 40
1.0
  9
$DIMASZ
 40
2.0
  9
$DIMEXO
 40
0.3
  9
$DIMDLI
 40
0.1
  9
$DIMRND
 40
0.0
  9
$DIMDLE
 40
0.0
  9
$DIMEXE
 40
0.5
  9
$DIMTP
 40
0.0
  9
$DIMTM
 40
0.0
  9
$DIMTXT
 40
2.0
  9
$DIMCEN
 40
1.0
  9
$DIMTSZ
 40
0.0
  9
$DIMTOL
 70
     0
  9
$DIMLIM
 70
     0
  9
$DIMTIH
 70
     0
  9
$DIMTOH
 70
     0
  9
$DIMSE1
 70
     0
  9
$DIMSE2
 70
     0
  9
$DIMTAD
 70
     1
  9
$DIMZIN
 70
    12
  9
$DIMBLK
  1
OPEN30
  9
$DIMASO
 70
     1
  9
$DIMSHO
 70
     1
  9
$DIMPOST
  1

  9
$DIMAPOST
  1

  9
$DIMALT
 70
     0
  9
$DIMALTD
 70
     2
  9
$DIMALTF
 40
25.4
  9
$DIMLFAC
 40
1.0
  9
$DIMTOFL
 70
     0
  9
$DIMTVP
 40
0.0
  9
$DIMTIX
 70
     0
  9
$DIMSOXD
 70
     0
  9
$DIMSAH
 70
     0
  9
$DIMBLK1
  1

  9
$DIMBLK2
  1

  9
$DIMSTYLE
  2
SC_DEFAUT
  9
$DIMCLRD
 70
     0
  9
$DIMCLRE
 70
     0
  9
$DIMCLRT
 70
     0
  9
$DIMTFAC
 40
1.0
  9
$DIMGAP
 40
0.6
  9
$LUNITS
 70
     2
  9
$LUPREC
 70
     1
  9
$SKETCHINC
 40
0.1
  9
$FILLETRAD
 40
0.0
  9
$AUNITS
 70
     0
  9
$AUPREC
 70
     0
  9
$MENU
  1
acad
  9
$ELEVATION
 40
0.0
  9
$PELEVATION
 40
0.0
  9
$THICKNESS
 40
0.0
  9
$LIMCHECK
 70
     0
  9
$BLIPMODE
 70
     0
  9
$CHAMFERA
 40
0.0
  9
$CHAMFERB
 40
0.0
  9
$SKPOLY
 70
     0
  9
$TDCREATE
 40
2450365.355314
  9
$TDUPDATE
 40
2452587.549292
  9
$TDINDWG
 40
0.520803
  9
$TDUSRTIMER
 40
0.520803
  9
$USRTIMER
 70
     1
  9
$ANGBASE
 50
0.0
  9
$ANGDIR
 70
     0
  9
$PDMODE
 70
    32
  9
$PDSIZE
 40
0.0
  9
$PLINEWID
 40
0.0
  9
$COORDS
 70
     2
  9
$SPLFRAME
 70
     0
  9
$SPLINETYPE
 70
     6
  9
$SPLINESEGS
 70
     8
  9
$ATTDIA
 70
     0
  9
$ATTREQ
 70
     1
  9
$HANDLING
 70
     1
  9
$HANDSEED
  5
3978
  9
$SURFTAB1
 70
     6
  9
$SURFTAB2
 70
     6
  9
$SURFTYPE
 70
     6
  9
$SURFU
 70
     6
  9
$SURFV
 70
     6
  9
$UCSNAME
  2

  9
$UCSORG
 10
0.0
 20
0.0
 30
0.0
  9
$UCSXDIR
 10
1.0
 20
0.0
 30
0.0
  9
$UCSYDIR
 10
0.0
 20
1.0
 30
0.0
  9
$PUCSNAME
  2

  9
$PUCSORG
 10
0.0
 20
0.0
 30
0.0
  9
$PUCSXDIR
 10
1.0
 20
0.0
 30
0.0
  9
$PUCSYDIR
 10
0.0
 20
1.0
 30
0.0
  9
$USERI1
 70
     0
  9
$USERI2
 70
     0
  9
$USERI3
 70
     0
  9
$USERI4
 70
     0
  9
$USERI5
 70
     0
  9
$USERR1
 40
0.0
  9
$USERR2
 40
0.0
  9
$USERR3
 40
0.0
  9
$USERR4
 40
0.0
  9
$USERR5
 40
0.0
  9
$WORLDVIEW
 70
     1
  9
$SHADEDGE
 70
     3
  9
$SHADEDIF
 70
    70
  9
$TILEMODE
 70
     1
  9
$MAXACTVP
 70
    16
  9
$PLIMCHECK
 70
     0
  9
$PEXTMIN
 10
1.000000E+020
 20
1.000000E+020
 30
1.000000E+020
  9
$PEXTMAX
 10
-1.000000E+020
 20
-1.000000E+020
 30
-1.000000E+020
  9
$PLIMMIN
 10
0.0
 20
0.0
  9
$PLIMMAX
 10
12.0
 20
9.0
  9
$UNITMODE
 70
     0
  9
$VISRETAIN
 70
     0
  9
$PLINEGEN
 70
     0
  9
$PSLTSCALE
 70
     0
  0
ENDSEC
  0
SECTION
  2
TABLES
  0
TABLE
  2
VPORT
 70
     2
  0
VPORT
  2
*ACTIVE
 70
     0
 10
0.0
 20
0.0
 11
1.0
 21
1.0
 12
634.771953
 22
-51.22454
 13
0.0
 23
0.0
 14
1.0
 24
1.0
 15
10.0
 25
10.0
 16
0.0
 26
0.0
 36
1.0
 17
0.0
 27
0.0
 37
0.0
 40
77.189819
 41
1.63142
 42
50.0
 43
0.0
 44
0.0
 50
0.0
 51
0.0
 71
     0
 72
   100
 73
     1
 74
     0
 75
     0
 76
     0
 77
     0
 78
     0
  0
ENDTAB
  0
TABLE
  2
LTYPE
 70
    25
  0
LTYPE
  2
CONTINUOUS
 70
     0
  3
Solid line
 72
    65
 73
     0
 40
0.0
  0
LTYPE
  2
AXES2
 70
     0
  3
___ _ ___ _ ___ _ ___ _ ___ _ ___ _ ___ _ ___ _
 72
    65
 73
     4
 40
1.125
 49
0.75
 49
-0.125
 49
0.125
 49
-0.125
  0
LTYPE
  2
ACAD_ISO04W100
 70
     0
  3
ISO Lang gestrichelt punktiert ____ . ____ . __
 72
    65
 73
     4
 40
30.5
 49
24.0
 49
-3.0
 49
0.5
 49
-3.0
  0
LTYPE
  2
AXES
 70
     0
  3
____ _ ____ _ ____ _ ____ _ ____ _ ____ _ ____ 
 72
    65
 73
     4
 40
2.0
 49
1.25
 49
-0.25
 49
0.25
 49
-0.25
  0
LTYPE
  2
AXESX2
 70
     0
  3
________  __  ________  __  ________  __  _____
 72
    65
 73
     4
 40
4.0
 49
2.5
 49
-0.5
 49
0.5
 49
-0.5
  0
LTYPE
  2
TIRETPT
 70
     0
  3
__ . __ . __ . __ . __ . __ . __ . __ . __ . __
 72
    65
 73
     4
 40
1.0
 49
0.5
 49
-0.25
 49
0.0
 49
-0.25
  0
LTYPE
  2
TIRETPT2
 70
     0
  3
_._._._._._._._._._._._._._._._._._._._._._._._
 72
    65
 73
     4
 40
0.5
 49
0.25
 49
-0.125
 49
0.0
 49
-0.125
  0
LTYPE
  2
TIRETPTX2
 70
     0
  3
____  .  ____  .  ____  .  ____  .  ____  .  __
 72
    65
 73
     4
 40
2.0
 49
1.0
 49
-0.5
 49
0.0
 49
-0.5
  0
LTYPE
  2
DISCONTINU
 70
     0
  3
__ __ __ __ __ __ __ __ __ __ __ __ __ __ __ __
 72
    65
 73
     2
 40
0.75
 49
0.5
 49
-0.25
  0
LTYPE
  2
DISCONTINU2
 70
     0
  3
_ _ _ _ _ _ _ _ _ _ _ _ _ _ _ _ _ _ _ _ _ _ _ _
 72
    65
 73
     2
 40
0.375
 49
0.25
 49
-0.125
  0
LTYPE
  2
DISCONTINUX2
 70
     0
  3
____  ____  ____  ____  ____  ____  ____  ____ 
 72
    65
 73
     2
 40
1.5
 49
1.0
 49
-0.5
  0
LTYPE
  2
DIVISE
 70
     0
  3
____ . . ____ . . ____ . . ____ . . ____ . . __
 72
    65
 73
     6
 40
1.25
 49
0.5
 49
-0.25
 49
0.0
 49
-0.25
 49
0.0
 49
-0.25
  0
LTYPE
  2
DIVISE2
 70
     0
  3
__..__..__..__..__..__..__..__..__..__..__..__.
 72
    65
 73
     6
 40
0.625
 49
0.25
 49
-0.125
 49
0.0
 49
-0.125
 49
0.0
 49
-0.125
  0
LTYPE
  2
DIVISEX2
 70
     0
  3
________  .  .  ________  .  .  ________  .  . 
 72
    65
 73
     6
 40
2.5
 49
1.0
 49
-0.5
 49
0.0
 49
-0.5
 49
0.0
 49
-0.5
  0
LTYPE
  2
POINTILLE
 70
     0
  3
. . . . . . . . . . . . . . . . . . . . . . . .
 72
    65
 73
     2
 40
0.25
 49
0.0
 49
-0.25
  0
LTYPE
  2
POINTILLE2
 70
     0
  3
...............................................
 72
    65
 73
     2
 40
0.125
 49
0.0
 49
-0.125
  0
LTYPE
  2
POINTILLEX2
 70
     0
  3
.  .  .  .  .  .  .  .  .  .  .  .  .  .  .  . 
 72
    65
 73
     2
 40
0.5
 49
0.0
 49
-0.5
  0
LTYPE
  2
CACHE
 70
     0
  3
__ __ __ __ __ __ __ __ __ __ __ __ __ __ __ __
 72
    65
 73
     2
 40
0.375
 49
0.25
 49
-0.125
  0
LTYPE
  2
CACHE2
 70
     0
  3
_ _ _ _ _ _ _ _ _ _ _ _ _ _ _ _ _ _ _ _ _ _ _ _
 72
    65
 73
     2
 40
0.1875
 49
0.125
 49
-0.0625
  0
LTYPE
  2
CACHEX2
 70
     0
  3
____ ____ ____ ____ ____ ____ ____ ____ ____ __
 72
    65
 73
     2
 40
0.75
 49
0.5
 49
-0.25
  0
LTYPE
  2
FANTOME
 70
     0
  3
______  __  __  ______  __  __  ______  __  __ 
 72
    65
 73
     6
 40
2.5
 49
1.25
 49
-0.25
 49
0.25
 49
-0.25
 49
0.25
 49
-0.25
  0
LTYPE
  2
FANTOME2
 70
     0
  3
___ _ _ ___ _ _ ___ _ _ ___ _ _ ___ _ _ ___ _ _
 72
    65
 73
     6
 40
1.25
 49
0.625
 49
-0.125
 49
0.125
 49
-0.125
 49
0.125
 49
-0.125
  0
LTYPE
  2
FANTOMEX2
 70
     0
  3
____________    ____    ____    ____________   
 72
    65
 73
     6
 40
5.0
 49
2.5
 49
-0.5
 49
0.5
 49
-0.5
 49
0.5
 49
-0.5
  0
LTYPE
  2
0
 70
     0
  3
MEDUSA PEN 0
 72
    65
 73
     0
 40
0.0
  0
LTYPE
  2
AI9-LTYPE1
 70
     0
  3
Illustrator Dash Style No.1
 72
    65
 73
     2
 40
1.33491
 49
1.026935
 49
-0.307975
  0
ENDTAB
  0
TABLE
  2
LAYER
 70
    17
  0
LAYER
  2
0
 70
     0
 62
     7
  6
CONTINUOUS
  0
LAYER
  2
TEXTE_MOYEN
 70
     0
 62
   131
  6
CONTINUOUS
  0
LAYER
  2
ALPHA
 70
     0
 62
   254
  6
CONTINUOUS
  0
LAYER
  2
COTATION1
 70
     0
 62
    50
  6
CONTINUOUS
  0
LAYER
  2
AXE
 70
     0
 62
    80
  6
AXES2
  0
LAYER
  2
DEFPOINTS
 70
     0
 62
     7
  6
CONTINUOUS
  0
LAYER
  2
HACHURES1
 70
     0
 62
   130
  6
CONTINUOUS
  0
LAYER
  2
FMULT
 70
     0
 62
   210
  6
CONTINUOUS
  0
LAYER
  2
FDP_CARTOUCHE
 70
     0
 62
   136
  6
CONTINUOUS
  0
LAYER
  2
FDP_TEXTES
 70
     0
 62
   171
  6
CONTINUOUS
  0
LAYER
  2
FDP_LOGO_MG
 70
     0
 62
    30
  6
CONTINUOUS
  0
LAYER
  2
FDP_LOGO_SCH
 70
     0
 62
    90
  6
CONTINUOUS
  0
LAYER
  2
FDP_FDP
 70
     0
 62
   170
  6
CONTINUOUS
  0
LAYER
  2
POINTILLE_COURT2
 70
     0
 62
    41
  6
CACHE2
  0
LAYER
  2
POINTILLE_MOYEN2
 70
     0
 62
   141
  6
CACHE
  0
LAYER
  2
POINTILLE_LONG2
 70
     0
 62
   241
  6
CACHEX2
  0
LAYER
  2
ALPHA_FIN
 70
     0
 62
   255
  6
CONTINUOUS
  0
ENDTAB
  0
TABLE
  2
STYLE
 70
     5
  0
STYLE
  2
ROMANS
 70
     0
 40
0.0
 41
1.0
 50
0.0
 71
     0
 42
6.0
  3
romans
  4

  0
STYLE
  2
STANDARD
 70
     0
 40
0.2
 41
1.0
 50
0.0
 71
     0
 42
0.2
  3
txt
  4

  0
STYLE
  2
STD
 70
     0
 40
0.0
 41
1.0
 50
0.0
 71
     0
 42
0.0
  3
txt
  4

  0
STYLE
  2
INFOCAR
 70
     0
 40
0.0
 41
1.34
 50
0.0
 71
     0
 42
2.0
  3
ROMANS.SHX
  4

  0
STYLE
  2
CARTOUCHE
 70
     0
 40
0.0
 41
1.0
 50
0.0
 71
     0
 42
0.2
  3
ROMANS.SHX
  4

  0
ENDTAB
  0
TABLE
  2
VIEW
 70
     0
  0
ENDTAB
  0
TABLE
  2
UCS
 70
     0
  0
ENDTAB
  0
TABLE
  2
APPID
 70
     3
  0
APPID
  2
ACAD
 70
     0
  0
APPID
  2
AVE_RENDER
 70
     0
  0
APPID
  2
AVE_MATERIAL
 70
     0
  0
ENDTAB
  0
TABLE
  2
DIMSTYLE
 70
     2
  0
DIMSTYLE
  2
SC_DEFAUT
 70
     0
  3

  4

  5
OPEN30
  6

  7

 40
1.0
 41
2.0
 42
0.3
 43
0.1
 44
0.5
 45
0.0
 46
0.0
 47
0.0
 48
0.0
140
2.0
141
1.0
142
0.0
143
25.4
144
1.0
145
0.0
146
1.0
147
0.6
 71
     0
 72
     0
 73
     0
 74
     0
 75
     0
 76
     0
 77
     1
 78
    12
170
     0
171
     2
172
     0
173
     0
174
     0
175
     0
176
     0
177
     0
178
     0
  0
DIMSTYLE
  2
ROMANS
 70
     0
  3

  4

  5
OPEN30
  6

  7

 40
1.0
 41
2.0
 42
0.5
 43
0.38
 44
0.18
 45
0.0
 46
0.0
 47
0.0
 48
0.0
140
2.0
141
0.09
142
0.0
143
25.4
144
1.0
145
0.0
146
1.0
147
0.5
 71
     0
 72
     0
 73
     0
 74
     0
 75
     0
 76
     0
 77
     1
 78
    12
170
     0
171
     2
172
     0
173
     0
174
     0
175
     0
176
     0
177
     0
178
     0
  0
ENDTAB
  0
ENDSEC
  0
SECTION
  2
BLOCKS
  0
BLOCK
  8
0
  2
$MODEL_SPACE
 70
     0
 10
0.0
 20
0.0
 30
0.0
  3
$MODEL_SPACE
  1

  0
ENDBLK
  5
38B2
  8
0
  0
BLOCK
 67
     1
  8
0
  2
$PAPER_SPACE
 70
     0
 10
0.0
 20
0.0
 30
0.0
  3
$PAPER_SPACE
  1

  0
ENDBLK
  5
38B0
 67
     1
  8
0
  0
BLOCK
  8
0
  2
COTE
 70
     0
 10
0.0
 20
0.0
 30
0.0
  3
COTE
  1

  0
ENDBLK
  5
35
  8
0
  0
BLOCK
  8
0
  2
FOND
 70
     0
 10
0.0
 20
0.0
 30
0.0
  3
FOND
  1

  0
ENDBLK
  5
39
  8
0
  0
BLOCK
  8
0
  2
SCH_ISO
 70
     0
 10
0.0
 20
0.0
 30
0.0
  3
SCH_ISO
  1

  0
ENDBLK
  5
24AD
  8
0
  0
BLOCK
  8
0
  2
_OPEN30
 70
     0
 10
0.0
 20
0.0
 30
0.0
  3
_OPEN30
  1

  0
LINE
  5
27E1
  8
COTATION1
 62
     0
 10
-1.0
 20
0.267949
 30
0.0
 11
0.0
 21
0.0
 31
0.0
1001
ACAD
1000
RTLwPs
1070
   158
  0
LINE
  5
27E2
  8
COTATION1
 62
     0
 10
0.0
 20
0.0
 30
0.0
 11
-1.0
 21
-0.267949
 31
0.0
1001
ACAD
1000
RTLwPs
1070
   158
  0
LINE
  5
27E3
  8
COTATION1
 62
     0
 10
0.0
 20
0.0
 30
0.0
 11
-1.0
 21
0.0
 31
0.0
1001
ACAD
1000
RTLwPs
1070
   158
  0
ENDBLK
  5
27E5
  8
0
  0
BLOCK
  8
0
  2
*D4
 70
     1
 10
0.0
 20
0.0
 30
0.0
  3
*D4
  1

  0
LINE
  5
36B2
  8
COTATION1
 62
     0
 10
632.856426
 20
-60.811111
 30
0.0
 11
618.077703
 21
-60.811111
 31
0.0
1001
ACAD
1000
RTLwPs
1070
   158
  0
LINE
  5
36B3
  8
COTATION1
 62
     0
 10
633.529763
 20
-63.811073
 30
0.0
 11
618.077703
 21
-63.811073
 31
0.0
1001
ACAD
1000
RTLwPs
1070
   158
  0
LINE
  5
36B4
  8
COTATION1
 62
     0
 10
618.577703
 20
-58.811111
 30
0.0
 11
618.577703
 21
-56.811111
 31
0.0
1001
ACAD
1000
RTLwPs
1070
   158
  0
LINE
  5
36B5
  8
COTATION1
 62
     0
 10
618.577703
 20
-65.811073
 30
0.0
 11
618.577703
 21
-67.811073
 31
0.0
1001
ACAD
1000
RTLwPs
1070
   158
  0
INSERT
  5
36B6
  8
COTATION1
 62
     0
  2
_OPEN30
 10
618.577703
 20
-60.811111
 30
0.0
 41
2.0
 42
2.0
 43
2.0
 50
270.0
1001
ACAD
1000
RTLwPs
1070
   158
  0
INSERT
  5
36B7
  8
COTATION1
 62
     0
  2
_OPEN30
 10
618.577703
 20
-63.811073
 30
0.0
 41
2.0
 42
2.0
 43
2.0
 50
90.0
1001
ACAD
1000
RTLwPs
1070
   158
  0
TEXT
  5
36B8
  8
COTATION1
 62
     0
 10
617.977703
 20
-63.263473
 30
0.0
 40
2.0
  1
3
 50
90.0
1001
ACAD
1000
MTEXTBEGIN
1070
    73
1070
     1
1070
    44
1040
1.0
1070
    74
1070
     0
1000
MTEXTEND
1000
MTEXTBEGIN
1070
    73
1070
     1
1070
    44
1040
1.0
1070
    74
1070
     0
1000
MTEXTEND
  0
POINT
  5
36B9
  8
DEFPOINTS
 62
     0
 10
633.156426
 20
-60.811111
 30
0.0
  0
POINT
  5
36BA
  8
DEFPOINTS
 62
     0
 10
633.829763
 20
-63.811073
 30
0.0
  0
POINT
  5
36BB
  8
DEFPOINTS
 62
     0
 10
618.577703
 20
-63.811073
 30
0.0
  0
ENDBLK
  5
30A2
  8
0
  0
BLOCK
  8
0
  2
*D5
 70
     1
 10
0.0
 20
0.0
 30
0.0
  3
*D5
  1

  0
LINE
  5
3515
  8
COTATION1
 62
     0
 10
634.830517
 20
-48.378744
 30
0.0
 11
634.830517
 21
-35.044084
 31
0.0
1001
ACAD
1000
RTLwPs
1070
   158
  0
LINE
  5
3516
  8
COTATION1
 62
     0
 10
633.830469
 20
-48.511105
 30
0.0
 11
633.830469
 21
-35.044084
 31
0.0
1001
ACAD
1000
RTLwPs
1070
   158
  0
LINE
  5
3517
  8
COTATION1
 62
     0
 10
636.830517
 20
-35.544084
 30
0.0
 11
638.830517
 21
-35.544084
 31
0.0
1001
ACAD
1000
RTLwPs
1070
   158
  0
LINE
  5
3518
  8
COTATION1
 62
     0
 10
631.830469
 20
-35.544084
 30
0.0
 11
625.773326
 21
-35.544084
 31
0.0
1001
ACAD
1000
RTLwPs
1070
   158
  0
INSERT
  5
3519
  8
COTATION1
 62
     0
  2
_OPEN30
 10
634.830517
 20
-35.544084
 30
0.0
 41
2.0
 42
2.0
 43
2.0
 50
180.0
1001
ACAD
1000
RTLwPs
1070
   158
  0
INSERT
  5
351A
  8
COTATION1
 62
     0
  2
_OPEN30
 10
633.830469
 20
-35.544084
 30
0.0
 41
2.0
 42
2.0
 43
2.0
1001
ACAD
1000
RTLwPs
1070
   158
  0
TEXT
  5
351B
  8
COTATION1
 62
     0
 10
626.087612
 20
-34.944084
 30
0.0
 40
2.0
  1
Ø1
1001
ACAD
1000
MTEXTBEGIN
1070
    73
1070
     1
1070
    44
1040
1.0
1070
    74
1070
     0
1000
MTEXTEND
1000
MTEXTBEGIN
1070
    73
1070
     1
1070
    44
1040
1.0
1070
    74
1070
     0
1000
MTEXTEND
  0
POINT
  5
351C
  8
DEFPOINTS
 62
     0
 10
634.830517
 20
-48.678744
 30
0.0
  0
POINT
  5
351D
  8
DEFPOINTS
 62
     0
 10
633.830469
 20
-48.811105
 30
0.0
  0
POINT
  5
351E
  8
DEFPOINTS
 62
     0
 10
633.830469
 20
-35.544084
 30
0.0
  0
ENDBLK
  5
30B0
  8
0
  0
BLOCK
  8
0
  2
*D6
 70
     1
 10
0.0
 20
0.0
 30
0.0
  3
*D6
  1

  0
LINE
  5
36D9
  8
COTATION1
 62
     0
 10
632.857186
 20
-48.811105
 30
0.0
 11
632.857186
 21
-39.98893
 31
0.0
1001
ACAD
1000
RTLwPs
1070
   158
  0
LINE
  5
36DA
  8
COTATION1
 62
     0
 10
636.857175
 20
-48.811105
 30
0.0
 11
636.857175
 21
-39.98893
 31
0.0
1001
ACAD
1000
RTLwPs
1070
   158
  0
LINE
  5
36DB
  8
COTATION1
 62
     0
 10
630.857186
 20
-40.48893
 30
0.0
 11
628.857186
 21
-40.48893
 31
0.0
1001
ACAD
1000
RTLwPs
1070
   158
  0
LINE
  5
36DC
  8
COTATION1
 62
     0
 10
638.857175
 20
-40.48893
 30
0.0
 11
655.38937
 21
-40.48893
 31
0.0
1001
ACAD
1000
RTLwPs
1070
   158
  0
INSERT
  5
36DD
  8
COTATION1
 62
     0
  2
_OPEN30
 10
632.857186
 20
-40.48893
 30
0.0
 41
2.0
 42
2.0
 43
2.0
1001
ACAD
1000
RTLwPs
1070
   158
  0
INSERT
  5
36DE
  8
COTATION1
 62
     0
  2
_OPEN30
 10
636.857175
 20
-40.48893
 30
0.0
 41
2.0
 42
2.0
 43
2.0
 50
180.0
1001
ACAD
1000
RTLwPs
1070
   158
  0
TEXT
  5
36DF
  8
COTATION1
 62
     0
 10
644.503656
 20
-39.88893
 30
0.0
 40
2.0
  1
M4x0.7
1001
ACAD
1000
MTEXTBEGIN
1070
    73
1070
     1
1070
    44
1040
1.0
1070
    74
1070
     0
1000
MTEXTEND
1000
MTEXTBEGIN
1070
    73
1070
     1
1070
    44
1040
1.0
1070
    74
1070
     0
1000
MTEXTEND
  0
POINT
  5
36E0
  8
DEFPOINTS
 62
     0
 10
632.857186
 20
-49.111105
 30
0.0
  0
POINT
  5
36E1
  8
DEFPOINTS
 62
     0
 10
636.857175
 20
-49.111105
 30
0.0
  0
POINT
  5
36E2
  8
DEFPOINTS
 62
     0
 10
636.857175
 20
-40.48893
 30
0.0
  0
ENDBLK
  5
30BE
  8
0
  0
BLOCK
  8
0
  2
*D7
 70
     1
 10
0.0
 20
0.0
 30
0.0
  3
*D7
  1

  0
LINE
  5
36BC
  8
COTATION1
 62
     0
 10
632.857186
 20
-48.811105
 30
0.0
 11
618.077703
 21
-48.811105
 31
0.0
1001
ACAD
1000
RTLwPs
1070
   158
  0
LINE
  5
36BD
  8
COTATION1
 62
     0
 10
632.856426
 20
-60.811111
 30
0.0
 11
618.077703
 21
-60.811111
 31
0.0
1001
ACAD
1000
RTLwPs
1070
   158
  0
LINE
  5
36BE
  8
COTATION1
 62
     0
 10
618.577703
 20
-50.811105
 30
0.0
 11
618.577703
 21
-58.811111
 31
0.0
1001
ACAD
1000
RTLwPs
1070
   158
  0
INSERT
  5
36BF
  8
COTATION1
 62
     0
  2
_OPEN30
 10
618.577703
 20
-48.811105
 30
0.0
 41
2.0
 42
2.0
 43
2.0
 50
90.0
1001
ACAD
1000
RTLwPs
1070
   158
  0
INSERT
  5
36C0
  8
COTATION1
 62
     0
  2
_OPEN30
 10
618.577703
 20
-60.811111
 30
0.0
 41
2.0
 42
2.0
 43
2.0
 50
270.0
1001
ACAD
1000
RTLwPs
1070
   158
  0
TEXT
  5
36C1
  8
COTATION1
 62
     0
 10
617.977703
 20
-56.358727
 30
0.0
 40
2.0
  1
12
 50
90.0
1001
ACAD
1000
MTEXTBEGIN
1070
    73
1070
     1
1070
    44
1040
1.0
1070
    74
1070
     0
1000
MTEXTEND
1000
MTEXTBEGIN
1070
    73
1070
     1
1070
    44
1040
1.0
1070
    74
1070
     0
1000
MTEXTEND
  0
POINT
  5
36C2
  8
DEFPOINTS
 62
     0
 10
633.157186
 20
-48.811105
 30
0.0
  0
POINT
  5
36C3
  8
DEFPOINTS
 62
     0
 10
633.156426
 20
-60.811111
 30
0.0
  0
POINT
  5
36C4
  8
DEFPOINTS
 62
     0
 10
618.577703
 20
-60.811111
 30
0.0
  0
ENDBLK
  5
30CC
  8
0
  0
BLOCK
  8
0
  2
*D8
 70
     1
 10
0.0
 20
0.0
 30
0.0
  3
*D8
  1

  0
LINE
  5
3695
  8
COTATION1
 62
     0
 10
636.131271
 20
-63.811073
 30
0.0
 11
636.131271
 21
-74.397433
 31
0.0
1001
ACAD
1000
RTLwPs
1070
   158
  0
LINE
  5
3696
  8
COTATION1
 62
     0
 10
633.531283
 20
-63.811073
 30
0.0
 11
633.531283
 21
-74.397433
 31
0.0
1001
ACAD
1000
RTLwPs
1070
   158
  0
LINE
  5
3697
  8
COTATION1
 62
     0
 10
638.131271
 20
-73.897433
 30
0.0
 11
640.131271
 21
-73.897433
 31
0.0
1001
ACAD
1000
RTLwPs
1070
   158
  0
LINE
  5
3698
  8
COTATION1
 62
     0
 10
631.531283
 20
-73.897433
 30
0.0
 11
613.664616
 21
-73.897433
 31
0.0
1001
ACAD
1000
RTLwPs
1070
   158
  0
INSERT
  5
3699
  8
COTATION1
 62
     0
  2
_OPEN30
 10
636.131271
 20
-73.897433
 30
0.0
 41
2.0
 42
2.0
 43
2.0
 50
180.0
1001
ACAD
1000
RTLwPs
1070
   158
  0
INSERT
  5
369A
  8
COTATION1
 62
     0
  2
_OPEN30
 10
633.531283
 20
-73.897433
 30
0.0
 41
2.0
 42
2.0
 43
2.0
1001
ACAD
1000
RTLwPs
1070
   158
  0
TEXT
  5
369B
  8
COTATION1
 62
     0
 10
613.883664
 20
-73.297433
 30
0.0
 40
2.0
  1
M2.6x0.45
1001
ACAD
1000
MTEXTBEGIN
1070
    73
1070
     1
1070
    44
1040
1.0
1070
    74
1070
     0
1000
MTEXTEND
1000
MTEXTBEGIN
1070
    73
1070
     1
1070
    44
1040
1.0
1070
    74
1070
     0
1000
MTEXTEND
  0
POINT
  5
369C
  8
DEFPOINTS
 62
     0
 10
636.131271
 20
-63.511073
 30
0.0
  0
POINT
  5
369D
  8
DEFPOINTS
 62
     0
 10
633.531283
 20
-63.511073
 30
0.0
  0
POINT
  5
369E
  8
DEFPOINTS
 62
     0
 10
633.531283
 20
-73.897433
 30
0.0
  0
ENDBLK
  5
354D
  8
0
  0
ENDSEC
  0
SECTION
  2
ENTITIES
  0
INSERT
  5
32
  8
0
  2
COTE
 10
0.0
 20
0.0
 30
0.0
  0
INSERT
  5
36
  8
0
  2
FOND
 10
0.0
 20
0.0
 30
0.0
  0
INSERT
  5
24AE
  8
ALPHA
  2
SCH_ISO
 10
-66.27012
 20
-238.940658
 30
0.0
  0
LINE
  5
2FE7
  8
ALPHA
 10
637.874046
 20
-52.229983
 30
0.0
 11
637.841835
 21
-54.806102
 31
0.0
  0
LINE
  5
2FE8
  8
ALPHA
 10
631.850694
 20
-52.229983
 30
0.0
 11
631.857136
 21
-54.823281
 31
0.0
  0
POLYLINE
  5
2FE9
  8
ALPHA
 66
     1
 10
0.0
 20
0.0
 30
0.0
 70
     1
  0
VERTEX
  5
38B8
  8
ALPHA
 10
641.141616
 20
-54.830439
 30
0.0
  0
VERTEX
  5
38B9
  8
ALPHA
 10
641.141616
 20
-51.82091
 30
0.0
  0
VERTEX
  5
38BA
  8
ALPHA
 10
640.119113
 20
-51.305543
 30
0.0
  0
VERTEX
  5
38BB
  8
ALPHA
 10
629.585942
 20
-51.305543
 30
0.0
  0
VERTEX
  5
38BC
  8
ALPHA
 10
628.519419
 20
-51.961562
 30
0.0
  0
VERTEX
  5
38BD
  8
ALPHA
 10
628.519419
 20
-54.830439
 30
0.0
  0
SEQEND
  5
38BE
  8
ALPHA
  0
POLYLINE
  5
2FFF
  8
ALPHA
 66
     1
 10
0.0
 20
0.0
 30
0.0
 70
   128
  0
VERTEX
  5
38BF
  8
ALPHA
 10
631.850694
 20
-58.587607
 30
0.0
  0
VERTEX
  5
38C0
  8
ALPHA
 10
632.08739
 20
-58.925123
 30
0.0
  0
VERTEX
  5
38C1
  8
ALPHA
 10
632.732857
 20
-59.200769
 30
0.0
  0
VERTEX
  5
38C2
  8
ALPHA
 10
633.690162
 20
-59.386627
 30
0.0
  0
VERTEX
  5
38C3
  8
ALPHA
 10
634.86237
 20
-59.454784
 30
0.0
  0
VERTEX
  5
38C4
  8
ALPHA
 10
636.034578
 20
-59.386627
 30
0.0
  0
VERTEX
  5
38C5
  8
ALPHA
 10
636.991882
 20
-59.200769
 30
0.0
  0
VERTEX
  5
38C6
  8
ALPHA
 10
637.637349
 20
-58.925123
 30
0.0
  0
VERTEX
  5
38C7
  8
ALPHA
 10
637.874046
 20
-58.587607
 30
0.0
  0
SEQEND
  5
38C8
  8
ALPHA
  0
POLYLINE
  5
3000
  8
ALPHA
 66
     1
 10
0.0
 20
0.0
 30
0.0
 70
     1
  0
VERTEX
  5
38C9
  8
ALPHA
 10
641.141616
 20
-55.986435
 30
0.0
  0
VERTEX
  5
38CA
  8
ALPHA
 10
641.141616
 20
-58.99668
 30
0.0
  0
VERTEX
  5
38CB
  8
ALPHA
 10
640.119113
 20
-59.512762
 30
0.0
  0
VERTEX
  5
38CC
  8
ALPHA
 10
629.585942
 20
-59.512762
 30
0.0
  0
VERTEX
  5
38CD
  8
ALPHA
 10
628.519419
 20
-58.856743
 30
0.0
  0
VERTEX
  5
38CE
  8
ALPHA
 10
628.519419
 20
-55.986435
 30
0.0
  0
SEQEND
  5
38CF
  8
ALPHA
  0
POLYLINE
  5
3008
  8
ALPHA
 66
     1
 10
0.0
 20
0.0
 30
0.0
 70
     1
  0
VERTEX
  5
38D0
  8
ALPHA
 10
628.106767
 20
-54.830439
 30
0.0
  0
VERTEX
  5
38D1
  8
ALPHA
 10
641.484836
 20
-54.830439
 30
0.0
  0
VERTEX
  5
38D2
  8
ALPHA
 10
641.484836
 20
-55.986435
 30
0.0
  0
VERTEX
  5
38D3
  8
ALPHA
 10
628.106767
 20
-55.986435
 30
0.0
  0
SEQEND
  5
38D4
  8
ALPHA
  0
LINE
  5
301E
  8
ALPHA
 10
631.850694
 20
-58.587607
 30
0.0
 11
631.857136
 21
-55.995025
 31
0.0
  0
POLYLINE
  5
301F
  8
ALPHA
 66
     1
 10
0.0
 20
0.0
 30
0.0
 70
   128
  0
VERTEX
  5
38D5
  8
ALPHA
 10
628.565587
 20
-58.587607
 30
0.0
  0
VERTEX
  5
38D6
  8
ALPHA
 10
628.694625
 20
-58.925123
 30
0.0
  0
VERTEX
  5
38D7
  8
ALPHA
 10
629.046552
 20
-59.200769
 30
0.0
  0
VERTEX
  5
38D8
  8
ALPHA
 10
629.56859
 20
-59.386627
 30
0.0
  0
VERTEX
  5
38D9
  8
ALPHA
 10
630.207962
 20
-59.454784
 30
0.0
  0
VERTEX
  5
38DA
  8
ALPHA
 10
630.84754
 20
-59.386627
 30
0.0
  0
VERTEX
  5
38DB
  8
ALPHA
 10
631.369685
 20
-59.200769
 30
0.0
  0
VERTEX
  5
38DC
  8
ALPHA
 10
631.721651
 20
-58.925123
 30
0.0
  0
VERTEX
  5
38DD
  8
ALPHA
 10
631.850694
 20
-58.587607
 30
0.0
  0
SEQEND
  5
38DE
  8
ALPHA
  0
LINE
  5
3020
  8
ALPHA
 10
637.874046
 20
-58.587607
 30
0.0
 11
637.841835
 21
-56.012204
 31
0.0
  0
POLYLINE
  5
3021
  8
ALPHA
 66
     1
 10
0.0
 20
0.0
 30
0.0
 70
   128
  0
VERTEX
  5
38DF
  8
ALPHA
 10
637.874046
 20
-58.587607
 30
0.0
  0
VERTEX
  5
38E0
  8
ALPHA
 10
638.003139
 20
-58.925123
 30
0.0
  0
VERTEX
  5
38E1
  8
ALPHA
 10
638.355189
 20
-59.200769
 30
0.0
  0
VERTEX
  5
38E2
  8
ALPHA
 10
638.87735
 20
-59.386627
 30
0.0
  0
VERTEX
  5
38E3
  8
ALPHA
 10
639.516778
 20
-59.454784
 30
0.0
  0
VERTEX
  5
38E4
  8
ALPHA
 10
640.156205
 20
-59.386627
 30
0.0
  0
VERTEX
  5
38E5
  8
ALPHA
 10
640.678367
 20
-59.200769
 30
0.0
  0
VERTEX
  5
38E6
  8
ALPHA
 10
641.030417
 20
-58.925123
 30
0.0
  0
VERTEX
  5
38E7
  8
ALPHA
 10
641.15951
 20
-58.587607
 30
0.0
  0
SEQEND
  5
38E8
  8
ALPHA
  0
POLYLINE
  5
3022
  8
ALPHA
 66
     1
 10
0.0
 20
0.0
 30
0.0
 70
   128
210
0.0
220
0.0
230
-1.0
  0
VERTEX
  5
38E9
  8
ALPHA
 10
-631.850694
 20
-52.229983
 30
0.0
  0
VERTEX
  5
38EA
  8
ALPHA
 10
-632.08739
 20
-51.89288
 30
0.0
  0
VERTEX
  5
38EB
  8
ALPHA
 10
-632.732857
 20
-51.617448
 30
0.0
  0
VERTEX
  5
38EC
  8
ALPHA
 10
-633.690162
 20
-51.431667
 30
0.0
  0
VERTEX
  5
38ED
  8
ALPHA
 10
-634.86237
 20
-51.363522
 30
0.0
  0
VERTEX
  5
38EE
  8
ALPHA
 10
-636.034578
 20
-51.431667
 30
0.0
  0
VERTEX
  5
38EF
  8
ALPHA
 10
-636.991882
 20
-51.617448
 30
0.0
  0
VERTEX
  5
38F0
  8
ALPHA
 10
-637.637349
 20
-51.89288
 30
0.0
  0
VERTEX
  5
38F1
  8
ALPHA
 10
-637.874046
 20
-52.229983
 30
0.0
  0
SEQEND
  5
38F2
  8
ALPHA
  0
POLYLINE
  5
3034
  8
ALPHA
 66
     1
 10
0.0
 20
0.0
 30
0.0
 70
   128
210
0.0
220
0.0
230
-1.0
  0
VERTEX
  5
38F3
  8
ALPHA
 10
-628.565587
 20
-52.229983
 30
0.0
  0
VERTEX
  5
38F4
  8
ALPHA
 10
-628.694625
 20
-51.89288
 30
0.0
  0
VERTEX
  5
38F5
  8
ALPHA
 10
-629.046552
 20
-51.617448
 30
0.0
  0
VERTEX
  5
38F6
  8
ALPHA
 10
-629.56859
 20
-51.431667
 30
0.0
  0
VERTEX
  5
38F7
  8
ALPHA
 10
-630.207962
 20
-51.363522
 30
0.0
  0
VERTEX
  5
38F8
  8
ALPHA
 10
-630.84754
 20
-51.431667
 30
0.0
  0
VERTEX
  5
38F9
  8
ALPHA
 10
-631.369685
 20
-51.617448
 30
0.0
  0
VERTEX
  5
38FA
  8
ALPHA
 10
-631.721651
 20
-51.89288
 30
0.0
  0
VERTEX
  5
38FB
  8
ALPHA
 10
-631.850694
 20
-52.229983
 30
0.0
  0
SEQEND
  5
38FC
  8
ALPHA
  0
POLYLINE
  5
303B
  8
ALPHA
 66
     1
 10
0.0
 20
0.0
 30
0.0
 70
   128
210
0.0
220
0.0
230
-1.0
  0
VERTEX
  5
38FD
  8
ALPHA
 10
-637.874046
 20
-52.229983
 30
0.0
  0
VERTEX
  5
38FE
  8
ALPHA
 10
-638.003139
 20
-51.89288
 30
0.0
  0
VERTEX
  5
38FF
  8
ALPHA
 10
-638.355189
 20
-51.617448
 30
0.0
  0
VERTEX
  5
3900
  8
ALPHA
 10
-638.87735
 20
-51.431667
 30
0.0
  0
VERTEX
  5
3901
  8
ALPHA
 10
-639.516778
 20
-51.363522
 30
0.0
  0
VERTEX
  5
3902
  8
ALPHA
 10
-640.156205
 20
-51.431667
 30
0.0
  0
VERTEX
  5
3903
  8
ALPHA
 10
-640.678367
 20
-51.617448
 30
0.0
  0
VERTEX
  5
3904
  8
ALPHA
 10
-641.030417
 20
-51.89288
 30
0.0
  0
VERTEX
  5
3905
  8
ALPHA
 10
-641.15951
 20
-52.229983
 30
0.0
  0
SEQEND
  5
3906
  8
ALPHA
  0
DIMENSION
  5
3095
  8
COTATION1
  2
*D4
 10
618.577703
 20
-63.811073
 30
0.0
 11
618.577703
 21
-62.311092
 31
0.0
 70
   128
 13
633.156426
 23
-60.811111
 33
0.0
 14
633.829763
 24
-63.811073
 34
0.0
 50
90.0
  0
DIMENSION
  5
30A3
  8
COTATION1
  2
*D5
 10
633.830469
 20
-35.544084
 30
0.0
 11
627.801898
 21
-33.944084
 31
0.0
  1
Ø<>
 13
634.830517
 23
-48.678744
 33
0.0
 14
633.830469
 24
-48.811105
 34
0.0
  0
DIMENSION
  5
30B1
  8
COTATION1
  2
*D6
 10
636.857175
 20
-40.48893
 30
0.0
 11
649.836989
 21
-40.48893
 31
0.0
 70
   128
  1
M<>x0.7
 13
632.857186
 23
-49.111105
 33
0.0
 14
636.857175
 24
-49.111105
 34
0.0
1001
ACAD
1000
DSTYLE
1002
{
1070
   271
1070
     3
1002
}
  0
DIMENSION
  5
30BF
  8
COTATION1
  2
*D7
 10
618.577703
 20
-60.811111
 30
0.0
 11
618.577703
 21
-54.311108
 31
0.0
 70
   128
 13
633.157186
 23
-48.811105
 33
0.0
 14
633.156426
 24
-60.811111
 34
0.0
 50
90.0
  0
POLYLINE
  5
322D
  8
ALPHA
 66
     1
 10
0.0
 20
0.0
 30
0.0
 70
   128
  0
VERTEX
  5
3907
  8
ALPHA
 10
633.830469
 20
-21.444956
 30
0.0
  0
VERTEX
  5
3908
  8
ALPHA
 10
633.830469
 20
-21.52346
 30
0.0
  0
VERTEX
  5
3909
  8
ALPHA
 10
633.830469
 20
-21.75229
 30
0.0
  0
VERTEX
  5
390A
  8
ALPHA
 10
633.830469
 20
-22.121426
 30
0.0
  0
VERTEX
  5
390B
  8
ALPHA
 10
633.830469
 20
-22.620845
 30
0.0
  0
VERTEX
  5
390C
  8
ALPHA
 10
633.830469
 20
-23.970445
 30
0.0
  0
VERTEX
  5
390D
  8
ALPHA
 10
633.830469
 20
-25.720917
 30
0.0
  0
VERTEX
  5
390E
  8
ALPHA
 10
633.830469
 20
-27.792085
 30
0.0
  0
VERTEX
  5
390F
  8
ALPHA
 10
633.830469
 20
-30.103776
 30
0.0
  0
VERTEX
  5
3910
  8
ALPHA
 10
633.830469
 20
-35.12803
 30
0.0
  0
VERTEX
  5
3911
  8
ALPHA
 10
633.830469
 20
-40.152284
 30
0.0
  0
VERTEX
  5
3912
  8
ALPHA
 10
633.830469
 20
-42.463976
 30
0.0
  0
VERTEX
  5
3913
  8
ALPHA
 10
633.830469
 20
-44.535144
 30
0.0
  0
VERTEX
  5
3914
  8
ALPHA
 10
633.830469
 20
-46.285615
 30
0.0
  0
VERTEX
  5
3915
  8
ALPHA
 10
633.830469
 20
-47.635216
 30
0.0
  0
VERTEX
  5
3916
  8
ALPHA
 10
633.830469
 20
-48.134634
 30
0.0
  0
VERTEX
  5
3917
  8
ALPHA
 10
633.830469
 20
-48.50377
 30
0.0
  0
VERTEX
  5
3918
  8
ALPHA
 10
633.830469
 20
-48.732601
 30
0.0
  0
VERTEX
  5
3919
  8
ALPHA
 10
633.830469
 20
-48.811105
 30
0.0
  0
SEQEND
  5
391A
  8
ALPHA
  0
POLYLINE
  5
322F
  8
ALPHA
 66
     1
 10
0.0
 20
0.0
 30
0.0
 70
   128
  0
VERTEX
  5
391B
  8
ALPHA
 10
634.830517
 20
-48.811105
 30
0.0
  0
VERTEX
  5
391C
  8
ALPHA
 10
634.830517
 20
-48.743007
 30
0.0
  0
VERTEX
  5
391D
  8
ALPHA
 10
634.830517
 20
-48.544511
 30
0.0
  0
VERTEX
  5
391E
  8
ALPHA
 10
634.830517
 20
-47.791093
 30
0.0
  0
VERTEX
  5
391F
  8
ALPHA
 10
634.830517
 20
-46.620398
 30
0.0
  0
VERTEX
  5
3920
  8
ALPHA
 10
634.830517
 20
-45.101971
 30
0.0
  0
VERTEX
  5
3921
  8
ALPHA
 10
634.830517
 20
-43.305359
 30
0.0
  0
VERTEX
  5
3922
  8
ALPHA
 10
634.830517
 20
-41.300109
 30
0.0
  0
VERTEX
  5
3923
  8
ALPHA
 10
634.830517
 20
-36.941876
 30
0.0
  0
VERTEX
  5
3924
  8
ALPHA
 10
634.830517
 20
-32.583644
 30
0.0
  0
VERTEX
  5
3925
  8
ALPHA
 10
634.830517
 20
-30.578393
 30
0.0
  0
VERTEX
  5
3926
  8
ALPHA
 10
634.830517
 20
-28.781781
 30
0.0
  0
VERTEX
  5
3927
  8
ALPHA
 10
634.830517
 20
-27.263355
 30
0.0
  0
VERTEX
  5
3928
  8
ALPHA
 10
634.830517
 20
-26.092659
 30
0.0
  0
VERTEX
  5
3929
  8
ALPHA
 10
634.830517
 20
-25.339241
 30
0.0
  0
VERTEX
  5
392A
  8
ALPHA
 10
634.830517
 20
-25.140745
 30
0.0
  0
VERTEX
  5
392B
  8
ALPHA
 10
634.830517
 20
-25.072647
 30
0.0
  0
SEQEND
  5
392C
  8
ALPHA
  0
LINE
  5
32A8
  8
AXE
 10
655.883118
 20
-55.408437
 30
0.0
 11
623.800364
 21
-55.408437
 31
0.0
  0
LINE
  5
32A9
  8
AXE
 10
634.830517
 20
-13.065913
 30
0.0
 11
634.830517
 21
-89.428888
 31
0.0
  0
TEXT
  5
32AA
  8
AXE
 10
626.724301
 20
-89.381632
 30
0.0
 40
8.0
  1
Y
 72
     2
 11
633.200491
 21
-89.381632
 31
0.0
  0
TEXT
  5
32AB
  8
AXE
 10
649.339144
 20
-54.63809
 30
0.0
 40
8.0
  1
X
 72
     2
 11
655.815334
 21
-54.63809
 31
0.0
  0
LINE
  5
34DE
  8
ALPHA
 10
634.830517
 20
-21.444956
 30
0.0
 11
634.830517
 21
-25.072647
 31
0.0
  0
ARC
  5
34EB
  8
ALPHA
 10
627.830517
 20
-21.444956
 30
0.0
 40
7.0
 50
0.0
 51
90.0
  0
ARC
  5
34EC
  8
ALPHA
 10
627.830517
 20
-21.444956
 30
0.0
 40
6.0
 50
0.0
 51
90.0
  0
ARC
  5
34FC
  8
ALPHA
 10
641.830517
 20
-21.444956
 30
0.0
 40
6.0
 50
90.0
 51
180.0
  0
ARC
  5
34FD
  8
ALPHA
 10
641.830517
 20
-21.444956
 30
0.0
 40
7.0
 50
90.0
 51
180.0
  0
POLYLINE
  5
34FE
  8
ALPHA
 66
     1
 10
0.0
 20
0.0
 30
0.0
 70
   128
  0
VERTEX
  5
392D
  8
ALPHA
 10
635.830565
 20
-21.444956
 30
0.0
  0
VERTEX
  5
392E
  8
ALPHA
 10
635.830565
 20
-21.52346
 30
0.0
  0
VERTEX
  5
392F
  8
ALPHA
 10
635.830565
 20
-21.75229
 30
0.0
  0
VERTEX
  5
3930
  8
ALPHA
 10
635.830565
 20
-22.121426
 30
0.0
  0
VERTEX
  5
3931
  8
ALPHA
 10
635.830565
 20
-22.620845
 30
0.0
  0
VERTEX
  5
3932
  8
ALPHA
 10
635.830565
 20
-23.970445
 30
0.0
  0
VERTEX
  5
3933
  8
ALPHA
 10
635.830565
 20
-25.720917
 30
0.0
  0
VERTEX
  5
3934
  8
ALPHA
 10
635.830565
 20
-27.792085
 30
0.0
  0
VERTEX
  5
3935
  8
ALPHA
 10
635.830565
 20
-30.103776
 30
0.0
  0
VERTEX
  5
3936
  8
ALPHA
 10
635.830565
 20
-35.12803
 30
0.0
  0
VERTEX
  5
3937
  8
ALPHA
 10
635.830565
 20
-40.152284
 30
0.0
  0
VERTEX
  5
3938
  8
ALPHA
 10
635.830565
 20
-42.463976
 30
0.0
  0
VERTEX
  5
3939
  8
ALPHA
 10
635.830565
 20
-44.535144
 30
0.0
  0
VERTEX
  5
393A
  8
ALPHA
 10
635.830565
 20
-46.285615
 30
0.0
  0
VERTEX
  5
393B
  8
ALPHA
 10
635.830565
 20
-47.635216
 30
0.0
  0
VERTEX
  5
393C
  8
ALPHA
 10
635.830565
 20
-48.134634
 30
0.0
  0
VERTEX
  5
393D
  8
ALPHA
 10
635.830565
 20
-48.50377
 30
0.0
  0
VERTEX
  5
393E
  8
ALPHA
 10
635.830565
 20
-48.732601
 30
0.0
  0
VERTEX
  5
393F
  8
ALPHA
 10
635.830565
 20
-48.811105
 30
0.0
  0
SEQEND
  5
3940
  8
ALPHA
  0
POLYLINE
  5
34FF
  8
ALPHA
 66
     1
 10
0.0
 20
0.0
 30
0.0
 70
   128
  0
VERTEX
  5
3941
  8
ALPHA
 10
634.830517
 20
-48.811105
 30
0.0
  0
VERTEX
  5
3942
  8
ALPHA
 10
634.830517
 20
-48.743007
 30
0.0
  0
VERTEX
  5
3943
  8
ALPHA
 10
634.830517
 20
-48.544511
 30
0.0
  0
VERTEX
  5
3944
  8
ALPHA
 10
634.830517
 20
-47.791093
 30
0.0
  0
VERTEX
  5
3945
  8
ALPHA
 10
634.830517
 20
-46.620398
 30
0.0
  0
VERTEX
  5
3946
  8
ALPHA
 10
634.830517
 20
-45.101971
 30
0.0
  0
VERTEX
  5
3947
  8
ALPHA
 10
634.830517
 20
-43.305359
 30
0.0
  0
VERTEX
  5
3948
  8
ALPHA
 10
634.830517
 20
-41.300109
 30
0.0
  0
VERTEX
  5
3949
  8
ALPHA
 10
634.830517
 20
-36.941876
 30
0.0
  0
VERTEX
  5
394A
  8
ALPHA
 10
634.830517
 20
-32.583644
 30
0.0
  0
VERTEX
  5
394B
  8
ALPHA
 10
634.830517
 20
-30.578393
 30
0.0
  0
VERTEX
  5
394C
  8
ALPHA
 10
634.830517
 20
-28.781781
 30
0.0
  0
VERTEX
  5
394D
  8
ALPHA
 10
634.830517
 20
-27.263355
 30
0.0
  0
VERTEX
  5
394E
  8
ALPHA
 10
634.830517
 20
-26.092659
 30
0.0
  0
VERTEX
  5
394F
  8
ALPHA
 10
634.830517
 20
-25.339241
 30
0.0
  0
VERTEX
  5
3950
  8
ALPHA
 10
634.830517
 20
-25.140745
 30
0.0
  0
VERTEX
  5
3951
  8
ALPHA
 10
634.830517
 20
-25.072647
 30
0.0
  0
SEQEND
  5
3952
  8
ALPHA
  0
LINE
  5
3501
  8
ALPHA
 10
634.830517
 20
-21.444956
 30
0.0
 11
634.830517
 21
-25.072647
 31
0.0
  0
DIMENSION
  5
3540
  8
COTATION1
  2
*D8
 10
633.531283
 20
-73.897433
 30
0.0
 11
621.597949
 21
-72.297433
 31
0.0
  1
M<>x0.45
 13
636.131271
 23
-63.511073
 33
0.0
 14
633.531283
 24
-63.511073
 34
0.0
  0
POLYLINE
  5
365D
  8
ALPHA
 66
     1
 10
0.0
 20
0.0
 30
0.0
  0
VERTEX
  5
3953
  8
ALPHA
 10
636.131271
 20
-63.511073
 30
0.0
  0
VERTEX
  5
3954
  8
ALPHA
 10
636.131271
 20
-60.811111
 30
0.0
  0
SEQEND
  5
3955
  8
ALPHA
  0
LINE
  5
365E
  8
ALPHA_FIN
 10
635.831271
 20
-63.811073
 30
0.0
 11
635.831271
 21
-60.811111
 31
0.0
  0
POLYLINE
  5
365F
  8
ALPHA_FIN
 66
     1
 10
0.0
 20
0.0
 30
0.0
  0
VERTEX
  5
3956
  8
ALPHA_FIN
 10
633.829763
 20
-60.811111
 30
0.0
  0
VERTEX
  5
3957
  8
ALPHA_FIN
 10
633.829763
 20
-63.811073
 30
0.0
  0
SEQEND
  5
3958
  8
ALPHA_FIN
  0
POLYLINE
  5
3660
  8
ALPHA
 66
     1
 10
0.0
 20
0.0
 30
0.0
  0
VERTEX
  5
3959
  8
ALPHA
 10
633.531283
 20
-60.811111
 30
0.0
  0
VERTEX
  5
395A
  8
ALPHA
 10
633.531283
 20
-63.511073
 30
0.0
  0
SEQEND
  5
395B
  8
ALPHA
  0
POLYLINE
  5
3661
  8
ALPHA
 66
     1
 10
0.0
 20
0.0
 30
0.0
  0
VERTEX
  5
395C
  8
ALPHA
 10
633.829763
 20
-63.811073
 30
0.0
  0
VERTEX
  5
395D
  8
ALPHA
 10
635.831271
 20
-63.811073
 30
0.0
  0
SEQEND
  5
395E
  8
ALPHA
  0
LINE
  5
3662
  8
ALPHA
 10
636.131271
 20
-63.511073
 30
0.0
 11
635.831271
 21
-63.811073
 31
0.0
  0
LINE
  5
3663
  8
ALPHA_FIN
 10
633.531283
 20
-63.511073
 30
0.0
 11
636.131271
 21
-63.511073
 31
0.0
  0
LINE
  5
3664
  8
ALPHA
 10
633.531283
 20
-63.511073
 30
0.0
 11
633.829763
 21
-63.811073
 31
0.0
  0
LINE
  5
366E
  8
ALPHA
 10
633.157186
 20
-48.811105
 30
0.0
 11
632.857186
 21
-49.111105
 31
0.0
  0
LINE
  5
366F
  8
ALPHA_FIN
 10
636.857175
 20
-49.111105
 30
0.0
 11
632.857186
 21
-49.111105
 31
0.0
  0
LINE
  5
3670
  8
ALPHA_FIN
 10
632.857946
 20
-60.511111
 30
0.0
 11
636.857934
 21
-60.511111
 31
0.0
  0
LINE
  5
3671
  8
ALPHA
 10
632.857946
 20
-60.511111
 30
0.0
 11
633.156426
 21
-60.811111
 31
0.0
  0
POLYLINE
  5
3672
  8
ALPHA
 66
     1
 10
0.0
 20
0.0
 30
0.0
  0
VERTEX
  5
395F
  8
ALPHA
 10
632.857186
 20
-49.111105
 30
0.0
  0
VERTEX
  5
3960
  8
ALPHA
 10
632.857186
 20
-51.305543
 30
0.0
  0
SEQEND
  5
3961
  8
ALPHA
  0
POLYLINE
  5
3673
  8
ALPHA
 66
     1
 10
0.0
 20
0.0
 30
0.0
  0
VERTEX
  5
3962
  8
ALPHA
 10
632.857946
 20
-59.512762
 30
0.0
  0
VERTEX
  5
3963
  8
ALPHA
 10
632.857946
 20
-60.511111
 30
0.0
  0
SEQEND
  5
3964
  8
ALPHA
  0
POLYLINE
  5
3674
  8
ALPHA_FIN
 66
     1
 10
0.0
 20
0.0
 30
0.0
  0
VERTEX
  5
3965
  8
ALPHA_FIN
 10
636.557175
 20
-51.305543
 30
0.0
  0
VERTEX
  5
3966
  8
ALPHA_FIN
 10
636.557175
 20
-48.811105
 30
0.0
  0
SEQEND
  5
3967
  8
ALPHA_FIN
  0
POLYLINE
  5
3675
  8
ALPHA
 66
     1
 10
0.0
 20
0.0
 30
0.0
  0
VERTEX
  5
3968
  8
ALPHA
 10
636.857175
 20
-51.305543
 30
0.0
  0
VERTEX
  5
3969
  8
ALPHA
 10
636.857175
 20
-49.111105
 30
0.0
  0
SEQEND
  5
396A
  8
ALPHA
  0
LINE
  5
3676
  8
ALPHA
 10
636.557175
 20
-48.811105
 30
0.0
 11
636.857175
 21
-49.111105
 31
0.0
  0
LINE
  5
3677
  8
ALPHA_FIN
 10
633.157186
 20
-48.811105
 30
0.0
 11
633.157186
 21
-51.305543
 31
0.0
  0
POLYLINE
  5
3678
  8
ALPHA
 66
     1
 10
0.0
 20
0.0
 30
0.0
  0
VERTEX
  5
396B
  8
ALPHA
 10
636.557175
 20
-48.811105
 30
0.0
  0
VERTEX
  5
396C
  8
ALPHA
 10
633.157186
 20
-48.811105
 30
0.0
  0
SEQEND
  5
396D
  8
ALPHA
  0
POLYLINE
  5
3679
  8
ALPHA
 66
     1
 10
0.0
 20
0.0
 30
0.0
  0
VERTEX
  5
396E
  8
ALPHA
 10
636.857934
 20
-60.511111
 30
0.0
  0
VERTEX
  5
396F
  8
ALPHA
 10
636.857934
 20
-59.512762
 30
0.0
  0
SEQEND
  5
3970
  8
ALPHA
  0
POLYLINE
  5
367A
  8
ALPHA
 66
     1
 10
0.0
 20
0.0
 30
0.0
  0
VERTEX
  5
3971
  8
ALPHA
 10
633.156426
 20
-60.811111
 30
0.0
  0
VERTEX
  5
3972
  8
ALPHA
 10
636.557934
 20
-60.811111
 30
0.0
  0
SEQEND
  5
3973
  8
ALPHA
  0
LINE
  5
367B
  8
ALPHA_FIN
 10
636.557934
 20
-60.811111
 30
0.0
 11
636.557934
 21
-59.512762
 31
0.0
  0
LINE
  5
367C
  8
ALPHA
 10
636.857934
 20
-60.511111
 30
0.0
 11
636.557934
 21
-60.811111
 31
0.0
  0
POLYLINE
  5
367D
  8
ALPHA_FIN
 66
     1
 10
0.0
 20
0.0
 30
0.0
  0
VERTEX
  5
3974
  8
ALPHA_FIN
 10
633.156426
 20
-59.512762
 30
0.0
  0
VERTEX
  5
3975
  8
ALPHA_FIN
 10
633.156426
 20
-60.811111
 30
0.0
  0
SEQEND
  5
3976
  8
ALPHA_FIN
  0
ENDSEC
  0
EOF
