  0
SECTION
  2
HEADER
  9
$ACADVER
  1
AC1009
  9
$INSBASE
 10
402.590624
 20
-1.041018
 30
0.0
  9
$EXTMIN
 10
-7.705117
 20
-22.387099
 30
0.0
  9
$EXTMAX
 10
56.024073
 20
77.816512
 30
0.0
  9
$LIMMIN
 10
-407.970438
 20
-367.832444
  9
$LIMMAX
 10
429.804077
 20
234.370848
  9
$ORTHOMODE
 70
     1
  9
$REGENMODE
 70
     1
  9
$FILLMODE
 70
     1
  9
$QTEXTMODE
 70
     0
  9
$MIRRTEXT
 70
     1
  9
$DRAGMODE
 70
     2
  9
$LTSCALE
 40
10.0
  9
$OSMODE
 70
    35
  9
$ATTMODE
 70
     1
  9
$TEXTSIZE
 40
6.0
  9
$TRACEWID
 40
1.0
  9
$TEXTSTYLE
  7
ROMANS
  9
$CLAYER
  8
ALPHA
  9
$CELTYPE
  6
BYLAYER
  9
$CECOLOR
 62
   256
  9
$DIMSCALE
 40
1.0
  9
$DIMASZ
 40
5.0
  9
$DIMEXO
 40
2.0
  9
$DIMDLI
 40
0.38
  9
$DIMRND
 40
0.0
  9
$DIMDLE
 40
0.0
  9
$DIMEXE
 40
2.5
  9
$DIMTP
 40
0.0
  9
$DIMTM
 40
0.0
  9
$DIMTXT
 40
2.5
  9
$DIMCEN
 40
0.0
  9
$DIMTSZ
 40
0.0
  9
$DIMTOL
 70
     0
  9
$DIMLIM
 70
     0
  9
$DIMTIH
 70
     1
  9
$DIMTOH
 70
     1
  9
$DIMSE1
 70
     0
  9
$DIMSE2
 70
     0
  9
$DIMTAD
 70
     1
  9
$DIMZIN
 70
    12
  9
$DIMBLK
  1
OPEN30
  9
$DIMASO
 70
     1
  9
$DIMSHO
 70
     1
  9
$DIMPOST
  1

  9
$DIMAPOST
  1

  9
$DIMALT
 70
     0
  9
$DIMALTD
 70
     2
  9
$DIMALTF
 40
25.4
  9
$DIMLFAC
 40
1.0
  9
$DIMTOFL
 70
     0
  9
$DIMTVP
 40
0.0
  9
$DIMTIX
 70
     0
  9
$DIMSOXD
 70
     0
  9
$DIMSAH
 70
     0
  9
$DIMBLK1
  1

  9
$DIMBLK2
  1

  9
$DIMSTYLE
  2
SC_DEFAUT
  9
$DIMCLRD
 70
     0
  9
$DIMCLRE
 70
     0
  9
$DIMCLRT
 70
     0
  9
$DIMTFAC
 40
1.0
  9
$DIMGAP
 40
2.0
  9
$LUNITS
 70
     2
  9
$LUPREC
 70
     1
  9
$SKETCHINC
 40
0.1
  9
$FILLETRAD
 40
0.0
  9
$AUNITS
 70
     0
  9
$AUPREC
 70
     0
  9
$MENU
  1
acad
  9
$ELEVATION
 40
0.0
  9
$PELEVATION
 40
0.0
  9
$THICKNESS
 40
0.0
  9
$LIMCHECK
 70
     0
  9
$BLIPMODE
 70
     0
  9
$CHAMFERA
 40
0.0
  9
$CHAMFERB
 40
0.0
  9
$SKPOLY
 70
     0
  9
$TDCREATE
 40
2450373.687919
  9
$TDUPDATE
 40
2453035.67012
  9
$TDINDWG
 40
1.101081
  9
$TDUSRTIMER
 40
1.101081
  9
$USRTIMER
 70
     1
  9
$ANGBASE
 50
0.0
  9
$ANGDIR
 70
     0
  9
$PDMODE
 70
    32
  9
$PDSIZE
 40
0.0
  9
$PLINEWID
 40
0.0
  9
$COORDS
 70
     1
  9
$SPLFRAME
 70
     0
  9
$SPLINETYPE
 70
     6
  9
$SPLINESEGS
 70
     8
  9
$ATTDIA
 70
     0
  9
$ATTREQ
 70
     1
  9
$HANDLING
 70
     1
  9
$HANDSEED
  5
AE37
  9
$SURFTAB1
 70
     6
  9
$SURFTAB2
 70
     6
  9
$SURFTYPE
 70
     6
  9
$SURFU
 70
     6
  9
$SURFV
 70
     6
  9
$UCSNAME
  2

  9
$UCSORG
 10
0.0
 20
0.0
 30
0.0
  9
$UCSXDIR
 10
1.0
 20
0.0
 30
0.0
  9
$UCSYDIR
 10
0.0
 20
1.0
 30
0.0
  9
$PUCSNAME
  2

  9
$PUCSORG
 10
0.0
 20
0.0
 30
0.0
  9
$PUCSXDIR
 10
1.0
 20
0.0
 30
0.0
  9
$PUCSYDIR
 10
0.0
 20
1.0
 30
0.0
  9
$USERI1
 70
     0
  9
$USERI2
 70
     0
  9
$USERI3
 70
     0
  9
$USERI4
 70
     0
  9
$USERI5
 70
     0
  9
$USERR1
 40
0.0
  9
$USERR2
 40
0.0
  9
$USERR3
 40
0.0
  9
$USERR4
 40
0.0
  9
$USERR5
 40
0.0
  9
$WORLDVIEW
 70
     1
  9
$SHADEDGE
 70
     3
  9
$SHADEDIF
 70
    70
  9
$TILEMODE
 70
     1
  9
$MAXACTVP
 70
    16
  9
$PLIMCHECK
 70
     0
  9
$PEXTMIN
 10
-1.452248
 20
-0.437698
 30
0.0
  9
$PEXTMAX
 10
12.749749
 20
8.310198
 30
0.0
  9
$PLIMMIN
 10
0.0
 20
0.0
  9
$PLIMMAX
 10
12.0
 20
9.0
  9
$UNITMODE
 70
     0
  9
$VISRETAIN
 70
     0
  9
$PLINEGEN
 70
     0
  9
$PSLTSCALE
 70
     0
  0
ENDSEC
  0
SECTION
  2
TABLES
  0
TABLE
  2
VPORT
 70
     2
  0
VPORT
  2
*ACTIVE
 70
     0
 10
0.0
 20
0.0
 11
1.0
 21
1.0
 12
24.147666
 22
27.731024
 13
0.0
 23
0.0
 14
1.0
 24
1.0
 15
10.0
 25
10.0
 16
0.0
 26
0.0
 36
1.0
 17
0.0
 27
0.0
 37
0.0
 40
100.972917
 41
1.466346
 42
50.0
 43
0.0
 44
0.0
 50
0.0
 51
0.0
 71
     0
 72
   100
 73
     1
 74
     0
 75
     0
 76
     0
 77
     0
 78
     0
  0
ENDTAB
  0
TABLE
  2
LTYPE
 70
     3
  0
LTYPE
  2
CONTINUOUS
 70
     0
  3
Solid line
 72
    65
 73
     0
 40
0.0
  0
LTYPE
  2
AXES2
 70
     0
  3
___ _ ___ _ ___ _ ___ _ ___ _ ___ _ ___ _ ___ _
 72
    65
 73
     4
 40
1.125
 49
0.75
 49
-0.125
 49
0.125
 49
-0.125
  0
LTYPE
  2
CACHE2
 70
     0
  3
Caché (x.5) _ _ _ _ _ _ _ _ _ _ _ _ _ _ _ _ _
 72
    65
 73
     2
 40
0.1875
 49
0.125
 49
-0.0625
  0
ENDTAB
  0
TABLE
  2
LAYER
 70
     6
  0
LAYER
  2
0
 70
     0
 62
   255
  6
CONTINUOUS
  0
LAYER
  2
COTATION1
 70
     0
 62
     2
  6
CONTINUOUS
  0
LAYER
  2
AXE
 70
     0
 62
    80
  6
AXES2
  0
LAYER
  2
DEFPOINTS
 70
     0
 62
     7
  6
CONTINUOUS
  0
LAYER
  2
ALPHA
 70
     0
 62
   254
  6
CONTINUOUS
  0
LAYER
  2
POINTILLE_COURT
 70
     0
 62
    41
  6
CACHE2
  0
ENDTAB
  0
TABLE
  2
STYLE
 70
     2
  0
STYLE
  2
ROMANS
 70
     0
 40
0.0
 41
1.0
 50
0.0
 71
     0
 42
6.0
  3
romans
  4

  0
STYLE
  2
STANDARD
 70
     0
 40
0.0
 41
1.0
 50
0.0
 71
     0
 42
0.2
  3
txt
  4

  0
ENDTAB
  0
TABLE
  2
VIEW
 70
     0
  0
ENDTAB
  0
TABLE
  2
UCS
 70
     0
  0
ENDTAB
  0
TABLE
  2
APPID
 70
     1
  0
APPID
  2
ACAD
 70
     0
  0
ENDTAB
  0
TABLE
  2
DIMSTYLE
 70
     2
  0
DIMSTYLE
  2
SC_DEFAUT
 70
     0
  3

  4

  5
OPEN30
  6

  7

 40
1.0
 41
5.0
 42
2.0
 43
0.38
 44
2.5
 45
0.0
 46
0.0
 47
0.0
 48
0.0
140
2.5
141
0.0
142
0.0
143
25.4
144
1.0
145
0.0
146
1.0
147
2.0
 71
     0
 72
     0
 73
     1
 74
     1
 75
     0
 76
     0
 77
     1
 78
    12
170
     0
171
     2
172
     0
173
     0
174
     0
175
     0
176
     0
177
     0
178
     0
  0
DIMSTYLE
  2
STANDARD
 70
     0
  3

  4

  5

  6

  7

 40
1.0
 41
0.18
 42
0.0625
 43
0.38
 44
0.18
 45
0.0
 46
0.0
 47
0.0
 48
0.0
140
0.18
141
0.09
142
0.0
143
25.4
144
1.0
145
0.0
146
1.0
147
0.09
 71
     0
 72
     0
 73
     1
 74
     1
 75
     0
 76
     0
 77
     0
 78
     0
170
     0
171
     2
172
     0
173
     0
174
     0
175
     0
176
     0
177
     0
178
     0
  0
ENDTAB
  0
ENDSEC
  0
SECTION
  2
BLOCKS
  0
BLOCK
  8
0
  2
$MODEL_SPACE
 70
     0
 10
0.0
 20
0.0
 30
0.0
  3
$MODEL_SPACE
  1

  0
ENDBLK
  5
AE30
  8
0
  0
BLOCK
 67
     1
  8
0
  2
$PAPER_SPACE
 70
     0
 10
0.0
 20
0.0
 30
0.0
  3
$PAPER_SPACE
  1

  0
ENDBLK
  5
AE2E
 67
     1
  8
0
  0
BLOCK
  8
0
  2
COTE
 70
     0
 10
0.0
 20
0.0
 30
0.0
  3
COTE
  1

  0
ENDBLK
  5
F
  8
0
  0
BLOCK
  8
0
  2
FOND
 70
     0
 10
0.0
 20
0.0
 30
0.0
  3
FOND
  1

  0
ENDBLK
  5
75
  8
0
  0
BLOCK
  8
0
  2
_OPEN30
 70
     0
 10
0.0
 20
0.0
 30
0.0
  3
_OPEN30
  1

  0
LINE
  5
4B05
  8
COTATION1
 62
     0
 10
-1.0
 20
0.267949
 30
0.0
 11
0.0
 21
0.0
 31
0.0
1001
ACAD
1000
RTLwPs
1070
   158
  0
LINE
  5
4B06
  8
COTATION1
 62
     0
 10
0.0
 20
0.0
 30
0.0
 11
-1.0
 21
-0.267949
 31
0.0
1001
ACAD
1000
RTLwPs
1070
   158
  0
LINE
  5
4B07
  8
COTATION1
 62
     0
 10
0.0
 20
0.0
 30
0.0
 11
-1.0
 21
0.0
 31
0.0
1001
ACAD
1000
RTLwPs
1070
   158
  0
ENDBLK
  5
4B09
  8
0
  0
BLOCK
  8
0
  2
*D3
 70
     1
 10
0.0
 20
0.0
 30
0.0
  3
*D3
  1

  0
LINE
  5
AD27
  8
COTATION1
 62
     0
 10
7.185669
 20
65.243709
 30
0.0
 11
7.185669
 21
75.743709
 31
0.0
1001
ACAD
1000
RTLwPs
1070
   158
  0
LINE
  5
AD28
  8
COTATION1
 62
     0
 10
30.385669
 20
65.243709
 30
0.0
 11
30.385669
 21
75.743709
 31
0.0
1001
ACAD
1000
RTLwPs
1070
   158
  0
LINE
  5
AD29
  8
COTATION1
 62
     0
 10
12.185669
 20
73.243709
 30
0.0
 11
25.385669
 21
73.243709
 31
0.0
1001
ACAD
1000
RTLwPs
1070
   158
  0
INSERT
  5
AD2A
  8
COTATION1
 62
     0
  2
_OPEN30
 10
7.185669
 20
73.243709
 30
0.0
 41
5.0
 42
5.0
 43
5.0
 50
180.0
1001
ACAD
1000
RTLwPs
1070
   158
  0
INSERT
  5
AD2B
  8
COTATION1
 62
     0
  2
_OPEN30
 10
30.385669
 20
73.243709
 30
0.0
 41
5.0
 42
5.0
 43
5.0
1001
ACAD
1000
RTLwPs
1070
   158
  0
TEXT
  5
AD2C
  8
COTATION1
 62
     0
 10
14.619002
 20
75.243709
 30
0.0
 40
2.5
  1
23.2
1001
ACAD
1000
MTEXTBEGIN
1070
    73
1070
     1
1070
    44
1040
1.0
1070
    74
1070
     0
1000
MTEXTEND
  0
POINT
  5
AD2D
  8
DEFPOINTS
 62
     0
 10
7.185669
 20
63.243709
 30
0.0
  0
POINT
  5
AD2E
  8
DEFPOINTS
 62
     0
 10
30.385669
 20
63.243709
 30
0.0
  0
POINT
  5
AD2F
  8
DEFPOINTS
 62
     0
 10
30.385669
 20
73.243709
 30
0.0
  0
ENDBLK
  5
9B98
  8
0
  0
BLOCK
  8
0
  2
*D4
 70
     1
 10
0.0
 20
0.0
 30
0.0
  3
*D4
  1

  0
LINE
  5
AD52
  8
COTATION1
 62
     0
 10
3.335669
 20
52.243709
 30
0.0
 11
3.335669
 21
75.743709
 31
0.0
1001
ACAD
1000
RTLwPs
1070
   158
  0
LINE
  5
AD53
  8
COTATION1
 62
     0
 10
7.185669
 20
65.243709
 30
0.0
 11
7.185669
 21
75.743709
 31
0.0
1001
ACAD
1000
RTLwPs
1070
   158
  0
LINE
  5
AD54
  8
COTATION1
 62
     0
 10
-1.664331
 20
73.243709
 30
0.0
 11
-6.664331
 21
73.243709
 31
0.0
1001
ACAD
1000
RTLwPs
1070
   158
  0
LINE
  5
AD55
  8
COTATION1
 62
     0
 10
12.185669
 20
73.243709
 30
0.0
 11
17.185669
 21
73.243709
 31
0.0
1001
ACAD
1000
RTLwPs
1070
   158
  0
TEXT
  5
AD56
  8
COTATION1
 62
     0
 10
-8.06226
 20
75.316512
 30
0.0
 40
2.5
  1
3.8
1001
ACAD
1000
MTEXTBEGIN
1070
    73
1070
     1
1070
    44
1040
1.0
1070
    74
1070
     0
1000
MTEXTEND
  0
INSERT
  5
AD57
  8
COTATION1
 62
     0
  2
_OPEN30
 10
3.335669
 20
73.243709
 30
0.0
 41
5.0
 42
5.0
 43
5.0
1001
ACAD
1000
RTLwPs
1070
   158
  0
INSERT
  5
AD58
  8
COTATION1
 62
     0
  2
_OPEN30
 10
7.185669
 20
73.243709
 30
0.0
 41
5.0
 42
5.0
 43
5.0
 50
180.0
1001
ACAD
1000
RTLwPs
1070
   158
  0
POINT
  5
AD59
  8
DEFPOINTS
 62
     0
 10
3.335669
 20
50.243709
 30
0.0
  0
POINT
  5
AD5A
  8
DEFPOINTS
 62
     0
 10
7.185669
 20
63.243709
 30
0.0
  0
POINT
  5
AD5B
  8
DEFPOINTS
 62
     0
 10
7.185669
 20
73.243709
 30
0.0
  0
ENDBLK
  5
AD3D
  8
0
  0
BLOCK
  8
0
  2
*D5
 70
     1
 10
0.0
 20
0.0
 30
0.0
  3
*D5
  1

  0
LINE
  5
AD7C
  8
COTATION1
 62
     0
 10
3.335669
 20
48.243709
 30
0.0
 11
3.335669
 21
-8.135472
 31
0.0
1001
ACAD
1000
RTLwPs
1070
   158
  0
LINE
  5
AD7D
  8
COTATION1
 62
     0
 10
19.785669
 20
13.843709
 30
0.0
 11
19.785669
 21
-8.135472
 31
0.0
1001
ACAD
1000
RTLwPs
1070
   158
  0
LINE
  5
AD7E
  8
COTATION1
 62
     0
 10
8.335669
 20
-5.635472
 30
0.0
 11
14.785669
 21
-5.635472
 31
0.0
1001
ACAD
1000
RTLwPs
1070
   158
  0
INSERT
  5
AD7F
  8
COTATION1
 62
     0
  2
_OPEN30
 10
3.335669
 20
-5.635472
 30
0.0
 41
5.0
 42
5.0
 43
5.0
 50
180.0
1001
ACAD
1000
RTLwPs
1070
   158
  0
INSERT
  5
AD80
  8
COTATION1
 62
     0
  2
_OPEN30
 10
19.785669
 20
-5.635472
 30
0.0
 41
5.0
 42
5.0
 43
5.0
1001
ACAD
1000
RTLwPs
1070
   158
  0
TEXT
  5
AD81
  8
COTATION1
 62
     0
 10
7.215431
 20
-3.635472
 30
0.0
 40
2.5
  1
16.5
1001
ACAD
1000
MTEXTBEGIN
1070
    73
1070
     1
1070
    44
1040
1.0
1070
    74
1070
     0
1000
MTEXTEND
  0
POINT
  5
AD82
  8
DEFPOINTS
 62
     0
 10
3.335669
 20
50.243709
 30
0.0
  0
POINT
  5
AD83
  8
DEFPOINTS
 62
     0
 10
19.785669
 20
15.843709
 30
0.0
  0
POINT
  5
AD84
  8
DEFPOINTS
 62
     0
 10
19.785669
 20
-5.635472
 30
0.0
  0
ENDBLK
  5
AD72
  8
0
  0
ENDSEC
  0
SECTION
  2
ENTITIES
  0
INSERT
  5
A
  8
0
  2
COTE
 10
0.0
 20
0.0
 30
0.0
  0
INSERT
  5
17
  8
0
  2
COTE
 10
284.010391
 20
6.373258
 30
0.0
  0
INSERT
  5
72
  8
0
  2
FOND
 10
0.0
 20
0.0
 30
0.0
  0
DIMENSION
  5
9B8C
  8
COTATION1
  2
*D3
 10
30.385669
 20
73.243709
 30
0.0
 11
18.785669
 21
76.493709
 31
0.0
 13
7.185669
 23
63.243709
 33
0.0
 14
30.385669
 24
63.243709
 34
0.0
  0
LINE
  5
A6B4
  8
AXE
 10
7.185669
 20
37.243709
 30
0.0
 11
7.185669
 21
63.243709
 31
0.0
  0
LINE
  5
A6B6
  8
AXE
 10
-1.664331
 20
50.243709
 30
0.0
 11
44.235669
 21
50.243709
 31
0.0
  0
TEXT
  5
A6B7
  8
AXE
 10
40.18805
 20
51.243709
 30
0.0
 40
5.0
  1
Z
 72
     2
 11
44.235669
 21
51.243709
 31
0.0
  0
LINE
  5
A96C
  8
ALPHA
 10
17.785669
 20
35.825174
 30
0.0
 11
17.785669
 21
15.843709
 31
0.0
  0
LINE
  5
A96D
  8
ALPHA
 10
19.785669
 20
35.825174
 30
0.0
 11
19.785669
 21
15.843709
 31
0.0
  0
LINE
  5
A96E
  8
ALPHA
 10
19.785669
 20
15.843709
 30
0.0
 11
17.785669
 21
15.843709
 31
0.0
  0
LINE
  5
A986
  8
ALPHA
 10
17.707364
 20
36.093824
 30
0.0
 11
19.394147
 21
37.168423
 31
0.0
  0
ARC
  5
A987
  8
ALPHA
 10
17.285669
 20
35.825174
 30
0.0
 40
2.5
 50
0.0
 51
65.0
  0
LINE
  5
A988
  8
ALPHA
 10
19.785669
 20
23.843709
 30
0.0
 11
17.785669
 21
23.843709
 31
0.0
  0
LINE
  5
A989
  8
ALPHA
 10
19.785669
 20
24.72057
 30
0.0
 11
17.785669
 21
24.72057
 31
0.0
  0
LINE
  5
A98A
  8
ALPHA
 10
4.435669
 20
42.243709
 30
0.0
 11
4.435669
 21
58.243709
 31
0.0
  0
LINE
  5
A98B
  8
ALPHA
 10
9.935669
 20
58.243709
 30
0.0
 11
9.935669
 21
42.243709
 31
0.0
  0
LINE
  5
A98C
  8
ALPHA
 10
10.235669
 20
40.938472
 30
0.0
 11
10.235669
 21
54.743709
 31
0.0
  0
LINE
  5
A98D
  8
ALPHA
 10
12.235669
 20
41.257007
 30
0.0
 11
12.235669
 21
54.743709
 31
0.0
  0
ARC
  5
A98E
  8
ALPHA
 10
33.867794
 20
50.243709
 30
0.0
 40
30.5
 50
188.009903
 51
195.206288
  0
ARC
  5
A98F
  8
ALPHA
 10
12.235669
 20
40.938472
 30
0.0
 40
2.0
 50
180.0
 51
245.0
  0
LINE
  5
A990
  8
ALPHA
 10
12.235669
 20
40.938472
 30
0.0
 11
10.235669
 21
40.938472
 31
0.0
  0
LINE
  5
A991
  8
ALPHA
 10
4.435669
 20
42.243709
 30
0.0
 11
9.935669
 21
42.243709
 31
0.0
  0
ARC
  5
A992
  8
ALPHA
 10
17.285669
 20
35.825174
 30
0.0
 40
0.5
 50
0.0
 51
65.0
  0
LINE
  5
A993
  8
ALPHA
 10
12.235669
 20
40.938472
 30
0.0
 11
11.390432
 21
39.125857
 31
0.0
  0
ARC
  5
A994
  8
ALPHA
 10
12.735669
 20
41.257007
 30
0.0
 40
0.5
 50
180.0
 51
245.0
  0
LINE
  5
A995
  8
ALPHA
 10
17.496978
 20
36.278328
 30
0.0
 11
11.390432
 21
39.125857
 31
0.0
  0
LINE
  5
A996
  8
ALPHA
 10
18.342214
 20
38.090943
 30
0.0
 11
12.235669
 21
40.938472
 31
0.0
  0
ARC
  5
A997
  8
ALPHA
 10
33.867794
 20
50.243709
 30
0.0
 40
30.5
 50
164.793712
 51
171.990097
  0
LINE
  5
A998
  8
ALPHA
 10
10.235669
 20
54.743709
 30
0.0
 11
12.235669
 21
54.743709
 31
0.0
  0
LINE
  5
A999
  8
ALPHA
 10
12.235669
 20
50.736943
 30
0.0
 11
10.235669
 21
50.736943
 31
0.0
  0
LINE
  5
A99A
  8
ALPHA
 10
9.935669
 20
54.993709
 30
0.0
 11
10.185669
 21
54.993709
 31
0.0
  0
LINE
  5
A99B
  8
ALPHA
 10
10.185669
 20
53.218709
 30
0.0
 11
10.235669
 21
53.218709
 31
0.0
  0
LINE
  5
A99C
  8
ALPHA
 10
10.185669
 20
47.268709
 30
0.0
 11
10.235669
 21
47.268709
 31
0.0
  0
LINE
  5
A99D
  8
ALPHA
 10
9.935669
 20
45.493709
 30
0.0
 11
10.185669
 21
45.493709
 31
0.0
  0
LINE
  5
A99E
  8
ALPHA
 10
10.185669
 20
54.993709
 30
0.0
 11
10.185669
 21
45.493709
 31
0.0
  0
LINE
  5
A99F
  8
ALPHA
 10
3.575669
 20
54.393709
 30
0.0
 11
3.665352
 21
54.393709
 31
0.0
  0
LINE
  5
A9A0
  8
ALPHA
 10
3.335669
 20
49.243709
 30
0.0
 11
3.335669
 21
51.243709
 31
0.0
  0
LINE
  5
A9A1
  8
ALPHA
 10
3.575669
 20
46.093709
 30
0.0
 11
3.665352
 21
46.093709
 31
0.0
  0
ARC
  5
A9A2
  8
ALPHA
 10
33.826715
 20
49.982693
 30
0.0
 40
30.5
 50
181.388355
 51
187.325595
  0
LINE
  5
A9A3
  8
ALPHA
 10
3.575669
 20
46.093709
 30
0.0
 11
3.575669
 21
54.393709
 31
0.0
  0
LINE
  5
A9A4
  8
ALPHA
 10
3.665352
 20
45.993709
 30
0.0
 11
3.665352
 21
54.493709
 31
0.0
  0
ARC
  5
A9A5
  8
ALPHA
 10
33.826715
 20
50.504725
 30
0.0
 40
30.5
 50
172.674405
 51
178.611645
  0
LINE
  5
A9A6
  8
ALPHA
 10
12.235669
 20
52.293709
 30
0.0
 11
13.735669
 21
52.293709
 31
0.0
  0
LINE
  5
A9A7
  8
ALPHA
 10
12.235669
 20
48.193709
 30
0.0
 11
13.735669
 21
48.193709
 31
0.0
  0
LINE
  5
A9A8
  8
ALPHA
 10
13.735669
 20
52.293709
 30
0.0
 11
13.735669
 21
48.193709
 31
0.0
  0
LINE
  5
A9A9
  8
ALPHA
 10
4.435669
 20
58.243709
 30
0.0
 11
9.935669
 21
58.243709
 31
0.0
  0
LINE
  5
ACF8
  8
POINTILLE_COURT
 10
25.335669
 20
50.736943
 30
0.0
 11
27.335669
 21
50.736943
 31
0.0
  0
LINE
  5
ACF9
  8
POINTILLE_COURT
 10
27.335669
 20
54.743709
 30
0.0
 11
25.335669
 21
54.743709
 31
0.0
  0
LINE
  5
ACFA
  8
POINTILLE_COURT
 10
25.335669
 20
40.938472
 30
0.0
 11
27.335669
 21
40.938472
 31
0.0
  0
ARC
  5
ACFB
  8
POINTILLE_COURT
 10
25.335669
 20
40.938472
 30
0.0
 40
2.0
 50
295.0
 51
0.0
  0
LINE
  5
ACFC
  8
AXE
 10
30.385669
 20
37.243709
 30
0.0
 11
30.385669
 21
63.243709
 31
0.0
  0
LINE
  5
ACFD
  8
POINTILLE_COURT
 10
33.905985
 20
45.993709
 30
0.0
 11
33.905985
 21
54.493709
 31
0.0
  0
LINE
  5
ACFE
  8
POINTILLE_COURT
 10
33.995669
 20
46.093709
 30
0.0
 11
33.995669
 21
54.393709
 31
0.0
  0
LINE
  5
ACFF
  8
POINTILLE_COURT
 10
34.235669
 20
49.243709
 30
0.0
 11
34.235669
 21
51.243709
 31
0.0
  0
LINE
  5
AD00
  8
POINTILLE_COURT
 10
27.385669
 20
54.993709
 30
0.0
 11
27.385669
 21
45.493709
 31
0.0
  0
LINE
  5
AD01
  8
POINTILLE_COURT
 10
27.335669
 20
40.938472
 30
0.0
 11
27.335669
 21
54.743709
 31
0.0
  0
LINE
  5
AD02
  8
POINTILLE_COURT
 10
27.635669
 20
58.243709
 30
0.0
 11
27.635669
 21
42.243709
 31
0.0
  0
LINE
  5
AD03
  8
POINTILLE_COURT
 10
33.135669
 20
42.243709
 30
0.0
 11
33.135669
 21
58.243709
 31
0.0
  0
ARC
  5
AD04
  8
POINTILLE_COURT
 10
3.744622
 20
49.982693
 30
0.0
 40
30.5
 50
352.674405
 51
358.611645
  0
LINE
  5
AD05
  8
POINTILLE_COURT
 10
33.995669
 20
46.093709
 30
0.0
 11
33.905985
 21
46.093709
 31
0.0
  0
LINE
  5
AD06
  8
POINTILLE_COURT
 10
27.635669
 20
45.493709
 30
0.0
 11
27.385669
 21
45.493709
 31
0.0
  0
LINE
  5
AD07
  8
POINTILLE_COURT
 10
27.385669
 20
47.268709
 30
0.0
 11
27.335669
 21
47.268709
 31
0.0
  0
LINE
  5
AD08
  8
POINTILLE_COURT
 10
33.135669
 20
42.243709
 30
0.0
 11
27.635669
 21
42.243709
 31
0.0
  0
ARC
  5
AD09
  8
POINTILLE_COURT
 10
3.703543
 20
50.243709
 30
0.0
 40
30.5
 50
344.793712
 51
351.990097
  0
LINE
  5
AD0A
  8
POINTILLE_COURT
 10
33.135669
 20
58.243709
 30
0.0
 11
27.635669
 21
58.243709
 31
0.0
  0
ARC
  5
AD0B
  8
POINTILLE_COURT
 10
3.744622
 20
50.504725
 30
0.0
 40
30.5
 50
1.388355
 51
7.325595
  0
LINE
  5
AD0C
  8
POINTILLE_COURT
 10
33.995669
 20
54.393709
 30
0.0
 11
33.905985
 21
54.393709
 31
0.0
  0
LINE
  5
AD0D
  8
POINTILLE_COURT
 10
27.385669
 20
53.218709
 30
0.0
 11
27.335669
 21
53.218709
 31
0.0
  0
LINE
  5
AD0E
  8
POINTILLE_COURT
 10
27.635669
 20
54.993709
 30
0.0
 11
27.385669
 21
54.993709
 31
0.0
  0
ARC
  5
AD0F
  8
POINTILLE_COURT
 10
3.703543
 20
50.243709
 30
0.0
 40
30.5
 50
8.009903
 51
15.206288
  0
LINE
  5
AD10
  8
POINTILLE_COURT
 10
23.835669
 20
52.293709
 30
0.0
 11
23.835669
 21
48.193709
 31
0.0
  0
LINE
  5
AD11
  8
POINTILLE_COURT
 10
25.335669
 20
41.257007
 30
0.0
 11
25.335669
 21
54.743709
 31
0.0
  0
LINE
  5
AD12
  8
POINTILLE_COURT
 10
19.229123
 20
38.090943
 30
0.0
 11
25.335669
 21
40.938472
 31
0.0
  0
LINE
  5
AD13
  8
POINTILLE_COURT
 10
20.074359
 20
36.278328
 30
0.0
 11
26.180905
 21
39.125857
 31
0.0
  0
ARC
  5
AD14
  8
POINTILLE_COURT
 10
20.285669
 20
35.825174
 30
0.0
 40
2.5
 50
115.0
 51
180.0
  0
LINE
  5
AD15
  8
POINTILLE_COURT
 10
19.863973
 20
36.093824
 30
0.0
 11
18.17719
 21
37.168423
 31
0.0
  0
ARC
  5
AD16
  8
POINTILLE_COURT
 10
20.285669
 20
35.825174
 30
0.0
 40
0.5
 50
115.0
 51
180.0
  0
LINE
  5
AD17
  8
POINTILLE_COURT
 10
25.335669
 20
48.193709
 30
0.0
 11
23.835669
 21
48.193709
 31
0.0
  0
ARC
  5
AD18
  8
POINTILLE_COURT
 10
24.835669
 20
41.257007
 30
0.0
 40
0.5
 50
295.0
 51
0.0
  0
LINE
  5
AD19
  8
POINTILLE_COURT
 10
25.335669
 20
40.938472
 30
0.0
 11
26.180905
 21
39.125857
 31
0.0
  0
LINE
  5
AD1A
  8
POINTILLE_COURT
 10
25.335669
 20
52.293709
 30
0.0
 11
23.835669
 21
52.293709
 31
0.0
  0
DIMENSION
  5
AD30
  8
COTATION1
  2
*D4
 10
7.185669
 20
73.243709
 30
0.0
 11
-5.08607
 21
76.566512
 31
0.0
 70
   128
 13
3.335669
 23
50.243709
 33
0.0
 14
7.185669
 24
63.243709
 34
0.0
  0
LINE
  5
AD5C
  8
COTATION1
 10
29.524073
 20
-13.735824
 30
0.0
 11
56.024073
 21
-13.735824
 31
0.0
  0
LINE
  5
AD5D
  8
COTATION1
 10
56.024073
 20
-18.735824
 30
0.0
 11
29.524073
 21
-18.735824
 31
0.0
  0
TEXT
  5
AD5E
  8
COTATION1
 10
30.774073
 20
-17.485824
 30
0.0
 40
2.5
  1
PLANE_TO_LINE_UP
 41
0.626087
  7
STANDARD
 72
     5
 11
54.774073
 21
-17.485824
 31
0.0
  0
LINE
  5
AD5F
  8
AXE
 10
18.785669
 20
4.364528
 30
0.0
 11
18.785669
 21
41.888134
 31
0.0
  0
DIMENSION
  5
AD60
  8
COTATION1
  2
*D5
 10
19.785669
 20
-5.635472
 30
0.0
 11
11.560669
 21
-2.385472
 31
0.0
 13
3.335669
 23
50.243709
 33
0.0
 14
19.785669
 24
15.843709
 34
0.0
  0
LINE
  5
AD61
  8
COTATION1
 10
19.785669
 20
-8.135472
 30
0.0
 11
19.785669
 21
-22.387099
 31
0.0
  0
TEXT
  5
AD62
  8
AXE
 10
13.73805
 20
4.364528
 30
0.0
 40
5.0
  1
Y
 72
     2
 11
17.785669
 21
4.364528
 31
0.0
  0
LINE
  5
AD63
  8
COTATION1
 10
22.285669
 20
-16.235824
 30
0.0
 11
29.524073
 21
-16.235824
 31
0.0
  0
SOLID
  5
AD64
  8
COTATION1
 10
19.785669
 20
-17.6792
 30
0.0
 11
19.785669
 21
-14.792449
 31
0.0
 12
22.285669
 22
-16.235824
 32
0.0
 13
22.285669
 23
-16.235824
 33
0.0
  0
LINE
  5
AD65
  8
COTATION1
 10
29.524073
 20
-18.735824
 30
0.0
 11
29.524073
 21
-13.735824
 31
0.0
  0
LINE
  5
AD66
  8
COTATION1
 10
56.024073
 20
-13.735824
 30
0.0
 11
56.024073
 21
-18.735824
 31
0.0
  0
ENDSEC
  0
EOF
