  0
SECTION
  2
HEADER
  9
$ACADVER
  1
AC1014
  9
$ACADMAINTVER
 70
     0
  9
$DWGCODEPAGE
  3
ANSI_1252
  9
$INSBASE
 10
93.894301
 20
236.06014
 30
0.0
  9
$EXTMIN
 10
0.137787
 20
-6.535576
 30
0.0
  9
$EXTMAX
 10
56.870728
 20
61.70244
 30
0.0
  9
$LIMMIN
 10
0.0
 20
0.0
  9
$LIMMAX
 10
210.0
 20
297.0
  9
$ORTHOMODE
 70
     0
  9
$REGENMODE
 70
     1
  9
$FILLMODE
 70
     1
  9
$QTEXTMODE
 70
     0
  9
$MIRRTEXT
 70
     0
  9
$DRAGMODE
 70
     1
  9
$LTSCALE
 40
7.0
  9
$OSMODE
 70
  4095
  9
$ATTMODE
 70
     1
  9
$TEXTSIZE
 40
2.5
  9
$TRACEWID
 40
0.05
  9
$TEXTSTYLE
  7
STANDARD
  9
$CLAYER
  8
COTATION1
  9
$CELTYPE
  6
BYLAYER
  9
$CECOLOR
 62
   256
  9
$CELTSCALE
 40
1.0
  9
$DELOBJ
 70
     1
  9
$DISPSILH
 70
     0
  9
$DIMSCALE
 40
1.0
  9
$DIMASZ
 40
3.0
  9
$DIMEXO
 40
0.0625
  9
$DIMDLI
 40
0.38
  9
$DIMRND
 40
0.01
  9
$DIMDLE
 40
0.0
  9
$DIMEXE
 40
0.18
  9
$DIMTP
 40
0.0
  9
$DIMTM
 40
0.0
  9
$DIMTXT
 40
2.5
  9
$DIMCEN
 40
0.09
  9
$DIMTSZ
 40
0.0
  9
$DIMTOL
 70
     0
  9
$DIMLIM
 70
     0
  9
$DIMTIH
 70
     0
  9
$DIMTOH
 70
     0
  9
$DIMSE1
 70
     0
  9
$DIMSE2
 70
     0
  9
$DIMTAD
 70
     1
  9
$DIMZIN
 70
    12
  9
$DIMBLK
  1

  9
$DIMASO
 70
     1
  9
$DIMSHO
 70
     0
  9
$DIMPOST
  1

  9
$DIMAPOST
  1

  9
$DIMALT
 70
     0
  9
$DIMALTD
 70
     2
  9
$DIMALTF
 40
25.4
  9
$DIMLFAC
 40
1.0
  9
$DIMTOFL
 70
     1
  9
$DIMTVP
 40
0.0
  9
$DIMTIX
 70
     0
  9
$DIMSOXD
 70
     0
  9
$DIMSAH
 70
     0
  9
$DIMBLK1
  1

  9
$DIMBLK2
  1

  9
$DIMSTYLE
  2
SC_STAND
  9
$DIMCLRD
 70
     0
  9
$DIMCLRE
 70
     0
  9
$DIMCLRT
 70
     0
  9
$DIMTFAC
 40
1.0
  9
$DIMGAP
 40
1.0
  9
$DIMJUST
 70
     0
  9
$DIMSD1
 70
     0
  9
$DIMSD2
 70
     0
  9
$DIMTOLJ
 70
     1
  9
$DIMTZIN
 70
    12
  9
$DIMALTZ
 70
    12
  9
$DIMALTTZ
 70
    12
  9
$DIMFIT
 70
     5
  9
$DIMUPT
 70
     0
  9
$DIMUNIT
 70
     2
  9
$DIMDEC
 70
     3
  9
$DIMTDEC
 70
     3
  9
$DIMALTU
 70
     2
  9
$DIMALTTD
 70
     2
  9
$DIMTXSTY
  7
STANDARD
  9
$DIMAUNIT
 70
     0
  9
$LUNITS
 70
     2
  9
$LUPREC
 70
     3
  9
$SKETCHINC
 40
0.1
  9
$FILLETRAD
 40
0.0625
  9
$AUNITS
 70
     0
  9
$AUPREC
 70
     0
  9
$MENU
  1
ACAD
  9
$ELEVATION
 40
0.0
  9
$PELEVATION
 40
0.0
  9
$THICKNESS
 40
0.0
  9
$LIMCHECK
 70
     0
  9
$BLIPMODE
 70
     1
  9
$CHAMFERA
 40
0.0
  9
$CHAMFERB
 40
0.0
  9
$CHAMFERC
 40
0.0
  9
$CHAMFERD
 40
0.0
  9
$SKPOLY
 70
     0
  9
$TDCREATE
 40
2450953.590960648
  9
$TDUPDATE
 40
2453721.503443206
  9
$TDINDWG
 40
0.0136330787
  9
$TDUSRTIMER
 40
0.0136330787
  9
$USRTIMER
 70
     1
  9
$ANGBASE
 50
0.0
  9
$ANGDIR
 70
     0
  9
$PDMODE
 70
     0
  9
$PDSIZE
 40
0.0
  9
$PLINEWID
 40
0.0
  9
$COORDS
 70
     0
  9
$SPLFRAME
 70
     0
  9
$SPLINETYPE
 70
     6
  9
$SPLINESEGS
 70
     8
  9
$ATTDIA
 70
     0
  9
$ATTREQ
 70
     1
  9
$HANDLING
 70
     1
  9
$HANDSEED
  5
26CF
  9
$SURFTAB1
 70
     6
  9
$SURFTAB2
 70
     6
  9
$SURFTYPE
 70
     6
  9
$SURFU
 70
     6
  9
$SURFV
 70
     6
  9
$UCSNAME
  2

  9
$UCSORG
 10
0.0
 20
0.0
 30
0.0
  9
$UCSXDIR
 10
1.0
 20
0.0
 30
0.0
  9
$UCSYDIR
 10
0.0
 20
1.0
 30
0.0
  9
$PUCSNAME
  2

  9
$PUCSORG
 10
0.0
 20
0.0
 30
0.0
  9
$PUCSXDIR
 10
1.0
 20
0.0
 30
0.0
  9
$PUCSYDIR
 10
0.0
 20
1.0
 30
0.0
  9
$USERI1
 70
     0
  9
$USERI2
 70
     0
  9
$USERI3
 70
     0
  9
$USERI4
 70
     0
  9
$USERI5
 70
     0
  9
$USERR1
 40
0.0
  9
$USERR2
 40
0.0
  9
$USERR3
 40
0.0
  9
$USERR4
 40
0.0
  9
$USERR5
 40
0.0
  9
$WORLDVIEW
 70
     1
  9
$SHADEDGE
 70
     3
  9
$SHADEDIF
 70
    70
  9
$TILEMODE
 70
     1
  9
$MAXACTVP
 70
    32
  9
$PINSBASE
 10
0.0
 20
0.0
 30
0.0
  9
$PLIMCHECK
 70
     0
  9
$PEXTMIN
 10
-3.174999
 20
-3.175
 30
0.0
  9
$PEXTMAX
 10
203.812116
 20
370.276807
 30
0.0
  9
$PLIMMIN
 10
-3.175
 20
-3.175
  9
$PLIMMAX
 10
203.812115
 20
370.276807
  9
$UNITMODE
 70
     0
  9
$VISRETAIN
 70
     0
  9
$PLINEGEN
 70
     0
  9
$PSLTSCALE
 70
     1
  9
$TREEDEPTH
 70
  3020
  9
$PICKSTYLE
 70
     1
  9
$CMLSTYLE
  2
STANDARD
  9
$CMLJUST
 70
     0
  9
$CMLSCALE
 40
1.0
  9
$PROXYGRAPHICS
 70
     1
  9
$MEASUREMENT
 70
     0
  0
ENDSEC
  0
SECTION
  2
CLASSES
  0
CLASS
  1
DICTIONARYVAR
  2
AcDbDictionaryVar
  3
"AutoCAD"
 90
        0
280
     0
281
     0
  0
CLASS
  1
HATCH
  2
AcDbHatch
  3
"ACAD_SEDONA"
 90
        0
280
     0
281
     1
  0
ENDSEC
  0
SECTION
  2
TABLES
  0
TABLE
  2
VPORT
  5
F4
100
AcDbSymbolTable
 70
     4
  0
VPORT
  5
26CE
100
AcDbSymbolTableRecord
100
AcDbViewportTableRecord
  2
*ACTIVE
 70
     0
 10
0.0
 20
0.0
 11
1.0
 21
1.0
 12
28.504258
 22
27.583432
 13
0.0
 23
0.0
 14
1.0
 24
1.0
 15
10.0
 25
10.0
 16
0.0
 26
0.0
 36
1.0
 17
0.0
 27
0.0
 37
0.0
 40
68.77182
 41
1.643603
 42
50.0
 43
0.0
 44
0.0
 50
0.0
 51
0.0
 71
     0
 72
   100
 73
     1
 74
     1
 75
     0
 76
     1
 77
     0
 78
     0
  0
ENDTAB
  0
TABLE
  2
LTYPE
  5
F1
100
AcDbSymbolTable
 70
     5
  0
LTYPE
  5
FD
100
AcDbSymbolTableRecord
100
AcDbLinetypeTableRecord
  2
BYBLOCK
 70
     0
  3

 72
    65
 73
     0
 40
0.0
  0
LTYPE
  5
FE
100
AcDbSymbolTableRecord
100
AcDbLinetypeTableRecord
  2
BYLAYER
 70
     0
  3

 72
    65
 73
     0
 40
0.0
  0
LTYPE
  5
FF
100
AcDbSymbolTableRecord
100
AcDbLinetypeTableRecord
  2
CONTINUOUS
 70
     0
  3
Solid line
 72
    65
 73
     0
 40
0.0
  0
ENDTAB
  0
TABLE
  2
LAYER
  5
EE
100
AcDbSymbolTable
 70
     5
  0
LAYER
  5
FA
100
AcDbSymbolTableRecord
100
AcDbLayerTableRecord
  2
0
 70
     0
 62
     7
  6
CONTINUOUS
  0
LAYER
  5
12C
100
AcDbSymbolTableRecord
100
AcDbLayerTableRecord
  2
ALPHA
 70
     0
 62
   255
  6
CONTINUOUS
  0
LAYER
  5
12F
100
AcDbSymbolTableRecord
100
AcDbLayerTableRecord
  2
COTATION1
 70
     0
 62
     2
  6
CONTINUOUS
  0
LAYER
  5
13B
100
AcDbSymbolTableRecord
100
AcDbLayerTableRecord
  2
ASHADE
 70
     0
 62
     7
  6
CONTINUOUS
  0
LAYER
  5
13E
100
AcDbSymbolTableRecord
100
AcDbLayerTableRecord
  2
DEFPOINTS
 70
     0
 62
     7
  6
CONTINUOUS
  0
ENDTAB
  0
TABLE
  2
STYLE
  5
EF
100
AcDbSymbolTable
 70
     2
  0
STYLE
  5
FB
100
AcDbSymbolTableRecord
100
AcDbTextStyleTableRecord
  2
STANDARD
 70
     0
 40
0.0
 41
1.0
 50
0.0
 71
     0
 42
2.5
  3
txt
  4

  0
ENDTAB
  0
TABLE
  2
VIEW
  5
F2
100
AcDbSymbolTable
 70
     0
  0
ENDTAB
  0
TABLE
  2
UCS
  5
F3
100
AcDbSymbolTable
 70
     0
  0
ENDTAB
  0
TABLE
  2
APPID
  5
F5
100
AcDbSymbolTable
 70
     3
  0
APPID
  5
FC
100
AcDbSymbolTableRecord
100
AcDbRegAppTableRecord
  2
ACAD
 70
     0
  0
APPID
  5
127
100
AcDbSymbolTableRecord
100
AcDbRegAppTableRecord
  2
AVE_RENDER
 70
     0
  0
APPID
  5
128
100
AcDbSymbolTableRecord
100
AcDbRegAppTableRecord
  2
AVE_MATERIAL
 70
     0
  0
ENDTAB
  0
TABLE
  2
DIMSTYLE
  5
F6
100
AcDbSymbolTable
 70
     2
  0
DIMSTYLE
105
129
100
AcDbSymbolTableRecord
100
AcDbDimStyleTableRecord
  2
STANDARD
 70
     0
  3

  4

  5

  6

  7

 40
1.0
 41
0.18
 42
0.0625
 43
0.38
 44
0.18
 45
0.0
 46
0.0
 47
0.0
 48
0.0
140
0.18
141
0.09
142
0.0
143
25.4
144
1.0
145
0.0
146
1.0
147
0.09
 71
     0
 72
     0
 73
     1
 74
     1
 75
     0
 76
     0
 77
     0
 78
     0
170
     0
171
     2
172
     0
173
     0
174
     0
175
     0
176
     0
177
     0
178
     0
270
     2
271
     3
272
     3
273
     2
274
     2
340
FB
275
     0
280
     0
281
     0
282
     0
283
     1
284
    12
285
    12
286
    12
287
     5
288
     0
  0
DIMSTYLE
105
12A
102
{ACAD_REACTORS
330
2679
330
2691
330
269E
330
26C0
102
}
100
AcDbSymbolTableRecord
100
AcDbDimStyleTableRecord
  2
SC_STAND
 70
     0
  3

  4

  5

  6

  7

 40
1.0
 41
3.0
 42
0.0625
 43
0.38
 44
0.18
 45
0.01
 46
0.0
 47
0.0
 48
0.0
140
2.5
141
0.09
142
0.0
143
25.4
144
1.0
145
0.0
146
1.0
147
1.0
 71
     0
 72
     0
 73
     0
 74
     0
 75
     0
 76
     0
 77
     1
 78
    12
170
     0
171
     2
172
     1
173
     0
174
     0
175
     0
176
     0
177
     0
178
     0
270
     2
271
     3
272
     3
273
     2
274
     2
340
FB
275
     0
280
     0
281
     0
282
     0
283
     1
284
    12
285
    12
286
    12
287
     5
288
     0
  0
ENDTAB
  0
TABLE
  2
BLOCK_RECORD
  5
ED
100
AcDbSymbolTable
 70
    11
  0
BLOCK_RECORD
  5
103
100
AcDbSymbolTableRecord
100
AcDbBlockTableRecord
  2
*MODEL_SPACE
  0
BLOCK_RECORD
  5
100
100
AcDbSymbolTableRecord
100
AcDbBlockTableRecord
  2
*PAPER_SPACE
  0
BLOCK_RECORD
  5
108
100
AcDbSymbolTableRecord
100
AcDbBlockTableRecord
  2
AVE_RENDER
  0
BLOCK_RECORD
  5
109
100
AcDbSymbolTableRecord
100
AcDbBlockTableRecord
  2
AVE_GLOBAL
  0
BLOCK_RECORD
  5
10A
100
AcDbSymbolTableRecord
100
AcDbBlockTableRecord
  2
SCH_IS
  0
BLOCK_RECORD
  5
266D
100
AcDbSymbolTableRecord
100
AcDbBlockTableRecord
  2
*D7
  0
BLOCK_RECORD
  5
2685
100
AcDbSymbolTableRecord
100
AcDbBlockTableRecord
  2
*D8
  0
BLOCK_RECORD
  5
2692
100
AcDbSymbolTableRecord
100
AcDbBlockTableRecord
  2
*D9
  0
BLOCK_RECORD
  5
26B4
100
AcDbSymbolTableRecord
100
AcDbBlockTableRecord
  2
*D10
  0
ENDTAB
  0
ENDSEC
  0
SECTION
  2
BLOCKS
  0
BLOCK
  5
141
100
AcDbEntity
  8
0
100
AcDbBlockBegin
  2
*MODEL_SPACE
 70
     0
 10
0.0
 20
0.0
 30
0.0
  3
*MODEL_SPACE
  1

  0
ENDBLK
  5
142
100
AcDbEntity
  8
0
100
AcDbBlockEnd
  0
BLOCK
  5
13F
100
AcDbEntity
 67
     1
  8
0
100
AcDbBlockBegin
  2
*PAPER_SPACE
 70
     0
 10
0.0
 20
0.0
 30
0.0
  3
*PAPER_SPACE
  1

  0
ENDBLK
  5
140
100
AcDbEntity
 67
     1
  8
0
100
AcDbBlockEnd
  0
BLOCK
  5
8D
100
AcDbEntity
  8
0
100
AcDbBlockBegin
  2
AVE_RENDER
 70
     0
 10
0.0
 20
0.0
 30
0.0
  3
AVE_RENDER
  1
AVE_RENDER
  0
ENDBLK
  5
8E
100
AcDbEntity
  8
0
100
AcDbBlockEnd
  0
BLOCK
  5
90
100
AcDbEntity
  8
0
100
AcDbBlockBegin
  2
AVE_GLOBAL
 70
     0
 10
0.0
 20
0.0
 30
0.0
  3
AVE_GLOBAL
  1
AVE_GLOBAL
  0
ENDBLK
  5
91
100
AcDbEntity
  8
0
100
AcDbBlockEnd
  0
BLOCK
  5
C9
100
AcDbEntity
  8
0
100
AcDbBlockBegin
  2
SCH_IS
 70
     0
 10
0.0
 20
0.0
 30
0.0
  3
SCH_IS
  1

  0
INSERT
  5
C0
100
AcDbEntity
  8
ASHADE
 62
     1
100
AcDbBlockReference
  2
AVE_RENDER
 10
0.0
 20
0.0
 30
0.0
1001
AVE_RENDER
1002
{
1070
     6
1000
Pref
1070
    50
1070
    20
1070
     1
1070
     0
1000

1070
    10
1070
     1
1070
    30
1040
25.4
1070
     1
1040
0.3
1040
0.7
1040
0.0
1040
10.0
1010
-1.0
1020
-1.0
1030
-1.0
1040
0.3
1070
    49
1070
     0
1070
     0
1010
1.0
1020
1.0
1030
1.0
1040
45.0
1070
     1
1070
     0
1000
WCS
1040
0.0
1002
}
  0
INSERT
  5
C1
100
AcDbEntity
  8
ASHADE
 62
     3
100
AcDbBlockReference
  2
AVE_RENDER
 10
0.0
 20
0.0
 30
0.0
1001
AVE_RENDER
1002
{
1070
     0
1000
Full Opt
1070
     0
1070
     1
1070
     1
1070
     1
1070
     0
1070
     0
1070
     0
1070
     1
1070
     1
1040
0.0001
1040
0.0001
1002
}
  0
INSERT
  5
C2
100
AcDbEntity
  8
ASHADE
 62
     4
100
AcDbBlockReference
  2
AVE_RENDER
 10
0.0
 20
0.0
 30
0.0
1001
AVE_RENDER
1002
{
1070
     0
1000
Quick Opt
1070
     0
1070
     1
1070
     1
1070
     1
1070
     0
1070
     0
1070
     1
1002
}
  0
INSERT
  5
C3
100
AcDbEntity
  8
ASHADE
 62
     5
100
AcDbBlockReference
  2
AVE_RENDER
 10
0.0
 20
0.0
 30
0.0
1001
AVE_RENDER
1002
{
1070
     1
1000
Scanl Opt
1070
     2
1070
     0
1070
     2
1040
2.0
1040
4.0
1070
     0
1070
     1
1070
     0
1040
0.03
1002
}
  0
INSERT
  5
C4
100
AcDbEntity
  8
ASHADE
 62
     6
100
AcDbBlockReference
  2
AVE_RENDER
 10
0.0
 20
0.0
 30
0.0
1001
AVE_RENDER
1002
{
1070
     2
1000
Raytr Opt
1070
     2
1070
     0
1070
     2
1040
2.0
1040
4.0
1070
     0
1070
     1
1070
     1
1040
0.03
1070
     3
1040
0.03
1002
}
  0
INSERT
  5
C5
100
AcDbEntity
  8
ASHADE
 62
     7
100
AcDbBlockReference
  2
AVE_RENDER
 10
0.0
 20
0.0
 30
0.0
1001
AVE_RENDER
1002
{
1070
     0
1000
RFile Opt
1070
     5
1070
   640
1070
   480
1070
 10000
1070
     3
1070
    32
1070
    24
1070
     0
1070
     0
1070
     0
1070
     1
1070
     0
1070
     0
1070
     0
1002
}
  0
INSERT
  5
C6
100
AcDbEntity
  8
ASHADE
 62
     8
100
AcDbBlockReference
  2
AVE_RENDER
 10
0.0
 20
0.0
 30
0.0
1001
AVE_RENDER
1002
{
1070
     0
1000
Fog Opt
1070
     0
1070
     0
1040
0.0
1040
1.0
1040
0.0
1040
1.0
1010
0.5
1020
0.5
1030
0.5
1002
}
  0
INSERT
  5
C7
100
AcDbEntity
  8
ASHADE
 62
     9
100
AcDbBlockReference
  2
AVE_RENDER
 10
0.0
 20
0.0
 30
0.0
1001
AVE_RENDER
1002
{
1070
     0
1000
BG Opt
1070
     0
1070
     1
1010
0.0
1020
0.0
1030
0.0
1010
1.0
1020
0.0
1030
0.0
1010
0.0
1020
1.0
1030
0.0
1010
0.0
1020
0.0
1030
1.0
1040
0.5
1040
0.33
1040
0.0
1000

1070
     1
1000

1070
     1
1070
     1
1040
1.0
1040
1.0
1040
0.0
1040
0.0
1070
     0
1002
}
  0
INSERT
  5
C8
100
AcDbEntity
  8
ASHADE
 62
     1
100
AcDbBlockReference
  2
AVE_GLOBAL
 10
0.0
 20
0.0
 30
0.0
1001
AVE_MATERIAL
1002
{
1000
*GLOBAL*
1000
1
1000
Finition globale.
1002
{
1002
}
1002
{
1070
    63
1002
{
1002
{
1010
-1.0
1020
-1.0
1030
-1.0
1002
}
1040
0.1
1000

1040
0.0
1002
{
1002
}
1040
0.0
1002
{
1002
}
1040
0.0
1002
}
1002
{
1002
{
1010
-1.0
1020
-1.0
1030
-1.0
1002
}
1040
0.7
1000

1040
0.0
1002
{
1002
}
1040
0.0
1002
{
1002
}
1040
0.0
1002
}
1002
{
1002
{
1010
-1.0
1020
-1.0
1030
-1.0
1002
}
1040
0.2
1000

1040
0.0
1002
{
1002
}
1040
0.0
1002
{
1002
}
1040
0.0
1002
}
1002
{
1070
     0
1002
{
1070
     1
1002
{
1040
1.0
1040
1.0
1000

1040
0.0
1002
{
1002
}
1040
0.0
1002
{
1002
}
1040
0.0
1002
}
1002
}
1040
1.0
1040
0.0
1040
0.0
1002
}
1002
{
1040
1.0
1040
1.0
1000

1040
0.0
1002
{
1002
}
1040
0.0
1002
{
1002
}
1040
0.0
1002
}
1002
{
1040
0.5
1040
1.0
1000

1040
0.0
1002
{
1002
}
1040
0.0
1002
{
1002
}
1040
0.0
1002
}
1002
{
1070
     0
1040
0.0
1002
{
1002
}
1040
1.0
1002
{
1002
}
1040
0.0
1002
}
1002
{
1040
0.0
1002
{
1002
{
1010
0.0
1020
0.0
1030
0.0
1002
}
1040
1.0
1000

1040
0.0
1002
{
1002
}
1040
0.0
1002
{
1002
}
1040
0.0
1002
}
1002
}
1002
{
1002
{
1070
     1
1002
{
1040
0.0
1040
1.0
1000

1040
0.0
1002
{
1002
}
1040
0.0
1002
{
1002
}
1040
0.0
1002
}
1002
}
1040
0.0
1002
{
1002
}
1010
1.0
1020
0.0
1030
0.0
1010
0.0
1020
1.0
1030
0.0
1010
0.0
1020
0.0
1030
1.0
1070
     0
1002
}
1002
{
1002
{
1040
1.0
1040
1.0
1002
{
1070
     1
1002
{
1040
1.0
1040
1.0
1000

1040
0.0
1002
{
1002
}
1040
0.0
1002
{
1002
}
1040
0.0
1002
}
1002
}
1002
}
1070
     0
1040
0.0
1002
{
1002
}
1002
}
1002
{
1002
}
1002
}
1002
{
1071
        3
1070
     3
1070
     0
1002
{
1070
     2
1070
     0
1070
     0
1040
0.0
1002
}
1070
     0
1070
     2
1002
{
1002
}
1002
}
1002
{
1040
8030.0
1040
190.300003
1040
0.305
1040
228.0
1040
545.0
1040
14.0
1040
17.4
1040
0.456
1002
}
1002
}
  0
ENDBLK
  5
CA
100
AcDbEntity
  8
0
100
AcDbBlockEnd
  0
BLOCK
  5
267A
100
AcDbEntity
  8
0
100
AcDbBlockBegin
  2
*D7
 70
     1
 10
0.0
 20
0.0
 30
0.0
  3
*D7
  1

  0
LINE
  5
267B
100
AcDbEntity
  8
0
  6
BYBLOCK
 62
     0
100
AcDbLine
 10
6.218769
 20
52.52681
 30
0.0
 11
6.218769
 21
58.365098
 31
0.0
  0
LINE
  5
267C
100
AcDbEntity
  8
0
  6
BYBLOCK
 62
     0
100
AcDbLine
 10
36.217627
 20
52.52681
 30
0.0
 11
36.217627
 21
58.365098
 31
0.0
  0
LINE
  5
267D
100
AcDbEntity
  8
0
  6
BYBLOCK
 62
     0
100
AcDbLine
 10
9.218769
 20
58.185098
 30
0.0
 11
33.217627
 21
58.185098
 31
0.0
  0
SOLID
  5
267E
100
AcDbEntity
  8
0
  6
BYBLOCK
 62
     0
100
AcDbTrace
 10
9.218769
 20
58.685098
 30
0.0
 11
9.218769
 21
57.685098
 31
0.0
 12
6.218769
 22
58.185098
 32
0.0
 13
6.218769
 23
58.185098
 33
0.0
  0
SOLID
  5
267F
100
AcDbEntity
  8
0
  6
BYBLOCK
 62
     0
100
AcDbTrace
 10
33.217627
 20
58.685098
 30
0.0
 11
33.217627
 21
57.685098
 31
0.0
 12
36.217627
 22
58.185098
 32
0.0
 13
36.217627
 23
58.185098
 33
0.0
  0
MTEXT
  5
2680
100
AcDbEntity
  8
0
  6
BYBLOCK
 62
     0
100
AcDbMText
 10
21.218198
 20
60.435098
 30
0.0
 40
2.5
 41
0.0
 71
     5
 72
     1
  1
\A1;M30
  0
POINT
  5
2681
100
AcDbEntity
  8
DEFPOINTS
  6
BYBLOCK
 62
     0
100
AcDbPoint
 10
6.218769
 20
52.46431
 30
0.0
  0
POINT
  5
2682
100
AcDbEntity
  8
DEFPOINTS
  6
BYBLOCK
 62
     0
100
AcDbPoint
 10
36.217627
 20
52.46431
 30
0.0
  0
POINT
  5
2683
100
AcDbEntity
  8
DEFPOINTS
  6
BYBLOCK
 62
     0
100
AcDbPoint
 10
36.217627
 20
58.185098
 30
0.0
  0
ENDBLK
  5
2684
100
AcDbEntity
  8
0
100
AcDbBlockEnd
  0
BLOCK
  5
2686
100
AcDbEntity
  8
0
100
AcDbBlockBegin
  2
*D8
 70
     1
 10
0.0
 20
0.0
 30
0.0
  3
*D8
  1

  0
LINE
  5
2687
100
AcDbEntity
  8
0
  6
BYBLOCK
 62
     0
100
AcDbLine
 10
36.280127
 20
52.46431
 30
0.0
 11
48.979968
 21
52.46431
 31
0.0
  0
LINE
  5
2688
100
AcDbEntity
  8
0
  6
BYBLOCK
 62
     0
100
AcDbLine
 10
36.280127
 20
20.464196
 30
0.0
 11
48.979968
 21
20.464196
 31
0.0
  0
LINE
  5
2689
100
AcDbEntity
  8
0
  6
BYBLOCK
 62
     0
100
AcDbLine
 10
48.799968
 20
49.46431
 30
0.0
 11
48.799968
 21
23.464196
 31
0.0
  0
SOLID
  5
268A
100
AcDbEntity
  8
0
  6
BYBLOCK
 62
     0
100
AcDbTrace
 10
48.299968
 20
49.46431
 30
0.0
 11
49.299968
 21
49.46431
 31
0.0
 12
48.799968
 22
52.46431
 32
0.0
 13
48.799968
 23
52.46431
 33
0.0
  0
SOLID
  5
268B
100
AcDbEntity
  8
0
  6
BYBLOCK
 62
     0
100
AcDbTrace
 10
48.299968
 20
23.464196
 30
0.0
 11
49.299968
 21
23.464196
 31
0.0
 12
48.799968
 22
20.464196
 32
0.0
 13
48.799968
 23
20.464196
 33
0.0
  0
MTEXT
  5
268C
100
AcDbEntity
  8
0
  6
BYBLOCK
 62
     0
100
AcDbMText
 10
46.549968
 20
36.464253
 30
0.0
 40
2.5
 41
0.0
 71
     5
 72
     1
  1
\A1;32
 11
0.0
 21
1.0
 31
0.0
  0
POINT
  5
268D
100
AcDbEntity
  8
DEFPOINTS
  6
BYBLOCK
 62
     0
100
AcDbPoint
 10
36.217627
 20
52.46431
 30
0.0
  0
POINT
  5
268E
100
AcDbEntity
  8
DEFPOINTS
  6
BYBLOCK
 62
     0
100
AcDbPoint
 10
36.217627
 20
20.464196
 30
0.0
  0
POINT
  5
268F
100
AcDbEntity
  8
DEFPOINTS
  6
BYBLOCK
 62
     0
100
AcDbPoint
 10
48.799968
 20
20.464196
 30
0.0
  0
ENDBLK
  5
2690
100
AcDbEntity
  8
0
100
AcDbBlockEnd
  0
BLOCK
  5
269F
100
AcDbEntity
  8
0
100
AcDbBlockBegin
  2
*D9
 70
     1
 10
0.0
 20
0.0
 30
0.0
  3
*D9
  1

  0
LINE
  5
26A0
100
AcDbEntity
  8
0
  6
BYBLOCK
 62
     0
100
AcDbLine
 10
42.692547
 20
52.46431
 30
0.0
 11
56.537262
 21
52.46431
 31
0.0
  0
LINE
  5
26A1
100
AcDbEntity
  8
0
  6
BYBLOCK
 62
     0
100
AcDbLine
 10
26.530851
 20
-0.236005
 30
0.0
 11
56.537262
 21
-0.236005
 31
0.0
  0
LINE
  5
26A2
100
AcDbEntity
  8
0
  6
BYBLOCK
 62
     0
100
AcDbLine
 10
56.357262
 20
49.46431
 30
0.0
 11
56.357262
 21
2.763995
 31
0.0
  0
SOLID
  5
26A3
100
AcDbEntity
  8
0
  6
BYBLOCK
 62
     0
100
AcDbTrace
 10
55.857262
 20
49.46431
 30
0.0
 11
56.857262
 21
49.46431
 31
0.0
 12
56.357262
 22
52.46431
 32
0.0
 13
56.357262
 23
52.46431
 33
0.0
  0
SOLID
  5
26A4
100
AcDbEntity
  8
0
  6
BYBLOCK
 62
     0
100
AcDbTrace
 10
55.857262
 20
2.763995
 30
0.0
 11
56.857262
 21
2.763995
 31
0.0
 12
56.357262
 22
-0.236005
 32
0.0
 13
56.357262
 23
-0.236005
 33
0.0
  0
MTEXT
  5
26A5
100
AcDbEntity
  8
0
  6
BYBLOCK
 62
     0
100
AcDbMText
 10
54.107262
 20
26.114152
 30
0.0
 40
2.5
 41
0.0
 71
     5
 72
     1
  1
\A1;52.7
 11
0.0
 21
1.0
 31
0.0
  0
POINT
  5
26A6
100
AcDbEntity
  8
DEFPOINTS
  6
BYBLOCK
 62
     0
100
AcDbPoint
 10
42.630047
 20
52.46431
 30
0.0
  0
POINT
  5
26A7
100
AcDbEntity
  8
DEFPOINTS
  6
BYBLOCK
 62
     0
100
AcDbPoint
 10
26.468351
 20
-0.236005
 30
0.0
  0
POINT
  5
26A8
100
AcDbEntity
  8
DEFPOINTS
  6
BYBLOCK
 62
     0
100
AcDbPoint
 10
56.357262
 20
-0.236005
 30
0.0
  0
ENDBLK
  5
26A9
100
AcDbEntity
  8
0
100
AcDbBlockEnd
  0
BLOCK
  5
26C1
100
AcDbEntity
  8
0
100
AcDbBlockBegin
  2
*D10
 70
     1
 10
0.0
 20
0.0
 30
0.0
  3
*D10
  1

  0
LINE
  5
26C2
100
AcDbEntity
  8
0
  6
BYBLOCK
 62
     0
100
AcDbLine
 10
15.218047
 20
2.132113
 30
0.0
 11
15.218047
 21
-6.193692
 31
0.0
  0
LINE
  5
26C3
100
AcDbEntity
  8
0
  6
BYBLOCK
 62
     0
100
AcDbLine
 10
27.218004
 20
2.132113
 30
0.0
 11
27.218004
 21
-6.193692
 31
0.0
  0
LINE
  5
26C4
100
AcDbEntity
  8
0
  6
BYBLOCK
 62
     0
100
AcDbLine
 10
18.218047
 20
-6.013692
 30
0.0
 11
24.218004
 21
-6.013692
 31
0.0
  0
SOLID
  5
26C5
100
AcDbEntity
  8
0
  6
BYBLOCK
 62
     0
100
AcDbTrace
 10
18.218047
 20
-5.513692
 30
0.0
 11
18.218047
 21
-6.513692
 31
0.0
 12
15.218047
 22
-6.013692
 32
0.0
 13
15.218047
 23
-6.013692
 33
0.0
  0
SOLID
  5
26C6
100
AcDbEntity
  8
0
  6
BYBLOCK
 62
     0
100
AcDbTrace
 10
24.218004
 20
-5.513692
 30
0.0
 11
24.218004
 21
-6.513692
 31
0.0
 12
27.218004
 22
-6.013692
 32
0.0
 13
27.218004
 23
-6.013692
 33
0.0
  0
MTEXT
  5
26C7
100
AcDbEntity
  8
0
  6
BYBLOCK
 62
     0
100
AcDbMText
 10
21.218026
 20
-3.763692
 30
0.0
 40
2.5
 41
0.0
 71
     5
 72
     1
  1
\A1;M12
  0
POINT
  5
26C8
100
AcDbEntity
  8
DEFPOINTS
  6
BYBLOCK
 62
     0
100
AcDbPoint
 10
15.218047
 20
2.194613
 30
0.0
  0
POINT
  5
26C9
100
AcDbEntity
  8
DEFPOINTS
  6
BYBLOCK
 62
     0
100
AcDbPoint
 10
27.218004
 20
2.194613
 30
0.0
  0
POINT
  5
26CA
100
AcDbEntity
  8
DEFPOINTS
  6
BYBLOCK
 62
     0
100
AcDbPoint
 10
27.218004
 20
-6.013692
 30
0.0
  0
ENDBLK
  5
26CB
100
AcDbEntity
  8
0
100
AcDbBlockEnd
  0
ENDSEC
  0
SECTION
  2
ENTITIES
  0
INSERT
  5
CC
100
AcDbEntity
  8
0
100
AcDbBlockReference
  2
SCH_IS
 10
-68.718396
 20
-140.042541
 30
0.0
  0
INSERT
  5
EC
100
AcDbEntity
  8
COTATION1
100
AcDbBlockReference
  2
SCH_IS
 10
0.0
 20
0.0
 30
0.0
  0
POLYLINE
  5
24F9
100
AcDbEntity
  8
ALPHA
 62
   255
100
AcDb2dPolyline
 66
     1
 10
0.0
 20
0.0
 30
0.0
  0
VERTEX
  5
24FA
100
AcDbEntity
  8
ALPHA
 62
   255
100
AcDbVertex
100
AcDb2dVertex
 10
7.468305
 20
20.464196
 30
0.0
  0
VERTEX
  5
24FB
100
AcDbEntity
  8
ALPHA
 62
   255
100
AcDbVertex
100
AcDb2dVertex
 10
7.468305
 20
28.372757
 30
0.0
  0
SEQEND
  5
24FC
100
AcDbEntity
  8
ALPHA
  0
POLYLINE
  5
24FD
100
AcDbEntity
  8
ALPHA
 62
   255
100
AcDb2dPolyline
 66
     1
 10
0.0
 20
0.0
 30
0.0
  0
VERTEX
  5
24FE
100
AcDbEntity
  8
ALPHA
 62
   255
100
AcDbVertex
100
AcDb2dVertex
 10
34.967402
 20
20.464196
 30
0.0
  0
VERTEX
  5
24FF
100
AcDbEntity
  8
ALPHA
 62
   255
100
AcDbVertex
100
AcDb2dVertex
 10
34.967402
 20
28.372757
 30
0.0
  0
SEQEND
  5
2500
100
AcDbEntity
  8
ALPHA
  0
POLYLINE
  5
2501
100
AcDbEntity
  8
ALPHA
 62
   255
100
AcDb2dPolyline
 66
     1
 10
0.0
 20
0.0
 30
0.0
  0
VERTEX
  5
2502
100
AcDbEntity
  8
ALPHA
 62
   255
100
AcDbVertex
100
AcDb2dVertex
 10
7.468305
 20
52.46431
 30
0.0
  0
VERTEX
  5
2503
100
AcDbEntity
  8
ALPHA
 62
   255
100
AcDbVertex
100
AcDb2dVertex
 10
7.468305
 20
47.751763
 30
0.0
  0
SEQEND
  5
2504
100
AcDbEntity
  8
ALPHA
  0
POLYLINE
  5
2505
100
AcDbEntity
  8
ALPHA
 62
   255
100
AcDb2dPolyline
 66
     1
 10
0.0
 20
0.0
 30
0.0
  0
VERTEX
  5
2506
100
AcDbEntity
  8
ALPHA
 62
   255
100
AcDbVertex
100
AcDb2dVertex
 10
34.967402
 20
52.46431
 30
0.0
  0
VERTEX
  5
2507
100
AcDbEntity
  8
ALPHA
 62
   255
100
AcDbVertex
100
AcDb2dVertex
 10
34.967402
 20
47.751763
 30
0.0
  0
SEQEND
  5
2508
100
AcDbEntity
  8
ALPHA
  0
POLYLINE
  5
2509
100
AcDbEntity
  8
ALPHA
 62
   255
100
AcDb2dPolyline
 66
     1
 10
0.0
 20
0.0
 30
0.0
  0
VERTEX
  5
250A
100
AcDbEntity
  8
ALPHA
 62
   255
100
AcDbVertex
100
AcDb2dVertex
 10
6.218769
 20
39.751907
 30
0.0
  0
VERTEX
  5
250B
100
AcDbEntity
  8
ALPHA
 62
   255
100
AcDbVertex
100
AcDb2dVertex
 10
6.218769
 20
36.372269
 30
0.0
  0
SEQEND
  5
250C
100
AcDbEntity
  8
ALPHA
  0
POLYLINE
  5
250D
100
AcDbEntity
  8
ALPHA
 62
   255
100
AcDb2dPolyline
 66
     1
 10
0.0
 20
0.0
 30
0.0
  0
VERTEX
  5
250E
100
AcDbEntity
  8
ALPHA
 62
   255
100
AcDbVertex
100
AcDb2dVertex
 10
36.217627
 20
36.372269
 30
0.0
  0
VERTEX
  5
250F
100
AcDbEntity
  8
ALPHA
 62
   255
100
AcDbVertex
100
AcDb2dVertex
 10
36.217627
 20
39.751907
 30
0.0
  0
SEQEND
  5
2510
100
AcDbEntity
  8
ALPHA
  0
POLYLINE
  5
2511
100
AcDbEntity
  8
ALPHA
 62
   255
100
AcDb2dPolyline
 66
     1
 10
0.0
 20
0.0
 30
0.0
  0
VERTEX
  5
2512
100
AcDbEntity
  8
ALPHA
 62
   255
100
AcDbVertex
100
AcDb2dVertex
 10
7.468305
 20
39.751907
 30
0.0
  0
VERTEX
  5
2513
100
AcDbEntity
  8
ALPHA
 62
   255
100
AcDbVertex
100
AcDb2dVertex
 10
7.468305
 20
36.372269
 30
0.0
  0
SEQEND
  5
2514
100
AcDbEntity
  8
ALPHA
  0
POLYLINE
  5
2515
100
AcDbEntity
  8
ALPHA
 62
   255
100
AcDb2dPolyline
 66
     1
 10
0.0
 20
0.0
 30
0.0
  0
VERTEX
  5
2516
100
AcDbEntity
  8
ALPHA
 62
   255
100
AcDbVertex
100
AcDb2dVertex
 10
34.967402
 20
39.751907
 30
0.0
  0
VERTEX
  5
2517
100
AcDbEntity
  8
ALPHA
 62
   255
100
AcDbVertex
100
AcDb2dVertex
 10
34.967402
 20
36.372269
 30
0.0
  0
SEQEND
  5
2518
100
AcDbEntity
  8
ALPHA
  0
POLYLINE
  5
2519
100
AcDbEntity
  8
ALPHA
 62
   255
100
AcDb2dPolyline
 66
     1
 10
0.0
 20
0.0
 30
0.0
  0
VERTEX
  5
251A
100
AcDbEntity
  8
ALPHA
 62
   255
100
AcDbVertex
100
AcDb2dVertex
 10
15.968045
 20
0.764106
 30
0.0
  0
VERTEX
  5
251B
100
AcDbEntity
  8
ALPHA
 62
   255
100
AcDbVertex
100
AcDb2dVertex
 10
15.968045
 20
9.763729
 30
0.0
  0
SEQEND
  5
251C
100
AcDbEntity
  8
ALPHA
  0
POLYLINE
  5
251D
100
AcDbEntity
  8
ALPHA
 62
   255
100
AcDb2dPolyline
 66
     1
 10
0.0
 20
0.0
 30
0.0
  0
VERTEX
  5
251E
100
AcDbEntity
  8
ALPHA
 62
   255
100
AcDbVertex
100
AcDb2dVertex
 10
26.468351
 20
0.764106
 30
0.0
  0
VERTEX
  5
251F
100
AcDbEntity
  8
ALPHA
 62
   255
100
AcDbVertex
100
AcDb2dVertex
 10
26.468351
 20
9.763729
 30
0.0
  0
SEQEND
  5
2520
100
AcDbEntity
  8
ALPHA
  0
POLYLINE
  5
2521
100
AcDbEntity
  8
ALPHA
 62
   255
100
AcDb2dPolyline
 66
     1
 10
0.0
 20
0.0
 30
0.0
  0
VERTEX
  5
2522
100
AcDbEntity
  8
ALPHA
 62
   255
100
AcDbVertex
100
AcDb2dVertex
 10
15.968045
 20
9.763729
 30
0.0
  0
VERTEX
  5
2523
100
AcDbEntity
  8
ALPHA
 62
   255
100
AcDbVertex
100
AcDb2dVertex
 10
15.968045
 20
11.864204
 30
0.0
  0
SEQEND
  5
2524
100
AcDbEntity
  8
ALPHA
  0
POLYLINE
  5
2525
100
AcDbEntity
  8
ALPHA
 62
   255
100
AcDb2dPolyline
 66
     1
 10
0.0
 20
0.0
 30
0.0
  0
VERTEX
  5
2526
100
AcDbEntity
  8
ALPHA
 62
   255
100
AcDbVertex
100
AcDb2dVertex
 10
26.468351
 20
11.864204
 30
0.0
  0
VERTEX
  5
2527
100
AcDbEntity
  8
ALPHA
 62
   255
100
AcDbVertex
100
AcDb2dVertex
 10
26.468351
 20
9.763729
 30
0.0
  0
SEQEND
  5
2528
100
AcDbEntity
  8
ALPHA
  0
POLYLINE
  5
2529
100
AcDbEntity
  8
ALPHA
 62
   255
100
AcDb2dPolyline
 66
     1
 10
0.0
 20
0.0
 30
0.0
  0
VERTEX
  5
252A
100
AcDbEntity
  8
ALPHA
 62
   255
100
AcDbVertex
100
AcDb2dVertex
 10
26.968235
 20
9.763729
 30
0.0
  0
VERTEX
  5
252B
100
AcDbEntity
  8
ALPHA
 62
   255
100
AcDbVertex
100
AcDb2dVertex
 10
27.218004
 20
9.51396
 30
0.0
  0
SEQEND
  5
252C
100
AcDbEntity
  8
ALPHA
  0
POLYLINE
  5
252D
100
AcDbEntity
  8
ALPHA
 62
   255
100
AcDb2dPolyline
 66
     1
 10
0.0
 20
0.0
 30
0.0
  0
VERTEX
  5
252E
100
AcDbEntity
  8
ALPHA
 62
   255
100
AcDbVertex
100
AcDb2dVertex
 10
27.218004
 20
9.51396
 30
0.0
  0
VERTEX
  5
252F
100
AcDbEntity
  8
ALPHA
 62
   255
100
AcDbVertex
100
AcDb2dVertex
 10
27.218004
 20
1.013875
 30
0.0
  0
SEQEND
  5
2530
100
AcDbEntity
  8
ALPHA
  0
POLYLINE
  5
2531
100
AcDbEntity
  8
ALPHA
 62
   255
100
AcDb2dPolyline
 66
     1
 10
0.0
 20
0.0
 30
0.0
  0
VERTEX
  5
2532
100
AcDbEntity
  8
ALPHA
 62
   255
100
AcDbVertex
100
AcDb2dVertex
 10
27.218004
 20
1.013875
 30
0.0
  0
VERTEX
  5
2533
100
AcDbEntity
  8
ALPHA
 62
   255
100
AcDbVertex
100
AcDb2dVertex
 10
26.968235
 20
0.764106
 30
0.0
  0
SEQEND
  5
2534
100
AcDbEntity
  8
ALPHA
  0
POLYLINE
  5
2535
100
AcDbEntity
  8
ALPHA
 62
   255
100
AcDb2dPolyline
 66
     1
 10
0.0
 20
0.0
 30
0.0
  0
VERTEX
  5
2536
100
AcDbEntity
  8
ALPHA
 62
   255
100
AcDbVertex
100
AcDb2dVertex
 10
26.968235
 20
0.764106
 30
0.0
  0
VERTEX
  5
2537
100
AcDbEntity
  8
ALPHA
 62
   255
100
AcDbVertex
100
AcDb2dVertex
 10
15.467817
 20
0.764106
 30
0.0
  0
SEQEND
  5
2538
100
AcDbEntity
  8
ALPHA
  0
POLYLINE
  5
2539
100
AcDbEntity
  8
ALPHA
 62
   255
100
AcDb2dPolyline
 66
     1
 10
0.0
 20
0.0
 30
0.0
  0
VERTEX
  5
253A
100
AcDbEntity
  8
ALPHA
 62
   255
100
AcDbVertex
100
AcDb2dVertex
 10
15.467817
 20
0.764106
 30
0.0
  0
VERTEX
  5
253B
100
AcDbEntity
  8
ALPHA
 62
   255
100
AcDbVertex
100
AcDb2dVertex
 10
15.218047
 20
1.013875
 30
0.0
  0
SEQEND
  5
253C
100
AcDbEntity
  8
ALPHA
  0
POLYLINE
  5
253D
100
AcDbEntity
  8
ALPHA
 62
   255
100
AcDb2dPolyline
 66
     1
 10
0.0
 20
0.0
 30
0.0
  0
VERTEX
  5
253E
100
AcDbEntity
  8
ALPHA
 62
   255
100
AcDbVertex
100
AcDb2dVertex
 10
15.218047
 20
1.013875
 30
0.0
  0
VERTEX
  5
253F
100
AcDbEntity
  8
ALPHA
 62
   255
100
AcDbVertex
100
AcDb2dVertex
 10
15.218047
 20
9.51396
 30
0.0
  0
SEQEND
  5
2540
100
AcDbEntity
  8
ALPHA
  0
POLYLINE
  5
2541
100
AcDbEntity
  8
ALPHA
 62
   255
100
AcDb2dPolyline
 66
     1
 10
0.0
 20
0.0
 30
0.0
  0
VERTEX
  5
2542
100
AcDbEntity
  8
ALPHA
 62
   255
100
AcDbVertex
100
AcDb2dVertex
 10
15.218047
 20
9.51396
 30
0.0
  0
VERTEX
  5
2543
100
AcDbEntity
  8
ALPHA
 62
   255
100
AcDbVertex
100
AcDb2dVertex
 10
15.467817
 20
9.763729
 30
0.0
  0
SEQEND
  5
2544
100
AcDbEntity
  8
ALPHA
  0
POLYLINE
  5
2545
100
AcDbEntity
  8
ALPHA
 62
   255
100
AcDb2dPolyline
 66
     1
 10
0.0
 20
0.0
 30
0.0
  0
VERTEX
  5
2546
100
AcDbEntity
  8
ALPHA
 62
   255
100
AcDbVertex
100
AcDb2dVertex
 10
15.467817
 20
9.763729
 30
0.0
  0
VERTEX
  5
2547
100
AcDbEntity
  8
ALPHA
 62
   255
100
AcDbVertex
100
AcDb2dVertex
 10
26.968235
 20
9.763729
 30
0.0
  0
SEQEND
  5
2548
100
AcDbEntity
  8
ALPHA
  0
POLYLINE
  5
2549
100
AcDbEntity
  8
ALPHA
 62
   255
100
AcDb2dPolyline
 66
     1
 10
0.0
 20
0.0
 30
0.0
  0
VERTEX
  5
254A
100
AcDbEntity
  8
ALPHA
 62
   255
100
AcDbVertex
100
AcDb2dVertex
 10
15.968045
 20
0.764106
 30
0.0
  0
VERTEX
  5
254B
100
AcDbEntity
  8
ALPHA
 62
   255
100
AcDbVertex
100
AcDb2dVertex
 10
15.968045
 20
-0.236005
 30
0.0
  0
SEQEND
  5
254C
100
AcDbEntity
  8
ALPHA
  0
POLYLINE
  5
254D
100
AcDbEntity
  8
ALPHA
 62
   255
100
AcDb2dPolyline
 66
     1
 10
0.0
 20
0.0
 30
0.0
  0
VERTEX
  5
254E
100
AcDbEntity
  8
ALPHA
 62
   255
100
AcDbVertex
100
AcDb2dVertex
 10
15.968045
 20
-0.236005
 30
0.0
  0
VERTEX
  5
254F
100
AcDbEntity
  8
ALPHA
 62
   255
100
AcDbVertex
100
AcDb2dVertex
 10
26.468351
 20
-0.236005
 30
0.0
  0
SEQEND
  5
2550
100
AcDbEntity
  8
ALPHA
  0
POLYLINE
  5
2551
100
AcDbEntity
  8
ALPHA
 62
   255
100
AcDb2dPolyline
 66
     1
 10
0.0
 20
0.0
 30
0.0
  0
VERTEX
  5
2552
100
AcDbEntity
  8
ALPHA
 62
   255
100
AcDbVertex
100
AcDb2dVertex
 10
26.468351
 20
-0.236005
 30
0.0
  0
VERTEX
  5
2553
100
AcDbEntity
  8
ALPHA
 62
   255
100
AcDbVertex
100
AcDb2dVertex
 10
26.468351
 20
0.764106
 30
0.0
  0
SEQEND
  5
2554
100
AcDbEntity
  8
ALPHA
  0
POLYLINE
  5
2555
100
AcDbEntity
  8
ALPHA
 62
   255
100
AcDb2dPolyline
 66
     1
 10
0.0
 20
0.0
 30
0.0
  0
VERTEX
  5
2556
100
AcDbEntity
  8
ALPHA
 62
   255
100
AcDbVertex
100
AcDb2dVertex
 10
10.683957
 20
46.000621
 30
0.0
  0
VERTEX
  5
2557
100
AcDbEntity
  8
ALPHA
 62
   255
100
AcDbVertex
100
AcDb2dVertex
 10
10.683957
 20
41.502705
 30
0.0
  0
SEQEND
  5
2558
100
AcDbEntity
  8
ALPHA
  0
POLYLINE
  5
2559
100
AcDbEntity
  8
ALPHA
 62
   255
100
AcDb2dPolyline
 66
     1
 10
0.0
 20
0.0
 30
0.0
  0
VERTEX
  5
255A
100
AcDbEntity
  8
ALPHA
 62
   255
100
AcDbVertex
100
AcDb2dVertex
 10
31.752094
 20
46.000621
 30
0.0
  0
VERTEX
  5
255B
100
AcDbEntity
  8
ALPHA
 62
   255
100
AcDbVertex
100
AcDb2dVertex
 10
31.752094
 20
41.502705
 30
0.0
  0
SEQEND
  5
255C
100
AcDbEntity
  8
ALPHA
  0
POLYLINE
  5
255D
100
AcDbEntity
  8
ALPHA
 62
   255
100
AcDb3dPolyline
 66
     1
 10
0.0
 20
0.0
 30
0.0
 70
     8
  0
VERTEX
  5
255E
100
AcDbEntity
  8
ALPHA
 62
   255
100
AcDbVertex
100
AcDb3dPolylineVertex
 10
0.149889
 20
41.502705
 30
0.0
 70
    32
  0
VERTEX
  5
255F
100
AcDbEntity
  8
ALPHA
 62
   255
100
AcDbVertex
100
AcDb3dPolylineVertex
 10
0.155203
 20
41.497682
 30
0.0
 70
    32
  0
VERTEX
  5
2560
100
AcDbEntity
  8
ALPHA
 62
   255
100
AcDbVertex
100
AcDb3dPolylineVertex
 10
0.171089
 20
41.483042
 30
0.0
 70
    32
  0
VERTEX
  5
2561
100
AcDbEntity
  8
ALPHA
 62
   255
100
AcDbVertex
100
AcDb3dPolylineVertex
 10
0.234222
 20
41.427475
 30
0.0
 70
    32
  0
VERTEX
  5
2562
100
AcDbEntity
  8
ALPHA
 62
   255
100
AcDbVertex
100
AcDb3dPolylineVertex
 10
0.483487
 20
41.229143
 30
0.0
 70
    32
  0
VERTEX
  5
2563
100
AcDbEntity
  8
ALPHA
 62
   255
100
AcDbVertex
100
AcDb3dPolylineVertex
 10
1.454417
 20
40.627306
 30
0.0
 70
    32
  0
VERTEX
  5
2564
100
AcDbEntity
  8
ALPHA
 62
   255
100
AcDbVertex
100
AcDb3dPolylineVertex
 10
2.164883
 20
40.30587
 30
0.0
 70
    32
  0
VERTEX
  5
2565
100
AcDbEntity
  8
ALPHA
 62
   255
100
AcDbVertex
100
AcDb3dPolylineVertex
 10
3.017882
 20
40.025469
 30
0.0
 70
    32
  0
VERTEX
  5
2566
100
AcDbEntity
  8
ALPHA
 62
   255
100
AcDbVertex
100
AcDb3dPolylineVertex
 10
4.007816
 20
39.827137
 30
0.0
 70
    32
  0
VERTEX
  5
2567
100
AcDbEntity
  8
ALPHA
 62
   255
100
AcDbVertex
100
AcDb3dPolylineVertex
 10
5.129085
 20
39.751907
 30
0.0
 70
    32
  0
VERTEX
  5
2568
100
AcDbEntity
  8
ALPHA
 62
   255
100
AcDbVertex
100
AcDb3dPolylineVertex
 10
5.725267
 20
39.783149
 30
0.0
 70
    32
  0
VERTEX
  5
2569
100
AcDbEntity
  8
ALPHA
 62
   255
100
AcDbVertex
100
AcDb3dPolylineVertex
 10
6.374143
 20
39.874655
 30
0.0
 70
    32
  0
VERTEX
  5
256A
100
AcDbEntity
  8
ALPHA
 62
   255
100
AcDbVertex
100
AcDb3dPolylineVertex
 10
7.780689
 20
40.225134
 30
0.0
 70
    32
  0
VERTEX
  5
256B
100
AcDbEntity
  8
ALPHA
 62
   255
100
AcDbVertex
100
AcDb3dPolylineVertex
 10
9.250152
 20
40.776699
 30
0.0
 70
    32
  0
VERTEX
  5
256C
100
AcDbEntity
  8
ALPHA
 62
   255
100
AcDbVertex
100
AcDb3dPolylineVertex
 10
10.683957
 20
41.502705
 30
0.0
 70
    32
  0
SEQEND
  5
256D
100
AcDbEntity
  8
ALPHA
 62
   255
  0
POLYLINE
  5
256E
100
AcDbEntity
  8
ALPHA
 62
   255
100
AcDb3dPolyline
 66
     1
 10
0.0
 20
0.0
 30
0.0
 70
     8
  0
VERTEX
  5
256F
100
AcDbEntity
  8
ALPHA
 62
   255
100
AcDbVertex
100
AcDb3dPolylineVertex
 10
42.286507
 20
41.502705
 30
0.0
 70
    32
  0
VERTEX
  5
2570
100
AcDbEntity
  8
ALPHA
 62
   255
100
AcDbVertex
100
AcDb3dPolylineVertex
 10
42.281194
 20
41.497682
 30
0.0
 70
    32
  0
VERTEX
  5
2571
100
AcDbEntity
  8
ALPHA
 62
   255
100
AcDbVertex
100
AcDb3dPolylineVertex
 10
42.265311
 20
41.483042
 30
0.0
 70
    32
  0
VERTEX
  5
2572
100
AcDbEntity
  8
ALPHA
 62
   255
100
AcDbVertex
100
AcDb3dPolylineVertex
 10
42.202189
 20
41.427475
 30
0.0
 70
    32
  0
VERTEX
  5
2573
100
AcDbEntity
  8
ALPHA
 62
   255
100
AcDbVertex
100
AcDb3dPolylineVertex
 10
41.952957
 20
41.229143
 30
0.0
 70
    32
  0
VERTEX
  5
2574
100
AcDbEntity
  8
ALPHA
 62
   255
100
AcDbVertex
100
AcDb3dPolylineVertex
 10
40.982108
 20
40.627306
 30
0.0
 70
    32
  0
VERTEX
  5
2575
100
AcDbEntity
  8
ALPHA
 62
   255
100
AcDbVertex
100
AcDb3dPolylineVertex
 10
40.271665
 20
40.30587
 30
0.0
 70
    32
  0
VERTEX
  5
2576
100
AcDbEntity
  8
ALPHA
 62
   255
100
AcDbVertex
100
AcDb3dPolylineVertex
 10
39.418659
 20
40.025469
 30
0.0
 70
    32
  0
VERTEX
  5
2577
100
AcDbEntity
  8
ALPHA
 62
   255
100
AcDbVertex
100
AcDb3dPolylineVertex
 10
38.428679
 20
39.827137
 30
0.0
 70
    32
  0
VERTEX
  5
2578
100
AcDbEntity
  8
ALPHA
 62
   255
100
AcDbVertex
100
AcDb3dPolylineVertex
 10
37.307311
 20
39.751907
 30
0.0
 70
    32
  0
VERTEX
  5
2579
100
AcDbEntity
  8
ALPHA
 62
   255
100
AcDbVertex
100
AcDb3dPolylineVertex
 10
36.711043
 20
39.783149
 30
0.0
 70
    32
  0
VERTEX
  5
257A
100
AcDbEntity
  8
ALPHA
 62
   255
100
AcDbVertex
100
AcDb3dPolylineVertex
 10
36.062151
 20
39.874655
 30
0.0
 70
    32
  0
VERTEX
  5
257B
100
AcDbEntity
  8
ALPHA
 62
   255
100
AcDbVertex
100
AcDb3dPolylineVertex
 10
34.655664
 20
40.225134
 30
0.0
 70
    32
  0
VERTEX
  5
257C
100
AcDbEntity
  8
ALPHA
 62
   255
100
AcDbVertex
100
AcDb3dPolylineVertex
 10
33.186196
 20
40.776699
 30
0.0
 70
    32
  0
VERTEX
  5
257D
100
AcDbEntity
  8
ALPHA
 62
   255
100
AcDbVertex
100
AcDb3dPolylineVertex
 10
31.752094
 20
41.502705
 30
0.0
 70
    32
  0
SEQEND
  5
257E
100
AcDbEntity
  8
ALPHA
 62
   255
  0
POLYLINE
  5
257F
100
AcDbEntity
  8
ALPHA
 62
   255
100
AcDb2dPolyline
 66
     1
 10
0.0
 20
0.0
 30
0.0
  0
VERTEX
  5
2580
100
AcDbEntity
  8
ALPHA
 62
   255
100
AcDbVertex
100
AcDb2dVertex
 10
10.683957
 20
41.502705
 30
0.0
  0
VERTEX
  5
2581
100
AcDbEntity
  8
ALPHA
 62
   255
100
AcDbVertex
100
AcDb2dVertex
 10
16.190253
 20
40.225134
 30
0.0
  0
VERTEX
  5
2582
100
AcDbEntity
  8
ALPHA
 62
   255
100
AcDbVertex
100
AcDb2dVertex
 10
21.218026
 20
39.751907
 30
0.0
  0
VERTEX
  5
2583
100
AcDbEntity
  8
ALPHA
 62
   255
100
AcDbVertex
100
AcDb2dVertex
 10
26.246315
 20
40.225134
 30
0.0
  0
VERTEX
  5
2584
100
AcDbEntity
  8
ALPHA
 62
   255
100
AcDbVertex
100
AcDb2dVertex
 10
31.752094
 20
41.502705
 30
0.0
  0
SEQEND
  5
2585
100
AcDbEntity
  8
ALPHA
  0
POLYLINE
  5
2586
100
AcDbEntity
  8
ALPHA
 62
   255
100
AcDb3dPolyline
 66
     1
 10
0.0
 20
0.0
 30
0.0
 70
     8
  0
VERTEX
  5
2587
100
AcDbEntity
  8
ALPHA
 62
   255
100
AcDbVertex
100
AcDb3dPolylineVertex
 10
0.149889
 20
46.000621
 30
0.0
 70
    32
  0
VERTEX
  5
2588
100
AcDbEntity
  8
ALPHA
 62
   255
100
AcDbVertex
100
AcDb3dPolylineVertex
 10
0.155203
 20
46.005646
 30
0.0
 70
    32
  0
VERTEX
  5
2589
100
AcDbEntity
  8
ALPHA
 62
   255
100
AcDbVertex
100
AcDb3dPolylineVertex
 10
0.171089
 20
46.020291
 30
0.0
 70
    32
  0
VERTEX
  5
258A
100
AcDbEntity
  8
ALPHA
 62
   255
100
AcDbVertex
100
AcDb3dPolylineVertex
 10
0.234222
 20
46.075881
 30
0.0
 70
    32
  0
VERTEX
  5
258B
100
AcDbEntity
  8
ALPHA
 62
   255
100
AcDbVertex
100
AcDb3dPolylineVertex
 10
0.483487
 20
46.274291
 30
0.0
 70
    32
  0
VERTEX
  5
258C
100
AcDbEntity
  8
ALPHA
 62
   255
100
AcDbVertex
100
AcDb3dPolylineVertex
 10
1.454417
 20
46.876365
 30
0.0
 70
    32
  0
VERTEX
  5
258D
100
AcDbEntity
  8
ALPHA
 62
   255
100
AcDbVertex
100
AcDb3dPolylineVertex
 10
2.164883
 20
47.197927
 30
0.0
 70
    32
  0
VERTEX
  5
258E
100
AcDbEntity
  8
ALPHA
 62
   255
100
AcDbVertex
100
AcDb3dPolylineVertex
 10
3.017882
 20
47.478438
 30
0.0
 70
    32
  0
VERTEX
  5
258F
100
AcDbEntity
  8
ALPHA
 62
   255
100
AcDbVertex
100
AcDb3dPolylineVertex
 10
4.007816
 20
47.676849
 30
0.0
 70
    32
  0
VERTEX
  5
2590
100
AcDbEntity
  8
ALPHA
 62
   255
100
AcDbVertex
100
AcDb3dPolylineVertex
 10
5.129085
 20
47.752108
 30
0.0
 70
    32
  0
VERTEX
  5
2591
100
AcDbEntity
  8
ALPHA
 62
   255
100
AcDbVertex
100
AcDb3dPolylineVertex
 10
5.725267
 20
47.72085
 30
0.0
 70
    32
  0
VERTEX
  5
2592
100
AcDbEntity
  8
ALPHA
 62
   255
100
AcDbVertex
100
AcDb3dPolylineVertex
 10
6.374143
 20
47.629301
 30
0.0
 70
    32
  0
VERTEX
  5
2593
100
AcDbEntity
  8
ALPHA
 62
   255
100
AcDbVertex
100
AcDb3dPolylineVertex
 10
7.780689
 20
47.278666
 30
0.0
 70
    32
  0
VERTEX
  5
2594
100
AcDbEntity
  8
ALPHA
 62
   255
100
AcDbVertex
100
AcDb3dPolylineVertex
 10
9.250152
 20
46.72688
 30
0.0
 70
    32
  0
VERTEX
  5
2595
100
AcDbEntity
  8
ALPHA
 62
   255
100
AcDbVertex
100
AcDb3dPolylineVertex
 10
10.683957
 20
46.000621
 30
0.0
 70
    32
  0
SEQEND
  5
2596
100
AcDbEntity
  8
ALPHA
 62
   255
  0
POLYLINE
  5
2597
100
AcDbEntity
  8
ALPHA
 62
   255
100
AcDb3dPolyline
 66
     1
 10
0.0
 20
0.0
 30
0.0
 70
     8
  0
VERTEX
  5
2598
100
AcDbEntity
  8
ALPHA
 62
   255
100
AcDbVertex
100
AcDb3dPolylineVertex
 10
42.286507
 20
46.000621
 30
0.0
 70
    32
  0
VERTEX
  5
2599
100
AcDbEntity
  8
ALPHA
 62
   255
100
AcDbVertex
100
AcDb3dPolylineVertex
 10
42.281194
 20
46.005646
 30
0.0
 70
    32
  0
VERTEX
  5
259A
100
AcDbEntity
  8
ALPHA
 62
   255
100
AcDbVertex
100
AcDb3dPolylineVertex
 10
42.265311
 20
46.020291
 30
0.0
 70
    32
  0
VERTEX
  5
259B
100
AcDbEntity
  8
ALPHA
 62
   255
100
AcDbVertex
100
AcDb3dPolylineVertex
 10
42.202189
 20
46.075881
 30
0.0
 70
    32
  0
VERTEX
  5
259C
100
AcDbEntity
  8
ALPHA
 62
   255
100
AcDbVertex
100
AcDb3dPolylineVertex
 10
41.952957
 20
46.274291
 30
0.0
 70
    32
  0
VERTEX
  5
259D
100
AcDbEntity
  8
ALPHA
 62
   255
100
AcDbVertex
100
AcDb3dPolylineVertex
 10
40.982108
 20
46.876365
 30
0.0
 70
    32
  0
VERTEX
  5
259E
100
AcDbEntity
  8
ALPHA
 62
   255
100
AcDbVertex
100
AcDb3dPolylineVertex
 10
40.271665
 20
47.197927
 30
0.0
 70
    32
  0
VERTEX
  5
259F
100
AcDbEntity
  8
ALPHA
 62
   255
100
AcDbVertex
100
AcDb3dPolylineVertex
 10
39.418659
 20
47.478438
 30
0.0
 70
    32
  0
VERTEX
  5
25A0
100
AcDbEntity
  8
ALPHA
 62
   255
100
AcDbVertex
100
AcDb3dPolylineVertex
 10
38.428679
 20
47.676849
 30
0.0
 70
    32
  0
VERTEX
  5
25A1
100
AcDbEntity
  8
ALPHA
 62
   255
100
AcDbVertex
100
AcDb3dPolylineVertex
 10
37.307311
 20
47.752108
 30
0.0
 70
    32
  0
VERTEX
  5
25A2
100
AcDbEntity
  8
ALPHA
 62
   255
100
AcDbVertex
100
AcDb3dPolylineVertex
 10
36.711043
 20
47.72085
 30
0.0
 70
    32
  0
VERTEX
  5
25A3
100
AcDbEntity
  8
ALPHA
 62
   255
100
AcDbVertex
100
AcDb3dPolylineVertex
 10
36.062151
 20
47.629301
 30
0.0
 70
    32
  0
VERTEX
  5
25A4
100
AcDbEntity
  8
ALPHA
 62
   255
100
AcDbVertex
100
AcDb3dPolylineVertex
 10
34.655664
 20
47.278666
 30
0.0
 70
    32
  0
VERTEX
  5
25A5
100
AcDbEntity
  8
ALPHA
 62
   255
100
AcDbVertex
100
AcDb3dPolylineVertex
 10
33.186196
 20
46.72688
 30
0.0
 70
    32
  0
VERTEX
  5
25A6
100
AcDbEntity
  8
ALPHA
 62
   255
100
AcDbVertex
100
AcDb3dPolylineVertex
 10
31.752094
 20
46.000621
 30
0.0
 70
    32
  0
SEQEND
  5
25A7
100
AcDbEntity
  8
ALPHA
 62
   255
  0
POLYLINE
  5
25A8
100
AcDbEntity
  8
ALPHA
 62
   255
100
AcDb2dPolyline
 66
     1
 10
0.0
 20
0.0
 30
0.0
  0
VERTEX
  5
25A9
100
AcDbEntity
  8
ALPHA
 62
   255
100
AcDbVertex
100
AcDb2dVertex
 10
10.683957
 20
46.000621
 30
0.0
  0
VERTEX
  5
25AA
100
AcDbEntity
  8
ALPHA
 62
   255
100
AcDbVertex
100
AcDb2dVertex
 10
16.190253
 20
47.278666
 30
0.0
  0
VERTEX
  5
25AB
100
AcDbEntity
  8
ALPHA
 62
   255
100
AcDbVertex
100
AcDb2dVertex
 10
21.218026
 20
47.752108
 30
0.0
  0
VERTEX
  5
25AC
100
AcDbEntity
  8
ALPHA
 62
   255
100
AcDbVertex
100
AcDb2dVertex
 10
26.246315
 20
47.278666
 30
0.0
  0
VERTEX
  5
25AD
100
AcDbEntity
  8
ALPHA
 62
   255
100
AcDbVertex
100
AcDb2dVertex
 10
31.752094
 20
46.000621
 30
0.0
  0
SEQEND
  5
25AE
100
AcDbEntity
  8
ALPHA
  0
POLYLINE
  5
25AF
100
AcDbEntity
  8
ALPHA
 62
   255
100
AcDb2dPolyline
 66
     1
 10
0.0
 20
0.0
 30
0.0
  0
VERTEX
  5
25B0
100
AcDbEntity
  8
ALPHA
 62
   255
100
AcDbVertex
100
AcDb2dVertex
 10
10.683957
 20
34.620782
 30
0.0
  0
VERTEX
  5
25B1
100
AcDbEntity
  8
ALPHA
 62
   255
100
AcDbVertex
100
AcDb2dVertex
 10
10.683957
 20
30.122865
 30
0.0
  0
SEQEND
  5
25B2
100
AcDbEntity
  8
ALPHA
  0
POLYLINE
  5
25B3
100
AcDbEntity
  8
ALPHA
 62
   255
100
AcDb2dPolyline
 66
     1
 10
0.0
 20
0.0
 30
0.0
  0
VERTEX
  5
25B4
100
AcDbEntity
  8
ALPHA
 62
   255
100
AcDbVertex
100
AcDb2dVertex
 10
31.752094
 20
34.620782
 30
0.0
  0
VERTEX
  5
25B5
100
AcDbEntity
  8
ALPHA
 62
   255
100
AcDbVertex
100
AcDb2dVertex
 10
31.752094
 20
30.122865
 30
0.0
  0
SEQEND
  5
25B6
100
AcDbEntity
  8
ALPHA
  0
POLYLINE
  5
25B7
100
AcDbEntity
  8
ALPHA
 62
   255
100
AcDb3dPolyline
 66
     1
 10
0.0
 20
0.0
 30
0.0
 70
     8
  0
VERTEX
  5
25B8
100
AcDbEntity
  8
ALPHA
 62
   255
100
AcDbVertex
100
AcDb3dPolylineVertex
 10
0.149889
 20
30.122865
 30
0.0
 70
    32
  0
VERTEX
  5
25B9
100
AcDbEntity
  8
ALPHA
 62
   255
100
AcDbVertex
100
AcDb3dPolylineVertex
 10
0.155203
 20
30.117844
 30
0.0
 70
    32
  0
VERTEX
  5
25BA
100
AcDbEntity
  8
ALPHA
 62
   255
100
AcDbVertex
100
AcDb3dPolylineVertex
 10
0.171089
 20
30.103207
 30
0.0
 70
    32
  0
VERTEX
  5
25BB
100
AcDbEntity
  8
ALPHA
 62
   255
100
AcDbVertex
100
AcDb3dPolylineVertex
 10
0.234222
 20
30.047651
 30
0.0
 70
    32
  0
VERTEX
  5
25BC
100
AcDbEntity
  8
ALPHA
 62
   255
100
AcDbVertex
100
AcDb3dPolylineVertex
 10
0.483487
 20
29.849357
 30
0.0
 70
    32
  0
VERTEX
  5
25BD
100
AcDbEntity
  8
ALPHA
 62
   255
100
AcDbVertex
100
AcDb3dPolylineVertex
 10
1.454417
 20
29.247639
 30
0.0
 70
    32
  0
VERTEX
  5
25BE
100
AcDbEntity
  8
ALPHA
 62
   255
100
AcDbVertex
100
AcDb3dPolylineVertex
 10
2.164883
 20
28.926267
 30
0.0
 70
    32
  0
VERTEX
  5
25BF
100
AcDbEntity
  8
ALPHA
 62
   255
100
AcDbVertex
100
AcDb3dPolylineVertex
 10
3.017882
 20
28.645921
 30
0.0
 70
    32
  0
VERTEX
  5
25C0
100
AcDbEntity
  8
ALPHA
 62
   255
100
AcDbVertex
100
AcDb3dPolylineVertex
 10
4.007816
 20
28.447627
 30
0.0
 70
    32
  0
VERTEX
  5
25C1
100
AcDbEntity
  8
ALPHA
 62
   255
100
AcDbVertex
100
AcDb3dPolylineVertex
 10
5.129085
 20
28.372412
 30
0.0
 70
    32
  0
VERTEX
  5
25C2
100
AcDbEntity
  8
ALPHA
 62
   255
100
AcDbVertex
100
AcDb3dPolylineVertex
 10
5.725267
 20
28.403625
 30
0.0
 70
    32
  0
VERTEX
  5
25C3
100
AcDbEntity
  8
ALPHA
 62
   255
100
AcDbVertex
100
AcDb3dPolylineVertex
 10
6.374143
 20
28.495058
 30
0.0
 70
    32
  0
VERTEX
  5
25C4
100
AcDbEntity
  8
ALPHA
 62
   255
100
AcDbVertex
100
AcDb3dPolylineVertex
 10
7.780689
 20
28.845338
 30
0.0
 70
    32
  0
VERTEX
  5
25C5
100
AcDbEntity
  8
ALPHA
 62
   255
100
AcDbVertex
100
AcDb3dPolylineVertex
 10
9.250152
 20
29.396768
 30
0.0
 70
    32
  0
VERTEX
  5
25C6
100
AcDbEntity
  8
ALPHA
 62
   255
100
AcDbVertex
100
AcDb3dPolylineVertex
 10
10.683957
 20
30.122865
 30
0.0
 70
    32
  0
SEQEND
  5
25C7
100
AcDbEntity
  8
ALPHA
 62
   255
  0
POLYLINE
  5
25C8
100
AcDbEntity
  8
ALPHA
 62
   255
100
AcDb3dPolyline
 66
     1
 10
0.0
 20
0.0
 30
0.0
 70
     8
  0
VERTEX
  5
25C9
100
AcDbEntity
  8
ALPHA
 62
   255
100
AcDbVertex
100
AcDb3dPolylineVertex
 10
42.286507
 20
30.122865
 30
0.0
 70
    32
  0
VERTEX
  5
25CA
100
AcDbEntity
  8
ALPHA
 62
   255
100
AcDbVertex
100
AcDb3dPolylineVertex
 10
42.281194
 20
30.117844
 30
0.0
 70
    32
  0
VERTEX
  5
25CB
100
AcDbEntity
  8
ALPHA
 62
   255
100
AcDbVertex
100
AcDb3dPolylineVertex
 10
42.265311
 20
30.103207
 30
0.0
 70
    32
  0
VERTEX
  5
25CC
100
AcDbEntity
  8
ALPHA
 62
   255
100
AcDbVertex
100
AcDb3dPolylineVertex
 10
42.202189
 20
30.047651
 30
0.0
 70
    32
  0
VERTEX
  5
25CD
100
AcDbEntity
  8
ALPHA
 62
   255
100
AcDbVertex
100
AcDb3dPolylineVertex
 10
41.952957
 20
29.849357
 30
0.0
 70
    32
  0
VERTEX
  5
25CE
100
AcDbEntity
  8
ALPHA
 62
   255
100
AcDbVertex
100
AcDb3dPolylineVertex
 10
40.982108
 20
29.247639
 30
0.0
 70
    32
  0
VERTEX
  5
25CF
100
AcDbEntity
  8
ALPHA
 62
   255
100
AcDbVertex
100
AcDb3dPolylineVertex
 10
40.271665
 20
28.926267
 30
0.0
 70
    32
  0
VERTEX
  5
25D0
100
AcDbEntity
  8
ALPHA
 62
   255
100
AcDbVertex
100
AcDb3dPolylineVertex
 10
39.418659
 20
28.645921
 30
0.0
 70
    32
  0
VERTEX
  5
25D1
100
AcDbEntity
  8
ALPHA
 62
   255
100
AcDbVertex
100
AcDb3dPolylineVertex
 10
38.428679
 20
28.447627
 30
0.0
 70
    32
  0
VERTEX
  5
25D2
100
AcDbEntity
  8
ALPHA
 62
   255
100
AcDbVertex
100
AcDb3dPolylineVertex
 10
37.307311
 20
28.372412
 30
0.0
 70
    32
  0
VERTEX
  5
25D3
100
AcDbEntity
  8
ALPHA
 62
   255
100
AcDbVertex
100
AcDb3dPolylineVertex
 10
36.711043
 20
28.403625
 30
0.0
 70
    32
  0
VERTEX
  5
25D4
100
AcDbEntity
  8
ALPHA
 62
   255
100
AcDbVertex
100
AcDb3dPolylineVertex
 10
36.062151
 20
28.495058
 30
0.0
 70
    32
  0
VERTEX
  5
25D5
100
AcDbEntity
  8
ALPHA
 62
   255
100
AcDbVertex
100
AcDb3dPolylineVertex
 10
34.655664
 20
28.845338
 30
0.0
 70
    32
  0
VERTEX
  5
25D6
100
AcDbEntity
  8
ALPHA
 62
   255
100
AcDbVertex
100
AcDb3dPolylineVertex
 10
33.186196
 20
29.396768
 30
0.0
 70
    32
  0
VERTEX
  5
25D7
100
AcDbEntity
  8
ALPHA
 62
   255
100
AcDbVertex
100
AcDb3dPolylineVertex
 10
31.752094
 20
30.122865
 30
0.0
 70
    32
  0
SEQEND
  5
25D8
100
AcDbEntity
  8
ALPHA
 62
   255
  0
POLYLINE
  5
25D9
100
AcDbEntity
  8
ALPHA
 62
   255
100
AcDb2dPolyline
 66
     1
 10
0.0
 20
0.0
 30
0.0
  0
VERTEX
  5
25DA
100
AcDbEntity
  8
ALPHA
 62
   255
100
AcDbVertex
100
AcDb2dVertex
 10
10.683957
 20
30.122865
 30
0.0
  0
VERTEX
  5
25DB
100
AcDbEntity
  8
ALPHA
 62
   255
100
AcDbVertex
100
AcDb2dVertex
 10
16.190253
 20
28.845338
 30
0.0
  0
VERTEX
  5
25DC
100
AcDbEntity
  8
ALPHA
 62
   255
100
AcDbVertex
100
AcDb2dVertex
 10
21.218026
 20
28.372412
 30
0.0
  0
VERTEX
  5
25DD
100
AcDbEntity
  8
ALPHA
 62
   255
100
AcDbVertex
100
AcDb2dVertex
 10
26.246315
 20
28.845338
 30
0.0
  0
VERTEX
  5
25DE
100
AcDbEntity
  8
ALPHA
 62
   255
100
AcDbVertex
100
AcDb2dVertex
 10
31.752094
 20
30.122865
 30
0.0
  0
SEQEND
  5
25DF
100
AcDbEntity
  8
ALPHA
  0
POLYLINE
  5
25E0
100
AcDbEntity
  8
ALPHA
 62
   255
100
AcDb3dPolyline
 66
     1
 10
0.0
 20
0.0
 30
0.0
 70
     8
  0
VERTEX
  5
25E1
100
AcDbEntity
  8
ALPHA
 62
   255
100
AcDbVertex
100
AcDb3dPolylineVertex
 10
0.149889
 20
34.620782
 30
0.0
 70
    32
  0
VERTEX
  5
25E2
100
AcDbEntity
  8
ALPHA
 62
   255
100
AcDbVertex
100
AcDb3dPolylineVertex
 10
0.155203
 20
34.625806
 30
0.0
 70
    32
  0
VERTEX
  5
25E3
100
AcDbEntity
  8
ALPHA
 62
   255
100
AcDbVertex
100
AcDb3dPolylineVertex
 10
0.171089
 20
34.640452
 30
0.0
 70
    32
  0
VERTEX
  5
25E4
100
AcDbEntity
  8
ALPHA
 62
   255
100
AcDbVertex
100
AcDb3dPolylineVertex
 10
0.234222
 20
34.696041
 30
0.0
 70
    32
  0
VERTEX
  5
25E5
100
AcDbEntity
  8
ALPHA
 62
   255
100
AcDbVertex
100
AcDb3dPolylineVertex
 10
0.483487
 20
34.894452
 30
0.0
 70
    32
  0
VERTEX
  5
25E6
100
AcDbEntity
  8
ALPHA
 62
   255
100
AcDbVertex
100
AcDb3dPolylineVertex
 10
1.454417
 20
35.496525
 30
0.0
 70
    32
  0
VERTEX
  5
25E7
100
AcDbEntity
  8
ALPHA
 62
   255
100
AcDbVertex
100
AcDb3dPolylineVertex
 10
2.164883
 20
35.818087
 30
0.0
 70
    32
  0
VERTEX
  5
25E8
100
AcDbEntity
  8
ALPHA
 62
   255
100
AcDbVertex
100
AcDb3dPolylineVertex
 10
3.017882
 20
36.098599
 30
0.0
 70
    32
  0
VERTEX
  5
25E9
100
AcDbEntity
  8
ALPHA
 62
   255
100
AcDbVertex
100
AcDb3dPolylineVertex
 10
4.007816
 20
36.297009
 30
0.0
 70
    32
  0
VERTEX
  5
25EA
100
AcDbEntity
  8
ALPHA
 62
   255
100
AcDbVertex
100
AcDb3dPolylineVertex
 10
5.129085
 20
36.372269
 30
0.0
 70
    32
  0
VERTEX
  5
25EB
100
AcDbEntity
  8
ALPHA
 62
   255
100
AcDbVertex
100
AcDb3dPolylineVertex
 10
5.725267
 20
36.341039
 30
0.0
 70
    32
  0
VERTEX
  5
25EC
100
AcDbEntity
  8
ALPHA
 62
   255
100
AcDbVertex
100
AcDb3dPolylineVertex
 10
6.374143
 20
36.249559
 30
0.0
 70
    32
  0
VERTEX
  5
25ED
100
AcDbEntity
  8
ALPHA
 62
   255
100
AcDbVertex
100
AcDb3dPolylineVertex
 10
7.780689
 20
35.899085
 30
0.0
 70
    32
  0
VERTEX
  5
25EE
100
AcDbEntity
  8
ALPHA
 62
   255
100
AcDbVertex
100
AcDb3dPolylineVertex
 10
9.250152
 20
35.347331
 30
0.0
 70
    32
  0
VERTEX
  5
25EF
100
AcDbEntity
  8
ALPHA
 62
   255
100
AcDbVertex
100
AcDb3dPolylineVertex
 10
10.683957
 20
34.620782
 30
0.0
 70
    32
  0
SEQEND
  5
25F0
100
AcDbEntity
  8
ALPHA
 62
   255
  0
POLYLINE
  5
25F1
100
AcDbEntity
  8
ALPHA
 62
   255
100
AcDb3dPolyline
 66
     1
 10
0.0
 20
0.0
 30
0.0
 70
     8
  0
VERTEX
  5
25F2
100
AcDbEntity
  8
ALPHA
 62
   255
100
AcDbVertex
100
AcDb3dPolylineVertex
 10
42.286507
 20
34.620782
 30
0.0
 70
    32
  0
VERTEX
  5
25F3
100
AcDbEntity
  8
ALPHA
 62
   255
100
AcDbVertex
100
AcDb3dPolylineVertex
 10
42.281194
 20
34.625806
 30
0.0
 70
    32
  0
VERTEX
  5
25F4
100
AcDbEntity
  8
ALPHA
 62
   255
100
AcDbVertex
100
AcDb3dPolylineVertex
 10
42.265311
 20
34.640452
 30
0.0
 70
    32
  0
VERTEX
  5
25F5
100
AcDbEntity
  8
ALPHA
 62
   255
100
AcDbVertex
100
AcDb3dPolylineVertex
 10
42.202189
 20
34.696041
 30
0.0
 70
    32
  0
VERTEX
  5
25F6
100
AcDbEntity
  8
ALPHA
 62
   255
100
AcDbVertex
100
AcDb3dPolylineVertex
 10
41.952957
 20
34.894452
 30
0.0
 70
    32
  0
VERTEX
  5
25F7
100
AcDbEntity
  8
ALPHA
 62
   255
100
AcDbVertex
100
AcDb3dPolylineVertex
 10
40.982108
 20
35.496525
 30
0.0
 70
    32
  0
VERTEX
  5
25F8
100
AcDbEntity
  8
ALPHA
 62
   255
100
AcDbVertex
100
AcDb3dPolylineVertex
 10
40.271665
 20
35.818087
 30
0.0
 70
    32
  0
VERTEX
  5
25F9
100
AcDbEntity
  8
ALPHA
 62
   255
100
AcDbVertex
100
AcDb3dPolylineVertex
 10
39.418659
 20
36.098599
 30
0.0
 70
    32
  0
VERTEX
  5
25FA
100
AcDbEntity
  8
ALPHA
 62
   255
100
AcDbVertex
100
AcDb3dPolylineVertex
 10
38.428679
 20
36.297009
 30
0.0
 70
    32
  0
VERTEX
  5
25FB
100
AcDbEntity
  8
ALPHA
 62
   255
100
AcDbVertex
100
AcDb3dPolylineVertex
 10
37.307311
 20
36.372269
 30
0.0
 70
    32
  0
VERTEX
  5
25FC
100
AcDbEntity
  8
ALPHA
 62
   255
100
AcDbVertex
100
AcDb3dPolylineVertex
 10
36.711043
 20
36.341039
 30
0.0
 70
    32
  0
VERTEX
  5
25FD
100
AcDbEntity
  8
ALPHA
 62
   255
100
AcDbVertex
100
AcDb3dPolylineVertex
 10
36.062151
 20
36.249559
 30
0.0
 70
    32
  0
VERTEX
  5
25FE
100
AcDbEntity
  8
ALPHA
 62
   255
100
AcDbVertex
100
AcDb3dPolylineVertex
 10
34.655664
 20
35.899085
 30
0.0
 70
    32
  0
VERTEX
  5
25FF
100
AcDbEntity
  8
ALPHA
 62
   255
100
AcDbVertex
100
AcDb3dPolylineVertex
 10
33.186196
 20
35.347331
 30
0.0
 70
    32
  0
VERTEX
  5
2600
100
AcDbEntity
  8
ALPHA
 62
   255
100
AcDbVertex
100
AcDb3dPolylineVertex
 10
31.752094
 20
34.620782
 30
0.0
 70
    32
  0
SEQEND
  5
2601
100
AcDbEntity
  8
ALPHA
 62
   255
  0
POLYLINE
  5
2602
100
AcDbEntity
  8
ALPHA
 62
   255
100
AcDb2dPolyline
 66
     1
 10
0.0
 20
0.0
 30
0.0
  0
VERTEX
  5
2603
100
AcDbEntity
  8
ALPHA
 62
   255
100
AcDbVertex
100
AcDb2dVertex
 10
10.683957
 20
34.620782
 30
0.0
  0
VERTEX
  5
2604
100
AcDbEntity
  8
ALPHA
 62
   255
100
AcDbVertex
100
AcDb2dVertex
 10
16.190253
 20
35.899085
 30
0.0
  0
VERTEX
  5
2605
100
AcDbEntity
  8
ALPHA
 62
   255
100
AcDbVertex
100
AcDb2dVertex
 10
21.218026
 20
36.372269
 30
0.0
  0
VERTEX
  5
2606
100
AcDbEntity
  8
ALPHA
 62
   255
100
AcDbVertex
100
AcDb2dVertex
 10
26.246315
 20
35.899085
 30
0.0
  0
VERTEX
  5
2607
100
AcDbEntity
  8
ALPHA
 62
   255
100
AcDbVertex
100
AcDb2dVertex
 10
31.752094
 20
34.620782
 30
0.0
  0
SEQEND
  5
2608
100
AcDbEntity
  8
ALPHA
  0
POLYLINE
  5
2609
100
AcDbEntity
  8
ALPHA
 62
   255
100
AcDb2dPolyline
 66
     1
 10
0.0
 20
0.0
 30
0.0
  0
VERTEX
  5
260A
100
AcDbEntity
  8
ALPHA
 62
   255
100
AcDbVertex
100
AcDb2dVertex
 10
36.217627
 20
47.751763
 30
0.0
  0
VERTEX
  5
260B
100
AcDbEntity
  8
ALPHA
 62
   255
100
AcDbVertex
100
AcDb2dVertex
 10
36.217627
 20
52.46431
 30
0.0
  0
SEQEND
  5
260C
100
AcDbEntity
  8
ALPHA
  0
POLYLINE
  5
260D
100
AcDbEntity
  8
ALPHA
 62
   255
100
AcDb2dPolyline
 66
     1
 10
0.0
 20
0.0
 30
0.0
  0
VERTEX
  5
260E
100
AcDbEntity
  8
ALPHA
 62
   255
100
AcDbVertex
100
AcDb2dVertex
 10
36.217627
 20
52.46431
 30
0.0
  0
VERTEX
  5
260F
100
AcDbEntity
  8
ALPHA
 62
   255
100
AcDbVertex
100
AcDb2dVertex
 10
6.218769
 20
52.46431
 30
0.0
  0
SEQEND
  5
2610
100
AcDbEntity
  8
ALPHA
  0
POLYLINE
  5
2611
100
AcDbEntity
  8
ALPHA
 62
   255
100
AcDb2dPolyline
 66
     1
 10
0.0
 20
0.0
 30
0.0
  0
VERTEX
  5
2612
100
AcDbEntity
  8
ALPHA
 62
   255
100
AcDbVertex
100
AcDb2dVertex
 10
6.218769
 20
52.46431
 30
0.0
  0
VERTEX
  5
2613
100
AcDbEntity
  8
ALPHA
 62
   255
100
AcDbVertex
100
AcDb2dVertex
 10
6.218769
 20
47.751763
 30
0.0
  0
SEQEND
  5
2614
100
AcDbEntity
  8
ALPHA
  0
POLYLINE
  5
2615
100
AcDbEntity
  8
ALPHA
 62
   255
100
AcDb2dPolyline
 66
     1
 10
0.0
 20
0.0
 30
0.0
  0
VERTEX
  5
2616
100
AcDbEntity
  8
ALPHA
 62
   255
100
AcDbVertex
100
AcDb2dVertex
 10
34.967402
 20
20.464196
 30
0.0
  0
VERTEX
  5
2617
100
AcDbEntity
  8
ALPHA
 62
   255
100
AcDbVertex
100
AcDb2dVertex
 10
34.967402
 20
11.864204
 30
0.0
  0
SEQEND
  5
2618
100
AcDbEntity
  8
ALPHA
  0
POLYLINE
  5
2619
100
AcDbEntity
  8
ALPHA
 62
   255
100
AcDb2dPolyline
 66
     1
 10
0.0
 20
0.0
 30
0.0
  0
VERTEX
  5
261A
100
AcDbEntity
  8
ALPHA
 62
   255
100
AcDbVertex
100
AcDb2dVertex
 10
34.967402
 20
11.864204
 30
0.0
  0
VERTEX
  5
261B
100
AcDbEntity
  8
ALPHA
 62
   255
100
AcDbVertex
100
AcDb2dVertex
 10
7.468305
 20
11.864204
 30
0.0
  0
SEQEND
  5
261C
100
AcDbEntity
  8
ALPHA
  0
POLYLINE
  5
261D
100
AcDbEntity
  8
ALPHA
 62
   255
100
AcDb2dPolyline
 66
     1
 10
0.0
 20
0.0
 30
0.0
  0
VERTEX
  5
261E
100
AcDbEntity
  8
ALPHA
 62
   255
100
AcDbVertex
100
AcDb2dVertex
 10
7.468305
 20
11.864204
 30
0.0
  0
VERTEX
  5
261F
100
AcDbEntity
  8
ALPHA
 62
   255
100
AcDbVertex
100
AcDb2dVertex
 10
7.468305
 20
20.464196
 30
0.0
  0
SEQEND
  5
2620
100
AcDbEntity
  8
ALPHA
  0
POLYLINE
  5
2621
100
AcDbEntity
  8
ALPHA
 62
   255
100
AcDb2dPolyline
 66
     1
 10
0.0
 20
0.0
 30
0.0
  0
VERTEX
  5
2622
100
AcDbEntity
  8
ALPHA
 62
   255
100
AcDbVertex
100
AcDb2dVertex
 10
36.217627
 20
28.372757
 30
0.0
  0
VERTEX
  5
2623
100
AcDbEntity
  8
ALPHA
 62
   255
100
AcDbVertex
100
AcDb2dVertex
 10
36.217627
 20
20.464196
 30
0.0
  0
SEQEND
  5
2624
100
AcDbEntity
  8
ALPHA
  0
POLYLINE
  5
2625
100
AcDbEntity
  8
ALPHA
 62
   255
100
AcDb2dPolyline
 66
     1
 10
0.0
 20
0.0
 30
0.0
  0
VERTEX
  5
2626
100
AcDbEntity
  8
ALPHA
 62
   255
100
AcDbVertex
100
AcDb2dVertex
 10
36.217627
 20
20.464196
 30
0.0
  0
VERTEX
  5
2627
100
AcDbEntity
  8
ALPHA
 62
   255
100
AcDbVertex
100
AcDb2dVertex
 10
6.218769
 20
20.464196
 30
0.0
  0
SEQEND
  5
2628
100
AcDbEntity
  8
ALPHA
  0
POLYLINE
  5
2629
100
AcDbEntity
  8
ALPHA
 62
   255
100
AcDb2dPolyline
 66
     1
 10
0.0
 20
0.0
 30
0.0
  0
VERTEX
  5
262A
100
AcDbEntity
  8
ALPHA
 62
   255
100
AcDbVertex
100
AcDb2dVertex
 10
6.218769
 20
20.464196
 30
0.0
  0
VERTEX
  5
262B
100
AcDbEntity
  8
ALPHA
 62
   255
100
AcDbVertex
100
AcDb2dVertex
 10
6.218769
 20
28.372757
 30
0.0
  0
SEQEND
  5
262C
100
AcDbEntity
  8
ALPHA
  0
POLYLINE
  5
262D
100
AcDbEntity
  8
ALPHA
 62
   255
100
AcDb2dPolyline
 66
     1
 10
0.0
 20
0.0
 30
0.0
  0
VERTEX
  5
262E
100
AcDbEntity
  8
ALPHA
 62
   255
100
AcDbVertex
100
AcDb2dVertex
 10
42.286507
 20
34.568761
 30
0.0
  0
VERTEX
  5
262F
100
AcDbEntity
  8
ALPHA
 62
   255
100
AcDbVertex
100
AcDb2dVertex
 10
40.467841
 20
36.372269
 30
0.0
  0
SEQEND
  5
2630
100
AcDbEntity
  8
ALPHA
  0
POLYLINE
  5
2631
100
AcDbEntity
  8
ALPHA
 62
   255
100
AcDb2dPolyline
 66
     1
 10
0.0
 20
0.0
 30
0.0
  0
VERTEX
  5
2632
100
AcDbEntity
  8
ALPHA
 62
   255
100
AcDbVertex
100
AcDb2dVertex
 10
40.467841
 20
36.372269
 30
0.0
  0
VERTEX
  5
2633
100
AcDbEntity
  8
ALPHA
 62
   255
100
AcDbVertex
100
AcDb2dVertex
 10
1.968899
 20
36.372269
 30
0.0
  0
SEQEND
  5
2634
100
AcDbEntity
  8
ALPHA
  0
POLYLINE
  5
2635
100
AcDbEntity
  8
ALPHA
 62
   255
100
AcDb2dPolyline
 66
     1
 10
0.0
 20
0.0
 30
0.0
  0
VERTEX
  5
2636
100
AcDbEntity
  8
ALPHA
 62
   255
100
AcDbVertex
100
AcDb2dVertex
 10
1.968899
 20
36.372269
 30
0.0
  0
VERTEX
  5
2637
100
AcDbEntity
  8
ALPHA
 62
   255
100
AcDbVertex
100
AcDb2dVertex
 10
0.149889
 20
34.568761
 30
0.0
  0
SEQEND
  5
2638
100
AcDbEntity
  8
ALPHA
  0
POLYLINE
  5
2639
100
AcDbEntity
  8
ALPHA
 62
   255
100
AcDb2dPolyline
 66
     1
 10
0.0
 20
0.0
 30
0.0
  0
VERTEX
  5
263A
100
AcDbEntity
  8
ALPHA
 62
   255
100
AcDbVertex
100
AcDb2dVertex
 10
0.149889
 20
34.568761
 30
0.0
  0
VERTEX
  5
263B
100
AcDbEntity
  8
ALPHA
 62
   255
100
AcDbVertex
100
AcDb2dVertex
 10
0.149889
 20
30.17592
 30
0.0
  0
SEQEND
  5
263C
100
AcDbEntity
  8
ALPHA
  0
POLYLINE
  5
263D
100
AcDbEntity
  8
ALPHA
 62
   255
100
AcDb2dPolyline
 66
     1
 10
0.0
 20
0.0
 30
0.0
  0
VERTEX
  5
263E
100
AcDbEntity
  8
ALPHA
 62
   255
100
AcDbVertex
100
AcDb2dVertex
 10
0.149889
 20
30.17592
 30
0.0
  0
VERTEX
  5
263F
100
AcDbEntity
  8
ALPHA
 62
   255
100
AcDbVertex
100
AcDb2dVertex
 10
1.968899
 20
28.372412
 30
0.0
  0
SEQEND
  5
2640
100
AcDbEntity
  8
ALPHA
  0
POLYLINE
  5
2641
100
AcDbEntity
  8
ALPHA
 62
   255
100
AcDb2dPolyline
 66
     1
 10
0.0
 20
0.0
 30
0.0
  0
VERTEX
  5
2642
100
AcDbEntity
  8
ALPHA
 62
   255
100
AcDbVertex
100
AcDb2dVertex
 10
1.968899
 20
28.372412
 30
0.0
  0
VERTEX
  5
2643
100
AcDbEntity
  8
ALPHA
 62
   255
100
AcDbVertex
100
AcDb2dVertex
 10
40.467841
 20
28.372412
 30
0.0
  0
SEQEND
  5
2644
100
AcDbEntity
  8
ALPHA
  0
POLYLINE
  5
2645
100
AcDbEntity
  8
ALPHA
 62
   255
100
AcDb2dPolyline
 66
     1
 10
0.0
 20
0.0
 30
0.0
  0
VERTEX
  5
2646
100
AcDbEntity
  8
ALPHA
 62
   255
100
AcDbVertex
100
AcDb2dVertex
 10
40.467841
 20
28.372412
 30
0.0
  0
VERTEX
  5
2647
100
AcDbEntity
  8
ALPHA
 62
   255
100
AcDbVertex
100
AcDb2dVertex
 10
42.286507
 20
30.17592
 30
0.0
  0
SEQEND
  5
2648
100
AcDbEntity
  8
ALPHA
  0
POLYLINE
  5
2649
100
AcDbEntity
  8
ALPHA
 62
   255
100
AcDb2dPolyline
 66
     1
 10
0.0
 20
0.0
 30
0.0
  0
VERTEX
  5
264A
100
AcDbEntity
  8
ALPHA
 62
   255
100
AcDbVertex
100
AcDb2dVertex
 10
42.286507
 20
30.17592
 30
0.0
  0
VERTEX
  5
264B
100
AcDbEntity
  8
ALPHA
 62
   255
100
AcDbVertex
100
AcDb2dVertex
 10
42.286507
 20
34.568761
 30
0.0
  0
SEQEND
  5
264C
100
AcDbEntity
  8
ALPHA
  0
POLYLINE
  5
264D
100
AcDbEntity
  8
ALPHA
 62
   255
100
AcDb2dPolyline
 66
     1
 10
0.0
 20
0.0
 30
0.0
  0
VERTEX
  5
264E
100
AcDbEntity
  8
ALPHA
 62
   255
100
AcDbVertex
100
AcDb2dVertex
 10
42.286507
 20
45.9486
 30
0.0
  0
VERTEX
  5
264F
100
AcDbEntity
  8
ALPHA
 62
   255
100
AcDbVertex
100
AcDb2dVertex
 10
40.467841
 20
47.752108
 30
0.0
  0
SEQEND
  5
2650
100
AcDbEntity
  8
ALPHA
  0
POLYLINE
  5
2651
100
AcDbEntity
  8
ALPHA
 62
   255
100
AcDb2dPolyline
 66
     1
 10
0.0
 20
0.0
 30
0.0
  0
VERTEX
  5
2652
100
AcDbEntity
  8
ALPHA
 62
   255
100
AcDbVertex
100
AcDb2dVertex
 10
40.467841
 20
47.752108
 30
0.0
  0
VERTEX
  5
2653
100
AcDbEntity
  8
ALPHA
 62
   255
100
AcDbVertex
100
AcDb2dVertex
 10
1.968899
 20
47.752108
 30
0.0
  0
SEQEND
  5
2654
100
AcDbEntity
  8
ALPHA
  0
POLYLINE
  5
2655
100
AcDbEntity
  8
ALPHA
 62
   255
100
AcDb2dPolyline
 66
     1
 10
0.0
 20
0.0
 30
0.0
  0
VERTEX
  5
2656
100
AcDbEntity
  8
ALPHA
 62
   255
100
AcDbVertex
100
AcDb2dVertex
 10
1.968899
 20
47.752108
 30
0.0
  0
VERTEX
  5
2657
100
AcDbEntity
  8
ALPHA
 62
   255
100
AcDbVertex
100
AcDb2dVertex
 10
0.149889
 20
45.9486
 30
0.0
  0
SEQEND
  5
2658
100
AcDbEntity
  8
ALPHA
  0
POLYLINE
  5
2659
100
AcDbEntity
  8
ALPHA
 62
   255
100
AcDb2dPolyline
 66
     1
 10
0.0
 20
0.0
 30
0.0
  0
VERTEX
  5
265A
100
AcDbEntity
  8
ALPHA
 62
   255
100
AcDbVertex
100
AcDb2dVertex
 10
0.149889
 20
45.9486
 30
0.0
  0
VERTEX
  5
265B
100
AcDbEntity
  8
ALPHA
 62
   255
100
AcDbVertex
100
AcDb2dVertex
 10
0.149889
 20
41.555759
 30
0.0
  0
SEQEND
  5
265C
100
AcDbEntity
  8
ALPHA
  0
POLYLINE
  5
265D
100
AcDbEntity
  8
ALPHA
 62
   255
100
AcDb2dPolyline
 66
     1
 10
0.0
 20
0.0
 30
0.0
  0
VERTEX
  5
265E
100
AcDbEntity
  8
ALPHA
 62
   255
100
AcDbVertex
100
AcDb2dVertex
 10
0.149889
 20
41.555759
 30
0.0
  0
VERTEX
  5
265F
100
AcDbEntity
  8
ALPHA
 62
   255
100
AcDbVertex
100
AcDb2dVertex
 10
1.968899
 20
39.751907
 30
0.0
  0
SEQEND
  5
2660
100
AcDbEntity
  8
ALPHA
  0
POLYLINE
  5
2661
100
AcDbEntity
  8
ALPHA
 62
   255
100
AcDb2dPolyline
 66
     1
 10
0.0
 20
0.0
 30
0.0
  0
VERTEX
  5
2662
100
AcDbEntity
  8
ALPHA
 62
   255
100
AcDbVertex
100
AcDb2dVertex
 10
1.968899
 20
39.751907
 30
0.0
  0
VERTEX
  5
2663
100
AcDbEntity
  8
ALPHA
 62
   255
100
AcDbVertex
100
AcDb2dVertex
 10
40.467841
 20
39.751907
 30
0.0
  0
SEQEND
  5
2664
100
AcDbEntity
  8
ALPHA
  0
POLYLINE
  5
2665
100
AcDbEntity
  8
ALPHA
 62
   255
100
AcDb2dPolyline
 66
     1
 10
0.0
 20
0.0
 30
0.0
  0
VERTEX
  5
2666
100
AcDbEntity
  8
ALPHA
 62
   255
100
AcDbVertex
100
AcDb2dVertex
 10
40.467841
 20
39.751907
 30
0.0
  0
VERTEX
  5
2667
100
AcDbEntity
  8
ALPHA
 62
   255
100
AcDbVertex
100
AcDb2dVertex
 10
42.286507
 20
41.555759
 30
0.0
  0
SEQEND
  5
2668
100
AcDbEntity
  8
ALPHA
  0
POLYLINE
  5
2669
100
AcDbEntity
  8
ALPHA
 62
   255
100
AcDb2dPolyline
 66
     1
 10
0.0
 20
0.0
 30
0.0
  0
VERTEX
  5
266A
100
AcDbEntity
  8
ALPHA
 62
   255
100
AcDbVertex
100
AcDb2dVertex
 10
42.286507
 20
41.555759
 30
0.0
  0
VERTEX
  5
266B
100
AcDbEntity
  8
ALPHA
 62
   255
100
AcDbVertex
100
AcDb2dVertex
 10
42.286507
 20
45.9486
 30
0.0
  0
SEQEND
  5
266C
100
AcDbEntity
  8
ALPHA
  0
DIMENSION
  5
2679
100
AcDbEntity
  8
COTATION1
100
AcDbDimension
  2
*D7
 10
36.217627
 20
58.185098
 30
0.0
 11
21.218198
 21
60.435098
 31
0.0
 70
    32
  1
M<>
  3
SC_STAND
100
AcDbAlignedDimension
 13
6.218769
 23
52.46431
 33
0.0
 14
36.217627
 24
52.46431
 34
0.0
100
AcDbRotatedDimension
  0
DIMENSION
  5
2691
100
AcDbEntity
  8
COTATION1
100
AcDbDimension
  2
*D8
 10
48.799968
 20
20.464196
 30
0.0
 11
46.549968
 21
36.464253
 31
0.0
 70
    32
  3
SC_STAND
100
AcDbAlignedDimension
 13
36.217627
 23
52.46431
 33
0.0
 14
36.217627
 24
20.464196
 34
0.0
 50
90.0
100
AcDbRotatedDimension
  0
DIMENSION
  5
269E
100
AcDbEntity
  8
COTATION1
100
AcDbDimension
  2
*D9
 10
56.357262
 20
-0.236005
 30
0.0
 11
54.107262
 21
26.114152
 31
0.0
 70
    32
  3
SC_STAND
100
AcDbAlignedDimension
 13
42.630047
 23
52.46431
 33
0.0
 14
26.468351
 24
-0.236005
 34
0.0
 50
90.0
100
AcDbRotatedDimension
  0
DIMENSION
  5
26C0
100
AcDbEntity
  8
COTATION1
100
AcDbDimension
  2
*D10
 10
27.218004
 20
-6.013692
 30
0.0
 11
21.218026
 21
-3.763692
 31
0.0
 70
    32
  1
M<>
  3
SC_STAND
100
AcDbAlignedDimension
 13
15.218047
 23
2.194613
 33
0.0
 14
27.218004
 24
2.194613
 34
0.0
100
AcDbRotatedDimension
  0
ENDSEC
  0
SECTION
  2
OBJECTS
  0
DICTIONARY
  5
F8
100
AcDbDictionary
  3
ACAD_GROUP
350
F9
  3
ACAD_MLINESTYLE
350
106
  3
ACDBVARIABLEDICTIONARY
350
143
  0
DICTIONARY
  5
F9
102
{ACAD_REACTORS
330
F8
102
}
100
AcDbDictionary
  0
DICTIONARY
  5
106
102
{ACAD_REACTORS
330
F8
102
}
100
AcDbDictionary
  3
STANDARD
350
107
  0
DICTIONARY
  5
143
102
{ACAD_REACTORS
330
F8
102
}
100
AcDbDictionary
  3
DIMADEC
350
144
  0
MLINESTYLE
  5
107
102
{ACAD_REACTORS
330
106
102
}
100
AcDbMlineStyle
  2
STANDARD
 70
     0
  3

 62
   256
 51
90.0
 52
90.0
 71
     2
 49
0.5
 62
   256
  6
BYLAYER
 49
-0.5
 62
   256
  6
BYLAYER
  0
DICTIONARYVAR
  5
144
102
{ACAD_REACTORS
330
143
102
}
100
DictionaryVariables
280
     0
  1
0
  0
ENDSEC
  0
EOF
