  0
SECTION
  2
HEADER
  9
$ACADVER
  1
AC1014
  9
$ACADMAINTVER
 70
     9
  9
$DWGCODEPAGE
  3
ANSI_1252
  9
$INSBASE
 10
0.0
 20
0.0
 30
0.0
  9
$EXTMIN
 10
0.0
 20
0.0
 30
0.0
  9
$EXTMAX
 10
32.79999999999999
 20
20.1908
 30
0.0
  9
$LIMMIN
 10
0.0
 20
0.0
  9
$LIMMAX
 10
1632.0
 20
1056.0
  9
$ORTHOMODE
 70
     1
  9
$REGENMODE
 70
     1
  9
$FILLMODE
 70
     1
  9
$QTEXTMODE
 70
     0
  9
$MIRRTEXT
 70
     1
  9
$DRAGMODE
 70
     2
  9
$LTSCALE
 40
1.0
  9
$OSMODE
 70
   171
  9
$ATTMODE
 70
     1
  9
$TEXTSIZE
 40
0.2
  9
$TRACEWID
 40
0.05
  9
$TEXTSTYLE
  7
ROMANS
  9
$CLAYER
  8
0
  9
$CELTYPE
  6
BYLAYER
  9
$CECOLOR
 62
   256
  9
$CELTSCALE
 40
1.0
  9
$DELOBJ
 70
     1
  9
$DISPSILH
 70
     0
  9
$DIMSCALE
 40
0.0
  9
$DIMASZ
 40
0.07
  9
$DIMEXO
 40
0.0625
  9
$DIMDLI
 40
0.38
  9
$DIMRND
 40
0.001
  9
$DIMDLE
 40
0.0
  9
$DIMEXE
 40
0.0625
  9
$DIMTP
 40
0.0
  9
$DIMTM
 40
0.0
  9
$DIMTXT
 40
0.1
  9
$DIMCEN
 40
0.09
  9
$DIMTSZ
 40
0.0
  9
$DIMTOL
 70
     0
  9
$DIMLIM
 70
     0
  9
$DIMTIH
 70
     1
  9
$DIMTOH
 70
     1
  9
$DIMSE1
 70
     0
  9
$DIMSE2
 70
     0
  9
$DIMTAD
 70
     0
  9
$DIMZIN
 70
     4
  9
$DIMBLK
  1
SEARROW
  9
$DIMASO
 70
     1
  9
$DIMSHO
 70
     1
  9
$DIMPOST
  1
\P{\H0.8x;
  9
$DIMAPOST
  1

  9
$DIMALT
 70
     1
  9
$DIMALTD
 70
     0
  9
$DIMALTF
 40
25.4
  9
$DIMLFAC
 40
1.0
  9
$DIMTOFL
 70
     0
  9
$DIMTVP
 40
0.0
  9
$DIMTIX
 70
     0
  9
$DIMSOXD
 70
     0
  9
$DIMSAH
 70
     0
  9
$DIMBLK1
  1

  9
$DIMBLK2
  1

  9
$DIMSTYLE
  2
SCHNEIDERELECTRIC_DUAL_BEL
  9
$DIMCLRD
 70
   256
  9
$DIMCLRE
 70
   256
  9
$DIMCLRT
 70
   256
  9
$DIMTFAC
 40
1.0
  9
$DIMGAP
 40
0.04
  9
$DIMJUST
 70
     0
  9
$DIMSD1
 70
     0
  9
$DIMSD2
 70
     0
  9
$DIMTOLJ
 70
     1
  9
$DIMTZIN
 70
     0
  9
$DIMALTZ
 70
     4
  9
$DIMALTTZ
 70
     0
  9
$DIMFIT
 70
     3
  9
$DIMUPT
 70
     0
  9
$DIMUNIT
 70
     2
  9
$DIMDEC
 70
     2
  9
$DIMTDEC
 70
     2
  9
$DIMALTU
 70
     2
  9
$DIMALTTD
 70
     0
  9
$DIMTXSTY
  7
ROMANS
  9
$DIMAUNIT
 70
     0
  9
$LUNITS
 70
     2
  9
$LUPREC
 70
     4
  9
$SKETCHINC
 40
0.1
  9
$FILLETRAD
 40
0.5
  9
$AUNITS
 70
     0
  9
$AUPREC
 70
     0
  9
$MENU
  1
.
  9
$ELEVATION
 40
0.0
  9
$PELEVATION
 40
0.0
  9
$THICKNESS
 40
0.0
  9
$LIMCHECK
 70
     0
  9
$BLIPMODE
 70
     0
  9
$CHAMFERA
 40
0.5
  9
$CHAMFERB
 40
0.5
  9
$CHAMFERC
 40
1.0
  9
$CHAMFERD
 40
0.0
  9
$SKPOLY
 70
     0
  9
$TDCREATE
 40
2451764.576708576
  9
$TDUPDATE
 40
2452956.348190034
  9
$TDINDWG
 40
0.2032020949
  9
$TDUSRTIMER
 40
0.2032018634
  9
$USRTIMER
 70
     1
  9
$ANGBASE
 50
0.0
  9
$ANGDIR
 70
     0
  9
$PDMODE
 70
     0
  9
$PDSIZE
 40
0.0
  9
$PLINEWID
 40
0.0
  9
$COORDS
 70
     1
  9
$SPLFRAME
 70
     0
  9
$SPLINETYPE
 70
     6
  9
$SPLINESEGS
 70
     8
  9
$ATTDIA
 70
     0
  9
$ATTREQ
 70
     1
  9
$HANDLING
 70
 22529
  9
$HANDSEED
  5
2D80
  9
$SURFTAB1
 70
     6
  9
$SURFTAB2
 70
     6
  9
$SURFTYPE
 70
     6
  9
$SURFU
 70
     6
  9
$SURFV
 70
     6
  9
$UCSNAME
  2

  9
$UCSORG
 10
0.0
 20
0.0
 30
0.0
  9
$UCSXDIR
 10
1.0
 20
0.0
 30
0.0
  9
$UCSYDIR
 10
0.0
 20
1.0
 30
0.0
  9
$PUCSNAME
  2

  9
$PUCSORG
 10
0.0
 20
0.0
 30
0.0
  9
$PUCSXDIR
 10
1.0
 20
0.0
 30
0.0
  9
$PUCSYDIR
 10
0.0
 20
1.0
 30
0.0
  9
$USERI1
 70
     0
  9
$USERI2
 70
     0
  9
$USERI3
 70
     0
  9
$USERI4
 70
     0
  9
$USERI5
 70
     0
  9
$USERR1
 40
0.0
  9
$USERR2
 40
0.0
  9
$USERR3
 40
0.0
  9
$USERR4
 40
0.0
  9
$USERR5
 40
0.0
  9
$WORLDVIEW
 70
     1
  9
$SHADEDGE
 70
     3
  9
$SHADEDIF
 70
    70
  9
$TILEMODE
 70
     0
  9
$MAXACTVP
 70
    48
  9
$PINSBASE
 10
0.0
 20
0.0
 30
0.0
  9
$PLIMCHECK
 70
     0
  9
$PEXTMIN
 10
-0.0006046908817368
 20
-0.1513150645872407
 30
-0.0000000349181948
  9
$PEXTMAX
 10
16.40121979591246
 20
10.10075990589714
 30
0.0000000814935746
  9
$PLIMMIN
 10
-0.3067282422221667
 20
-1.591710995638156
  9
$PLIMMAX
 10
16.70734433451142
 20
11.55552682009375
  9
$UNITMODE
 70
     0
  9
$VISRETAIN
 70
     1
  9
$PLINEGEN
 70
     0
  9
$PSLTSCALE
 70
     1
  9
$TREEDEPTH
 70
  3020
  9
$PICKSTYLE
 70
     1
  9
$CMLSTYLE
  2
STANDARD
  9
$CMLJUST
 70
     0
  9
$CMLSCALE
 40
1.0
  9
$PROXYGRAPHICS
 70
     1
  9
$MEASUREMENT
 70
     0
  0
ENDSEC
  0
SECTION
  2
CLASSES
  0
CLASS
  1
ACDBDICTIONARYWDFLT
  2
AcDbDictionaryWithDefault
  3
AutoCAD 2000
 90
        0
280
     0
281
     0
  0
CLASS
  1
ACDBPLACEHOLDER
  2
AcDbPlaceHolder
  3
AutoCAD 2000
 90
        0
280
     0
281
     0
  0
CLASS
  1
LAYOUT
  2
AcDbLayout
  3
AutoCAD 2000
 90
        0
280
     0
281
     0
  0
CLASS
  1
LONG_TRANSACTION
  2
AcDbLongTransaction
  3
AutoCAD 2000
 90
        0
280
     0
281
     0
  0
CLASS
  1
LWPOLYLINE
  2
AcDbPolyline
  3
AutoCAD 2000
 90
        0
280
     0
281
     1
  0
CLASS
  1
HATCH
  2
AcDbHatch
  3
AutoCAD 2000
 90
        0
280
     0
281
     1
  0
CLASS
  1
XRECORD
  2
AcDbXrecord
  3
AutoCAD 2000
 90
        0
280
     0
281
     0
  0
CLASS
  1
LONG_TRANSACTION
  2
AcDbLongTransaction
  3
AutoCAD 2000
 90
        0
280
     0
281
     0
  0
CLASS
  1
LWPOLYLINE
  2
AcDbPolyline
  3
AutoCAD 2000
 90
        0
280
     0
281
     1
  0
CLASS
  1
HATCH
  2
AcDbHatch
  3
AutoCAD 2000
 90
        0
280
     0
281
     1
  0
CLASS
  1
XRECORD
  2
AcDbXrecord
  3
AutoCAD 2000
 90
        0
280
     0
281
     0
  0
CLASS
  1
PLOTSETTINGS
  2
AcDbPlotSettings
  3
AutoCAD 2000
 90
        0
280
     0
281
     0
  0
CLASS
  1
LONG_TRANSACTION
  2
AcDbLongTransaction
  3
AutoCAD 2000
 90
        0
280
     0
281
     0
  0
CLASS
  1
LWPOLYLINE
  2
AcDbPolyline
  3
AutoCAD 2000
 90
        0
280
     0
281
     1
  0
CLASS
  1
HATCH
  2
AcDbHatch
  3
AutoCAD 2000
 90
        0
280
     0
281
     1
  0
CLASS
  1
XRECORD
  2
AcDbXrecord
  3
AutoCAD 2000
 90
        0
280
     0
281
     0
  0
CLASS
  1
LONG_TRANSACTION
  2
AcDbLongTransaction
  3
AutoCAD 2000
 90
        0
280
     0
281
     0
  0
CLASS
  1
LWPOLYLINE
  2
AcDbPolyline
  3
AutoCAD 2000
 90
        0
280
     0
281
     1
  0
CLASS
  1
HATCH
  2
AcDbHatch
  3
AutoCAD 2000
 90
        0
280
     0
281
     1
  0
CLASS
  1
XRECORD
  2
AcDbXrecord
  3
AutoCAD 2000
 90
        0
280
     0
281
     0
  0
CLASS
  1
DICTIONARYVAR
  2
AcDbDictionaryVar
  3
AutoCAD 2000
 90
        0
280
     0
281
     0
  0
CLASS
  1
LONG_TRANSACTION
  2
AcDbLongTransaction
  3
AutoCAD 2000
 90
        0
280
     0
281
     0
  0
CLASS
  1
LWPOLYLINE
  2
AcDbPolyline
  3
AutoCAD 2000
 90
        0
280
     0
281
     1
  0
CLASS
  1
HATCH
  2
AcDbHatch
  3
AutoCAD 2000
 90
        0
280
     0
281
     1
  0
CLASS
  1
XRECORD
  2
AcDbXrecord
  3
AutoCAD 2000
 90
        0
280
     0
281
     0
  0
CLASS
  1
LONG_TRANSACTION
  2
AcDbLongTransaction
  3
AutoCAD 2000
 90
        0
280
     0
281
     0
  0
CLASS
  1
LWPOLYLINE
  2
AcDbPolyline
  3
AutoCAD 2000
 90
        0
280
     0
281
     1
  0
CLASS
  1
HATCH
  2
AcDbHatch
  3
AutoCAD 2000
 90
        0
280
     0
281
     1
  0
CLASS
  1
XRECORD
  2
AcDbXrecord
  3
AutoCAD 2000
 90
        0
280
     0
281
     0
  0
CLASS
  1
LONG_TRANSACTION
  2
AcDbLongTransaction
  3
AutoCAD 2000
 90
        0
280
     0
281
     0
  0
CLASS
  1
LWPOLYLINE
  2
AcDbPolyline
  3
AutoCAD 2000
 90
        0
280
     0
281
     1
  0
CLASS
  1
HATCH
  2
AcDbHatch
  3
AutoCAD 2000
 90
        0
280
     0
281
     1
  0
CLASS
  1
XRECORD
  2
AcDbXrecord
  3
AutoCAD 2000
 90
        0
280
     0
281
     0
  0
CLASS
  1
LONG_TRANSACTION
  2
AcDbLongTransaction
  3
AutoCAD 2000
 90
        0
280
     0
281
     0
  0
CLASS
  1
LWPOLYLINE
  2
AcDbPolyline
  3
AutoCAD 2000
 90
        0
280
     0
281
     1
  0
CLASS
  1
HATCH
  2
AcDbHatch
  3
AutoCAD 2000
 90
        0
280
     0
281
     1
  0
CLASS
  1
XRECORD
  2
AcDbXrecord
  3
AutoCAD 2000
 90
        0
280
     0
281
     0
  0
CLASS
  1
LONG_TRANSACTION
  2
AcDbLongTransaction
  3
AutoCAD 2000
 90
        0
280
     0
281
     0
  0
CLASS
  1
LWPOLYLINE
  2
AcDbPolyline
  3
AutoCAD 2000
 90
        0
280
     0
281
     1
  0
CLASS
  1
HATCH
  2
AcDbHatch
  3
AutoCAD 2000
 90
        0
280
     0
281
     1
  0
CLASS
  1
XRECORD
  2
AcDbXrecord
  3
AutoCAD 2000
 90
        0
280
     0
281
     0
  0
ENDSEC
  0
SECTION
  2
TABLES
  0
TABLE
  2
VPORT
  5
8
330
0
100
AcDbSymbolTable
 70
     1
  0
VPORT
  5
2B9D
330
8
100
AcDbSymbolTableRecord
100
AcDbViewportTableRecord
  2
*ACTIVE
 70
     0
 10
0.0
 20
0.0
 11
1.0
 21
1.0
 12
16.38574505642236
 22
10.11914248079915
 13
0.0
 23
0.0
 14
0.5
 24
0.5
 15
0.5
 25
0.5
 16
0.0
 26
0.0
 36
1.0
 17
0.0
 27
0.0
 37
0.0
 40
20.47029355308025
 41
1.719008264462809
 42
50.0
 43
0.0
 44
0.0
 50
0.0
 51
0.0
 71
     0
 72
   100
 73
     1
 74
     2
 75
     0
 76
     0
 77
     0
 78
     0
  0
ENDTAB
  0
TABLE
  2
LTYPE
  5
5
330
0
100
AcDbSymbolTable
 70
     2
  0
LTYPE
  5
14
330
5
100
AcDbSymbolTableRecord
100
AcDbLinetypeTableRecord
  2
BYBLOCK
 70
     0
  3

 72
    65
 73
     0
 40
0.0
  0
LTYPE
  5
15
330
5
100
AcDbSymbolTableRecord
100
AcDbLinetypeTableRecord
  2
BYLAYER
 70
     0
  3

 72
    65
 73
     0
 40
0.0
  0
LTYPE
  5
16
330
5
100
AcDbSymbolTableRecord
100
AcDbLinetypeTableRecord
  2
CONTINUOUS
 70
     0
  3
Solid line
 72
    65
 73
     0
 40
0.0
  0
LTYPE
  5
3D
330
5
100
AcDbSymbolTableRecord
100
AcDbLinetypeTableRecord
  2
CENTER2
 70
     0
  3
Center (.5x) ___ _ ___ _ ___ _ ___ _ ___ _ ___
 72
    65
 73
     4
 40
1.125
 49
0.75
 74
     0
 49
-0.125
 74
     0
 49
0.125
 74
     0
 49
-0.125
 74
     0
  0
ENDTAB
  0
TABLE
  2
LAYER
  5
2
330
0
100
AcDbSymbolTable
 70
    12
  0
LAYER
  5
10
330
2
100
AcDbSymbolTableRecord
100
AcDbLayerTableRecord
  2
0
 70
     0
 62
     7
  6
CONTINUOUS
  0
LAYER
  5
43
330
2
100
AcDbSymbolTableRecord
100
AcDbLayerTableRecord
  2
CENTER1
 70
     0
 62
     2
  6
CENTER2
  0
LAYER
  5
47
330
2
100
AcDbSymbolTableRecord
100
AcDbLayerTableRecord
  2
CONTINUOUS1
 70
     0
 62
     7
  6
CONTINUOUS
  0
LAYER
  5
48
330
2
100
AcDbSymbolTableRecord
100
AcDbLayerTableRecord
  2
CONTINUOUS2
 70
     0
 62
   254
  6
CONTINUOUS
  0
LAYER
  5
49
330
2
100
AcDbSymbolTableRecord
100
AcDbLayerTableRecord
  2
CONTINUOUS3
 70
     0
 62
   253
  6
CONTINUOUS
  0
LAYER
  5
4D
330
2
100
AcDbSymbolTableRecord
100
AcDbLayerTableRecord
  2
DIM
 70
     0
 62
     2
  6
CONTINUOUS
  0
LAYER
  5
55
330
2
100
AcDbSymbolTableRecord
100
AcDbLayerTableRecord
  2
TEXT1
 70
     0
 62
     3
  6
CONTINUOUS
  0
LAYER
  5
58
330
2
100
AcDbSymbolTableRecord
100
AcDbLayerTableRecord
  2
TITLEBLOCK
 70
     0
 62
     9
  6
CONTINUOUS
  0
LAYER
  5
59
330
2
100
AcDbSymbolTableRecord
100
AcDbLayerTableRecord
  2
VIEWPORT
 70
     0
 62
     9
  6
CONTINUOUS
  0
LAYER
  5
19F
330
2
100
AcDbSymbolTableRecord
100
AcDbLayerTableRecord
  2
DEFPOINTS
 70
     0
 62
     7
  6
CONTINUOUS
  0
LAYER
  5
1DD7
330
2
100
AcDbSymbolTableRecord
100
AcDbLayerTableRecord
  2
CENTER2
 70
     0
 62
    50
  6
CENTER2
  0
LAYER
  5
1DE2
330
2
100
AcDbSymbolTableRecord
100
AcDbLayerTableRecord
  2
TEXT2
 70
     0
 62
    80
  6
CONTINUOUS
  0
ENDTAB
  0
TABLE
  2
STYLE
  5
3
330
0
100
AcDbSymbolTable
 70
     3
  0
STYLE
  5
11
330
3
100
AcDbSymbolTableRecord
100
AcDbTextStyleTableRecord
  2
STANDARD
 70
     0
 40
0.0
 41
1.0
 50
0.0
 71
     0
 42
0.2
  3
txt
  4

  0
STYLE
  5
36
330
3
100
AcDbSymbolTableRecord
100
AcDbTextStyleTableRecord
  2
ROMANS
 70
     0
 40
0.0
 41
1.0
 50
0.0
 71
     0
 42
0.2
  3
romans.shx
  4

  0
STYLE
  5
531
330
3
100
AcDbSymbolTableRecord
100
AcDbTextStyleTableRecord
  2
M_STANDARD
 70
     0
 40
0.0
 41
0.8
 50
0.0
 71
     0
 42
0.0
  3
MEDUSA.SHX
  4

  0
ENDTAB
  0
TABLE
  2
VIEW
  5
6
330
0
100
AcDbSymbolTable
 70
     0
  0
ENDTAB
  0
TABLE
  2
UCS
  5
7
330
0
100
AcDbSymbolTable
 70
     0
  0
ENDTAB
  0
TABLE
  2
APPID
  5
9
330
0
100
AcDbSymbolTable
 70
    11
  0
APPID
  5
12
330
9
100
AcDbSymbolTableRecord
100
AcDbRegAppTableRecord
  2
ACAD
 70
     0
  0
APPID
  5
6B
330
9
100
AcDbSymbolTableRecord
100
AcDbRegAppTableRecord
  2
DCO15
 70
     0
  0
APPID
  5
532
330
9
100
AcDbSymbolTableRecord
100
AcDbRegAppTableRecord
  2
MCAD_NO_VIS
 70
     0
  0
APPID
  5
533
330
9
100
AcDbSymbolTableRecord
100
AcDbRegAppTableRecord
  2
ACAD_TEMP_GRAPHIC
 70
     0
  0
APPID
  5
534
330
9
100
AcDbSymbolTableRecord
100
AcDbRegAppTableRecord
  2
GENIUS_GENSCREG_15
 70
     0
  0
APPID
  5
535
330
9
100
AcDbSymbolTableRecord
100
AcDbRegAppTableRecord
  2
GENIUS_GENODEF_13
 70
     0
  0
APPID
  5
536
330
9
100
AcDbSymbolTableRecord
100
AcDbRegAppTableRecord
  2
GENIUS_GENOBJ-N-SDF_13
 70
     0
  0
APPID
  5
537
330
9
100
AcDbSymbolTableRecord
100
AcDbRegAppTableRecord
  2
GENIUS_GENOENT_13
 70
     0
  0
APPID
  5
538
330
9
100
AcDbSymbolTableRecord
100
AcDbRegAppTableRecord
  2
GENIUS_GENOREF_13
 70
     0
  0
APPID
  5
539
330
9
100
AcDbSymbolTableRecord
100
AcDbRegAppTableRecord
  2
GENIUS_GENOLIS_13
 70
     0
  0
APPID
  5
53A
330
9
100
AcDbSymbolTableRecord
100
AcDbRegAppTableRecord
  2
MED_PRIMTYPE
 70
     0
  0
ENDTAB
  0
TABLE
  2
DIMSTYLE
  5
A
330
0
100
AcDbSymbolTable
 70
     1
  0
DIMSTYLE
105
1A1
102
{ACAD_REACTORS
330
2565
330
2486
330
2485
330
2457
330
2456
330
243E
330
243D
102
}
330
A
100
AcDbSymbolTableRecord
100
AcDbDimStyleTableRecord
  2
SCHNEIDERELECTRIC_DUAL_BEL
 70
     0
  3
\P{\H0.8x;
  4

  5
SEARROW
  6

  7

 40
0.0
 41
0.07
 42
0.0625
 43
0.38
 44
0.0625
 45
0.001
 46
0.0
 47
0.0
 48
0.0
140
0.1
141
0.09
142
0.0
143
25.4
144
1.0
145
0.0
146
1.0
147
0.04
 71
     0
 72
     0
 73
     1
 74
     1
 75
     0
 76
     0
 77
     0
 78
     4
170
     1
171
     0
172
     0
173
     0
174
     0
175
     0
176
   256
177
   256
178
   256
270
     2
271
     2
272
     2
273
     2
274
     0
340
36
275
     0
280
     0
281
     0
282
     0
283
     1
284
     0
285
     4
286
     0
287
     3
288
     0
  0
ENDTAB
  0
TABLE
  2
BLOCK_RECORD
  5
1
330
0
100
AcDbSymbolTable
 70
    12
  0
BLOCK_RECORD
  5
1F
102
{ACAD_XDICTIONARY
360
73
102
}
330
1
100
AcDbSymbolTableRecord
100
AcDbBlockTableRecord
  2
*MODEL_SPACE
  0
BLOCK_RECORD
  5
1B
102
{ACAD_XDICTIONARY
360
75
102
}
330
1
100
AcDbSymbolTableRecord
100
AcDbBlockTableRecord
  2
*PAPER_SPACE
  0
BLOCK_RECORD
  5
195
330
1
100
AcDbSymbolTableRecord
100
AcDbBlockTableRecord
  2
SEARROW
1001
ACAD
1000
DesignCenter Data
1002
{
1070
     1
1070
     1
1002
}
  0
BLOCK_RECORD
  5
53C
330
1
100
AcDbSymbolTableRecord
100
AcDbBlockTableRecord
  2
TB-PAD
  0
BLOCK_RECORD
  5
557
330
1
100
AcDbSymbolTableRecord
100
AcDbBlockTableRecord
  2
LOGO-PAD
  0
BLOCK_RECORD
  5
1D09
330
1
100
AcDbSymbolTableRecord
100
AcDbBlockTableRecord
  2
DUALDIM
1001
ACAD
1000
DesignCenter Data
1002
{
1070
     1
1070
     1
1002
}
  0
BLOCK_RECORD
  5
26C8
330
1
100
AcDbSymbolTableRecord
100
AcDbBlockTableRecord
  2
*D4
  0
BLOCK_RECORD
  5
26D5
330
1
100
AcDbSymbolTableRecord
100
AcDbBlockTableRecord
  2
*D5
  0
BLOCK_RECORD
  5
26E2
330
1
100
AcDbSymbolTableRecord
100
AcDbBlockTableRecord
  2
*D6
  0
BLOCK_RECORD
  5
26EF
330
1
100
AcDbSymbolTableRecord
100
AcDbBlockTableRecord
  2
*D7
  0
BLOCK_RECORD
  5
26FC
330
1
100
AcDbSymbolTableRecord
100
AcDbBlockTableRecord
  2
*D8
  0
BLOCK_RECORD
  5
2709
330
1
100
AcDbSymbolTableRecord
100
AcDbBlockTableRecord
  2
*D9
  0
BLOCK_RECORD
  5
2716
330
1
100
AcDbSymbolTableRecord
100
AcDbBlockTableRecord
  2
*D10
  0
BLOCK_RECORD
  5
27FD
330
1
100
AcDbSymbolTableRecord
100
AcDbBlockTableRecord
  2
ATTRIBUTES_FIXED
1001
ACAD
1000
DesignCenter Data
1002
{
1070
     1
1070
     1
1002
}
  0
ENDTAB
  0
ENDSEC
  0
SECTION
  2
BLOCKS
  0
BLOCK
  5
20
330
1F
100
AcDbEntity
  8
0
100
AcDbBlockBegin
  2
*MODEL_SPACE
 70
     0
 10
0.0
 20
0.0
 30
0.0
  3
*MODEL_SPACE
  1

  0
ENDBLK
  5
21
330
1F
100
AcDbEntity
  8
0
100
AcDbBlockEnd
  0
BLOCK
  5
1C
330
1B
100
AcDbEntity
 67
     1
  8
0
100
AcDbBlockBegin
  2
*PAPER_SPACE
 70
     0
 10
0.0
 20
0.0
 30
0.0
  3
*PAPER_SPACE
  1

  0
ENDBLK
  5
1D
330
1B
100
AcDbEntity
 67
     1
  8
0
100
AcDbBlockEnd
  0
BLOCK
  5
197
330
195
100
AcDbEntity
  8
0
100
AcDbBlockBegin
  2
SEARROW
 70
     0
 10
0.0
 20
0.0
 30
0.0
  3
SEARROW
  1

  0
LWPOLYLINE
  5
196
330
195
100
AcDbEntity
  8
0
  6
BYBLOCK
100
AcDbPolyline
 90
        2
 70
     0
 10
0.0
 20
0.0
 40
0.0
 41
0.5000000001500001
 10
-1.000000000300019
 20
0.0
 40
0.5000000001500001
 41
0.5000000001500001
  0
ENDBLK
  5
198
330
195
100
AcDbEntity
  8
0
100
AcDbBlockEnd
  0
BLOCK
  5
54B
330
53C
100
AcDbEntity
  8
0
100
AcDbBlockBegin
  2
TB-PAD
 70
     2
 10
0.0
 20
0.0
 30
0.0
  3
TB-PAD
  1

  0
LWPOLYLINE
  5
53D
330
53C
100
AcDbEntity
  8
CONTINUOUS2
 62
     0
100
AcDbPolyline
 90
        7
 70
     1
 43
0.0
 10
16.4000010086626
 20
-0.0000000084245251
 10
16.4000010086626
 20
-0.0000000084245251
 10
16.4000010086626
 20
-0.0000000084245251
 10
8.002461008662603
 20
-0.0000000084245251
 10
8.002461008662603
 20
0.9120019915754742
 10
16.4000010086626
 20
0.9120019915754742
 10
16.4000010086626
 20
-0.0000000084245251
  0
LINE
  5
53E
330
53C
100
AcDbEntity
  8
CONTINUOUS2
 62
     0
100
AcDbLine
 10
16.4000010086626
 20
0.3039999915754752
 30
0.0
 11
12.2457010086626
 21
0.3039999915754752
 31
0.0
  0
LINE
  5
53F
330
53C
100
AcDbEntity
  8
CONTINUOUS2
 62
     0
100
AcDbLine
 10
12.2457010086626
 20
0.9120019915754742
 30
0.0
 11
12.2457010086626
 21
-0.0000000084245251
 31
0.0
  0
TEXT
  5
540
330
53C
100
AcDbEntity
  8
TEXT1
  6
CONTINUOUS
 62
     0
100
AcDbText
 10
12.36897712979916
 20
0.0611566646937659
 30
0.0
 40
0.0699999951940822
  1
NO.
  7
ROMANS
 11
12.36897712979916
 21
0.096156662290807
 31
0.0
100
AcDbText
 73
     2
  0
TEXT
  5
541
330
53C
100
AcDbEntity
  8
TEXT1
  6
CONTINUOUS
 62
     0
100
AcDbText
 10
12.36897712979916
 20
0.1661566646937658
 30
0.0
 40
0.0699999951940822
  1
DWG#
  7
ROMANS
 11
12.36897712979916
 21
0.2011566622908068
 31
0.0
100
AcDbText
 73
     2
  0
ATTDEF
  5
542
330
53C
100
AcDbEntity
  8
TEXT1
 62
     0
100
AcDbText
 10
10.10183835760059
 20
0.7474460800344916
 30
0.0
 40
0.1
  1

  7
ROMANS
 72
     4
 11
10.10183835760059
 21
0.7474460800344916
 31
0.0
100
AcDbAttributeDefinition
  3
DESCRIPTION 1
  2
DESCRIPTION 1
 70
     0
  0
ATTDEF
  5
543
330
53C
100
AcDbEntity
  8
TEXT1
 62
     0
100
AcDbText
 10
10.10183835760059
 20
0.6017231627161466
 30
0.0
 40
0.1
  1

  7
ROMANS
 72
     4
 11
10.10183835760059
 21
0.6017231627161466
 31
0.0
100
AcDbAttributeDefinition
  3
DESCRIPTION 2
  2
DESCRIPTION 2
 70
     0
  0
ATTDEF
  5
544
330
53C
100
AcDbEntity
  8
TEXT1
 62
     0
100
AcDbText
 10
10.10183835760059
 20
0.4560002453978016
 30
0.0
 40
0.08
  1

  7
ROMANS
 72
     4
 11
10.10183835760059
 21
0.4560002453978016
 31
0.0
100
AcDbAttributeDefinition
  3
DESCRIPTION 3
  2
DESCRIPTION 3
 70
     0
  0
ATTDEF
  5
545
330
53C
100
AcDbEntity
  8
TEXT1
 62
     0
100
AcDbText
 10
10.10183835760059
 20
0.3202773280794582
 30
0.0
 40
0.08
  1

  7
ROMANS
 72
     4
 11
10.10183835760059
 21
0.3202773280794582
 31
0.0
100
AcDbAttributeDefinition
  3
DESCRIPTION 4
  2
DESCRIPTION 4
 70
     0
  0
ATTDEF
  5
546
330
53C
100
AcDbEntity
  8
TEXT1
 62
     0
100
AcDbText
 10
10.10183835760059
 20
0.1845544107611148
 30
0.0
 40
0.08
  1

  7
ROMANS
 72
     4
 11
10.10183835760059
 21
0.1845544107611148
 31
0.0
100
AcDbAttributeDefinition
  3
DESCRIPTION 5
  2
DESCRIPTION 5
 70
     0
  0
ATTDEF
  5
547
330
53C
100
AcDbEntity
  8
TEXT1
 62
     0
100
AcDbText
 10
12.74772367969455
 20
0.09654053761198
 30
0.0
 40
0.12
  1

 41
0.9512024731840066
  7
M_STANDARD
 11
12.74772367969455
 21
0.1565405376119799
 31
0.0
100
AcDbAttributeDefinition
  3
DRAWING NUMBER
  2
DWGNO
 70
     0
 74
     2
  0
ATTDEF
  5
548
330
53C
100
AcDbEntity
  8
TEXT1
 62
     0
100
AcDbText
 10
16.35506455815586
 20
-0.1507193164174602
 30
0.0
 40
0.08
  1

  7
ROMANS
 72
     2
 11
16.35506455815586
 21
-0.1107193164174602
 31
0.0
100
AcDbAttributeDefinition
  3
REF DWG #
  2
REF
 70
     0
 74
     2
  0
ATTDEF
  5
549
330
53C
100
AcDbEntity
  8
TEXT1
 62
     0
100
AcDbText
 10
0.0266402460664743
 20
-0.1507193164174602
 30
0.0
 40
0.08
  1

  7
ROMANS
 11
0.0266402460664743
 21
-0.1107193164174602
 31
0.0
100
AcDbAttributeDefinition
  3
DATE MODIFIED
  2
DATE
 70
     0
 74
     2
  0
LWPOLYLINE
  5
54A
330
53C
100
AcDbEntity
  8
CONTINUOUS3
 62
     0
100
AcDbPolyline
 90
        4
 70
   129
 43
0.0
 10
0.0000000086626031
 20
-0.0000000084245251
 10
16.4000010086626
 20
-0.0000000084245251
 10
16.4000010086626
 20
10.1
 10
0.0000000086626031
 20
10.1
  0
ENDBLK
  5
54C
330
53C
100
AcDbEntity
  8
0
100
AcDbBlockEnd
  0
BLOCK
  5
599
330
557
100
AcDbEntity
  8
0
100
AcDbBlockBegin
  2
LOGO-PAD
 70
     0
 10
0.0
 20
0.0
 30
0.0
  3
LOGO-PAD
  1

  0
HATCH
  5
558
330
557
100
AcDbEntity
  8
CONTINUOUS1
 62
     9
100
AcDbHatch
 10
0.0
 20
0.0
 30
0.0
210
0.0
220
0.0
230
1.0
  2
SOLID
 70
     1
 71
     1
 91
        1
 92
        1
 93
        4
 72
     1
 10
1.830314246824318
 20
0.3820863083685713
 11
1.830314246824318
 21
0.3931967807444612
 72
     2
 10
1.808269786605604
 20
0.3584765545696773
 40
0.041127269930821
 50
57.58784372121546
 51
302.4121562787845
 73
     1
 72
     1
 10
1.830314246824318
 20
0.3237563283948935
 11
1.830314246824318
 21
0.3348668007707834
 72
     2
 10
1.812192479989334
 20
0.3584765545696773
 40
0.0297627100188458
 50
52.49180531393238
 51
307.5081946860675
 73
     0
 97
        1
330
55D
 75
     0
 76
     1
 98
        1
 10
-6.623918024059631
 20
-0.1308261527660757
  0
HATCH
  5
559
330
557
100
AcDbEntity
  8
CONTINUOUS1
 62
     9
100
AcDbHatch
 10
0.0
 20
0.0
 30
0.0
210
0.0
220
0.0
230
1.0
  2
SOLID
 70
     1
 71
     1
 91
        1
 92
        1
 93
        4
 72
     1
 10
2.998736751853392
 20
0.4763401613594179
 11
1.673816157100507
 21
0.4763642794500816
 72
     1
 10
1.673816157100507
 20
0.4763642794500816
 11
1.673816157100507
 21
0.4979941642056934
 72
     1
 10
1.673816157100507
 20
0.4979941642056934
 11
2.998736751853392
 21
0.4979700461150296
 72
     1
 10
2.998736751853392
 20
0.4979700461150296
 11
2.998736751853392
 21
0.4763401613594179
 97
        1
330
55B
 75
     0
 76
     1
 98
        1
 10
-6.623918024059631
 20
-0.1308261527660757
  0
HATCH
  5
55A
330
557
100
AcDbEntity
  8
CONTINUOUS1
 62
     9
100
AcDbHatch
 10
0.0
 20
0.0
 30
0.0
210
0.0
220
0.0
230
1.0
  2
SOLID
 70
     1
 71
     1
 91
        1
 92
        1
 93
       26
 72
     1
 10
1.706158971979878
 20
0.6423016628555165
 11
1.794659236046104
 21
0.6423016628555165
 72
     2
 10
1.794659059797441
 20
0.6315206045637596
 40
0.0107810582931976
 50
270.0009366709926
 51
360.0009366862294
 73
     0
 72
     1
 10
1.805440118089197
 20
0.6315204283122289
 11
1.827002575925892
 21
0.6315204283122289
 72
     1
 10
1.827002575925892
 20
0.6315204283122289
 11
1.827002575925892
 21
0.6423016628555165
 72
     2
 10
1.805440021527005
 20
0.6423017594181574
 40
0.0215625543991033
 50
359.9997434148255
 51
449.9997434160159
 73
     1
 72
     1
 10
1.805440118089197
 20
0.6638643138170442
 11
1.695377564936368
 21
0.6638643138170442
 72
     2
 10
1.695378186492716
 20
0.6423022844272413
 40
0.0215620293987615
 50
90.00165163282177
 51
180.0014125206716
 73
     1
 72
     1
 10
1.673816157100507
 20
0.6423017528555879
 11
1.673816157100507
 21
0.6107079034654821
 72
     2
 10
1.695378141491445
 20
0.6107073268949657
 40
0.0215619843986475
 50
179.9984679027414
 51
269.9984679437668
 73
     1
 72
     1
 10
1.695377564936368
 20
0.5891453425040259
 11
1.794659236046104
 21
0.5891456106290894
 72
     2
 10
1.794659058859963
 20
0.5783645513998547
 40
0.0107810592306907
 50
270.0009416531222
 51
360.0009416684906
 73
     0
 72
     1
 10
1.805440118089197
 20
0.5783643742108216
 11
1.805440286839289
 21
0.5675829596673912
 72
     2
 10
1.794659009170951
 20
0.5675828227932667
 40
0.0107812776692067
 50
359.9992725992319
 51
449.9997907459082
 73
     0
 72
     1
 10
1.794659048546041
 20
0.5568015451241313
 11
1.706158971979878
 21
0.5568015451239608
 72
     2
 10
1.706158926979732
 20
0.5675830946673887
 40
0.0107815495435218
 50
89.99976085826782
 51
179.9997608594354
 73
     0
 72
     1
 10
1.695377377436305
 20
0.5675830496674626
 11
1.673816157100507
 21
0.5675830496674626
 72
     1
 10
1.673816157100507
 20
0.5675830496674626
 11
1.673816157100507
 21
0.5568018132491948
 72
     2
 10
1.695378051486819
 20
0.5568010585565073
 40
0.0215618943995203
 50
179.9979945776083
 51
269.9987071039827
 73
     1
 72
     1
 10
1.695377564936368
 20
0.5352391641624768
 11
1.805440118089197
 21
0.5352391641624768
 72
     2
 10
1.805440156527087
 20
0.5568015835616184
 40
0.0215624193991759
 50
269.9998978626289
 51
359.9996636967671
 73
     1
 72
     1
 10
1.827002575925892
 20
0.5568014569988696
 11
1.827002575925892
 21
0.5887705485089332
 72
     2
 10
1.805440111526664
 20
0.5887705550714311
 40
0.0215624643992288
 50
359.9999825621309
 51
449.9999825620359
 73
     1
 72
     1
 10
1.805440118089197
 20
0.6103330194706591
 11
1.706158971979878
 21
0.6103327513454251
 72
     2
 10
1.706158881980003
 20
0.6211142558887484
 40
0.0107815045436989
 50
89.99952171675776
 51
179.9999900368059
 73
     0
 72
     1
 10
1.695377377436305
 20
0.6211142540139467
 11
1.695377564936368
 21
0.6315205164371496
 72
     2
 10
1.706158885728571
 20
0.6315203420622487
 40
0.0107813207936133
 50
180.0009266903443
 51
270.0004583701697
 73
     0
 97
        1
330
55C
 75
     0
 76
     1
 98
        1
 10
-6.623918024059631
 20
-0.1308261527660757
  0
LWPOLYLINE
  5
55B
102
{ACAD_REACTORS
330
559
102
}
330
557
100
AcDbEntity
  8
CONTINUOUS1
  6
CONTINUOUS
 62
     9
100
AcDbPolyline
 90
        4
 70
     1
 43
0.0
 10
2.998736751853392
 20
0.4763401613594179
 10
1.673816157100507
 20
0.4763642794500816
 10
1.673816157100507
 20
0.4979941642056934
 10
2.998736751853392
 20
0.4979700461150296
  0
LWPOLYLINE
  5
55C
102
{ACAD_REACTORS
330
55A
102
}
330
557
100
AcDbEntity
  8
CONTINUOUS1
  6
CONTINUOUS
 62
     9
100
AcDbPolyline
 90
       26
 70
     1
 43
0.0
 10
1.706158971979878
 20
0.6423016628555165
 10
1.794659236046104
 20
0.6423016628555165
 42
-0.4142135624509854
 10
1.805440118089197
 20
0.6315204283122289
 10
1.827002575925892
 20
0.6315204283122289
 10
1.827002575925892
 20
0.6423016628555165
 42
0.4142135623791847
 10
1.805440118089197
 20
0.6638643138170442
 10
1.695377564936368
 20
0.6638643138170442
 42
0.4142123400440204
 10
1.673816157100507
 20
0.6423017528555879
 10
1.673816157100507
 20
0.6107079034654821
 42
0.4142135625828059
 10
1.695377564936368
 20
0.5891453425040259
 10
1.794659236046104
 20
0.5891456106290894
 42
-0.4142135624516547
 10
1.805440118089197
 20
0.5783643742108216
 10
1.805440286839289
 20
0.5675829596673912
 42
-0.4142162111159897
 10
1.794659048546041
 20
0.5568015451241313
 10
1.706158971979878
 20
0.5568015451239608
 42
-0.4142135623790486
 10
1.695377377436305
 20
0.5675830496674626
 10
1.673816157100507
 20
0.5675830496674626
 10
1.673816157100507
 20
0.5568018132491948
 42
0.4142172047777202
 10
1.695377564936368
 20
0.5352391641624768
 10
1.805440118089197
 20
0.5352391641624768
 42
0.4142123653291911
 10
1.827002575925892
 20
0.5568014569988696
 10
1.827002575925892
 20
0.5887705485089332
 42
0.4142135623726066
 10
1.805440118089197
 20
0.6103330194706591
 10
1.706158971979878
 20
0.6103327513454251
 42
-0.4142159564042797
 10
1.695377377436305
 20
0.6211142540139467
 10
1.695377564936368
 20
0.6315205164371496
 42
-0.4142111683453352
  0
LWPOLYLINE
  5
55D
102
{ACAD_REACTORS
330
558
102
}
330
557
100
AcDbEntity
  8
CONTINUOUS1
  6
CONTINUOUS
 62
     9
100
AcDbPolyline
 90
        4
 70
     1
 43
0.0
 10
1.830314246824318
 20
0.3820863083685713
 10
1.830314246824318
 20
0.3931967807444612
 42
1.819450421535996
 10
1.830314246824318
 20
0.3237563283948935
 10
1.830314246824318
 20
0.3348668007707834
 42
-2.028165022884401
  0
HATCH
  5
55E
330
557
100
AcDbEntity
  8
CONTINUOUS1
 62
     9
100
AcDbHatch
 10
0.0
 20
0.0
 30
0.0
210
0.0
220
0.0
230
1.0
  2
SOLID
 70
     1
 71
     1
 91
        4
 92
        1
 93
        4
 72
     1
 10
1.486316041326151
 20
0.6638643138170442
 11
1.111315796341873
 21
0.6638643138170442
 72
     1
 10
1.111315796341873
 20
0.6638643138170442
 11
1.111315796341873
 21
0.2888644264609757
 72
     1
 10
1.111315796341873
 20
0.2888644264609757
 11
1.486316041326151
 21
0.2888644264609757
 72
     1
 10
1.486316041326151
 20
0.2888644264609757
 11
1.486316041326151
 21
0.6638643138170442
 97
        1
330
55F
 92
        0
 93
       10
 72
     1
 10
1.392565980080039
 20
0.6001142882630579
 11
1.175065956006481
 21
0.6001142882630579
 72
     1
 10
1.175065956006481
 20
0.6001142882630579
 11
1.175065956006481
 21
0.5569891671065084
 72
     1
 10
1.175065956006481
 20
0.5569891671065084
 11
1.208816124682616
 21
0.5569891671065084
 72
     1
 10
1.208816124682616
 20
0.5569891671065084
 11
1.208816124682616
 21
0.3957395731715114
 72
     1
 10
1.208816124682616
 20
0.3957395731715114
 11
1.175065956006481
 21
0.3957395731715114
 72
     1
 10
1.175065956006481
 20
0.3957395731715114
 11
1.175065956006481
 21
0.3526143179045111
 72
     1
 10
1.175065956006481
 20
0.3526143179045111
 11
1.392565980080039
 21
0.3526143179045111
 72
     1
 10
1.392565980080039
 20
0.3526143179045111
 11
1.422565792254577
 21
0.3826143535964666
 72
     1
 10
1.422565792254577
 20
0.3826143535964666
 11
1.422565792254577
 21
0.5701142078676189
 72
     1
 10
1.422565792254577
 20
0.5701142078676189
 11
1.392565980080039
 21
0.6001142882630579
 97
        1
330
560
 92
       16
 93
        4
 72
     1
 10
1.454440827383312
 20
0.631989144577688
 11
1.143190831470779
 21
0.631989144577688
 72
     1
 10
1.143190831470779
 20
0.631989144577688
 11
1.143190831470779
 21
0.3207393721827434
 72
     1
 10
1.143190831470779
 20
0.3207393721827434
 11
1.454440827383312
 21
0.3207393721827434
 72
     1
 10
1.454440827383312
 20
0.3207393721827434
 11
1.454440827383312
 21
0.631989144577688
 97
        1
330
561
 92
        0
 93
        4
 72
     1
 10
1.251941245839166
 20
0.5569891671065084
 11
1.251941245839166
 21
0.3957395731715114
 72
     1
 10
1.251941245839166
 20
0.3957395731715114
 11
1.379440760504994
 21
0.3957395731715114
 72
     1
 10
1.379440760504994
 20
0.3957395731715114
 11
1.379440760504994
 21
0.5569891671065084
 72
     1
 10
1.379440760504994
 20
0.5569891671065084
 11
1.251941245839166
 21
0.5569891671065084
 97
        1
330
562
 75
     0
 76
     1
 98
        1
 10
-6.623918024059631
 20
-0.1308261527660757
  0
LWPOLYLINE
  5
55F
102
{ACAD_REACTORS
330
55E
102
}
330
557
100
AcDbEntity
  8
CONTINUOUS1
  6
CONTINUOUS
 62
     9
100
AcDbPolyline
 90
        4
 70
     1
 43
0.0
 10
1.486316041326151
 20
0.6638643138170442
 10
1.111315796341873
 20
0.6638643138170442
 10
1.111315796341873
 20
0.2888644264609757
 10
1.486316041326151
 20
0.2888644264609757
  0
LWPOLYLINE
  5
560
102
{ACAD_REACTORS
330
55E
102
}
330
557
100
AcDbEntity
  8
CONTINUOUS1
  6
CONTINUOUS
 62
     9
100
AcDbPolyline
 90
       10
 70
     1
 43
0.0
 10
1.392565980080039
 20
0.6001142882630579
 10
1.175065956006481
 20
0.6001142882630579
 10
1.175065956006481
 20
0.5569891671065084
 10
1.208816124682616
 20
0.5569891671065084
 10
1.208816124682616
 20
0.3957395731715114
 10
1.175065956006481
 20
0.3957395731715114
 10
1.175065956006481
 20
0.3526143179045111
 10
1.392565980080039
 20
0.3526143179045111
 10
1.422565792254577
 20
0.3826143535964666
 10
1.422565792254577
 20
0.5701142078676189
  0
LWPOLYLINE
  5
561
102
{ACAD_REACTORS
330
55E
102
}
330
557
100
AcDbEntity
  8
CONTINUOUS1
  6
CONTINUOUS
 62
     9
100
AcDbPolyline
 90
        4
 70
     1
 43
0.0
 10
1.454440827383312
 20
0.631989144577688
 10
1.143190831470779
 20
0.631989144577688
 10
1.143190831470779
 20
0.3207393721827434
 10
1.454440827383312
 20
0.3207393721827434
  0
LWPOLYLINE
  5
562
102
{ACAD_REACTORS
330
55E
102
}
330
557
100
AcDbEntity
  8
CONTINUOUS1
  6
CONTINUOUS
 62
     9
100
AcDbPolyline
 90
        4
 70
     1
 43
0.0
 10
1.251941245839166
 20
0.5569891671065084
 10
1.251941245839166
 20
0.3957395731715114
 10
1.379440760504994
 20
0.3957395731715114
 10
1.379440760504994
 20
0.5569891671065084
  0
HATCH
  5
563
330
557
100
AcDbEntity
  8
CONTINUOUS1
 62
     9
100
AcDbHatch
 10
0.0
 20
0.0
 30
0.0
210
0.0
220
0.0
230
1.0
  2
SOLID
 70
     1
 71
     1
 91
        1
 92
        1
 93
       89
 72
     2
 10
1.645257337476964
 20
0.0814143414971476
 40
0.3138538690791402
 50
284.6944519958723
 51
285.4191253488389
 73
     0
 72
     2
 10
1.720457213394254
 20
0.3531253338612149
 40
0.0319296518074946
 50
284.9683007167661
 51
291.8740039713855
 73
     0
 72
     2
 10
1.718195577080779
 20
0.3443304300779819
 40
0.0409509237081423
 50
290.2257686458056
 51
296.0035662963079
 73
     0
 72
     2
 10
1.72314595174561
 20
0.3537733468281424
 40
0.0302951436135202
 50
295.4187775578141
 51
306.3988581780349
 73
     0
 72
     2
 10
1.730025090825645
 20
0.361238674598352
 40
0.0202344686019184
 50
303.2624042499299
 51
317.2878846799652
 73
     0
 72
     2
 10
1.730612078202064
 20
0.3607780556607589
 40
0.0201290944001072
 50
315.1907124339085
 51
326.4916231752553
 73
     0
 72
     2
 10
1.731384680029217
 20
0.360485539114584
 40
0.0196578170187561
 50
324.5371901048516
 51
336.7528223782186
 73
     0
 72
     2
 10
1.740306489368903
 20
0.3630067677477766
 40
0.0105343712984082
 50
330.185107206006
 51
345.1051507906131
 73
     0
 72
     2
 10
1.730807356874114
 20
0.3584209650416714
 40
0.0209876439961997
 50
339.6643160257259
 51
350.0934782379626
 73
     0
 72
     2
 10
1.736619499258567
 20
0.3581357520531636
 40
0.0153647146054281
 50
345.3114316897936
 51
354.9413954442734
 73
     0
 72
     2
 10
1.736768036672925
 20
0.3568918841578894
 40
0.0153774953930229
 50
350.2708870332075
 51
359.9231366677853
 73
     0
 72
     2
 10
1.730590676285318
 20
0.3543834528394247
 40
0.0217027039382449
 50
353.3080009674447
 51
359.6430783683235
 73
     0
 72
     2
 10
1.740274031623638
 20
0.3541129784720702
 40
0.0120257717465816
 50
358.0668546616999
 51
370.2286816408818
 73
     0
 72
     2
 10
1.734983328508103
 20
0.3525209240439113
 40
0.0171339680084192
 50
1.817597670723287
 51
10.12122589077211
 73
     0
 72
     2
 10
1.720741037007382
 20
0.3544475624347459
 40
0.0314990269535048
 50
9.018567450089358
 51
13.77874652122445
 73
     0
 72
     2
 10
1.736924488523371
 20
0.3496574086216055
 40
0.0146621286791563
 50
10.65944881196798
 51
20.70103934564268
 73
     0
 72
     2
 10
1.736504343267595
 20
0.3481737388171249
 40
0.0146116828357803
 50
14.66530941358183
 51
25.10867622728001
 73
     0
 72
     2
 10
1.732146476908514
 20
0.3484117679524195
 40
0.0187301362989403
 50
20.10490982839685
 51
28.61210132811573
 73
     0
 72
     2
 10
1.735923851992664
 20
0.3448321994977361
 40
0.013764623253097
 50
23.05247272481818
 51
34.97873691770508
 73
     0
 72
     2
 10
1.736817050777414
 20
0.3420413163283825
 40
0.0115697541019344
 50
26.15519936339432
 51
41.2675437975994
 73
     0
 72
     2
 10
1.718278281875029
 20
0.3540391568686173
 40
0.0335714709763406
 50
35.78123864162446
 51
41.15363322202702
 73
     0
 72
     2
 10
1.727768982569827
 20
0.3459769352513192
 40
0.0211206067808035
 50
41.628953043204
 51
51.13236693201276
 73
     0
 72
     2
 10
1.7049361419961
 20
0.3726572867131739
 40
0.0562315357389323
 50
50.07766185775929
 51
54.48975877743766
 73
     0
 72
     2
 10
1.721996710283804
 20
0.3482674527964862
 40
0.0264697940015853
 50
53.88519289323266
 51
64.03139621868574
 73
     0
 72
     2
 10
1.71549323629139
 20
0.3583918783868048
 40
0.0384457260336791
 50
61.92426471048903
 51
71.20704351412637
 73
     0
 72
     2
 10
1.713056446365431
 20
0.3691361880596826
 40
0.0494157401965211
 50
72.54563927506668
 51
79.16534470614535
 73
     0
 72
     2
 10
1.712368390340278
 20
0.378009241623432
 40
0.0582684049416463
 50
80.14095651381211
 51
90.0416888893921
 73
     0
 72
     2
 10
1.711034894028758
 20
0.4162808932093566
 40
0.096548674122413
 50
89.23378781360057
 51
94.71296871457857
 73
     0
 72
     2
 10
1.715019285167041
 20
0.4355757642229089
 40
0.1161301845769512
 50
95.89003491054352
 51
99.42152931169502
 73
     0
 72
     2
 10
1.707384050587419
 20
0.3824129170476944
 40
0.0624455715380243
 50
100.4954159019732
 51
106.3873755254328
 73
     0
 72
     2
 10
1.716129204411812
 20
0.4114303679072302
 40
0.0927517156651875
 50
106.512896770692
 51
110.5690487960562
 73
     0
 72
     2
 10
1.696198413310064
 20
0.3625905204389435
 40
0.0400511678448031
 50
108.4212700638492
 51
114.2391927251731
 73
     0
 72
     2
 10
1.710118011273555
 20
0.4023608384343336
 40
0.082110467699766
 50
111.7018026255303
 51
116.2385814647555
 73
     0
 72
     1
 10
1.673816157100507
 20
0.3287109620632696
 11
1.673816157100507
 21
0.348755448516386
 72
     2
 10
1.683151915978065
 20
0.3592465940770362
 40
0.0140435226704221
 50
228.3350642341723
 51
234.1997399115519
 73
     1
 72
     2
 10
1.71106741933919
 20
0.3855932213725186
 40
0.0522443504544944
 50
226.2457929287056
 51
246.6255762978013
 73
     1
 72
     2
 10
1.7124653088878
 20
0.3860023780454533
 40
0.0531863360228971
 50
245.4180460169437
 51
259.9919736394325
 73
     1
 72
     2
 10
1.710648990849527
 20
0.3758156686850265
 40
0.042838986613708
 50
260.0165443283761
 51
273.9182757893534
 73
     1
 72
     2
 10
1.704270595794476
 20
0.4586741074147547
 40
0.125941558255588
 50
274.2374069265417
 51
275.5960285914579
 73
     1
 72
     2
 10
1.687010818636519
 20
0.5411427391697574
 40
0.2098991318858489
 50
278.0905665143724
 51
278.7875532853595
 73
     1
 72
     2
 10
1.674916599532425
 20
0.5319581852745105
 40
0.2031096024358981
 50
282.5577335184531
 51
283.2741998696473
 73
     1
 72
     2
 10
1.712960478455043
 20
0.3650274495505624
 40
0.0319300969034177
 50
285.6107769316435
 51
293.9249150269261
 73
     1
 72
     2
 10
1.717091548593948
 20
0.3539696976826635
 40
0.0201595864519346
 50
295.9382025947192
 51
314.8152667683908
 73
     1
 72
     2
 10
1.6400442733431
 20
0.4219905414971168
 40
0.1229006178787137
 50
317.946563084173
 51
318.8734190764908
 73
     1
 72
     2
 10
1.689533775167257
 20
0.3727603930704881
 40
0.0534349306228064
 50
323.7393060910158
 51
325.8371011508592
 73
     1
 72
     2
 10
1.732847152652873
 20
0.3433656347877086
 40
0.0010889614970517
 50
325.8371011415855
 51
338.3720801963383
 73
     1
 72
     2
 10
1.729762363574412
 20
0.345527035075586
 40
0.0048325847931998
 50
327.9736107298026
 51
337.3435922236591
 73
     1
 72
     2
 10
1.728938576684472
 20
0.3470616501634721
 40
0.0062808146373788
 50
327.2675058013616
 51
338.1636262704569
 73
     1
 72
     2
 10
1.718066376903955
 20
0.3518592455185608
 40
0.0181620471788818
 50
336.8720644633642
 51
339.5841382784865
 73
     1
 72
     2
 10
1.728443171512713
 20
0.3485112543123717
 40
0.0072851481640173
 50
335.7900569772922
 51
348.373615422373
 73
     1
 72
     2
 10
1.727754169766592
 20
0.3495237604987842
 40
0.0082084908006828
 50
342.4097077310363
 51
352.3427229945868
 73
     1
 72
     2
 10
1.728619171594273
 20
0.3504840831181579
 40
0.0075548925971309
 50
344.2233826564188
 51
361.8598518928816
 73
     1
 72
     2
 10
1.720733754063239
 20
0.3523571712334882
 40
0.0155219307481708
 50
353.9799134066503
 51
362.7705430541222
 73
     1
 72
     2
 10
1.726132206714243
 20
0.3535683939447038
 40
0.0101158423979231
 50
357.3882870010598
 51
372.3082229322081
 73
     1
 72
     2
 10
1.724756018715517
 20
0.3547830051705612
 40
0.0112988364300847
 50
4.781307968932465
 51
20.9890143012329
 73
     1
 72
     2
 10
1.726660663964363
 20
0.3566320215872782
 40
0.0089195903363647
 50
14.2666708584078
 51
35.42677828019
 73
     1
 72
     2
 10
1.725007785367363
 20
0.3573460494205585
 40
0.0099721744159251
 50
26.54339514703695
 51
53.39459405095841
 73
     1
 72
     2
 10
1.719832069396286
 20
0.353126094907573
 40
0.0165274923585889
 50
47.70505911180914
 51
69.77619662812056
 73
     1
 72
     2
 10
1.710207974215595
 20
0.3313170294772276
 40
0.0403465351747173
 50
67.65746071435081
 51
78.07775985177944
 73
     1
 72
     2
 10
1.601474124602898
 20
-0.0764452376149089
 40
0.4623065683695236
 50
75.33141058767751
 51
77.08564753834979
 73
     1
 72
     2
 10
1.727562810239215
 20
0.4665872614049196
 40
0.0951825269178676
 50
103.8381813161471
 51
111.0296444355485
 73
     0
 72
     2
 10
1.70471971545613
 20
0.4062361413736136
 40
0.030655669555327
 50
111.65657497264
 51
141.0002630637684
 73
     0
 72
     2
 10
1.700542583280421
 20
0.4033450635238994
 40
0.0255928623197818
 50
140.1451628894058
 51
170.4005157591877
 73
     0
 72
     2
 10
1.707946390985723
 20
0.4059675729609214
 40
0.0333577023314167
 50
168.0791562340355
 51
196.714918276154
 73
     0
 72
     2
 10
1.706228373491397
 20
0.4054484368029155
 40
0.0318770017390912
 50
198.4970064170468
 51
236.9071959398739
 73
     0
 72
     2
 10
1.712467544153362
 20
0.3958721183130906
 40
0.043306486619005
 50
236.9092344715733
 51
272.9993782410681
 73
     0
 72
     2
 10
1.713943818059902
 20
0.3576895869998347
 40
0.0814335220491864
 50
270.5556637982262
 51
294.5824803086023
 73
     0
 72
     1
 10
1.747820387170609
 20
0.4317422478475242
 11
1.747820387170609
 21
0.4116977613945783
 72
     2
 10
1.740625727683456
 20
0.4079966488085459
 40
0.0080908194585325
 50
27.22242166817361
 51
41.56665402458706
 73
     1
 72
     2
 10
1.706598002528515
 20
0.3661008206880739
 40
0.0619708439541246
 50
49.70116220293705
 51
59.84734228048411
 73
     1
 72
     2
 10
1.71458845708311
 20
0.3777828381052394
 40
0.0478671962964794
 50
61.09387816236751
 51
68.21315356019836
 73
     1
 72
     2
 10
1.721754113738912
 20
0.4005694677942343
 40
0.0241161586298676
 50
63.92424707162
 51
76.50768984029872
 73
     1
 72
     2
 10
1.720387329033739
 20
0.4052584665162603
 40
0.0200226190349931
 50
69.55689277879226
 51
79.95640428982631
 73
     1
 72
     2
 10
1.714854713299164
 20
0.3864537173573991
 40
0.0395635296700699
 50
76.81466162170224
 51
103.1853383782977
 73
     1
 72
     2
 10
1.711556222792086
 20
0.401176318347385
 40
0.0244771044560784
 50
103.5287750504826
 51
118.7111022038487
 73
     1
 72
     2
 10
1.709210382761595
 20
0.405247847997013
 40
0.0197794909640232
 50
118.4171119187522
 51
136.9427492139033
 73
     1
 72
     2
 10
1.705219023490787
 20
0.4088531486190613
 40
0.0144019602014125
 50
136.5818159972848
 51
158.311705465411
 73
     1
 72
     2
 10
1.705906344939513
 20
0.4084853055890463
 40
0.0151768177531213
 50
157.9802459264048
 51
175.7279862744334
 73
     1
 72
     2
 10
1.708158378716641
 20
0.4073882615894271
 40
0.0175288039263104
 50
172.6990132420623
 51
188.9919500615153
 73
     1
 72
     2
 10
1.709434724792039
 20
0.4071277136839012
 40
0.018754306378342
 50
187.5961529692752
 51
202.8514728843145
 73
     1
 72
     2
 10
1.713415982510703
 20
0.4098029626068265
 40
0.0234800083169512
 50
205.095036290115
 51
208.7062773863674
 73
     1
 72
     2
 10
1.716530427614822
 20
0.4130319444988484
 40
0.0277947475210845
 50
211.4617467723877
 51
214.4776167681863
 73
     1
 72
     2
 10
1.798805844752166
 20
0.4794678086208626
 40
0.1334781556174936
 50
217.9960096590552
 51
218.6051445060782
 73
     1
 72
     2
 10
1.71411393594937
 20
0.4147818027158588
 40
0.0270311104968983
 50
223.4727412172602
 51
231.5765454796655
 73
     1
 72
     2
 10
1.714970516181898
 20
0.4199578584883053
 40
0.0317208861058423
 50
236.179619535216
 51
243.9627139296284
 73
     1
 72
     2
 10
1.714189405924324
 20
0.4219347204146949
 40
0.0331913735031554
 50
246.6731896134593
 51
253.5722006974093
 73
     1
 72
     2
 10
1.744025458148191
 20
0.5256870746424274
 40
0.141147928729737
 50
253.8660232573638
 51
256.4915086256218
 73
     1
 72
     2
 10
1.777665220868062
 20
0.6375281662311756
 40
0.2578369482397982
 50
255.0282214889518
 51
257.0441428996435
 73
     1
 72
     2
 10
1.816666655740251
 20
0.7631436335592352
 40
0.3891233421787054
 50
255.5942969765304
 51
256.3550761129648
 73
     1
 97
        1
330
564
 75
     0
 76
     1
 98
        1
 10
-6.623918024059631
 20
-0.1308261527660757
  0
LWPOLYLINE
  5
564
102
{ACAD_REACTORS
330
563
102
}
330
557
100
AcDbEntity
  8
CONTINUOUS1
  6
CONTINUOUS
 62
     9
100
AcDbPolyline
 90
       89
 70
     1
 43
0.0
 10
1.724870853814341
 20
0.3850027786161268
 42
-0.0031619945407147
 10
1.728704150753092
 20
0.3839715765618625
 42
-0.030140937208008
 10
1.732353140628195
 20
0.3827562228082688
 42
-0.0252157404289211
 10
1.736149571400208
 20
0.3811357590471407
 42
-0.0479463296275325
 10
1.741123176189407
 20
0.3781580782775795
 42
-0.0612742161665951
 10
1.744892795204041
 20
0.3749640192613701
 42
-0.0493495283417487
 10
1.747395820137942
 20
0.3718905012960936
 42
-0.0533512835500878
 10
1.749446491741114
 20
0.3682444519009782
 42
-0.0651930963851117
 10
1.750486897271546
 20
0.3657145848738996
 42
-0.0455372415571768
 10
1.751482069845824
 20
0.3620317051387478
 42
-0.0420433899694379
 10
1.751924368767706
 20
0.3594905303429532
 42
-0.0421408027509401
 10
1.752145518228733
 20
0.3569125133419679
 42
-0.0276490321326908
 10
1.752292959125814
 20
0.3545186480399711
 42
-0.0531158483705343
 10
1.752108675831355
 20
0.351977473244347
 42
-0.0362472752477507
 10
1.751850660203931
 20
0.3495099472627889
 42
-0.0207731867223286
 10
1.751333606869341
 20
0.3469453382139709
 42
-0.0438427632265486
 10
1.750639995259209
 20
0.344474466177076
 42
-0.0455993495213645
 10
1.749735288597239
 20
0.3419734677764841
 42
-0.0371366834740924
 10
1.748589323656208
 20
0.3394423311468704
 42
-0.0520851678945367
 10
1.747202100436116
 20
0.3369413208807833
 42
-0.0660357795919543
 10
1.745513316251706
 20
0.3344101842511696
 42
-0.023445788208571
 10
1.743555844029206
 20
0.3319464314809016
 42
-0.0414902487431464
 10
1.741022655867912
 20
0.3295324779815592
 42
-0.0192537831905492
 10
1.737598143154318
 20
0.3268841582216742
 42
-0.0443001092257388
 10
1.733587265860453
 20
0.3244702047221613
 42
-0.0405259275577274
 10
1.727878500744825
 20
0.321995737455723
 42
-0.0288919489310161
 10
1.722345390671794
 20
0.320601346009426
 42
-0.0432269886872848
 10
1.712325993764213
 20
0.3197408521058383
 42
-0.0239119926891615
 10
1.703102059868147
 20
0.320058668037746
 42
-0.0154102708889789
 10
1.696009161539993
 20
0.3210120921031608
 42
-0.0257141890330953
 10
1.689766276740588
 20
0.3225041242924367
 42
-0.0177001500616332
 10
1.68354219344852
 20
0.3245916238161617
 42
-0.0253909309126544
 10
1.679755531853889
 20
0.3260702836495857
 42
-0.0197980181237655
 10
1.673816157100507
 20
0.3287109620632696
 10
1.673816157100507
 20
0.348755448516386
 42
0.0255950620068941
 10
1.674936997903589
 20
0.3478564382385803
 42
0.0891587087538363
 10
1.690340091136224
 20
0.3376364698146977
 42
0.0636766101274314
 10
1.703222261160565
 20
0.3336253562873144
 42
0.0607322500225615
 10
1.713576329651434
 20
0.333076816786218
 42
0.0059281747790857
 10
1.716551650349604
 20
0.3333327662903689
 42
0.0030411878748934
 10
1.719077351184896
 20
0.3337074888945045
 42
0.0031261843860593
 10
1.721552898821219
 20
0.33427519108858
 42
0.0362931935570043
 10
1.725909381570975
 20
0.3358408602267678
 42
0.0825535038755105
 10
1.731300493913952
 20
0.3396688306178253
 42
0.004044194237512
 10
1.732620188585404
 20
0.3411557606659703
 42
0.0091536133499963
 10
1.733748207713492
 20
0.3427541309694111
 42
0.054748767696608
 10
1.733859447984034
 20
0.342964267992159
 42
0.0409070518720577
 10
1.734222024712014
 20
0.3436655038990471
 42
0.0475791486181886
 10
1.734768742118806
 20
0.3447254559255275
 42
0.0118342068154451
 10
1.735087583355696
 20
0.3455237511688556
 42
0.0549613731019633
 10
1.735578847012138
 20
0.3470430857462366
 42
0.0433681134276899
 10
1.73588946407526
 20
0.3484300019622428
 42
0.0771058776446834
 10
1.736170084296336
 20
0.3507292759402394
 42
0.0383751788318603
 10
1.736237541537239
 20
0.3531074432588643
 42
0.0651926246618979
 10
1.736015536381987
 20
0.355724794208641
 42
0.0708375912954788
 10
1.735305167423494
 20
0.3588301234306077
 42
0.092591635874942
 10
1.733928854306643
 20
0.3618023698267057
 42
0.1176994875674221
 10
1.730954199148673
 20
0.3653513242892363
 42
0.0966023314025739
 10
1.725545426224218
 20
0.3686346589100826
 42
0.045498488973316
 10
1.718542922500464
 20
0.370793244312154
 42
0.0076544521501666
 10
1.704797000298331
 20
0.3741673970455399
 42
-0.0313889801307479
 10
1.693406471978821
 20
0.3777443776881459
 42
-0.1287402518965054
 10
1.68089569708869
 20
0.3869440128048614
 42
-0.1327861629458718
 10
1.675308084036803
 20
0.399077201103069
 42
-0.1256013842756795
 10
1.675998130253706
 20
0.4155615784346769
 42
-0.1691830721684855
 10
1.688823634294099
 20
0.4321545839108017
 42
-0.1587876586997674
 10
1.714733561235252
 20
0.4391192794900581
 42
-0.1052225384089748
 10
1.747820387170609
 20
0.4317422478475242
 10
1.747820387170609
 20
0.4116977613945783
 42
0.0626703755683868
 10
1.746679152318026
 20
0.4133648337628988
 42
0.0443000075885412
 10
1.737726307158229
 20
0.4196863985170585
 42
0.0310736945441558
 10
1.732354590554709
 20
0.4222309312336852
 42
0.0549608668437835
 10
1.727380771841954
 20
0.4240200504235081
 42
0.0454075984514084
 10
1.723879222863931
 20
0.4249742457425332
 42
0.1155742899323605
 10
1.705830203734397
 20
0.4249742457425332
 42
0.0663424745816582
 10
1.699797582061794
 20
0.4226440385507435
 42
0.0810098588725135
 10
1.694758065035475
 20
0.418751876104921
 42
0.0950996757952028
 10
1.691836605545322
 20
0.4141754927995867
 42
0.0775942943034753
 10
1.69077169387825
 20
0.4096158516364317
 42
0.0712113554365052
 10
1.690844998364273
 20
0.4046485849914921
 42
0.0666623741392031
 10
1.692152356774816
 20
0.3998445987287487
 42
0.0157583160010225
 10
1.692821818787681
 20
0.3985250545067633
 42
0.0131599749339241
 10
1.693617899800845
 20
0.3972977759814289
 42
0.0026578584258268
 10
1.694497411016957
 20
0.3961841446839576
 42
0.0353742605666019
 10
1.697314951177393
 20
0.3936045733095743
 42
0.0339732171468453
 10
1.70104644425314
 20
0.391456370171682
 42
0.0301117106030551
 10
1.704802657389084
 20
0.3900983225819918
 42
0.0114563422017746
 10
1.711054788441661
 20
0.3884439592457061
 42
0.0087963433832554
 10
1.719858101006852
 20
0.3862549508440911
 42
0.0033195373957588
  0
HATCH
  5
565
330
557
100
AcDbEntity
  8
CONTINUOUS1
 62
     9
100
AcDbHatch
 10
0.0
 20
0.0
 30
0.0
210
0.0
220
0.0
230
1.0
  2
SOLID
 70
     1
 71
     1
 91
        1
 92
        1
 93
       63
 72
     1
 10
2.811736575584777
 20
0.3185392197908646
 11
2.814514193678665
 21
0.3185392197908646
 72
     1
 10
2.814514193678665
 20
0.3185392197908646
 11
2.817291811772722
 21
0.3185392197908646
 72
     1
 10
2.817291811772722
 20
0.3185392197908646
 11
2.82006942986678
 21
0.3185392197908646
 72
     1
 10
2.82006942986678
 20
0.3185392197908646
 11
2.822847047960667
 21
0.3185392197908646
 72
     1
 10
2.822847047960667
 20
0.3185392197908646
 11
2.825624666054725
 21
0.3185392197908646
 72
     1
 10
2.825624666054725
 20
0.3185392197908646
 11
2.825624666054725
 21
0.3213168378847518
 72
     1
 10
2.825624666054725
 20
0.3213168378847518
 11
2.825624666054725
 21
0.3240944559788095
 72
     1
 10
2.825624666054725
 20
0.3240944559788095
 11
2.825624666054725
 21
0.3629811092945947
 72
     1
 10
2.825624666054725
 20
0.3629811092945947
 11
2.825624666054725
 21
0.3657587273886524
 72
     1
 10
2.825624666054725
 20
0.3657587273886524
 11
2.825624666054725
 21
0.3685363454825397
 72
     1
 10
2.825624666054725
 20
0.3685363454825397
 11
2.826336506825416
 21
0.3713139635765974
 72
     1
 10
2.826336506825416
 20
0.3713139635765974
 11
2.827485670177711
 21
0.3740915816706551
 72
     1
 10
2.827485670177711
 20
0.3740915816706551
 11
2.828930031586512
 21
0.3764803332313709
 72
     1
 10
2.828930031586512
 20
0.3764803332313709
 11
2.83117990224267
 21
0.378258008811486
 72
     1
 10
2.83117990224267
 20
0.378258008811486
 11
2.833957520336728
 21
0.3803481447481549
 72
     1
 10
2.833957520336728
 20
0.3803481447481549
 11
2.836458499551472
 21
0.3821533245041455
 72
     1
 10
2.836458499551472
 20
0.3821533245041455
 11
2.838496571758387
 21
0.3835311386972085
 72
     1
 10
2.838496571758387
 20
0.3835311386972085
 11
2.840318265771859
 21
0.3843965447991882
 72
     1
 10
2.840318265771859
 20
0.3843965447991882
 11
2.84229037461856
 21
0.3852020540465451
 72
     1
 10
2.84229037461856
 20
0.3852020540465451
 11
2.845067992712618
 21
0.3860225445559995
 72
     1
 10
2.845067992712618
 20
0.3860225445559995
 11
2.848792121584697
 21
0.3859647625154712
 72
     1
 10
2.848792121584697
 20
0.3859647625154712
 11
2.851394365793826
 21
0.3851557727118125
 72
     1
 10
2.851394365793826
 20
0.3851557727118125
 11
2.85340084699462
 21
0.3838132449996015
 72
     1
 10
2.85340084699462
 20
0.3838132449996015
 11
2.855500116228117
 21
0.3819776024104162
 72
     1
 10
2.855500116228117
 20
0.3819776024104162
 11
2.857567274135451
 21
0.3796468178584296
 72
     1
 10
2.857567274135451
 20
0.3796468178584296
 11
2.858956083182565
 21
0.3784524420782422
 72
     1
 10
2.858956083182565
 20
0.3784524420782422
 11
2.859999004466235
 21
0.380049012932091
 72
     1
 10
2.859999004466235
 20
0.380049012932091
 11
2.861508043922615
 21
0.3823591474088066
 72
     1
 10
2.861508043922615
 20
0.3823591474088066
 11
2.86329254810855
 21
0.3850909809773389
 72
     1
 10
2.86329254810855
 20
0.3850909809773389
 11
2.864332596004462
 21
0.3866831530647805
 72
     1
 10
2.864332596004462
 20
0.3866831530647805
 11
2.865705695150868
 21
0.3887851813877892
 72
     1
 10
2.865705695150868
 20
0.3887851813877892
 11
2.86451131937051
 21
0.39075729023449
 72
     1
 10
2.86451131937051
 20
0.39075729023449
 11
2.862459275569538
 21
0.3932298076646252
 72
     1
 10
2.862459275569538
 20
0.3932298076646252
 11
2.859413586285572
 21
0.3956385659741959
 72
     1
 10
2.859413586285572
 20
0.3956385659741959
 11
2.857697565716623
 21
0.3970016751998178
 72
     1
 10
2.857697565716623
 20
0.3970016751998178
 11
2.855372955841321
 21
0.3982846352691358
 72
     1
 10
2.855372955841321
 20
0.3982846352691358
 11
2.85340084699462
 21
0.3990901445163222
 72
     1
 10
2.85340084699462
 20
0.3990901445163222
 11
2.850623228900563
 21
0.3990901445163222
 72
     1
 10
2.850623228900563
 20
0.3990901445163222
 11
2.847845610806505
 21
0.3990901445163222
 72
     1
 10
2.847845610806505
 20
0.3990901445163222
 11
2.845067992712618
 21
0.3987012779831507
 72
     1
 10
2.845067992712618
 20
0.3987012779831507
 11
2.84229037461856
 21
0.3977013354693786
 72
     1
 10
2.84229037461856
 20
0.3977013354693786
 11
2.839707189791258
 21
0.3961180931558492
 72
     1
 10
2.839707189791258
 20
0.3961180931558492
 11
2.837429542954087
 21
0.394229312851849
 72
     1
 10
2.837429542954087
 20
0.394229312851849
 11
2.835346329383671
 21
0.3921460992814336
 72
     1
 10
2.835346329383671
 20
0.3921460992814336
 11
2.833263115813085
 21
0.3900628857110182
 72
     1
 10
2.833263115813085
 20
0.3900628857110182
 11
2.831537288210913
 21
0.3878950002004449
 72
     1
 10
2.831537288210913
 20
0.3878950002004449
 11
2.829863986653013
 21
0.3860075632937314
 72
     1
 10
2.829863986653013
 20
0.3860075632937314
 11
2.825624666054725
 21
0.3814779152569376
 72
     1
 10
2.825624666054725
 20
0.3814779152569376
 11
2.825624666054725
 21
0.3860075632937314
 72
     1
 10
2.825624666054725
 20
0.3860075632937314
 11
2.825624666054725
 21
0.3879796721404323
 72
     1
 10
2.825624666054725
 20
0.3879796721404323
 11
2.825624666054725
 21
0.39075729023449
 72
     1
 10
2.825624666054725
 20
0.39075729023449
 11
2.825624666054725
 21
0.3935349083285478
 72
     1
 10
2.825624666054725
 20
0.3935349083285478
 11
2.825624666054725
 21
0.396312526422435
 72
     1
 10
2.825624666054725
 20
0.396312526422435
 11
2.822847047960667
 21
0.396312526422435
 72
     1
 10
2.822847047960667
 20
0.396312526422435
 11
2.82006942986678
 21
0.396312526422435
 72
     1
 10
2.82006942986678
 20
0.396312526422435
 11
2.817291811772722
 21
0.396312526422435
 72
     1
 10
2.817291811772722
 20
0.396312526422435
 11
2.814514193678665
 21
0.396312526422435
 72
     1
 10
2.814514193678665
 20
0.396312526422435
 11
2.811736575584777
 21
0.396312526422435
 72
     1
 10
2.811736575584777
 20
0.396312526422435
 11
2.811736575584777
 21
0.3935349083285478
 72
     1
 10
2.811736575584777
 20
0.3935349083285478
 11
2.811736575584777
 21
0.39075729023449
 72
     1
 10
2.811736575584777
 20
0.39075729023449
 11
2.811736575584777
 21
0.3240944559788095
 72
     1
 10
2.811736575584777
 20
0.3240944559788095
 11
2.811736575584777
 21
0.3213168378847518
 72
     1
 10
2.811736575584777
 20
0.3213168378847518
 11
2.811736575584777
 21
0.3185392197908646
 97
        1
330
566
 75
     0
 76
     1
 98
        1
 10
-6.623918024059631
 20
-0.1308261527660757
  0
LWPOLYLINE
  5
566
102
{ACAD_REACTORS
330
565
102
}
330
557
100
AcDbEntity
  8
CONTINUOUS1
  6
CONTINUOUS
 62
     9
100
AcDbPolyline
 90
       64
 70
     0
 43
0.0
 10
2.811736575584777
 20
0.3185392197908646
 10
2.814514193678665
 20
0.3185392197908646
 10
2.817291811772722
 20
0.3185392197908646
 10
2.82006942986678
 20
0.3185392197908646
 10
2.822847047960667
 20
0.3185392197908646
 10
2.825624666054725
 20
0.3185392197908646
 10
2.825624666054725
 20
0.3213168378847518
 10
2.825624666054725
 20
0.3240944559788095
 10
2.825624666054725
 20
0.3629811092945947
 10
2.825624666054725
 20
0.3657587273886524
 10
2.825624666054725
 20
0.3685363454825397
 10
2.826336506825416
 20
0.3713139635765974
 10
2.827485670177711
 20
0.3740915816706551
 10
2.828930031586512
 20
0.3764803332313709
 10
2.83117990224267
 20
0.378258008811486
 10
2.833957520336728
 20
0.3803481447481549
 10
2.836458499551472
 20
0.3821533245041455
 10
2.838496571758387
 20
0.3835311386972085
 10
2.840318265771859
 20
0.3843965447991882
 10
2.84229037461856
 20
0.3852020540465451
 10
2.845067992712618
 20
0.3860225445559995
 10
2.848792121584697
 20
0.3859647625154712
 10
2.851394365793826
 20
0.3851557727118125
 10
2.85340084699462
 20
0.3838132449996015
 10
2.855500116228117
 20
0.3819776024104162
 10
2.857567274135451
 20
0.3796468178584296
 10
2.858956083182565
 20
0.3784524420782422
 10
2.859999004466235
 20
0.380049012932091
 10
2.861508043922615
 20
0.3823591474088066
 10
2.86329254810855
 20
0.3850909809773389
 10
2.864332596004462
 20
0.3866831530647805
 10
2.865705695150868
 20
0.3887851813877892
 10
2.86451131937051
 20
0.39075729023449
 10
2.862459275569538
 20
0.3932298076646252
 10
2.859413586285572
 20
0.3956385659741959
 10
2.857697565716623
 20
0.3970016751998178
 10
2.855372955841321
 20
0.3982846352691358
 10
2.85340084699462
 20
0.3990901445163222
 10
2.850623228900563
 20
0.3990901445163222
 10
2.847845610806505
 20
0.3990901445163222
 10
2.845067992712618
 20
0.3987012779831507
 10
2.84229037461856
 20
0.3977013354693786
 10
2.839707189791258
 20
0.3961180931558492
 10
2.837429542954087
 20
0.394229312851849
 10
2.835346329383671
 20
0.3921460992814336
 10
2.833263115813085
 20
0.3900628857110182
 10
2.831537288210913
 20
0.3878950002004449
 10
2.829863986653013
 20
0.3860075632937314
 10
2.825624666054725
 20
0.3814779152569376
 10
2.825624666054725
 20
0.3860075632937314
 10
2.825624666054725
 20
0.3879796721404323
 10
2.825624666054725
 20
0.39075729023449
 10
2.825624666054725
 20
0.3935349083285478
 10
2.825624666054725
 20
0.396312526422435
 10
2.822847047960667
 20
0.396312526422435
 10
2.82006942986678
 20
0.396312526422435
 10
2.817291811772722
 20
0.396312526422435
 10
2.814514193678665
 20
0.396312526422435
 10
2.811736575584777
 20
0.396312526422435
 10
2.811736575584777
 20
0.3935349083285478
 10
2.811736575584777
 20
0.39075729023449
 10
2.811736575584777
 20
0.3240944559788095
 10
2.811736575584777
 20
0.3213168378847518
 10
2.811736575584777
 20
0.3185392197908646
  0
HATCH
  5
567
330
557
100
AcDbEntity
  8
CONTINUOUS1
 62
     9
100
AcDbHatch
 10
0.0
 20
0.0
 30
0.0
210
0.0
220
0.0
230
1.0
  2
SOLID
 70
     1
 71
     1
 91
        2
 92
        1
 93
       10
 72
     1
 10
2.824501390082563
 20
0.6423016628555165
 11
2.824501390082563
 21
0.5568015451240994
 72
     1
 10
2.824501390082563
 20
0.5568015451240994
 11
2.803688857735931
 21
0.5568015451240994
 72
     1
 10
2.803688857735931
 20
0.5568015451240994
 11
2.803688857735931
 21
0.5352391641626002
 72
     1
 10
2.803688857735931
 20
0.5352391641626002
 11
2.97056404175391
 21
0.5352391641626002
 72
     2
 10
2.970564089566778
 20
0.5568015929366667
 40
0.0215624287741196
 50
269.9998729514383
 51
359.9996387859521
 73
     1
 72
     1
 10
2.992126518340469
 20
0.5568014569990419
 11
2.992126518340469
 21
0.6423016628555165
 72
     2
 10
2.970563865504514
 20
0.6423018391063527
 40
0.0215626528366757
 50
359.9995316703782
 51
449.9995316742062
 73
     1
 72
     1
 10
2.97056404175391
 20
0.6638644919423083
 11
2.803688857735931
 21
0.6638644919423083
 72
     1
 10
2.803688857735931
 20
0.6638644919423083
 11
2.803688857735931
 21
0.6423016628555165
 72
     1
 10
2.803688857735931
 20
0.6423016628555165
 11
2.824501390082563
 21
0.6423016628555165
 97
        1
330
568
 92
       16
 93
        6
 72
     1
 10
2.846064035419235
 20
0.6423016628555165
 11
2.959782634710521
 21
0.6423016628555165
 72
     2
 10
2.959782720960921
 20
0.6315203420625278
 40
0.0107813207933337
 50
269.9995416346447
 51
359.9995416383139
 73
     0
 72
     1
 10
2.97056404175391
 20
0.6315204283122381
 11
2.97056404175391
 21
0.5675829596674955
 72
     2
 10
2.959782585960379
 20
0.5675830009175986
 40
0.0107814557936096
 50
0.0002192149982456
 51
89.99974092762393
 73
     0
 72
     1
 10
2.959782634710521
 20
0.5568015451240994
 11
2.846064035419235
 21
0.5568015451240994
 72
     1
 10
2.846064035419235
 20
0.5568015451240994
 11
2.846064035419235
 21
0.6423016628555165
 97
        1
330
598
 75
     0
 76
     1
 98
        1
 10
-6.623918024059631
 20
-0.1308261527660757
  0
LWPOLYLINE
  5
568
102
{ACAD_REACTORS
330
567
102
}
330
557
100
AcDbEntity
  8
CONTINUOUS1
  6
CONTINUOUS
 62
     9
100
AcDbPolyline
 90
       11
 70
     0
 43
0.0
 10
2.824501390082563
 20
0.6423016628555165
 10
2.824501390082563
 20
0.5568015451240994
 10
2.803688857735931
 20
0.5568015451240994
 10
2.803688857735931
 20
0.5352391641626002
 10
2.97056404175391
 20
0.5352391641626002
 42
0.4142123653311114
 10
2.992126518340469
 20
0.5568014569990419
 10
2.992126518340469
 20
0.6423016628555165
 42
0.4142135623926597
 10
2.97056404175391
 20
0.6638644919423083
 10
2.803688857735931
 20
0.6638644919423083
 10
2.803688857735931
 20
0.6423016628555165
 10
2.824501390082563
 20
0.6423016628555165
  0
HATCH
  5
569
330
557
100
AcDbEntity
  8
CONTINUOUS1
 62
     9
100
AcDbHatch
 10
0.0
 20
0.0
 30
0.0
210
0.0
220
0.0
230
1.0
  2
SOLID
 70
     1
 71
     1
 91
        2
 92
        1
 93
        8
 72
     1
 10
2.270499521908366
 20
0.6638644919422068
 11
2.186814373487525
 21
0.5352389860374847
 72
     1
 10
2.186814373487525
 20
0.5352389860374847
 11
2.212539634043626
 21
0.5352391641624768
 72
     1
 10
2.212539634043626
 20
0.5352391641624768
 11
2.226567774458121
 21
0.5568015451239608
 72
     1
 10
2.226567774458121
 20
0.5568015451239608
 11
2.329499210452329
 21
0.5568015451239608
 72
     1
 10
2.329499210452329
 20
0.5568015451239608
 11
2.343527538366888
 21
0.5352394322875403
 72
     1
 10
2.343527538366888
 20
0.5352394322875403
 11
2.369251898922275
 21
0.5352394322875403
 72
     1
 10
2.369251898922275
 20
0.5352394322875403
 11
2.285566919251696
 21
0.6638644919422068
 72
     1
 10
2.285566919251696
 20
0.6638644919422068
 11
2.270499521908366
 21
0.6638644919422068
 97
        1
330
56A
 92
       16
 93
        3
 72
     1
 10
2.278033314329977
 20
0.6359049480514618
 11
2.315470001287028
 21
0.5783643742108216
 72
     1
 10
2.315470001287028
 20
0.5783643742108216
 11
2.240596983623252
 21
0.578364196085659
 72
     1
 10
2.240596983623252
 20
0.578364196085659
 11
2.278033126829914
 21
0.635904589926327
 97
        1
330
580
 75
     0
 76
     1
 98
        1
 10
-6.623918024059631
 20
-0.1308261527660757
  0
LWPOLYLINE
  5
56A
102
{ACAD_REACTORS
330
569
102
}
330
557
100
AcDbEntity
  8
CONTINUOUS1
  6
CONTINUOUS
 62
     9
100
AcDbPolyline
 90
        9
 70
     0
 43
0.0
 10
2.270499521908366
 20
0.6638644919422068
 10
2.186814373487525
 20
0.5352389860374847
 10
2.212539634043626
 20
0.5352391641624768
 10
2.226567774458121
 20
0.5568015451239608
 10
2.329499210452329
 20
0.5568015451239608
 10
2.343527538366888
 20
0.5352394322875403
 10
2.369251898922275
 20
0.5352394322875403
 10
2.285566919251696
 20
0.6638644919422068
 10
2.270499521908366
 20
0.6638644919422068
  0
HATCH
  5
56B
330
557
100
AcDbEntity
  8
CONTINUOUS1
 62
     9
100
AcDbHatch
 10
0.0
 20
0.0
 30
0.0
210
0.0
220
0.0
230
1.0
  2
SOLID
 70
     1
 71
     1
 91
        2
 92
        7
 72
     0
 73
     1
 93
       20
 10
2.128442524464478
 20
0.39075729023449
 10
2.128442524464478
 20
0.3935349083285478
 10
2.128443163460961
 20
0.396312526422435
 10
2.125664906370591
 20
0.396312526422435
 10
2.122887288276533
 20
0.396312526422435
 10
2.120109670182646
 20
0.396312526422435
 10
2.117332052088588
 20
0.396312526422435
 10
2.114554433994529
 20
0.3963125264224349
 10
2.114554433994531
 20
0.3935349083285478
 10
2.114554433994531
 20
0.39075729023449
 10
2.114554433994531
 20
0.3240944559788095
 10
2.114554433994531
 20
0.3213168378847518
 10
2.114554433994529
 20
0.3185392197908645
 10
2.117332052088588
 20
0.3185392197908646
 10
2.120109670182646
 20
0.3185392197908646
 10
2.122887288276533
 20
0.3185392197908646
 10
2.125664906370591
 20
0.3185392197908646
 10
2.128442524464478
 20
0.3185392197908646
 10
2.128442524464478
 20
0.3213168378847518
 10
2.128442524464478
 20
0.3240944559788095
 97
        1
330
57A
 92
        7
 72
     1
 73
     1
 93
        2
 10
2.129831333511544
 20
0.4213110892682726
 42
1.0
 10
2.113165624947635
 20
0.4213110892682726
 42
1.0
 97
        1
330
57D
 75
     0
 76
     1
 47
0.0005102668735142
 98
        2
 10
2.122640693305477
 20
0.3456997447544359
 10
2.123406352313963
 20
0.4207089780563021
  0
HATCH
  5
56C
330
557
100
AcDbEntity
  8
CONTINUOUS1
 62
     9
100
AcDbHatch
 10
0.0
 20
0.0
 30
0.0
210
0.0
220
0.0
230
1.0
  2
SOLID
 70
     1
 71
     1
 91
        2
 92
       16
 93
       18
 72
     2
 10
2.321414633785401
 20
0.3528851545616271
 40
0.0664396543383199
 50
198.4619958207183
 51
200.1842354247361
 73
     0
 72
     2
 10
2.346555496252456
 20
0.3352454129199108
 40
0.096445586517071
 50
204.8718608834226
 51
205.9393865440841
 73
     0
 72
     2
 10
2.284841225309381
 20
0.3643060230231959
 40
0.0282500412151287
 50
207.6881291807204
 51
212.1468522298009
 73
     0
 72
     2
 10
2.282909253313798
 20
0.3643452262975984
 40
0.0266120055644413
 50
214.289143935524
 51
220.152251626646
 73
     0
 72
     2
 10
2.278385727874132
 20
0.3678076991082785
 40
0.0209235948276609
 50
220.892661179859
 51
232.6516971443595
 73
     0
 72
     2
 10
2.276895739610928
 20
0.3706911836161677
 40
0.0177364140530899
 50
230.8268348175522
 51
247.1055208447452
 73
     0
 72
     2
 10
2.276817950372624
 20
0.370391197006481
 40
0.0179834923776296
 50
247.7056716281972
 51
261.203082165149
 73
     0
 72
     2
 10
2.278151306688851
 20
0.36717654635147
 40
0.0213802051303731
 50
258.9888491839005
 51
271.7108857747937
 73
     0
 72
     2
 10
2.279349636213083
 20
0.3639169558453035
 40
0.0246366297664502
 50
268.6975355392314
 51
280.2804749251206
 73
     0
 72
     2
 10
2.280596940506969
 20
0.369608213028888
 40
0.0188153276110619
 50
279.6361688894454
 51
298.0573516433577
 73
     0
 72
     2
 10
2.281663127814024
 20
0.3730218708912918
 40
0.0153157982727261
 50
300.5449189786844
 51
323.3255645340623
 73
     0
 72
     2
 10
2.278053685300495
 20
0.3712331984285728
 40
0.0192925244149349
 50
325.4679485472512
 51
338.7424644189146
 73
     0
 72
     2
 10
2.27572340908584
 20
0.3699536532293334
 40
0.0219309169397976
 50
337.8342522704153
 51
350.2507032151334
 73
     0
 72
     2
 10
2.256877395661122
 20
0.3664737796651569
 40
0.0410947224300675
 50
349.9184788839777
 51
358.9348353768806
 73
     0
 72
     1
 10
2.297965016891087
 20
0.3672377124287327
 11
2.257140622649931
 21
0.3672377124287327
 72
     2
 10
2.308122798849584
 20
0.3622878182718704
 40
0.051221906858459
 50
185.5455046984018
 51
188.2011430538267
 73
     0
 72
     2
 10
2.608837683911046
 20
0.3072422364761533
 40
0.3569017845664977
 50
190.0614576287786
 51
190.4239000976597
 73
     0
 72
     2
 10
2.44271291905515
 20
0.3231292571124805
 40
0.1911897814441117
 50
194.7530117273464
 51
195.4074903055051
 73
     0
 97
        1
330
57E
 92
        1
 93
       47
 72
     2
 10
2.281525461809295
 20
0.3532598947256552
 40
0.0241752923918273
 50
138.3496533346511
 51
148.4595555609686
 73
     0
 72
     2
 10
2.281020321028989
 20
0.3521059761880958
 40
0.0231523339774945
 50
150.2396979683238
 51
156.5937677099167
 73
     0
 72
     2
 10
2.296899550485688
 20
0.3585924636724106
 40
0.040303192361997
 50
157.0988242481769
 51
160.8634840437796
 73
     0
 72
     2
 10
2.35918612564275
 20
0.3744094790060188
 40
0.1044765553251907
 50
163.8678439431619
 51
165.4002231692524
 73
     0
 72
     2
 10
2.290868471540939
 20
0.3551965516179019
 40
0.033550015770866
 50
167.7439659185812
 51
173.0844435487628
 73
     0
 72
     2
 10
2.296499925882827
 20
0.356927593697432
 40
0.0393626795107542
 50
171.5698966947791
 51
180.4334275361526
 73
     0
 72
     1
 10
2.257138372636379
 20
0.3572253591981966
 11
2.310532446287798
 21
0.3572253591981966
 72
     1
 10
2.310532446287798
 20
0.3572253591981966
 11
2.310532446287798
 21
0.367418047889942
 72
     2
 10
2.275762964348938
 20
0.36817833181333
 40
0.0347777932873957
 50
358.7473463266968
 51
388.6031824377397
 73
     1
 72
     2
 10
2.281548948774631
 20
0.3715980049238856
 40
0.0280617767156418
 50
28.12879544758857
 51
54.95063515022645
 73
     1
 72
     2
 10
2.282693890302713
 20
0.3712425033481648
 40
0.0277188046407911
 50
57.31076922041544
 51
82.4940245374038
 73
     1
 72
     2
 10
2.280728554650892
 20
0.3702747845720343
 40
0.0289922752746188
 50
78.89077226525315
 51
93.81071159195634
 73
     1
 72
     2
 10
2.277977672205905
 20
0.3689225917587153
 40
0.0302915785144063
 50
88.44115042377268
 51
109.8107905333598
 73
     1
 72
     2
 10
2.275222109874093
 20
0.3727814463646621
 40
0.0257592548203171
 50
106.9521716693699
 51
124.603661569856
 73
     1
 72
     2
 10
2.274773416578598
 20
0.370745022031955
 40
0.027223416564771
 50
121.3907074886569
 51
136.2843774046689
 73
     1
 72
     2
 10
2.281149153841504
 20
0.3640611980123525
 40
0.0364531928221072
 50
135.6167017519909
 51
147.4469381469264
 73
     1
 72
     2
 10
2.274957111114595
 20
0.367416191215975
 40
0.0294330181030494
 50
146.4659438100723
 51
157.2122986253005
 73
     1
 72
     2
 10
2.267138403680966
 20
0.3693204846406612
 40
0.0215246798664316
 50
153.8226534473667
 51
165.5519937306932
 73
     1
 72
     2
 10
2.282236151108303
 20
0.3626756489903522
 40
0.0378968651110208
 50
161.515271747222
 51
170.1818189345484
 73
     1
 72
     2
 10
2.283166665329934
 20
0.3609961355594354
 40
0.0391287629611654
 50
167.9903558377853
 51
176.6960496179407
 73
     1
 72
     2
 10
2.304890836559504
 20
0.3584175027964993
 40
0.0609797779044622
 50
175.4535176021835
 51
184.5464823978164
 73
     1
 72
     2
 10
2.295769604053971
 20
0.3567421254133762
 40
0.0517631080522538
 50
183.4981100536811
 51
194.429389032572
 73
     1
 72
     2
 10
2.267924221356157
 20
0.3485424727520852
 40
0.0227749164074815
 50
191.9070472796621
 51
206.3889894285758
 73
     1
 72
     2
 10
2.273199831303323
 20
0.3487142209845105
 40
0.0276640261495296
 50
201.8464660881787
 51
222.1274079961559
 73
     1
 72
     2
 10
2.27556874488612
 20
0.3494265410796771
 40
0.0299175639630403
 50
220.0955596825676
 51
233.6759197426415
 73
     1
 72
     2
 10
2.276351476329496
 20
0.3502744687142416
 40
0.0310646393940598
 50
233.4391728830817
 51
246.8725717081748
 73
     1
 72
     2
 10
2.278595672201573
 20
0.3544982286952896
 40
0.035832707340859
 50
246.2252262725147
 51
255.2219052108666
 73
     1
 72
     2
 10
2.281256856845732
 20
0.3625382973605903
 40
0.0442887031977101
 50
254.5461626614621
 51
261.28331875032
 73
     1
 72
     2
 10
2.282043884726467
 20
0.3737944212376278
 40
0.0555418412898209
 50
262.2405778669421
 51
267.866769692275
 73
     1
 72
     2
 10
2.283144833705298
 20
0.3642090186578022
 40
0.0460271287848912
 50
266.0527719165295
 51
277.1377488483287
 73
     1
 72
     2
 10
2.281272771008767
 20
0.3743809067507015
 40
0.0563559280448384
 50
277.7413046158855
 51
284.930809102693
 73
     1
 72
     2
 10
2.279338009686233
 20
0.3840626065593292
 40
0.0662121975991039
 50
284.3899023200388
 51
289.2072984924262
 73
     1
 72
     2
 10
2.2245252206173
 20
0.5275821421545017
 40
0.2198223362827568
 50
290.3921624947603
 51
292.6481637583187
 73
     1
 72
     1
 10
2.309172482915673
 20
0.3247109995190845
 11
2.309172482915673
 21
0.3403736793267176
 72
     2
 10
2.305671207258226
 20
0.3412559357119335
 40
0.0036107211964766
 50
14.14304208538034
 51
40.5809188106621
 73
     0
 72
     2
 10
2.288515538402338
 20
0.3631952191068923
 40
0.0313981308170948
 50
50.67407287050084
 51
56.95139529671177
 73
     0
 72
     2
 10
2.289265767974786
 20
0.3612619791193873
 40
0.0293716166250663
 50
56.12144370235181
 51
61.7382303285629
 73
     0
 72
     2
 10
2.280777067438011
 20
0.3754051721516405
 40
0.0458548879987645
 50
60.76359459619522
 51
64.75139576529091
 73
     0
 72
     2
 10
2.279144285908056
 20
0.3763099703744814
 40
0.047382263147091
 50
63.43218982647736
 51
70.38756687457111
 73
     0
 72
     2
 10
2.276591631531688
 20
0.3888655443368394
 40
0.0600934929530564
 50
72.11336347133055
 51
75.85532826122167
 73
     0
 72
     2
 10
2.283489762083886
 20
0.3621959788453819
 40
0.0325472503124577
 50
76.15762347795572
 51
80.1548619188531
 73
     0
 72
     2
 10
2.280375450633645
 20
0.3826983276081179
 40
0.0532819675598692
 50
80.6249603204364
 51
83.12798914716191
 73
     0
 72
     2
 10
2.282758565718186
 20
0.368048205585744
 40
0.0384568363547721
 50
84.04143915734456
 51
95.95856084265543
 73
     0
 72
     2
 10
2.281672526878255
 20
0.3621321664056745
 40
0.0324633646414816
 50
95.13601524590475
 51
98.33322003417473
 73
     0
 72
     2
 10
2.28073781445788
 20
0.3541936259354742
 40
0.0244742127063064
 50
98.86157888906135
 51
112.110164074241
 73
     0
 72
     2
 10
2.279691010914149
 20
0.3522740777554137
 40
0.0223031909484424
 50
111.4747791446618
 51
123.1250142208017
 73
     0
 72
     2
 10
2.280026853888051
 20
0.3517336784423094
 40
0.0220416868943367
 50
124.6239441549396
 51
138.7251729097469
 73
     0
 97
        1
330
57F
 75
     0
 76
     1
 98
        1
 10
-6.623918024059631
 20
-0.1308261527660757
  0
HATCH
  5
56D
330
557
100
AcDbEntity
  8
CONTINUOUS1
 62
     9
100
AcDbHatch
 10
0.0
 20
0.0
 30
0.0
210
0.0
220
0.0
230
1.0
  2
SOLID
 70
     1
 71
     1
 91
        2
 92
       16
 93
       18
 72
     2
 10
2.101715475561753
 20
0.3528851545616271
 40
0.0664396543383199
 50
198.4619958207183
 51
200.1842354247361
 73
     0
 72
     2
 10
2.126856338028808
 20
0.3352454129199108
 40
0.096445586517071
 50
204.8718608834226
 51
205.9393865440841
 73
     0
 72
     2
 10
2.065142067085734
 20
0.3643060230231959
 40
0.0282500412151287
 50
207.6881291807204
 51
212.1468522298009
 73
     0
 72
     2
 10
2.06321009509015
 20
0.3643452262975984
 40
0.0266120055644413
 50
214.289143935524
 51
220.152251626646
 73
     0
 72
     2
 10
2.058686569650484
 20
0.3678076991082785
 40
0.0209235948276609
 50
220.892661179859
 51
232.6516971443595
 73
     0
 72
     2
 10
2.05719658138728
 20
0.3706911836161677
 40
0.0177364140530899
 50
230.8268348175522
 51
247.1055208447452
 73
     0
 72
     2
 10
2.057118792149061
 20
0.3703911970057605
 40
0.0179834923783286
 50
247.7056716288168
 51
261.2030821657686
 73
     0
 72
     2
 10
2.058452148465288
 20
0.3671765463522348
 40
0.021380205129606
 50
258.9888491837334
 51
271.7108857746265
 73
     0
 72
     2
 10
2.059650477989436
 20
0.3639169558453035
 40
0.0246366297664502
 50
268.6975355392314
 51
280.2804749251206
 73
     0
 72
     2
 10
2.060897782283406
 20
0.3696082130283622
 40
0.018815327611566
 50
279.6361688889214
 51
298.0573516428338
 73
     0
 72
     2
 10
2.061963969590546
 20
0.3730218708912918
 40
0.0153157982727261
 50
300.5449189786844
 51
323.3255645340623
 73
     0
 72
     2
 10
2.058354527077018
 20
0.3712331984285728
 40
0.0192925244149349
 50
325.4679485472512
 51
338.7424644189146
 73
     0
 72
     2
 10
2.056024250862277
 20
0.3699536532301173
 40
0.0219309169395808
 50
337.834252272396
 51
350.2507032171141
 73
     0
 72
     2
 10
2.037178237437474
 20
0.3664737796651569
 40
0.0410947224300675
 50
349.9184788839777
 51
358.9348353768806
 73
     0
 72
     1
 10
2.078265858667439
 20
0.3672377124287327
 11
2.037441464426283
 21
0.3672377124287327
 72
     2
 10
2.088423640626022
 20
0.3622878182681919
 40
0.0512219068588993
 50
185.545504702488
 51
188.201143057913
 73
     0
 72
     2
 10
2.389138525687483
 20
0.3072422365031111
 40
0.3569017845617042
 50
190.0614576245198
 51
190.4239000934009
 73
     0
 72
     2
 10
2.223013760831502
 20
0.3231292571124805
 40
0.1911897814441117
 50
194.7530117273464
 51
195.4074903055051
 73
     0
 97
        1
330
57B
 92
        1
 93
       47
 72
     2
 10
2.061826303585647
 20
0.3532598947256552
 40
0.0241752923918273
 50
138.3496533346511
 51
148.4595555609686
 73
     0
 72
     2
 10
2.061321162805342
 20
0.3521059761880958
 40
0.0231523339774945
 50
150.2396979683238
 51
156.5937677099167
 73
     0
 72
     2
 10
2.077200392262041
 20
0.3585924636724106
 40
0.040303192361997
 50
157.0988242481769
 51
160.8634840437796
 73
     0
 72
     2
 10
2.139486967419102
 20
0.3744094790060188
 40
0.1044765553251907
 50
163.8678439431619
 51
165.4002231692524
 73
     0
 72
     2
 10
2.071169313317291
 20
0.3551965516179019
 40
0.033550015770866
 50
167.7439659185812
 51
173.0844435487628
 73
     0
 72
     2
 10
2.076800767659179
 20
0.356927593697432
 40
0.0393626795107542
 50
171.5698966947791
 51
180.4334275361526
 73
     0
 72
     1
 10
2.037439214412732
 20
0.3572253591981966
 11
2.09083328806415
 21
0.3572253591981966
 72
     1
 10
2.09083328806415
 20
0.3572253591981966
 11
2.09083328806415
 21
0.367418047889942
 72
     2
 10
2.05606380612529
 20
0.36817833181333
 40
0.0347777932873957
 50
358.7473463266968
 51
388.6031824377397
 73
     1
 72
     2
 10
2.061849790550983
 20
0.3715980049238856
 40
0.0280617767156418
 50
28.12879544758857
 51
54.95063515022645
 73
     1
 72
     2
 10
2.062994732079065
 20
0.3712425033481648
 40
0.0277188046407911
 50
57.31076922041544
 51
82.4940245374038
 73
     1
 72
     2
 10
2.061029396427244
 20
0.3702747845720343
 40
0.0289922752746188
 50
78.89077226525315
 51
93.81071159195634
 73
     1
 72
     2
 10
2.058278513982257
 20
0.3689225917587153
 40
0.0302915785144063
 50
88.44115042377268
 51
109.8107905333598
 73
     1
 72
     2
 10
2.055522951650445
 20
0.3727814463646621
 40
0.0257592548203171
 50
106.9521716693699
 51
124.603661569856
 73
     1
 72
     2
 10
2.055074258354951
 20
0.370745022031955
 40
0.027223416564771
 50
121.3907074886569
 51
136.2843774046689
 73
     1
 72
     2
 10
2.061449995617856
 20
0.3640611980123525
 40
0.0364531928221072
 50
135.6167017519909
 51
147.4469381469264
 73
     1
 72
     2
 10
2.055257952890947
 20
0.367416191215975
 40
0.0294330181030494
 50
146.4659438100723
 51
157.2122986253005
 73
     1
 72
     2
 10
2.047439245457319
 20
0.3693204846406612
 40
0.0215246798664316
 50
153.8226534473667
 51
165.5519937306932
 73
     1
 72
     2
 10
2.062536992884655
 20
0.3626756489903522
 40
0.0378968651110208
 50
161.515271747222
 51
170.1818189345484
 73
     1
 72
     2
 10
2.063467507106286
 20
0.3609961355594354
 40
0.0391287629611654
 50
167.9903558377853
 51
176.6960496179407
 73
     1
 72
     2
 10
2.085191678335856
 20
0.3584175027964993
 40
0.0609797779044622
 50
175.4535176021835
 51
184.5464823978164
 73
     1
 72
     2
 10
2.076070445830323
 20
0.3567421254133762
 40
0.0517631080522538
 50
183.4981100536811
 51
194.429389032572
 73
     1
 72
     2
 10
2.048225063132509
 20
0.3485424727520852
 40
0.0227749164074815
 50
191.9070472796621
 51
206.3889894285758
 73
     1
 72
     2
 10
2.053500673079675
 20
0.3487142209845105
 40
0.0276640261495296
 50
201.8464660881787
 51
222.1274079961559
 73
     1
 72
     2
 10
2.055869586662472
 20
0.3494265410796771
 40
0.0299175639630403
 50
220.0955596825676
 51
233.6759197426415
 73
     1
 72
     2
 10
2.056652318105848
 20
0.3502744687142416
 40
0.0310646393940598
 50
233.4391728830817
 51
246.8725717081748
 73
     1
 72
     2
 10
2.058896513977925
 20
0.3544982286952896
 40
0.035832707340859
 50
246.2252262725147
 51
255.2219052108666
 73
     1
 72
     2
 10
2.061557698622085
 20
0.3625382973605903
 40
0.0442887031977101
 50
254.5461626614621
 51
261.28331875032
 73
     1
 72
     2
 10
2.06234472650282
 20
0.3737944212376278
 40
0.0555418412898209
 50
262.2405778669421
 51
267.866769692275
 73
     1
 72
     2
 10
2.063445675481736
 20
0.3642090186586808
 40
0.0460271287857736
 50
266.052771916499
 51
277.1377488482981
 73
     1
 72
     2
 10
2.061573612785204
 20
0.3743809067493442
 40
0.056355928043505
 50
277.7413046161573
 51
284.9308091029648
 73
     1
 72
     2
 10
2.059638851462585
 20
0.3840626065593292
 40
0.0662121975991039
 50
284.3899023200388
 51
289.2072984924262
 73
     1
 72
     2
 10
2.004826062393652
 20
0.5275821421545017
 40
0.2198223362827568
 50
290.3921624947603
 51
292.6481637583187
 73
     1
 72
     1
 10
2.089473324692026
 20
0.3247109995190845
 11
2.089473324692026
 21
0.3403736793267176
 72
     2
 10
2.085972049034579
 20
0.3412559357119335
 40
0.0036107211964766
 50
14.14304208538034
 51
40.5809188106621
 73
     0
 72
     2
 10
2.06881638017869
 20
0.3631952191068923
 40
0.0313981308170948
 50
50.67407287050084
 51
56.95139529671177
 73
     0
 72
     2
 10
2.069566609751138
 20
0.3612619791193873
 40
0.0293716166250663
 50
56.12144370235181
 51
61.7382303285629
 73
     0
 72
     2
 10
2.061077909214363
 20
0.3754051721516405
 40
0.0458548879987645
 50
60.76359459619522
 51
64.75139576529091
 73
     0
 72
     2
 10
2.059445127684409
 20
0.3763099703744814
 40
0.047382263147091
 50
63.43218982647736
 51
70.38756687457111
 73
     0
 72
     2
 10
2.056892473308041
 20
0.3888655443368394
 40
0.0600934929530564
 50
72.11336347133055
 51
75.85532826122167
 73
     0
 72
     2
 10
2.063790603860239
 20
0.3621959788453819
 40
0.0325472503124577
 50
76.15762347795572
 51
80.1548619188531
 73
     0
 72
     2
 10
2.060676292409997
 20
0.3826983276081179
 40
0.0532819675598692
 50
80.6249603204364
 51
83.12798914716191
 73
     0
 72
     2
 10
2.063059407494538
 20
0.368048205585744
 40
0.0384568363547721
 50
84.04143915734456
 51
95.95856084265543
 73
     0
 72
     2
 10
2.061973368654692
 20
0.3621321664026192
 40
0.0324633646384463
 50
95.13601524653735
 51
98.33322003480732
 73
     0
 72
     2
 10
2.061038656234403
 20
0.3541936259354742
 40
0.0244742127063064
 50
98.86157888906135
 51
112.110164074241
 73
     0
 72
     2
 10
2.059991852690671
 20
0.3522740777554137
 40
0.0223031909484424
 50
111.4747791446618
 51
123.1250142208017
 73
     0
 72
     2
 10
2.060327695664488
 20
0.3517336784429987
 40
0.0220416868948555
 50
124.6239441537391
 51
138.7251729085464
 73
     0
 97
        1
330
57C
 75
     0
 76
     1
 98
        1
 10
-6.623918024059631
 20
-0.1308261527660757
  0
HATCH
  5
56E
330
557
100
AcDbEntity
  8
CONTINUOUS1
 62
     9
100
AcDbHatch
 10
0.0
 20
0.0
 30
0.0
210
0.0
220
0.0
230
1.0
  2
SOLID
 70
     1
 71
     1
 91
        1
 92
        1
 93
       78
 72
     1
 10
1.93678687597961
 20
0.3185392197908646
 11
1.939564494073497
 21
0.3185392197908646
 72
     1
 10
1.939564494073497
 20
0.3185392197908646
 11
1.942342112167555
 21
0.3185392197908646
 72
     1
 10
1.942342112167555
 20
0.3185392197908646
 11
1.945119730261442
 21
0.3185392197908646
 72
     1
 10
1.945119730261442
 20
0.3185392197908646
 11
1.9478973483555
 21
0.3185392197908646
 72
     1
 10
1.9478973483555
 20
0.3185392197908646
 11
1.950674966449557
 21
0.3185392197908646
 72
     1
 10
1.950674966449557
 20
0.3185392197908646
 11
1.950674966449557
 21
0.3213168378847518
 72
     1
 10
1.950674966449557
 20
0.3213168378847518
 11
1.950674966449557
 21
0.3240944559788095
 72
     1
 10
1.950674966449557
 20
0.3240944559788095
 11
1.950674966449557
 21
0.3713139635765974
 72
     1
 10
1.950674966449557
 20
0.3713139635765974
 11
1.950674966449557
 21
0.3740915816706551
 72
     1
 10
1.950674966449557
 20
0.3740915816706551
 11
1.950674966449557
 21
0.3764121066624857
 72
     1
 10
1.950674966449557
 20
0.3764121066624857
 11
1.953452584543445
 21
0.3787302038875286
 72
     1
 10
1.953452584543445
 20
0.3787302038875286
 11
1.956003614602682
 21
0.3809067470338623
 72
     1
 10
1.956003614602682
 20
0.3809067470338623
 11
1.958366196022527
 21
0.3826818394989009
 72
     1
 10
1.958366196022527
 20
0.3826818394989009
 11
1.961291878825964
 21
0.3848664295055646
 72
     1
 10
1.961291878825964
 20
0.3848664295055646
 11
1.963519951262444
 21
0.3862728726654727
 72
     1
 10
1.963519951262444
 20
0.3862728726654727
 11
1.965368566166691
 21
0.3871741628932459
 72
     1
 10
1.965368566166691
 20
0.3871741628932459
 11
1.967340675013392
 21
0.3877239703094806
 72
     1
 10
1.967340675013392
 20
0.3877239703094806
 11
1.97011829310745
 21
0.3879796721404323
 72
     1
 10
1.97011829310745
 20
0.3879796721404323
 11
1.972895911201337
 21
0.3879796721404323
 72
     1
 10
1.972895911201337
 20
0.3879796721404323
 11
1.975673529295395
 21
0.3875908056072608
 72
     1
 10
1.975673529295395
 20
0.3875908056072608
 11
1.978408481664164
 21
0.3864723471903067
 72
     1
 10
1.978408481664164
 20
0.3864723471903067
 11
1.980423256236154
 21
0.3848131875133736
 72
     1
 10
1.980423256236154
 20
0.3848131875133736
 11
1.982347794679387
 21
0.3828455775268371
 72
     1
 10
1.982347794679387
 20
0.3828455775268371
 11
1.983898127081747
 21
0.3807960064739295
 72
     1
 10
1.983898127081747
 20
0.3807960064739295
 11
1.985408544715742
 21
0.3785266344276583
 72
     1
 10
1.985408544715742
 20
0.3785266344276583
 11
1.986436641229861
 21
0.3760636905171855
 72
     1
 10
1.986436641229861
 20
0.3760636905171855
 11
1.986784001671285
 21
0.3740915816706551
 72
     1
 10
1.986784001671285
 20
0.3740915816706551
 11
1.986784001671285
 21
0.3713139635765974
 72
     1
 10
1.986784001671285
 20
0.3713139635765974
 11
1.986784001671285
 21
0.3240944559788095
 72
     1
 10
1.986784001671285
 20
0.3240944559788095
 11
1.986784001671285
 21
0.3213168378847518
 72
     1
 10
1.986784001671285
 20
0.3213168378847518
 11
1.986784001671285
 21
0.3185392197908646
 72
     1
 10
1.986784001671285
 20
0.3185392197908646
 11
1.989561619765343
 21
0.3185392197908646
 72
     1
 10
1.989561619765343
 20
0.3185392197908646
 11
1.99233923785923
 21
0.3185392197908646
 72
     1
 10
1.99233923785923
 20
0.3185392197908646
 11
1.995116855953288
 21
0.3185392197908646
 72
     1
 10
1.995116855953288
 20
0.3185392197908646
 11
1.997894474047175
 21
0.3185392197908646
 72
     1
 10
1.997894474047175
 20
0.3185392197908646
 11
2.000672092141233
 21
0.3185392197908646
 72
     1
 10
2.000672092141233
 20
0.3185392197908646
 11
2.000672092141233
 21
0.3213168378847518
 72
     1
 10
2.000672092141233
 20
0.3213168378847518
 11
2.000672092141233
 21
0.3240944559788095
 72
     1
 10
2.000672092141233
 20
0.3240944559788095
 11
2.000672092141233
 21
0.3740915816706551
 72
     1
 10
2.000672092141233
 20
0.3740915816706551
 11
2.000672092141233
 21
0.3768691997645424
 72
     1
 10
2.000672092141233
 20
0.3768691997645424
 11
2.000394330331776
 21
0.3796468178584296
 72
     1
 10
2.000394330331776
 20
0.3796468178584296
 11
1.999755478170161
 21
0.3824244359524873
 72
     1
 10
1.999755478170161
 20
0.3824244359524873
 11
1.998811088018246
 21
0.3852020540465451
 72
     1
 10
1.998811088018246
 20
0.3852020540465451
 11
1.997366726609445
 21
0.3877019103309753
 72
     1
 10
1.997366726609445
 20
0.3877019103309753
 11
1.995116855953288
 21
0.3898406762634186
 72
     1
 10
1.995116855953288
 20
0.3898406762634186
 11
1.992605073201364
 21
0.3920766850267801
 72
     1
 10
1.992605073201364
 20
0.3920766850267801
 11
1.989896866645583
 21
0.3938452989406192
 72
     1
 10
1.989896866645583
 20
0.3938452989406192
 11
1.987855574154341
 21
0.3953124560483166
 72
     1
 10
1.987855574154341
 20
0.3953124560483166
 11
1.985252932763362
 21
0.3964598354054947
 72
     1
 10
1.985252932763362
 20
0.3964598354054947
 11
1.982498395711534
 21
0.3975734953987744
 72
     1
 10
1.982498395711534
 20
0.3975734953987744
 11
1.980191734394711
 21
0.3984640481231172
 72
     1
 10
1.980191734394711
 20
0.3984640481231172
 11
1.978042304217613
 21
0.3990083828482516
 72
     1
 10
1.978042304217613
 20
0.3990083828482516
 11
1.975645085390201
 21
0.3994741650645897
 72
     1
 10
1.975645085390201
 20
0.3994741650645897
 11
1.972895911201337
 21
0.3994820966067327
 72
     1
 10
1.972895911201337
 20
0.3994820966067327
 11
1.970108168823831
 21
0.3992749623910759
 72
     1
 10
1.970108168823831
 20
0.3992749623910759
 11
1.967507332098964
 21
0.39861794944045
 72
     1
 10
1.967507332098964
 20
0.39861794944045
 11
1.965118580538248
 21
0.3974235736599217
 72
     1
 10
1.965118580538248
 20
0.3974235736599217
 11
1.962966544042192
 21
0.3962323293606009
 72
     1
 10
1.962966544042192
 20
0.3962323293606009
 11
1.960659803288965
 21
0.3947017891629803
 72
     1
 10
1.960659803288965
 20
0.3947017891629803
 11
1.958231061444994
 21
0.3928857065760103
 72
     1
 10
1.958231061444994
 20
0.3928857065760103
 11
1.95606354555176
 21
0.3912294853105327
 72
     1
 10
1.95606354555176
 20
0.3912294853105327
 11
1.953417691445029
 21
0.3893715454285034
 72
     1
 10
1.953417691445029
 20
0.3893715454285034
 11
1.950674966449557
 21
0.3873342800367259
 72
     1
 10
1.950674966449557
 20
0.3873342800367259
 11
1.950674966449557
 21
0.3935349083285478
 72
     1
 10
1.950674966449557
 20
0.3935349083285478
 11
1.950674966449557
 21
0.396312526422435
 72
     1
 10
1.950674966449557
 20
0.396312526422435
 11
1.950674966449557
 21
0.39075729023449
 72
     1
 10
1.950674966449557
 20
0.39075729023449
 11
1.950674966449557
 21
0.3935349083285478
 72
     1
 10
1.950674966449557
 20
0.3935349083285478
 11
1.950674966449557
 21
0.396312526422435
 72
     1
 10
1.950674966449557
 20
0.396312526422435
 11
1.9478973483555
 21
0.396312526422435
 72
     1
 10
1.9478973483555
 20
0.396312526422435
 11
1.945119730261442
 21
0.396312526422435
 72
     1
 10
1.945119730261442
 20
0.396312526422435
 11
1.942342112167555
 21
0.396312526422435
 72
     1
 10
1.942342112167555
 20
0.396312526422435
 11
1.939564494073497
 21
0.396312526422435
 72
     1
 10
1.939564494073497
 20
0.396312526422435
 11
1.93678687597961
 21
0.396312526422435
 72
     1
 10
1.93678687597961
 20
0.396312526422435
 11
1.93678687597961
 21
0.3935349083285478
 72
     1
 10
1.93678687597961
 20
0.3935349083285478
 11
1.93678687597961
 21
0.39075729023449
 72
     1
 10
1.93678687597961
 20
0.39075729023449
 11
1.93678687597961
 21
0.3240944559788095
 72
     1
 10
1.93678687597961
 20
0.3240944559788095
 11
1.93678687597961
 21
0.3213168378847518
 72
     1
 10
1.93678687597961
 20
0.3213168378847518
 11
1.93678687597961
 21
0.3185392197908646
 97
        1
330
576
 75
     0
 76
     1
 98
        1
 10
-6.623918024059631
 20
-0.1308261527660757
  0
HATCH
  5
56F
330
557
100
AcDbEntity
  8
CONTINUOUS1
 62
     9
100
AcDbHatch
 10
0.0
 20
0.0
 30
0.0
210
0.0
220
0.0
230
1.0
  2
SOLID
 70
     1
 71
     1
 91
        1
 92
        1
 93
       78
 72
     1
 10
1.847903096971979
 20
0.3185392197908646
 11
1.850680715066037
 21
0.3185392197908646
 72
     1
 10
1.850680715066037
 20
0.3185392197908646
 11
1.853458333160094
 21
0.3185392197908646
 72
     1
 10
1.853458333160094
 20
0.3185392197908646
 11
1.856235951253982
 21
0.3185392197908646
 72
     1
 10
1.856235951253982
 20
0.3185392197908646
 11
1.859013569348039
 21
0.3185392197908646
 72
     1
 10
1.859013569348039
 20
0.3185392197908646
 11
1.861791187441927
 21
0.3185392197908646
 72
     1
 10
1.861791187441927
 20
0.3185392197908646
 11
1.861791187441927
 21
0.3213168378847518
 72
     1
 10
1.861791187441927
 20
0.3213168378847518
 11
1.861791187441927
 21
0.3240944559788095
 72
     1
 10
1.861791187441927
 20
0.3240944559788095
 11
1.861791187441927
 21
0.3713139635765974
 72
     1
 10
1.861791187441927
 20
0.3713139635765974
 11
1.861791187441927
 21
0.3740915816706551
 72
     1
 10
1.861791187441927
 20
0.3740915816706551
 11
1.861791187441927
 21
0.3764121066624857
 72
     1
 10
1.861791187441927
 20
0.3764121066624857
 11
1.864568805535984
 21
0.3787302038875286
 72
     1
 10
1.864568805535984
 20
0.3787302038875286
 11
1.867119835595051
 21
0.3809067470338623
 72
     1
 10
1.867119835595051
 20
0.3809067470338623
 11
1.869482417015067
 21
0.3826818394989009
 72
     1
 10
1.869482417015067
 20
0.3826818394989009
 11
1.872408099818333
 21
0.3848664295055646
 72
     1
 10
1.872408099818333
 20
0.3848664295055646
 11
1.874636172254813
 21
0.3862728726654727
 72
     1
 10
1.874636172254813
 20
0.3862728726654727
 11
1.876484787159231
 21
0.3871741628932459
 72
     1
 10
1.876484787159231
 20
0.3871741628932459
 11
1.878456896005932
 21
0.3877239703094806
 72
     1
 10
1.878456896005932
 20
0.3877239703094806
 11
1.881234514099819
 21
0.3879796721404323
 72
     1
 10
1.881234514099819
 20
0.3879796721404323
 11
1.884012132193877
 21
0.3879796721404323
 72
     1
 10
1.884012132193877
 20
0.3879796721404323
 11
1.886789750287764
 21
0.3875908056072608
 72
     1
 10
1.886789750287764
 20
0.3875908056072608
 11
1.889524702656704
 21
0.3864723471903067
 72
     1
 10
1.889524702656704
 20
0.3864723471903067
 11
1.891539477228523
 21
0.3848131875133736
 72
     1
 10
1.891539477228523
 20
0.3848131875133736
 11
1.893464015671927
 21
0.3828455775268371
 72
     1
 10
1.893464015671927
 20
0.3828455775268371
 11
1.895014348074116
 21
0.3807960064739295
 72
     1
 10
1.895014348074116
 20
0.3807960064739295
 11
1.896524765708281
 21
0.3785266344276583
 72
     1
 10
1.896524765708281
 20
0.3785266344276583
 11
1.897552862222401
 21
0.3760636905171855
 72
     1
 10
1.897552862222401
 20
0.3760636905171855
 11
1.897900222663825
 21
0.3740915816706551
 72
     1
 10
1.897900222663825
 20
0.3740915816706551
 11
1.897900222663825
 21
0.3713139635765974
 72
     1
 10
1.897900222663825
 20
0.3713139635765974
 11
1.897900222663825
 21
0.3240944559788095
 72
     1
 10
1.897900222663825
 20
0.3240944559788095
 11
1.897900222663825
 21
0.3213168378847518
 72
     1
 10
1.897900222663825
 20
0.3213168378847518
 11
1.897900222663825
 21
0.3185392197908646
 72
     1
 10
1.897900222663825
 20
0.3185392197908646
 11
1.900677840757712
 21
0.3185392197908646
 72
     1
 10
1.900677840757712
 20
0.3185392197908646
 11
1.90345545885177
 21
0.3185392197908646
 72
     1
 10
1.90345545885177
 20
0.3185392197908646
 11
1.906233076945657
 21
0.3185392197908646
 72
     1
 10
1.906233076945657
 20
0.3185392197908646
 11
1.909010695039714
 21
0.3185392197908646
 72
     1
 10
1.909010695039714
 20
0.3185392197908646
 11
1.911788313133772
 21
0.3185392197908646
 72
     1
 10
1.911788313133772
 20
0.3185392197908646
 11
1.911788313133772
 21
0.3213168378847518
 72
     1
 10
1.911788313133772
 20
0.3213168378847518
 11
1.911788313133772
 21
0.3240944559788095
 72
     1
 10
1.911788313133772
 20
0.3240944559788095
 11
1.911788313133772
 21
0.3740915816706551
 72
     1
 10
1.911788313133772
 20
0.3740915816706551
 11
1.911788313133772
 21
0.3768691997645424
 72
     1
 10
1.911788313133772
 20
0.3768691997645424
 11
1.911510551324315
 21
0.3796468178584296
 72
     1
 10
1.911510551324315
 20
0.3796468178584296
 11
1.910871699162701
 21
0.3824244359524873
 72
     1
 10
1.910871699162701
 20
0.3824244359524873
 11
1.909927309010786
 21
0.3852020540465451
 72
     1
 10
1.909927309010786
 20
0.3852020540465451
 11
1.908482947601815
 21
0.3877019103309753
 72
     1
 10
1.908482947601815
 20
0.3877019103309753
 11
1.906233076945657
 21
0.3898406762634186
 72
     1
 10
1.906233076945657
 20
0.3898406762634186
 11
1.903721294193903
 21
0.3920766850267801
 72
     1
 10
1.903721294193903
 20
0.3920766850267801
 11
1.901013087638123
 21
0.3938452989406192
 72
     1
 10
1.901013087638123
 20
0.3938452989406192
 11
1.898971795146881
 21
0.3953124560483166
 72
     1
 10
1.898971795146881
 20
0.3953124560483166
 11
1.896369153755731
 21
0.3964598354054947
 72
     1
 10
1.896369153755731
 20
0.3964598354054947
 11
1.893614616703903
 21
0.3975734953987744
 72
     1
 10
1.893614616703903
 20
0.3975734953987744
 11
1.89130795538708
 21
0.3984640481231172
 72
     1
 10
1.89130795538708
 20
0.3984640481231172
 11
1.889158525210152
 21
0.3990083828482516
 72
     1
 10
1.889158525210152
 20
0.3990083828482516
 11
1.886761306382741
 21
0.3994741650645897
 72
     1
 10
1.886761306382741
 20
0.3994741650645897
 11
1.884012132193877
 21
0.3994820966067327
 72
     1
 10
1.884012132193877
 20
0.3994820966067327
 11
1.88122438981637
 21
0.3992749623910759
 72
     1
 10
1.88122438981637
 20
0.3992749623910759
 11
1.878623553091504
 21
0.39861794944045
 72
     1
 10
1.878623553091504
 20
0.39861794944045
 11
1.876234801530788
 21
0.3974235736599217
 72
     1
 10
1.876234801530788
 20
0.3974235736599217
 11
1.874082765034561
 21
0.3962323293606009
 72
     1
 10
1.874082765034561
 20
0.3962323293606009
 11
1.871776024281334
 21
0.3947017891629803
 72
     1
 10
1.871776024281334
 20
0.3947017891629803
 11
1.869347282437363
 21
0.3928857065760103
 72
     1
 10
1.869347282437363
 20
0.3928857065760103
 11
1.8671797665443
 21
0.3912294853105327
 72
     1
 10
1.8671797665443
 20
0.3912294853105327
 11
1.864533912437398
 21
0.3893715454285034
 72
     1
 10
1.864533912437398
 20
0.3893715454285034
 11
1.861791187441927
 21
0.3873342800367259
 72
     1
 10
1.861791187441927
 20
0.3873342800367259
 11
1.861791187441927
 21
0.3935349083285478
 72
     1
 10
1.861791187441927
 20
0.3935349083285478
 11
1.861791187441927
 21
0.396312526422435
 72
     1
 10
1.861791187441927
 20
0.396312526422435
 11
1.861791187441927
 21
0.432421561644333
 72
     1
 10
1.861791187441927
 20
0.432421561644333
 11
1.861791187441927
 21
0.4351991797382202
 72
     1
 10
1.861791187441927
 20
0.4351991797382202
 11
1.861791187441927
 21
0.4379767978321075
 72
     1
 10
1.861791187441927
 20
0.4379767978321075
 11
1.859013569348039
 21
0.4379767978321075
 72
     1
 10
1.859013569348039
 20
0.4379767978321075
 11
1.856235951253982
 21
0.4379767978321075
 72
     1
 10
1.856235951253982
 20
0.4379767978321075
 11
1.853458333160094
 21
0.4379767978321075
 72
     1
 10
1.853458333160094
 20
0.4379767978321075
 11
1.850680715066037
 21
0.4379767978321075
 72
     1
 10
1.850680715066037
 20
0.4379767978321075
 11
1.847903096971979
 21
0.4379767978321075
 72
     1
 10
1.847903096971979
 20
0.4379767978321075
 11
1.847903096971979
 21
0.4351991797382202
 72
     1
 10
1.847903096971979
 20
0.4351991797382202
 11
1.847903096971979
 21
0.432421561644333
 72
     1
 10
1.847903096971979
 20
0.432421561644333
 11
1.847903096971979
 21
0.3240944559788095
 72
     1
 10
1.847903096971979
 20
0.3240944559788095
 11
1.847903096971979
 21
0.3213168378847518
 72
     1
 10
1.847903096971979
 20
0.3213168378847518
 11
1.847903096971979
 21
0.3185392197908646
 97
        1
330
575
 75
     0
 76
     1
 98
        1
 10
-6.623918024059631
 20
-0.1308261527660757
  0
HATCH
  5
570
330
557
100
AcDbEntity
  8
CONTINUOUS1
 62
     9
100
AcDbHatch
 10
0.0
 20
0.0
 30
0.0
210
0.0
220
0.0
230
1.0
  2
SOLID
 70
     1
 71
     1
 91
        1
 92
        1
 93
       12
 72
     1
 10
2.047689882598749
 20
0.6638644919422068
 11
2.026127593512317
 21
0.6638644919422068
 72
     1
 10
2.026127593512317
 20
0.6638644919422068
 11
2.026127406012253
 21
0.5568018132491948
 72
     2
 10
2.047689923847382
 20
0.5568015038747939
 40
0.0215625178373483
 50
179.999177932392
 51
269.9998903944058
 73
     1
 72
     1
 10
2.047689882598749
 20
0.5352389860374847
 11
2.16525206565112
 21
0.5352391641624768
 72
     2
 10
2.165252113464067
 20
0.5568015929365722
 40
0.0215624287741484
 50
269.9998729512306
 51
359.9996387857453
 73
     1
 72
     1
 10
2.186814542237787
 20
0.5568014569988696
 11
2.186814898487941
 21
0.6638644919422068
 72
     1
 10
2.186814898487941
 20
0.6638644919422068
 11
2.16525206565112
 21
0.6638644919422068
 72
     1
 10
2.16525206565112
 20
0.6638644919422068
 11
2.16525206565112
 21
0.5675830496674626
 72
     2
 10
2.154470694233568
 20
0.5675829165415133
 40
0.0107813714183743
 50
359.9992925246018
 51
449.9992925333428
 73
     0
 72
     1
 10
2.154470827357872
 20
0.5568015451239608
 11
2.058471120891997
 21
0.5568015451239608
 72
     2
 10
2.058471160267021
 20
0.5675830102922954
 40
0.0107814651684066
 50
90.00020925010334
 51
180.0002092508632
 73
     0
 72
     1
 10
2.047689695098686
 20
0.5675830496674626
 11
2.047689882598749
 21
0.6638644919422068
 97
        1
330
573
 75
     0
 76
     1
 98
        1
 10
-6.623918024059631
 20
-0.1308261527660757
  0
HATCH
  5
571
330
557
100
AcDbEntity
  8
CONTINUOUS1
 62
     9
100
AcDbHatch
 10
0.0
 20
0.0
 30
0.0
210
0.0
220
0.0
230
1.0
  2
SOLID
 70
     1
 71
     1
 91
        2
 92
        1
 93
       11
 72
     2
 10
1.859439987429169
 20
0.6423016656678994
 40
0.021562648149145
 50
90.00000747299615
 51
179.9997683268519
 73
     1
 72
     1
 10
1.837877339280201
 20
0.6423017528555879
 11
1.837877170530109
 21
0.5568018132491948
 72
     2
 10
1.859439857117431
 20
0.5568016726252254
 40
0.0215626865877801
 50
179.9996263378447
 51
269.9998903896797
 73
     1
 72
     1
 10
1.859439815866696
 20
0.5352389860374847
 11
1.986189823671427
 21
0.5352391641624768
 72
     2
 10
1.986190043351474
 20
0.5568016288008568
 40
0.021562464639499
 50
269.9994162661957
 51
311.7040125634689
 73
     1
 72
     1
 10
2.000535176793139
 20
0.5407032739821039
 11
2.007752112757859
 21
0.5352391641624768
 72
     1
 10
2.007752112757859
 20
0.5352391641624768
 11
2.020768165011109
 21
0.5524296310179584
 72
     1
 10
2.020768165011109
 20
0.5524296310179584
 11
2.007752300257923
 21
0.5622850574563363
 72
     1
 10
2.007752300257923
 20
0.5622850574563363
 11
2.007752469008014
 21
0.6423016628555165
 72
     2
 10
1.986189820858957
 20
0.6423016656679872
 40
0.0215626481490576
 50
359.9999925267666
 51
449.9999925267678
 73
     1
 72
     1
 10
1.986189823671427
 20
0.6638643138170442
 11
1.859439984616788
 21
0.6638643138170442
 97
        1
330
574
 92
       16
 93
       10
 72
     2
 10
1.870221492910582
 20
0.6315205108123614
 40
0.0107811520434708
 50
90.00043844291294
 51
179.9999701074038
 73
     1
 72
     1
 10
1.859440340867113
 20
0.6315205164371496
 11
1.859440340867113
 21
0.5675830496674626
 72
     2
 10
1.870221627908248
 20
0.5675828321650959
 40
0.0107812870433294
 50
179.9988441113203
 51
269.9988441346395
 73
     1
 72
     1
 10
1.87022141041027
 20
0.5568015451239608
 11
1.979274912904006
 21
0.5568015451239608
 72
     1
 10
1.979274912904006
 20
0.5568015451239608
 11
1.936536734983437
 21
0.5891612556392834
 72
     1
 10
1.936536734983437
 20
0.5891612556392834
 11
1.949552787236687
 21
0.6063515462445826
 72
     1
 10
1.949552787236687
 20
0.6063515462445826
 11
1.986189823671427
 21
0.5786120318725812
 72
     1
 10
1.986189823671427
 20
0.5786120318725812
 11
1.986189823671427
 21
0.6315204283122289
 72
     2
 10
1.975408587253074
 20
0.631520426437163
 40
0.0107812364183532
 50
0.0000099648460607
 51
90.00000996484372
 73
     1
 72
     1
 10
1.975408585378009
 20
0.6423016628555165
 11
1.87022141041027
 21
0.6423016628555165
 97
        1
330
577
 75
     0
 76
     1
 98
        1
 10
-6.623918024059631
 20
-0.1308261527660757
  0
HATCH
  5
572
330
557
100
AcDbEntity
  8
CONTINUOUS1
 62
     9
100
AcDbHatch
 10
0.0
 20
0.0
 30
0.0
210
0.0
220
0.0
230
1.0
  2
SOLID
 70
     1
 71
     0
 91
        2
 92
        7
 72
     1
 73
     1
 93
       21
 10
2.220103921565996
 20
0.432421561644333
 42
0.0
 10
2.220103921565996
 20
0.4351991797382202
 42
0.0
 10
2.220103921565996
 20
0.4379767978321075
 42
0.0
 10
2.217326303472109
 20
0.4379767978321075
 42
0.0
 10
2.214548685378051
 20
0.4379767978321075
 42
0.0
 10
2.211771067283994
 20
0.4379767978321075
 42
0.0
 10
2.208993449190106
 20
0.4379767978321075
 42
0.0
 10
2.206215831096052
 20
0.4379767978321075
 42
0.0
 10
2.206215831096049
 20
0.4351991797382202
 42
0.0
 10
2.206215831096049
 20
0.432421561644333
 42
0.0
 10
2.206215831096049
 20
0.40186776261038
 42
0.0
 10
2.206215831096049
 20
0.3990901445163222
 42
0.0
 10
2.206215831096049
 20
0.3971180356697919
 42
0.0
 10
2.206215831096049
 20
0.3941013219383648
 42
0.0
 10
2.201629434357208
 20
0.3959268898694769
 42
1.048263601672966
 10
2.180190518556941
 20
0.3185392197908646
 42
0.0
 10
2.214548685378051
 20
0.3185392197908646
 42
0.0
 10
2.217326303472109
 20
0.3185392197908646
 42
0.0
 10
2.220103921565996
 20
0.3185392197908643
 42
0.0
 10
2.220103921565996
 20
0.3213168378847518
 42
0.0
 10
2.220103921565996
 20
0.3240944559788095
 42
0.0
 97
        0
 92
       22
 72
     1
 73
     1
 93
        3
 10
2.206215831096049
 20
0.3829908495624749
 42
0.0
 10
2.206215831096049
 20
0.3296496921667545
 42
0.0
 10
2.184394809861462
 20
0.3296496921667545
 42
-1.076204956628309
 97
        0
 75
     0
 76
     1
 47
0.0005102668735142
 98
        2
 10
2.160923651331266
 20
0.3732541591595107
 10
2.160923651331266
 20
0.3732541591595107
  0
LWPOLYLINE
  5
573
102
{ACAD_REACTORS
330
570
102
}
330
557
100
AcDbEntity
  8
CONTINUOUS1
  6
CONTINUOUS
 62
     9
100
AcDbPolyline
 90
       13
 70
     0
 43
0.0
 10
2.047689882598749
 20
0.6638644919422068
 10
2.026127593512317
 20
0.6638644919422068
 10
2.026127406012253
 20
0.5568018132491948
 42
0.4142172044487012
 10
2.047689882598749
 20
0.5352389860374847
 10
2.16525206565112
 20
0.5352391641624768
 42
0.4142123653311114
 10
2.186814542237787
 20
0.5568014569988696
 10
2.186814898487941
 20
0.6638644919422068
 10
2.16525206565112
 20
0.6638644919422068
 10
2.16525206565112
 20
0.5675830496674626
 42
-0.414213562417775
 10
2.154470827357872
 20
0.5568015451239608
 10
2.058471120891997
 20
0.5568015451239608
 42
-0.4142135623770039
 10
2.047689695098686
 20
0.5675830496674626
 10
2.047689882598749
 20
0.6638644919422068
  0
LWPOLYLINE
  5
574
102
{ACAD_REACTORS
330
571
102
}
330
557
100
AcDbEntity
  8
CONTINUOUS1
  6
CONTINUOUS
 62
     9
100
AcDbPolyline
 90
       12
 70
     0
 43
0.0
 10
1.859439984616788
 20
0.6638643138170442
 42
0.4142123398702456
 10
1.837877339280201
 20
0.6423017528555879
 10
1.837877170530109
 20
0.5568018132491948
 42
0.4142149121937861
 10
1.859439815866696
 20
0.5352389860374847
 10
1.986189823671427
 20
0.5352391641624768
 42
0.1840061449277652
 10
2.000535176793139
 20
0.5407032739821039
 10
2.007752112757859
 20
0.5352391641624768
 10
2.020768165011109
 20
0.5524296310179584
 10
2.007752300257923
 20
0.5622850574563363
 10
2.007752469008014
 20
0.6423016628555165
 42
0.4142135623731064
 10
1.986189823671427
 20
0.6638643138170442
 10
1.859439984616788
 20
0.6638643138170442
  0
LWPOLYLINE
  5
575
102
{ACAD_REACTORS
330
56F
102
}
330
557
100
AcDbEntity
  8
CONTINUOUS1
  6
CONTINUOUS
 62
     9
100
AcDbPolyline
 90
       79
 70
     0
 43
0.0
 10
1.847903096971979
 20
0.3185392197908646
 10
1.850680715066037
 20
0.3185392197908646
 10
1.853458333160094
 20
0.3185392197908646
 10
1.856235951253982
 20
0.3185392197908646
 10
1.859013569348039
 20
0.3185392197908646
 10
1.861791187441927
 20
0.3185392197908646
 10
1.861791187441927
 20
0.3213168378847518
 10
1.861791187441927
 20
0.3240944559788095
 10
1.861791187441927
 20
0.3713139635765974
 10
1.861791187441927
 20
0.3740915816706551
 10
1.861791187441927
 20
0.3764121066624857
 10
1.864568805535984
 20
0.3787302038875286
 10
1.867119835595051
 20
0.3809067470338623
 10
1.869482417015067
 20
0.3826818394989009
 10
1.872408099818333
 20
0.3848664295055646
 10
1.874636172254813
 20
0.3862728726654727
 10
1.876484787159231
 20
0.3871741628932459
 10
1.878456896005932
 20
0.3877239703094806
 10
1.881234514099819
 20
0.3879796721404323
 10
1.884012132193877
 20
0.3879796721404323
 10
1.886789750287764
 20
0.3875908056072608
 10
1.889524702656704
 20
0.3864723471903067
 10
1.891539477228523
 20
0.3848131875133736
 10
1.893464015671927
 20
0.3828455775268371
 10
1.895014348074116
 20
0.3807960064739295
 10
1.896524765708281
 20
0.3785266344276583
 10
1.897552862222401
 20
0.3760636905171855
 10
1.897900222663825
 20
0.3740915816706551
 10
1.897900222663825
 20
0.3713139635765974
 10
1.897900222663825
 20
0.3240944559788095
 10
1.897900222663825
 20
0.3213168378847518
 10
1.897900222663825
 20
0.3185392197908646
 10
1.900677840757712
 20
0.3185392197908646
 10
1.90345545885177
 20
0.3185392197908646
 10
1.906233076945657
 20
0.3185392197908646
 10
1.909010695039714
 20
0.3185392197908646
 10
1.911788313133772
 20
0.3185392197908646
 10
1.911788313133772
 20
0.3213168378847518
 10
1.911788313133772
 20
0.3240944559788095
 10
1.911788313133772
 20
0.3740915816706551
 10
1.911788313133772
 20
0.3768691997645424
 10
1.911510551324315
 20
0.3796468178584296
 10
1.910871699162701
 20
0.3824244359524873
 10
1.909927309010786
 20
0.3852020540465451
 10
1.908482947601815
 20
0.3877019103309753
 10
1.906233076945657
 20
0.3898406762634186
 10
1.903721294193903
 20
0.3920766850267801
 10
1.901013087638123
 20
0.3938452989406192
 10
1.898971795146881
 20
0.3953124560483166
 10
1.896369153755731
 20
0.3964598354054947
 10
1.893614616703903
 20
0.3975734953987744
 10
1.89130795538708
 20
0.3984640481231172
 10
1.889158525210152
 20
0.3990083828482516
 10
1.886761306382741
 20
0.3994741650645897
 10
1.884012132193877
 20
0.3994820966067327
 10
1.88122438981637
 20
0.3992749623910759
 10
1.878623553091504
 20
0.39861794944045
 10
1.876234801530788
 20
0.3974235736599217
 10
1.874082765034561
 20
0.3962323293606009
 10
1.871776024281334
 20
0.3947017891629803
 10
1.869347282437363
 20
0.3928857065760103
 10
1.8671797665443
 20
0.3912294853105327
 10
1.864533912437398
 20
0.3893715454285034
 10
1.861791187441927
 20
0.3873342800367259
 10
1.861791187441927
 20
0.3935349083285478
 10
1.861791187441927
 20
0.396312526422435
 10
1.861791187441927
 20
0.432421561644333
 10
1.861791187441927
 20
0.4351991797382202
 10
1.861791187441927
 20
0.4379767978321075
 10
1.859013569348039
 20
0.4379767978321075
 10
1.856235951253982
 20
0.4379767978321075
 10
1.853458333160094
 20
0.4379767978321075
 10
1.850680715066037
 20
0.4379767978321075
 10
1.847903096971979
 20
0.4379767978321075
 10
1.847903096971979
 20
0.4351991797382202
 10
1.847903096971979
 20
0.432421561644333
 10
1.847903096971979
 20
0.3240944559788095
 10
1.847903096971979
 20
0.3213168378847518
 10
1.847903096971979
 20
0.3185392197908646
  0
LWPOLYLINE
  5
576
102
{ACAD_REACTORS
330
56E
102
}
330
557
100
AcDbEntity
  8
CONTINUOUS1
  6
CONTINUOUS
 62
     9
100
AcDbPolyline
 90
       79
 70
     0
 43
0.0
 10
1.93678687597961
 20
0.3185392197908646
 10
1.939564494073497
 20
0.3185392197908646
 10
1.942342112167555
 20
0.3185392197908646
 10
1.945119730261442
 20
0.3185392197908646
 10
1.9478973483555
 20
0.3185392197908646
 10
1.950674966449557
 20
0.3185392197908646
 10
1.950674966449557
 20
0.3213168378847518
 10
1.950674966449557
 20
0.3240944559788095
 10
1.950674966449557
 20
0.3713139635765974
 10
1.950674966449557
 20
0.3740915816706551
 10
1.950674966449557
 20
0.3764121066624857
 10
1.953452584543445
 20
0.3787302038875286
 10
1.956003614602682
 20
0.3809067470338623
 10
1.958366196022527
 20
0.3826818394989009
 10
1.961291878825964
 20
0.3848664295055646
 10
1.963519951262444
 20
0.3862728726654727
 10
1.965368566166691
 20
0.3871741628932459
 10
1.967340675013392
 20
0.3877239703094806
 10
1.97011829310745
 20
0.3879796721404323
 10
1.972895911201337
 20
0.3879796721404323
 10
1.975673529295395
 20
0.3875908056072608
 10
1.978408481664164
 20
0.3864723471903067
 10
1.980423256236154
 20
0.3848131875133736
 10
1.982347794679387
 20
0.3828455775268371
 10
1.983898127081747
 20
0.3807960064739295
 10
1.985408544715742
 20
0.3785266344276583
 10
1.986436641229861
 20
0.3760636905171855
 10
1.986784001671285
 20
0.3740915816706551
 10
1.986784001671285
 20
0.3713139635765974
 10
1.986784001671285
 20
0.3240944559788095
 10
1.986784001671285
 20
0.3213168378847518
 10
1.986784001671285
 20
0.3185392197908646
 10
1.989561619765343
 20
0.3185392197908646
 10
1.99233923785923
 20
0.3185392197908646
 10
1.995116855953288
 20
0.3185392197908646
 10
1.997894474047175
 20
0.3185392197908646
 10
2.000672092141233
 20
0.3185392197908646
 10
2.000672092141233
 20
0.3213168378847518
 10
2.000672092141233
 20
0.3240944559788095
 10
2.000672092141233
 20
0.3740915816706551
 10
2.000672092141233
 20
0.3768691997645424
 10
2.000394330331776
 20
0.3796468178584296
 10
1.999755478170161
 20
0.3824244359524873
 10
1.998811088018246
 20
0.3852020540465451
 10
1.997366726609445
 20
0.3877019103309753
 10
1.995116855953288
 20
0.3898406762634186
 10
1.992605073201364
 20
0.3920766850267801
 10
1.989896866645583
 20
0.3938452989406192
 10
1.987855574154341
 20
0.3953124560483166
 10
1.985252932763362
 20
0.3964598354054947
 10
1.982498395711534
 20
0.3975734953987744
 10
1.980191734394711
 20
0.3984640481231172
 10
1.978042304217613
 20
0.3990083828482516
 10
1.975645085390201
 20
0.3994741650645897
 10
1.972895911201337
 20
0.3994820966067327
 10
1.970108168823831
 20
0.3992749623910759
 10
1.967507332098964
 20
0.39861794944045
 10
1.965118580538248
 20
0.3974235736599217
 10
1.962966544042192
 20
0.3962323293606009
 10
1.960659803288965
 20
0.3947017891629803
 10
1.958231061444994
 20
0.3928857065760103
 10
1.95606354555176
 20
0.3912294853105327
 10
1.953417691445029
 20
0.3893715454285034
 10
1.950674966449557
 20
0.3873342800367259
 10
1.950674966449557
 20
0.3935349083285478
 10
1.950674966449557
 20
0.396312526422435
 10
1.950674966449557
 20
0.39075729023449
 10
1.950674966449557
 20
0.3935349083285478
 10
1.950674966449557
 20
0.396312526422435
 10
1.9478973483555
 20
0.396312526422435
 10
1.945119730261442
 20
0.396312526422435
 10
1.942342112167555
 20
0.396312526422435
 10
1.939564494073497
 20
0.396312526422435
 10
1.93678687597961
 20
0.396312526422435
 10
1.93678687597961
 20
0.3935349083285478
 10
1.93678687597961
 20
0.39075729023449
 10
1.93678687597961
 20
0.3240944559788095
 10
1.93678687597961
 20
0.3213168378847518
 10
1.93678687597961
 20
0.3185392197908646
  0
LWPOLYLINE
  5
577
102
{ACAD_REACTORS
330
571
102
}
330
557
100
AcDbEntity
  8
CONTINUOUS1
  6
CONTINUOUS
 62
     9
100
AcDbPolyline
 90
       11
 70
     0
 43
0.0
 10
1.87022141041027
 20
0.6423016628555165
 42
0.4142111682669343
 10
1.859440340867113
 20
0.6315205164371496
 10
1.859440340867113
 20
0.5675830496674626
 42
0.4142135624923141
 10
1.87022141041027
 20
0.5568015451239608
 10
1.979274912904006
 20
0.5568015451239608
 10
1.936536734983437
 20
0.5891612556392834
 10
1.949552787236687
 20
0.6063515462445826
 10
1.986189823671427
 20
0.5786120318725812
 10
1.986189823671427
 20
0.6315204283122289
 42
0.414213562373068
 10
1.975408585378009
 20
0.6423016628555165
 10
1.87022141041027
 20
0.6423016628555165
  0
LWPOLYLINE
  5
578
330
557
100
AcDbEntity
  8
CONTINUOUS1
 62
     9
100
AcDbPolyline
 90
        3
 70
     1
 43
0.0
 10
2.206215831096049
 20
0.3296496921667545
 10
2.206215831096049
 20
0.3829908495624754
 42
1.076204956628191
 10
2.184394809861462
 20
0.3296496921667545
  0
LWPOLYLINE
  5
579
330
557
100
AcDbEntity
  8
CONTINUOUS1
  6
CONTINUOUS
 62
     9
100
AcDbPolyline
 90
       22
 70
     0
 43
0.0
 10
2.201629434357208
 20
0.3959268898694763
 42
1.048263601673104
 10
2.180190518556944
 20
0.3185392197908646
 10
2.214548685378051
 20
0.3185392197908646
 10
2.217326303472109
 20
0.3185392197908646
 10
2.220103921565996
 20
0.3185392197908646
 10
2.220103921565996
 20
0.3213168378847518
 10
2.220103921565996
 20
0.3240944559788095
 10
2.220103921565996
 20
0.432421561644333
 10
2.220103921565996
 20
0.4351991797382202
 10
2.220103921565996
 20
0.4379767978321075
 10
2.217326303472109
 20
0.4379767978321075
 10
2.214548685378051
 20
0.4379767978321075
 10
2.211771067283994
 20
0.4379767978321075
 10
2.208993449190106
 20
0.4379767978321075
 10
2.206215831096049
 20
0.4379767978321075
 10
2.206215831096049
 20
0.4351991797382202
 10
2.206215831096049
 20
0.432421561644333
 10
2.206215831096049
 20
0.40186776261038
 10
2.206215831096049
 20
0.3990901445163222
 10
2.206215831096049
 20
0.3971180356697919
 10
2.206215831096049
 20
0.3941013219383653
 10
2.200684753003745
 20
0.3963029105415221
  0
LWPOLYLINE
  5
57A
102
{ACAD_REACTORS
330
56B
102
}
330
557
100
AcDbEntity
  8
CONTINUOUS1
  6
CONTINUOUS
 62
     9
100
AcDbPolyline
 90
       21
 70
     0
 43
0.0
 10
2.114554433994531
 20
0.3185392197908646
 10
2.117332052088588
 20
0.3185392197908646
 10
2.120109670182646
 20
0.3185392197908646
 10
2.122887288276533
 20
0.3185392197908646
 10
2.125664906370591
 20
0.3185392197908646
 10
2.128442524464478
 20
0.3185392197908646
 10
2.128442524464478
 20
0.3213168378847518
 10
2.128442524464478
 20
0.3240944559788095
 10
2.128442524464478
 20
0.39075729023449
 10
2.128442524464478
 20
0.3935349083285478
 10
2.128443163460961
 20
0.396312526422435
 10
2.125664906370591
 20
0.396312526422435
 10
2.122887288276533
 20
0.396312526422435
 10
2.120109670182646
 20
0.396312526422435
 10
2.117332052088588
 20
0.396312526422435
 10
2.114554433994531
 20
0.396312526422435
 10
2.114554433994531
 20
0.3935349083285478
 10
2.114554433994531
 20
0.39075729023449
 10
2.114554433994531
 20
0.3240944559788095
 10
2.114554433994531
 20
0.3213168378847518
 10
2.114554433994531
 20
0.3185392197908646
  0
LWPOLYLINE
  5
57B
102
{ACAD_REACTORS
330
56D
102
}
330
557
100
AcDbEntity
  8
CONTINUOUS1
 62
     9
100
AcDbPolyline
 90
       18
 70
     1
 43
0.0
 10
2.038695210178193
 20
0.3739249696649272
 42
-0.0075148293555971
 10
2.039356013682695
 20
0.3758094905988973
 42
-0.004657993094582
 10
2.04012694049155
 20
0.3774326474991771
 42
-0.0194573042781228
 10
2.04122312161596
 20
0.3793376189554469
 42
-0.025588215895386
 10
2.042869643316212
 20
0.3815052047880845
 42
-0.0513535452749696
 10
2.045993086639416
 20
0.3844411686669678
 42
-0.0711488595792178
 10
2.05029649225165
 20
0.387030374336121
 42
-0.0589617480196389
 10
2.054368528547261
 20
0.388163142544784
 42
-0.055567443413236
 10
2.059090479130848
 20
0.3885472203085105
 42
-0.0505831829207604
 10
2.064047301410798
 20
0.3881580670007456
 42
-0.0805511158347094
 10
2.069747668259342
 20
0.386212311056966
 42
-0.0997279791482863
 10
2.074247886376642
 20
0.3821694970928324
 42
-0.05798586112659
 10
2.07633439185648
 20
0.3782279079159712
 42
-0.0542300556945522
 10
2.077638444514636
 20
0.3736673778522577
 42
-0.0393615860447316
 10
2.078265858667439
 20
0.3672377124287327
 10
2.037441464426283
 20
0.3672377124287327
 42
-0.0115879268951182
 10
2.037725560475539
 20
0.3695945556602855
 42
-0.0015814549261624
 10
2.038127018079851
 20
0.3718162665023788
 42
-0.0028557092809637
  0
LWPOLYLINE
  5
57C
102
{ACAD_REACTORS
330
56D
102
}
330
557
100
AcDbEntity
  8
CONTINUOUS1
 62
     9
100
AcDbPolyline
 90
       47
 70
     1
 43
0.0
 10
2.043762176988739
 20
0.3371934049870338
 42
-0.0441414060654578
 10
2.041222399913497
 20
0.3406137919386656
 42
-0.0277319653937625
 10
2.040074001493767
 20
0.342908764392917
 42
-0.0164279047561354
 10
2.03912434719442
 20
0.3453802682993233
 42
-0.0066863653619568
 10
2.038383944154166
 20
0.3480745345536893
 42
-0.0233064481414024
 10
2.037863384418049
 20
0.3511569156956971
 42
-0.0386937426355895
 10
2.037439214412732
 20
0.3572253591981966
 10
2.09083328806415
 20
0.3572253591981966
 10
2.09083328806415
 20
0.367418047889942
 42
0.1310126142130034
 10
2.086597191819212
 20
0.384827874269718
 42
0.1175696112009137
 10
2.077965163461872
 20
0.3945709905457311
 42
0.1103270754359441
 10
2.066615628186159
 20
0.3987237922934814
 42
0.0651926395407652
 10
2.059102557033643
 20
0.3992029596881825
 42
0.0935138111535395
 10
2.048012240298962
 20
0.3974214224988377
 42
0.0771718076448178
 10
2.040894364920664
 20
0.3939838910158646
 42
0.0650775313207389
 10
2.035397751656748
 20
0.3895585675142574
 42
0.0516650400356126
 10
2.030723836739614
 20
0.3836759482660459
 42
0.0469242136237456
 10
2.028122290424708
 20
0.3788161200391191
 42
0.051223632580995
 10
2.026595295387071
 20
0.3746909211984648
 42
0.037832980863087
 10
2.02519517139601
 20
0.3691379050324035
 42
0.0380040356892352
 10
2.024403782199872
 20
0.3632512380642088
 42
0.0396963751324013
 10
2.024403782199872
 20
0.3535837675287898
 42
0.0477329049617882
 10
2.025940180595942
 20
0.3438434486300826
 42
0.0632736306522388
 10
2.027823357022132
 20
0.3384198641380185
 42
0.0887240198666166
 10
2.03298350835573
 20
0.3301577047572555
 42
0.0593249496237894
 10
2.038147862544949
 20
0.3253225760990977
 42
0.0586814778487906
 10
2.04445082971765
 20
0.321706383342701
 42
0.039275593781097
 10
2.049756446549199
 20
0.3198508322162757
 42
0.0294048595279412
 10
2.054845807362514
 20
0.3187611372579231
 42
0.0245538255625254
 10
2.060277276366523
 20
0.3182910719351076
 42
0.0484050884053723
 10
2.069164787393422
 20
0.318538586832347
 42
0.0313804255658969
 10
2.076093852673157
 20
0.3199276859149341
 42
0.0210229524573495
 10
2.081421799827726
 20
0.3215361459892283
 42
0.0098439804496088
 10
2.089473324692026
 20
0.3247109995190845
 10
2.089473324692026
 20
0.3403736793267176
 42
-0.1158714317854296
 10
2.088714348426808
 20
0.3389070845880729
 42
-0.0273968376187686
 10
2.085939360030554
 20
0.3368770470617056
 42
-0.0245127629396402
 10
2.083474088120656
 20
0.3353916503899091
 42
-0.0174018213192927
 10
2.080637160672413
 20
0.3339310062675627
 42
-0.0303578783463293
 10
2.075349268004035
 20
0.3316766063780965
 42
-0.0163288525489418
 10
2.071577587289514
 20
0.3305939790356552
 42
-0.0174430116847887
 10
2.069355720146038
 20
0.33012803560564
 42
-0.0109219578339942
 10
2.067051578922619
 20
0.329799142463799
 42
-0.0520451680420305
 10
2.059067236066457
 20
0.329799142463799
 42
-0.0139513426612014
 10
2.057268456374604
 20
0.3300115523971959
 42
-0.0578723374760443
 10
2.051826841083116
 20
0.3315192009325761
 42
-0.0508775714496942
 10
2.047803880554656
 20
0.3335955965084172
 42
-0.061605978241212
  0
CIRCLE
  5
57D
102
{ACAD_REACTORS
330
56B
102
}
330
557
100
AcDbEntity
  8
CONTINUOUS1
 62
     9
100
AcDbCircle
 10
2.12149847922959
 20
0.4213110892682726
 30
0.0
 40
0.0083328542819542
  0
LWPOLYLINE
  5
57E
102
{ACAD_REACTORS
330
56C
102
}
330
557
100
AcDbEntity
  8
CONTINUOUS1
 62
     9
100
AcDbPolyline
 90
       18
 70
     1
 43
0.0
 10
2.258394368401841
 20
0.3739249696649272
 42
-0.0075148293555971
 10
2.259055171906343
 20
0.3758094905988973
 42
-0.004657993094582
 10
2.259826098715198
 20
0.3774326474991771
 42
-0.0194573042781228
 10
2.260922279839608
 20
0.3793376189554469
 42
-0.025588215895386
 10
2.26256880153986
 20
0.3815052047880845
 42
-0.0513535452749696
 10
2.265692244863064
 20
0.3844411686669678
 42
-0.0711488595792178
 10
2.269995650475298
 20
0.387030374336121
 42
-0.0589617480196389
 10
2.274067686770738
 20
0.388163142544784
 42
-0.055567443413236
 10
2.278789637354496
 20
0.3885472203085105
 42
-0.0505831829207604
 10
2.283746459634446
 20
0.3881580670007456
 42
-0.0805511158347094
 10
2.289446826482819
 20
0.386212311056966
 42
-0.0997279791482863
 10
2.29394704460012
 20
0.3821694970928324
 42
-0.05798586112659
 10
2.296033550079958
 20
0.3782279079159712
 42
-0.0542300556945522
 10
2.297337602738284
 20
0.3736673778522577
 42
-0.0393615860447316
 10
2.297965016891087
 20
0.3672377124287327
 10
2.257140622649931
 20
0.3672377124287327
 42
-0.0115879268951182
 10
2.257424718699017
 20
0.3695945556602855
 42
-0.0015814549261624
 10
2.257826176303499
 20
0.3718162665023788
 42
-0.0028557092809637
  0
LWPOLYLINE
  5
57F
102
{ACAD_REACTORS
330
56C
102
}
330
557
100
AcDbEntity
  8
CONTINUOUS1
 62
     9
100
AcDbPolyline
 90
       47
 70
     1
 43
0.0
 10
2.263461335212387
 20
0.3371934049870338
 42
-0.0441414060654578
 10
2.260921558137145
 20
0.3406137919386656
 42
-0.0277319653937625
 10
2.259773159717415
 20
0.342908764392917
 42
-0.0164279047561354
 10
2.258823505418067
 20
0.3453802682993233
 42
-0.0066863653619568
 10
2.258083102377813
 20
0.3480745345536893
 42
-0.0233064481414024
 10
2.257562542641696
 20
0.3511569156956971
 42
-0.0386937426355895
 10
2.257138372636379
 20
0.3572253591981966
 10
2.310532446287798
 20
0.3572253591981966
 10
2.310532446287798
 20
0.367418047889942
 42
0.1310126142130034
 10
2.30629635004286
 20
0.384827874269718
 42
0.1175696112009137
 10
2.29766432168552
 20
0.3945709905457311
 42
0.1103270754359441
 10
2.286314786409807
 20
0.3987237922934814
 42
0.0651926395407652
 10
2.278801715257291
 20
0.3992029596881825
 42
0.0935138111535395
 10
2.26771139852261
 20
0.3974214224988377
 42
0.0771718076448178
 10
2.260593523144311
 20
0.3939838910158646
 42
0.0650775313207389
 10
2.255096909880396
 20
0.3895585675142574
 42
0.0516650400356126
 10
2.250422994963262
 20
0.3836759482660459
 42
0.0469242136237456
 10
2.247821448648355
 20
0.3788161200391191
 42
0.051223632580995
 10
2.246294453610719
 20
0.3746909211984648
 42
0.037832980863087
 10
2.244894329619658
 20
0.3691379050324035
 42
0.0380040356892352
 10
2.24410294042352
 20
0.3632512380642088
 42
0.0396963751324013
 10
2.24410294042352
 20
0.3535837675287898
 42
0.0477329049617882
 10
2.245639338819589
 20
0.3438434486300826
 42
0.0632736306522388
 10
2.24752251524578
 20
0.3384198641380185
 42
0.0887240198666166
 10
2.252682666579378
 20
0.3301577047572555
 42
0.0593249496237894
 10
2.257847020768597
 20
0.3253225760990977
 42
0.0586814778487906
 10
2.264149987941298
 20
0.321706383342701
 42
0.039275593781097
 10
2.269455604772847
 20
0.3198508322162757
 42
0.0294048595279412
 10
2.274544965586162
 20
0.3187611372579231
 42
0.0245538255625254
 10
2.279976434590171
 20
0.3182910719351076
 42
0.0484050884053723
 10
2.288863945616899
 20
0.318538586832347
 42
0.0313804255658969
 10
2.295793010896804
 20
0.3199276859149341
 42
0.0210229524573495
 10
2.301120958051374
 20
0.3215361459892283
 42
0.0098439804496088
 10
2.309172482915673
 20
0.3247109995190845
 10
2.309172482915673
 20
0.3403736793267176
 42
-0.1158714317854296
 10
2.308413506650456
 20
0.3389070845880729
 42
-0.0273968376187686
 10
2.305638518254202
 20
0.3368770470617056
 42
-0.0245127629396402
 10
2.303173246344304
 20
0.3353916503899091
 42
-0.0174018213192927
 10
2.300336318896061
 20
0.3339310062675627
 42
-0.0303578783463293
 10
2.295048426227683
 20
0.3316766063780965
 42
-0.0163288525489418
 10
2.291276745513162
 20
0.3305939790356552
 42
-0.0174430116847887
 10
2.289054878369686
 20
0.33012803560564
 42
-0.0109219578339942
 10
2.286750737146267
 20
0.329799142463799
 42
-0.0520451680420305
 10
2.278766394290105
 20
0.329799142463799
 42
-0.0139513426612014
 10
2.276967614598081
 20
0.3300115523971959
 42
-0.0578723374760443
 10
2.271525999306593
 20
0.3315192009325761
 42
-0.0508775714496942
 10
2.267503038778134
 20
0.3335955965084172
 42
-0.061605978241212
  0
LWPOLYLINE
  5
580
102
{ACAD_REACTORS
330
569
102
}
330
557
100
AcDbEntity
  8
CONTINUOUS1
  6
CONTINUOUS
 62
     9
100
AcDbPolyline
 90
        4
 70
     0
 43
0.0
 10
2.278033314329977
 20
0.6359049480514618
 10
2.315470001287028
 20
0.5783643742108216
 10
2.240596983623252
 20
0.578364196085659
 10
2.278033126829914
 20
0.635904589926327
  0
HATCH
  5
581
330
557
100
AcDbEntity
  8
CONTINUOUS1
 62
     9
100
AcDbHatch
 10
0.0
 20
0.0
 30
0.0
210
0.0
220
0.0
230
1.0
  2
SOLID
 70
     1
 71
     1
 91
        1
 92
        1
 93
       79
 72
     1
 10
2.768100195328234
 20
0.3193447290382215
 11
2.770072304174934
 21
0.3185392197908646
 72
     1
 10
2.770072304174934
 20
0.3185392197908646
 11
2.776853223288274
 21
0.3177266059119579
 72
     1
 10
2.776853223288274
 20
0.3177266059119579
 11
2.783960394644882
 21
0.3185392197908646
 72
     1
 10
2.783960394644882
 20
0.3185392197908646
 11
2.78673801273894
 21
0.3190948244196652
 72
     1
 10
2.78673801273894
 20
0.3190948244196652
 11
2.788710121585641
 21
0.3197586133924238
 72
     1
 10
2.788710121585641
 20
0.3197586133924238
 11
2.790321140080184
 21
0.3205113286375654
 72
     1
 10
2.790321140080184
 20
0.3205113286375654
 11
2.792293248926885
 21
0.3213168378847518
 72
     1
 10
2.792293248926885
 20
0.3213168378847518
 11
2.795070867020772
 21
0.3223769226657969
 72
     1
 10
2.795070867020772
 20
0.3223769226657969
 11
2.79784848511483
 21
0.323705589445638
 72
     1
 10
2.79784848511483
 20
0.323705589445638
 11
2.79784848511483
 21
0.3240944559788095
 72
     1
 10
2.79784848511483
 20
0.3240944559788095
 11
2.79784848511483
 21
0.3268720740728673
 72
     1
 10
2.79784848511483
 20
0.3268720740728673
 11
2.79784848511483
 21
0.3296496921667545
 72
     1
 10
2.79784848511483
 20
0.3296496921667545
 11
2.79784848511483
 21
0.3324273102608122
 72
     1
 10
2.79784848511483
 20
0.3324273102608122
 11
2.79784848511483
 21
0.3348160618216985
 72
     1
 10
2.79784848511483
 20
0.3348160618216985
 11
2.795070867020772
 21
0.3340302206436268
 72
     1
 10
2.795070867020772
 20
0.3340302206436268
 11
2.792365821896428
 21
0.3330627471016219
 72
     1
 10
2.792365821896428
 20
0.3330627471016219
 11
2.789656082622375
 21
0.3319722328952826
 72
     1
 10
2.789656082622375
 20
0.3319722328952826
 11
2.787543521986126
 21
0.3310528956835701
 72
     1
 10
2.787543521986126
 20
0.3310528956835701
 11
2.785932503491583
 21
0.3304552014141114
 72
     1
 10
2.785932503491583
 20
0.3304552014141114
 11
2.783960394644882
 21
0.3296496921667545
 72
     1
 10
2.783960394644882
 20
0.3296496921667545
 11
2.781182776550995
 21
0.3294142968159695
 72
     1
 10
2.781182776550995
 20
0.3294142968159695
 11
2.778405158456937
 21
0.3296496921667545
 72
     1
 10
2.778405158456937
 20
0.3296496921667545
 11
2.776433049610236
 21
0.3304552014141114
 72
     1
 10
2.776433049610236
 20
0.3304552014141114
 11
2.774670597445183
 21
0.3314126783258194
 72
     1
 10
2.774670597445183
 20
0.3314126783258194
 11
2.772849922268992
 21
0.3324273102608122
 72
     1
 10
2.772849922268992
 20
0.3324273102608122
 11
2.771309634063275
 21
0.3337080859405437
 72
     1
 10
2.771309634063275
 20
0.3337080859405437
 11
2.770072304174934
 21
0.33520492835487
 72
     1
 10
2.770072304174934
 20
0.33520492835487
 11
2.769017502196309
 21
0.3370752134098898
 72
     1
 10
2.769017502196309
 20
0.3370752134098898
 11
2.768100195328234
 21
0.3387880556961141
 72
     1
 10
2.768100195328234
 20
0.3387880556961141
 11
2.767294686081047
 21
0.3407601645426444
 72
     1
 10
2.767294686081047
 20
0.3407601645426444
 11
2.767294686081047
 21
0.3435377826367021
 72
     1
 10
2.767294686081047
 20
0.3435377826367021
 11
2.767294686081047
 21
0.3796468178584296
 72
     1
 10
2.767294686081047
 20
0.3796468178584296
 11
2.767294686081047
 21
0.3824244359524873
 72
     1
 10
2.767294686081047
 20
0.3824244359524873
 11
2.767294686081047
 21
0.3852020540465451
 72
     1
 10
2.767294686081047
 20
0.3852020540465451
 11
2.770072304174934
 21
0.3852020540465451
 72
     1
 10
2.770072304174934
 20
0.3852020540465451
 11
2.772849922268992
 21
0.3852020540465451
 72
     1
 10
2.772849922268992
 20
0.3852020540465451
 11
2.78673801273894
 21
0.3852020540465451
 72
     1
 10
2.78673801273894
 20
0.3852020540465451
 11
2.789515630832827
 21
0.3852020540465451
 72
     1
 10
2.789515630832827
 20
0.3852020540465451
 11
2.792293248926885
 21
0.3852020540465451
 72
     1
 10
2.792293248926885
 20
0.3852020540465451
 11
2.792293248926885
 21
0.3879796721404323
 72
     1
 10
2.792293248926885
 20
0.3879796721404323
 11
2.792293248926885
 21
0.39075729023449
 72
     1
 10
2.792293248926885
 20
0.39075729023449
 11
2.792293248926885
 21
0.3935349083285478
 72
     1
 10
2.792293248926885
 20
0.3935349083285478
 11
2.792293248926885
 21
0.396312526422435
 72
     1
 10
2.792293248926885
 20
0.396312526422435
 11
2.789515630832827
 21
0.396312526422435
 72
     1
 10
2.789515630832827
 20
0.396312526422435
 11
2.78673801273894
 21
0.396312526422435
 72
     1
 10
2.78673801273894
 20
0.396312526422435
 11
2.772849922268992
 21
0.396312526422435
 72
     1
 10
2.772849922268992
 20
0.396312526422435
 11
2.770072304174934
 21
0.396312526422435
 72
     1
 10
2.770072304174934
 20
0.396312526422435
 11
2.767294686081047
 21
0.396312526422435
 72
     1
 10
2.767294686081047
 20
0.396312526422435
 11
2.767294686081047
 21
0.3990901445163222
 72
     1
 10
2.767294686081047
 20
0.3990901445163222
 11
2.767294686081047
 21
0.40186776261038
 72
     1
 10
2.767294686081047
 20
0.40186776261038
 11
2.767294686081047
 21
0.4046453807044377
 72
     1
 10
2.767294686081047
 20
0.4046453807044377
 11
2.767294686081047
 21
0.4074229987983249
 72
     1
 10
2.767294686081047
 20
0.4074229987983249
 11
2.767294686081047
 21
0.4101951770153965
 72
     1
 10
2.767294686081047
 20
0.4101951770153965
 11
2.765072591605903
 21
0.4082562842266957
 72
     1
 10
2.765072591605903
 20
0.4082562842266957
 11
2.762850497130589
 21
0.4063119515608383
 72
     1
 10
2.762850497130589
 20
0.4063119515608383
 11
2.749517930279555
 21
0.3946459555660344
 72
     1
 10
2.749517930279555
 20
0.3946459555660344
 11
2.747295835804241
 21
0.392701622900177
 72
     1
 10
2.747295835804241
 20
0.392701622900177
 11
2.745037428605176
 21
0.390774564389972
 72
     1
 10
2.745037428605176
 20
0.390774564389972
 11
2.742784501548531
 21
0.3888087685731994
 72
     1
 10
2.742784501548531
 20
0.3888087685731994
 11
2.740784200988546
 21
0.3870634024897304
 72
     1
 10
2.740784200988546
 20
0.3870634024897304
 11
2.73865097726642
 21
0.3852020540465451
 72
     1
 10
2.73865097726642
 20
0.3852020540465451
 11
2.74229612323521
 21
0.3852020540465451
 72
     1
 10
2.74229612323521
 20
0.3852020540465451
 11
2.745073741329097
 21
0.3852020540465451
 72
     1
 10
2.745073741329097
 20
0.3852020540465451
 11
2.747851359423155
 21
0.3852020540465451
 72
     1
 10
2.747851359423155
 20
0.3852020540465451
 11
2.750628977517042
 21
0.3852020540465451
 72
     1
 10
2.750628977517042
 20
0.3852020540465451
 11
2.7534065956111
 21
0.3852020540465451
 72
     1
 10
2.7534065956111
 20
0.3852020540465451
 11
2.7534065956111
 21
0.3824244359524873
 72
     1
 10
2.7534065956111
 20
0.3824244359524873
 11
2.7534065956111
 21
0.3796468178584296
 72
     1
 10
2.7534065956111
 20
0.3796468178584296
 11
2.7534065956111
 21
0.3379825464487572
 72
     1
 10
2.7534065956111
 20
0.3379825464487572
 11
2.7534065956111
 21
0.33520492835487
 72
     1
 10
2.7534065956111
 20
0.33520492835487
 11
2.753795462144271
 21
0.3324273102608122
 72
     1
 10
2.753795462144271
 20
0.3324273102608122
 11
2.754795404658043
 21
0.3296496921667545
 72
     1
 10
2.754795404658043
 20
0.3296496921667545
 11
2.756573080238158
 21
0.3272609406060388
 72
     1
 10
2.756573080238158
 20
0.3272609406060388
 11
2.758810686828073
 21
0.3252801639712293
 72
     1
 10
2.758810686828073
 20
0.3252801639712293
 11
2.760933940645745
 21
0.323705589445638
 72
     1
 10
2.760933940645745
 20
0.323705589445638
 11
2.762735804659516
 21
0.322316540818179
 72
     1
 10
2.762735804659516
 20
0.322316540818179
 11
2.764517067986989
 21
0.3213168378847518
 72
     1
 10
2.764517067986989
 20
0.3213168378847518
 11
2.766384493876135
 21
0.3202550358792001
 72
     1
 10
2.766384493876135
 20
0.3202550358792001
 11
2.768100195328234
 21
0.3193447290382215
 97
        1
330
590
 75
     0
 76
     1
 98
        1
 10
-6.623918024059631
 20
-0.1308261527660757
  0
HATCH
  5
582
330
557
100
AcDbEntity
  8
CONTINUOUS1
 62
     9
100
AcDbHatch
 10
0.0
 20
0.0
 30
0.0
210
0.0
220
0.0
230
1.0
  2
SOLID
 70
     1
 71
     1
 91
        1
 92
        1
 93
        4
 72
     1
 10
2.728340921353581
 20
0.3820863083685713
 11
2.728340921353581
 21
0.3931967807444612
 72
     2
 10
2.706296461134867
 20
0.3584765545696773
 40
0.041127269930821
 50
57.58784372121546
 51
302.4121562787845
 73
     1
 72
     1
 10
2.728340921353581
 20
0.3237563283948935
 11
2.728340921353581
 21
0.3348668007707834
 72
     2
 10
2.710219154518597
 20
0.3584765545696773
 40
0.0297627100188458
 50
52.49180531393238
 51
307.5081946860675
 73
     0
 97
        1
330
591
 75
     0
 76
     1
 98
        1
 10
-6.623918024059631
 20
-0.1308261527660757
  0
HATCH
  5
583
330
557
100
AcDbEntity
  8
CONTINUOUS1
 62
     9
100
AcDbHatch
 10
0.0
 20
0.0
 30
0.0
210
0.0
220
0.0
230
1.0
  2
SOLID
 70
     1
 71
     1
 91
        2
 92
       16
 93
       18
 72
     2
 10
2.660106775440887
 20
0.3528851545616271
 40
0.0664396543383199
 50
198.4619958207183
 51
200.1842354247361
 73
     0
 72
     2
 10
2.685247637907941
 20
0.3352454129199108
 40
0.096445586517071
 50
204.8718608834226
 51
205.9393865440841
 73
     0
 72
     2
 10
2.623533366964867
 20
0.3643060230231959
 40
0.0282500412151287
 50
207.6881291807204
 51
212.1468522298009
 73
     0
 72
     2
 10
2.621601394969284
 20
0.3643452262975984
 40
0.0266120055644413
 50
214.289143935524
 51
220.152251626646
 73
     0
 72
     2
 10
2.617077869529618
 20
0.3678076991082785
 40
0.0209235948276609
 50
220.892661179859
 51
232.6516971443595
 73
     0
 72
     2
 10
2.615587881266414
 20
0.3706911836161677
 40
0.0177364140530899
 50
230.8268348175522
 51
247.1055208447452
 73
     0
 72
     2
 10
2.61551009202811
 20
0.370391197006481
 40
0.0179834923776296
 50
247.7056716281972
 51
261.203082165149
 73
     0
 72
     2
 10
2.616843448344337
 20
0.36717654635147
 40
0.0213802051303731
 50
258.9888491839005
 51
271.7108857747937
 73
     0
 72
     2
 10
2.618041777868569
 20
0.3639169558453035
 40
0.0246366297664502
 50
268.6975355392314
 51
280.2804749251206
 73
     0
 72
     2
 10
2.619289082162454
 20
0.369608213028888
 40
0.0188153276110619
 50
279.6361688894454
 51
298.0573516433577
 73
     0
 72
     2
 10
2.620355269469509
 20
0.3730218708912918
 40
0.0153157982727261
 50
300.5449189786844
 51
323.3255645340623
 73
     0
 72
     2
 10
2.61674582695598
 20
0.3712331984285728
 40
0.0192925244149349
 50
325.4679485472512
 51
338.7424644189146
 73
     0
 72
     2
 10
2.614415550741325
 20
0.3699536532293334
 40
0.0219309169397976
 50
337.8342522704153
 51
350.2507032151334
 73
     0
 72
     2
 10
2.595569537316608
 20
0.3664737796651569
 40
0.0410947224300675
 50
349.9184788839777
 51
358.9348353768806
 73
     0
 72
     1
 10
2.636657158546572
 20
0.3672377124287327
 11
2.595832764305416
 21
0.3672377124287327
 72
     2
 10
2.64681494050507
 20
0.3622878182718704
 40
0.051221906858459
 50
185.5455046984018
 51
188.2011430538267
 73
     0
 72
     2
 10
2.947529825566531
 20
0.3072422364761533
 40
0.3569017845664977
 50
190.0614576287786
 51
190.4239000976597
 73
     0
 72
     2
 10
2.781405060710635
 20
0.3231292571124805
 40
0.1911897814441117
 50
194.7530117273464
 51
195.4074903055051
 73
     0
 97
        1
330
58A
 92
        1
 93
       47
 72
     2
 10
2.62021760346478
 20
0.3532598947256552
 40
0.0241752923918273
 50
138.3496533346511
 51
148.4595555609686
 73
     0
 72
     2
 10
2.619712462684475
 20
0.3521059761880958
 40
0.0231523339774945
 50
150.2396979683238
 51
156.5937677099167
 73
     0
 72
     2
 10
2.635591692141174
 20
0.3585924636724106
 40
0.040303192361997
 50
157.0988242481769
 51
160.8634840437796
 73
     0
 72
     2
 10
2.697878267298236
 20
0.3744094790060188
 40
0.1044765553251907
 50
163.8678439431619
 51
165.4002231692524
 73
     0
 72
     2
 10
2.629560613196424
 20
0.3551965516179019
 40
0.033550015770866
 50
167.7439659185812
 51
173.0844435487628
 73
     0
 72
     2
 10
2.635192067538312
 20
0.356927593697432
 40
0.0393626795107542
 50
171.5698966947791
 51
180.4334275361526
 73
     0
 72
     1
 10
2.595830514291865
 20
0.3572253591981966
 11
2.649224587943283
 21
0.3572253591981966
 72
     1
 10
2.649224587943283
 20
0.3572253591981966
 11
2.649224587943283
 21
0.367418047889942
 72
     2
 10
2.614455106004424
 20
0.36817833181333
 40
0.0347777932873957
 50
358.7473463266968
 51
388.6031824377397
 73
     1
 72
     2
 10
2.620241090430116
 20
0.3715980049238856
 40
0.0280617767156418
 50
28.12879544758857
 51
54.95063515022645
 73
     1
 72
     2
 10
2.621386031958198
 20
0.3712425033481648
 40
0.0277188046407911
 50
57.31076922041544
 51
82.4940245374038
 73
     1
 72
     2
 10
2.619420696306377
 20
0.3702747845720343
 40
0.0289922752746188
 50
78.89077226525315
 51
93.81071159195634
 73
     1
 72
     2
 10
2.61666981386139
 20
0.3689225917587153
 40
0.0302915785144063
 50
88.44115042377268
 51
109.8107905333598
 73
     1
 72
     2
 10
2.613914251529578
 20
0.3727814463646621
 40
0.0257592548203171
 50
106.9521716693699
 51
124.603661569856
 73
     1
 72
     2
 10
2.613465558234084
 20
0.370745022031955
 40
0.027223416564771
 50
121.3907074886569
 51
136.2843774046689
 73
     1
 72
     2
 10
2.619841295496989
 20
0.3640611980123525
 40
0.0364531928221072
 50
135.6167017519909
 51
147.4469381469264
 73
     1
 72
     2
 10
2.61364925277008
 20
0.367416191215975
 40
0.0294330181030494
 50
146.4659438100723
 51
157.2122986253005
 73
     1
 72
     2
 10
2.605830545336452
 20
0.3693204846406612
 40
0.0215246798664316
 50
153.8226534473667
 51
165.5519937306932
 73
     1
 72
     2
 10
2.620928292763789
 20
0.3626756489903522
 40
0.0378968651110208
 50
161.515271747222
 51
170.1818189345484
 73
     1
 72
     2
 10
2.62185880698542
 20
0.3609961355594354
 40
0.0391287629611654
 50
167.9903558377853
 51
176.6960496179407
 73
     1
 72
     2
 10
2.64358297821499
 20
0.3584175027964993
 40
0.0609797779044622
 50
175.4535176021835
 51
184.5464823978164
 73
     1
 72
     2
 10
2.634461745709456
 20
0.3567421254133762
 40
0.0517631080522538
 50
183.4981100536811
 51
194.429389032572
 73
     1
 72
     2
 10
2.606616363011642
 20
0.3485424727520852
 40
0.0227749164074815
 50
191.9070472796621
 51
206.3889894285758
 73
     1
 72
     2
 10
2.611891972958808
 20
0.3487142209845105
 40
0.0276640261495296
 50
201.8464660881787
 51
222.1274079961559
 73
     1
 72
     2
 10
2.614260886541606
 20
0.3494265410796771
 40
0.0299175639630403
 50
220.0955596825676
 51
233.6759197426415
 73
     1
 72
     2
 10
2.615043617984982
 20
0.3502744687142416
 40
0.0310646393940598
 50
233.4391728830817
 51
246.8725717081748
 73
     1
 72
     2
 10
2.617287813857059
 20
0.3544982286952896
 40
0.035832707340859
 50
246.2252262725147
 51
255.2219052108666
 73
     1
 72
     2
 10
2.619948998501218
 20
0.3625382973605903
 40
0.0442887031977101
 50
254.5461626614621
 51
261.28331875032
 73
     1
 72
     2
 10
2.620736026381953
 20
0.3737944212376278
 40
0.0555418412898209
 50
262.2405778669421
 51
267.866769692275
 73
     1
 72
     2
 10
2.621836975360784
 20
0.3642090186578022
 40
0.0460271287848912
 50
266.0527719165295
 51
277.1377488483287
 73
     1
 72
     2
 10
2.619964912664253
 20
0.3743809067507015
 40
0.0563559280448384
 50
277.7413046158855
 51
284.930809102693
 73
     1
 72
     2
 10
2.618030151341718
 20
0.3840626065593292
 40
0.0662121975991039
 50
284.3899023200388
 51
289.2072984924262
 73
     1
 72
     2
 10
2.563217362272785
 20
0.5275821421545017
 40
0.2198223362827568
 50
290.3921624947603
 51
292.6481637583187
 73
     1
 72
     1
 10
2.647864624571159
 20
0.3247109995190845
 11
2.647864624571159
 21
0.3403736793267176
 72
     2
 10
2.644363348913712
 20
0.3412559357119335
 40
0.0036107211964766
 50
14.14304208538034
 51
40.5809188106621
 73
     0
 72
     2
 10
2.627207680057823
 20
0.3631952191068923
 40
0.0313981308170948
 50
50.67407287050084
 51
56.95139529671177
 73
     0
 72
     2
 10
2.627957909630271
 20
0.3612619791193873
 40
0.0293716166250663
 50
56.12144370235181
 51
61.7382303285629
 73
     0
 72
     2
 10
2.619469209093496
 20
0.3754051721516405
 40
0.0458548879987645
 50
60.76359459619522
 51
64.75139576529091
 73
     0
 72
     2
 10
2.617836427563542
 20
0.3763099703744814
 40
0.047382263147091
 50
63.43218982647736
 51
70.38756687457111
 73
     0
 72
     2
 10
2.615283773187174
 20
0.3888655443368394
 40
0.0600934929530564
 50
72.11336347133055
 51
75.85532826122167
 73
     0
 72
     2
 10
2.622181903739372
 20
0.3621959788453819
 40
0.0325472503124577
 50
76.15762347795572
 51
80.1548619188531
 73
     0
 72
     2
 10
2.61906759228913
 20
0.3826983276081179
 40
0.0532819675598692
 50
80.6249603204364
 51
83.12798914716191
 73
     0
 72
     2
 10
2.621450707373671
 20
0.368048205585744
 40
0.0384568363547721
 50
84.04143915734456
 51
95.95856084265543
 73
     0
 72
     2
 10
2.62036466853374
 20
0.3621321664056745
 40
0.0324633646414816
 50
95.13601524590475
 51
98.33322003417473
 73
     0
 72
     2
 10
2.619429956113451
 20
0.35419362593474
 40
0.0244742127055942
 50
98.86157888952332
 51
112.110164074703
 73
     0
 72
     2
 10
2.61838315256972
 20
0.3522740777562495
 40
0.022303190949189
 50
111.4747791436719
 51
123.1250142198119
 73
     0
 72
     2
 10
2.618718995543536
 20
0.3517336784423094
 40
0.0220416868943367
 50
124.6239441549396
 51
138.7251729097469
 73
     0
 97
        1
330
58B
 75
     0
 76
     1
 98
        1
 10
-6.623918024059631
 20
-0.1308261527660757
  0
HATCH
  5
584
330
557
100
AcDbEntity
  8
CONTINUOUS1
 62
     9
100
AcDbHatch
 10
0.0
 20
0.0
 30
0.0
210
0.0
220
0.0
230
1.0
  2
SOLID
 70
     1
 71
     1
 91
        1
 92
        1
 93
       20
 72
     1
 10
2.545085238562226
 20
0.3185392197908646
 11
2.547862856656283
 21
0.3185392197908646
 72
     1
 10
2.547862856656283
 20
0.3185392197908646
 11
2.550640474750171
 21
0.3185392197908646
 72
     1
 10
2.550640474750171
 20
0.3185392197908646
 11
2.553418092844228
 21
0.3185392197908646
 72
     1
 10
2.553418092844228
 20
0.3185392197908646
 11
2.556195710938116
 21
0.3185392197908646
 72
     1
 10
2.556195710938116
 20
0.3185392197908646
 11
2.558973329032173
 21
0.3185392197908646
 72
     1
 10
2.558973329032173
 20
0.3185392197908646
 11
2.558973329032173
 21
0.3213168378847518
 72
     1
 10
2.558973329032173
 20
0.3213168378847518
 11
2.558973329032173
 21
0.3240944559788095
 72
     1
 10
2.558973329032173
 20
0.3240944559788095
 11
2.558973329032173
 21
0.432421561644333
 72
     1
 10
2.558973329032173
 20
0.432421561644333
 11
2.558973329032173
 21
0.4351991797382202
 72
     1
 10
2.558973329032173
 20
0.4351991797382202
 11
2.558973329032173
 21
0.4379767978321075
 72
     1
 10
2.558973329032173
 20
0.4379767978321075
 11
2.556195710938116
 21
0.4379767978321075
 72
     1
 10
2.556195710938116
 20
0.4379767978321075
 11
2.553418092844228
 21
0.4379767978321075
 72
     1
 10
2.553418092844228
 20
0.4379767978321075
 11
2.550640474750171
 21
0.4379767978321075
 72
     1
 10
2.550640474750171
 20
0.4379767978321075
 11
2.547862856656283
 21
0.4379767978321075
 72
     1
 10
2.547862856656283
 20
0.4379767978321075
 11
2.545085238562226
 21
0.4379767978321075
 72
     1
 10
2.545085238562226
 20
0.4379767978321075
 11
2.545085238562226
 21
0.4351991797382202
 72
     1
 10
2.545085238562226
 20
0.4351991797382202
 11
2.545085238562226
 21
0.432421561644333
 72
     1
 10
2.545085238562226
 20
0.432421561644333
 11
2.545085238562226
 21
0.3240944559788095
 72
     1
 10
2.545085238562226
 20
0.3240944559788095
 11
2.545085238562226
 21
0.3213168378847518
 72
     1
 10
2.545085238562226
 20
0.3213168378847518
 11
2.545085238562226
 21
0.3185392197908646
 97
        1
330
58E
 75
     0
 76
     1
 98
        1
 10
-6.623918024059631
 20
-0.1308261527660757
  0
HATCH
  5
585
330
557
100
AcDbEntity
  8
CONTINUOUS1
 62
     9
100
AcDbHatch
 10
0.0
 20
0.0
 30
0.0
210
0.0
220
0.0
230
1.0
  2
SOLID
 70
     1
 71
     1
 91
        1
 92
        1
 93
       60
 72
     1
 10
2.456201459554765
 20
0.3185392197908646
 11
2.458979077648653
 21
0.3185392197908646
 72
     1
 10
2.458979077648653
 20
0.3185392197908646
 11
2.46175669574271
 21
0.3185392197908646
 72
     1
 10
2.46175669574271
 20
0.3185392197908646
 11
2.520086675716388
 21
0.3185392197908646
 72
     1
 10
2.520086675716388
 20
0.3185392197908646
 11
2.522864293810275
 21
0.3185392197908646
 72
     1
 10
2.522864293810275
 20
0.3185392197908646
 11
2.525641911904333
 21
0.3185392197908646
 72
     1
 10
2.525641911904333
 20
0.3185392197908646
 11
2.525641911904333
 21
0.3213168378847518
 72
     1
 10
2.525641911904333
 20
0.3213168378847518
 11
2.525641911904333
 21
0.3240944559788095
 72
     1
 10
2.525641911904333
 20
0.3240944559788095
 11
2.525641911904333
 21
0.3268720740728673
 72
     1
 10
2.525641911904333
 20
0.3268720740728673
 11
2.525641911904333
 21
0.3296496921667545
 72
     1
 10
2.525641911904333
 20
0.3296496921667545
 11
2.525641911904333
 21
0.3324273102608122
 72
     1
 10
2.525641911904333
 20
0.3324273102608122
 11
2.522864293810275
 21
0.3324273102608122
 72
     1
 10
2.522864293810275
 20
0.3324273102608122
 11
2.520086675716388
 21
0.3324273102608122
 72
     1
 10
2.520086675716388
 20
0.3324273102608122
 11
2.478422404306545
 21
0.3324273102608122
 72
     1
 10
2.478422404306545
 20
0.3324273102608122
 11
2.475644786212658
 21
0.3324273102608122
 72
     1
 10
2.475644786212658
 20
0.3324273102608122
 11
2.4728671681186
 21
0.3324273102608122
 72
     1
 10
2.4728671681186
 20
0.3324273102608122
 11
2.4728671681186
 21
0.33520492835487
 72
     1
 10
2.4728671681186
 20
0.33520492835487
 11
2.4728671681186
 21
0.3379825464487572
 72
     1
 10
2.4728671681186
 20
0.3379825464487572
 11
2.4728671681186
 21
0.3657587273886524
 72
     1
 10
2.4728671681186
 20
0.3657587273886524
 11
2.4728671681186
 21
0.3685363454825397
 72
     1
 10
2.4728671681186
 20
0.3685363454825397
 11
2.4728671681186
 21
0.3713139635765974
 72
     1
 10
2.4728671681186
 20
0.3713139635765974
 11
2.475644786212658
 21
0.3713139635765974
 72
     1
 10
2.475644786212658
 20
0.3713139635765974
 11
2.478422404306545
 21
0.3713139635765974
 72
     1
 10
2.478422404306545
 20
0.3713139635765974
 11
2.51730905762233
 21
0.3713139635765974
 72
     1
 10
2.51730905762233
 20
0.3713139635765974
 11
2.520086675716388
 21
0.3713139635765974
 72
     1
 10
2.520086675716388
 20
0.3713139635765974
 11
2.522864293810275
 21
0.3713139635765974
 72
     1
 10
2.522864293810275
 20
0.3713139635765974
 11
2.522864293810275
 21
0.3740915816706551
 72
     1
 10
2.522864293810275
 20
0.3740915816706551
 11
2.522864293810275
 21
0.3768691997645424
 72
     1
 10
2.522864293810275
 20
0.3768691997645424
 11
2.522864293810275
 21
0.3796468178584296
 72
     1
 10
2.522864293810275
 20
0.3796468178584296
 11
2.522864293810275
 21
0.3824244359524873
 72
     1
 10
2.522864293810275
 20
0.3824244359524873
 11
2.522864293810275
 21
0.3852020540465451
 72
     1
 10
2.522864293810275
 20
0.3852020540465451
 11
2.520086675716388
 21
0.3852020540465451
 72
     1
 10
2.520086675716388
 20
0.3852020540465451
 11
2.51730905762233
 21
0.3852020540465451
 72
     1
 10
2.51730905762233
 20
0.3852020540465451
 11
2.478422404306545
 21
0.3852020540465451
 72
     1
 10
2.478422404306545
 20
0.3852020540465451
 11
2.475644786212658
 21
0.3852020540465451
 72
     1
 10
2.475644786212658
 20
0.3852020540465451
 11
2.4728671681186
 21
0.3852020540465451
 72
     1
 10
2.4728671681186
 20
0.3852020540465451
 11
2.4728671681186
 21
0.3879796721404323
 72
     1
 10
2.4728671681186
 20
0.3879796721404323
 11
2.4728671681186
 21
0.39075729023449
 72
     1
 10
2.4728671681186
 20
0.39075729023449
 11
2.4728671681186
 21
0.4185334711742148
 72
     1
 10
2.4728671681186
 20
0.4185334711742148
 11
2.4728671681186
 21
0.4213110892682726
 72
     1
 10
2.4728671681186
 20
0.4213110892682726
 11
2.4728671681186
 21
0.4240887073623303
 72
     1
 10
2.4728671681186
 20
0.4240887073623303
 11
2.475644786212658
 21
0.4240887073623303
 72
     1
 10
2.475644786212658
 20
0.4240887073623303
 11
2.478422404306545
 21
0.4240887073623303
 72
     1
 10
2.478422404306545
 20
0.4240887073623303
 11
2.51730905762233
 21
0.4240887073623303
 72
     1
 10
2.51730905762233
 20
0.4240887073623303
 11
2.520086675716388
 21
0.4240887073623303
 72
     1
 10
2.520086675716388
 20
0.4240887073623303
 11
2.522864293810275
 21
0.4240887073623303
 72
     1
 10
2.522864293810275
 20
0.4240887073623303
 11
2.522864293810275
 21
0.4268663254562175
 72
     1
 10
2.522864293810275
 20
0.4268663254562175
 11
2.522864293810275
 21
0.4296439435502753
 72
     1
 10
2.522864293810275
 20
0.4296439435502753
 11
2.522864293810275
 21
0.432421561644333
 72
     1
 10
2.522864293810275
 20
0.432421561644333
 11
2.522864293810275
 21
0.4351991797382202
 72
     1
 10
2.522864293810275
 20
0.4351991797382202
 11
2.522864293810275
 21
0.4379767978321075
 72
     1
 10
2.522864293810275
 20
0.4379767978321075
 11
2.520086675716388
 21
0.4379767978321075
 72
     1
 10
2.520086675716388
 20
0.4379767978321075
 11
2.51730905762233
 21
0.4379767978321075
 72
     1
 10
2.51730905762233
 20
0.4379767978321075
 11
2.46175669574271
 21
0.4379767978321075
 72
     1
 10
2.46175669574271
 20
0.4379767978321075
 11
2.458979077648653
 21
0.4379767978321075
 72
     1
 10
2.458979077648653
 20
0.4379767978321075
 11
2.456201459554765
 21
0.4379767978321075
 72
     1
 10
2.456201459554765
 20
0.4379767978321075
 11
2.456201459554765
 21
0.4351991797382202
 72
     1
 10
2.456201459554765
 20
0.4351991797382202
 11
2.456201459554765
 21
0.432421561644333
 72
     1
 10
2.456201459554765
 20
0.432421561644333
 11
2.456201459554765
 21
0.3240944559788095
 72
     1
 10
2.456201459554765
 20
0.3240944559788095
 11
2.456201459554765
 21
0.3213168378847518
 72
     1
 10
2.456201459554765
 20
0.3213168378847518
 11
2.456201459554765
 21
0.3185392197908646
 97
        1
330
58C
 75
     0
 76
     1
 98
        1
 10
-6.623918024059631
 20
-0.1308261527660757
  0
HATCH
  5
586
330
557
100
AcDbEntity
  8
CONTINUOUS1
 62
     9
100
AcDbHatch
 10
0.0
 20
0.0
 30
0.0
210
0.0
220
0.0
230
1.0
  2
SOLID
 70
     1
 71
     1
 91
        1
 92
        1
 93
       63
 72
     1
 10
2.333986263419465
 20
0.3185392197908646
 11
2.336763881513352
 21
0.3185392197908646
 72
     1
 10
2.336763881513352
 20
0.3185392197908646
 11
2.33954149960741
 21
0.3185392197908646
 72
     1
 10
2.33954149960741
 20
0.3185392197908646
 11
2.342319117701297
 21
0.3185392197908646
 72
     1
 10
2.342319117701297
 20
0.3185392197908646
 11
2.345096735795355
 21
0.3185392197908646
 72
     1
 10
2.345096735795355
 20
0.3185392197908646
 11
2.347874353889242
 21
0.3185392197908646
 72
     1
 10
2.347874353889242
 20
0.3185392197908646
 11
2.347874353889242
 21
0.3213168378847518
 72
     1
 10
2.347874353889242
 20
0.3213168378847518
 11
2.347874353889242
 21
0.3240944559788095
 72
     1
 10
2.347874353889242
 20
0.3240944559788095
 11
2.347874353889242
 21
0.3629811092945947
 72
     1
 10
2.347874353889242
 20
0.3629811092945947
 11
2.347874353889242
 21
0.3657587273886524
 72
     1
 10
2.347874353889242
 20
0.3657587273886524
 11
2.347874353889242
 21
0.3685363454825397
 72
     1
 10
2.347874353889242
 20
0.3685363454825397
 11
2.348586194660104
 21
0.3713139635765974
 72
     1
 10
2.348586194660104
 20
0.3713139635765974
 11
2.349735358012228
 21
0.3740915816706551
 72
     1
 10
2.349735358012228
 20
0.3740915816706551
 11
2.3511797194212
 21
0.3764803332313709
 72
     1
 10
2.3511797194212
 20
0.3764803332313709
 11
2.353429590077357
 21
0.378258008811486
 72
     1
 10
2.353429590077357
 20
0.378258008811486
 11
2.356207208171245
 21
0.3803481447481549
 72
     1
 10
2.356207208171245
 20
0.3803481447481549
 11
2.358708187386159
 21
0.3821533245041455
 72
     1
 10
2.358708187386159
 20
0.3821533245041455
 11
2.360746259593074
 21
0.3835311386972085
 72
     1
 10
2.360746259593074
 20
0.3835311386972085
 11
2.362567953606546
 21
0.3843965447991882
 72
     1
 10
2.362567953606546
 20
0.3843965447991882
 11
2.364540062453247
 21
0.3852020540465451
 72
     1
 10
2.364540062453247
 20
0.3852020540465451
 11
2.367317680547134
 21
0.3860225445559995
 72
     1
 10
2.367317680547134
 20
0.3860225445559995
 11
2.371041809419384
 21
0.3859647625154712
 72
     1
 10
2.371041809419384
 20
0.3859647625154712
 11
2.373644053628343
 21
0.3851557727118125
 72
     1
 10
2.373644053628343
 20
0.3851557727118125
 11
2.375650534829137
 21
0.3838132449996015
 72
     1
 10
2.375650534829137
 20
0.3838132449996015
 11
2.377749804062805
 21
0.3819776024104162
 72
     1
 10
2.377749804062805
 20
0.3819776024104162
 11
2.379816961970139
 21
0.3796468178584296
 72
     1
 10
2.379816961970139
 20
0.3796468178584296
 11
2.381205771017082
 21
0.3784524420782422
 72
     1
 10
2.381205771017082
 20
0.3784524420782422
 11
2.382248692300752
 21
0.380049012932091
 72
     1
 10
2.382248692300752
 20
0.380049012932091
 11
2.383757731757302
 21
0.3823591474088066
 72
     1
 10
2.383757731757302
 20
0.3823591474088066
 11
2.385542235943237
 21
0.3850909809773389
 72
     1
 10
2.385542235943237
 20
0.3850909809773389
 11
2.386582283838979
 21
0.3866831530647805
 72
     1
 10
2.386582283838979
 20
0.3866831530647805
 11
2.387955382985555
 21
0.3887851813877892
 72
     1
 10
2.387955382985555
 20
0.3887851813877892
 11
2.386761007205027
 21
0.39075729023449
 72
     1
 10
2.386761007205027
 20
0.39075729023449
 11
2.384708963404055
 21
0.3932298076646252
 72
     1
 10
2.384708963404055
 20
0.3932298076646252
 11
2.38166327412026
 21
0.3956385659741959
 72
     1
 10
2.38166327412026
 20
0.3956385659741959
 11
2.379947253551311
 21
0.3970016751998178
 72
     1
 10
2.379947253551311
 20
0.3970016751998178
 11
2.377622643675838
 21
0.3982846352691358
 72
     1
 10
2.377622643675838
 20
0.3982846352691358
 11
2.375650534829137
 21
0.3990901445163222
 72
     1
 10
2.375650534829137
 20
0.3990901445163222
 11
2.37287291673525
 21
0.3990901445163222
 72
     1
 10
2.37287291673525
 20
0.3990901445163222
 11
2.370095298641192
 21
0.3990901445163222
 72
     1
 10
2.370095298641192
 20
0.3990901445163222
 11
2.367317680547134
 21
0.3987012779831507
 72
     1
 10
2.367317680547134
 20
0.3987012779831507
 11
2.364540062453247
 21
0.3977013354693786
 72
     1
 10
2.364540062453247
 20
0.3977013354693786
 11
2.361956877625775
 21
0.3961180931558492
 72
     1
 10
2.361956877625775
 20
0.3961180931558492
 11
2.359679230788774
 21
0.394229312851849
 72
     1
 10
2.359679230788774
 20
0.394229312851849
 11
2.357596017218188
 21
0.3921460992814336
 72
     1
 10
2.357596017218188
 20
0.3921460992814336
 11
2.355512803647773
 21
0.3900628857110182
 72
     1
 10
2.355512803647773
 20
0.3900628857110182
 11
2.35378697604543
 21
0.3878950002004449
 72
     1
 10
2.35378697604543
 20
0.3878950002004449
 11
2.3521136744877
 21
0.3860075632937314
 72
     1
 10
2.3521136744877
 20
0.3860075632937314
 11
2.347874353889242
 21
0.3814779152569376
 72
     1
 10
2.347874353889242
 20
0.3814779152569376
 11
2.347874353889242
 21
0.3860075632937314
 72
     1
 10
2.347874353889242
 20
0.3860075632937314
 11
2.347874353889242
 21
0.3879796721404323
 72
     1
 10
2.347874353889242
 20
0.3879796721404323
 11
2.347874353889242
 21
0.39075729023449
 72
     1
 10
2.347874353889242
 20
0.39075729023449
 11
2.347874353889242
 21
0.3935349083285478
 72
     1
 10
2.347874353889242
 20
0.3935349083285478
 11
2.347874353889242
 21
0.396312526422435
 72
     1
 10
2.347874353889242
 20
0.396312526422435
 11
2.345096735795355
 21
0.396312526422435
 72
     1
 10
2.345096735795355
 20
0.396312526422435
 11
2.342319117701297
 21
0.396312526422435
 72
     1
 10
2.342319117701297
 20
0.396312526422435
 11
2.33954149960741
 21
0.396312526422435
 72
     1
 10
2.33954149960741
 20
0.396312526422435
 11
2.336763881513352
 21
0.396312526422435
 72
     1
 10
2.336763881513352
 20
0.396312526422435
 11
2.333986263419465
 21
0.396312526422435
 72
     1
 10
2.333986263419465
 20
0.396312526422435
 11
2.333986263419465
 21
0.3935349083285478
 72
     1
 10
2.333986263419465
 20
0.3935349083285478
 11
2.333986263419465
 21
0.39075729023449
 72
     1
 10
2.333986263419465
 20
0.39075729023449
 11
2.333986263419465
 21
0.3240944559788095
 72
     1
 10
2.333986263419465
 20
0.3240944559788095
 11
2.333986263419465
 21
0.3213168378847518
 72
     1
 10
2.333986263419465
 20
0.3213168378847518
 11
2.333986263419465
 21
0.3185392197908646
 97
        1
330
58D
 75
     0
 76
     1
 98
        1
 10
-6.623918024059631
 20
-0.1308261527660757
  0
HATCH
  5
587
330
557
100
AcDbEntity
  8
CONTINUOUS1
 62
     9
100
AcDbHatch
 10
0.0
 20
0.0
 30
0.0
210
0.0
220
0.0
230
1.0
  2
SOLID
 70
     1
 71
     1
 91
        2
 92
        1
 93
       13
 72
     2
 10
2.507627067133951
 20
0.5672078009861301
 40
0.0215625675244637
 50
0.0002565813902296
 51
90.00070498518821
 73
     1
 72
     2
 10
2.507627067134452
 20
0.6103329360318659
 40
0.0215625675245372
 50
269.9992950134807
 51
359.9995092535441
 73
     1
 72
     1
 10
2.529189634658198
 20
0.6103327513454251
 11
2.529189634658198
 21
0.6423016562928301
 72
     2
 10
2.50762667305249
 20
0.6423015303381832
 40
0.0215629616060761
 50
0.0003346789653151
 51
89.99920945081219
 73
     1
 72
     1
 10
2.507626970571468
 20
0.6638644919422068
 11
2.376002128332206
 21
0.6638644919422068
 72
     1
 10
2.376002128332206
 20
0.6638644919422068
 11
2.376002128332206
 21
0.5352391641624768
 72
     1
 10
2.376002128332206
 20
0.5352391641624768
 11
2.397564961169027
 21
0.5352391641624768
 72
     1
 10
2.397564961169027
 20
0.5352391641624768
 11
2.397564961169027
 21
0.577989312090836
 72
     1
 10
2.397564961169027
 20
0.577989312090836
 11
2.496845563528129
 21
0.577989312090836
 72
     2
 10
2.496845471653383
 20
0.5672081694230766
 40
0.0107811426681508
 50
270.0004882631974
 51
360.0004882673548
 73
     0
 72
     1
 10
2.507626614321143
 20
0.5672080775475484
 11
2.507626970571468
 21
0.5352391641624768
 72
     1
 10
2.507626970571468
 20
0.5352391641624768
 11
2.529189634658198
 21
0.5352391641624768
 72
     1
 10
2.529189634658198
 20
0.5352391641624768
 11
2.529189634658198
 21
0.5672078975474056
 97
        1
330
589
 92
       16
 93
        6
 72
     2
 10
2.496845471653383
 20
0.6315205201877572
 40
0.0107811426681508
 50
270.0004882631974
 51
360.0004882673548
 73
     0
 72
     1
 10
2.507626614321143
 20
0.6315204283122289
 11
2.507626970571468
 21
0.6103328394705163
 72
     2
 10
2.496845649778499
 20
0.6103329257201973
 40
0.0107813207933138
 50
0.0004583615308307
 51
90.00045836519477
 73
     0
 72
     1
 10
2.496845563528129
 20
0.5995516049272287
 11
2.397564961169027
 21
0.5995518730522922
 72
     1
 10
2.397564961169027
 20
0.5995518730522922
 11
2.397564961169027
 21
0.6423016628555165
 72
     1
 10
2.397564961169027
 20
0.6423016628555165
 11
2.496845563528129
 21
0.6423016628555165
 97
        1
330
58F
 75
     0
 76
     1
 98
        1
 10
-6.623918024059631
 20
-0.1308261527660757
  0
LWPOLYLINE
  5
588
102
{ACAD_REACTORS
330
592
102
}
330
557
100
AcDbEntity
  8
CONTINUOUS1
  6
CONTINUOUS
 62
     9
100
AcDbPolyline
 90
       13
 70
     0
 43
0.0
 10
2.682377122234047
 20
0.6638644919422068
 10
2.545877089309929
 20
0.6638644919422068
 10
2.545877089309929
 20
0.5352391641624768
 10
2.682377122234047
 20
0.5352391641624768
 10
2.682377122234047
 20
0.5568015451239608
 10
2.567439378396361
 20
0.5568015451239608
 10
2.567439378396361
 20
0.5887705485089332
 10
2.682377122234047
 20
0.5887705485089332
 10
2.682377122234047
 20
0.6103328394705163
 10
2.567439378396361
 20
0.6103328394705163
 10
2.567439378396361
 20
0.6423016628555165
 10
2.682377122234047
 20
0.6423016628555165
 10
2.682377122234047
 20
0.6638644919422068
  0
LWPOLYLINE
  5
589
102
{ACAD_REACTORS
330
587
102
}
330
557
100
AcDbEntity
  8
CONTINUOUS1
  6
CONTINUOUS
 62
     9
100
AcDbPolyline
 90
       14
 70
     0
 43
0.0
 10
2.529189634658198
 20
0.5672078975474056
 42
0.4142158545932141
 10
2.507626801821377
 20
0.588770368508961
 42
0.4142146575582358
 10
2.529189634658198
 20
0.6103327513454251
 10
2.529189634658198
 20
0.6423016562928301
 42
0.4142078102735817
 10
2.507626970571468
 20
0.6638644919422068
 10
2.376002128332206
 20
0.6638644919422068
 10
2.376002128332206
 20
0.5352391641624768
 10
2.397564961169027
 20
0.5352391641624768
 10
2.397564961169027
 20
0.577989312090836
 10
2.496845563528129
 20
0.577989312090836
 42
-0.4142135623943674
 10
2.507626614321143
 20
0.5672080775475484
 10
2.507626970571468
 20
0.5352391641624768
 10
2.529189634658198
 20
0.5352391641624768
 10
2.529189634658198
 20
0.5672078975474056
  0
LWPOLYLINE
  5
58A
102
{ACAD_REACTORS
330
583
102
}
330
557
100
AcDbEntity
  8
CONTINUOUS1
 62
     9
100
AcDbPolyline
 90
       18
 70
     1
 43
0.0
 10
2.597086510057327
 20
0.3739249696649272
 42
-0.0075148293555971
 10
2.597747313561828
 20
0.3758094905988973
 42
-0.004657993094582
 10
2.598518240370683
 20
0.3774326474991771
 42
-0.0194573042781228
 10
2.599614421495093
 20
0.3793376189554469
 42
-0.025588215895386
 10
2.601260943195345
 20
0.3815052047880845
 42
-0.0513535452749696
 10
2.60438438651855
 20
0.3844411686669678
 42
-0.0711488595792178
 10
2.608687792130783
 20
0.387030374336121
 42
-0.0589617480196389
 10
2.612759828426224
 20
0.388163142544784
 42
-0.055567443413236
 10
2.617481779009981
 20
0.3885472203085105
 42
-0.0505831829207604
 10
2.622438601289932
 20
0.3881580670007456
 42
-0.0805511158347094
 10
2.628138968138305
 20
0.386212311056966
 42
-0.0997279791482863
 10
2.632639186255605
 20
0.3821694970928324
 42
-0.05798586112659
 10
2.634725691735443
 20
0.3782279079159712
 42
-0.0542300556945522
 10
2.63602974439377
 20
0.3736673778522577
 42
-0.0393615860447316
 10
2.636657158546572
 20
0.3672377124287327
 10
2.595832764305416
 20
0.3672377124287327
 42
-0.0115879268951182
 10
2.596116860354502
 20
0.3695945556602855
 42
-0.0015814549261624
 10
2.596518317958985
 20
0.3718162665023788
 42
-0.0028557092809637
  0
LWPOLYLINE
  5
58B
102
{ACAD_REACTORS
330
583
102
}
330
557
100
AcDbEntity
  8
CONTINUOUS1
 62
     9
100
AcDbPolyline
 90
       47
 70
     1
 43
0.0
 10
2.602153476867872
 20
0.3371934049870338
 42
-0.0441414060654578
 10
2.59961369979263
 20
0.3406137919386656
 42
-0.0277319653937625
 10
2.5984653013729
 20
0.342908764392917
 42
-0.0164279047561354
 10
2.597515647073553
 20
0.3453802682993233
 42
-0.0066863653619568
 10
2.596775244033299
 20
0.3480745345536893
 42
-0.0233064481414024
 10
2.596254684297182
 20
0.3511569156956971
 42
-0.0386937426355895
 10
2.595830514291865
 20
0.3572253591981966
 10
2.649224587943283
 20
0.3572253591981966
 10
2.649224587943283
 20
0.367418047889942
 42
0.1310126142130034
 10
2.644988491698345
 20
0.384827874269718
 42
0.1175696112009137
 10
2.636356463341005
 20
0.3945709905457311
 42
0.1103270754359441
 10
2.625006928065293
 20
0.3987237922934814
 42
0.0651926395407652
 10
2.617493856912776
 20
0.3992029596881825
 42
0.0935138111535395
 10
2.606403540178096
 20
0.3974214224988377
 42
0.0771718076448178
 10
2.599285664799797
 20
0.3939838910158646
 42
0.0650775313207389
 10
2.593789051535882
 20
0.3895585675142574
 42
0.0516650400356126
 10
2.589115136618747
 20
0.3836759482660459
 42
0.0469242136237456
 10
2.586513590303841
 20
0.3788161200391191
 42
0.051223632580995
 10
2.584986595266205
 20
0.3746909211984648
 42
0.037832980863087
 10
2.583586471275143
 20
0.3691379050324035
 42
0.0380040356892352
 10
2.582795082079005
 20
0.3632512380642088
 42
0.0396963751324013
 10
2.582795082079005
 20
0.3535837675287898
 42
0.0477329049617882
 10
2.584331480475075
 20
0.3438434486300826
 42
0.0632736306522388
 10
2.586214656901265
 20
0.3384198641380185
 42
0.0887240198666166
 10
2.591374808234863
 20
0.3301577047572555
 42
0.0593249496237894
 10
2.596539162424083
 20
0.3253225760990977
 42
0.0586814778487906
 10
2.602842129596783
 20
0.321706383342701
 42
0.039275593781097
 10
2.608147746428333
 20
0.3198508322162757
 42
0.0294048595279412
 10
2.613237107241648
 20
0.3187611372579231
 42
0.0245538255625254
 10
2.618668576245656
 20
0.3182910719351076
 42
0.0484050884053723
 10
2.627556087272385
 20
0.318538586832347
 42
0.0313804255658969
 10
2.63448515255229
 20
0.3199276859149341
 42
0.0210229524573495
 10
2.639813099706859
 20
0.3215361459892283
 42
0.0098439804496088
 10
2.647864624571159
 20
0.3247109995190845
 10
2.647864624571159
 20
0.3403736793267176
 42
-0.1158714317854296
 10
2.647105648305942
 20
0.3389070845880729
 42
-0.0273968376187686
 10
2.644330659909687
 20
0.3368770470617056
 42
-0.0245127629396402
 10
2.641865387999789
 20
0.3353916503899091
 42
-0.0174018213192927
 10
2.639028460551546
 20
0.3339310062675627
 42
-0.0303578783463293
 10
2.633740567883169
 20
0.3316766063780965
 42
-0.0163288525489418
 10
2.629968887168647
 20
0.3305939790356552
 42
-0.0174430116847887
 10
2.627747020025172
 20
0.33012803560564
 42
-0.0109219578339942
 10
2.625442878801752
 20
0.329799142463799
 42
-0.0520451680420305
 10
2.617458535945591
 20
0.329799142463799
 42
-0.0139513426612014
 10
2.615659756253567
 20
0.3300115523971959
 42
-0.0578723374760443
 10
2.610218140962249
 20
0.3315192009325761
 42
-0.0508775714496942
 10
2.606195180433619
 20
0.3335955965084172
 42
-0.061605978241212
  0
LWPOLYLINE
  5
58C
102
{ACAD_REACTORS
330
585
102
}
330
557
100
AcDbEntity
  8
CONTINUOUS1
  6
CONTINUOUS
 62
     9
100
AcDbPolyline
 90
       61
 70
     0
 43
0.0
 10
2.456201459554765
 20
0.3185392197908646
 10
2.458979077648653
 20
0.3185392197908646
 10
2.46175669574271
 20
0.3185392197908646
 10
2.520086675716388
 20
0.3185392197908646
 10
2.522864293810275
 20
0.3185392197908646
 10
2.525641911904333
 20
0.3185392197908646
 10
2.525641911904333
 20
0.3213168378847518
 10
2.525641911904333
 20
0.3240944559788095
 10
2.525641911904333
 20
0.3268720740728673
 10
2.525641911904333
 20
0.3296496921667545
 10
2.525641911904333
 20
0.3324273102608122
 10
2.522864293810275
 20
0.3324273102608122
 10
2.520086675716388
 20
0.3324273102608122
 10
2.478422404306545
 20
0.3324273102608122
 10
2.475644786212658
 20
0.3324273102608122
 10
2.4728671681186
 20
0.3324273102608122
 10
2.4728671681186
 20
0.33520492835487
 10
2.4728671681186
 20
0.3379825464487572
 10
2.4728671681186
 20
0.3657587273886524
 10
2.4728671681186
 20
0.3685363454825397
 10
2.4728671681186
 20
0.3713139635765974
 10
2.475644786212658
 20
0.3713139635765974
 10
2.478422404306545
 20
0.3713139635765974
 10
2.51730905762233
 20
0.3713139635765974
 10
2.520086675716388
 20
0.3713139635765974
 10
2.522864293810275
 20
0.3713139635765974
 10
2.522864293810275
 20
0.3740915816706551
 10
2.522864293810275
 20
0.3768691997645424
 10
2.522864293810275
 20
0.3796468178584296
 10
2.522864293810275
 20
0.3824244359524873
 10
2.522864293810275
 20
0.3852020540465451
 10
2.520086675716388
 20
0.3852020540465451
 10
2.51730905762233
 20
0.3852020540465451
 10
2.478422404306545
 20
0.3852020540465451
 10
2.475644786212658
 20
0.3852020540465451
 10
2.4728671681186
 20
0.3852020540465451
 10
2.4728671681186
 20
0.3879796721404323
 10
2.4728671681186
 20
0.39075729023449
 10
2.4728671681186
 20
0.4185334711742148
 10
2.4728671681186
 20
0.4213110892682726
 10
2.4728671681186
 20
0.4240887073623303
 10
2.475644786212658
 20
0.4240887073623303
 10
2.478422404306545
 20
0.4240887073623303
 10
2.51730905762233
 20
0.4240887073623303
 10
2.520086675716388
 20
0.4240887073623303
 10
2.522864293810275
 20
0.4240887073623303
 10
2.522864293810275
 20
0.4268663254562175
 10
2.522864293810275
 20
0.4296439435502753
 10
2.522864293810275
 20
0.432421561644333
 10
2.522864293810275
 20
0.4351991797382202
 10
2.522864293810275
 20
0.4379767978321075
 10
2.520086675716388
 20
0.4379767978321075
 10
2.51730905762233
 20
0.4379767978321075
 10
2.46175669574271
 20
0.4379767978321075
 10
2.458979077648653
 20
0.4379767978321075
 10
2.456201459554765
 20
0.4379767978321075
 10
2.456201459554765
 20
0.4351991797382202
 10
2.456201459554765
 20
0.432421561644333
 10
2.456201459554765
 20
0.3240944559788095
 10
2.456201459554765
 20
0.3213168378847518
 10
2.456201459554765
 20
0.3185392197908646
  0
LWPOLYLINE
  5
58D
102
{ACAD_REACTORS
330
586
102
}
330
557
100
AcDbEntity
  8
CONTINUOUS1
  6
CONTINUOUS
 62
     9
100
AcDbPolyline
 90
       64
 70
     0
 43
0.0
 10
2.333986263419465
 20
0.3185392197908646
 10
2.336763881513352
 20
0.3185392197908646
 10
2.33954149960741
 20
0.3185392197908646
 10
2.342319117701297
 20
0.3185392197908646
 10
2.345096735795355
 20
0.3185392197908646
 10
2.347874353889242
 20
0.3185392197908646
 10
2.347874353889242
 20
0.3213168378847518
 10
2.347874353889242
 20
0.3240944559788095
 10
2.347874353889242
 20
0.3629811092945947
 10
2.347874353889242
 20
0.3657587273886524
 10
2.347874353889242
 20
0.3685363454825397
 10
2.348586194660104
 20
0.3713139635765974
 10
2.349735358012228
 20
0.3740915816706551
 10
2.3511797194212
 20
0.3764803332313709
 10
2.353429590077357
 20
0.378258008811486
 10
2.356207208171245
 20
0.3803481447481549
 10
2.358708187386159
 20
0.3821533245041455
 10
2.360746259593074
 20
0.3835311386972085
 10
2.362567953606546
 20
0.3843965447991882
 10
2.364540062453247
 20
0.3852020540465451
 10
2.367317680547134
 20
0.3860225445559995
 10
2.371041809419384
 20
0.3859647625154712
 10
2.373644053628343
 20
0.3851557727118125
 10
2.375650534829137
 20
0.3838132449996015
 10
2.377749804062805
 20
0.3819776024104162
 10
2.379816961970139
 20
0.3796468178584296
 10
2.381205771017082
 20
0.3784524420782422
 10
2.382248692300752
 20
0.380049012932091
 10
2.383757731757302
 20
0.3823591474088066
 10
2.385542235943237
 20
0.3850909809773389
 10
2.386582283838979
 20
0.3866831530647805
 10
2.387955382985555
 20
0.3887851813877892
 10
2.386761007205027
 20
0.39075729023449
 10
2.384708963404055
 20
0.3932298076646252
 10
2.38166327412026
 20
0.3956385659741959
 10
2.379947253551311
 20
0.3970016751998178
 10
2.377622643675838
 20
0.3982846352691358
 10
2.375650534829137
 20
0.3990901445163222
 10
2.37287291673525
 20
0.3990901445163222
 10
2.370095298641192
 20
0.3990901445163222
 10
2.367317680547134
 20
0.3987012779831507
 10
2.364540062453247
 20
0.3977013354693786
 10
2.361956877625775
 20
0.3961180931558492
 10
2.359679230788774
 20
0.394229312851849
 10
2.357596017218188
 20
0.3921460992814336
 10
2.355512803647773
 20
0.3900628857110182
 10
2.35378697604543
 20
0.3878950002004449
 10
2.3521136744877
 20
0.3860075632937314
 10
2.347874353889242
 20
0.3814779152569376
 10
2.347874353889242
 20
0.3860075632937314
 10
2.347874353889242
 20
0.3879796721404323
 10
2.347874353889242
 20
0.39075729023449
 10
2.347874353889242
 20
0.3935349083285478
 10
2.347874353889242
 20
0.396312526422435
 10
2.345096735795355
 20
0.396312526422435
 10
2.342319117701297
 20
0.396312526422435
 10
2.33954149960741
 20
0.396312526422435
 10
2.336763881513352
 20
0.396312526422435
 10
2.333986263419465
 20
0.396312526422435
 10
2.333986263419465
 20
0.3935349083285478
 10
2.333986263419465
 20
0.39075729023449
 10
2.333986263419465
 20
0.3240944559788095
 10
2.333986263419465
 20
0.3213168378847518
 10
2.333986263419465
 20
0.3185392197908646
  0
LWPOLYLINE
  5
58E
102
{ACAD_REACTORS
330
584
102
}
330
557
100
AcDbEntity
  8
CONTINUOUS1
  6
CONTINUOUS
 62
     9
100
AcDbPolyline
 90
       21
 70
     0
 43
0.0
 10
2.545085238562226
 20
0.3185392197908646
 10
2.547862856656283
 20
0.3185392197908646
 10
2.550640474750171
 20
0.3185392197908646
 10
2.553418092844228
 20
0.3185392197908646
 10
2.556195710938116
 20
0.3185392197908646
 10
2.558973329032173
 20
0.3185392197908646
 10
2.558973329032173
 20
0.3213168378847518
 10
2.558973329032173
 20
0.3240944559788095
 10
2.558973329032173
 20
0.432421561644333
 10
2.558973329032173
 20
0.4351991797382202
 10
2.558973329032173
 20
0.4379767978321075
 10
2.556195710938116
 20
0.4379767978321075
 10
2.553418092844228
 20
0.4379767978321075
 10
2.550640474750171
 20
0.4379767978321075
 10
2.547862856656283
 20
0.4379767978321075
 10
2.545085238562226
 20
0.4379767978321075
 10
2.545085238562226
 20
0.4351991797382202
 10
2.545085238562226
 20
0.432421561644333
 10
2.545085238562226
 20
0.3240944559788095
 10
2.545085238562226
 20
0.3213168378847518
 10
2.545085238562226
 20
0.3185392197908646
  0
LWPOLYLINE
  5
58F
102
{ACAD_REACTORS
330
587
102
}
330
557
100
AcDbEntity
  8
CONTINUOUS1
  6
CONTINUOUS
 62
     9
100
AcDbPolyline
 90
        7
 70
     1
 43
0.0
 10
2.496845563528129
 20
0.6423016628555165
 42
-0.4142135623943683
 10
2.507626614321143
 20
0.6315204283122289
 10
2.507626970571468
 20
0.6103328394705163
 42
-0.4142135623918344
 10
2.496845563528129
 20
0.5995516049272287
 10
2.397564961169027
 20
0.5995518730522922
 10
2.397564961169027
 20
0.6423016628555165
 10
2.496845563528129
 20
0.6423016628555165
  0
LWPOLYLINE
  5
590
102
{ACAD_REACTORS
330
581
102
}
330
557
100
AcDbEntity
  8
CONTINUOUS1
  6
CONTINUOUS
 62
     9
100
AcDbPolyline
 90
       80
 70
     0
 43
0.0
 10
2.768100195328234
 20
0.3193447290382215
 10
2.770072304174934
 20
0.3185392197908646
 10
2.776853223288274
 20
0.3177266059119579
 10
2.783960394644882
 20
0.3185392197908646
 10
2.78673801273894
 20
0.3190948244196652
 10
2.788710121585641
 20
0.3197586133924238
 10
2.790321140080184
 20
0.3205113286375654
 10
2.792293248926885
 20
0.3213168378847518
 10
2.795070867020772
 20
0.3223769226657969
 10
2.79784848511483
 20
0.323705589445638
 10
2.79784848511483
 20
0.3240944559788095
 10
2.79784848511483
 20
0.3268720740728673
 10
2.79784848511483
 20
0.3296496921667545
 10
2.79784848511483
 20
0.3324273102608122
 10
2.79784848511483
 20
0.3348160618216985
 10
2.795070867020772
 20
0.3340302206436268
 10
2.792365821896428
 20
0.3330627471016219
 10
2.789656082622375
 20
0.3319722328952826
 10
2.787543521986126
 20
0.3310528956835701
 10
2.785932503491583
 20
0.3304552014141114
 10
2.783960394644882
 20
0.3296496921667545
 10
2.781182776550995
 20
0.3294142968159695
 10
2.778405158456937
 20
0.3296496921667545
 10
2.776433049610236
 20
0.3304552014141114
 10
2.774670597445183
 20
0.3314126783258194
 10
2.772849922268992
 20
0.3324273102608122
 10
2.771309634063275
 20
0.3337080859405437
 10
2.770072304174934
 20
0.33520492835487
 10
2.769017502196309
 20
0.3370752134098898
 10
2.768100195328234
 20
0.3387880556961141
 10
2.767294686081047
 20
0.3407601645426444
 10
2.767294686081047
 20
0.3435377826367021
 10
2.767294686081047
 20
0.3796468178584296
 10
2.767294686081047
 20
0.3824244359524873
 10
2.767294686081047
 20
0.3852020540465451
 10
2.770072304174934
 20
0.3852020540465451
 10
2.772849922268992
 20
0.3852020540465451
 10
2.78673801273894
 20
0.3852020540465451
 10
2.789515630832827
 20
0.3852020540465451
 10
2.792293248926885
 20
0.3852020540465451
 10
2.792293248926885
 20
0.3879796721404323
 10
2.792293248926885
 20
0.39075729023449
 10
2.792293248926885
 20
0.3935349083285478
 10
2.792293248926885
 20
0.396312526422435
 10
2.789515630832827
 20
0.396312526422435
 10
2.78673801273894
 20
0.396312526422435
 10
2.772849922268992
 20
0.396312526422435
 10
2.770072304174934
 20
0.396312526422435
 10
2.767294686081047
 20
0.396312526422435
 10
2.767294686081047
 20
0.3990901445163222
 10
2.767294686081047
 20
0.40186776261038
 10
2.767294686081047
 20
0.4046453807044377
 10
2.767294686081047
 20
0.4074229987983249
 10
2.767294686081047
 20
0.4101951770153965
 10
2.765072591605903
 20
0.4082562842266957
 10
2.762850497130589
 20
0.4063119515608383
 10
2.749517930279555
 20
0.3946459555660344
 10
2.747295835804241
 20
0.392701622900177
 10
2.745037428605176
 20
0.390774564389972
 10
2.742784501548531
 20
0.3888087685731994
 10
2.740784200988546
 20
0.3870634024897304
 10
2.73865097726642
 20
0.3852020540465451
 10
2.74229612323521
 20
0.3852020540465451
 10
2.745073741329097
 20
0.3852020540465451
 10
2.747851359423155
 20
0.3852020540465451
 10
2.750628977517042
 20
0.3852020540465451
 10
2.7534065956111
 20
0.3852020540465451
 10
2.7534065956111
 20
0.3824244359524873
 10
2.7534065956111
 20
0.3796468178584296
 10
2.7534065956111
 20
0.3379825464487572
 10
2.7534065956111
 20
0.33520492835487
 10
2.753795462144271
 20
0.3324273102608122
 10
2.754795404658043
 20
0.3296496921667545
 10
2.756573080238158
 20
0.3272609406060388
 10
2.758810686828073
 20
0.3252801639712293
 10
2.760933940645745
 20
0.323705589445638
 10
2.762735804659516
 20
0.322316540818179
 10
2.764517067986989
 20
0.3213168378847518
 10
2.766384493876135
 20
0.3202550358792001
 10
2.768100195328234
 20
0.3193447290382215
  0
LWPOLYLINE
  5
591
102
{ACAD_REACTORS
330
582
102
}
330
557
100
AcDbEntity
  8
CONTINUOUS1
  6
CONTINUOUS
 62
     9
100
AcDbPolyline
 90
        4
 70
     1
 43
0.0
 10
2.728340921353581
 20
0.3820863083685713
 10
2.728340921353581
 20
0.3931967807444612
 42
1.819450421535996
 10
2.728340921353581
 20
0.3237563283948935
 10
2.728340921353581
 20
0.3348668007707834
 42
-2.028165022884401
  0
HATCH
  5
592
330
557
100
AcDbEntity
  8
CONTINUOUS1
 62
     9
100
AcDbHatch
 10
0.0
 20
0.0
 30
0.0
210
0.0
220
0.0
230
1.0
  2
SOLID
 70
     1
 71
     1
 91
        1
 92
        1
 93
       12
 72
     1
 10
2.682377122234047
 20
0.6638644919422068
 11
2.545877089309929
 21
0.6638644919422068
 72
     1
 10
2.545877089309929
 20
0.6638644919422068
 11
2.545877089309929
 21
0.5352391641624768
 72
     1
 10
2.545877089309929
 20
0.5352391641624768
 11
2.682377122234047
 21
0.5352391641624768
 72
     1
 10
2.682377122234047
 20
0.5352391641624768
 11
2.682377122234047
 21
0.5568015451239608
 72
     1
 10
2.682377122234047
 20
0.5568015451239608
 11
2.567439378396361
 21
0.5568015451239608
 72
     1
 10
2.567439378396361
 20
0.5568015451239608
 11
2.567439378396361
 21
0.5887705485089332
 72
     1
 10
2.567439378396361
 20
0.5887705485089332
 11
2.682377122234047
 21
0.5887705485089332
 72
     1
 10
2.682377122234047
 20
0.5887705485089332
 11
2.682377122234047
 21
0.6103328394705163
 72
     1
 10
2.682377122234047
 20
0.6103328394705163
 11
2.567439378396361
 21
0.6103328394705163
 72
     1
 10
2.567439378396361
 20
0.6103328394705163
 11
2.567439378396361
 21
0.6423016628555165
 72
     1
 10
2.567439378396361
 20
0.6423016628555165
 11
2.682377122234047
 21
0.6423016628555165
 72
     1
 10
2.682377122234047
 20
0.6423016628555165
 11
2.682377122234047
 21
0.6638644919422068
 97
        1
330
588
 75
     0
 76
     1
 98
        1
 10
-6.623918024059631
 20
-0.1308261527660757
  0
HATCH
  5
593
330
557
100
AcDbEntity
  8
CONTINUOUS1
 62
     9
100
AcDbHatch
 10
0.0
 20
0.0
 30
0.0
210
0.0
220
0.0
230
1.0
  2
SOLID
 70
     1
 71
     1
 91
        1
 92
        1
 93
        4
 72
     1
 10
2.981203152099315
 20
0.3820863083685713
 11
2.981203152099315
 21
0.3931967807444612
 72
     2
 10
2.959158691880601
 20
0.3584765545696773
 40
0.041127269930821
 50
57.58784372121546
 51
302.4121562787845
 73
     1
 72
     1
 10
2.981203152099315
 20
0.3237563283948935
 11
2.981203152099315
 21
0.3348668007707834
 72
     2
 10
2.963081385264331
 20
0.3584765545696773
 40
0.0297627100188458
 50
52.49180531393238
 51
307.5081946860675
 73
     0
 97
        1
330
595
 75
     0
 76
     1
 98
        1
 10
-6.623918024059631
 20
-0.1308261527660757
  0
HATCH
  5
594
330
557
100
AcDbEntity
  8
CONTINUOUS1
 62
     9
100
AcDbHatch
 10
0.0
 20
0.0
 30
0.0
210
0.0
220
0.0
230
1.0
  2
SOLID
 70
     1
 71
     1
 91
        2
 92
        1
 93
       20
 72
     1
 10
2.883954646028403
 20
0.3185392197908646
 11
2.88673226412229
 21
0.3185392197908646
 72
     1
 10
2.88673226412229
 20
0.3185392197908646
 11
2.889509882216348
 21
0.3185392197908646
 72
     1
 10
2.889509882216348
 20
0.3185392197908646
 11
2.892287500310406
 21
0.3185392197908646
 72
     1
 10
2.892287500310406
 20
0.3185392197908646
 11
2.895065118404293
 21
0.3185392197908646
 72
     1
 10
2.895065118404293
 20
0.3185392197908646
 11
2.897842736498351
 21
0.3185392197908646
 72
     1
 10
2.897842736498351
 20
0.3185392197908646
 11
2.897842736498351
 21
0.3213168378847518
 72
     1
 10
2.897842736498351
 20
0.3213168378847518
 11
2.897842736498351
 21
0.3240944559788095
 72
     1
 10
2.897842736498351
 20
0.3240944559788095
 11
2.897842736498351
 21
0.39075729023449
 72
     1
 10
2.897842736498351
 20
0.39075729023449
 11
2.897842736498351
 21
0.3935349083285478
 72
     1
 10
2.897842736498351
 20
0.3935349083285478
 11
2.897843375494833
 21
0.396312526422435
 72
     1
 10
2.897843375494833
 20
0.396312526422435
 11
2.895065118404293
 21
0.396312526422435
 72
     1
 10
2.895065118404293
 20
0.396312526422435
 11
2.892287500310406
 21
0.396312526422435
 72
     1
 10
2.892287500310406
 20
0.396312526422435
 11
2.889509882216348
 21
0.396312526422435
 72
     1
 10
2.889509882216348
 20
0.396312526422435
 11
2.88673226412229
 21
0.396312526422435
 72
     1
 10
2.88673226412229
 20
0.396312526422435
 11
2.883954646028403
 21
0.396312526422435
 72
     1
 10
2.883954646028403
 20
0.396312526422435
 11
2.883954646028403
 21
0.3935349083285478
 72
     1
 10
2.883954646028403
 20
0.3935349083285478
 11
2.883954646028403
 21
0.39075729023449
 72
     1
 10
2.883954646028403
 20
0.39075729023449
 11
2.883954646028403
 21
0.3240944559788095
 72
     1
 10
2.883954646028403
 20
0.3240944559788095
 11
2.883954646028403
 21
0.3213168378847518
 72
     1
 10
2.883954646028403
 20
0.3213168378847518
 11
2.883954646028403
 21
0.3185392197908646
 97
        1
330
596
 92
        1
 93
        1
 72
     2
 10
2.890898691263291
 20
0.4213110892682726
 40
0.0083328542819542
 50
0.0
 51
360.0
 73
     1
 97
        1
330
597
 75
     0
 76
     1
 98
        1
 10
-6.623918024059631
 20
-0.1308261527660757
  0
LWPOLYLINE
  5
595
102
{ACAD_REACTORS
330
593
102
}
330
557
100
AcDbEntity
  8
CONTINUOUS1
  6
CONTINUOUS
 62
     9
100
AcDbPolyline
 90
        4
 70
     1
 43
0.0
 10
2.981203152099315
 20
0.3820863083685713
 10
2.981203152099315
 20
0.3931967807444612
 42
1.819450421535996
 10
2.981203152099315
 20
0.3237563283948935
 10
2.981203152099315
 20
0.3348668007707834
 42
-2.028165022884401
  0
LWPOLYLINE
  5
596
102
{ACAD_REACTORS
330
594
102
}
330
557
100
AcDbEntity
  8
CONTINUOUS1
  6
CONTINUOUS
 62
     9
100
AcDbPolyline
 90
       21
 70
     0
 43
0.0
 10
2.883954646028403
 20
0.3185392197908646
 10
2.88673226412229
 20
0.3185392197908646
 10
2.889509882216348
 20
0.3185392197908646
 10
2.892287500310406
 20
0.3185392197908646
 10
2.895065118404293
 20
0.3185392197908646
 10
2.897842736498351
 20
0.3185392197908646
 10
2.897842736498351
 20
0.3213168378847518
 10
2.897842736498351
 20
0.3240944559788095
 10
2.897842736498351
 20
0.39075729023449
 10
2.897842736498351
 20
0.3935349083285478
 10
2.897843375494833
 20
0.396312526422435
 10
2.895065118404293
 20
0.396312526422435
 10
2.892287500310406
 20
0.396312526422435
 10
2.889509882216348
 20
0.396312526422435
 10
2.88673226412229
 20
0.396312526422435
 10
2.883954646028403
 20
0.396312526422435
 10
2.883954646028403
 20
0.3935349083285478
 10
2.883954646028403
 20
0.39075729023449
 10
2.883954646028403
 20
0.3240944559788095
 10
2.883954646028403
 20
0.3213168378847518
 10
2.883954646028403
 20
0.3185392197908646
  0
CIRCLE
  5
597
102
{ACAD_REACTORS
330
594
102
}
330
557
100
AcDbEntity
  8
CONTINUOUS1
 62
     9
100
AcDbCircle
 10
2.890898691263291
 20
0.4213110892682726
 30
0.0
 40
0.0083328542819542
  0
LWPOLYLINE
  5
598
102
{ACAD_REACTORS
330
567
102
}
330
557
100
AcDbEntity
  8
CONTINUOUS1
  6
CONTINUOUS
 62
     9
100
AcDbPolyline
 90
        7
 70
     0
 43
0.0
 10
2.846064035419235
 20
0.6423016628555165
 10
2.959782634710521
 20
0.6423016628555165
 42
-0.4142135623918432
 10
2.97056404175391
 20
0.6315204283122381
 10
2.97056404175391
 20
0.5675829596674955
 42
-0.4142111173935808
 10
2.959782634710521
 20
0.5568015451240994
 10
2.846064035419235
 20
0.5568015451240994
 10
2.846064035419235
 20
0.6423016628555165
  0
ENDBLK
  5
59A
330
557
100
AcDbEntity
  8
0
100
AcDbBlockEnd
  0
BLOCK
  5
1D0D
330
1D09
100
AcDbEntity
  8
0
100
AcDbBlockBegin
  2
DUALDIM
 70
     0
 10
0.0
 20
0.0
 30
0.0
  3
DUALDIM
  1

  0
TEXT
  5
1D0A
330
1D09
100
AcDbEntity
  8
TEXT1
100
AcDbText
 10
-2.030680408630159
 20
0.2153350361163993
 30
0.0
 40
0.0799999990332709
  1
DUAL DIMENSIONS:
  7
ROMANS
 11
-2.030680408630159
 21
0.2553350356330348
 31
0.0
100
AcDbText
 73
     2
  0
TEXT
  5
1D0B
330
1D09
100
AcDbEntity
  8
TEXT1
100
AcDbText
 10
-0.8594752334243551
 20
0.2679392473614512
 30
0.0
 40
0.1000000031915378
  1
INCHES
  7
ROMANS
 11
-0.8594752334243551
 21
0.3179392489572201
 31
0.0
100
AcDbText
 73
     2
  0
TEXT
  5
1D0C
330
1D09
100
AcDbEntity
  8
TEXT1
100
AcDbText
 10
-0.8594752334243551
 20
0.1279392329200802
 30
0.0
 40
0.0799999990332709
  1
MILLIMETERS
  7
ROMANS
 11
-0.8594752334243551
 21
0.1679392324367157
 31
0.0
100
AcDbText
 73
     2
  0
ENDBLK
  5
1D0E
330
1D09
100
AcDbEntity
  8
0
100
AcDbBlockEnd
  0
BLOCK
  5
26D3
330
26C8
100
AcDbEntity
  8
0
100
AcDbBlockBegin
  2
*D4
 70
     1
 10
0.0
 20
0.0
 30
0.0
  3
*D4
  1

  0
LINE
  5
2CCE
330
26C8
100
AcDbEntity
  8
DIM
100
AcDbLine
 10
10.7857784909323
 20
10.26603974849107
 30
0.0
 11
10.7857784909323
 21
8.859727103481038
 31
0.0
  0
LINE
  5
2CCF
330
26C8
100
AcDbEntity
  8
DIM
100
AcDbLine
 10
13.16077849093231
 20
10.26603974849107
 30
0.0
 11
13.16077849093231
 21
8.859727103481038
 31
0.0
  0
LINE
  5
2CD0
330
26C8
100
AcDbEntity
  8
DIM
100
AcDbLine
 10
10.9257784909323
 20
8.984727103481038
 30
0.0
 11
11.5885165861704
 21
8.984727103481038
 31
0.0
  0
LINE
  5
2CD1
330
26C8
100
AcDbEntity
  8
DIM
100
AcDbLine
 10
13.0207784909323
 20
8.984727103481038
 30
0.0
 11
12.35804039569421
 21
8.984727103481038
 31
0.0
  0
INSERT
  5
2CD2
330
26C8
100
AcDbEntity
  8
DIM
100
AcDbBlockReference
  2
SEARROW
 10
10.7857784909323
 20
8.984727103481038
 30
0.0
 41
0.14
 42
0.14
 43
0.14
 50
180.0
  0
INSERT
  5
2CD3
330
26C8
100
AcDbEntity
  8
DIM
100
AcDbBlockReference
  2
SEARROW
 10
13.16077849093231
 20
8.984727103481038
 30
0.0
 41
0.14
 42
0.14
 43
0.14
  0
MTEXT
  5
2CD4
330
26C8
100
AcDbEntity
  8
DIM
100
AcDbMText
 10
11.9732784909323
 20
8.984727103481038
 30
0.0
 40
0.2
 41
0.0
 71
     5
 72
     1
  1
\A1;2.38\P{\H0.8x; [60]
  7
ROMANS
1001
ACAD
1000
MTEXTBEGIN
1070
    73
1070
     1
1070
    44
1040
1.0
1070
    74
1070
     0
1000
MTEXTEND
  0
POINT
  5
2CD5
330
26C8
100
AcDbEntity
  8
DEFPOINTS
 62
     0
100
AcDbPoint
 10
10.7857784909323
 20
10.39103974849107
 30
0.0
  0
POINT
  5
2CD6
330
26C8
100
AcDbEntity
  8
DEFPOINTS
 62
     0
100
AcDbPoint
 10
13.16077849093231
 20
10.39103974849107
 30
0.0
  0
POINT
  5
2CD7
330
26C8
100
AcDbEntity
  8
DEFPOINTS
 62
     0
100
AcDbPoint
 10
13.16077849093231
 20
8.984727103481038
 30
0.0
  0
ENDBLK
  5
26D4
330
26C8
100
AcDbEntity
  8
0
100
AcDbBlockEnd
  0
BLOCK
  5
26E0
330
26D5
100
AcDbEntity
  8
0
100
AcDbBlockBegin
  2
*D5
 70
     1
 10
0.0
 20
0.0
 30
0.0
  3
*D5
  1

  0
LINE
  5
2CD8
330
26D5
100
AcDbEntity
  8
DIM
100
AcDbLine
 10
10.72577849093231
 20
10.31103974849107
 30
0.0
 11
9.259908039238181
 21
10.31103974849107
 31
0.0
  0
LINE
  5
2CD9
330
26D5
100
AcDbEntity
  8
DIM
100
AcDbLine
 10
10.72577849093231
 20
12.09603974849107
 30
0.0
 11
9.259908039238183
 21
12.09603974849107
 31
0.0
  0
LINE
  5
2CDA
330
26D5
100
AcDbEntity
  8
DIM
100
AcDbLine
 10
9.384908039238181
 20
10.45103974849107
 30
0.0
 11
9.384908039238181
 21
10.70842264039974
 31
0.0
  0
LINE
  5
2CDB
330
26D5
100
AcDbEntity
  8
DIM
100
AcDbLine
 10
9.384908039238181
 20
11.95603974849107
 30
0.0
 11
9.384908039238181
 21
11.4550893070664
 31
0.0
  0
INSERT
  5
2CDC
330
26D5
100
AcDbEntity
  8
DIM
100
AcDbBlockReference
  2
SEARROW
 10
9.384908039238181
 20
10.31103974849107
 30
0.0
 41
0.14
 42
0.14
 43
0.14
 50
270.0
  0
INSERT
  5
2CDD
330
26D5
100
AcDbEntity
  8
DIM
100
AcDbBlockReference
  2
SEARROW
 10
9.384908039238183
 20
12.09603974849107
 30
0.0
 41
0.14
 42
0.14
 43
0.14
 50
90.0
  0
MTEXT
  5
2CDE
330
26D5
100
AcDbEntity
  8
DIM
100
AcDbMText
 10
9.38490803923818
 20
11.08175597373307
 30
0.0
 40
0.2
 41
0.0
 71
     5
 72
     1
  1
\A1;1.79\P{\H0.8x; [45]
  7
ROMANS
1001
ACAD
1000
MTEXTBEGIN
1070
    73
1070
     1
1070
    44
1040
1.0
1070
    74
1070
     0
1000
MTEXTEND
  0
POINT
  5
2CDF
330
26D5
100
AcDbEntity
  8
DEFPOINTS
 62
     0
100
AcDbPoint
 10
10.85077849093231
 20
10.31103974849107
 30
0.0
  0
POINT
  5
2CE0
330
26D5
100
AcDbEntity
  8
DEFPOINTS
 62
     0
100
AcDbPoint
 10
10.85077849093231
 20
12.09603974849107
 30
0.0
  0
POINT
  5
2CE1
330
26D5
100
AcDbEntity
  8
DEFPOINTS
 62
     0
100
AcDbPoint
 10
9.384908039238183
 20
12.09603974849107
 30
0.0
  0
ENDBLK
  5
26E1
330
26D5
100
AcDbEntity
  8
0
100
AcDbBlockEnd
  0
BLOCK
  5
26ED
330
26E2
100
AcDbEntity
  8
0
100
AcDbBlockBegin
  2
*D6
 70
     1
 10
0.0
 20
0.0
 30
0.0
  3
*D6
  1

  0
LINE
  5
2CE2
330
26E2
100
AcDbEntity
  8
DIM
100
AcDbLine
 10
15.81421089252534
 20
10.29728974849106
 30
0.0
 11
15.81421089252534
 21
9.718811523808653
 31
0.0
  0
LINE
  5
2CE3
330
26E2
100
AcDbEntity
  8
DIM
100
AcDbLine
 10
18.56171089252534
 20
10.18603974849106
 30
0.0
 11
18.56171089252534
 21
9.718811523808653
 31
0.0
  0
LINE
  5
2CE4
330
26E2
100
AcDbEntity
  8
DIM
100
AcDbLine
 10
15.95421089252534
 20
9.843811523808653
 30
0.0
 11
16.80319898776343
 21
9.843811523808653
 31
0.0
  0
LINE
  5
2CE5
330
26E2
100
AcDbEntity
  8
DIM
100
AcDbLine
 10
18.42171089252533
 20
9.843811523808653
 30
0.0
 11
17.57272279728725
 21
9.843811523808653
 31
0.0
  0
INSERT
  5
2CE6
330
26E2
100
AcDbEntity
  8
DIM
100
AcDbBlockReference
  2
SEARROW
 10
15.81421089252534
 20
9.843811523808653
 30
0.0
 41
0.14
 42
0.14
 43
0.14
 50
180.0
  0
INSERT
  5
2CE7
330
26E2
100
AcDbEntity
  8
DIM
100
AcDbBlockReference
  2
SEARROW
 10
18.56171089252534
 20
9.843811523808653
 30
0.0
 41
0.14
 42
0.14
 43
0.14
  0
MTEXT
  5
2CE8
330
26E2
100
AcDbEntity
  8
DIM
100
AcDbMText
 10
17.18796089252534
 20
9.843811523808653
 30
0.0
 40
0.2
 41
0.0
 71
     5
 72
     1
  1
\A1;2.75\P{\H0.8x; [70]
  7
ROMANS
1001
ACAD
1000
MTEXTBEGIN
1070
    73
1070
     1
1070
    44
1040
1.0
1070
    74
1070
     0
1000
MTEXTEND
  0
POINT
  5
2CE9
330
26E2
100
AcDbEntity
  8
DEFPOINTS
 62
     0
100
AcDbPoint
 10
15.81421089252534
 20
10.42228974849106
 30
0.0
  0
POINT
  5
2CEA
330
26E2
100
AcDbEntity
  8
DEFPOINTS
 62
     0
100
AcDbPoint
 10
18.56171089252534
 20
10.31103974849106
 30
0.0
  0
POINT
  5
2CEB
330
26E2
100
AcDbEntity
  8
DEFPOINTS
 62
     0
100
AcDbPoint
 10
18.56171089252534
 20
9.843811523808653
 30
0.0
  0
ENDBLK
  5
26EE
330
26E2
100
AcDbEntity
  8
0
100
AcDbBlockEnd
  0
BLOCK
  5
26FA
330
26EF
100
AcDbEntity
  8
0
100
AcDbBlockBegin
  2
*D7
 70
     1
 10
0.0
 20
0.0
 30
0.0
  3
*D7
  1

  0
LINE
  5
2CEC
330
26EF
100
AcDbEntity
  8
DIM
100
AcDbLine
 10
15.17421089252534
 20
10.85853974849106
 30
0.0
 11
15.17421089252534
 21
8.832195083700728
 31
0.0
  0
LINE
  5
2CED
330
26EF
100
AcDbEntity
  8
DIM
100
AcDbLine
 10
19.22421089252535
 20
10.87623176646516
 30
0.0
 11
19.22421089252535
 21
8.832195083700728
 31
0.0
  0
LINE
  5
2CEE
330
26EF
100
AcDbEntity
  8
DIM
100
AcDbLine
 10
15.31421089252534
 20
8.957195083700728
 30
0.0
 11
16.73825851157296
 21
8.957195083700728
 31
0.0
  0
LINE
  5
2CEF
330
26EF
100
AcDbEntity
  8
DIM
100
AcDbLine
 10
19.08421089252534
 20
8.957195083700728
 30
0.0
 11
17.66016327347772
 21
8.957195083700728
 31
0.0
  0
INSERT
  5
2CF0
330
26EF
100
AcDbEntity
  8
DIM
100
AcDbBlockReference
  2
SEARROW
 10
15.17421089252534
 20
8.957195083700728
 30
0.0
 41
0.14
 42
0.14
 43
0.14
 50
180.0
  0
INSERT
  5
2CF1
330
26EF
100
AcDbEntity
  8
DIM
100
AcDbBlockReference
  2
SEARROW
 10
19.22421089252535
 20
8.957195083700728
 30
0.0
 41
0.14
 42
0.14
 43
0.14
  0
MTEXT
  5
2CF2
330
26EF
100
AcDbEntity
  8
DIM
100
AcDbMText
 10
17.19921089252534
 20
8.957195083700728
 30
0.0
 40
0.2
 41
0.0
 71
     5
 72
     1
  1
\A1;4.05\P{\H0.8x; [103]
  7
ROMANS
1001
ACAD
1000
MTEXTBEGIN
1070
    73
1070
     1
1070
    44
1040
1.0
1070
    74
1070
     0
1000
MTEXTEND
  0
POINT
  5
2CF3
330
26EF
100
AcDbEntity
  8
DEFPOINTS
 62
     0
100
AcDbPoint
 10
15.17421089252534
 20
10.98353974849106
 30
0.0
  0
POINT
  5
2CF4
330
26EF
100
AcDbEntity
  8
DEFPOINTS
 62
     0
100
AcDbPoint
 10
19.22421089252535
 20
11.00123176646516
 30
0.0
  0
POINT
  5
2CF5
330
26EF
100
AcDbEntity
  8
DEFPOINTS
 62
     0
100
AcDbPoint
 10
19.22421089252535
 20
8.957195083700728
 30
0.0
  0
ENDBLK
  5
26FB
330
26EF
100
AcDbEntity
  8
0
100
AcDbBlockEnd
  0
BLOCK
  5
2707
330
26FC
100
AcDbEntity
  8
0
100
AcDbBlockBegin
  2
*D8
 70
     1
 10
0.0
 20
0.0
 30
0.0
  3
*D8
  1

  0
LINE
  5
2CF6
330
26FC
100
AcDbEntity
  8
DIM
100
AcDbLine
 10
18.56171089252534
 20
10.18603974849106
 30
0.0
 11
18.56171089252534
 21
9.718811523808653
 31
0.0
  0
LINE
  5
2CF7
330
26FC
100
AcDbEntity
  8
DIM
100
AcDbLine
 10
19.22421089252535
 20
10.87623176646516
 30
0.0
 11
19.22421089252535
 21
9.718811523808653
 31
0.0
  0
LINE
  5
2CF8
330
26FC
100
AcDbEntity
  8
DIM
100
AcDbLine
 10
18.70171089252534
 20
9.843811523808653
 30
0.0
 11
19.08421089252534
 21
9.843811523808653
 31
0.0
  0
LINE
  5
2CF9
330
26FC
100
AcDbEntity
  8
DIM
100
AcDbLine
 10
19.22421089252535
 20
9.843811523808653
 30
0.0
 11
19.36421089252535
 21
9.843811523808653
 31
0.0
  0
INSERT
  5
2CFA
330
26FC
100
AcDbEntity
  8
DIM
100
AcDbBlockReference
  2
SEARROW
 10
18.56171089252534
 20
9.843811523808653
 30
0.0
 41
0.14
 42
0.14
 43
0.14
 50
180.0
  0
INSERT
  5
2CFB
330
26FC
100
AcDbEntity
  8
DIM
100
AcDbBlockReference
  2
SEARROW
 10
19.22421089252535
 20
9.843811523808653
 30
0.0
 41
0.14
 42
0.14
 43
0.14
  0
MTEXT
  5
2CFC
330
26FC
100
AcDbEntity
  8
DIM
100
AcDbMText
 10
19.74897279728725
 20
9.843811523808653
 30
0.0
 40
0.2
 41
0.0
 71
     5
 72
     1
  1
\A1;.66\P{\H0.8x; [17]
  7
ROMANS
1001
ACAD
1000
MTEXTBEGIN
1070
    73
1070
     1
1070
    44
1040
1.0
1070
    74
1070
     0
1000
MTEXTEND
  0
POINT
  5
2CFD
330
26FC
100
AcDbEntity
  8
DEFPOINTS
 62
     0
100
AcDbPoint
 10
18.56171089252534
 20
10.31103974849106
 30
0.0
  0
POINT
  5
2CFE
330
26FC
100
AcDbEntity
  8
DEFPOINTS
 62
     0
100
AcDbPoint
 10
19.22421089252535
 20
11.00123176646516
 30
0.0
  0
POINT
  5
2CFF
330
26FC
100
AcDbEntity
  8
DEFPOINTS
 62
     0
100
AcDbPoint
 10
19.22421089252535
 20
9.843811523808653
 30
0.0
  0
ENDBLK
  5
2708
330
26FC
100
AcDbEntity
  8
0
100
AcDbBlockEnd
  0
BLOCK
  5
2714
330
2709
100
AcDbEntity
  8
0
100
AcDbBlockBegin
  2
*D9
 70
     1
 10
0.0
 20
0.0
 30
0.0
  3
*D9
  1

  0
LINE
  5
2CBA
330
2709
100
AcDbEntity
  8
DIM
100
AcDbLine
 10
10.80202849093231
 20
10.29728974849107
 30
0.0
 11
10.80202849093231
 21
9.718811523808653
 31
0.0
  0
LINE
  5
2CBB
330
2709
100
AcDbEntity
  8
DIM
100
AcDbLine
 10
13.14452849093231
 20
10.29728974849107
 30
0.0
 11
13.14452849093231
 21
9.718811523808653
 31
0.0
  0
LINE
  5
2CBC
330
2709
100
AcDbEntity
  8
DIM
100
AcDbLine
 10
10.94202849093231
 20
9.843811523808653
 30
0.0
 11
11.5837546814085
 21
9.843811523808653
 31
0.0
  0
LINE
  5
2CBD
330
2709
100
AcDbEntity
  8
DIM
100
AcDbLine
 10
13.00452849093231
 20
9.843811523808653
 30
0.0
 11
12.36280230045612
 21
9.843811523808653
 31
0.0
  0
INSERT
  5
2CBE
330
2709
100
AcDbEntity
  8
DIM
100
AcDbBlockReference
  2
SEARROW
 10
10.80202849093231
 20
9.843811523808653
 30
0.0
 41
0.14
 42
0.14
 43
0.14
 50
180.0
  0
INSERT
  5
2CBF
330
2709
100
AcDbEntity
  8
DIM
100
AcDbBlockReference
  2
SEARROW
 10
13.14452849093231
 20
9.843811523808653
 30
0.0
 41
0.14
 42
0.14
 43
0.14
  0
MTEXT
  5
2CC0
330
2709
100
AcDbEntity
  8
DIM
100
AcDbMText
 10
11.97327849093231
 20
9.843811523808653
 30
0.0
 40
0.2
 41
0.0
 71
     5
 72
     1
  1
\A1;2.34\P{\H0.8x; [60]
  7
ROMANS
1001
ACAD
1000
MTEXTBEGIN
1070
    73
1070
     1
1070
    44
1040
1.0
1070
    74
1070
     0
1000
MTEXTEND
  0
POINT
  5
2CC1
330
2709
100
AcDbEntity
  8
DEFPOINTS
 62
     0
100
AcDbPoint
 10
10.80202849093231
 20
10.42228974849107
 30
0.0
  0
POINT
  5
2CC2
330
2709
100
AcDbEntity
  8
DEFPOINTS
 62
     0
100
AcDbPoint
 10
13.14452849093231
 20
10.42228974849107
 30
0.0
  0
POINT
  5
2CC3
330
2709
100
AcDbEntity
  8
DEFPOINTS
 62
     0
100
AcDbPoint
 10
13.14452849093231
 20
9.843811523808653
 30
0.0
  0
ENDBLK
  5
2715
330
2709
100
AcDbEntity
  8
0
100
AcDbBlockEnd
  0
BLOCK
  5
2721
330
2716
100
AcDbEntity
  8
0
100
AcDbBlockBegin
  2
*D10
 70
     1
 10
0.0
 20
0.0
 30
0.0
  3
*D10
  1

  0
LINE
  5
2CC4
330
2716
100
AcDbEntity
  8
DIM
100
AcDbLine
 10
10.75702849093231
 20
10.34228974849107
 30
0.0
 11
10.0561033550383
 21
10.34228974849107
 31
0.0
  0
LINE
  5
2CC5
330
2716
100
AcDbEntity
  8
DIM
100
AcDbLine
 10
10.75702849093231
 20
12.06478974849107
 30
0.0
 11
10.0561033550383
 21
12.06478974849107
 31
0.0
  0
LINE
  5
2CC6
330
2716
100
AcDbEntity
  8
DIM
100
AcDbLine
 10
10.1811033550383
 20
10.48228974849107
 30
0.0
 11
10.1811033550383
 21
10.91020641515774
 31
0.0
  0
LINE
  5
2CC7
330
2716
100
AcDbEntity
  8
DIM
100
AcDbLine
 10
10.1811033550383
 20
11.92478974849107
 30
0.0
 11
10.1811033550383
 21
11.65687308182441
 31
0.0
  0
INSERT
  5
2CC8
330
2716
100
AcDbEntity
  8
DIM
100
AcDbBlockReference
  2
SEARROW
 10
10.1811033550383
 20
10.34228974849107
 30
0.0
 41
0.14
 42
0.14
 43
0.14
 50
270.0
  0
INSERT
  5
2CC9
330
2716
100
AcDbEntity
  8
DIM
100
AcDbBlockReference
  2
SEARROW
 10
10.1811033550383
 20
12.06478974849107
 30
0.0
 41
0.14
 42
0.14
 43
0.14
 50
90.0
  0
MTEXT
  5
2CCA
330
2716
100
AcDbEntity
  8
DIM
100
AcDbMText
 10
10.1811033550383
 20
11.28353974849107
 30
0.0
 40
0.2
 41
0.0
 71
     5
 72
     1
  1
\A1;1.72\P{\H0.8x; [44]
  7
ROMANS
1001
ACAD
1000
MTEXTBEGIN
1070
    73
1070
     1
1070
    44
1040
1.0
1070
    74
1070
     0
1000
MTEXTEND
  0
POINT
  5
2CCB
330
2716
100
AcDbEntity
  8
DEFPOINTS
 62
     0
100
AcDbPoint
 10
10.88202849093231
 20
10.34228974849107
 30
0.0
  0
POINT
  5
2CCC
330
2716
100
AcDbEntity
  8
DEFPOINTS
 62
     0
100
AcDbPoint
 10
10.88202849093231
 20
12.06478974849107
 30
0.0
  0
POINT
  5
2CCD
330
2716
100
AcDbEntity
  8
DEFPOINTS
 62
     0
100
AcDbPoint
 10
10.1811033550383
 20
12.06478974849107
 30
0.0
  0
ENDBLK
  5
2722
330
2716
100
AcDbEntity
  8
0
100
AcDbBlockEnd
  0
BLOCK
  5
2810
330
27FD
100
AcDbEntity
  8
0
100
AcDbBlockBegin
  2
ATTRIBUTES_FIXED
 70
     2
 10
0.0
 20
0.0
 30
0.0
  3
ATTRIBUTES_FIXED
  1

  0
ATTDEF
  5
27FE
330
27FD
100
AcDbEntity
  8
TEXT1
100
AcDbText
 10
1.28
 20
1.239999999999999
 30
0.0
 40
0.08
  1

  7
ROMANS
100
AcDbAttributeDefinition
  3
Catalog Number?
  2
CATALOG
 70
     0
  0
ATTDEF
  5
27FF
330
27FD
100
AcDbEntity
  8
TEXT1
100
AcDbText
 10
1.28
 20
1.101079875256662
 30
0.0
 40
0.08
  1

  7
ROMANS
100
AcDbAttributeDefinition
  3
Ratings?
  2
RATING
 70
     0
  0
ATTDEF
  5
2800
330
27FD
100
AcDbEntity
  8
TEXT1
100
AcDbText
 10
1.287029312854811
 20
0.9599999999999999
 30
0.0
 40
0.08
  1

  7
ROMANS
100
AcDbAttributeDefinition
  3
UL File/Guide?
  2
UL
 70
     0
  0
ATTDEF
  5
2801
330
27FD
100
AcDbEntity
  8
TEXT1
100
AcDbText
 10
1.28
 20
0.8281064926856728
 30
0.0
 40
0.08
  1

  7
ROMANS
100
AcDbAttributeDefinition
  3
CSA File/Guide
  2
CSA
 70
     0
  0
ATTDEF
  5
2802
330
27FD
100
AcDbEntity
  8
TEXT1
100
AcDbText
 10
1.28
 20
0.6800000000000001
 30
0.0
 40
0.08
  1

  7
ROMANS
100
AcDbAttributeDefinition
  3
Meets Standards
  2
STANDARDS
 70
     0
  0
ATTDEF
  5
2803
330
27FD
100
AcDbEntity
  8
TEXT1
100
AcDbText
 10
1.28
 20
0.5481065041704892
 30
0.0
 40
0.08
  1

  7
ROMANS
100
AcDbAttributeDefinition
  3
Weight?
  2
WEIGHT
 70
     0
  0
ATTDEF
  5
2804
330
27FD
100
AcDbEntity
  8
TEXT1
100
AcDbText
 10
1.28
 20
0.4210798752566629
 30
0.0
 40
0.08
  1

  7
ROMANS
100
AcDbAttributeDefinition
  3
Wire Size?
  2
WIRE_SIZE
 70
     0
  0
TEXT
  5
2805
330
27FD
100
AcDbEntity
  8
TEXT1
100
AcDbText
 10
0.12
 20
0.1428571428571429
 30
0.0
 40
0.08
  1
Mounting Hwd.:
  7
ROMANS
100
AcDbText
  0
TEXT
  5
2806
330
27FD
100
AcDbEntity
  8
TEXT1
100
AcDbText
 10
0.12
 20
0.28
 30
0.0
 40
0.08
  1
Terminal torque:
  7
ROMANS
100
AcDbText
  0
TEXT
  5
2807
330
27FD
100
AcDbEntity
  8
TEXT1
100
AcDbText
 10
0.12
 20
0.4171428571428573
 30
0.0
 40
0.08
  1
Wire Size:
  7
ROMANS
100
AcDbText
  0
TEXT
  5
2808
330
27FD
100
AcDbEntity
  8
TEXT1
100
AcDbText
 10
0.12
 20
0.5542857142857145
 30
0.0
 40
0.08
  1
Weight:
  7
ROMANS
100
AcDbText
  0
TEXT
  5
2809
330
27FD
100
AcDbEntity
  8
TEXT1
100
AcDbText
 10
0.12
 20
0.6914285714285714
 30
0.0
 40
0.08
  1
Meets Standards:
  7
ROMANS
100
AcDbText
  0
TEXT
  5
280A
330
27FD
100
AcDbEntity
  8
TEXT1
100
AcDbText
 10
0.12
 20
0.8285714285714282
 30
0.0
 40
0.08
  1
CSA File/Class:
  7
ROMANS
100
AcDbText
  0
TEXT
  5
280B
330
27FD
100
AcDbEntity
  8
TEXT1
100
AcDbText
 10
0.12
 20
0.9657142857142858
 30
0.0
 40
0.08
  1
UL File/CCN:
  7
ROMANS
100
AcDbText
  0
TEXT
  5
280C
330
27FD
100
AcDbEntity
  8
TEXT1
100
AcDbText
 10
0.12
 20
1.102857142857143
 30
0.0
 40
0.08
  1
Ratings:
  7
ROMANS
100
AcDbText
  0
TEXT
  5
280D
330
27FD
100
AcDbEntity
  8
TEXT1
100
AcDbText
 10
0.12
 20
1.239999999999999
 30
0.0
 40
0.08
  1
Catalog Number:
  7
ROMANS
100
AcDbText
  0
ATTDEF
  5
280E
330
27FD
100
AcDbEntity
  8
TEXT1
100
AcDbText
 10
1.28
 20
0.2870266174290101
 30
0.0
 40
0.08
  1

  7
ROMANS
100
AcDbAttributeDefinition
  3
Terminal Torque
  2
TERM_TORQUE
 70
     0
  0
ATTDEF
  5
280F
330
27FD
100
AcDbEntity
  8
TEXT1
100
AcDbText
 10
1.28
 20
0.1410798752566626
 30
0.0
 40
0.08
  1

  7
ROMANS
100
AcDbAttributeDefinition
  3
Mounting Hardware?
  2
MOUNTING_HWD
 70
     0
  0
ENDBLK
  5
2811
330
27FD
100
AcDbEntity
  8
0
100
AcDbBlockEnd
  0
ENDSEC
  0
SECTION
  2
ENTITIES
  0
LWPOLYLINE
  5
52F
330
1F
100
AcDbEntity
  8
VIEWPORT
100
AcDbPolyline
 90
        6
 70
     1
 43
0.0
 10
0.0
 20
0.0
 10
16.005
 20
0.0
 10
16.005
 20
1.824
 10
32.79999999999999
 20
1.824
 10
32.79999999999999
 20
20.1908
 10
0.0
 20
20.1908
  0
VIEWPORT
  5
530
330
1F
100
AcDbEntity
  8
VIEWPORT
100
AcDbViewport
 10
16.39999999999999
 20
10.0954
 30
0.0
 40
32.79999999999999
 41
20.1908
 69
     0
1001
ACAD
1000
MVIEW
1002
{
1070
    16
1010
0.0
1020
0.0
1030
0.0
1010
0.0
1020
0.0
1030
1.0
1040
0.0
1040
10.0954
1040
8.199999999999999
1040
5.047699999999999
1040
50.0
1040
0.0
1040
0.0
1070
     0
1070
   100
1070
     1
1070
     0
1070
     0
1070
     0
1070
     0
1070
     0
1040
0.0
1040
0.0
1040
0.0
1040
0.0
1040
0.0
1040
0.0
1040
0.0
1070
     0
1002
{
1002
}
1002
}
  0
INSERT
  5
1D0F
330
1F
100
AcDbEntity
  8
TEXT1
100
AcDbBlockReference
  2
DUALDIM
 10
32.57099999999999
 20
2.067999999999999
 30
0.0
 41
2.0
 42
2.0
 43
2.0
  0
DIMENSION
  5
243D
330
1F
100
AcDbEntity
  8
DIM
100
AcDbDimension
  2
*D9
 10
13.14452849093231
 20
9.843811523808653
 30
0.0
 11
11.97327849093231
 21
9.843811523808653
 31
0.0
 70
    32
  3
SCHNEIDERELECTRIC_DUAL_BEL
100
AcDbAlignedDimension
 13
10.80202849093231
 23
10.42228974849107
 33
0.0
 14
13.14452849093231
 24
10.42228974849107
 34
0.0
100
AcDbRotatedDimension
1001
ACAD
1000
DSTYLE
1002
{
1070
    40
1040
2.0
1002
}
  0
DIMENSION
  5
243E
330
1F
100
AcDbEntity
  8
DIM
100
AcDbDimension
  2
*D10
 10
10.1811033550383
 20
12.06478974849107
 30
0.0
 11
10.1811033550383
 21
11.28353974849107
 31
0.0
 70
   160
  3
SCHNEIDERELECTRIC_DUAL_BEL
100
AcDbAlignedDimension
 13
10.88202849093231
 23
10.34228974849107
 33
0.0
 14
10.88202849093231
 24
12.06478974849107
 34
0.0
 50
90.0
100
AcDbRotatedDimension
1001
ACAD
1000
DSTYLE
1002
{
1070
    40
1040
2.0
1002
}
  0
DIMENSION
  5
2456
330
1F
100
AcDbEntity
  8
DIM
100
AcDbDimension
  2
*D4
 10
13.16077849093231
 20
8.984727103481038
 30
0.0
 11
11.9732784909323
 21
8.984727103481038
 31
0.0
 70
   160
  3
SCHNEIDERELECTRIC_DUAL_BEL
100
AcDbAlignedDimension
 13
10.7857784909323
 23
10.39103974849107
 33
0.0
 14
13.16077849093231
 24
10.39103974849107
 34
0.0
100
AcDbRotatedDimension
1001
ACAD
1000
DSTYLE
1002
{
1070
    40
1040
2.0
1002
}
  0
DIMENSION
  5
2457
330
1F
100
AcDbEntity
  8
DIM
100
AcDbDimension
  2
*D5
 10
9.384908039238183
 20
12.09603974849107
 30
0.0
 11
9.38490803923818
 21
11.08175597373307
 31
0.0
 70
   160
  3
SCHNEIDERELECTRIC_DUAL_BEL
100
AcDbAlignedDimension
 13
10.85077849093231
 23
10.31103974849107
 33
0.0
 14
10.85077849093231
 24
12.09603974849107
 34
0.0
 50
90.0
100
AcDbRotatedDimension
1001
ACAD
1000
DSTYLE
1002
{
1070
    40
1040
2.0
1002
}
  0
DIMENSION
  5
2485
330
1F
100
AcDbEntity
  8
DIM
100
AcDbDimension
  2
*D6
 10
18.56171089252534
 20
9.843811523808653
 30
0.0
 11
17.18796089252534
 21
9.843811523808653
 31
0.0
 70
    32
  3
SCHNEIDERELECTRIC_DUAL_BEL
100
AcDbAlignedDimension
 13
15.81421089252534
 23
10.42228974849106
 33
0.0
 14
18.56171089252534
 24
10.31103974849106
 34
0.0
100
AcDbRotatedDimension
1001
ACAD
1000
DSTYLE
1002
{
1070
    40
1040
2.0
1002
}
  0
DIMENSION
  5
2486
330
1F
100
AcDbEntity
  8
DIM
100
AcDbDimension
  2
*D7
 10
19.22421089252535
 20
8.957195083700728
 30
0.0
 11
17.19921089252534
 21
8.957195083700728
 31
0.0
 70
   160
  3
SCHNEIDERELECTRIC_DUAL_BEL
100
AcDbAlignedDimension
 13
15.17421089252534
 23
10.98353974849106
 33
0.0
 14
19.22421089252535
 24
11.00123176646516
 34
0.0
100
AcDbRotatedDimension
1001
ACAD
1000
DSTYLE
1002
{
1070
    40
1040
2.0
1002
}
  0
TEXT
  5
2487
330
1F
100
AcDbEntity
  8
TEXT2
100
AcDbText
 10
10.75613563378945
 20
2.878539748491074
 30
0.0
 40
0.24
  1
BOTTOM VIEW
  7
ROMANS
 72
     4
 11
11.97327849093231
 21
2.998539748491074
 31
0.0
100
AcDbText
  0
TEXT
  5
2488
330
1F
100
AcDbEntity
  8
TEXT2
100
AcDbText
 10
11.12756420521802
 20
13.37853974849107
 30
0.0
 40
0.24
  1
TOP VIEW
  7
ROMANS
 72
     4
 11
11.9732784909323
 21
13.49853974849107
 31
0.0
100
AcDbText
  0
TEXT
  5
2489
330
1F
100
AcDbEntity
  8
TEXT2
100
AcDbText
 10
16.17063946395391
 20
8.210816775357065
 30
0.0
 40
0.24
  1
RIGHT VIEW
  7
ROMANS
 72
     4
 11
17.19921089252534
 21
8.330816775357064
 31
0.0
100
AcDbText
  0
TEXT
  5
248A
330
1F
100
AcDbEntity
  8
TEXT2
100
AcDbText
 10
10.88184991950374
 20
8.210816775357065
 30
0.0
 40
0.24
  1
FRONT VIEW
  7
ROMANS
 72
     4
 11
11.97327849093231
 21
8.330816775357064
 31
0.0
100
AcDbText
  0
TEXT
  5
2493
330
1F
100
AcDbEntity
  8
TEXT2
100
AcDbText
 10
5.672207062360873
 20
9.444718195465918
 30
0.0
 40
0.24
  1
BACK VIEW
  7
ROMANS
 72
     4
 11
6.660778490932301
 21
9.564718195465918
 31
0.0
100
AcDbText
  0
TEXT
  5
2498
330
1F
100
AcDbEntity
  8
TEXT1
100
AcDbText
 10
27.03523809539955
 20
18.94058754959036
 30
0.0
 40
0.16
  1
KNOB ADJUSTABLE
  7
ROMANS
 72
     1
 11
28.16666666682812
 21
18.94058754959036
 31
0.0
100
AcDbText
  0
TEXT
  5
249A
330
1F
100
AcDbEntity
  8
TEXT1
100
AcDbText
 10
27.41619047635297
 20
16.70058754967786
 30
0.0
 40
0.16
  1
0.1-10 MIN
  7
ROMANS
 72
     1
 11
28.14000000016249
 21
16.70058754967786
 31
0.0
100
AcDbText
  0
TEXT
  5
249B
330
1F
100
AcDbEntity
  8
TEXT1
100
AcDbText
 10
27.30190476206725
 20
17.34058754965287
 30
0.0
 40
0.16
  1
1.2-120 SEC
  7
ROMANS
 72
     1
 11
28.14000000016249
 21
17.34058754965287
 31
0.0
100
AcDbText
  0
TEXT
  5
249D
330
1F
100
AcDbEntity
  8
TEXT1
100
AcDbText
 10
29.96095238103779
 20
16.70058754967786
 30
0.0
 40
0.16
  1
26
  7
ROMANS
 72
     1
 11
30.11333333341874
 21
16.70058754967786
 31
0.0
100
AcDbText
  0
TEXT
  5
249E
330
1F
100
AcDbEntity
  8
TEXT1
100
AcDbText
 10
29.95714285722826
 20
17.34058754965287
 30
0.0
 40
0.16
  1
24
  7
ROMANS
 72
     1
 11
30.11333333341874
 21
17.34058754965287
 31
0.0
100
AcDbText
  0
TEXT
  5
24A0
330
1F
100
AcDbEntity
  8
TEXT1
100
AcDbText
 10
28.32199938352781
 20
19.31392088290912
 30
0.0
 40
0.16
  1
VARIABLE TIME DELAY
  7
ROMANS
100
AcDbText
  0
TEXT
  5
24A3
330
1F
100
AcDbEntity
  8
TEXT1
100
AcDbText
 10
27.3895238096863
 20
18.30058754961537
 30
0.0
 40
0.16
  1
0.1-10 SEC
  7
ROMANS
 72
     1
 11
28.14000000016249
 21
18.30058754961537
 31
0.0
100
AcDbText
  0
TEXT
  5
24A4
330
1F
100
AcDbEntity
  8
TEXT1
100
AcDbText
 10
27.3895238096863
 20
17.98058754962787
 30
0.0
 40
0.16
  1
0.3-30 SEC
  7
ROMANS
 72
     1
 11
28.14000000016249
 21
17.98058754962787
 31
0.0
100
AcDbText
  0
TEXT
  5
24A5
330
1F
100
AcDbEntity
  8
TEXT1
100
AcDbText
 10
29.96095238103779
 20
17.98058754962787
 30
0.0
 40
0.16
  1
22
  7
ROMANS
 72
     1
 11
30.11333333341874
 21
17.98058754962787
 31
0.0
100
AcDbText
  0
TEXT
  5
24A6
330
1F
100
AcDbEntity
  8
TEXT1
100
AcDbText
 10
29.98380952389493
 20
18.30058754961537
 30
0.0
 40
0.16
  1
21
  7
ROMANS
 72
     1
 11
30.11333333341874
 21
18.30058754961537
 31
0.0
100
AcDbText
  0
TEXT
  5
24A8
330
1F
100
AcDbEntity
  8
TEXT1
100
AcDbText
 10
27.3895238096863
 20
17.66058754964037
 30
0.0
 40
0.16
  1
0.6-60 SEC
  7
ROMANS
 72
     1
 11
28.14000000016249
 21
17.66058754964037
 31
0.0
100
AcDbText
  0
TEXT
  5
24A9
330
1F
100
AcDbEntity
  8
TEXT1
100
AcDbText
 10
29.96095238103779
 20
17.66058754964037
 30
0.0
 40
0.16
  1
23
  7
ROMANS
 72
     1
 11
30.11333333341874
 21
17.66058754964037
 31
0.0
100
AcDbText
  0
TEXT
  5
24AA
330
1F
100
AcDbEntity
  8
TEXT1
100
AcDbText
 10
26.60112735750145
 20
12.83708452837041
 30
0.0
 40
0.16
  1
CONTACT ARRANGEMENT: DPDT (2NO & 2NC)
  7
ROMANS
100
AcDbText
  0
TEXT
  5
24AB
330
1F
100
AcDbEntity
  8
TEXT1
100
AcDbText
 10
26.58588926226395
 20
12.51708452838291
 30
0.0
 40
0.16
  1
CONTINUOUS CURRENT RATING: 10A
  7
ROMANS
100
AcDbText
  0
CIRCLE
  5
24B0
330
1F
100
AcDbEntity
  8
CONTINUOUS1
100
AcDbCircle
 10
11.97327849093231
 20
11.20353974849107
 30
0.0
 40
0.45
  0
CIRCLE
  5
24B2
330
1F
100
AcDbEntity
  8
CONTINUOUS1
100
AcDbCircle
 10
11.97327849093231
 20
11.20353974849107
 30
0.0
 40
0.22
  0
CIRCLE
  5
24B3
330
1F
100
AcDbEntity
  8
CONTINUOUS1
100
AcDbCircle
 10
11.97327849093231
 20
11.20353974849107
 30
0.0
 40
0.19
  0
DIMENSION
  5
2565
330
1F
100
AcDbEntity
  8
DIM
100
AcDbDimension
  2
*D8
 10
19.22421089252535
 20
9.843811523808653
 30
0.0
 11
19.74897279728725
 21
9.843811523808653
 31
0.0
 70
    32
  3
SCHNEIDERELECTRIC_DUAL_BEL
100
AcDbAlignedDimension
 13
18.56171089252534
 23
10.31103974849106
 33
0.0
 14
19.22421089252535
 24
11.00123176646516
 34
0.0
100
AcDbRotatedDimension
1001
ACAD
1000
DSTYLE
1002
{
1070
    40
1040
2.0
1002
}
  0
CIRCLE
  5
256C
330
1F
100
AcDbEntity
  8
CONTINUOUS1
100
AcDbCircle
 10
6.660778490932308
 20
11.20353974849108
 30
0.0
 40
0.625
  0
CIRCLE
  5
256D
330
1F
100
AcDbEntity
  8
CONTINUOUS1
100
AcDbCircle
 10
5.603278490932311
 20
11.96603974849108
 30
0.0
 40
0.0583227669042357
  0
CIRCLE
  5
2572
330
1F
100
AcDbEntity
  8
CONTINUOUS1
100
AcDbCircle
 10
7.718278490932306
 20
11.96603974849108
 30
0.0
 40
0.0583227669042357
  0
CIRCLE
  5
2575
330
1F
100
AcDbEntity
  8
CONTINUOUS1
100
AcDbCircle
 10
5.603278490932311
 20
10.44103974849108
 30
0.0
 40
0.0583227669042357
  0
CIRCLE
  5
2576
330
1F
100
AcDbEntity
  8
CONTINUOUS1
100
AcDbCircle
 10
7.718278490932306
 20
10.44103974849108
 30
0.0
 40
0.0583227669042357
  0
TEXT
  5
2593
330
1F
100
AcDbEntity
  8
TEXT1
100
AcDbText
 10
29.23333333343958
 20
14.54375119497041
 30
0.0
 40
0.16
  1
VOLTS
  7
ROMANS
 72
     1
 11
29.58000000010624
 21
14.54375119497041
 31
0.0
100
AcDbText
  0
TEXT
  5
2594
330
1F
100
AcDbEntity
  8
TEXT1
100
AcDbText
 10
29.3779885214197
 20
14.94375119495478
 30
0.0
 40
0.16
  1
VOLTAGE CODES
  7
ROMANS
100
AcDbText
  0
TEXT
  5
2595
330
1F
100
AcDbEntity
  8
TEXT1
100
AcDbText
 10
28.88666666677291
 20
13.90375119499541
 30
0.0
 40
0.16
  1
24 VAC/DC
  7
ROMANS
 72
     1
 11
29.58000000010624
 21
13.90375119499541
 31
0.0
100
AcDbText
  0
TEXT
  5
2597
330
1F
100
AcDbEntity
  8
TEXT1
100
AcDbText
 10
28.421904762011
 20
13.26375119502041
 30
0.0
 40
0.16
  1
120 VAC/110 VDC
  7
ROMANS
 72
     1
 11
29.58000000010624
 21
13.26375119502041
 31
0.0
100
AcDbText
  0
TEXT
  5
2598
330
1F
100
AcDbEntity
  8
TEXT1
100
AcDbText
 10
28.88666666677291
 20
13.58375119500791
 30
0.0
 40
0.16
  1
48 VAC/DC
  7
ROMANS
 72
     1
 11
29.58000000010624
 21
13.58375119500791
 31
0.0
100
AcDbText
  0
TEXT
  5
2599
330
1F
100
AcDbEntity
  8
TEXT1
100
AcDbText
 10
28.87523809534433
 20
14.22375119498291
 30
0.0
 40
0.16
  1
12 VAC/DC
  7
ROMANS
 72
     1
 11
29.58000000010624
 21
14.22375119498291
 31
0.0
100
AcDbText
  0
TEXT
  5
259A
330
1F
100
AcDbEntity
  8
TEXT1
100
AcDbText
 10
31.28285714288838
 20
13.90375119499541
 30
0.0
 40
0.16
  1
V14
  7
ROMANS
 72
     1
 11
31.50000000003124
 21
13.90375119499541
 31
0.0
100
AcDbText
  0
TEXT
  5
259C
330
1F
100
AcDbEntity
  8
TEXT1
100
AcDbText
 10
31.2866666666979
 20
13.26375119502041
 30
0.0
 40
0.16
  1
V20
  7
ROMANS
 72
     1
 11
31.50000000003124
 21
13.26375119502041
 31
0.0
100
AcDbText
  0
TEXT
  5
259D
330
1F
100
AcDbEntity
  8
TEXT1
100
AcDbText
 10
31.2866666666979
 20
13.58375119500791
 30
0.0
 40
0.16
  1
V17
  7
ROMANS
 72
     1
 11
31.50000000003124
 21
13.58375119500791
 31
0.0
100
AcDbText
  0
TEXT
  5
259E
330
1F
100
AcDbEntity
  8
TEXT1
100
AcDbText
 10
30.92476190479314
 20
14.54375119497041
 30
0.0
 40
0.16
  1
CODE (2)
  7
ROMANS
 72
     1
 11
31.50000000003124
 21
14.54375119497041
 31
0.0
100
AcDbText
  0
TEXT
  5
259F
330
1F
100
AcDbEntity
  8
TEXT1
100
AcDbText
 10
31.2866666666979
 20
14.22375119498291
 30
0.0
 40
0.16
  1
V36
  7
ROMANS
 72
     1
 11
31.50000000003124
 21
14.22375119498291
 31
0.0
100
AcDbText
  0
TEXT
  5
25A1
330
1F
100
AcDbEntity
  8
TEXT1
100
AcDbText
 10
27.32857142873288
 20
18.67392088293412
 30
0.0
 40
0.16
  1
TIMING RANGE
  7
ROMANS
 72
     1
 11
28.16666666682812
 21
18.67392088293412
 31
0.0
100
AcDbText
  0
TEXT
  5
25A3
330
1F
100
AcDbEntity
  8
TEXT1
100
AcDbText
 10
29.4504761905616
 20
18.62058754960287
 30
0.0
 40
0.16
  1
OFF DELAY
  7
ROMANS
 72
     1
 11
30.11333333341874
 21
18.62058754960287
 31
0.0
100
AcDbText
  0
TEXT
  5
25A4
330
1F
100
AcDbEntity
  8
TEXT1
100
AcDbText
 10
30.33809523814939
 20
18.94058754959036
 30
0.0
 40
0.16
  1
CODE (1)
  7
ROMANS
 72
     1
 11
30.91333333338749
 21
18.94058754959036
 31
0.0
100
AcDbText
  0
TEXT
  5
25A5
330
1F
100
AcDbEntity
  8
TEXT1
100
AcDbText
 10
31.48095238097841
 20
16.70058754967786
 30
0.0
 40
0.16
  1
46
  7
ROMANS
 72
     1
 11
31.63333333335936
 21
16.70058754967786
 31
0.0
100
AcDbText
  0
TEXT
  5
25A6
330
1F
100
AcDbEntity
  8
TEXT1
100
AcDbText
 10
31.50380952383555
 20
18.30058754961537
 30
0.0
 40
0.16
  1
41
  7
ROMANS
 72
     1
 11
31.63333333335936
 21
18.30058754961537
 31
0.0
100
AcDbText
  0
TEXT
  5
25A7
330
1F
100
AcDbEntity
  8
TEXT1
100
AcDbText
 10
31.48095238097841
 20
17.66058754964037
 30
0.0
 40
0.16
  1
43
  7
ROMANS
 72
     1
 11
31.63333333335936
 21
17.66058754964037
 31
0.0
100
AcDbText
  0
TEXT
  5
25A8
330
1F
100
AcDbEntity
  8
TEXT1
100
AcDbText
 10
31.47714285716888
 20
17.34058754965287
 30
0.0
 40
0.16
  1
44
  7
ROMANS
 72
     1
 11
31.63333333335936
 21
17.34058754965287
 31
0.0
100
AcDbText
  0
TEXT
  5
25A9
330
1F
100
AcDbEntity
  8
TEXT1
100
AcDbText
 10
31.48095238097841
 20
17.98058754962787
 30
0.0
 40
0.16
  1
42
  7
ROMANS
 72
     1
 11
31.63333333335936
 21
17.98058754962787
 31
0.0
100
AcDbText
  0
TEXT
  5
25AA
330
1F
100
AcDbEntity
  8
TEXT1
100
AcDbText
 10
31.00095238097841
 20
18.62058754960287
 30
0.0
 40
0.16
  1
ONE SHOT
  7
ROMANS
 72
     1
 11
31.63333333335936
 21
18.62058754960287
 31
0.0
100
AcDbText
  0
TEXT
  5
25AC
330
1F
100
AcDbEntity
  8
TEXT1
100
AcDbText
 10
27.41619047635297
 20
16.38058754969036
 30
0.0
 40
0.16
  1
0.3-30 MIN
  7
ROMANS
 72
     1
 11
28.14000000016249
 21
16.38058754969036
 31
0.0
100
AcDbText
  0
TEXT
  5
25AD
330
1F
100
AcDbEntity
  8
TEXT1
100
AcDbText
 10
31.48095238097841
 20
16.38058754969036
 30
0.0
 40
0.16
  1
47
  7
ROMANS
 72
     1
 11
31.63333333335936
 21
16.38058754969036
 31
0.0
100
AcDbText
  0
TEXT
  5
25AE
330
1F
100
AcDbEntity
  8
TEXT1
100
AcDbText
 10
29.96095238103779
 20
16.38058754969036
 30
0.0
 40
0.16
  1
27
  7
ROMANS
 72
     1
 11
30.11333333341874
 21
16.38058754969036
 31
0.0
100
AcDbText
  0
TEXT
  5
25B0
330
1F
100
AcDbEntity
  8
TEXT1
100
AcDbText
 10
27.32857142873392
 20
15.74058754971536
 30
0.0
 40
0.16
  1
1.2-120 MIN
  7
ROMANS
 72
     1
 11
28.14000000016249
 21
15.74058754971536
 31
0.0
100
AcDbText
  0
TEXT
  5
25B1
330
1F
100
AcDbEntity
  8
TEXT1
100
AcDbText
 10
29.96476190484731
 20
15.74058754971536
 30
0.0
 40
0.16
  1
29
  7
ROMANS
 72
     1
 11
30.11333333341874
 21
15.74058754971536
 31
0.0
100
AcDbText
  0
TEXT
  5
25B2
330
1F
100
AcDbEntity
  8
TEXT1
100
AcDbText
 10
31.48476190478794
 20
15.74058754971536
 30
0.0
 40
0.16
  1
49
  7
ROMANS
 72
     1
 11
31.63333333335936
 21
15.74058754971536
 31
0.0
100
AcDbText
  0
TEXT
  5
25B3
330
1F
100
AcDbEntity
  8
TEXT1
100
AcDbText
 10
31.48095238097841
 20
16.06058754970287
 30
0.0
 40
0.16
  1
48
  7
ROMANS
 72
     1
 11
31.63333333335936
 21
16.06058754970287
 31
0.0
100
AcDbText
  0
TEXT
  5
25B4
330
1F
100
AcDbEntity
  8
TEXT1
100
AcDbText
 10
29.96095238103779
 20
16.06058754970287
 30
0.0
 40
0.16
  1
28
  7
ROMANS
 72
     1
 11
30.11333333341874
 21
16.06058754970287
 31
0.0
100
AcDbText
  0
TEXT
  5
25B5
330
1F
100
AcDbEntity
  8
TEXT1
100
AcDbText
 10
27.41619047635297
 20
16.06058754970287
 30
0.0
 40
0.16
  1
0.6-60 MIN
  7
ROMANS
 72
     1
 11
28.14000000016249
 21
16.06058754970287
 31
0.0
100
AcDbText
  0
TEXT
  5
25B8
330
1F
100
AcDbEntity
  8
TEXT1
100
AcDbText
 10
27.30190476206725
 20
17.02058754966536
 30
0.0
 40
0.16
  1
1.8-180 SEC
  7
ROMANS
 72
     1
 11
28.14000000016249
 21
17.02058754966536
 31
0.0
100
AcDbText
  0
TEXT
  5
25B9
330
1F
100
AcDbEntity
  8
TEXT1
100
AcDbText
 10
29.96095238103779
 20
17.02058754966536
 30
0.0
 40
0.16
  1
25
  7
ROMANS
 72
     1
 11
30.11333333341874
 21
17.02058754966536
 31
0.0
100
AcDbText
  0
TEXT
  5
25BA
330
1F
100
AcDbEntity
  8
TEXT1
100
AcDbText
 10
31.48095238097841
 20
17.02058754966536
 30
0.0
 40
0.16
  1
45
  7
ROMANS
 72
     1
 11
31.63333333335936
 21
17.02058754966536
 31
0.0
100
AcDbText
  0
TEXT
  5
25BC
330
1F
100
AcDbEntity
  8
TEXT1
100
AcDbText
 10
26.60112735750145
 20
11.95708452840478
 30
0.0
 40
0.16
  1
NOTE: A RETAINING STRAP DESIGNED TO HOLD
  7
ROMANS
100
AcDbText
  0
TEXT
  5
25BD
330
1F
100
AcDbEntity
  8
TEXT1
100
AcDbText
 10
26.60112735750145
 20
11.69041786174853
 30
0.0
 40
0.16
  1
TIMER IN SOCKET DURING HEAVY VIBRATION
  7
ROMANS
100
AcDbText
  0
TEXT
  5
25BE
330
1F
100
AcDbEntity
  8
TEXT1
100
AcDbText
 10
26.60112735750145
 20
11.42375119509228
 30
0.0
 40
0.16
  1
IS AVAILABLE WITH PN#8501-NH7.
  7
ROMANS
100
AcDbText
  0
TEXT
  5
25C4
330
1F
100
AcDbEntity
  8
TEXT1
100
AcDbText
 10
26.31142857164315
 20
8.374781175715606
 30
0.0
 40
0.16
  1
TINUOUS
  7
ROMANS
 72
     1
 11
26.80666666688125
 21
8.374781175715606
 31
0.0
100
AcDbText
  0
TEXT
  5
25C5
330
1F
100
AcDbEntity
  8
TEXT1
100
AcDbText
 10
23.46571428601428
 20
9.494781175671857
 30
0.0
 40
0.16
  1
INDUCTIVE 35% PF
  7
ROMANS
 72
     1
 11
24.62000000029999
 21
9.494781175671857
 31
0.0
100
AcDbText
  0
TEXT
  5
25C8
330
1F
100
AcDbEntity
  8
TEXT1
100
AcDbText
 10
22.04476190515357
 20
7.548114509081232
 30
0.0
 40
0.16
  1
240
  7
ROMANS
 72
     1
 11
22.273333333725
 21
7.548114509081232
 31
0.0
100
AcDbText
  0
TEXT
  5
25C9
330
1F
100
AcDbEntity
  8
TEXT1
100
AcDbText
 10
22.033333333725
 20
7.868114509068732
 30
0.0
 40
0.16
  1
120
  7
ROMANS
 72
     1
 11
22.273333333725
 21
7.868114509068732
 31
0.0
100
AcDbText
  0
TEXT
  5
25CA
330
1F
100
AcDbEntity
  8
TEXT1
100
AcDbText
 10
21.6980952384869
 20
9.494781175671857
 30
0.0
 40
0.16
  1
AC VOLTS
  7
ROMANS
 72
     1
 11
22.273333333725
 21
9.494781175671857
 31
0.0
100
AcDbText
  0
TEXT
  5
25CB
330
1F
100
AcDbEntity
  8
TEXT1
100
AcDbText
 10
23.29428571463155
 20
7.868114509068732
 30
0.0
 40
0.16
  1
30
  7
ROMANS
 72
     1
 11
23.4466666670125
 21
7.868114509068732
 31
0.0
100
AcDbText
  0
TEXT
  5
25CC
330
1F
100
AcDbEntity
  8
TEXT1
100
AcDbText
 10
23.28285714320297
 20
7.548114509081232
 30
0.0
 40
0.16
  1
15
  7
ROMANS
 72
     1
 11
23.4466666670125
 21
7.548114509081232
 31
0.0
100
AcDbText
  0
TEXT
  5
25CD
330
1F
100
AcDbEntity
  8
TEXT1
100
AcDbText
 10
23.1266666670125
 20
8.321447842384356
 30
0.0
 40
0.16
  1
MAKE
  7
ROMANS
 72
     1
 11
23.4466666670125
 21
8.321447842384356
 31
0.0
100
AcDbText
  0
TEXT
  5
25CE
330
1F
100
AcDbEntity
  8
TEXT1
100
AcDbText
 10
24.56285714313839
 20
10.7214478422906
 30
0.0
 40
0.16
  1
AC AMPS
  7
ROMANS
 72
     1
 11
25.10000000028124
 21
10.7214478422906
 31
0.0
100
AcDbText
  0
TEXT
  5
25D0
330
1F
100
AcDbEntity
  8
TEXT1
100
AcDbText
 10
26.54000000021458
 20
10.24144784230935
 30
0.0
 40
0.16
  1
RES.
  7
ROMANS
 72
     1
 11
26.80666666688125
 21
10.24144784230935
 31
0.0
100
AcDbText
  0
TEXT
  5
25D2
330
1F
100
AcDbEntity
  8
TEXT1
100
AcDbText
 10
24.30380952411889
 20
7.868114509068732
 30
0.0
 40
0.16
  1
3
  7
ROMANS
 72
     1
 11
24.38000000030937
 21
7.868114509068732
 31
0.0
100
AcDbText
  0
TEXT
  5
25D3
330
1F
100
AcDbEntity
  8
TEXT1
100
AcDbText
 10
24.17809523840461
 20
7.548114509081232
 30
0.0
 40
0.16
  1
1.5
  7
ROMANS
 72
     1
 11
24.38000000030937
 21
7.548114509081232
 31
0.0
100
AcDbText
  0
TEXT
  5
25D4
330
1F
100
AcDbEntity
  8
TEXT1
100
AcDbText
 10
23.99523809554746
 20
8.321447842384356
 30
0.0
 40
0.16
  1
BREAK
  7
ROMANS
 72
     1
 11
24.38000000030937
 21
8.321447842384356
 31
0.0
100
AcDbText
  0
TEXT
  5
25D5
330
1F
100
AcDbEntity
  8
TEXT1
100
AcDbText
 10
26.4638095240241
 20
8.641447842371857
 30
0.0
 40
0.16
  1
CON-
  7
ROMANS
 72
     1
 11
26.80666666688125
 21
8.641447842371857
 31
0.0
100
AcDbText
  0
TEXT
  5
25D6
330
1F
100
AcDbEntity
  8
TEXT1
100
AcDbText
 10
26.42190476211934
 20
9.174781175684357
 30
0.0
 40
0.16
  1
BREAK
  7
ROMANS
 72
     1
 11
26.80666666688125
 21
9.174781175684357
 31
0.0
100
AcDbText
  0
TEXT
  5
25D7
330
1F
100
AcDbEntity
  8
TEXT1
100
AcDbText
 10
26.64666666688125
 20
9.708114508996857
 30
0.0
 40
0.16
  1
PF
  7
ROMANS
 72
     1
 11
26.80666666688125
 21
9.708114508996857
 31
0.0
100
AcDbText
  0
TEXT
  5
25D8
330
1F
100
AcDbEntity
  8
TEXT1
100
AcDbText
 10
26.48666666688125
 20
9.441447842340606
 30
0.0
 40
0.16
  1
MAKE
  7
ROMANS
 72
     1
 11
26.80666666688125
 21
9.441447842340606
 31
0.0
100
AcDbText
  0
TEXT
  5
25D9
330
1F
100
AcDbEntity
  8
TEXT1
100
AcDbText
 10
26.56285714307172
 20
9.974781175653106
 30
0.0
 40
0.16
  1
75%
  7
ROMANS
 72
     1
 11
26.80666666688125
 21
9.974781175653106
 31
0.0
100
AcDbText
  0
TEXT
  5
25DA
330
1F
100
AcDbEntity
  8
TEXT1
100
AcDbText
 10
26.58190476211934
 20
8.908114509028106
 30
0.0
 40
0.16
  1
AND
  7
ROMANS
 72
     1
 11
26.80666666688125
 21
8.908114509028106
 31
0.0
100
AcDbText
  0
TEXT
  5
25DC
330
1F
100
AcDbEntity
  8
TEXT1
100
AcDbText
 10
25.15714285740848
 20
8.481447842378106
 30
0.0
 40
0.16
  1
CON-
  7
ROMANS
 72
     1
 11
25.50000000026562
 21
8.481447842378106
 31
0.0
100
AcDbText
  0
TEXT
  5
25DD
330
1F
100
AcDbEntity
  8
TEXT1
100
AcDbText
 10
25.33619047645609
 20
7.868114509068732
 30
0.0
 40
0.16
  1
10
  7
ROMANS
 72
     1
 11
25.50000000026562
 21
7.868114509068732
 31
0.0
100
AcDbText
  0
TEXT
  5
25DE
330
1F
100
AcDbEntity
  8
TEXT1
100
AcDbText
 10
25.33619047645609
 20
7.548114509081232
 30
0.0
 40
0.16
  1
10
  7
ROMANS
 72
     1
 11
25.50000000026562
 21
7.548114509081232
 31
0.0
100
AcDbText
  0
TEXT
  5
25DF
330
1F
100
AcDbEntity
  8
TEXT1
100
AcDbText
 10
25.00476190502752
 20
8.214781175721856
 30
0.0
 40
0.16
  1
TINUOUS
  7
ROMANS
 72
     1
 11
25.50000000026562
 21
8.214781175721856
 31
0.0
100
AcDbText
  0
TEXT
  5
25E2
330
1F
100
AcDbEntity
  8
TEXT1
100
AcDbText
 10
26.6161904764061
 20
7.868114509068732
 30
0.0
 40
0.16
  1
10
  7
ROMANS
 72
     1
 11
26.78000000021562
 21
7.868114509068732
 31
0.0
100
AcDbText
  0
TEXT
  5
25E3
330
1F
100
AcDbEntity
  8
TEXT1
100
AcDbText
 10
26.6161904764061
 20
7.548114509081232
 30
0.0
 40
0.16
  1
10
  7
ROMANS
 72
     1
 11
26.78000000021562
 21
7.548114509081232
 31
0.0
100
AcDbText
  0
TEXT
  5
25E4
330
1F
100
AcDbEntity
  8
TEXT1
100
AcDbText
 10
27.49238095255908
 20
7.548114509081232
 30
0.0
 40
0.16
  1
1/2
  7
ROMANS
 72
     1
 11
27.74000000017812
 21
7.548114509081232
 31
0.0
100
AcDbText
  0
TEXT
  5
25E5
330
1F
100
AcDbEntity
  8
TEXT1
100
AcDbText
 10
27.49238095255908
 20
7.868114509068732
 30
0.0
 40
0.16
  1
1/3
  7
ROMANS
 72
     1
 11
27.74000000017812
 21
7.868114509068732
 31
0.0
100
AcDbText
  0
TEXT
  5
25E6
330
1F
100
AcDbEntity
  8
TEXT1
100
AcDbText
 10
27.5990476192247
 20
9.494781175671857
 30
0.0
 40
0.16
  1
HP
  7
ROMANS
 72
     1
 11
27.76666666684374
 21
9.494781175671857
 31
0.0
100
AcDbText
  0
TEXT
  5
25E9
330
1F
100
AcDbEntity
  8
TEXT1
100
AcDbText
 10
28.38761904776592
 20
7.734781175740605
 30
0.0
 40
0.16
  1
30
  7
ROMANS
 72
     1
 11
28.54000000014687
 21
7.734781175740605
 31
0.0
100
AcDbText
  0
TEXT
  5
25EA
330
1F
100
AcDbEntity
  8
TEXT1
100
AcDbText
 10
28.40285714300298
 20
9.601447842334357
 30
0.0
 40
0.16
  1
DC
  7
ROMANS
 72
     1
 11
28.5666666668125
 21
9.601447842334357
 31
0.0
100
AcDbText
  0
TEXT
  5
25EB
330
1F
100
AcDbEntity
  8
TEXT1
100
AcDbText
 10
28.22000000014583
 20
9.334781175678106
 30
0.0
 40
0.16
  1
VOLTS
  7
ROMANS
 72
     1
 11
28.5666666668125
 21
9.334781175678106
 31
0.0
100
AcDbText
  0
TEXT
  5
25EC
330
1F
100
AcDbEntity
  8
TEXT1
100
AcDbText
 10
30.19333333339375
 20
10.7214478422906
 30
0.0
 40
0.16
  1
DC AMPS
  7
ROMANS
 72
     1
 11
30.75333333339374
 21
10.7214478422906
 31
0.0
100
AcDbText
  0
TEXT
  5
25ED
330
1F
100
AcDbEntity
  8
TEXT1
100
AcDbText
 10
29.45809523818288
 20
9.494781175671857
 30
0.0
 40
0.16
  1
INDUCTIVE
  7
ROMANS
 72
     1
 11
30.05619047627812
 21
9.494781175671857
 31
0.0
100
AcDbText
  0
TEXT
  5
25EE
330
1F
100
AcDbEntity
  8
TEXT1
100
AcDbText
 10
29.31333333343749
 20
8.374781175715606
 30
0.0
 40
0.16
  1
MAKE
  7
ROMANS
 72
     1
 11
29.63333333343749
 21
8.374781175715606
 31
0.0
100
AcDbText
  0
TEXT
  5
25EF
330
1F
100
AcDbEntity
  8
TEXT1
100
AcDbText
 10
30.18190476197247
 20
8.374781175715606
 30
0.0
 40
0.16
  1
BREAK
  7
ROMANS
 72
     1
 11
30.56666666673438
 21
8.374781175715606
 31
0.0
100
AcDbText
  0
TEXT
  5
25F0
330
1F
100
AcDbEntity
  8
TEXT1
100
AcDbText
 10
30.4904761905439
 20
7.734781175740605
 30
0.0
 40
0.16
  1
3
  7
ROMANS
 72
     1
 11
30.56666666673438
 21
7.734781175740605
 31
0.0
100
AcDbText
  0
TEXT
  5
25F1
330
1F
100
AcDbEntity
  8
TEXT1
100
AcDbText
 10
29.55714285724702
 20
7.734781175740605
 30
0.0
 40
0.16
  1
3
  7
ROMANS
 72
     1
 11
29.63333333343749
 21
7.734781175740605
 31
0.0
100
AcDbText
  0
TEXT
  5
25F5
330
1F
100
AcDbEntity
  8
TEXT1
100
AcDbText
 10
31.43523809526309
 20
9.228114509015606
 30
0.0
 40
0.16
  1
AND
  7
ROMANS
 72
     1
 11
31.660000000025
 21
9.228114509015606
 31
0.0
100
AcDbText
  0
TEXT
  5
25F6
330
1F
100
AcDbEntity
  8
TEXT1
100
AcDbText
 10
31.1647619047869
 20
8.694781175703106
 30
0.0
 40
0.16
  1
TINUOUS
  7
ROMANS
 72
     1
 11
31.660000000025
 21
8.694781175703106
 31
0.0
100
AcDbText
  0
TEXT
  5
25F7
330
1F
100
AcDbEntity
  8
TEXT1
100
AcDbText
 10
31.31714285716785
 20
8.961447842359357
 30
0.0
 40
0.16
  1
CON-
  7
ROMANS
 72
     1
 11
31.660000000025
 21
8.961447842359357
 31
0.0
100
AcDbText
  0
TEXT
  5
25F8
330
1F
100
AcDbEntity
  8
TEXT1
100
AcDbText
 10
31.27523809526309
 20
9.494781175671857
 30
0.0
 40
0.16
  1
BREAK
  7
ROMANS
 72
     1
 11
31.660000000025
 21
9.494781175671857
 31
0.0
100
AcDbText
  0
TEXT
  5
25F9
330
1F
100
AcDbEntity
  8
TEXT1
100
AcDbText
 10
31.340000000025
 20
9.761447842328106
 30
0.0
 40
0.16
  1
MAKE
  7
ROMANS
 72
     1
 11
31.660000000025
 21
9.761447842328106
 31
0.0
100
AcDbText
  0
TEXT
  5
25FA
330
1F
100
AcDbEntity
  8
TEXT1
100
AcDbText
 10
31.39333333335833
 20
10.02811450898435
 30
0.0
 40
0.16
  1
RES.
  7
ROMANS
 72
     1
 11
31.660000000025
 21
10.02811450898435
 31
0.0
100
AcDbText
  0
TEXT
  5
25FD
330
1F
100
AcDbEntity
  8
TEXT1
100
AcDbText
 10
31.46952380954985
 20
7.734781175740605
 30
0.0
 40
0.16
  1
10
  7
ROMANS
 72
     1
 11
31.63333333335937
 21
7.734781175740605
 31
0.0
100
AcDbText
  0
CIRCLE
  5
25FE
330
1F
100
AcDbEntity
  8
CONTINUOUS1
100
AcDbCircle
 10
6.905120808277139
 20
10.9190721194811
 30
0.0
 40
0.046875
  0
CIRCLE
  5
25FF
330
1F
100
AcDbEntity
  8
CONTINUOUS1
100
AcDbCircle
 10
7.021042814859136
 20
11.30762921436321
 30
0.0
 40
0.046875
  0
CIRCLE
  5
2600
330
1F
100
AcDbEntity
  8
CONTINUOUS1
100
AcDbCircle
 10
7.020127140106417
 20
11.09633178079863
 30
0.0
 40
0.0392369915036692
  0
CIRCLE
  5
2601
330
1F
100
AcDbEntity
  8
CONTINUOUS1
100
AcDbCircle
 10
7.020127140106417
 20
11.09633178079863
 30
0.0
 40
0.046875
  0
CIRCLE
  5
2602
330
1F
100
AcDbEntity
  8
CONTINUOUS1
100
AcDbCircle
 10
6.346189961823661
 20
11.4076452539368
 30
0.0
 40
0.0392369915036692
  0
CIRCLE
  5
2603
330
1F
100
AcDbEntity
  8
CONTINUOUS1
100
AcDbCircle
 10
6.346189961823661
 20
11.4076452539368
 30
0.0
 40
0.046875
  0
CIRCLE
  5
2605
330
1F
100
AcDbEntity
  8
CONTINUOUS1
100
AcDbCircle
 10
6.506477546742857
 20
11.54532362555704
 30
0.0
 40
0.0392369915036692
  0
CIRCLE
  5
2606
330
1F
100
AcDbEntity
  8
CONTINUOUS1
100
AcDbCircle
 10
6.506477546742857
 20
11.54532362555704
 30
0.0
 40
0.046875
  0
CIRCLE
  5
2607
330
1F
100
AcDbEntity
  8
CONTINUOUS1
100
AcDbCircle
 10
6.907577112271169
 20
11.48587897797441
 30
0.0
 40
0.046875
  0
CIRCLE
  5
2608
330
1F
100
AcDbEntity
  8
CONTINUOUS1
100
AcDbCircle
 10
6.715754591203833
 20
11.57448803113831
 30
0.0
 40
0.0392369915036692
  0
CIRCLE
  5
2609
330
1F
100
AcDbEntity
  8
CONTINUOUS1
100
AcDbCircle
 10
6.715754591203833
 20
11.57448803113831
 30
0.0
 40
0.046875
  0
CIRCLE
  5
260A
330
1F
100
AcDbEntity
  8
CONTINUOUS1
100
AcDbCircle
 10
6.907577112271169
 20
11.48587897797441
 30
0.0
 40
0.0392369915036692
  0
CIRCLE
  5
260B
330
1F
100
AcDbEntity
  8
CONTINUOUS1
100
AcDbCircle
 10
7.021042814859136
 20
11.30762921436321
 30
0.0
 40
0.0392369915036692
  0
CIRCLE
  5
260C
330
1F
100
AcDbEntity
  8
CONTINUOUS1
100
AcDbCircle
 10
6.285782012120129
 20
11.20516482647813
 30
0.0
 40
0.0392369915036692
  0
CIRCLE
  5
260D
330
1F
100
AcDbEntity
  8
CONTINUOUS1
100
AcDbCircle
 10
6.285782012120129
 20
11.20516482647813
 30
0.0
 40
0.046875
  0
CIRCLE
  5
2611
330
1F
100
AcDbEntity
  8
CONTINUOUS1
100
AcDbCircle
 10
6.344432794840955
 20
11.00216844824082
 30
0.0
 40
0.0392369915036692
  0
CIRCLE
  5
2612
330
1F
100
AcDbEntity
  8
CONTINUOUS1
100
AcDbCircle
 10
6.344432794840962
 20
11.00216844824082
 30
0.0
 40
0.046875
  0
CIRCLE
  5
2613
330
1F
100
AcDbEntity
  8
CONTINUOUS1
100
AcDbCircle
 10
6.905120808277139
 20
10.9190721194811
 30
0.0
 40
0.0392369915036692
  0
CIRCLE
  5
2614
330
1F
100
AcDbEntity
  8
CONTINUOUS1
100
AcDbCircle
 10
6.712537517131195
 20
10.83212892042202
 30
0.0
 40
0.046875
  0
CIRCLE
  5
2615
330
1F
100
AcDbEntity
  8
CONTINUOUS1
100
AcDbCircle
 10
6.503521100878913
 20
10.86310603501136
 30
0.0
 40
0.0392369915036692
  0
CIRCLE
  5
2616
330
1F
100
AcDbEntity
  8
CONTINUOUS1
100
AcDbCircle
 10
6.503521100878913
 20
10.86310603501136
 30
0.0
 40
0.046875
  0
CIRCLE
  5
2617
330
1F
100
AcDbEntity
  8
CONTINUOUS1
100
AcDbCircle
 10
6.712537517131195
 20
10.83212892042202
 30
0.0
 40
0.0392369915036692
  0
LWPOLYLINE
  5
27B2
330
1F
100
AcDbEntity
  8
CONTINUOUS1
100
AcDbPolyline
 90
        4
 70
     1
 43
0.0
 10
26.96666666687499
 20
19.18058754958099
 10
29.39333333344686
 20
19.18058754958099
 10
29.39333333344686
 20
18.54058754960599
 10
26.96666666687499
 20
18.54058754960599
  0
LWPOLYLINE
  5
27B3
330
1F
100
AcDbEntity
  8
CONTINUOUS1
100
AcDbPolyline
 90
        4
 70
     1
 43
0.0
 10
29.39333333344686
 20
19.18058754958099
 10
32.29999999999999
 20
19.18058754958099
 10
32.29999999999999
 20
18.86058754959349
 10
29.39333333344686
 20
18.86058754959349
  0
LWPOLYLINE
  5
27B4
330
1F
100
AcDbEntity
  8
CONTINUOUS1
100
AcDbPolyline
 90
        4
 70
     1
 43
0.0
 10
29.39333333344686
 20
18.86058754959349
 10
30.91333333338749
 20
18.86058754959349
 10
30.91333333338749
 20
18.54058754960599
 10
29.39333333344686
 20
18.54058754960599
  0
LWPOLYLINE
  5
27B5
330
1F
100
AcDbEntity
  8
CONTINUOUS1
100
AcDbPolyline
 90
        4
 70
     1
 43
0.0
 10
30.91333333338749
 20
18.86058754959349
 10
32.29999999999999
 20
18.86058754959349
 10
32.29999999999999
 20
18.54058754960599
 10
30.91333333338749
 20
18.54058754960599
  0
LWPOLYLINE
  5
27B6
330
1F
100
AcDbEntity
  8
CONTINUOUS1
100
AcDbPolyline
 90
        4
 70
     1
 43
0.0
 10
26.96666666687499
 20
18.22058754961849
 10
29.39333333344686
 20
18.22058754961849
 10
29.39333333344686
 20
18.54058754960599
 10
26.96666666687499
 20
18.54058754960599
  0
LWPOLYLINE
  5
27B8
330
1F
100
AcDbEntity
  8
CONTINUOUS1
100
AcDbPolyline
 90
        4
 70
     1
 43
0.0
 10
29.39333333344686
 20
18.54058754960599
 10
30.91333333338749
 20
18.54058754960599
 10
30.91333333338749
 20
18.22058754961849
 10
29.39333333344686
 20
18.22058754961849
  0
LWPOLYLINE
  5
27B9
330
1F
100
AcDbEntity
  8
CONTINUOUS1
100
AcDbPolyline
 90
        4
 70
     1
 43
0.0
 10
30.91333333338749
 20
18.54058754960599
 10
32.29999999999999
 20
18.54058754960599
 10
32.29999999999999
 20
18.22058754961849
 10
30.91333333338749
 20
18.22058754961849
  0
LWPOLYLINE
  5
27BA
330
1F
100
AcDbEntity
  8
CONTINUOUS1
100
AcDbPolyline
 90
        4
 70
     1
 43
0.0
 10
28.40666666681874
 20
14.78375119496103
 10
30.78000000005936
 20
14.78375119496103
 10
30.78000000005936
 20
14.46375119497353
 10
28.40666666681874
 20
14.46375119497353
  0
LWPOLYLINE
  5
27BB
330
1F
100
AcDbEntity
  8
CONTINUOUS1
100
AcDbPolyline
 90
        4
 70
     1
 43
0.0
 10
30.78000000005936
 20
14.78375119496103
 10
32.29999999999999
 20
14.78375119496103
 10
32.29999999999999
 20
14.46375119497353
 10
30.78000000005936
 20
14.46375119497353
  0
LWPOLYLINE
  5
27BC
330
1F
100
AcDbEntity
  8
CONTINUOUS1
100
AcDbPolyline
 90
        4
 70
     1
 43
0.0
 10
21.58000000041874
 20
10.98811450894685
 10
22.99333333369687
 20
10.98811450894685
 10
22.99333333369687
 20
8.108114509059356
 10
21.58000000041874
 20
8.108114509059356
  0
LWPOLYLINE
  5
27BD
330
1F
100
AcDbEntity
  8
CONTINUOUS1
100
AcDbPolyline
 90
        4
 70
     1
 43
0.0
 10
22.99333333369687
 20
10.98811450894685
 10
27.34000000019374
 20
10.98811450894685
 10
27.34000000019374
 20
10.66811450895935
 10
22.99333333369687
 20
10.66811450895935
  0
LWPOLYLINE
  5
27BE
330
1F
100
AcDbEntity
  8
CONTINUOUS1
100
AcDbPolyline
 90
        4
 70
     1
 43
0.0
 10
27.34000000019374
 20
10.98811450894685
 10
28.1400000001625
 20
10.98811450894685
 10
28.1400000001625
 20
8.108114509059356
 10
27.34000000019374
 20
8.108114509059356
  0
LWPOLYLINE
  5
27BF
330
1F
100
AcDbEntity
  8
CONTINUOUS1
100
AcDbPolyline
 90
        4
 70
     1
 43
0.0
 10
28.1400000001625
 20
10.98811450894685
 10
29.04666666679375
 20
10.98811450894685
 10
29.04666666679375
 20
8.108114509059356
 10
28.1400000001625
 20
8.108114509059356
  0
LWPOLYLINE
  5
27C0
330
1F
100
AcDbEntity
  8
CONTINUOUS1
100
AcDbPolyline
 90
        4
 70
     1
 43
0.0
 10
29.04666666679375
 20
10.98811450894685
 10
32.29999999999999
 20
10.98811450894685
 10
32.29999999999999
 20
10.66811450895935
 10
29.04666666679375
 20
10.66811450895935
  0
LWPOLYLINE
  5
27C1
330
1F
100
AcDbEntity
  8
CONTINUOUS1
100
AcDbPolyline
 90
        4
 70
     1
 43
0.0
 10
29.04666666679375
 20
10.66811450895935
 10
31.07333333338125
 20
10.66811450895935
 10
31.07333333338125
 20
8.748114509034357
 10
29.04666666679375
 20
8.748114509034357
  0
LWPOLYLINE
  5
27C2
330
1F
100
AcDbEntity
  8
CONTINUOUS1
100
AcDbPolyline
 90
        4
 70
     1
 43
0.0
 10
31.07333333338125
 20
10.66811450895935
 10
32.29999999999999
 20
10.66811450895935
 10
32.29999999999999
 20
8.108114509059356
 10
31.07333333338125
 20
8.108114509059356
  0
LWPOLYLINE
  5
27C3
330
1F
100
AcDbEntity
  8
CONTINUOUS1
100
AcDbPolyline
 90
        4
 70
     1
 43
0.0
 10
29.04666666679375
 20
8.748114509034357
 10
30.11333333341875
 20
8.748114509034357
 10
30.11333333341875
 20
8.108114509059356
 10
29.04666666679375
 20
8.108114509059356
  0
LWPOLYLINE
  5
27C5
330
1F
100
AcDbEntity
  8
CONTINUOUS1
100
AcDbPolyline
 90
        4
 70
     1
 43
0.0
 10
30.11333333341875
 20
8.748114509034357
 10
31.07333333338125
 20
8.748114509034357
 10
31.07333333338125
 20
8.108114509059356
 10
30.11333333341875
 20
8.108114509059356
  0
LWPOLYLINE
  5
27C6
330
1F
100
AcDbEntity
  8
CONTINUOUS1
100
AcDbPolyline
 90
        4
 70
     1
 43
0.0
 10
22.99333333369687
 20
10.66811450895935
 10
26.16666666690625
 20
10.66811450895935
 10
26.16666666690625
 20
8.748114509034357
 10
22.99333333369687
 20
8.748114509034357
  0
LWPOLYLINE
  5
27C7
330
1F
100
AcDbEntity
  8
CONTINUOUS1
100
AcDbPolyline
 90
        4
 70
     1
 43
0.0
 10
26.16666666690625
 20
10.66811450895935
 10
27.34000000019374
 20
10.66811450895935
 10
27.34000000019374
 20
8.108114509059356
 10
26.16666666690625
 20
8.108114509059356
  0
LWPOLYLINE
  5
27C8
330
1F
100
AcDbEntity
  8
CONTINUOUS1
100
AcDbPolyline
 90
        4
 70
     1
 43
0.0
 10
22.99333333369687
 20
8.748114509034357
 10
23.84666666699687
 20
8.748114509034357
 10
23.84666666699687
 20
8.108114509059356
 10
22.99333333369687
 20
8.108114509059356
  0
LWPOLYLINE
  5
27C9
330
1F
100
AcDbEntity
  8
CONTINUOUS1
100
AcDbPolyline
 90
        4
 70
     1
 43
0.0
 10
23.84666666699687
 20
8.748114509034357
 10
24.88666666695625
 20
8.748114509034357
 10
24.88666666695625
 20
8.108114509059356
 10
23.84666666699687
 20
8.108114509059356
  0
LWPOLYLINE
  5
27CA
330
1F
100
AcDbEntity
  8
CONTINUOUS1
100
AcDbPolyline
 90
        4
 70
     1
 43
0.0
 10
24.88666666695625
 20
8.748114509034357
 10
26.16666666690625
 20
8.748114509034357
 10
26.16666666690625
 20
8.108114509059356
 10
24.88666666695625
 20
8.108114509059356
  0
LWPOLYLINE
  5
27CB
330
1F
100
AcDbEntity
  8
CONTINUOUS1
100
AcDbPolyline
 90
        4
 70
     1
 43
0.0
 10
21.58000000041874
 20
8.108114509059356
 10
22.99333333369687
 20
8.108114509059356
 10
22.99333333369687
 20
7.788114509071856
 10
21.58000000041874
 20
7.788114509071856
  0
LWPOLYLINE
  5
27CC
330
1F
100
AcDbEntity
  8
CONTINUOUS1
100
AcDbPolyline
 90
        4
 70
     1
 43
0.0
 10
22.99333333369687
 20
8.108114509059356
 10
23.84666666699687
 20
8.108114509059356
 10
23.84666666699687
 20
7.788114509071856
 10
22.99333333369687
 20
7.788114509071856
  0
LWPOLYLINE
  5
27CD
330
1F
100
AcDbEntity
  8
CONTINUOUS1
100
AcDbPolyline
 90
        4
 70
     1
 43
0.0
 10
23.84666666699687
 20
8.108114509059356
 10
24.88666666695625
 20
8.108114509059356
 10
24.88666666695625
 20
7.788114509071856
 10
23.84666666699687
 20
7.788114509071856
  0
LWPOLYLINE
  5
27CE
330
1F
100
AcDbEntity
  8
CONTINUOUS1
100
AcDbPolyline
 90
        4
 70
     1
 43
0.0
 10
24.88666666695625
 20
8.108114509059356
 10
26.16666666690625
 20
8.108114509059356
 10
26.16666666690625
 20
7.788114509071856
 10
24.88666666695625
 20
7.788114509071856
  0
LWPOLYLINE
  5
27CF
330
1F
100
AcDbEntity
  8
CONTINUOUS1
100
AcDbPolyline
 90
        4
 70
     1
 43
0.0
 10
26.16666666690625
 20
8.108114509059356
 10
27.34000000019374
 20
8.108114509059356
 10
27.34000000019374
 20
7.788114509071856
 10
26.16666666690625
 20
7.788114509071856
  0
LWPOLYLINE
  5
27D0
330
1F
100
AcDbEntity
  8
CONTINUOUS1
100
AcDbPolyline
 90
        4
 70
     1
 43
0.0
 10
27.34000000019374
 20
8.108114509059356
 10
28.1400000001625
 20
8.108114509059356
 10
28.1400000001625
 20
7.788114509071856
 10
27.34000000019374
 20
7.788114509071856
  0
LWPOLYLINE
  5
27D1
330
1F
100
AcDbEntity
  8
CONTINUOUS1
100
AcDbPolyline
 90
        4
 70
     1
 43
0.0
 10
28.1400000001625
 20
8.108114509059356
 10
29.04666666679375
 20
8.108114509059356
 10
29.04666666679375
 20
7.468114509084356
 10
28.1400000001625
 20
7.468114509084356
  0
LWPOLYLINE
  5
27D2
330
1F
100
AcDbEntity
  8
CONTINUOUS1
100
AcDbPolyline
 90
        4
 70
     1
 43
0.0
 10
29.04666666679375
 20
8.108114509059356
 10
30.11333333341875
 20
8.108114509059356
 10
30.11333333341875
 20
7.468114509084356
 10
29.04666666679375
 20
7.468114509084356
  0
LWPOLYLINE
  5
27D3
330
1F
100
AcDbEntity
  8
CONTINUOUS1
100
AcDbPolyline
 90
        4
 70
     1
 43
0.0
 10
30.11333333341875
 20
8.108114509059356
 10
31.07333333338125
 20
8.108114509059356
 10
31.07333333338125
 20
7.468114509084356
 10
30.11333333341875
 20
7.468114509084356
  0
LWPOLYLINE
  5
27D4
330
1F
100
AcDbEntity
  8
CONTINUOUS1
100
AcDbPolyline
 90
        4
 70
     1
 43
0.0
 10
31.07333333338125
 20
8.108114509059356
 10
32.29999999999999
 20
8.108114509059356
 10
32.29999999999999
 20
7.468114509084356
 10
31.07333333338125
 20
7.468114509084356
  0
LWPOLYLINE
  5
27D6
330
1F
100
AcDbEntity
  8
CONTINUOUS1
100
AcDbPolyline
 90
        4
 70
     1
 43
0.0
 10
26.96666666687499
 20
17.90058754963099
 10
29.39333333344686
 20
17.90058754963099
 10
29.39333333344686
 20
18.22058754961849
 10
26.96666666687499
 20
18.22058754961849
  0
LWPOLYLINE
  5
27D7
330
1F
100
AcDbEntity
  8
CONTINUOUS1
100
AcDbPolyline
 90
        4
 70
     1
 43
0.0
 10
29.39333333344686
 20
18.22058754961849
 10
30.91333333338749
 20
18.22058754961849
 10
30.91333333338749
 20
17.90058754963099
 10
29.39333333344686
 20
17.90058754963099
  0
LWPOLYLINE
  5
27D8
330
1F
100
AcDbEntity
  8
CONTINUOUS1
100
AcDbPolyline
 90
        4
 70
     1
 43
0.0
 10
30.91333333338749
 20
18.22058754961849
 10
32.29999999999999
 20
18.22058754961849
 10
32.29999999999999
 20
17.90058754963099
 10
30.91333333338749
 20
17.90058754963099
  0
LWPOLYLINE
  5
27D9
330
1F
100
AcDbEntity
  8
CONTINUOUS1
100
AcDbPolyline
 90
        4
 70
     1
 43
0.0
 10
28.40666666681874
 20
14.46375119497353
 10
30.78000000005936
 20
14.46375119497353
 10
30.78000000005936
 20
14.14375119498603
 10
28.40666666681874
 20
14.14375119498603
  0
LWPOLYLINE
  5
27DA
330
1F
100
AcDbEntity
  8
CONTINUOUS1
100
AcDbPolyline
 90
        4
 70
     1
 43
0.0
 10
30.78000000005936
 20
14.46375119497353
 10
32.29999999999999
 20
14.46375119497353
 10
32.29999999999999
 20
14.14375119498603
 10
30.78000000005936
 20
14.14375119498603
  0
LWPOLYLINE
  5
27DB
330
1F
100
AcDbEntity
  8
CONTINUOUS1
100
AcDbPolyline
 90
        4
 70
     1
 43
0.0
 10
21.58000000041874
 20
7.788114509071855
 10
22.99333333369687
 20
7.788114509071855
 10
22.99333333369687
 20
7.468114509084355
 10
21.58000000041874
 20
7.468114509084355
  0
LWPOLYLINE
  5
27DC
330
1F
100
AcDbEntity
  8
CONTINUOUS1
100
AcDbPolyline
 90
        4
 70
     1
 43
0.0
 10
22.99333333369687
 20
7.788114509071855
 10
23.84666666699687
 20
7.788114509071855
 10
23.84666666699687
 20
7.468114509084355
 10
22.99333333369687
 20
7.468114509084355
  0
LWPOLYLINE
  5
27DD
330
1F
100
AcDbEntity
  8
CONTINUOUS1
100
AcDbPolyline
 90
        4
 70
     1
 43
0.0
 10
23.84666666699687
 20
7.788114509071855
 10
24.88666666695625
 20
7.788114509071855
 10
24.88666666695625
 20
7.468114509084355
 10
23.84666666699687
 20
7.468114509084355
  0
LWPOLYLINE
  5
27DE
330
1F
100
AcDbEntity
  8
CONTINUOUS1
100
AcDbPolyline
 90
        4
 70
     1
 43
0.0
 10
24.88666666695625
 20
7.788114509071855
 10
26.16666666690625
 20
7.788114509071855
 10
26.16666666690625
 20
7.468114509084355
 10
24.88666666695625
 20
7.468114509084355
  0
LWPOLYLINE
  5
27DF
330
1F
100
AcDbEntity
  8
CONTINUOUS1
100
AcDbPolyline
 90
        4
 70
     1
 43
0.0
 10
26.16666666690625
 20
7.788114509071855
 10
27.34000000019374
 20
7.788114509071855
 10
27.34000000019374
 20
7.468114509084355
 10
26.16666666690625
 20
7.468114509084355
  0
LWPOLYLINE
  5
27E0
330
1F
100
AcDbEntity
  8
CONTINUOUS1
100
AcDbPolyline
 90
        4
 70
     1
 43
0.0
 10
27.34000000019374
 20
7.788114509071855
 10
28.1400000001625
 20
7.788114509071855
 10
28.1400000001625
 20
7.468114509084355
 10
27.34000000019374
 20
7.468114509084355
  0
LWPOLYLINE
  5
27E1
330
1F
100
AcDbEntity
  8
CONTINUOUS1
100
AcDbPolyline
 90
        4
 70
     1
 43
0.0
 10
26.96666666687499
 20
17.58058754964349
 10
29.39333333344686
 20
17.58058754964349
 10
29.39333333344686
 20
17.90058754963099
 10
26.96666666687499
 20
17.90058754963099
  0
LWPOLYLINE
  5
27E2
330
1F
100
AcDbEntity
  8
CONTINUOUS1
100
AcDbPolyline
 90
        4
 70
     1
 43
0.0
 10
29.39333333344686
 20
17.90058754963099
 10
30.91333333338749
 20
17.90058754963099
 10
30.91333333338749
 20
17.58058754964349
 10
29.39333333344686
 20
17.58058754964349
  0
LWPOLYLINE
  5
27E3
330
1F
100
AcDbEntity
  8
CONTINUOUS1
100
AcDbPolyline
 90
        4
 70
     1
 43
0.0
 10
30.91333333338749
 20
17.90058754963099
 10
32.29999999999999
 20
17.90058754963099
 10
32.29999999999999
 20
17.58058754964349
 10
30.91333333338749
 20
17.58058754964349
  0
LWPOLYLINE
  5
27E4
330
1F
100
AcDbEntity
  8
CONTINUOUS1
100
AcDbPolyline
 90
        4
 70
     1
 43
0.0
 10
30.91333333338749
 20
17.58058754964349
 10
32.29999999999999
 20
17.58058754964349
 10
32.29999999999999
 20
17.26058754965599
 10
30.91333333338749
 20
17.26058754965599
  0
LWPOLYLINE
  5
27E5
330
1F
100
AcDbEntity
  8
CONTINUOUS1
100
AcDbPolyline
 90
        4
 70
     1
 43
0.0
 10
29.39333333344686
 20
17.58058754964349
 10
30.91333333338749
 20
17.58058754964349
 10
30.91333333338749
 20
17.26058754965599
 10
29.39333333344686
 20
17.26058754965599
  0
LWPOLYLINE
  5
27E6
330
1F
100
AcDbEntity
  8
CONTINUOUS1
100
AcDbPolyline
 90
        4
 70
     1
 43
0.0
 10
26.96666666687499
 20
17.26058754965599
 10
29.39333333344686
 20
17.26058754965599
 10
29.39333333344686
 20
17.58058754964349
 10
26.96666666687499
 20
17.58058754964349
  0
LWPOLYLINE
  5
27E7
330
1F
100
AcDbEntity
  8
CONTINUOUS1
100
AcDbPolyline
 90
        4
 70
     1
 43
0.0
 10
28.40666666681874
 20
14.14375119498603
 10
30.78000000005936
 20
14.14375119498603
 10
30.78000000005936
 20
13.82375119499853
 10
28.40666666681874
 20
13.82375119499853
  0
LWPOLYLINE
  5
27E8
330
1F
100
AcDbEntity
  8
CONTINUOUS1
100
AcDbPolyline
 90
        4
 70
     1
 43
0.0
 10
28.40666666681874
 20
13.82375119499853
 10
30.78000000005936
 20
13.82375119499853
 10
30.78000000005936
 20
13.50375119501103
 10
28.40666666681874
 20
13.50375119501103
  0
LWPOLYLINE
  5
27E9
330
1F
100
AcDbEntity
  8
CONTINUOUS1
100
AcDbPolyline
 90
        4
 70
     1
 43
0.0
 10
30.78000000005936
 20
14.14375119498603
 10
32.29999999999999
 20
14.14375119498603
 10
32.29999999999999
 20
13.82375119499853
 10
30.78000000005936
 20
13.82375119499853
  0
LWPOLYLINE
  5
27EA
330
1F
100
AcDbEntity
  8
CONTINUOUS1
100
AcDbPolyline
 90
        4
 70
     1
 43
0.0
 10
30.78000000005936
 20
13.82375119499853
 10
32.29999999999999
 20
13.82375119499853
 10
32.29999999999999
 20
13.50375119501103
 10
30.78000000005936
 20
13.50375119501103
  0
LWPOLYLINE
  5
27EB
330
1F
100
AcDbEntity
  8
CONTINUOUS1
100
AcDbPolyline
 90
        4
 70
     1
 43
0.0
 10
26.96666666687499
 20
16.94058754966849
 10
29.39333333344686
 20
16.94058754966849
 10
29.39333333344686
 20
17.26058754965599
 10
26.96666666687499
 20
17.26058754965599
  0
LWPOLYLINE
  5
27EC
330
1F
100
AcDbEntity
  8
CONTINUOUS1
100
AcDbPolyline
 90
        4
 70
     1
 43
0.0
 10
29.39333333344686
 20
17.26058754965599
 10
30.91333333338749
 20
17.26058754965599
 10
30.91333333338749
 20
16.94058754966849
 10
29.39333333344686
 20
16.94058754966849
  0
LWPOLYLINE
  5
27ED
330
1F
100
AcDbEntity
  8
CONTINUOUS1
100
AcDbPolyline
 90
        4
 70
     1
 43
0.0
 10
30.91333333338749
 20
17.26058754965599
 10
32.29999999999999
 20
17.26058754965599
 10
32.29999999999999
 20
16.94058754966849
 10
30.91333333338749
 20
16.94058754966849
  0
LWPOLYLINE
  5
27EE
330
1F
100
AcDbEntity
  8
CONTINUOUS1
100
AcDbPolyline
 90
        4
 70
     1
 43
0.0
 10
26.96666666687499
 20
16.62058754968098
 10
29.39333333344686
 20
16.62058754968098
 10
29.39333333344686
 20
16.94058754966849
 10
26.96666666687499
 20
16.94058754966849
  0
LWPOLYLINE
  5
27EF
330
1F
100
AcDbEntity
  8
CONTINUOUS1
100
AcDbPolyline
 90
        4
 70
     1
 43
0.0
 10
29.39333333344686
 20
16.94058754966849
 10
30.91333333338749
 20
16.94058754966849
 10
30.91333333338749
 20
16.62058754968098
 10
29.39333333344686
 20
16.62058754968098
  0
LWPOLYLINE
  5
27F0
330
1F
100
AcDbEntity
  8
CONTINUOUS1
100
AcDbPolyline
 90
        4
 70
     1
 43
0.0
 10
30.91333333338749
 20
16.94058754966849
 10
32.29999999999999
 20
16.94058754966849
 10
32.29999999999999
 20
16.62058754968098
 10
30.91333333338749
 20
16.62058754968098
  0
LWPOLYLINE
  5
27F1
330
1F
100
AcDbEntity
  8
CONTINUOUS1
100
AcDbPolyline
 90
        4
 70
     1
 43
0.0
 10
26.96666666687499
 20
15.98058754970598
 10
29.39333333344686
 20
15.98058754970598
 10
29.39333333344686
 20
16.30058754969349
 10
26.96666666687499
 20
16.30058754969349
  0
LWPOLYLINE
  5
27F2
330
1F
100
AcDbEntity
  8
CONTINUOUS1
100
AcDbPolyline
 90
        4
 70
     1
 43
0.0
 10
26.96666666687499
 20
16.30058754969349
 10
29.39333333344686
 20
16.30058754969349
 10
29.39333333344686
 20
16.62058754968099
 10
26.96666666687499
 20
16.62058754968099
  0
LWPOLYLINE
  5
27F3
330
1F
100
AcDbEntity
  8
CONTINUOUS1
100
AcDbPolyline
 90
        4
 70
     1
 43
0.0
 10
29.39333333344686
 20
16.62058754968099
 10
30.91333333338749
 20
16.62058754968099
 10
30.91333333338749
 20
16.30058754969349
 10
29.39333333344686
 20
16.30058754969349
  0
LWPOLYLINE
  5
27F4
330
1F
100
AcDbEntity
  8
CONTINUOUS1
100
AcDbPolyline
 90
        4
 70
     1
 43
0.0
 10
29.39333333344686
 20
16.30058754969349
 10
30.91333333338749
 20
16.30058754969349
 10
30.91333333338749
 20
15.98058754970598
 10
29.39333333344686
 20
15.98058754970598
  0
LWPOLYLINE
  5
27F5
330
1F
100
AcDbEntity
  8
CONTINUOUS1
100
AcDbPolyline
 90
        4
 70
     1
 43
0.0
 10
30.91333333338749
 20
16.62058754968099
 10
32.29999999999999
 20
16.62058754968099
 10
32.29999999999999
 20
16.30058754969349
 10
30.91333333338749
 20
16.30058754969349
  0
LWPOLYLINE
  5
27F6
330
1F
100
AcDbEntity
  8
CONTINUOUS1
100
AcDbPolyline
 90
        4
 70
     1
 43
0.0
 10
30.91333333338749
 20
16.30058754969349
 10
32.29999999999999
 20
16.30058754969349
 10
32.29999999999999
 20
15.98058754970598
 10
30.91333333338749
 20
15.98058754970598
  0
LWPOLYLINE
  5
27F7
330
1F
100
AcDbEntity
  8
CONTINUOUS1
100
AcDbPolyline
 90
        4
 70
     1
 43
0.0
 10
26.96666666687499
 20
15.66058754971848
 10
29.39333333344686
 20
15.66058754971848
 10
29.39333333344686
 20
15.98058754970598
 10
26.96666666687499
 20
15.98058754970598
  0
LWPOLYLINE
  5
27F8
330
1F
100
AcDbEntity
  8
CONTINUOUS1
100
AcDbPolyline
 90
        4
 70
     1
 43
0.0
 10
29.39333333344686
 20
15.98058754970598
 10
30.91333333338749
 20
15.98058754970598
 10
30.91333333338749
 20
15.66058754971848
 10
29.39333333344686
 20
15.66058754971848
  0
LWPOLYLINE
  5
27F9
330
1F
100
AcDbEntity
  8
CONTINUOUS1
100
AcDbPolyline
 90
        4
 70
     1
 43
0.0
 10
30.91333333338749
 20
15.98058754970598
 10
32.29999999999999
 20
15.98058754970598
 10
32.29999999999999
 20
15.66058754971848
 10
30.91333333338749
 20
15.66058754971848
  0
LWPOLYLINE
  5
27FA
330
1F
100
AcDbEntity
  8
CONTINUOUS1
100
AcDbPolyline
 90
        4
 70
     1
 43
0.0
 10
28.40666666681874
 20
13.50375119501103
 10
30.78000000005936
 20
13.50375119501103
 10
30.78000000005936
 20
13.18375119502353
 10
28.40666666681874
 20
13.18375119502353
  0
LWPOLYLINE
  5
27FB
330
1F
100
AcDbEntity
  8
CONTINUOUS1
100
AcDbPolyline
 90
        4
 70
     1
 43
0.0
 10
30.78000000005936
 20
13.50375119501103
 10
32.29999999999999
 20
13.50375119501103
 10
32.29999999999999
 20
13.18375119502353
 10
30.78000000005936
 20
13.18375119502353
  0
INSERT
  5
2812
330
1F
100
AcDbEntity
  8
TEXT1
100
AcDbBlockReference
 66
     1
  2
ATTRIBUTES_FIXED
 10
0.2711645543965631
 20
0.2713070218377993
 30
0.0
 41
2.0
 42
2.0
 43
2.0
  0
ATTRIB
  5
2813
330
2812
100
AcDbEntity
  8
TEXT1
100
AcDbText
 10
2.831164554396563
 20
2.751307021837799
 30
0.0
 40
0.16
  1
9050-JCK(1)(2)
  7
ROMANS
100
AcDbAttribute
  2
CATALOG
 70
     0
  0
ATTRIB
  5
2814
330
2812
100
AcDbEntity
  8
TEXT1
100
AcDbText
 10
2.831164554396563
 20
2.473466772351125
 30
0.0
 40
0.16
  1
SEE CHART
  7
ROMANS
100
AcDbAttribute
  2
RATING
 70
     0
  0
ATTRIB
  5
2815
330
2812
100
AcDbEntity
  8
TEXT1
100
AcDbText
 10
2.845223180106185
 20
2.191307021837799
 30
0.0
 40
0.16
  1
CCN-E42240-NLDX2
  7
ROMANS
100
AcDbAttribute
  2
UL
 70
     0
  0
ATTRIB
  5
2816
330
2812
100
AcDbEntity
  8
TEXT1
100
AcDbText
 10
2.831164554396563
 20
1.927520007209144
 30
0.0
 40
0.16
  1
LR25490-3211-04
  7
ROMANS
100
AcDbAttribute
  2
CSA
 70
     0
  0
ATTRIB
  5
2817
330
2812
100
AcDbEntity
  8
TEXT1
100
AcDbText
 10
2.831164554396563
 20
1.631307021837798
 30
0.0
 40
0.16
  1
-
  7
ROMANS
100
AcDbAttribute
  2
STANDARDS
 70
     0
  0
ATTRIB
  5
2818
330
2812
100
AcDbEntity
  8
TEXT1
100
AcDbText
 10
2.831164554396563
 20
1.367520030178777
 30
0.0
 40
0.16
  1
-
  7
ROMANS
100
AcDbAttribute
  2
WEIGHT
 70
     0
  0
ATTRIB
  5
2819
330
2812
100
AcDbEntity
  8
TEXT1
100
AcDbText
 10
2.831164554396563
 20
1.113466772351125
 30
0.0
 40
0.16
  1
-
  7
ROMANS
100
AcDbAttribute
  2
WIRE_SIZE
 70
     0
  0
ATTRIB
  5
281A
330
2812
100
AcDbEntity
  8
TEXT1
100
AcDbText
 10
2.831164554396563
 20
0.8453602566958196
 30
0.0
 40
0.16
  1
-
  7
ROMANS
100
AcDbAttribute
  2
TERM_TORQUE
 70
     0
  0
ATTRIB
  5
281B
330
2812
100
AcDbEntity
  8
TEXT1
100
AcDbText
 10
2.831164554396563
 20
0.5534667723511247
 30
0.0
 40
0.16
  1
-
  7
ROMANS
100
AcDbAttribute
  2
MOUNTING_HWD
 70
     0
  0
SEQEND
  5
281C
330
2812
100
AcDbEntity
  8
CENTER1
  0
LWPOLYLINE
  5
2907
330
1F
100
AcDbEntity
  8
CONTINUOUS1
100
AcDbPolyline
 90
        6
 70
     0
 43
0.0
 10
18.66171089252534
 20
11.51713482330276
 10
19.02424828617652
 20
11.51713482330276
 10
19.09921089252534
 20
11.48656213425762
 10
19.09921089252534
 20
11.45395751234791
 10
19.02424828617652
 20
11.42338482330276
 10
18.66171089252534
 20
11.42338482330276
  0
LWPOLYLINE
  5
2908
330
1F
100
AcDbEntity
  8
CONTINUOUS1
100
AcDbPolyline
 90
        6
 70
     0
 43
0.0
 10
18.66171089252534
 20
11.26369537836678
 10
19.02424828617652
 20
11.26369537836678
 10
19.09921089252534
 20
11.29426806741193
 10
19.09921089252534
 20
11.32687268932163
 10
19.02424828617652
 20
11.35744537836678
 10
18.66171089252534
 20
11.35744537836678
  0
LWPOLYLINE
  5
290B
330
1F
100
AcDbEntity
  8
CONTINUOUS1
100
AcDbPolyline
 90
       11
 70
     0
 43
0.0
 10
19.06620118723714
 20
11.50002478589692
 10
19.09921089252534
 20
11.51348743753622
 10
19.09921089252534
 20
11.54609205944592
 10
19.02424828617652
 20
11.57666474849107
 10
18.66171089252534
 20
11.57666474849107
 10
18.66171089252534
 20
10.74810488338564
 10
19.02424828617652
 20
10.74810488338564
 10
19.09921089252534
 20
10.77867757243078
 10
19.09921089252534
 20
10.81128219434049
 10
19.02424828617652
 20
10.84185488338564
 10
18.66171089252534
 20
10.84185488338564
  0
LWPOLYLINE
  5
290D
330
1F
100
AcDbEntity
  8
CONTINUOUS1
100
AcDbPolyline
 90
        4
 70
     0
 43
0.0
 10
19.033100321093
 20
10.95248176646517
 10
19.22421089252535
 20
10.95248176646517
 10
19.22421089252535
 20
11.31103974849107
 10
19.09921089252534
 20
11.31103974849107
  0
LWPOLYLINE
  5
2910
330
1F
100
AcDbEntity
  8
CONTINUOUS1
100
AcDbPolyline
 90
        6
 70
     0
 43
0.0
 10
18.66171089252534
 20
10.95609197326159
 10
19.02424828617652
 20
10.95609197326159
 10
19.09921089252534
 20
10.92551928421645
 10
19.09921089252534
 20
10.89291466230674
 10
19.02424828617652
 20
10.86234197326159
 10
18.66171089252534
 20
10.86234197326159
  0
LWPOLYLINE
  5
2912
330
1F
100
AcDbEntity
  8
CONTINUOUS1
100
AcDbPolyline
 90
        6
 70
     0
 43
0.0
 10
18.66171089252534
 20
11.14829668413859
 10
19.02424828617652
 20
11.14829668413859
 10
19.09921089252534
 20
11.11772399509345
 10
19.09921089252534
 20
11.08511937318374
 10
19.02424828617652
 20
11.05454668413859
 10
18.66171089252534
 20
11.05454668413859
  0
LWPOLYLINE
  5
2914
330
1F
100
AcDbEntity
  8
CONTINUOUS1
100
AcDbPolyline
 90
        4
 70
     0
 43
0.0
 10
11.92827849093231
 20
11.41888830316463
 10
11.92827849093231
 20
11.44945640103823
 42
0.3117548359084524
 10
11.72736183838515
 20
11.24853974849107
 10
11.75792993625875
 20
11.24853974849107
  0
LWPOLYLINE
  5
2915
330
1F
100
AcDbEntity
  8
CONTINUOUS1
100
AcDbPolyline
 90
        4
 70
     0
 43
0.0
 10
12.18862704560587
 20
11.24853974849107
 10
12.21919514347947
 20
11.24853974849107
 42
0.3117548359084525
 10
12.01827849093231
 20
11.44945640103823
 10
12.01827849093231
 20
11.41888830316463
  0
LWPOLYLINE
  5
2916
330
1F
100
AcDbEntity
  8
CONTINUOUS1
100
AcDbPolyline
 90
        4
 70
     0
 43
0.0
 10
11.5252393658075
 20
11.2455033321964
 10
11.36561070734492
 20
11.26423296849801
 10
11.37449370262221
 20
11.32354216285528
 10
11.53260514108313
 20
11.29468248672463
  0
LWPOLYLINE
  5
2917
330
1F
100
AcDbEntity
  8
CONTINUOUS1
100
AcDbPolyline
 90
       12
 70
     0
 43
0.0
 10
15.73796532886211
 20
11.24853974849105
 10
15.22421089252534
 20
11.24853974849105
 10
15.22421089252534
 20
11.44945640103822
 10
15.73796532886211
 20
11.44945640103822
 10
15.78224450861532
 20
11.63951319249732
 10
15.81421089252534
 20
11.65353974849106
 10
15.81421089252534
 20
10.75353974849106
 10
15.78224450861532
 20
10.7675663044848
 10
15.73796532886211
 20
10.9576230959439
 10
15.22421089252534
 20
10.9576230959439
 10
15.22421089252534
 20
11.15853974849106
 10
15.73796532886211
 20
11.15853974849106
  0
LWPOLYLINE
  5
291A
330
1F
100
AcDbEntity
  8
CONTINUOUS1
100
AcDbPolyline
 90
        4
 70
     0
 43
0.0
 10
12.42179779484684
 20
11.2400148635153
 10
12.58225370251585
 20
11.24928899811981
 10
12.58380459341585
 20
11.18933832774974
 10
12.42308379281146
 20
11.19030379739559
  0
LWPOLYLINE
  5
291C
330
1F
100
AcDbEntity
  8
CONTINUOUS1
100
AcDbPolyline
 90
        8
 70
     1
 43
0.0
 10
13.14452849093231
 20
10.42228974849107
 42
-0.4142135623730951
 10
13.06452849093231
 20
10.34228974849107
 10
10.88202849093231
 20
10.34228974849107
 42
-0.4142135623730951
 10
10.80202849093231
 20
10.42228974849107
 10
10.80202849093231
 20
11.98478974849107
 42
-0.4142135623730951
 10
10.88202849093231
 20
12.06478974849107
 10
13.06452849093231
 20
12.06478974849107
 42
-0.4142135623730951
 10
13.14452849093231
 20
11.98478974849107
  0
LWPOLYLINE
  5
291F
330
1F
100
AcDbEntity
  8
CONTINUOUS1
100
AcDbPolyline
 90
        6
 70
     0
 43
0.0
 10
13.14452849093231
 20
11.88978974849107
 42
0.4142135623730951
 10
13.09452849093231
 20
11.93978974849107
 10
13.08952849093231
 20
11.93978974849107
 42
-0.4142135623730951
 10
13.01952849093231
 20
12.00978974849107
 10
13.01952849093232
 20
12.01478974849107
 42
0.4142135623730951
 10
12.96952849093232
 20
12.06478974849107
  0
LWPOLYLINE
  5
2923
330
1F
100
AcDbEntity
  8
CONTINUOUS1
100
AcDbPolyline
 90
        6
 70
     0
 43
0.0
 10
10.80202849093231
 20
11.88978974849107
 42
-0.4142135623730951
 10
10.85202849093231
 20
11.93978974849107
 10
10.8570284909323
 20
11.93978974849107
 42
0.4142135623730951
 10
10.92702849093231
 20
12.00978974849107
 10
10.92702849093231
 20
12.01478974849107
 42
-0.4142135623730951
 10
10.97702849093231
 20
12.06478974849107
  0
LWPOLYLINE
  5
2928
330
1F
100
AcDbEntity
  8
CONTINUOUS1
100
AcDbPolyline
 90
       10
 70
     0
 43
0.0
 10
18.56171089252534
 20
11.57853974849106
 10
18.56171089252534
 20
12.09603974849106
 10
18.46421089252534
 20
12.09603974849106
 10
15.89421089252534
 20
12.06478974849106
 42
0.4142135623730951
 10
15.81421089252534
 20
11.98478974849106
 10
15.81421089252534
 20
10.42228974849106
 42
0.4142135623730951
 10
15.89421089252534
 20
10.34228974849106
 10
18.46421089252534
 20
10.31103974849106
 10
18.56171089252534
 20
10.31103974849106
 10
18.56171089252534
 20
12.09603974849106
  0
LWPOLYLINE
  5
2929
330
1F
100
AcDbEntity
  8
CONTINUOUS1
100
AcDbPolyline
 90
        6
 70
     0
 43
0.0
 10
15.81421089252534
 20
11.88978974849106
 42
-0.4142135623730951
 10
15.86421089252534
 20
11.93978974849106
 10
17.73921089252534
 20
11.93978974849106
 42
0.4142135623730951
 10
17.78921089252534
 20
11.98978974849106
 10
17.78921089252534
 20
12.02899868923067
 42
-0.3683778315684516
 10
17.83548869429466
 20
12.08053222232656
  0
LWPOLYLINE
  5
2934
330
1F
100
AcDbEntity
  8
CONTINUOUS1
100
AcDbPolyline
 90
        3
 70
     1
 43
0.0
 10
12.01827849093231
 20
11.49014246343764
 10
11.97327849093231
 20
11.63230934881373
 10
11.92827849093231
 20
11.49014246343764
  0
LWPOLYLINE
  5
2937
330
1F
100
AcDbEntity
  8
CONTINUOUS1
100
AcDbPolyline
 90
        4
 70
     0
 43
0.0
 10
12.41854863835632
 20
11.26861275220999
 10
12.57699538090643
 20
11.29557082435558
 10
12.56505772686437
 20
11.35434139995576
 10
12.40864994154882
 20
11.31734528433214
  0
LWPOLYLINE
  5
293A
330
1F
100
AcDbEntity
  8
CONTINUOUS1
100
AcDbPolyline
 90
        4
 70
     0
 43
0.0
 10
12.40048417578925
 20
11.34494449673492
 10
12.55184253619065
 20
11.39900700329125
 10
12.52988083858384
 20
11.45481176992128
 10
12.38227354703242
 20
11.39121778153083
  0
LWPOLYLINE
  5
293D
330
1F
100
AcDbEntity
  8
CONTINUOUS1
100
AcDbPolyline
 90
        4
 70
     0
 43
0.0
 10
12.36943928466433
 20
11.41697972953872
 10
12.50911031572722
 20
11.49650400860102
 10
12.47779186962429
 20
11.54764736666541
 10
12.34347004469788
 20
11.45938777666527
  0
LWPOLYLINE
  5
2940
330
1F
100
AcDbEntity
  8
CONTINUOUS1
100
AcDbPolyline
 90
        4
 70
     0
 43
0.0
 10
12.32635724828887
 20
11.48252969652422
 10
12.45009711641138
 20
11.58509944311441
 10
12.41037351694927
 20
11.63002742755817
 10
12.29341845932816
 20
11.51978395892899
  0
LWPOLYLINE
  5
2943
330
1F
100
AcDbEntity
  8
CONTINUOUS1
100
AcDbPolyline
 90
        4
 70
     0
 43
0.0
 10
12.27254709253762
 20
11.53960269511446
 10
12.37659602444223
 20
11.6621013793852
 10
12.32967425308949
 20
11.69944887613566
 10
12.23363958301736
 20
11.57057122088585
  0
LWPOLYLINE
  5
2946
330
1F
100
AcDbEntity
  8
CONTINUOUS1
100
AcDbPolyline
 90
        4
 70
     0
 43
0.0
 10
12.20964381176382
 20
11.58646459112761
 10
12.2908403333059
 20
11.72517015254465
 10
12.23814608434151
 20
11.75380237681179
 10
12.16594976667263
 20
11.61020641728088
  0
LWPOLYLINE
  5
2949
330
1F
100
AcDbEntity
  8
CONTINUOUS1
100
AcDbPolyline
 90
        4
 70
     0
 43
0.0
 10
12.13955869032317
 20
11.62169150956656
 10
12.19543568628309
 20
11.77238944983466
 10
12.13857004779727
 20
11.79143642597273
 10
12.0924057311109
 20
11.63748525272799
  0
LWPOLYLINE
  5
294C
330
1F
100
AcDbEntity
  8
CONTINUOUS1
100
AcDbPolyline
 90
        4
 70
     0
 43
0.0
 10
12.06442122916586
 20
11.64421309834024
 10
12.09328090529652
 20
11.80232453680117
 10
12.03397171093925
 20
11.81120753207846
 10
12.01524207463764
 20
11.65157887361588
  0
LWPOLYLINE
  5
294F
330
1F
100
AcDbEntity
  8
CONTINUOUS1
100
AcDbPolyline
 90
        4
 70
     0
 43
0.0
 10
11.98651444202779
 20
11.65334505037023
 10
11.98747991167364
 20
11.81406585097461
 10
11.92752924130357
 20
11.81251496007462
 10
11.93680337590808
 20
11.6520590524056
  0
LWPOLYLINE
  5
2952
330
1F
100
AcDbEntity
  8
CONTINUOUS1
100
AcDbPolyline
 90
        4
 70
     0
 43
0.0
 10
11.90820548721339
 20
11.64880989591508
 10
11.8812474150678
 20
11.8072566384652
 10
11.82247683946762
 20
11.79531898442313
 10
11.85947295509125
 20
11.63891119910758
  0
LWPOLYLINE
  5
2955
330
1F
100
AcDbEntity
  8
CONTINUOUS1
100
AcDbPolyline
 90
        4
 70
     0
 43
0.0
 10
11.83187374268845
 20
11.63074543334802
 10
11.77781123613213
 20
11.78210379374941
 10
11.72200646950211
 20
11.7601420961426
 10
11.78560045789255
 20
11.61253480459117
  0
LWPOLYLINE
  5
2958
330
1F
100
AcDbEntity
  8
CONTINUOUS1
100
AcDbPolyline
 90
        4
 70
     0
 43
0.0
 10
11.75983850988466
 20
11.59970054222309
 10
11.68031423082236
 20
11.73937157328598
 10
11.62917087275798
 20
11.70805312718305
 10
11.71743046275811
 20
11.57373130225665
  0
LWPOLYLINE
  5
295B
330
1F
100
AcDbEntity
  8
CONTINUOUS1
100
AcDbPolyline
 90
        4
 70
     0
 43
0.0
 10
11.69428854289916
 20
11.55661850584764
 10
11.59171879630896
 20
11.68035837397015
 10
11.54679081186521
 20
11.64063477450804
 10
11.65703428049439
 20
11.52367971688692
  0
LWPOLYLINE
  5
295E
330
1F
100
AcDbEntity
  8
CONTINUOUS1
100
AcDbPolyline
 90
        4
 70
     0
 43
0.0
 10
11.63721554430892
 20
11.50280835009639
 10
11.51471686003817
 20
11.60685728200099
 10
11.47736936328772
 20
11.55993551064825
 10
11.60624701853752
 20
11.46390084057612
  0
LWPOLYLINE
  5
2961
330
1F
100
AcDbEntity
  8
CONTINUOUS1
100
AcDbPolyline
 90
        4
 70
     0
 43
0.0
 10
11.59035364829577
 20
11.43990506932258
 10
11.45164808687873
 20
11.52110159086466
 10
11.42301586261159
 20
11.46840734190028
 10
11.5666118221425
 20
11.39621102423139
  0
LWPOLYLINE
  5
2964
330
1F
100
AcDbEntity
  8
CONTINUOUS1
100
AcDbPolyline
 90
        4
 70
     0
 43
0.0
 10
11.55512672985681
 20
11.36981994788193
 10
11.40442878958872
 20
11.42569694384186
 10
11.38538181345065
 20
11.36883130535604
 10
11.53933298669539
 20
11.32266698866966
  0
LWPOLYLINE
  5
296C
330
1F
100
AcDbEntity
  8
CONTINUOUS1
100
AcDbPolyline
 90
        4
 70
     0
 43
0.0
 10
15.22421089252534
 20
10.98353974849106
 10
15.17421089252534
 20
10.98353974849106
 10
15.17421089252534
 20
11.42353974849106
 10
15.22421089252534
 20
11.42353974849106
  0
LWPOLYLINE
  5
296D
330
1F
100
AcDbEntity
  8
CONTINUOUS1
100
AcDbPolyline
 90
        4
 70
     0
 43
0.0
 10
18.56171089252534
 20
10.57853974849106
 10
18.66171089252534
 20
10.57853974849106
 10
18.66171089252534
 20
11.82853974849106
 10
18.56171089252534
 20
11.82853974849106
  0
LWPOLYLINE
  5
2973
330
1F
100
AcDbEntity
  8
CONTINUOUS1
100
AcDbPolyline
 90
        3
 70
     0
 43
0.0
 10
19.02424828617652
 20
11.57666474849107
 10
19.02424828617652
 20
11.51713482330276
 10
19.02424828617652
 20
11.42338482330276
  0
LWPOLYLINE
  5
2974
330
1F
100
AcDbEntity
  8
CONTINUOUS1
100
AcDbPolyline
 90
        2
 70
     0
 43
0.0
 10
19.02424828617652
 20
11.35744537836678
 10
19.02424828617652
 20
11.26369537836678
  0
LWPOLYLINE
  5
2979
330
1F
100
AcDbEntity
  8
CONTINUOUS1
100
AcDbPolyline
 90
        6
 70
     0
 43
0.0
 10
10.97702849093231
 20
10.34228974849107
 42
-0.4142135623730951
 10
10.92702849093231
 20
10.39228974849107
 10
10.9270284909323
 20
10.39728974849107
 42
0.4142135623730951
 10
10.8570284909323
 20
10.46728974849107
 10
10.85202849093231
 20
10.46728974849107
 42
-0.4142135623730951
 10
10.80202849093231
 20
10.51728974849107
  0
LWPOLYLINE
  5
297E
330
1F
100
AcDbEntity
  8
CONTINUOUS1
100
AcDbPolyline
 90
        6
 70
     0
 43
0.0
 10
13.14452849093231
 20
10.51728974849107
 42
-0.4142135623730951
 10
13.09452849093231
 20
10.46728974849107
 10
13.08952849093231
 20
10.46728974849107
 42
0.4142135623730951
 10
13.01952849093231
 20
10.39728974849107
 10
13.01952849093232
 20
10.39228974849107
 42
-0.4142135623730951
 10
12.96952849093232
 20
10.34228974849107
  0
LWPOLYLINE
  5
2983
330
1F
100
AcDbEntity
  8
CONTINUOUS1
100
AcDbPolyline
 90
        6
 70
     0
 43
0.0
 10
15.81421089252534
 20
10.51728974849106
 42
0.4142135623730951
 10
15.86421089252534
 20
10.46728974849106
 10
17.73921089252534
 20
10.46728974849105
 42
-0.4142135623730951
 10
17.78921089252534
 20
10.41728974849106
 10
17.78921089252534
 20
10.37808080775144
 42
0.3683778315684516
 10
17.83548869429466
 20
10.32654727465555
  0
LWPOLYLINE
  5
2986
330
1F
100
AcDbEntity
  8
CONTINUOUS1
100
AcDbPolyline
 90
        6
 70
     1
 43
0.0
 10
13.06452849093231
 20
6.867626863752311
 42
-0.4142135623730951
 10
13.14452849093231
 20
6.787626863752311
 10
13.16077849093231
 20
4.217626863752311
 10
10.7857784909323
 20
4.217626863752311
 10
10.80202849093231
 20
6.787626863752311
 42
-0.4142135623730951
 10
10.88202849093231
 20
6.86762686375231
  0
LWPOLYLINE
  5
2987
330
1F
100
AcDbEntity
  8
CONTINUOUS1
100
AcDbPolyline
 90
        4
 70
     0
 43
0.0
 10
10.7857784909323
 20
4.217626863752311
 10
10.7857784909323
 20
4.120126863752311
 10
13.16077849093231
 20
4.120126863752311
 10
12.3482784909323
 20
4.120126863752311
  0
LWPOLYLINE
  5
298A
330
1F
100
AcDbEntity
  8
CONTINUOUS1
100
AcDbPolyline
 90
        6
 70
     0
 43
0.0
 10
10.97702849093231
 20
6.867626863752309
 42
0.4142135623730951
 10
10.92702849093231
 20
6.817626863752309
 10
10.92702849093231
 20
4.949502098480991
 42
-0.4142135623730951
 10
10.87702849093231
 20
4.89950209848099
 10
10.84728287455339
 20
4.89950209848099
 42
0.3938393655559827
 10
10.79678238835656
 20
4.851650376833271
  0
LWPOLYLINE
  5
2994
330
1F
100
AcDbEntity
  8
CONTINUOUS1
100
AcDbPolyline
 90
        2
 70
     0
 43
0.0
 10
13.16077849093231
 20
4.120126863752311
 10
13.16077849093231
 20
4.217626863752311
  0
LWPOLYLINE
  5
2995
330
1F
100
AcDbEntity
  8
CONTINUOUS1
100
AcDbPolyline
 90
        6
 70
     0
 43
0.0
 10
12.96952849093231
 20
6.867626863752309
 42
-0.4142135623730951
 10
13.01952849093231
 20
6.817626863752309
 10
13.01952849093231
 20
4.949502098480991
 42
0.4142135623730951
 10
13.06952849093231
 20
4.89950209848099
 10
13.09927410731122
 20
4.89950209848099
 42
-0.393839365555983
 10
13.14977459350805
 20
4.851650376833271
  0
LWPOLYLINE
  5
299B
330
1F
100
AcDbEntity
  8
CONTINUOUS1
100
AcDbPolyline
 90
        4
 70
     0
 43
0.0
 10
11.75792993625875
 20
11.15853974849107
 10
11.72736183838515
 20
11.15853974849107
 42
0.3117548359084525
 10
11.92827849093231
 20
10.95762309594391
 10
11.92827849093231
 20
10.98819119381751
  0
LWPOLYLINE
  5
299D
330
1F
100
AcDbEntity
  8
CONTINUOUS1
100
AcDbPolyline
 90
        4
 70
     0
 43
0.0
 10
12.01827849093231
 20
10.98819119381751
 10
12.01827849093231
 20
10.95762309594391
 42
0.3117548359084524
 10
12.21919514347947
 20
11.15853974849107
 10
12.18862704560587
 20
11.15853974849107
  0
LWPOLYLINE
  5
29A1
330
1F
100
AcDbEntity
  8
CONTINUOUS1
100
AcDbPolyline
 90
        4
 70
     0
 43
0.0
 10
12.22912651910651
 20
10.83334819472549
 10
12.31738610910665
 20
10.69902636979909
 10
12.26624275104226
 20
10.66770792369616
 10
12.18671847197995
 20
10.80737895475906
  0
LWPOLYLINE
  5
29A4
330
1F
100
AcDbEntity
  8
CONTINUOUS1
100
AcDbPolyline
 90
        4
 70
     0
 43
0.0
 10
12.25226843896545
 20
10.8504609911345
 10
12.35483818555565
 20
10.72672112301199
 10
12.39976616999941
 20
10.7664447224741
 10
12.28952270137023
 20
10.88339978009522
  0
LWPOLYLINE
  5
29A7
330
1F
100
AcDbEntity
  8
CONTINUOUS1
100
AcDbPolyline
 90
        4
 70
     0
 43
0.0
 10
12.3093414375557
 20
10.90427114688575
 10
12.43184012182644
 20
10.80022221498115
 10
12.4691876185769
 20
10.84714398633389
 10
12.34030996332708
 20
10.94317865640602
  0
LWPOLYLINE
  5
29AA
330
1F
100
AcDbEntity
  8
CONTINUOUS1
100
AcDbPolyline
 90
        4
 70
     0
 43
0.0
 10
12.35620333356885
 20
10.96717442765956
 10
12.49490889498589
 20
10.88597790611748
 10
12.52354111925303
 20
10.93867215508186
 10
12.37994515972212
 20
11.01086847275075
  0
LWPOLYLINE
  5
29AD
330
1F
100
AcDbEntity
  8
CONTINUOUS1
100
AcDbPolyline
 90
        4
 70
     0
 43
0.0
 10
12.3914302520078
 20
11.03725954910021
 10
12.54212819227589
 20
10.98138255314029
 10
12.56117516841396
 20
11.03824819162611
 10
12.40722399516922
 20
11.08441250831248
  0
LWPOLYLINE
  5
29B0
330
1F
100
AcDbEntity
  8
CONTINUOUS1
100
AcDbPolyline
 90
        4
 70
     0
 43
0.0
 10
12.41395184078148
 20
11.11239701025752
 10
12.57206327924241
 20
11.08353733412686
 10
12.58094627451969
 20
11.14284652848413
 10
12.42131761605712
 20
11.16157616478574
  0
LWPOLYLINE
  5
29B4
330
1F
100
AcDbEntity
  8
CONTINUOUS1
100
AcDbPolyline
 90
        4
 70
     0
 43
0.0
 10
11.52347318905315
 20
11.21677569958655
 10
11.36275238844877
 20
11.2177411692324
 10
11.36430327934876
 20
11.15779049886233
 10
11.52475918701778
 20
11.16706463346684
  0
LWPOLYLINE
  5
29B7
330
1F
100
AcDbEntity
  8
CONTINUOUS1
100
AcDbPolyline
 90
        4
 70
     0
 43
0.0
 10
11.5280083435083
 20
11.13846674477215
 10
11.36956160095817
 20
11.11150867262656
 10
11.38149925500025
 20
11.05273809702638
 10
11.5379070403158
 20
11.08973421265
  0
LWPOLYLINE
  5
29BA
330
1F
100
AcDbEntity
  8
CONTINUOUS1
100
AcDbPolyline
 90
        4
 70
     0
 43
0.0
 10
11.54607280607536
 20
11.06213500024722
 10
11.39471444567397
 20
11.00807249369089
 10
11.41667614328078
 20
10.95226772706087
 10
11.5642834348322
 20
11.01586171545131
  0
LWPOLYLINE
  5
29BD
330
1F
100
AcDbEntity
  8
CONTINUOUS1
100
AcDbPolyline
 90
        4
 70
     0
 43
0.0
 10
11.57711769720029
 20
10.99009976744343
 10
11.43744666613739
 20
10.91057548838112
 10
11.46876511224033
 20
10.85943213031674
 10
11.60308693716673
 20
10.94769172031687
  0
LWPOLYLINE
  5
29C0
330
1F
100
AcDbEntity
  8
CONTINUOUS1
100
AcDbPolyline
 90
        4
 70
     0
 43
0.0
 10
11.62019973357573
 20
10.92454980045792
 10
11.49645986545323
 20
10.82198005386773
 10
11.53618346491534
 20
10.77705206942397
 10
11.65313852253646
 20
10.88729553805315
  0
LWPOLYLINE
  5
29C3
330
1F
100
AcDbEntity
  8
CONTINUOUS1
100
AcDbPolyline
 90
        4
 70
     0
 43
0.0
 10
11.67400988932699
 20
10.86747680186768
 10
11.56996095742238
 20
10.74497811759694
 10
11.61688272877513
 20
10.70763062084648
 10
11.71291739884726
 20
10.83650827609629
  0
LWPOLYLINE
  5
29C6
330
1F
100
AcDbEntity
  8
CONTINUOUS1
100
AcDbPolyline
 90
        4
 70
     0
 43
0.0
 10
11.7369131701008
 20
10.82061490585453
 10
11.65571664855871
 20
10.68190934443749
 10
11.7084108975231
 20
10.65327712017035
 10
11.78060721519199
 20
10.79687307970127
  0
LWPOLYLINE
  5
29C9
330
1F
100
AcDbEntity
  8
CONTINUOUS1
100
AcDbPolyline
 90
        5
 70
     0
 43
0.0
 10
11.33273980427878
 20
10.46808587606661
 10
11.33273980427878
 20
10.59359928493931
 10
11.38113291982698
 20
10.46808587606661
 10
11.42952603537519
 20
10.59359928493931
 10
11.42952603537519
 20
10.46808587606661
  0
LWPOLYLINE
  5
29CC
330
1F
100
AcDbEntity
  8
CONTINUOUS1
100
AcDbPolyline
 90
        2
 70
     0
 43
0.0
 10
11.4754689078023
 20
10.59359928493931
 10
11.4754689078023
 20
10.46808587606661
  0
LWPOLYLINE
  5
29CD
330
1F
100
AcDbEntity
  8
CONTINUOUS1
100
AcDbPolyline
 90
        4
 70
     0
 43
0.0
 10
11.60839683147669
 20
10.59359928493931
 10
11.60839683147669
 20
10.46808587606661
 10
11.52508715527928
 20
10.59359928493931
 10
11.52508715527928
 20
10.46808587606661
  0
LWPOLYLINE
  5
29D1
330
1F
100
AcDbEntity
  8
CONTINUOUS1
100
AcDbPolyline
 90
        5
 70
     0
 43
0.0
 10
12.33043448518044
 20
10.46808587606661
 10
12.33043448518044
 20
10.59359928493931
 10
12.37882760072864
 20
10.46808587606661
 10
12.42722071627684
 20
10.59359928493931
 10
12.42722071627684
 20
10.46808587606661
  0
LWPOLYLINE
  5
29D4
330
1F
100
AcDbEntity
  8
CONTINUOUS1
100
AcDbPolyline
 90
        2
 70
     0
 43
0.0
 10
12.57105818461465
 20
10.59359928493931
 10
12.65436786081207
 20
10.46808587606661
  0
LWPOLYLINE
  5
29D6
330
1F
100
AcDbEntity
  8
CONTINUOUS1
100
AcDbPolyline
 90
        3
 70
     0
 43
0.0
 10
12.5487875584528
 20
10.46808587606661
 10
12.5003944429046
 20
10.59359928493931
 10
12.4520013273564
 20
10.46808587606661
  0
LWPOLYLINE
  5
29D8
330
1F
100
AcDbEntity
  8
CONTINUOUS1
100
AcDbPolyline
 90
        2
 70
     0
 43
0.0
 10
12.47544485315283
 20
10.52888950082544
 10
12.52534403265639
 20
10.52888950082544
  0
LWPOLYLINE
  5
29D9
330
1F
100
AcDbEntity
  8
CONTINUOUS1
100
AcDbPolyline
 90
        2
 70
     0
 43
0.0
 10
12.57055897359146
 20
10.46842010353057
 10
12.65486707183527
 20
10.59326505747535
  0
LWPOLYLINE
  5
29DE
330
1F
100
AcDbEntity
  8
CONTINUOUS1
100
AcDbPolyline
 90
       10
 70
     0
 43
0.0
 10
11.9282784909323
 20
6.943872427415538
 10
11.9282784909323
 20
7.457626863752309
 10
11.72736183838515
 20
7.457626863752309
 10
11.72736183838515
 20
6.943872427415538
 10
11.53730504692605
 20
6.899593247662338
 10
12.40925193493856
 20
6.899593247662338
 10
12.21919514347947
 20
6.943872427415538
 10
12.21919514347946
 20
7.457626863752309
 10
12.0182784909323
 20
7.457626863752309
 10
12.01827849093231
 20
6.943872427415538
  0
LWPOLYLINE
  5
29E0
330
1F
100
AcDbEntity
  8
CONTINUOUS1
100
AcDbPolyline
 90
        2
 70
     0
 43
0.0
 10
12.40925193493856
 20
6.899593247662338
 10
12.42327849093231
 20
6.86762686375231
  0
LWPOLYLINE
  5
29E6
330
1F
100
AcDbEntity
  8
CONTINUOUS1
100
AcDbPolyline
 90
        4
 70
     0
 43
0.0
 10
11.75327849093231
 20
7.457626863752309
 10
11.75327849093231
 20
7.50762686375231
 10
12.1932784909323
 20
7.50762686375231
 10
12.1932784909323
 20
7.457626863752309
  0
LWPOLYLINE
  5
29EB
330
1F
100
AcDbEntity
  8
CONTINUOUS1
100
AcDbPolyline
 90
        2
 70
     0
 43
0.0
 10
12.21919514347947
 20
6.943872427415538
 10
11.72736183838515
 20
6.943872427415538
  0
LWPOLYLINE
  5
29EC
330
1F
100
AcDbEntity
  8
CONTINUOUS1
100
AcDbPolyline
 90
        2
 70
     0
 43
0.0
 10
11.53730504692605
 20
6.899593247662338
 10
11.52327849093231
 20
6.86762686375231
  0
LWPOLYLINE
  5
29F4
330
1F
100
AcDbEntity
  8
CONTINUOUS1
100
AcDbPolyline
 90
        4
 70
     0
 43
0.0
 10
11.3482784909323
 20
4.120126863752311
 10
11.3482784909323
 20
4.02012686375231
 10
12.5982784909323
 20
4.02012686375231
 10
12.5982784909323
 20
4.120126863752311
  0
LWPOLYLINE
  5
29FD
330
1F
100
AcDbEntity
  8
CONTINUOUS1
100
AcDbPolyline
 90
        2
 70
     0
 43
0.0
 10
19.02424828617652
 20
10.84185488338564
 10
19.02424828617652
 20
10.74810488338564
  0
LWPOLYLINE
  5
29FE
330
1F
100
AcDbEntity
  8
CONTINUOUS1
100
AcDbPolyline
 90
        2
 70
     0
 43
0.0
 10
19.02424828617652
 20
10.95609197326159
 10
19.02424828617652
 20
10.86234197326159
  0
LWPOLYLINE
  5
29FF
330
1F
100
AcDbEntity
  8
CONTINUOUS1
100
AcDbPolyline
 90
        2
 70
     0
 43
0.0
 10
19.02424828617652
 20
11.14829668413859
 10
19.02424828617652
 20
11.05454668413859
  0
LWPOLYLINE
  5
2A00
330
1F
100
AcDbEntity
  8
CONTINUOUS1
100
AcDbPolyline
 90
        4
 70
     0
 43
0.0
 10
11.81144638999436
 20
4.02012686375231
 10
11.81144638999436
 20
3.457626863752309
 10
12.12193342348502
 20
3.457626863752309
 10
12.12193342348502
 20
3.582626863752309
  0
LWPOLYLINE
  5
2A01
330
1F
100
AcDbEntity
  8
CONTINUOUS1
100
AcDbPolyline
 90
        4
 70
     0
 43
0.0
 10
12.32802849829671
 20
4.02012686375231
 10
12.32802849829671
 20
3.657589470101123
 10
12.23427849829671
 20
3.657589470101123
 10
12.23427849829671
 20
4.02012686375231
  0
LWPOLYLINE
  5
2A02
330
1F
100
AcDbEntity
  8
CONTINUOUS1
100
AcDbPolyline
 90
       12
 70
     0
 43
0.0
 10
11.55899855837959
 20
3.657589470101123
 10
11.58957124742473
 20
3.582626863752309
 10
11.62217586933444
 20
3.582626863752309
 10
11.65274855837959
 20
3.657589470101123
 10
11.55899855837959
 20
3.657589470101123
 10
11.55899855837959
 20
4.02012686375231
 10
12.38755842348502
 20
4.02012686375231
 10
12.38755842348502
 20
3.657589470101123
 10
12.32802849829671
 20
3.657589470101123
 10
12.29745580925157
 20
3.582626863752309
 10
12.26485118734186
 20
3.582626863752309
 10
12.23427849829671
 20
3.657589470101123
  0
LWPOLYLINE
  5
2A04
330
1F
100
AcDbEntity
  8
CONTINUOUS1
100
AcDbPolyline
 90
        6
 70
     0
 43
0.0
 10
12.07458905336073
 20
3.657589470101123
 10
12.10516174240588
 20
3.582626863752309
 10
12.13776636431558
 20
3.582626863752309
 10
12.16833905336073
 20
3.657589470101123
 10
12.07458905336073
 20
3.657589470101123
 10
12.07458905336073
 20
4.02012686375231
  0
LWPOLYLINE
  5
2A05
330
1F
100
AcDbEntity
  8
CONTINUOUS1
100
AcDbPolyline
 90
        2
 70
     0
 43
0.0
 10
12.16833905336073
 20
4.02012686375231
 10
12.16833905336073
 20
3.657589470101126
  0
LWPOLYLINE
  5
2A06
330
1F
100
AcDbEntity
  8
CONTINUOUS1
100
AcDbPolyline
 90
        4
 70
     0
 43
0.0
 10
11.95919035913254
 20
4.02012686375231
 10
11.95919035913254
 20
3.657589470101123
 10
11.86544035913254
 20
3.657589470101123
 10
11.86544035913254
 20
4.02012686375231
  0
LWPOLYLINE
  5
2A08
330
1F
100
AcDbEntity
  8
CONTINUOUS1
100
AcDbPolyline
 90
        6
 70
     0
 43
0.0
 10
11.67323564825554
 20
3.657589470101123
 10
11.70380833730069
 20
3.582626863752309
 10
11.73641295921039
 20
3.582626863752309
 10
11.76698564825555
 20
3.657589470101123
 10
11.67323564825554
 20
3.657589470101123
 10
11.67323564825554
 20
4.02012686375231
  0
LWPOLYLINE
  5
2A09
330
1F
100
AcDbEntity
  8
CONTINUOUS1
100
AcDbPolyline
 90
        2
 70
     0
 43
0.0
 10
11.76698564825555
 20
4.02012686375231
 10
11.76698564825555
 20
3.657589470101126
  0
LWPOLYLINE
  5
2A0B
330
1F
100
AcDbEntity
  8
CONTINUOUS1
100
AcDbPolyline
 90
        2
 70
     0
 43
0.0
 10
11.65274855837959
 20
4.02012686375231
 10
11.65274855837959
 20
3.657589470101126
  0
LWPOLYLINE
  5
2A16
330
1F
100
AcDbEntity
  8
CONTINUOUS1
100
AcDbPolyline
 90
        3
 70
     0
 43
0.0
 10
11.76337544145912
 20
3.648737435184655
 10
11.76337544145912
 20
3.506098663567739
 10
11.81144638999436
 20
3.506098663567739
  0
LWPOLYLINE
  5
2A18
330
1F
100
AcDbEntity
  8
CONTINUOUS1
100
AcDbPolyline
 90
        4
 70
     0
 43
0.0
 10
11.95919035913254
 20
3.657589470101123
 10
11.9286176700874
 20
3.582626863752309
 10
11.89601304817769
 20
3.582626863752309
 10
11.86544035913254
 20
3.657589470101123
  0
LWPOLYLINE
  5
2A22
330
1F
100
AcDbEntity
  8
CONTINUOUS1
100
AcDbPolyline
 90
        4
 70
     0
 43
0.0
 10
12.38755842348502
 20
3.657589470101123
 10
12.35698573443988
 20
3.582626863752309
 10
12.32438111253016
 20
3.582626863752309
 10
12.31091846089087
 20
3.61563656904051
  0
LWPOLYLINE
  5
2A2D
330
1F
100
AcDbEntity
  8
CONTINUOUS1
100
AcDbPolyline
 90
        2
 70
     0
 43
0.0
 10
18.46421089252534
 20
12.09603974849106
 10
18.46421089252534
 20
10.31103974849106
  0
LWPOLYLINE
  5
2A2E
330
1F
100
AcDbEntity
  8
CONTINUOUS1
100
AcDbPolyline
 90
        2
 70
     0
 43
0.0
 10
15.78224450861532
 20
10.7675663044848
 10
15.78224450861532
 20
11.63951319249732
  0
LWPOLYLINE
  5
2A30
330
1F
100
AcDbEntity
  8
CONTINUOUS1
100
AcDbPolyline
 90
        2
 70
     0
 43
0.0
 10
15.73796532886211
 20
11.44945640103822
 10
15.73796532886211
 20
10.9576230959439
  0
LWPOLYLINE
  5
2A35
330
1F
100
AcDbEntity
  8
CONTINUOUS1
100
AcDbPolyline
 90
        6
 70
     0
 43
0.0
 10
6.51812439385015
 20
11.26728824718449
 10
6.207012340910737
 20
11.36010532329404
 42
0.4142135623730667
 10
6.182129321344525
 20
11.34665782028169
 10
6.18195507294894
 20
11.34607375990894
 42
0.4142135623731031
 10
6.195402575961296
 20
11.32119074034272
 10
6.50651462890071
 20
11.22837366423317
  0
LWPOLYLINE
  5
2A36
330
1F
100
AcDbEntity
  8
CONTINUOUS1
100
AcDbPolyline
 90
        4
 70
     1
 43
0.0
 10
6.815015524422975
 20
11.17853974849107
 10
6.863086472958208
 20
11.17853974849107
 10
6.863086472958208
 20
11.22853974849107
 10
6.815015524422972
 20
11.22853974849107
 42
12.41948133962673
  0
LWPOLYLINE
  5
2A37
330
1F
100
AcDbEntity
  8
CONTINUOUS1
100
AcDbPolyline
 90
        8
 70
     1
 43
0.0
 10
7.848278490932303
 20
10.39103974849107
 42
-0.4142135623730946
 10
7.768278490932303
 20
10.31103974849107
 10
5.553278490932306
 20
10.31103974849107
 42
-0.4142135623730956
 10
5.473278490932308
 20
10.39103974849107
 10
5.473278490932306
 20
12.01603974849108
 42
-0.4142135623730946
 10
5.553278490932306
 20
12.09603974849108
 10
7.76827849093231
 20
12.09603974849108
 42
-0.4142135623730956
 10
7.848278490932308
 20
12.01603974849108
  0
LWPOLYLINE
  5
2A3A
330
1F
100
AcDbEntity
  8
CONTINUOUS1
100
AcDbPolyline
 90
        2
 70
     0
 43
0.0
 10
5.648918702359615
 20
11.92972836955504
 10
5.580171101784564
 20
12.01958966638215
  0
LWPOLYLINE
  5
2A3B
330
1F
100
AcDbEntity
  8
CONTINUOUS1
100
AcDbPolyline
 90
        2
 70
     0
 43
0.0
 10
5.62638588008005
 20
11.91248983060001
 10
5.557638279504999
 20
12.00235112742712
  0
LWPOLYLINE
  5
2A3C
330
1F
100
AcDbEntity
  8
CONTINUOUS1
100
AcDbPolyline
 90
        2
 70
     0
 43
0.0
 10
7.672638279505001
 20
11.92972836955504
 10
7.741385880080052
 20
12.01958966638215
  0
LWPOLYLINE
  5
2A3D
330
1F
100
AcDbEntity
  8
CONTINUOUS1
100
AcDbPolyline
 90
        2
 70
     0
 43
0.0
 10
7.695171101784566
 20
11.91248983060001
 10
7.763918702359617
 20
12.00235112742712
  0
LWPOLYLINE
  5
2A3E
330
1F
100
AcDbEntity
  8
CONTINUOUS1
100
AcDbPolyline
 90
        6
 70
     0
 43
0.0
 10
5.473278490932313
 20
11.79788136643842
 42
-0.4142135623730943
 10
5.523278490932312
 20
11.84788136643841
 10
5.603278490932311
 20
11.84788136643842
 42
0.4142135623730951
 10
5.721436872984966
 20
11.96603974849108
 10
5.721436872984971
 20
12.04603974849108
 42
-0.4142135623730951
 10
5.77143687298497
 20
12.09603974849108
  0
LWPOLYLINE
  5
2A43
330
1F
100
AcDbEntity
  8
CONTINUOUS1
100
AcDbPolyline
 90
        6
 70
     0
 43
0.0
 10
7.848278490932304
 20
11.79788136643842
 42
0.4142135623730944
 10
7.798278490932304
 20
11.84788136643841
 10
7.718278490932306
 20
11.84788136643842
 42
-0.4142135623730951
 10
7.600120108879643
 20
11.96603974849108
 10
7.600120108879646
 20
12.04603974849108
 42
0.4142135623730951
 10
7.550120108879646
 20
12.09603974849108
  0
LWPOLYLINE
  5
2A48
330
1F
100
AcDbEntity
  8
CONTINUOUS1
100
AcDbPolyline
 90
        6
 70
     0
 43
0.0
 10
6.802374958401102
 20
11.26960413299853
 10
7.07625649149083
 20
11.44394467600021
 42
0.4142135623730675
 10
7.082388459269026
 20
11.47155624913843
 10
7.082061164323139
 20
11.47207041549359
 42
0.4142135623731045
 10
7.054449591184926
 20
11.47820238327178
 10
6.780568058095191
 20
11.3038618402701
  0
LWPOLYLINE
  5
2A4D
330
1F
100
AcDbEntity
  8
CONTINUOUS1
100
AcDbPolyline
 90
        6
 70
     0
 43
0.0
 10
6.744179916582034
 20
11.33566947527344
 10
6.880328110186907
 20
11.63040560892494
 42
0.4142135623730665
 10
6.870558706270841
 20
11.65694913444671
 10
6.870005388922773
 20
11.65720472970236
 42
0.414213562373104
 10
6.84346186340101
 20
11.64743532578628
 10
6.707313669796135
 20
11.35269919213479
  0
LWPOLYLINE
  5
2A52
330
1F
100
AcDbEntity
  8
CONTINUOUS1
100
AcDbPolyline
 90
        6
 70
     0
 43
0.0
 10
6.659505511405498
 20
11.35978456287899
 10
6.614694276033134
 20
11.68133964725196
 42
0.4142135623730672
 10
6.592125217138843
 20
11.6983877433517
 10
6.59152155173706
 20
11.69830361782012
 42
0.4142135623731044
 10
6.574473455637317
 20
11.67573455892583
 10
6.619284691009674
 20
11.35417947455286
  0
LWPOLYLINE
  5
2A57
330
1F
100
AcDbEntity
  8
CONTINUOUS1
100
AcDbPolyline
 90
        6
 70
     0
 43
0.0
 10
6.57523526823428
 20
11.33429302588948
 10
6.363691854494337
 20
11.58057559369516
 42
0.4142135623730664
 10
6.335488657355419
 20
11.5827156103173
 10
6.335026303399682
 20
11.58231847326036
 42
0.4142135623731043
 10
6.332886286777537
 20
11.55411527612144
 10
6.544429700517476
 20
11.30783270831576
  0
LWPOLYLINE
  5
2A63
330
1F
100
AcDbEntity
  8
CONTINUOUS1
100
AcDbPolyline
 90
        2
 70
     0
 43
0.0
 10
5.648918702359615
 20
10.47735112742712
 10
5.580171101784564
 20
10.38748983060001
  0
LWPOLYLINE
  5
2A64
330
1F
100
AcDbEntity
  8
CONTINUOUS1
100
AcDbPolyline
 90
        2
 70
     0
 43
0.0
 10
5.62638588008005
 20
10.49458966638215
 10
5.557638279504999
 20
10.40472836955504
  0
LWPOLYLINE
  5
2A65
330
1F
100
AcDbEntity
  8
CONTINUOUS1
100
AcDbPolyline
 90
        2
 70
     0
 43
0.0
 10
7.695171101784566
 20
10.49458966638215
 10
7.763918702359617
 20
10.40472836955504
  0
LWPOLYLINE
  5
2A66
330
1F
100
AcDbEntity
  8
CONTINUOUS1
100
AcDbPolyline
 90
        2
 70
     0
 43
0.0
 10
7.672638279505001
 20
10.47735112742712
 10
7.741385880080052
 20
10.38748983060001
  0
LWPOLYLINE
  5
2A67
330
1F
100
AcDbEntity
  8
CONTINUOUS1
100
AcDbPolyline
 90
        6
 70
     0
 43
0.0
 10
5.473278490932313
 20
10.60919813054374
 42
0.4142135623730944
 10
5.523278490932312
 20
10.55919813054374
 10
5.603278490932311
 20
10.55919813054374
 42
-0.4142135623730951
 10
5.721436872984966
 20
10.44103974849108
 10
5.721436872984971
 20
10.36103974849108
 42
0.4142135623730951
 10
5.77143687298497
 20
10.31103974849107
  0
LWPOLYLINE
  5
2A6C
330
1F
100
AcDbEntity
  8
CONTINUOUS1
100
AcDbPolyline
 90
        6
 70
     0
 43
0.0
 10
7.550120108879646
 20
10.31103974849107
 42
0.4142135623730951
 10
7.600120108879643
 20
10.36103974849108
 10
7.600120108879644
 20
10.44103974849108
 42
-0.4142135623730951
 10
7.718278490932306
 20
10.55919813054374
 10
7.798278490932304
 20
10.55919813054374
 42
0.4142135623730946
 10
7.848278490932304
 20
10.60919813054374
  0
LWPOLYLINE
  5
2A72
330
1F
100
AcDbEntity
  8
CONTINUOUS1
100
AcDbPolyline
 90
        6
 70
     0
 43
0.0
 10
6.863086472958215
 20
11.22296797042013
 10
7.140449526185709
 20
11.22176599488785
 42
-0.4142135623731053
 10
7.160362667563049
 20
11.20167951185855
 10
7.160360026273991
 20
11.20107001858873
 42
-0.4142135623730678
 10
7.140273543244695
 20
11.18115687721138
 10
6.863086472958208
 20
11.18235809010716
  0
LWPOLYLINE
  5
2A77
330
1F
100
AcDbEntity
  8
CONTINUOUS1
100
AcDbPolyline
 90
        6
 70
     0
 43
0.0
 10
6.506305187343926
 20
11.1800437705697
 10
6.194400373800586
 20
11.08992658913248
 42
0.4142135623730666
 10
6.180737714704328
 20
11.06516105367653
 10
6.180906894503331
 20
11.06457550502954
 42
0.4142135623731042
 10
6.205672429959264
 20
11.05091284593329
 10
6.517577243502614
 20
11.14103002737052
  0
LWPOLYLINE
  5
2A7C
330
1F
100
AcDbEntity
  8
CONTINUOUS1
100
AcDbPolyline
 90
        6
 70
     0
 43
0.0
 10
6.543530163270808
 20
11.10025910093031
 10
6.329860163609436
 20
10.85581923031504
 42
0.4142135623730667
 10
6.33175566271047
 20
10.82759854493786
 10
6.332214557313225
 20
10.82719741557476
 42
0.4142135623731037
 10
6.360435242690414
 20
10.8290929146758
 10
6.574105242351791
 20
11.07353278529107
  0
LWPOLYLINE
  5
2A81
330
1F
100
AcDbEntity
  8
CONTINUOUS1
100
AcDbPolyline
 90
        6
 70
     0
 43
0.0
 10
6.617980654793122
 20
11.05326530714527
 10
6.570384184186131
 20
10.73211067914272
 42
0.4142135623730681
 10
6.587236033912837
 20
10.70939471205371
 10
6.587838947525375
 20
10.70930535771305
 42
0.4142135623731037
 10
6.610554914614368
 20
10.72615720743975
 10
6.658151385221366
 20
11.04731183544231
  0
LWPOLYLINE
  5
2A86
330
1F
100
AcDbEntity
  8
CONTINUOUS1
100
AcDbPolyline
 90
        6
 70
     0
 43
0.0
 10
6.706019156894569
 20
11.05398258669906
 10
6.839607758459099
 20
10.75807752652987
 42
0.4142135623730671
 10
6.86606561559271
 20
10.74807843677645
 10
6.866621127403039
 20
10.74832922683003
 42
0.4142135623731034
 10
6.87662021715645
 20
10.77478708396365
 10
6.743031615591924
 20
11.07069214413285
  0
LWPOLYLINE
  5
2A8B
330
1F
100
AcDbEntity
  8
CONTINUOUS1
100
AcDbPolyline
 90
        6
 70
     0
 43
0.0
 10
6.779694067208268
 20
11.10218320840141
 10
7.052054303839525
 20
10.92547548190405
 42
0.4142135623730681
 10
7.079717985682421
 20
10.93136790983273
 10
7.080049724615808
 20
10.93187922021054
 42
0.4142135623731057
 10
7.074157296687118
 20
10.95954290205344
 10
6.801797060055861
 20
11.13625062855081
  0
LWPOLYLINE
  5
2A94
330
1F
100
AcDbEntity
  8
CONTINUOUS1
100
AcDbPolyline
 90
        6
 70
     1
 43
0.0
 10
10.8820284909323
 20
14.78345286111284
 42
-0.4142135623730951
 10
10.8020284909323
 20
14.86345286111284
 10
10.7857784909323
 20
17.43345286111284
 10
13.16077849093231
 20
17.43345286111284
 10
13.14452849093231
 20
14.86345286111284
 42
-0.4142135623730951
 10
13.06452849093231
 20
14.78345286111284
  0
LWPOLYLINE
  5
2A95
330
1F
100
AcDbEntity
  8
CONTINUOUS1
100
AcDbPolyline
 90
        4
 70
     0
 43
0.0
 10
13.16077849093231
 20
17.43345286111284
 10
13.16077849093231
 20
17.53095286111285
 10
10.7857784909323
 20
17.53095286111285
 10
11.59827849093231
 20
17.53095286111285
  0
LWPOLYLINE
  5
2A9B
330
1F
100
AcDbEntity
  8
CONTINUOUS1
100
AcDbPolyline
 90
        6
 70
     0
 43
0.0
 10
10.97702849093231
 20
14.78345286111284
 42
-0.4142135623730951
 10
10.9270284909323
 20
14.83345286111284
 10
10.92702849093231
 20
16.70378139771559
 42
0.4142135623730951
 10
10.87702849093231
 20
16.75378139771559
 10
10.83781955019269
 20
16.75378139771559
 42
-0.3683778315684521
 10
10.7862860170968
 20
16.80005919948491
  0
LWPOLYLINE
  5
2AA2
330
1F
100
AcDbEntity
  8
CONTINUOUS1
100
AcDbPolyline
 90
        2
 70
     0
 43
0.0
 10
10.7857784909323
 20
17.53095286111285
 10
10.7857784909323
 20
17.43345286111284
  0
LWPOLYLINE
  5
2AA3
330
1F
100
AcDbEntity
  8
CONTINUOUS1
100
AcDbPolyline
 90
        6
 70
     0
 43
0.0
 10
12.96952849093231
 20
14.78345286111284
 42
0.4142135623730951
 10
13.01952849093231
 20
14.83345286111284
 10
13.0195284909323
 20
16.70378139771559
 42
-0.4142135623730951
 10
13.0695284909323
 20
16.75378139771559
 10
13.10873743167192
 20
16.75378139771559
 42
0.4327459267522347
 10
13.14527096476781
 20
16.80005919948491
  0
LWPOLYLINE
  5
2AA8
330
1F
100
AcDbEntity
  8
CONTINUOUS1
100
AcDbPolyline
 90
        4
 70
     0
 43
0.0
 10
12.19327849093231
 20
14.19345286111284
 10
12.19327849093231
 20
14.14345286111284
 10
11.75327849093231
 20
14.14345286111284
 10
11.75327849093231
 20
14.19345286111284
  0
LWPOLYLINE
  5
2AAA
330
1F
100
AcDbEntity
  8
CONTINUOUS1
100
AcDbPolyline
 90
       10
 70
     0
 43
0.0
 10
12.01827849093231
 20
14.70720729744961
 10
12.01827849093231
 20
14.19345286111284
 10
12.21919514347947
 20
14.19345286111284
 10
12.21919514347947
 20
14.70720729744961
 10
12.40925193493856
 20
14.75148647720282
 10
11.53730504692605
 20
14.75148647720282
 10
11.72736183838515
 20
14.70720729744961
 10
11.72736183838515
 20
14.19345286111284
 10
11.92827849093231
 20
14.19345286111284
 10
11.92827849093231
 20
14.70720729744961
  0
LWPOLYLINE
  5
2AB2
330
1F
100
AcDbEntity
  8
CONTINUOUS1
100
AcDbPolyline
 90
        2
 70
     0
 43
0.0
 10
12.40925193493856
 20
14.75148647720282
 10
12.42327849093231
 20
14.78345286111284
  0
LWPOLYLINE
  5
2AB4
330
1F
100
AcDbEntity
  8
CONTINUOUS1
100
AcDbPolyline
 90
        2
 70
     0
 43
0.0
 10
11.72736183838515
 20
14.70720729744961
 10
12.21919514347947
 20
14.70720729744961
  0
LWPOLYLINE
  5
2AB6
330
1F
100
AcDbEntity
  8
CONTINUOUS1
100
AcDbPolyline
 90
        2
 70
     0
 43
0.0
 10
11.53730504692605
 20
14.75148647720282
 10
11.5232784909323
 20
14.78345286111284
  0
LWPOLYLINE
  5
2AB7
330
1F
100
AcDbEntity
  8
CONTINUOUS1
100
AcDbPolyline
 90
        4
 70
     0
 43
0.0
 10
11.3482784909323
 20
17.53095286111285
 10
11.3482784909323
 20
17.63095286111285
 10
12.5982784909323
 20
17.63095286111285
 10
12.5982784909323
 20
17.53095286111285
  0
LWPOLYLINE
  5
2ABA
330
1F
100
AcDbEntity
  8
CONTINUOUS1
100
AcDbPolyline
 90
       11
 70
     0
 43
0.0
 10
12.30940188919364
 20
17.63095286111285
 10
12.30940188919364
 20
17.99349025476404
 10
12.33997457823878
 20
18.06845286111285
 10
12.3725792001485
 20
18.06845286111285
 10
12.40315188919364
 20
17.99349025476404
 10
12.40315188919364
 20
17.63095286111285
 10
11.57459202408821
 20
17.63095286111285
 10
11.57459202408821
 20
17.99349025476404
 10
11.60516471313335
 20
18.06845286111285
 10
11.63776933504306
 20
18.06845286111285
 10
11.65123198668236
 20
18.03544315582465
  0
LWPOLYLINE
  5
2ABC
330
1F
100
AcDbEntity
  8
CONTINUOUS1
100
AcDbPolyline
 90
        4
 70
     0
 43
0.0
 10
12.19516479931768
 20
17.63095286111285
 10
12.19516479931768
 20
17.99349025476404
 10
12.28891479931768
 20
17.99349025476404
 10
12.28891479931768
 20
17.63095286111285
  0
LWPOLYLINE
  5
2ABE
330
1F
100
AcDbEntity
  8
CONTINUOUS1
100
AcDbPolyline
 90
        6
 70
     0
 43
0.0
 10
12.00296008844068
 20
17.63095286111285
 10
12.00296008844068
 20
17.99349025476404
 10
12.03353277748584
 20
18.06845286111285
 10
12.06613739939554
 20
18.06845286111285
 10
12.09671008844068
 20
17.99349025476404
 10
12.09671008844068
 20
17.63095286111285
  0
LWPOLYLINE
  5
2AC0
330
1F
100
AcDbEntity
  8
CONTINUOUS1
100
AcDbPolyline
 90
        6
 70
     0
 43
0.0
 10
11.7938113942125
 20
17.63095286111285
 10
11.7938113942125
 20
17.99349025476404
 10
11.82438408325764
 20
18.06845286111285
 10
11.85698870516736
 20
18.06845286111285
 10
11.8875613942125
 20
17.99349025476404
 10
11.8875613942125
 20
17.63095286111285
  0
LWPOLYLINE
  5
2AC2
330
1F
100
AcDbEntity
  8
CONTINUOUS1
100
AcDbPolyline
 90
        6
 70
     0
 43
0.0
 10
11.57459202408821
 20
17.99349025476404
 10
11.63412194927651
 20
17.99349025476404
 10
11.66469463832166
 20
18.06845286111285
 10
11.69729926023137
 20
18.06845286111285
 10
11.72787194927652
 20
17.99349025476404
 10
11.72787194927652
 20
17.63095286111285
  0
LWPOLYLINE
  5
2AC4
330
1F
100
AcDbEntity
  8
CONTINUOUS1
100
AcDbPolyline
 90
        3
 70
     0
 43
0.0
 10
11.63412194927651
 20
17.63095286111285
 10
11.63412194927651
 20
17.99349025476404
 10
11.72787194927652
 20
17.99349025476404
  0
LWPOLYLINE
  5
2ACD
330
1F
100
AcDbEntity
  8
CONTINUOUS1
100
AcDbPolyline
 90
        3
 70
     0
 43
0.0
 10
11.88828797262344
 20
18.162128675039
 10
11.84021702408821
 20
18.162128675039
 10
11.84021702408821
 20
18.06845286111285
  0
LWPOLYLINE
  5
2AD1
330
1F
100
AcDbEntity
  8
CONTINUOUS1
100
AcDbPolyline
 90
        2
 70
     0
 43
0.0
 10
11.7938113942125
 20
17.99349025476404
 10
11.8875613942125
 20
17.99349025476404
  0
LWPOLYLINE
  5
2AD4
330
1F
100
AcDbEntity
  8
CONTINUOUS1
100
AcDbPolyline
 90
        2
 70
     0
 43
0.0
 10
12.00296008844068
 20
17.99349025476404
 10
12.09671008844068
 20
17.99349025476404
  0
LWPOLYLINE
  5
2AD6
330
1F
100
AcDbEntity
  8
CONTINUOUS1
100
AcDbPolyline
 90
        4
 70
     0
 43
0.0
 10
12.19877500611411
 20
18.0023422896805
 10
12.19877500611411
 20
18.19345286111285
 10
11.88828797262344
 20
18.19345286111285
 10
11.88828797262344
 20
17.63095286111285
  0
LWPOLYLINE
  5
2AD7
330
1F
100
AcDbEntity
  8
CONTINUOUS1
100
AcDbPolyline
 90
        4
 70
     0
 43
0.0
 10
12.28891479931768
 20
17.99349025476404
 10
12.25834211027254
 20
18.06845286111285
 10
12.22573748836284
 20
18.06845286111285
 10
12.19516479931768
 20
17.99349025476404
  0
LWPOLYLINE
  5
2ADE
330
1F
100
AcDbEntity
  8
CONTINUOUS1
100
AcDbPolyline
 90
        2
 70
     0
 43
0.0
 10
12.30940188919364
 20
17.99349025476404
 10
12.40315188919364
 20
17.99349025476404
  0
LWPOLYLINE
  5
2AEB
330
1F
100
AcDbEntity
  8
CONTINUOUS2
100
AcDbPolyline
 90
        4
 70
     1
 43
0.0
 10
11.81904145744165
 20
11.22853974849107
 10
11.77097050890641
 20
11.22853974849107
 10
11.77097050890641
 20
11.17853974849107
 10
11.81904145744165
 20
11.17853974849107
 42
12.4194813396268
  0
LWPOLYLINE
  5
2AEC
330
1F
100
AcDbEntity
  8
CONTINUOUS2
100
AcDbPolyline
 90
        8
 70
     1
 43
0.0
 10
10.8507784909323
 20
10.31103974849107
 42
-0.4546370553204747
 10
10.7857784909323
 20
10.39103974849107
 10
10.7857784909323
 20
12.01603974849107
 42
-0.4546370553204744
 10
10.85077849093231
 20
12.09603974849107
 10
13.09577849093231
 20
12.09603974849107
 42
-0.4546370553204742
 10
13.16077849093231
 20
12.01603974849107
 10
13.16077849093231
 20
10.39103974849107
 42
-0.4546370553204739
 10
13.09577849093231
 20
10.31103974849107
  0
LWPOLYLINE
  5
2B04
330
1F
100
AcDbEntity
  8
CENTER2
100
AcDbPolyline
 90
        2
 70
     0
 43
0.0
 10
11.88327849093232
 20
11.20353974849107
 10
12.06327849093232
 20
11.20353974849107
  0
LWPOLYLINE
  5
2B05
330
1F
100
AcDbEntity
  8
CENTER2
100
AcDbPolyline
 90
        2
 70
     0
 43
0.0
 10
11.97327849093231
 20
11.29353974849107
 10
11.97327849093231
 20
11.11353974849107
  0
VIEWPORT
  5
32
330
1B
100
AcDbEntity
 67
     1
  8
0
100
AcDbViewport
 10
8.200307552515363
 20
4.97472242065495
 30
0.0
 40
16.48332003945653
 41
10.55151166704846
 68
     1
 69
     1
1001
ACAD
1000
MVIEW
1002
{
1070
    16
1010
0.0
1020
0.0
1030
0.0
1010
0.0
1020
0.0
1030
1.0
1040
0.0
1040
10.55151166704846
1040
8.200307552515363
1040
4.97472242065495
1040
50.0
1040
0.0
1040
0.0
1070
     0
1070
   100
1070
     1
1070
     0
1070
     0
1070
     0
1070
     0
1070
     0
1040
0.0
1040
0.0
1040
0.0
1040
0.5
1040
0.5
1040
0.5
1040
0.5
1070
     0
1002
{
1002
}
1002
}
  0
LWPOLYLINE
  5
52C
330
1B
100
AcDbEntity
 67
     1
  8
VIEWPORT
100
AcDbPolyline
 90
        6
 70
     1
 43
0.0
 10
0.0
 20
0.0
 10
8.002499999999999
 20
0.0
 10
8.002499999999999
 20
0.912
 10
16.39999999999999
 20
0.912
 10
16.39999999999999
 20
10.0954
 10
0.0
 20
10.0954
  0
VIEWPORT
  5
52D
330
1B
100
AcDbEntity
 67
     1
  8
VIEWPORT
100
AcDbViewport
 10
8.199999999999999
 20
5.047699999999999
 30
0.0
 40
16.39999999999999
 41
10.0954
 68
     2
 69
     2
1001
ACAD
1000
MVIEW
1002
{
1070
    16
1010
0.0
1020
0.0
1030
0.0
1010
0.0
1020
0.0
1030
1.0
1040
0.0
1040
20.1908
1040
16.39999999999999
1040
10.09539999999999
1040
50.0
1040
0.0
1040
0.0
1070
     0
1070
   100
1070
     1
1070
     0
1070
     0
1070
     0
1070
     0
1070
     0
1040
0.0
1040
0.0
1040
0.0
1040
0.0
1040
0.0
1040
0.0
1040
0.0
1070
     0
1002
{
1002
}
1002
}
  0
INSERT
  5
54D
330
1B
100
AcDbEntity
 67
     1
  8
TITLEBLOCK
100
AcDbBlockReference
 66
     1
  2
TB-PAD
 10
0.0
 20
0.0
 30
0.0
  0
ATTRIB
  5
54F
330
54D
100
AcDbEntity
 67
     1
  8
TEXT1
 62
     0
100
AcDbText
 10
10.10183835760059
 20
0.7474460800344916
 30
0.0
 40
0.1
  1

  7
ROMANS
 72
     4
 11
10.10183835760059
 21
0.7474460800344916
 31
0.0
100
AcDbAttribute
  2
DESCRIPTION 1
 70
     0
  0
ATTRIB
  5
550
330
54D
100
AcDbEntity
 67
     1
  8
TEXT1
 62
     0
100
AcDbText
 10
8.40898121474345
 20
0.5588660198590035
 30
0.0
 40
0.1
  1
GENERAL PURPOSE PLUG-IN TIMER (8 PIN)
  7
ROMANS
 72
     4
 11
10.10183835760059
 21
0.6017231627161466
 31
0.0
100
AcDbAttribute
  2
DESCRIPTION 2
 70
     0
  0
ATTRIB
  5
551
330
54D
100
AcDbEntity
 67
     1
  8
TEXT1
 62
     0
100
AcDbText
 10
9.608505024267257
 20
0.4217145311120873
 30
0.0
 40
0.08
  1
9050-JCK(1)(2)
  7
ROMANS
 72
     4
 11
10.10183835760059
 21
0.4560002453978016
 31
0.0
100
AcDbAttribute
  2
DESCRIPTION 3
 70
     0
  0
ATTRIB
  5
552
330
54D
100
AcDbEntity
 67
     1
  8
TEXT1
 62
     0
100
AcDbText
 10
10.10183835760059
 20
0.3202773280794582
 30
0.0
 40
0.08
  1

  7
ROMANS
 72
     4
 11
10.10183835760059
 21
0.3202773280794582
 31
0.0
100
AcDbAttribute
  2
DESCRIPTION 4
 70
     0
  0
ATTRIB
  5
553
330
54D
100
AcDbEntity
 67
     1
  8
TEXT1
 62
     0
100
AcDbText
 10
10.10183835760059
 20
0.1845544107611148
 30
0.0
 40
0.08
  1

  7
ROMANS
 72
     4
 11
10.10183835760059
 21
0.1845544107611148
 31
0.0
100
AcDbAttribute
  2
DESCRIPTION 5
 70
     0
  0
ATTRIB
  5
554
330
54D
100
AcDbEntity
 67
     1
  8
TEXT1
 62
     0
100
AcDbText
 10
12.74772367969455
 20
0.09654053761198
 30
0.0
 40
0.12
  1
E0703401-01
 41
0.9512024731840066
  7
M_STANDARD
 11
12.74772367969455
 21
0.1565405376119799
 31
0.0
100
AcDbAttribute
  2
DWGNO
 70
     0
 74
     2
  0
ATTRIB
  5
555
330
54D
100
AcDbEntity
 67
     1
  8
TEXT1
 62
     0
100
AcDbText
 10
16.35506455815586
 20
-0.1507193164174602
 30
0.0
 40
0.08
  1

  7
ROMANS
 72
     2
 11
16.35506455815586
 21
-0.1107193164174602
 31
0.0
100
AcDbAttribute
  2
REF
 70
     0
 74
     2
  0
ATTRIB
  5
556
330
54D
100
AcDbEntity
 67
     1
  8
TEXT1
 62
     0
100
AcDbText
 10
0.0266402460664743
 20
-0.1507193164174602
 30
0.0
 40
0.08
  1
JUNE 2003
  7
ROMANS
 11
0.0266402460664743
 21
-0.1107193164174602
 31
0.0
100
AcDbAttribute
  2
DATE
 70
     0
 74
     2
  0
SEQEND
  5
54E
330
54D
100
AcDbEntity
 67
     1
  8
TITLEBLOCK
  0
INSERT
  5
59B
330
1B
100
AcDbEntity
 67
     1
  8
TITLEBLOCK
100
AcDbBlockReference
  2
LOGO-PAD
 10
12.275
 20
0.152
 30
0.0
  0
ENDSEC
  0
SECTION
  2
OBJECTS
  0
DICTIONARY
  5
C
330
0
100
AcDbDictionary
  3
ACAD_GROUP
350
D
  3
ACAD_LAYOUT
350
1A
  3
ACAD_MLINESTYLE
350
17
  3
ACAD_PLOTSETTINGS
350
19
  3
ACAD_PLOTSTYLENAME
350
E
  3
ACDBHEADERROUNDTRIPXREC
350
2D5D
  3
ACDBVARIABLEDICTIONARY
350
39D
  3
ASE_INDEX_DICTIONARY
350
159
  3
DWGPROPS
350
72
  0
DICTIONARY
  5
73
330
1F
100
AcDbDictionary
280
     1
  3
ACAD_LAYOUTSELFREF
360
2D7F
  0
DICTIONARY
  5
75
330
1B
100
AcDbDictionary
280
     1
  3
ACAD_LAYOUTSELFREF
360
2D7E
  0
DICTIONARY
  5
D
102
{ACAD_REACTORS
330
C
102
}
330
C
100
AcDbDictionary
  0
DICTIONARY
  5
1A
102
{ACAD_REACTORS
330
C
102
}
330
C
100
AcDbDictionary
  0
DICTIONARY
  5
17
102
{ACAD_REACTORS
330
C
102
}
330
C
100
AcDbDictionary
  3
STANDARD
350
18
  0
DICTIONARY
  5
19
102
{ACAD_REACTORS
330
C
102
}
330
C
100
AcDbDictionary
  3
A_SIZE_PAPER
350
52B
  3
B_SIZE_PAPER
350
52A
  3
D_SIZE_PAPER
350
53B
  0
ACDBDICTIONARYWDFLT
  5
E
102
{ACAD_REACTORS
330
C
102
}
330
C
100
AcDbDictionary
281
     1
  3
Normal
350
F
100
AcDbDictionaryWithDefault
340
F
  0
DICTIONARY
  5
2D5D
102
{ACAD_REACTORS
330
C
102
}
330
C
100
AcDbDictionary
  3
CEPSNTYPE
350
2D67
  3
DIMSTYLEDATA
350
2D6B
  3
FINGERPRINTGUID
350
2D68
  3
HYPERLINKBASE
350
2D60
  3
INSUNITS
350
2D66
  3
LAYOUTDICT
350
2D62
  3
LWETCUNION
350
2D65
  3
PLOTSETDICT
350
2D63
  3
PLOTSTYLNAMDICT
350
2D64
  3
PSVPSCALE
350
2D6A
  3
PUCSBASE
350
2D6E
  3
PUCSORGBACK
350
2D74
  3
PUCSORGBOTTOM
350
2D70
  3
PUCSORGFRONT
350
2D73
  3
PUCSORGLEFT
350
2D71
  3
PUCSORGRIGHT
350
2D72
  3
PUCSORGTOP
350
2D6F
  3
PUCSORTHOREF
350
2D6C
  3
PUCSORTHOVIEW
350
2D6D
  3
STYLESHEET
350
2D61
  3
TSTACKALIGN
350
2D5E
  3
TSTACKSIZE
350
2D5F
  3
UCSBASE
350
2D77
  3
UCSORGBACK
350
2D7D
  3
UCSORGBOTTOM
350
2D79
  3
UCSORGFRONT
350
2D7C
  3
UCSORGLEFT
350
2D7A
  3
UCSORGRIGHT
350
2D7B
  3
UCSORGTOP
350
2D78
  3
UCSORTHOREF
350
2D75
  3
UCSORTHOVIEW
350
2D76
  3
VERSIONGUID
350
2D69
  0
DICTIONARY
  5
39D
102
{ACAD_REACTORS
330
C
102
}
330
C
100
AcDbDictionary
  3
DIMASSOC
350
39E
  0
DICTIONARY
  5
159
102
{ACAD_REACTORS
330
C
102
}
330
C
100
AcDbDictionary
  3
ASEBLOCKHIERARCHYINDEXRECORD
350
15A
1001
DCO15
1040
1380956594.129
  0
XRECORD
  5
72
102
{ACAD_REACTORS
330
C
102
}
330
C
100
AcDbXrecord
  1
DWGPROPS COOKIE
  2

  3

  4

  6

  7

  8
mgp706
  9

300
=
301
=
302
=
303
=
304
=
305
=
306
=
307
=
308
=
309
=
 40
0.0868964930555556
 41
2451764.576708576
 42
2451774.507474664
  1

 90
        0
  0
XRECORD
  5
2D7F
102
{ACAD_REACTORS
330
73
102
}
330
73
100
AcDbXrecord
340
1F
  0
XRECORD
  5
2D7E
102
{ACAD_REACTORS
330
75
102
}
330
75
100
AcDbXrecord
340
1B
  0
MLINESTYLE
  5
18
102
{ACAD_REACTORS
330
17
102
}
330
17
100
AcDbMlineStyle
  2
STANDARD
 70
     0
  3

 62
   256
 51
90.0
 52
90.0
 71
     2
 49
0.5
 62
   256
  6
BYLAYER
 49
-0.5
 62
   256
  6
BYLAYER
  0
PLOTSETTINGS
  5
52B
102
{ACAD_REACTORS
330
19
102
}
330
19
100
AcDbPlotSettings
  1
A Size Paper
  2
none_device
  4
ANSI_A_(8.50_x_11.00_Inches)
  6

 40
6.349999904632568
 41
19.04999923706054
 42
6.350006103515625
 43
19.04998779296875
 44
215.8999938964843
 45
279.3999938964843
 46
0.0
 47
0.0
 48
0.0
 49
0.0
140
0.0
141
0.0
142
1.0
143
1.6
 70
 15012
 72
     0
 73
     1
 74
     1
  7
monochrome.ctb
 75
    16
147
1.0
148
0.0
149
0.0
  0
PLOTSETTINGS
  5
52A
102
{ACAD_REACTORS
330
19
102
}
330
19
100
AcDbPlotSettings
  1
B Size Paper
  2
none_device
  4
ANSI_B_(11.00_x_17.00_Inches)
  6

 40
6.349999904632568
 41
19.04999923706054
 42
6.350006103515625
 43
19.04998779296875
 44
279.3999938964843
 45
431.7999877929687
 46
0.0
 47
0.0
 48
0.0
 49
0.0
140
0.0
141
0.0
142
1.0
143
1.0
 70
 15012
 72
     0
 73
     1
 74
     1
  7
monochrome.ctb
 75
    16
147
1.0
148
0.0
149
0.0
  0
PLOTSETTINGS
  5
53B
102
{ACAD_REACTORS
330
19
102
}
330
19
100
AcDbPlotSettings
  1
D Size Paper
  2
none_device
  4
ANSI_D_(22.00_x_34.00_Inches)
  6

 40
6.349999904632568
 41
19.04999923706054
 42
6.3499755859375
 43
19.04998779296875
 44
558.7999877929687
 45
863.5999755859375
 46
8.889999999999998
 47
-3.809999999999999
 48
0.0
 49
0.0
140
0.0
141
0.0
142
1.0
143
0.5
 70
   740
 72
     0
 73
     1
 74
     1
  7
monochrome.ctb
 75
     0
147
2.0
148
0.0034886547032954
149
0.0199946439100934
  0
ACDBPLACEHOLDER
  5
F
102
{ACAD_REACTORS
330
E
102
}
330
E
100
AcDbPlaceHolder
280
     0
  0
XRECORD
  5
2D67
102
{ACAD_REACTORS
330
2D5D
102
}
330
2D5D
100
AcDbXrecord
 90
        0
  0
XRECORD
  5
2D6B
102
{ACAD_REACTORS
330
2D5D
102
}
330
2D5D
100
AcDbXrecord
1000
DSTYLE
1002
{
1070
    79
 70
     1
1070
   148
 40
0.1
1070
   341
340
195
1070
   342
340
195
1070
   371
 70
    -1
1070
   372
 70
    -1
1002
}
  0
XRECORD
  5
2D68
102
{ACAD_REACTORS
330
2D5D
102
}
330
2D5D
100
AcDbXrecord
  1
{4E694E3A-6C64-11D4-81E3-0004AC4461C9}
  0
XRECORD
  5
2D60
102
{ACAD_REACTORS
330
2D5D
102
}
330
2D5D
100
AcDbXrecord
  1

  0
XRECORD
  5
2D66
102
{ACAD_REACTORS
330
2D5D
102
}
330
2D5D
100
AcDbXrecord
 90
        1
  0
XRECORD
  5
2D62
102
{ACAD_REACTORS
330
2D5D
102
}
330
2D5D
100
AcDbXrecord
340
1A
  0
XRECORD
  5
2D65
102
{ACAD_REACTORS
330
2D5D
102
}
330
2D5D
100
AcDbXrecord
 90
    10269
  0
XRECORD
  5
2D63
102
{ACAD_REACTORS
330
2D5D
102
}
330
2D5D
100
AcDbXrecord
340
19
  0
XRECORD
  5
2D64
102
{ACAD_REACTORS
330
2D5D
102
}
330
2D5D
100
AcDbXrecord
340
E
  0
XRECORD
  5
2D6A
102
{ACAD_REACTORS
330
2D5D
102
}
330
2D5D
100
AcDbXrecord
 40
1.0
  0
XRECORD
  5
2D6E
102
{ACAD_REACTORS
330
2D5D
102
}
330
2D5D
100
AcDbXrecord
340
0
  0
XRECORD
  5
2D74
102
{ACAD_REACTORS
330
2D5D
102
}
330
2D5D
100
AcDbXrecord
 10
0.0
 20
0.0
 30
0.0
  0
XRECORD
  5
2D70
102
{ACAD_REACTORS
330
2D5D
102
}
330
2D5D
100
AcDbXrecord
 10
0.0
 20
0.0
 30
0.0
  0
XRECORD
  5
2D73
102
{ACAD_REACTORS
330
2D5D
102
}
330
2D5D
100
AcDbXrecord
 10
0.0
 20
0.0
 30
0.0
  0
XRECORD
  5
2D71
102
{ACAD_REACTORS
330
2D5D
102
}
330
2D5D
100
AcDbXrecord
 10
0.0
 20
0.0
 30
0.0
  0
XRECORD
  5
2D72
102
{ACAD_REACTORS
330
2D5D
102
}
330
2D5D
100
AcDbXrecord
 10
0.0
 20
0.0
 30
0.0
  0
XRECORD
  5
2D6F
102
{ACAD_REACTORS
330
2D5D
102
}
330
2D5D
100
AcDbXrecord
 10
0.0
 20
0.0
 30
0.0
  0
XRECORD
  5
2D6C
102
{ACAD_REACTORS
330
2D5D
102
}
330
2D5D
100
AcDbXrecord
340
0
  0
XRECORD
  5
2D6D
102
{ACAD_REACTORS
330
2D5D
102
}
330
2D5D
100
AcDbXrecord
 70
     0
  0
XRECORD
  5
2D61
102
{ACAD_REACTORS
330
2D5D
102
}
330
2D5D
100
AcDbXrecord
  1

  0
XRECORD
  5
2D5E
102
{ACAD_REACTORS
330
2D5D
102
}
330
2D5D
100
AcDbXrecord
 90
        1
  0
XRECORD
  5
2D5F
102
{ACAD_REACTORS
330
2D5D
102
}
330
2D5D
100
AcDbXrecord
 90
       70
  0
XRECORD
  5
2D77
102
{ACAD_REACTORS
330
2D5D
102
}
330
2D5D
100
AcDbXrecord
340
0
  0
XRECORD
  5
2D7D
102
{ACAD_REACTORS
330
2D5D
102
}
330
2D5D
100
AcDbXrecord
 10
0.0
 20
0.0
 30
0.0
  0
XRECORD
  5
2D79
102
{ACAD_REACTORS
330
2D5D
102
}
330
2D5D
100
AcDbXrecord
 10
0.0
 20
0.0
 30
0.0
  0
XRECORD
  5
2D7C
102
{ACAD_REACTORS
330
2D5D
102
}
330
2D5D
100
AcDbXrecord
 10
0.0
 20
0.0
 30
0.0
  0
XRECORD
  5
2D7A
102
{ACAD_REACTORS
330
2D5D
102
}
330
2D5D
100
AcDbXrecord
 10
0.0
 20
0.0
 30
0.0
  0
XRECORD
  5
2D7B
102
{ACAD_REACTORS
330
2D5D
102
}
330
2D5D
100
AcDbXrecord
 10
0.0
 20
0.0
 30
0.0
  0
XRECORD
  5
2D78
102
{ACAD_REACTORS
330
2D5D
102
}
330
2D5D
100
AcDbXrecord
 10
0.0
 20
0.0
 30
0.0
  0
XRECORD
  5
2D75
102
{ACAD_REACTORS
330
2D5D
102
}
330
2D5D
100
AcDbXrecord
340
0
  0
XRECORD
  5
2D76
102
{ACAD_REACTORS
330
2D5D
102
}
330
2D5D
100
AcDbXrecord
 70
     0
  0
XRECORD
  5
2D69
102
{ACAD_REACTORS
330
2D5D
102
}
330
2D5D
100
AcDbXrecord
  1
{3F69EA22-C72E-4130-AF05-4220B19453FE}
  0
DICTIONARYVAR
  5
39E
102
{ACAD_REACTORS
330
39D
102
}
330
39D
100
DictionaryVariables
280
     0
  1
1
  0
XRECORD
  5
15A
102
{ACAD_REACTORS
330
159
102
}
330
159
100
AcDbXrecord
  0
ENDSEC
  0
EOF
