  0
SECTION
  2
HEADER
  9
$ACADVER
  1
AC1009
  9
$INSBASE
 10
-146.27124
 20
-153.796096
 30
0.0
  9
$EXTMIN
 10
988.380426
 20
-125.893523
 30
0.0
  9
$EXTMAX
 10
1035.967183
 20
31.106477
 30
0.0
  9
$LIMMIN
 10
-407.970438
 20
-367.832444
  9
$LIMMAX
 10
429.804077
 20
234.370848
  9
$ORTHOMODE
 70
     1
  9
$REGENMODE
 70
     1
  9
$FILLMODE
 70
     1
  9
$QTEXTMODE
 70
     0
  9
$MIRRTEXT
 70
     1
  9
$DRAGMODE
 70
     2
  9
$LTSCALE
 40
10.0
  9
$OSMODE
 70
    33
  9
$ATTMODE
 70
     1
  9
$TEXTSIZE
 40
6.0
  9
$TRACEWID
 40
1.0
  9
$TEXTSTYLE
  7
ROMANS
  9
$CLAYER
  8
ALPHA
  9
$CELTYPE
  6
BYLAYER
  9
$CECOLOR
 62
   256
  9
$DIMSCALE
 40
1.0
  9
$DIMASZ
 40
3.0
  9
$DIMEXO
 40
0.5
  9
$DIMDLI
 40
0.38
  9
$DIMRND
 40
0.0
  9
$DIMDLE
 40
0.0
  9
$DIMEXE
 40
0.18
  9
$DIMTP
 40
0.0
  9
$DIMTM
 40
0.0
  9
$DIMTXT
 40
3.0
  9
$DIMCEN
 40
0.09
  9
$DIMTSZ
 40
0.0
  9
$DIMTOL
 70
     0
  9
$DIMLIM
 70
     0
  9
$DIMTIH
 70
     0
  9
$DIMTOH
 70
     0
  9
$DIMSE1
 70
     0
  9
$DIMSE2
 70
     0
  9
$DIMTAD
 70
     1
  9
$DIMZIN
 70
    12
  9
$DIMBLK
  1
OPEN30
  9
$DIMASO
 70
     1
  9
$DIMSHO
 70
     1
  9
$DIMPOST
  1

  9
$DIMAPOST
  1

  9
$DIMALT
 70
     0
  9
$DIMALTD
 70
     2
  9
$DIMALTF
 40
25.4
  9
$DIMLFAC
 40
1.0
  9
$DIMTOFL
 70
     0
  9
$DIMTVP
 40
0.0
  9
$DIMTIX
 70
     0
  9
$DIMSOXD
 70
     0
  9
$DIMSAH
 70
     0
  9
$DIMBLK1
  1

  9
$DIMBLK2
  1

  9
$DIMSTYLE
  2
ROMANS
  9
$DIMCLRD
 70
     0
  9
$DIMCLRE
 70
     0
  9
$DIMCLRT
 70
     0
  9
$DIMTFAC
 40
1.0
  9
$DIMGAP
 40
1.0
  9
$LUNITS
 70
     2
  9
$LUPREC
 70
     5
  9
$SKETCHINC
 40
0.1
  9
$FILLETRAD
 40
0.0
  9
$AUNITS
 70
     0
  9
$AUPREC
 70
     0
  9
$MENU
  1
acad
  9
$ELEVATION
 40
0.0
  9
$PELEVATION
 40
0.0
  9
$THICKNESS
 40
0.0
  9
$LIMCHECK
 70
     0
  9
$BLIPMODE
 70
     0
  9
$CHAMFERA
 40
0.0
  9
$CHAMFERB
 40
0.0
  9
$SKPOLY
 70
     0
  9
$TDCREATE
 40
2450365.355314
  9
$TDUPDATE
 40
2452577.698957
  9
$TDINDWG
 40
0.668104
  9
$TDUSRTIMER
 40
0.668104
  9
$USRTIMER
 70
     1
  9
$ANGBASE
 50
0.0
  9
$ANGDIR
 70
     0
  9
$PDMODE
 70
    32
  9
$PDSIZE
 40
0.0
  9
$PLINEWID
 40
0.0
  9
$COORDS
 70
     2
  9
$SPLFRAME
 70
     0
  9
$SPLINETYPE
 70
     6
  9
$SPLINESEGS
 70
     8
  9
$ATTDIA
 70
     0
  9
$ATTREQ
 70
     1
  9
$HANDLING
 70
     1
  9
$HANDSEED
  5
408A
  9
$SURFTAB1
 70
     6
  9
$SURFTAB2
 70
     6
  9
$SURFTYPE
 70
     6
  9
$SURFU
 70
     6
  9
$SURFV
 70
     6
  9
$UCSNAME
  2

  9
$UCSORG
 10
0.0
 20
0.0
 30
0.0
  9
$UCSXDIR
 10
1.0
 20
0.0
 30
0.0
  9
$UCSYDIR
 10
0.0
 20
1.0
 30
0.0
  9
$PUCSNAME
  2

  9
$PUCSORG
 10
0.0
 20
0.0
 30
0.0
  9
$PUCSXDIR
 10
1.0
 20
0.0
 30
0.0
  9
$PUCSYDIR
 10
0.0
 20
1.0
 30
0.0
  9
$USERI1
 70
     0
  9
$USERI2
 70
     0
  9
$USERI3
 70
     0
  9
$USERI4
 70
     0
  9
$USERI5
 70
     0
  9
$USERR1
 40
0.0
  9
$USERR2
 40
0.0
  9
$USERR3
 40
0.0
  9
$USERR4
 40
0.0
  9
$USERR5
 40
0.0
  9
$WORLDVIEW
 70
     1
  9
$SHADEDGE
 70
     3
  9
$SHADEDIF
 70
    70
  9
$TILEMODE
 70
     1
  9
$MAXACTVP
 70
    16
  9
$PLIMCHECK
 70
     0
  9
$PEXTMIN
 10
1.000000E+020
 20
1.000000E+020
 30
1.000000E+020
  9
$PEXTMAX
 10
-1.000000E+020
 20
-1.000000E+020
 30
-1.000000E+020
  9
$PLIMMIN
 10
0.0
 20
0.0
  9
$PLIMMAX
 10
12.0
 20
9.0
  9
$UNITMODE
 70
     0
  9
$VISRETAIN
 70
     0
  9
$PLINEGEN
 70
     0
  9
$PSLTSCALE
 70
     0
  0
ENDSEC
  0
SECTION
  2
TABLES
  0
TABLE
  2
VPORT
 70
     2
  0
VPORT
  2
*ACTIVE
 70
     0
 10
0.0
 20
0.0
 11
1.0
 21
1.0
 12
1012.218501
 22
-47.388177
 13
0.0
 23
0.0
 14
1.0
 24
1.0
 15
10.0
 25
10.0
 16
0.0
 26
0.0
 36
1.0
 17
0.0
 27
0.0
 37
0.0
 40
158.459341
 41
1.63142
 42
50.0
 43
0.0
 44
0.0
 50
0.0
 51
0.0
 71
     0
 72
   100
 73
     1
 74
     0
 75
     0
 76
     0
 77
     0
 78
     0
  0
ENDTAB
  0
TABLE
  2
LTYPE
 70
    24
  0
LTYPE
  2
CONTINUOUS
 70
     0
  3
Solid line
 72
    65
 73
     0
 40
0.0
  0
LTYPE
  2
AXES2
 70
     0
  3
___ _ ___ _ ___ _ ___ _ ___ _ ___ _ ___ _ ___ _
 72
    65
 73
     4
 40
1.125
 49
0.75
 49
-0.125
 49
0.125
 49
-0.125
  0
LTYPE
  2
ACAD_ISO04W100
 70
     0
  3
ISO Lang gestrichelt punktiert ____ . ____ . __
 72
    65
 73
     4
 40
30.5
 49
24.0
 49
-3.0
 49
0.5
 49
-3.0
  0
LTYPE
  2
AXES
 70
     0
  3
____ _ ____ _ ____ _ ____ _ ____ _ ____ _ ____ 
 72
    65
 73
     4
 40
2.0
 49
1.25
 49
-0.25
 49
0.25
 49
-0.25
  0
LTYPE
  2
AXESX2
 70
     0
  3
________  __  ________  __  ________  __  _____
 72
    65
 73
     4
 40
4.0
 49
2.5
 49
-0.5
 49
0.5
 49
-0.5
  0
LTYPE
  2
TIRETPT
 70
     0
  3
__ . __ . __ . __ . __ . __ . __ . __ . __ . __
 72
    65
 73
     4
 40
1.0
 49
0.5
 49
-0.25
 49
0.0
 49
-0.25
  0
LTYPE
  2
TIRETPT2
 70
     0
  3
_._._._._._._._._._._._._._._._._._._._._._._._
 72
    65
 73
     4
 40
0.5
 49
0.25
 49
-0.125
 49
0.0
 49
-0.125
  0
LTYPE
  2
TIRETPTX2
 70
     0
  3
____  .  ____  .  ____  .  ____  .  ____  .  __
 72
    65
 73
     4
 40
2.0
 49
1.0
 49
-0.5
 49
0.0
 49
-0.5
  0
LTYPE
  2
DISCONTINU
 70
     0
  3
__ __ __ __ __ __ __ __ __ __ __ __ __ __ __ __
 72
    65
 73
     2
 40
0.75
 49
0.5
 49
-0.25
  0
LTYPE
  2
DISCONTINU2
 70
     0
  3
_ _ _ _ _ _ _ _ _ _ _ _ _ _ _ _ _ _ _ _ _ _ _ _
 72
    65
 73
     2
 40
0.375
 49
0.25
 49
-0.125
  0
LTYPE
  2
DISCONTINUX2
 70
     0
  3
____  ____  ____  ____  ____  ____  ____  ____ 
 72
    65
 73
     2
 40
1.5
 49
1.0
 49
-0.5
  0
LTYPE
  2
DIVISE
 70
     0
  3
____ . . ____ . . ____ . . ____ . . ____ . . __
 72
    65
 73
     6
 40
1.25
 49
0.5
 49
-0.25
 49
0.0
 49
-0.25
 49
0.0
 49
-0.25
  0
LTYPE
  2
DIVISE2
 70
     0
  3
__..__..__..__..__..__..__..__..__..__..__..__.
 72
    65
 73
     6
 40
0.625
 49
0.25
 49
-0.125
 49
0.0
 49
-0.125
 49
0.0
 49
-0.125
  0
LTYPE
  2
DIVISEX2
 70
     0
  3
________  .  .  ________  .  .  ________  .  . 
 72
    65
 73
     6
 40
2.5
 49
1.0
 49
-0.5
 49
0.0
 49
-0.5
 49
0.0
 49
-0.5
  0
LTYPE
  2
POINTILLE
 70
     0
  3
. . . . . . . . . . . . . . . . . . . . . . . .
 72
    65
 73
     2
 40
0.25
 49
0.0
 49
-0.25
  0
LTYPE
  2
POINTILLE2
 70
     0
  3
...............................................
 72
    65
 73
     2
 40
0.125
 49
0.0
 49
-0.125
  0
LTYPE
  2
POINTILLEX2
 70
     0
  3
.  .  .  .  .  .  .  .  .  .  .  .  .  .  .  . 
 72
    65
 73
     2
 40
0.5
 49
0.0
 49
-0.5
  0
LTYPE
  2
CACHE
 70
     0
  3
__ __ __ __ __ __ __ __ __ __ __ __ __ __ __ __
 72
    65
 73
     2
 40
0.375
 49
0.25
 49
-0.125
  0
LTYPE
  2
CACHE2
 70
     0
  3
_ _ _ _ _ _ _ _ _ _ _ _ _ _ _ _ _ _ _ _ _ _ _ _
 72
    65
 73
     2
 40
0.1875
 49
0.125
 49
-0.0625
  0
LTYPE
  2
CACHEX2
 70
     0
  3
____ ____ ____ ____ ____ ____ ____ ____ ____ __
 72
    65
 73
     2
 40
0.75
 49
0.5
 49
-0.25
  0
LTYPE
  2
FANTOME
 70
     0
  3
______  __  __  ______  __  __  ______  __  __ 
 72
    65
 73
     6
 40
2.5
 49
1.25
 49
-0.25
 49
0.25
 49
-0.25
 49
0.25
 49
-0.25
  0
LTYPE
  2
FANTOME2
 70
     0
  3
___ _ _ ___ _ _ ___ _ _ ___ _ _ ___ _ _ ___ _ _
 72
    65
 73
     6
 40
1.25
 49
0.625
 49
-0.125
 49
0.125
 49
-0.125
 49
0.125
 49
-0.125
  0
LTYPE
  2
FANTOMEX2
 70
     0
  3
____________    ____    ____    ____________   
 72
    65
 73
     6
 40
5.0
 49
2.5
 49
-0.5
 49
0.5
 49
-0.5
 49
0.5
 49
-0.5
  0
LTYPE
  2
0
 70
     0
  3
MEDUSA PEN 0
 72
    65
 73
     0
 40
0.0
  0
ENDTAB
  0
TABLE
  2
LAYER
 70
    17
  0
LAYER
  2
0
 70
     0
 62
     7
  6
CONTINUOUS
  0
LAYER
  2
TEXTE_MOYEN
 70
     0
 62
   131
  6
CONTINUOUS
  0
LAYER
  2
ALPHA
 70
     0
 62
   254
  6
CONTINUOUS
  0
LAYER
  2
COTATION1
 70
     0
 62
    50
  6
CONTINUOUS
  0
LAYER
  2
AXE
 70
     0
 62
    80
  6
AXES2
  0
LAYER
  2
DEFPOINTS
 70
     0
 62
     7
  6
CONTINUOUS
  0
LAYER
  2
HACHURES1
 70
     0
 62
   130
  6
CONTINUOUS
  0
LAYER
  2
FMULT
 70
     0
 62
   210
  6
CONTINUOUS
  0
LAYER
  2
FDP_CARTOUCHE
 70
     0
 62
   136
  6
CONTINUOUS
  0
LAYER
  2
FDP_TEXTES
 70
     0
 62
   171
  6
CONTINUOUS
  0
LAYER
  2
FDP_LOGO_MG
 70
     0
 62
    30
  6
CONTINUOUS
  0
LAYER
  2
FDP_LOGO_SCH
 70
     0
 62
    90
  6
CONTINUOUS
  0
LAYER
  2
FDP_FDP
 70
     0
 62
   170
  6
CONTINUOUS
  0
LAYER
  2
POINTILLE_COURT2
 70
     0
 62
    41
  6
CACHE2
  0
LAYER
  2
POINTILLE_MOYEN2
 70
     0
 62
   141
  6
CACHE
  0
LAYER
  2
POINTILLE_LONG2
 70
     0
 62
   241
  6
CACHEX2
  0
LAYER
  2
ALPHA_FIN
 70
     0
 62
   255
  6
CONTINUOUS
  0
ENDTAB
  0
TABLE
  2
STYLE
 70
     5
  0
STYLE
  2
ROMANS
 70
     0
 40
0.0
 41
1.0
 50
0.0
 71
     0
 42
6.0
  3
romans
  4

  0
STYLE
  2
STANDARD
 70
     0
 40
0.2
 41
1.0
 50
0.0
 71
     0
 42
0.2
  3
txt
  4

  0
STYLE
  2
STD
 70
     0
 40
0.0
 41
1.0
 50
0.0
 71
     0
 42
0.0
  3
txt
  4

  0
STYLE
  2
INFOCAR
 70
     0
 40
0.0
 41
1.34
 50
0.0
 71
     0
 42
2.0
  3
ROMANS.SHX
  4

  0
STYLE
  2
CARTOUCHE
 70
     0
 40
0.0
 41
1.0
 50
0.0
 71
     0
 42
0.2
  3
ROMANS.SHX
  4

  0
ENDTAB
  0
TABLE
  2
VIEW
 70
     0
  0
ENDTAB
  0
TABLE
  2
UCS
 70
     0
  0
ENDTAB
  0
TABLE
  2
APPID
 70
     3
  0
APPID
  2
ACAD
 70
     0
  0
APPID
  2
AVE_RENDER
 70
     0
  0
APPID
  2
AVE_MATERIAL
 70
     0
  0
ENDTAB
  0
TABLE
  2
DIMSTYLE
 70
     3
  0
DIMSTYLE
  2
SC_DEFAUT
 70
     0
  3

  4

  5
OPEN30
  6

  7

 40
1.0
 41
2.0
 42
0.3
 43
0.1
 44
0.5
 45
0.0
 46
0.0
 47
0.0
 48
0.0
140
2.0
141
0.0
142
0.0
143
25.4
144
1.0
145
0.0
146
1.0
147
0.6
 71
     0
 72
     0
 73
     0
 74
     0
 75
     0
 76
     0
 77
     1
 78
    12
170
     0
171
     2
172
     0
173
     0
174
     0
175
     0
176
     0
177
     0
178
     0
  0
DIMSTYLE
  2
ROMANS
 70
     0
  3

  4

  5
OPEN30
  6

  7

 40
1.0
 41
3.0
 42
0.5
 43
0.38
 44
0.18
 45
0.0
 46
0.0
 47
0.0
 48
0.0
140
3.0
141
0.09
142
0.0
143
25.4
144
1.0
145
0.0
146
1.0
147
1.0
 71
     0
 72
     0
 73
     0
 74
     0
 75
     0
 76
     0
 77
     1
 78
    12
170
     0
171
     2
172
     0
173
     0
174
     0
175
     0
176
     0
177
     0
178
     0
  0
DIMSTYLE
  2
STANDARD
 70
     0
  3

  4

  5

  6

  7

 40
1.0
 41
0.18
 42
0.0625
 43
0.38
 44
0.18
 45
0.0
 46
0.0
 47
0.0
 48
0.0
140
0.18
141
0.09
142
0.0
143
25.4
144
1.0
145
0.0
146
1.0
147
0.09
 71
     0
 72
     0
 73
     1
 74
     1
 75
     0
 76
     0
 77
     0
 78
     0
170
     0
171
     2
172
     0
173
     0
174
     0
175
     0
176
     0
177
     0
178
     0
  0
ENDTAB
  0
ENDSEC
  0
SECTION
  2
BLOCKS
  0
BLOCK
  8
0
  2
$MODEL_SPACE
 70
     0
 10
0.0
 20
0.0
 30
0.0
  3
$MODEL_SPACE
  1

  0
ENDBLK
  5
4083
  8
0
  0
BLOCK
 67
     1
  8
0
  2
$PAPER_SPACE
 70
     0
 10
0.0
 20
0.0
 30
0.0
  3
$PAPER_SPACE
  1

  0
ENDBLK
  5
4081
 67
     1
  8
0
  0
BLOCK
  8
0
  2
COTE
 70
     0
 10
0.0
 20
0.0
 30
0.0
  3
COTE
  1

  0
ENDBLK
  5
35
  8
0
  0
BLOCK
  8
0
  2
FOND
 70
     0
 10
0.0
 20
0.0
 30
0.0
  3
FOND
  1

  0
ENDBLK
  5
39
  8
0
  0
BLOCK
  8
0
  2
SCH_ISO
 70
     0
 10
0.0
 20
0.0
 30
0.0
  3
SCH_ISO
  1

  0
ENDBLK
  5
24AD
  8
0
  0
BLOCK
  8
0
  2
_OPEN30
 70
     0
 10
0.0
 20
0.0
 30
0.0
  3
_OPEN30
  1

  0
LINE
  5
27E1
  8
COTATION1
 62
     0
 10
-1.0
 20
0.267949
 30
0.0
 11
0.0
 21
0.0
 31
0.0
1001
ACAD
1000
RTLwPs
1070
   158
  0
LINE
  5
27E2
  8
COTATION1
 62
     0
 10
0.0
 20
0.0
 30
0.0
 11
-1.0
 21
-0.267949
 31
0.0
1001
ACAD
1000
RTLwPs
1070
   158
  0
LINE
  5
27E3
  8
COTATION1
 62
     0
 10
0.0
 20
0.0
 30
0.0
 11
-1.0
 21
0.0
 31
0.0
1001
ACAD
1000
RTLwPs
1070
   158
  0
ENDBLK
  5
27E5
  8
0
  0
BLOCK
  8
0
  2
*D4
 70
     1
 10
0.0
 20
0.0
 30
0.0
  3
*D4
  1

  0
LINE
  5
3FE4
  8
COTATION1
 62
     0
 10
1018.330426
 20
-50.893523
 30
0.0
 11
1005.500426
 21
-50.893523
 31
0.0
1001
ACAD
1000
RTLwPs
1070
   158
  0
LINE
  5
3FE5
  8
COTATION1
 62
     0
 10
1017.880426
 20
-53.893523
 30
0.0
 11
1005.500426
 21
-53.893523
 31
0.0
1001
ACAD
1000
RTLwPs
1070
   158
  0
LINE
  5
3FE6
  8
COTATION1
 62
     0
 10
1005.680426
 20
-47.893523
 30
0.0
 11
1005.680426
 21
-44.893523
 31
0.0
1001
ACAD
1000
RTLwPs
1070
   158
  0
LINE
  5
3FE7
  8
COTATION1
 62
     0
 10
1005.680426
 20
-56.893523
 30
0.0
 11
1005.680426
 21
-59.893523
 31
0.0
1001
ACAD
1000
RTLwPs
1070
   158
  0
INSERT
  5
3FE8
  8
COTATION1
 62
     0
  2
_OPEN30
 10
1005.680426
 20
-50.893523
 30
0.0
 41
3.0
 42
3.0
 43
3.0
 50
270.0
1001
ACAD
1000
RTLwPs
1070
   158
  0
INSERT
  5
3FE9
  8
COTATION1
 62
     0
  2
_OPEN30
 10
1005.680426
 20
-53.893523
 30
0.0
 41
3.0
 42
3.0
 43
3.0
 50
90.0
1001
ACAD
1000
RTLwPs
1070
   158
  0
TEXT
  5
3FEA
  8
COTATION1
 62
     0
 10
1004.680426
 20
-53.822094
 30
0.0
 40
3.0
  1
3
 50
90.0
1001
ACAD
1000
MTEXTBEGIN
1070
    73
1070
     1
1070
    44
1040
1.0
1070
    74
1070
     0
1000
MTEXTEND
  0
POINT
  5
3FEB
  8
DEFPOINTS
 62
     0
 10
1018.830426
 20
-50.893523
 30
0.0
  0
POINT
  5
3FEC
  8
DEFPOINTS
 62
     0
 10
1018.380426
 20
-53.893523
 30
0.0
  0
POINT
  5
3FED
  8
DEFPOINTS
 62
     0
 10
1005.680426
 20
-53.893523
 30
0.0
  0
ENDBLK
  5
3C76
  8
0
  0
BLOCK
  8
0
  2
*D5
 70
     1
 10
0.0
 20
0.0
 30
0.0
  3
*D5
  1

  0
LINE
  5
3FBD
  8
COTATION1
 62
     0
 10
1020.980426
 20
-50.843523
 30
0.0
 11
1020.980426
 21
-43.385481
 31
0.0
1001
ACAD
1000
RTLwPs
1070
   158
  0
LINE
  5
3FBE
  8
COTATION1
 62
     0
 10
1018.380426
 20
-50.843523
 30
0.0
 11
1018.380426
 21
-43.385481
 31
0.0
1001
ACAD
1000
RTLwPs
1070
   158
  0
LINE
  5
3FBF
  8
COTATION1
 62
     0
 10
1023.980426
 20
-43.565481
 30
0.0
 11
1026.980426
 21
-43.565481
 31
0.0
1001
ACAD
1000
RTLwPs
1070
   158
  0
LINE
  5
3FC0
  8
COTATION1
 62
     0
 10
1015.380426
 20
-43.565481
 30
0.0
 11
988.380426
 21
-43.565481
 31
0.0
1001
ACAD
1000
RTLwPs
1070
   158
  0
INSERT
  5
3FC1
  8
COTATION1
 62
     0
  2
_OPEN30
 10
1020.980426
 20
-43.565481
 30
0.0
 41
3.0
 42
3.0
 43
3.0
 50
180.0
1001
ACAD
1000
RTLwPs
1070
   158
  0
INSERT
  5
3FC2
  8
COTATION1
 62
     0
  2
_OPEN30
 10
1018.380426
 20
-43.565481
 30
0.0
 41
3.0
 42
3.0
 43
3.0
1001
ACAD
1000
RTLwPs
1070
   158
  0
TEXT
  5
3FC3
  8
COTATION1
 62
     0
 10
988.808998
 20
-42.565481
 30
0.0
 40
3.0
  1
M2.6x0.45
1001
ACAD
1000
MTEXTBEGIN
1070
    73
1070
     1
1070
    44
1040
1.0
1070
    74
1070
     0
1000
MTEXTEND
  0
POINT
  5
3FC4
  8
DEFPOINTS
 62
     0
 10
1020.980426
 20
-51.343523
 30
0.0
  0
POINT
  5
3FC5
  8
DEFPOINTS
 62
     0
 10
1018.380426
 20
-51.343523
 30
0.0
  0
POINT
  5
3FC6
  8
DEFPOINTS
 62
     0
 10
1018.380426
 20
-43.565481
 30
0.0
  0
ENDBLK
  5
3DEB
  8
0
  0
BLOCK
  8
0
  2
*D6
 70
     1
 10
0.0
 20
0.0
 30
0.0
  3
*D6
  1

  0
LINE
  5
3FA9
  8
COTATION1
 62
     0
 10
1021.680426
 20
-65.693523
 30
0.0
 11
1021.680426
 21
-76.073523
 31
0.0
1001
ACAD
1000
RTLwPs
1070
   158
  0
LINE
  5
3FAA
  8
COTATION1
 62
     0
 10
1017.680426
 20
-65.693523
 30
0.0
 11
1017.680426
 21
-76.073523
 31
0.0
1001
ACAD
1000
RTLwPs
1070
   158
  0
LINE
  5
3FAB
  8
COTATION1
 62
     0
 10
1024.680426
 20
-75.893523
 30
0.0
 11
1027.680426
 21
-75.893523
 31
0.0
1001
ACAD
1000
RTLwPs
1070
   158
  0
LINE
  5
3FAC
  8
COTATION1
 62
     0
 10
1014.680426
 20
-75.893523
 30
0.0
 11
994.823283
 21
-75.893523
 31
0.0
1001
ACAD
1000
RTLwPs
1070
   158
  0
INSERT
  5
3FAD
  8
COTATION1
 62
     0
  2
_OPEN30
 10
1021.680426
 20
-75.893523
 30
0.0
 41
3.0
 42
3.0
 43
3.0
 50
180.0
1001
ACAD
1000
RTLwPs
1070
   158
  0
INSERT
  5
3FAE
  8
COTATION1
 62
     0
  2
_OPEN30
 10
1017.680426
 20
-75.893523
 30
0.0
 41
3.0
 42
3.0
 43
3.0
1001
ACAD
1000
RTLwPs
1070
   158
  0
TEXT
  5
3FAF
  8
COTATION1
 62
     0
 10
995.251855
 20
-74.893523
 30
0.0
 40
3.0
  1
M4x0.7
1001
ACAD
1000
MTEXTBEGIN
1070
    73
1070
     1
1070
    44
1040
1.0
1070
    74
1070
     0
1000
MTEXTEND
  0
POINT
  5
3FB0
  8
DEFPOINTS
 62
     0
 10
1021.680426
 20
-65.193523
 30
0.0
  0
POINT
  5
3FB1
  8
DEFPOINTS
 62
     0
 10
1017.680426
 20
-65.193523
 30
0.0
  0
POINT
  5
3FB2
  8
DEFPOINTS
 62
     0
 10
1017.680426
 20
-75.893523
 30
0.0
  0
ENDBLK
  5
3E2A
  8
0
  0
BLOCK
  8
0
  2
*D7
 70
     1
 10
0.0
 20
0.0
 30
0.0
  3
*D7
  1

  0
LINE
  5
3FC7
  8
COTATION1
 62
     0
 10
1017.880426
 20
-53.893523
 30
0.0
 11
1005.500426
 21
-53.893523
 31
0.0
1001
ACAD
1000
RTLwPs
1070
   158
  0
LINE
  5
3FC8
  8
COTATION1
 62
     0
 10
1017.880426
 20
-65.893523
 30
0.0
 11
1005.500426
 21
-65.893523
 31
0.0
1001
ACAD
1000
RTLwPs
1070
   158
  0
LINE
  5
3FC9
  8
COTATION1
 62
     0
 10
1005.680426
 20
-56.893523
 30
0.0
 11
1005.680426
 21
-62.893523
 31
0.0
1001
ACAD
1000
RTLwPs
1070
   158
  0
INSERT
  5
3FCA
  8
COTATION1
 62
     0
  2
_OPEN30
 10
1005.680426
 20
-53.893523
 30
0.0
 41
3.0
 42
3.0
 43
3.0
 50
90.0
1001
ACAD
1000
RTLwPs
1070
   158
  0
INSERT
  5
3FCB
  8
COTATION1
 62
     0
  2
_OPEN30
 10
1005.680426
 20
-65.893523
 30
0.0
 41
3.0
 42
3.0
 43
3.0
 50
270.0
1001
ACAD
1000
RTLwPs
1070
   158
  0
TEXT
  5
3FCC
  8
COTATION1
 62
     0
 10
1004.680426
 20
-62.964952
 30
0.0
 40
3.0
  1
12
 50
90.0
1001
ACAD
1000
MTEXTBEGIN
1070
    73
1070
     1
1070
    44
1040
1.0
1070
    74
1070
     0
1000
MTEXTEND
  0
POINT
  5
3FCD
  8
DEFPOINTS
 62
     0
 10
1018.380426
 20
-53.893523
 30
0.0
  0
POINT
  5
3FCE
  8
DEFPOINTS
 62
     0
 10
1018.380426
 20
-65.893523
 30
0.0
  0
POINT
  5
3FCF
  8
DEFPOINTS
 62
     0
 10
1005.680426
 20
-65.893523
 30
0.0
  0
ENDBLK
  5
3E93
  8
0
  0
BLOCK
  8
0
  2
*D8
 70
     1
 10
0.0
 20
0.0
 30
0.0
  3
*D8
  1

  0
LINE
  5
3FB3
  8
COTATION1
 62
     0
 10
1020.780426
 20
-115.393523
 30
0.0
 11
1020.780426
 21
-109.11638
 31
0.0
1001
ACAD
1000
RTLwPs
1070
   158
  0
LINE
  5
3FB4
  8
COTATION1
 62
     0
 10
1018.580426
 20
-115.393523
 30
0.0
 11
1018.580426
 21
-109.11638
 31
0.0
1001
ACAD
1000
RTLwPs
1070
   158
  0
LINE
  5
3FB5
  8
COTATION1
 62
     0
 10
1023.780426
 20
-109.29638
 30
0.0
 11
1026.780426
 21
-109.29638
 31
0.0
1001
ACAD
1000
RTLwPs
1070
   158
  0
LINE
  5
3FB6
  8
COTATION1
 62
     0
 10
1015.580426
 20
-109.29638
 30
0.0
 11
1001.580426
 21
-109.29638
 31
0.0
1001
ACAD
1000
RTLwPs
1070
   158
  0
INSERT
  5
3FB7
  8
COTATION1
 62
     0
  2
_OPEN30
 10
1020.780426
 20
-109.29638
 30
0.0
 41
3.0
 42
3.0
 43
3.0
 50
180.0
1001
ACAD
1000
RTLwPs
1070
   158
  0
INSERT
  5
3FB8
  8
COTATION1
 62
     0
  2
_OPEN30
 10
1018.580426
 20
-109.29638
 30
0.0
 41
3.0
 42
3.0
 43
3.0
1001
ACAD
1000
RTLwPs
1070
   158
  0
TEXT
  5
3FB9
  8
COTATION1
 62
     0
 10
1002.294712
 20
-108.29638
 30
0.0
 40
3.0
  1
%%c
1001
ACAD
1000
MTEXTBEGIN
1070
    73
1070
     1
1070
    44
1040
1.0
1070
    74
1070
     0
1000
MTEXTEND
  0
TEXT
  5
402A
  8
COTATION1
 62
     0
 10
1005.008998
 20
-108.29638
 30
0.0
 40
3.0
  1
2.2
1001
ACAD
1000
R13OBJECT
1002
{
1005
3FB9
1002
}
  0
POINT
  5
3FBA
  8
DEFPOINTS
 62
     0
 10
1020.780426
 20
-115.893523
 30
0.0
  0
POINT
  5
3FBB
  8
DEFPOINTS
 62
     0
 10
1018.580426
 20
-115.893523
 30
0.0
  0
POINT
  5
3FBC
  8
DEFPOINTS
 62
     0
 10
1018.580426
 20
-109.29638
 30
0.0
  0
ENDBLK
  5
3EBE
  8
0
  0
ENDSEC
  0
SECTION
  2
ENTITIES
  0
INSERT
  5
32
  8
0
  2
COTE
 10
0.0
 20
0.0
 30
0.0
  0
INSERT
  5
36
  8
0
  2
FOND
 10
0.0
 20
0.0
 30
0.0
  0
INSERT
  5
24AE
  8
ALPHA
  2
SCH_ISO
 10
-66.27012
 20
-238.940658
 30
0.0
  0
DIMENSION
  5
3C68
  8
COTATION1
  2
*D4
 10
1005.680426
 20
-53.893523
 30
0.0
 11
1005.680426
 21
-52.393523
 31
0.0
 70
   128
 13
1018.830426
 23
-50.893523
 33
0.0
 14
1018.380426
 24
-53.893523
 34
0.0
 50
90.0
  0
LINE
  5
3C95
  8
AXE
 10
1019.680426
 20
31.106477
 30
0.0
 11
1019.680426
 21
-125.893523
 31
0.0
  0
LINE
  5
3C96
  8
ALPHA
 10
1019.680426
 20
-65.893523
 30
0.0
 11
1020.980426
 21
-65.893523
 31
0.0
  0
LINE
  5
3C97
  8
ALPHA
 10
1021.680426
 20
-54.593523
 30
0.0
 11
1021.680426
 21
-55.893525
 31
0.0
  0
LINE
  5
3C98
  8
ALPHA
 10
1019.680426
 20
-53.893523
 30
0.0
 11
1020.980426
 21
-53.893523
 31
0.0
  0
LINE
  5
3C99
  8
ALPHA_FIN
 10
1020.980426
 20
-53.893523
 30
0.0
 11
1020.980426
 21
-55.893525
 31
0.0
  0
LINE
  5
3C9A
  8
ALPHA
 10
1019.680426
 20
-65.193523
 30
0.0
 11
1021.680426
 21
-65.193523
 31
0.0
  0
LINE
  5
3C9B
  8
ALPHA
 10
1020.980426
 20
-65.893523
 30
0.0
 11
1021.680426
 21
-65.193523
 31
0.0
  0
LINE
  5
3C9D
  8
ALPHA
 10
1019.680426
 20
-54.593523
 30
0.0
 11
1021.680426
 21
-54.593523
 31
0.0
  0
LINE
  5
3C9E
  8
ALPHA
 10
1021.680426
 20
-54.593523
 30
0.0
 11
1020.980426
 21
-53.893523
 31
0.0
  0
LINE
  5
3C9F
  8
ALPHA
 10
1019.680426
 20
-50.893523
 30
0.0
 11
1020.530426
 21
-50.893523
 31
0.0
  0
LINE
  5
3CA0
  8
ALPHA
 10
1020.980426
 20
-51.343523
 30
0.0
 11
1020.980426
 21
-53.893523
 31
0.0
  0
LINE
  5
3CA1
  8
ALPHA_FIN
 10
1020.530426
 20
-50.893523
 30
0.0
 11
1020.530426
 21
-53.893523
 31
0.0
  0
LINE
  5
3CA2
  8
ALPHA
 10
1019.680426
 20
-51.343523
 30
0.0
 11
1020.980426
 21
-51.343523
 31
0.0
  0
LINE
  5
3CA3
  8
ALPHA
 10
1020.980426
 20
-51.343523
 30
0.0
 11
1020.530426
 21
-50.893523
 31
0.0
  0
LINE
  5
3CA4
  8
ALPHA
 10
1020.780426
 20
-65.893523
 30
0.0
 11
1020.780426
 21
-115.893523
 31
0.0
  0
LINE
  5
3D17
  8
ALPHA_FIN
 10
1018.380426
 20
-53.893523
 30
0.0
 11
1018.380426
 21
-55.893525
 31
0.0
  0
LINE
  5
3D18
  8
ALPHA
 10
1017.680426
 20
-54.593523
 30
0.0
 11
1017.680426
 21
-55.893525
 31
0.0
  0
LINE
  5
3D19
  8
ALPHA
 10
1018.380426
 20
-65.893523
 30
0.0
 11
1017.680426
 21
-65.193523
 31
0.0
  0
LINE
  5
3D1A
  8
ALPHA
 10
1019.680426
 20
-65.893523
 30
0.0
 11
1018.380426
 21
-65.893523
 31
0.0
  0
LINE
  5
3D1B
  8
ALPHA
 10
1019.680426
 20
-65.193523
 30
0.0
 11
1017.680426
 21
-65.193523
 31
0.0
  0
LINE
  5
3D1C
  8
ALPHA_FIN
 10
1018.830426
 20
-50.893523
 30
0.0
 11
1018.830426
 21
-53.893523
 31
0.0
  0
LINE
  5
3D1D
  8
ALPHA
 10
1018.380426
 20
-51.343523
 30
0.0
 11
1018.830426
 21
-50.893523
 31
0.0
  0
LINE
  5
3D1E
  8
ALPHA
 10
1018.380426
 20
-51.343523
 30
0.0
 11
1018.380426
 21
-53.893523
 31
0.0
  0
LINE
  5
3D1F
  8
ALPHA
 10
1019.680426
 20
-50.893523
 30
0.0
 11
1018.830426
 21
-50.893523
 31
0.0
  0
LINE
  5
3D20
  8
ALPHA
 10
1019.680426
 20
-51.343523
 30
0.0
 11
1018.380426
 21
-51.343523
 31
0.0
  0
LINE
  5
3D21
  8
ALPHA
 10
1017.680426
 20
-54.593523
 30
0.0
 11
1018.380426
 21
-53.893523
 31
0.0
  0
LINE
  5
3D22
  8
ALPHA
 10
1019.680426
 20
-53.893523
 30
0.0
 11
1018.380426
 21
-53.893523
 31
0.0
  0
LINE
  5
3D23
  8
ALPHA
 10
1019.680426
 20
-54.593523
 30
0.0
 11
1017.680426
 21
-54.593523
 31
0.0
  0
LINE
  5
3D24
  8
ALPHA
 10
1018.580426
 20
-65.893523
 30
0.0
 11
1018.580426
 21
-115.893523
 31
0.0
  0
ARC
  5
3D29
  8
ALPHA
 10
1022.567927
 20
-56.825915
 30
0.0
 40
1.567609
 50
232.121711
 51
307.87829
  0
ARC
  5
3D2A
  8
ALPHA
 10
1022.567927
 20
-57.461133
 30
0.0
 40
1.567609
 50
52.12171
 51
127.878285
  0
ARC
  5
3D2B
  8
ALPHA
 10
1019.680426
 20
-61.668732
 30
0.0
 40
5.775209
 50
70.529401
 51
109.470597
  0
ARC
  5
3D2C
  8
ALPHA
 10
1019.680426
 20
-52.618316
 30
0.0
 40
5.775209
 50
250.529399
 51
289.470602
  0
ARC
  5
3D2D
  8
ALPHA
 10
1016.792925
 20
-56.825915
 30
0.0
 40
1.567609
 50
232.121711
 51
307.87829
  0
ARC
  5
3D2E
  8
ALPHA
 10
1016.792925
 20
-57.461133
 30
0.0
 40
1.567609
 50
52.12171
 51
127.878285
  0
LINE
  5
3D2F
  8
ALPHA
 10
1015.830435
 20
-58.063254
 30
0.0
 11
1015.830435
 21
-56.223794
 31
0.0
  0
LINE
  5
3D30
  8
ALPHA
 10
1021.605437
 20
-58.063254
 30
0.0
 11
1021.605437
 21
-56.223794
 31
0.0
  0
LINE
  5
3D31
  8
ALPHA
 10
1017.755416
 20
-58.063254
 30
0.0
 11
1017.755416
 21
-56.223794
 31
0.0
  0
LINE
  5
3D32
  8
ALPHA
 10
1023.530417
 20
-58.063254
 30
0.0
 11
1023.530417
 21
-56.223794
 31
0.0
  0
LINE
  5
3D33
  8
ALPHA
 10
1022.567916
 20
-55.893525
 30
0.0
 11
1016.792937
 21
-55.893525
 31
0.0
  0
LINE
  5
3D34
  8
ALPHA
 10
1015.680426
 20
-58.393523
 30
0.0
 11
1023.680426
 21
-58.393523
 31
0.0
  0
LINE
  5
3D41
  8
ALPHA
 10
1016.792937
 20
-61.693521
 30
0.0
 11
1022.567916
 21
-61.693521
 31
0.0
  0
ARC
  5
3D42
  8
ALPHA
 10
1016.792925
 20
-60.125913
 30
0.0
 40
1.567609
 50
232.121711
 51
307.87829
  0
ARC
  5
3D43
  8
ALPHA
 10
1016.792925
 20
-60.761131
 30
0.0
 40
1.567609
 50
52.12171
 51
127.878285
  0
LINE
  5
3D44
  8
ALPHA
 10
1023.680426
 20
-59.193523
 30
0.0
 11
1015.680426
 21
-59.193523
 31
0.0
  0
LINE
  5
3D45
  8
ALPHA
 10
1015.830435
 20
-61.363252
 30
0.0
 11
1015.830435
 21
-59.523792
 31
0.0
  0
LINE
  5
3D46
  8
ALPHA
 10
1023.530417
 20
-61.363252
 30
0.0
 11
1023.530417
 21
-59.523792
 31
0.0
  0
LINE
  5
3D47
  8
ALPHA
 10
1017.755416
 20
-61.363252
 30
0.0
 11
1017.755416
 21
-59.523792
 31
0.0
  0
LINE
  5
3D48
  8
ALPHA
 10
1021.605437
 20
-61.363252
 30
0.0
 11
1021.605437
 21
-59.523792
 31
0.0
  0
ARC
  5
3D49
  8
ALPHA
 10
1019.680426
 20
-55.918314
 30
0.0
 40
5.775209
 50
250.529399
 51
289.470602
  0
ARC
  5
3D4A
  8
ALPHA
 10
1022.567927
 20
-60.125913
 30
0.0
 40
1.567609
 50
232.121711
 51
307.87829
  0
ARC
  5
3D4B
  8
ALPHA
 10
1022.567927
 20
-60.761131
 30
0.0
 40
1.567609
 50
52.12171
 51
127.878285
  0
ARC
  5
3D4C
  8
ALPHA
 10
1019.680426
 20
-64.968731
 30
0.0
 40
5.775209
 50
70.529401
 51
109.470597
  0
LINE
  5
3D4D
  8
ALPHA
 10
1021.680426
 20
-61.693521
 30
0.0
 11
1021.680426
 21
-65.193523
 31
0.0
  0
LINE
  5
3D4E
  8
ALPHA_FIN
 10
1020.980426
 20
-61.693521
 30
0.0
 11
1020.980426
 21
-65.893523
 31
0.0
  0
LINE
  5
3D4F
  8
ALPHA_FIN
 10
1018.380426
 20
-61.693521
 30
0.0
 11
1018.380426
 21
-65.893523
 31
0.0
  0
LINE
  5
3D50
  8
ALPHA
 10
1017.680426
 20
-61.693521
 30
0.0
 11
1017.680426
 21
-65.193523
 31
0.0
  0
LINE
  5
3D51
  8
ALPHA
 10
1015.680426
 20
-58.393523
 30
0.0
 11
1015.680426
 21
-59.193523
 31
0.0
  0
LINE
  5
3D52
  8
ALPHA
 10
1023.680426
 20
-58.393523
 30
0.0
 11
1023.680426
 21
-59.193523
 31
0.0
  0
TEXT
  5
3D8E
  8
AXE
 10
1013.823283
 20
-125.893523
 30
0.0
 40
6.0
  1
Y
 72
     2
 11
1018.680426
 21
-125.893523
 31
0.0
  0
LINE
  5
3D8F
  8
AXE
 10
1010.680426
 20
-58.793523
 30
0.0
 11
1035.967183
 21
-58.793523
 31
0.0
  0
TEXT
  5
3D90
  8
AXE
 10
1030.934784
 20
-57.793523
 30
0.0
 40
6.0
  1
X
 72
     2
 11
1035.791927
 21
-57.793523
 31
0.0
  0
DIMENSION
  5
3DDF
  8
COTATION1
  2
*D5
 10
1018.380426
 20
-43.565481
 30
0.0
 11
1000.380426
 21
-41.065481
 31
0.0
  1
M<>x0.45
 13
1020.980426
 23
-51.343523
 33
0.0
 14
1018.380426
 24
-51.343523
 34
0.0
  0
DIMENSION
  5
3E1D
  8
COTATION1
  2
*D6
 10
1017.680426
 20
-75.893523
 30
0.0
 11
1003.251855
 21
-73.393523
 31
0.0
  1
M<>x0.7
 13
1021.680426
 23
-65.193523
 33
0.0
 14
1017.680426
 24
-65.193523
 34
0.0
  0
DIMENSION
  5
3E86
  8
COTATION1
  2
*D7
 10
1005.680426
 20
-65.893523
 30
0.0
 11
1003.180426
 21
-59.893523
 31
0.0
 13
1018.380426
 23
-53.893523
 33
0.0
 14
1018.380426
 24
-65.893523
 34
0.0
 50
90.0
  0
DIMENSION
  5
3EB1
  8
COTATION1
  2
*D8
 10
1018.580426
 20
-109.29638
 30
0.0
 11
1007.080426
 21
-106.79638
 31
0.0
  1
%%c<>
 13
1020.780426
 23
-115.893523
 33
0.0
 14
1018.580426
 24
-115.893523
 34
0.0
  0
LINE
  5
3EF1
  8
ALPHA
 10
1019.680426
 20
-38.893523
 30
0.0
 11
1020.530426
 21
-38.893523
 31
0.0
  0
LINE
  5
3EF3
  8
ALPHA
 10
1018.580426
 20
-23.893523
 30
0.0
 11
1018.580426
 21
26.106477
 31
0.0
  0
LINE
  5
3EF4
  8
ALPHA
 10
1020.780426
 20
-23.893523
 30
0.0
 11
1020.780426
 21
26.106477
 31
0.0
  0
LINE
  5
3EF5
  8
ALPHA
 10
1017.680426
 20
-35.193523
 30
0.0
 11
1017.680426
 21
-33.893521
 31
0.0
  0
LINE
  5
3EF6
  8
ALPHA_FIN
 10
1018.380426
 20
-35.893523
 30
0.0
 11
1018.380426
 21
-33.893521
 31
0.0
  0
LINE
  5
3EF7
  8
ALPHA_FIN
 10
1020.980426
 20
-35.893523
 30
0.0
 11
1020.980426
 21
-33.893521
 31
0.0
  0
LINE
  5
3EF8
  8
ALPHA
 10
1021.680426
 20
-35.193523
 30
0.0
 11
1021.680426
 21
-33.893521
 31
0.0
  0
LINE
  5
3EF9
  8
ALPHA
 10
1015.680426
 20
-31.393523
 30
0.0
 11
1023.680426
 21
-31.393523
 31
0.0
  0
LINE
  5
3EFA
  8
ALPHA
 10
1023.680426
 20
-30.593523
 30
0.0
 11
1015.680426
 21
-30.593523
 31
0.0
  0
LINE
  5
3EFB
  8
ALPHA
 10
1015.680426
 20
-31.393523
 30
0.0
 11
1015.680426
 21
-30.593523
 31
0.0
  0
LINE
  5
3EFC
  8
ALPHA
 10
1019.680426
 20
-24.593523
 30
0.0
 11
1021.680426
 21
-24.593523
 31
0.0
  0
LINE
  5
3EFD
  8
ALPHA
 10
1019.680426
 20
-23.893523
 30
0.0
 11
1020.980426
 21
-23.893523
 31
0.0
  0
LINE
  5
3EFE
  8
ALPHA
 10
1020.980426
 20
-23.893523
 30
0.0
 11
1021.680426
 21
-24.593523
 31
0.0
  0
LINE
  5
3EFF
  8
ALPHA
 10
1018.380426
 20
-23.893523
 30
0.0
 11
1017.680426
 21
-24.593523
 31
0.0
  0
LINE
  5
3F00
  8
ALPHA
 10
1019.680426
 20
-23.893523
 30
0.0
 11
1018.380426
 21
-23.893523
 31
0.0
  0
LINE
  5
3F01
  8
ALPHA
 10
1019.680426
 20
-24.593523
 30
0.0
 11
1017.680426
 21
-24.593523
 31
0.0
  0
ARC
  5
3F02
  8
ALPHA
 10
1022.567927
 20
-32.961131
 30
0.0
 40
1.567609
 50
52.12171
 51
127.878289
  0
ARC
  5
3F03
  8
ALPHA
 10
1022.567927
 20
-32.325913
 30
0.0
 40
1.567609
 50
232.121715
 51
307.87829
  0
ARC
  5
3F04
  8
ALPHA
 10
1019.680426
 20
-28.118314
 30
0.0
 40
5.775209
 50
250.529403
 51
289.470599
  0
ARC
  5
3F05
  8
ALPHA
 10
1019.680426
 20
-37.168731
 30
0.0
 40
5.775209
 50
70.529398
 51
109.470601
  0
LINE
  5
3F06
  8
ALPHA
 10
1021.605437
 20
-31.723792
 30
0.0
 11
1021.605437
 21
-33.563252
 31
0.0
  0
LINE
  5
3F07
  8
ALPHA
 10
1017.755416
 20
-31.723792
 30
0.0
 11
1017.755416
 21
-33.563252
 31
0.0
  0
LINE
  5
3F08
  8
ALPHA
 10
1023.530417
 20
-31.723792
 30
0.0
 11
1023.530417
 21
-33.563252
 31
0.0
  0
LINE
  5
3F09
  8
ALPHA
 10
1023.530417
 20
-28.423794
 30
0.0
 11
1023.530417
 21
-30.263254
 31
0.0
  0
LINE
  5
3F0A
  8
ALPHA
 10
1017.755416
 20
-28.423794
 30
0.0
 11
1017.755416
 21
-30.263254
 31
0.0
  0
LINE
  5
3F0B
  8
ALPHA
 10
1021.605437
 20
-28.423794
 30
0.0
 11
1021.605437
 21
-30.263254
 31
0.0
  0
ARC
  5
3F0C
  8
ALPHA
 10
1019.680426
 20
-33.868732
 30
0.0
 40
5.775209
 50
70.529398
 51
109.470601
  0
ARC
  5
3F0D
  8
ALPHA
 10
1022.567927
 20
-29.661133
 30
0.0
 40
1.567609
 50
52.12171
 51
127.878289
  0
ARC
  5
3F0E
  8
ALPHA
 10
1022.567927
 20
-29.025915
 30
0.0
 40
1.567609
 50
232.121715
 51
307.87829
  0
ARC
  5
3F0F
  8
ALPHA
 10
1019.680426
 20
-24.818316
 30
0.0
 40
5.775209
 50
250.529403
 51
289.470599
  0
LINE
  5
3F10
  8
ALPHA
 10
1021.680426
 20
-28.093525
 30
0.0
 11
1021.680426
 21
-24.593523
 31
0.0
  0
LINE
  5
3F11
  8
ALPHA_FIN
 10
1020.980426
 20
-28.093525
 30
0.0
 11
1020.980426
 21
-23.893523
 31
0.0
  0
LINE
  5
3F12
  8
ALPHA_FIN
 10
1018.380426
 20
-28.093525
 30
0.0
 11
1018.380426
 21
-23.893523
 31
0.0
  0
LINE
  5
3F13
  8
ALPHA
 10
1017.680426
 20
-28.093525
 30
0.0
 11
1017.680426
 21
-24.593523
 31
0.0
  0
LINE
  5
3F14
  8
ALPHA
 10
1023.680426
 20
-31.393523
 30
0.0
 11
1023.680426
 21
-30.593523
 31
0.0
  0
LINE
  5
3F15
  8
ALPHA
 10
1015.830435
 20
-31.723792
 30
0.0
 11
1015.830435
 21
-33.563252
 31
0.0
  0
LINE
  5
3F16
  8
ALPHA
 10
1015.830435
 20
-28.423794
 30
0.0
 11
1015.830435
 21
-30.263254
 31
0.0
  0
ARC
  5
3F17
  8
ALPHA
 10
1016.792925
 20
-32.961131
 30
0.0
 40
1.567609
 50
52.12171
 51
127.878289
  0
ARC
  5
3F18
  8
ALPHA
 10
1016.792925
 20
-32.325913
 30
0.0
 40
1.567609
 50
232.121715
 51
307.87829
  0
LINE
  5
3F19
  8
ALPHA
 10
1022.567916
 20
-33.893521
 30
0.0
 11
1016.792937
 21
-33.893521
 31
0.0
  0
LINE
  5
3F1A
  8
ALPHA
 10
1016.792937
 20
-28.093525
 30
0.0
 11
1022.567916
 21
-28.093525
 31
0.0
  0
ARC
  5
3F1B
  8
ALPHA
 10
1016.792925
 20
-29.661133
 30
0.0
 40
1.567609
 50
52.12171
 51
127.878289
  0
ARC
  5
3F1C
  8
ALPHA
 10
1016.792925
 20
-29.025915
 30
0.0
 40
1.567609
 50
232.121715
 51
307.87829
  0
LINE
  5
3F1D
  8
ALPHA
 10
1019.680426
 20
-35.193523
 30
0.0
 11
1021.680426
 21
-35.193523
 31
0.0
  0
LINE
  5
3F1E
  8
ALPHA
 10
1019.680426
 20
-35.893523
 30
0.0
 11
1020.980426
 21
-35.893523
 31
0.0
  0
LINE
  5
3F1F
  8
ALPHA
 10
1021.680426
 20
-35.193523
 30
0.0
 11
1020.980426
 21
-35.893523
 31
0.0
  0
LINE
  5
3F20
  8
ALPHA
 10
1019.680426
 20
-38.443523
 30
0.0
 11
1020.980426
 21
-38.443523
 31
0.0
  0
LINE
  5
3F21
  8
ALPHA
 10
1019.680426
 20
-38.893523
 30
0.0
 11
1020.530426
 21
-38.893523
 31
0.0
  0
LINE
  5
3F22
  8
ALPHA
 10
1020.980426
 20
-38.443523
 30
0.0
 11
1020.980426
 21
-35.893523
 31
0.0
  0
LINE
  5
3F23
  8
ALPHA
 10
1020.980426
 20
-38.443523
 30
0.0
 11
1020.530426
 21
-38.893523
 31
0.0
  0
LINE
  5
3F24
  8
ALPHA_FIN
 10
1020.530426
 20
-38.893523
 30
0.0
 11
1020.530426
 21
-35.893523
 31
0.0
  0
LINE
  5
3F25
  8
ALPHA_FIN
 10
1018.830426
 20
-38.893523
 30
0.0
 11
1018.830426
 21
-35.893523
 31
0.0
  0
LINE
  5
3F26
  8
ALPHA
 10
1018.380426
 20
-38.443523
 30
0.0
 11
1018.830426
 21
-38.893523
 31
0.0
  0
LINE
  5
3F27
  8
ALPHA
 10
1018.380426
 20
-38.443523
 30
0.0
 11
1018.380426
 21
-35.893523
 31
0.0
  0
LINE
  5
3F28
  8
ALPHA
 10
1019.680426
 20
-38.893523
 30
0.0
 11
1018.830426
 21
-38.893523
 31
0.0
  0
LINE
  5
3F29
  8
ALPHA
 10
1019.680426
 20
-38.443523
 30
0.0
 11
1018.380426
 21
-38.443523
 31
0.0
  0
LINE
  5
3F2A
  8
ALPHA
 10
1017.680426
 20
-35.193523
 30
0.0
 11
1018.380426
 21
-35.893523
 31
0.0
  0
LINE
  5
3F2B
  8
ALPHA
 10
1019.680426
 20
-35.893523
 30
0.0
 11
1018.380426
 21
-35.893523
 31
0.0
  0
LINE
  5
3F2C
  8
ALPHA
 10
1019.680426
 20
-35.193523
 30
0.0
 11
1017.680426
 21
-35.193523
 31
0.0
  0
ENDSEC
  0
EOF
