  0
SECTION
  2
HEADER
  9
$ACADVER
  1
AC1009
  9
$INSBASE
 10
402.590624
 20
-1.041018
 30
0.0
  9
$EXTMIN
 10
124.005733
 20
-8.771543
 30
0.0
  9
$EXTMAX
 10
211.69621
 20
200.728457
 30
0.0
  9
$LIMMIN
 10
-407.970438
 20
-367.832444
  9
$LIMMAX
 10
429.804077
 20
234.370848
  9
$ORTHOMODE
 70
     1
  9
$REGENMODE
 70
     1
  9
$FILLMODE
 70
     1
  9
$QTEXTMODE
 70
     0
  9
$MIRRTEXT
 70
     1
  9
$DRAGMODE
 70
     2
  9
$LTSCALE
 40
10.0
  9
$OSMODE
 70
    33
  9
$ATTMODE
 70
     1
  9
$TEXTSIZE
 40
6.0
  9
$TRACEWID
 40
1.0
  9
$TEXTSTYLE
  7
ROMANS
  9
$CLAYER
  8
ALPHA
  9
$CELTYPE
  6
BYLAYER
  9
$CECOLOR
 62
   256
  9
$DIMSCALE
 40
1.0
  9
$DIMASZ
 40
5.0
  9
$DIMEXO
 40
2.0
  9
$DIMDLI
 40
0.38
  9
$DIMRND
 40
0.0
  9
$DIMDLE
 40
0.0
  9
$DIMEXE
 40
2.5
  9
$DIMTP
 40
0.0
  9
$DIMTM
 40
0.0
  9
$DIMTXT
 40
2.5
  9
$DIMCEN
 40
0.0
  9
$DIMTSZ
 40
0.0
  9
$DIMTOL
 70
     0
  9
$DIMLIM
 70
     0
  9
$DIMTIH
 70
     1
  9
$DIMTOH
 70
     1
  9
$DIMSE1
 70
     0
  9
$DIMSE2
 70
     0
  9
$DIMTAD
 70
     1
  9
$DIMZIN
 70
    12
  9
$DIMBLK
  1
OPEN30
  9
$DIMASO
 70
     1
  9
$DIMSHO
 70
     1
  9
$DIMPOST
  1

  9
$DIMAPOST
  1

  9
$DIMALT
 70
     0
  9
$DIMALTD
 70
     2
  9
$DIMALTF
 40
25.4
  9
$DIMLFAC
 40
1.0
  9
$DIMTOFL
 70
     0
  9
$DIMTVP
 40
0.0
  9
$DIMTIX
 70
     0
  9
$DIMSOXD
 70
     0
  9
$DIMSAH
 70
     0
  9
$DIMBLK1
  1

  9
$DIMBLK2
  1

  9
$DIMSTYLE
  2
SC_DEFAUT
  9
$DIMCLRD
 70
     0
  9
$DIMCLRE
 70
     0
  9
$DIMCLRT
 70
     0
  9
$DIMTFAC
 40
1.0
  9
$DIMGAP
 40
2.0
  9
$LUNITS
 70
     2
  9
$LUPREC
 70
     1
  9
$SKETCHINC
 40
0.1
  9
$FILLETRAD
 40
0.0
  9
$AUNITS
 70
     0
  9
$AUPREC
 70
     0
  9
$MENU
  1
acad
  9
$ELEVATION
 40
0.0
  9
$PELEVATION
 40
0.0
  9
$THICKNESS
 40
0.0
  9
$LIMCHECK
 70
     0
  9
$BLIPMODE
 70
     0
  9
$CHAMFERA
 40
0.0
  9
$CHAMFERB
 40
0.0
  9
$SKPOLY
 70
     0
  9
$TDCREATE
 40
2450373.687919
  9
$TDUPDATE
 40
2452824.587091
  9
$TDINDWG
 40
1.36448
  9
$TDUSRTIMER
 40
1.36448
  9
$USRTIMER
 70
     1
  9
$ANGBASE
 50
0.0
  9
$ANGDIR
 70
     0
  9
$PDMODE
 70
    32
  9
$PDSIZE
 40
0.0
  9
$PLINEWID
 40
0.0
  9
$COORDS
 70
     1
  9
$SPLFRAME
 70
     0
  9
$SPLINETYPE
 70
     6
  9
$SPLINESEGS
 70
     8
  9
$ATTDIA
 70
     0
  9
$ATTREQ
 70
     1
  9
$HANDLING
 70
     1
  9
$HANDSEED
  5
ED6B
  9
$SURFTAB1
 70
     6
  9
$SURFTAB2
 70
     6
  9
$SURFTYPE
 70
     6
  9
$SURFU
 70
     6
  9
$SURFV
 70
     6
  9
$UCSNAME
  2

  9
$UCSORG
 10
0.0
 20
0.0
 30
0.0
  9
$UCSXDIR
 10
1.0
 20
0.0
 30
0.0
  9
$UCSYDIR
 10
0.0
 20
1.0
 30
0.0
  9
$PUCSNAME
  2

  9
$PUCSORG
 10
0.0
 20
0.0
 30
0.0
  9
$PUCSXDIR
 10
1.0
 20
0.0
 30
0.0
  9
$PUCSYDIR
 10
0.0
 20
1.0
 30
0.0
  9
$USERI1
 70
     0
  9
$USERI2
 70
     0
  9
$USERI3
 70
     0
  9
$USERI4
 70
     0
  9
$USERI5
 70
     0
  9
$USERR1
 40
0.0
  9
$USERR2
 40
0.0
  9
$USERR3
 40
0.0
  9
$USERR4
 40
0.0
  9
$USERR5
 40
0.0
  9
$WORLDVIEW
 70
     1
  9
$SHADEDGE
 70
     3
  9
$SHADEDIF
 70
    70
  9
$TILEMODE
 70
     1
  9
$MAXACTVP
 70
    16
  9
$PLIMCHECK
 70
     0
  9
$PEXTMIN
 10
-1.452248
 20
-0.437698
 30
0.0
  9
$PEXTMAX
 10
12.749749
 20
8.310198
 30
0.0
  9
$PLIMMIN
 10
0.0
 20
0.0
  9
$PLIMMAX
 10
12.0
 20
9.0
  9
$UNITMODE
 70
     0
  9
$VISRETAIN
 70
     0
  9
$PLINEGEN
 70
     0
  9
$PSLTSCALE
 70
     0
  0
ENDSEC
  0
SECTION
  2
TABLES
  0
TABLE
  2
VPORT
 70
     2
  0
VPORT
  2
*ACTIVE
 70
     0
 10
0.0
 20
0.0
 11
1.0
 21
1.0
 12
167.865317
 22
95.981526
 13
0.0
 23
0.0
 14
1.0
 24
1.0
 15
10.0
 25
10.0
 16
0.0
 26
0.0
 36
1.0
 17
0.0
 27
0.0
 37
0.0
 40
211.346308
 41
1.56
 42
50.0
 43
0.0
 44
0.0
 50
0.0
 51
0.0
 71
     0
 72
   100
 73
     1
 74
     0
 75
     0
 76
     0
 77
     0
 78
     0
  0
ENDTAB
  0
TABLE
  2
LTYPE
 70
     3
  0
LTYPE
  2
CONTINUOUS
 70
     0
  3
Solid line
 72
    65
 73
     0
 40
0.0
  0
LTYPE
  2
AXES2
 70
     0
  3
___ _ ___ _ ___ _ ___ _ ___ _ ___ _ ___ _ ___ _
 72
    65
 73
     4
 40
1.125
 49
0.75
 49
-0.125
 49
0.125
 49
-0.125
  0
LTYPE
  2
CACHE2
 70
     0
  3
Caché (x.5) _ _ _ _ _ _ _ _ _ _ _ _ _ _ _ _ _
 72
    65
 73
     2
 40
0.1875
 49
0.125
 49
-0.0625
  0
ENDTAB
  0
TABLE
  2
LAYER
 70
     9
  0
LAYER
  2
0
 70
     0
 62
   255
  6
CONTINUOUS
  0
LAYER
  2
COTATION1
 70
     0
 62
     2
  6
CONTINUOUS
  0
LAYER
  2
AXE
 70
     0
 62
    80
  6
AXES2
  0
LAYER
  2
DEFPOINTS
 70
     0
 62
     7
  6
CONTINUOUS
  0
LAYER
  2
ALPHA
 70
     0
 62
   254
  6
CONTINUOUS
  0
LAYER
  2
POINTILLE_COURT
 70
     0
 62
    41
  6
CACHE2
  0
LAYER
  2
ALPHA_FIN0
 70
     0
 62
   255
  6
CONTINUOUS
  0
LAYER
  2
POINTILLE_COURT
 70
     0
 62
    41
  6
CACHE2
  0
LAYER
  2
ALPHA_FIN
 70
     0
 62
   255
  6
CONTINUOUS
  0
ENDTAB
  0
TABLE
  2
STYLE
 70
     3
  0
STYLE
  2
ROMANS
 70
     0
 40
0.0
 41
1.0
 50
0.0
 71
     0
 42
6.0
  3
romans
  4

  0
STYLE
  2
STANDARD
 70
     0
 40
0.2
 41
1.0
 50
0.0
 71
     0
 42
0.2
  3
txt
  4

  0
STYLE
  2
STD
 70
     0
 40
0.0
 41
1.0
 50
0.0
 71
     0
 42
0.0
  3
txt
  4

  0
ENDTAB
  0
TABLE
  2
VIEW
 70
     0
  0
ENDTAB
  0
TABLE
  2
UCS
 70
     0
  0
ENDTAB
  0
TABLE
  2
APPID
 70
     1
  0
APPID
  2
ACAD
 70
     0
  0
ENDTAB
  0
TABLE
  2
DIMSTYLE
 70
     1
  0
DIMSTYLE
  2
SC_DEFAUT
 70
     0
  3

  4

  5
OPEN30
  6

  7

 40
1.0
 41
5.0
 42
2.0
 43
0.38
 44
2.5
 45
0.0
 46
0.0
 47
0.0
 48
0.0
140
2.5
141
0.0
142
0.0
143
25.4
144
1.0
145
0.0
146
1.0
147
2.0
 71
     0
 72
     0
 73
     1
 74
     1
 75
     0
 76
     0
 77
     1
 78
    12
170
     0
171
     2
172
     0
173
     0
174
     0
175
     0
176
     0
177
     0
178
     0
  0
ENDTAB
  0
ENDSEC
  0
SECTION
  2
BLOCKS
  0
BLOCK
  8
0
  2
$MODEL_SPACE
 70
     0
 10
0.0
 20
0.0
 30
0.0
  3
$MODEL_SPACE
  1

  0
ENDBLK
  5
ECE3
  8
0
  0
BLOCK
 67
     1
  8
0
  2
$PAPER_SPACE
 70
     0
 10
0.0
 20
0.0
 30
0.0
  3
$PAPER_SPACE
  1

  0
ENDBLK
  5
ECE1
 67
     1
  8
0
  0
BLOCK
  8
0
  2
COTE
 70
     0
 10
0.0
 20
0.0
 30
0.0
  3
COTE
  1

  0
ENDBLK
  5
F
  8
0
  0
BLOCK
  8
0
  2
FOND
 70
     0
 10
0.0
 20
0.0
 30
0.0
  3
FOND
  1

  0
ENDBLK
  5
75
  8
0
  0
BLOCK
  8
0
  2
_OPEN30
 70
     0
 10
0.0
 20
0.0
 30
0.0
  3
_OPEN30
  1

  0
LINE
  5
4B05
  8
COTATION1
 62
     0
 10
-1.0
 20
0.267949
 30
0.0
 11
0.0
 21
0.0
 31
0.0
1001
ACAD
1000
RTLwPs
1070
   158
  0
LINE
  5
4B06
  8
COTATION1
 62
     0
 10
0.0
 20
0.0
 30
0.0
 11
-1.0
 21
-0.267949
 31
0.0
1001
ACAD
1000
RTLwPs
1070
   158
  0
LINE
  5
4B07
  8
COTATION1
 62
     0
 10
0.0
 20
0.0
 30
0.0
 11
-1.0
 21
0.0
 31
0.0
1001
ACAD
1000
RTLwPs
1070
   158
  0
ENDBLK
  5
4B09
  8
0
  0
BLOCK
  8
0
  2
*D3
 70
     1
 10
0.0
 20
0.0
 30
0.0
  3
*D3
  1

  0
LINE
  5
E7A2
  8
COTATION1
 62
     0
 10
160.124781
 20
161.228457
 30
0.0
 11
209.374781
 21
161.228457
 31
0.0
1001
ACAD
1000
RTLwPs
1070
   158
  0
LINE
  5
E7A3
  8
COTATION1
 62
     0
 10
181.374781
 20
39.728457
 30
0.0
 11
209.374781
 21
39.728457
 31
0.0
1001
ACAD
1000
RTLwPs
1070
   158
  0
LINE
  5
E7A4
  8
COTATION1
 62
     0
 10
206.874781
 20
156.228457
 30
0.0
 11
206.874781
 21
103.728457
 31
0.0
1001
ACAD
1000
RTLwPs
1070
   158
  0
LINE
  5
E7A5
  8
COTATION1
 62
     0
 10
206.874781
 20
44.728457
 30
0.0
 11
206.874781
 21
97.228457
 31
0.0
1001
ACAD
1000
RTLwPs
1070
   158
  0
INSERT
  5
E7A6
  8
COTATION1
 62
     0
  2
_OPEN30
 10
206.874781
 20
161.228457
 30
0.0
 41
5.0
 42
5.0
 43
5.0
 50
90.0
1001
ACAD
1000
RTLwPs
1070
   158
  0
INSERT
  5
E7A7
  8
COTATION1
 62
     0
  2
_OPEN30
 10
206.874781
 20
39.728457
 30
0.0
 41
5.0
 42
5.0
 43
5.0
 50
270.0
1001
ACAD
1000
RTLwPs
1070
   158
  0
TEXT
  5
E7A8
  8
COTATION1
 62
     0
 10
201.339067
 20
99.228457
 30
0.0
 40
2.5
  1
121.5
1001
ACAD
1000
MTEXTBEGIN
1070
    73
1070
     1
1070
    44
1040
1.0
1070
    74
1070
     0
1000
MTEXTEND
1000
MTEXTBEGIN
1070
    73
1070
     1
1070
    44
1040
1.0
1070
    74
1070
     0
1000
MTEXTEND
1000
MTEXTBEGIN
1070
    73
1070
     1
1070
    44
1040
1.0
1070
    74
1070
     0
1000
MTEXTEND
  0
POINT
  5
E7A9
  8
DEFPOINTS
 62
     0
 10
158.124781
 20
161.228457
 30
0.0
  0
POINT
  5
E7AA
  8
DEFPOINTS
 62
     0
 10
179.374781
 20
39.728457
 30
0.0
  0
POINT
  5
E7AB
  8
DEFPOINTS
 62
     0
 10
206.874781
 20
39.728457
 30
0.0
  0
ENDBLK
  5
DC3E
  8
0
  0
BLOCK
  8
0
  2
*D4
 70
     1
 10
0.0
 20
0.0
 30
0.0
  3
*D4
  1

  0
LINE
  5
E907
  8
COTATION1
 62
     0
 10
149.374781
 20
56.780776
 30
0.0
 11
149.374781
 21
11.228457
 31
0.0
1001
ACAD
1000
RTLwPs
1070
   158
  0
LINE
  5
E908
  8
COTATION1
 62
     0
 10
179.374781
 20
37.728457
 30
0.0
 11
179.374781
 21
11.228457
 31
0.0
1001
ACAD
1000
RTLwPs
1070
   158
  0
LINE
  5
E909
  8
COTATION1
 62
     0
 10
154.374781
 20
13.728457
 30
0.0
 11
174.374781
 21
13.728457
 31
0.0
1001
ACAD
1000
RTLwPs
1070
   158
  0
INSERT
  5
E90A
  8
COTATION1
 62
     0
  2
_OPEN30
 10
149.374781
 20
13.728457
 30
0.0
 41
5.0
 42
5.0
 43
5.0
 50
180.0
1001
ACAD
1000
RTLwPs
1070
   158
  0
INSERT
  5
E90B
  8
COTATION1
 62
     0
  2
_OPEN30
 10
179.374781
 20
13.728457
 30
0.0
 41
5.0
 42
5.0
 43
5.0
1001
ACAD
1000
RTLwPs
1070
   158
  0
TEXT
  5
E90C
  8
COTATION1
 62
     0
 10
161.993829
 20
15.728457
 30
0.0
 40
2.5
  1
30
1001
ACAD
1000
MTEXTBEGIN
1070
    73
1070
     1
1070
    44
1040
1.0
1070
    74
1070
     0
1000
MTEXTEND
  0
POINT
  5
E90D
  8
DEFPOINTS
 62
     0
 10
149.374781
 20
58.780776
 30
0.0
  0
POINT
  5
E90E
  8
DEFPOINTS
 62
     0
 10
179.374781
 20
39.728457
 30
0.0
  0
POINT
  5
E90F
  8
DEFPOINTS
 62
     0
 10
179.374781
 20
13.728457
 30
0.0
  0
ENDBLK
  5
DC4A
  8
0
  0
BLOCK
  8
0
  2
*D5
 70
     1
 10
0.0
 20
0.0
 30
0.0
  3
*D5
  1

  0
LINE
  5
E910
  8
COTATION1
 62
     0
 10
144.874781
 20
93.728457
 30
0.0
 11
144.874781
 21
1.228457
 31
0.0
1001
ACAD
1000
RTLwPs
1070
   158
  0
LINE
  5
E911
  8
COTATION1
 62
     0
 10
179.374781
 20
37.728457
 30
0.0
 11
179.374781
 21
1.228457
 31
0.0
1001
ACAD
1000
RTLwPs
1070
   158
  0
LINE
  5
E912
  8
COTATION1
 62
     0
 10
149.874781
 20
3.728457
 30
0.0
 11
174.374781
 21
3.728457
 31
0.0
1001
ACAD
1000
RTLwPs
1070
   158
  0
INSERT
  5
E913
  8
COTATION1
 62
     0
  2
_OPEN30
 10
144.874781
 20
3.728457
 30
0.0
 41
5.0
 42
5.0
 43
5.0
 50
180.0
1001
ACAD
1000
RTLwPs
1070
   158
  0
INSERT
  5
E914
  8
COTATION1
 62
     0
  2
_OPEN30
 10
179.374781
 20
3.728457
 30
0.0
 41
5.0
 42
5.0
 43
5.0
1001
ACAD
1000
RTLwPs
1070
   158
  0
TEXT
  5
E915
  8
COTATION1
 62
     0
 10
157.958114
 20
5.728457
 30
0.0
 40
2.5
  1
34.5
1001
ACAD
1000
MTEXTBEGIN
1070
    73
1070
     1
1070
    44
1040
1.0
1070
    74
1070
     0
1000
MTEXTEND
  0
POINT
  5
E916
  8
DEFPOINTS
 62
     0
 10
144.874781
 20
95.728457
 30
0.0
  0
POINT
  5
E917
  8
DEFPOINTS
 62
     0
 10
179.374781
 20
39.728457
 30
0.0
  0
POINT
  5
E918
  8
DEFPOINTS
 62
     0
 10
179.374781
 20
3.728457
 30
0.0
  0
ENDBLK
  5
DC56
  8
0
  0
BLOCK
  8
0
  2
*D6
 70
     1
 10
0.0
 20
0.0
 30
0.0
  3
*D6
  1

  0
LINE
  5
E798
  8
COTATION1
 62
     0
 10
166.874781
 20
143.390128
 30
0.0
 11
166.874781
 21
178.728457
 31
0.0
1001
ACAD
1000
RTLwPs
1070
   158
  0
LINE
  5
E799
  8
COTATION1
 62
     0
 10
179.374781
 20
120.728457
 30
0.0
 11
179.374781
 21
178.728457
 31
0.0
1001
ACAD
1000
RTLwPs
1070
   158
  0
LINE
  5
E79A
  8
COTATION1
 62
     0
 10
161.874781
 20
176.228457
 30
0.0
 11
156.874781
 21
176.228457
 31
0.0
1001
ACAD
1000
RTLwPs
1070
   158
  0
LINE
  5
E79B
  8
COTATION1
 62
     0
 10
184.374781
 20
176.228457
 30
0.0
 11
189.374781
 21
176.228457
 31
0.0
1001
ACAD
1000
RTLwPs
1070
   158
  0
INSERT
  5
E79C
  8
COTATION1
 62
     0
  2
_OPEN30
 10
166.874781
 20
176.228457
 30
0.0
 41
5.0
 42
5.0
 43
5.0
1001
ACAD
1000
RTLwPs
1070
   158
  0
INSERT
  5
E79D
  8
COTATION1
 62
     0
  2
_OPEN30
 10
179.374781
 20
176.228457
 30
0.0
 41
5.0
 42
5.0
 43
5.0
 50
180.0
1001
ACAD
1000
RTLwPs
1070
   158
  0
TEXT
  5
E79E
  8
COTATION1
 62
     0
 10
168.779543
 20
178.228457
 30
0.0
 40
2.5
  1
12.5
1001
ACAD
1000
MTEXTBEGIN
1070
    73
1070
     1
1070
    44
1040
1.0
1070
    74
1070
     0
1000
MTEXTEND
1000
MTEXTBEGIN
1070
    73
1070
     1
1070
    44
1040
1.0
1070
    74
1070
     0
1000
MTEXTEND
1000
MTEXTBEGIN
1070
    73
1070
     1
1070
    44
1040
1.0
1070
    74
1070
     0
1000
MTEXTEND
  0
POINT
  5
E79F
  8
DEFPOINTS
 62
     0
 10
166.874781
 20
141.390128
 30
0.0
  0
POINT
  5
E7A0
  8
DEFPOINTS
 62
     0
 10
179.374781
 20
118.728457
 30
0.0
  0
POINT
  5
E7A1
  8
DEFPOINTS
 62
     0
 10
179.374781
 20
176.228457
 30
0.0
  0
ENDBLK
  5
E609
  8
0
  0
BLOCK
  8
0
  2
*D7
 70
     1
 10
0.0
 20
0.0
 30
0.0
  3
*D7
  1

  0
LINE
  5
E7AC
  8
COTATION1
 62
     0
 10
155.374781
 20
168.228457
 30
0.0
 11
155.374781
 21
188.728457
 31
0.0
1001
ACAD
1000
RTLwPs
1070
   158
  0
LINE
  5
E7AD
  8
COTATION1
 62
     0
 10
179.374781
 20
120.728457
 30
0.0
 11
179.374781
 21
188.728457
 31
0.0
1001
ACAD
1000
RTLwPs
1070
   158
  0
LINE
  5
E7AE
  8
COTATION1
 62
     0
 10
160.374781
 20
186.228457
 30
0.0
 11
174.374781
 21
186.228457
 31
0.0
1001
ACAD
1000
RTLwPs
1070
   158
  0
INSERT
  5
E7AF
  8
COTATION1
 62
     0
  2
_OPEN30
 10
155.374781
 20
186.228457
 30
0.0
 41
5.0
 42
5.0
 43
5.0
 50
180.0
1001
ACAD
1000
RTLwPs
1070
   158
  0
INSERT
  5
E7B0
  8
COTATION1
 62
     0
  2
_OPEN30
 10
179.374781
 20
186.228457
 30
0.0
 41
5.0
 42
5.0
 43
5.0
1001
ACAD
1000
RTLwPs
1070
   158
  0
TEXT
  5
E7B1
  8
COTATION1
 62
     0
 10
164.934305
 20
188.228457
 30
0.0
 40
2.5
  1
24
1001
ACAD
1000
MTEXTBEGIN
1070
    73
1070
     1
1070
    44
1040
1.0
1070
    74
1070
     0
1000
MTEXTEND
1000
MTEXTBEGIN
1070
    73
1070
     1
1070
    44
1040
1.0
1070
    74
1070
     0
1000
MTEXTEND
1000
MTEXTBEGIN
1070
    73
1070
     1
1070
    44
1040
1.0
1070
    74
1070
     0
1000
MTEXTEND
  0
POINT
  5
E7B2
  8
DEFPOINTS
 62
     0
 10
155.374781
 20
166.228457
 30
0.0
  0
POINT
  5
E7B3
  8
DEFPOINTS
 62
     0
 10
179.374781
 20
118.728457
 30
0.0
  0
POINT
  5
E7B4
  8
DEFPOINTS
 62
     0
 10
179.374781
 20
186.228457
 30
0.0
  0
ENDBLK
  5
E615
  8
0
  0
BLOCK
  8
0
  2
*D8
 70
     1
 10
0.0
 20
0.0
 30
0.0
  3
*D8
  1

  0
LINE
  5
E77C
  8
COTATION1
 62
     0
 10
136.624781
 20
163.228457
 30
0.0
 11
136.624781
 21
188.728457
 31
0.0
1001
ACAD
1000
RTLwPs
1070
   158
  0
LINE
  5
E77D
  8
COTATION1
 62
     0
 10
142.124781
 20
163.228457
 30
0.0
 11
142.124781
 21
188.728457
 31
0.0
1001
ACAD
1000
RTLwPs
1070
   158
  0
LINE
  5
E77E
  8
COTATION1
 62
     0
 10
131.624781
 20
186.228457
 30
0.0
 11
126.624781
 21
186.228457
 31
0.0
1001
ACAD
1000
RTLwPs
1070
   158
  0
LINE
  5
E77F
  8
COTATION1
 62
     0
 10
147.124781
 20
186.228457
 30
0.0
 11
152.124781
 21
186.228457
 31
0.0
1001
ACAD
1000
RTLwPs
1070
   158
  0
TEXT
  5
E780
  8
COTATION1
 62
     0
 10
123.648591
 20
188.228457
 30
0.0
 40
2.5
  1
5.5
1001
ACAD
1000
MTEXTBEGIN
1070
    73
1070
     1
1070
    44
1040
1.0
1070
    74
1070
     0
1000
MTEXTEND
1000
MTEXTBEGIN
1070
    73
1070
     1
1070
    44
1040
1.0
1070
    74
1070
     0
1000
MTEXTEND
1000
MTEXTBEGIN
1070
    73
1070
     1
1070
    44
1040
1.0
1070
    74
1070
     0
1000
MTEXTEND
  0
INSERT
  5
E781
  8
COTATION1
 62
     0
  2
_OPEN30
 10
136.624781
 20
186.228457
 30
0.0
 41
5.0
 42
5.0
 43
5.0
1001
ACAD
1000
RTLwPs
1070
   158
  0
INSERT
  5
E782
  8
COTATION1
 62
     0
  2
_OPEN30
 10
142.124781
 20
186.228457
 30
0.0
 41
5.0
 42
5.0
 43
5.0
 50
180.0
1001
ACAD
1000
RTLwPs
1070
   158
  0
POINT
  5
E783
  8
DEFPOINTS
 62
     0
 10
136.624781
 20
161.228457
 30
0.0
  0
POINT
  5
E784
  8
DEFPOINTS
 62
     0
 10
142.124781
 20
161.228457
 30
0.0
  0
POINT
  5
E785
  8
DEFPOINTS
 62
     0
 10
142.124781
 20
186.228457
 30
0.0
  0
ENDBLK
  5
E622
  8
0
  0
BLOCK
  8
0
  2
*D9
 70
     1
 10
0.0
 20
0.0
 30
0.0
  3
*D9
  1

  0
LINE
  5
E7B5
  8
COTATION1
 62
     0
 10
139.374781
 20
168.228457
 30
0.0
 11
139.374781
 21
198.728457
 31
0.0
1001
ACAD
1000
RTLwPs
1070
   158
  0
LINE
  5
E7B6
  8
COTATION1
 62
     0
 10
179.374781
 20
120.728457
 30
0.0
 11
179.374781
 21
198.728457
 31
0.0
1001
ACAD
1000
RTLwPs
1070
   158
  0
LINE
  5
E7B7
  8
COTATION1
 62
     0
 10
144.374781
 20
196.228457
 30
0.0
 11
174.374781
 21
196.228457
 31
0.0
1001
ACAD
1000
RTLwPs
1070
   158
  0
INSERT
  5
E7B8
  8
COTATION1
 62
     0
  2
_OPEN30
 10
139.374781
 20
196.228457
 30
0.0
 41
5.0
 42
5.0
 43
5.0
 50
180.0
1001
ACAD
1000
RTLwPs
1070
   158
  0
INSERT
  5
E7B9
  8
COTATION1
 62
     0
  2
_OPEN30
 10
179.374781
 20
196.228457
 30
0.0
 41
5.0
 42
5.0
 43
5.0
1001
ACAD
1000
RTLwPs
1070
   158
  0
TEXT
  5
E7BA
  8
COTATION1
 62
     0
 10
156.993829
 20
198.228457
 30
0.0
 40
2.5
  1
40
1001
ACAD
1000
MTEXTBEGIN
1070
    73
1070
     1
1070
    44
1040
1.0
1070
    74
1070
     0
1000
MTEXTEND
1000
MTEXTBEGIN
1070
    73
1070
     1
1070
    44
1040
1.0
1070
    74
1070
     0
1000
MTEXTEND
1000
MTEXTBEGIN
1070
    73
1070
     1
1070
    44
1040
1.0
1070
    74
1070
     0
1000
MTEXTEND
  0
POINT
  5
E7BB
  8
DEFPOINTS
 62
     0
 10
139.374781
 20
166.228457
 30
0.0
  0
POINT
  5
E7BC
  8
DEFPOINTS
 62
     0
 10
179.374781
 20
118.728457
 30
0.0
  0
POINT
  5
E7BD
  8
DEFPOINTS
 62
     0
 10
179.374781
 20
196.228457
 30
0.0
  0
ENDBLK
  5
E62E
  8
0
  0
BLOCK
  8
0
  2
*D11
 70
     1
 10
0.0
 20
0.0
 30
0.0
  3
*D11
  1

  0
LINE
  5
E919
  8
COTATION1
 62
     0
 10
175.374781
 20
55.728457
 30
0.0
 11
175.374781
 21
21.228457
 31
0.0
1001
ACAD
1000
RTLwPs
1070
   158
  0
LINE
  5
E91A
  8
COTATION1
 62
     0
 10
179.374781
 20
37.728457
 30
0.0
 11
179.374781
 21
21.228457
 31
0.0
1001
ACAD
1000
RTLwPs
1070
   158
  0
LINE
  5
E91B
  8
COTATION1
 62
     0
 10
170.374781
 20
23.728457
 30
0.0
 11
165.374781
 21
23.728457
 31
0.0
1001
ACAD
1000
RTLwPs
1070
   158
  0
LINE
  5
E91C
  8
COTATION1
 62
     0
 10
184.374781
 20
23.728457
 30
0.0
 11
189.374781
 21
23.728457
 31
0.0
1001
ACAD
1000
RTLwPs
1070
   158
  0
TEXT
  5
E91D
  8
COTATION1
 62
     0
 10
188.124781
 20
25.728457
 30
0.0
 40
2.5
  1
4
1001
ACAD
1000
MTEXTBEGIN
1070
    73
1070
     1
1070
    44
1040
1.0
1070
    74
1070
     0
1000
MTEXTEND
  0
INSERT
  5
E91E
  8
COTATION1
 62
     0
  2
_OPEN30
 10
175.374781
 20
23.728457
 30
0.0
 41
5.0
 42
5.0
 43
5.0
1001
ACAD
1000
RTLwPs
1070
   158
  0
INSERT
  5
E91F
  8
COTATION1
 62
     0
  2
_OPEN30
 10
179.374781
 20
23.728457
 30
0.0
 41
5.0
 42
5.0
 43
5.0
 50
180.0
1001
ACAD
1000
RTLwPs
1070
   158
  0
POINT
  5
E920
  8
DEFPOINTS
 62
     0
 10
175.374781
 20
57.728457
 30
0.0
  0
POINT
  5
E921
  8
DEFPOINTS
 62
     0
 10
179.374781
 20
39.728457
 30
0.0
  0
POINT
  5
E922
  8
DEFPOINTS
 62
     0
 10
179.374781
 20
23.728457
 30
0.0
  0
ENDBLK
  5
E8FC
  8
0
  0
BLOCK
  8
0
  2
*D30
 70
     1
 10
0.0
 20
0.0
 30
0.0
  3
*D30
  1

  0
LINE
  5
EBCC
  8
COTATION1
 62
     0
 10
142.374781
 20
125.703713
 30
0.0
 11
142.374781
 21
-8.771543
 31
0.0
1001
ACAD
1000
RTLwPs
1070
   158
  0
LINE
  5
EBCD
  8
COTATION1
 62
     0
 10
179.374781
 20
27.728457
 30
0.0
 11
179.374781
 21
-8.771543
 31
0.0
1001
ACAD
1000
RTLwPs
1070
   158
  0
LINE
  5
EBCE
  8
COTATION1
 62
     0
 10
147.374781
 20
-6.271543
 30
0.0
 11
174.374781
 21
-6.271543
 31
0.0
1001
ACAD
1000
RTLwPs
1070
   158
  0
INSERT
  5
EBCF
  8
COTATION1
 62
     0
  2
_OPEN30
 10
142.374781
 20
-6.271543
 30
0.0
 41
5.0
 42
5.0
 43
5.0
 50
180.0
1001
ACAD
1000
RTLwPs
1070
   158
  0
INSERT
  5
EBD0
  8
COTATION1
 62
     0
  2
_OPEN30
 10
179.374781
 20
-6.271543
 30
0.0
 41
5.0
 42
5.0
 43
5.0
1001
ACAD
1000
RTLwPs
1070
   158
  0
TEXT
  5
EBD1
  8
COTATION1
 62
     0
 10
158.493829
 20
-4.271543
 30
0.0
 40
2.5
  1
37
1001
ACAD
1000
MTEXTBEGIN
1070
    73
1070
     1
1070
    44
1040
1.0
1070
    74
1070
     0
1000
MTEXTEND
  0
POINT
  5
EBD2
  8
DEFPOINTS
 62
     0
 10
142.374781
 20
127.703713
 30
0.0
  0
POINT
  5
EBD3
  8
DEFPOINTS
 62
     0
 10
179.374781
 20
29.728457
 30
0.0
  0
POINT
  5
EBD4
  8
DEFPOINTS
 62
     0
 10
179.374781
 20
-6.271543
 30
0.0
  0
ENDBLK
  5
EBC2
  8
0
  0
ENDSEC
  0
SECTION
  2
ENTITIES
  0
INSERT
  5
A
  8
0
  2
COTE
 10
0.0
 20
0.0
 30
0.0
  0
INSERT
  5
17
  8
0
  2
COTE
 10
284.010391
 20
6.373258
 30
0.0
  0
INSERT
  5
72
  8
0
  2
FOND
 10
0.0
 20
0.0
 30
0.0
  0
POLYLINE
  5
DBC9
  8
ALPHA
 66
     1
 10
0.0
 20
0.0
 30
0.0
 70
   128
210
0.0
220
0.0
230
-1.0
  0
VERTEX
  5
ECE9
  8
ALPHA
 10
-167.421524
 20
58.413808
 30
0.0
  0
VERTEX
  5
ECEA
  8
ALPHA
 10
-168.161366
 20
58.413808
 30
0.0
  0
VERTEX
  5
ECEB
  8
ALPHA
 10
-168.611319
 20
58.282761
 30
0.0
  0
VERTEX
  5
ECEC
  8
ALPHA
 10
-169.003814
 20
57.699099
 30
0.0
  0
VERTEX
  5
ECED
  8
ALPHA
 10
-169.39945
 20
56.893738
 30
0.0
  0
VERTEX
  5
ECEE
  8
ALPHA
 10
-169.614474
 20
56.440208
 30
0.0
  0
SEQEND
  5
ECEF
  8
ALPHA
  0
POLYLINE
  5
DBCA
  8
ALPHA
 66
     1
 10
0.0
 20
0.0
 30
0.0
 70
   128
210
0.0
220
0.0
230
-1.0
  0
VERTEX
  5
ECF0
  8
ALPHA
 10
-162.197683
 20
54.728457
 30
0.0
  0
VERTEX
  5
ECF1
  8
ALPHA
 10
-160.510623
 20
54.883982
 30
0.0
  0
VERTEX
  5
ECF2
  8
ALPHA
 10
-158.596997
 20
55.250769
 30
0.0
  0
VERTEX
  5
ECF3
  8
ALPHA
 10
-154.614304
 20
56.356367
 30
0.0
  0
VERTEX
  5
ECF4
  8
ALPHA
 10
-152.807364
 20
56.964297
 30
0.0
  0
VERTEX
  5
ECF5
  8
ALPHA
 10
-151.298113
 20
57.521728
 30
0.0
  0
VERTEX
  5
ECF6
  8
ALPHA
 10
-150.217615
 20
57.963219
 30
0.0
  0
VERTEX
  5
ECF7
  8
ALPHA
 10
-149.696934
 20
58.22333
 30
0.0
  0
SEQEND
  5
ECF8
  8
ALPHA
  0
LINE
  5
DBCB
  8
ALPHA
 10
149.696934
 20
58.22333
 30
0.0
 11
149.374781
 21
58.780776
 31
0.0
  0
POLYLINE
  5
DBCC
  8
ALPHA
 66
     1
 10
0.0
 20
0.0
 30
0.0
 70
   128
  0
VERTEX
  5
ECF9
  8
ALPHA
 10
163.858932
 20
56.728457
 30
0.0
  0
VERTEX
  5
ECFA
  8
ALPHA
 10
163.136161
 20
68.388836
 30
0.0
  0
VERTEX
  5
ECFB
  8
ALPHA
 10
161.682923
 20
79.518103
 30
0.0
  0
VERTEX
  5
ECFC
  8
ALPHA
 10
159.696651
 20
89.933578
 30
0.0
  0
VERTEX
  5
ECFD
  8
ALPHA
 10
157.374781
 20
99.452583
 30
0.0
  0
SEQEND
  5
ECFE
  8
ALPHA
  0
POLYLINE
  5
DBCD
  8
ALPHA
 66
     1
 10
0.0
 20
0.0
 30
0.0
 70
   128
210
0.0
220
0.0
230
-1.0
  0
VERTEX
  5
ECFF
  8
ALPHA
 10
-166.764024
 20
57.976207
 30
0.0
  0
VERTEX
  5
ED00
  8
ALPHA
 10
-167.026598
 20
58.342615
 30
0.0
  0
VERTEX
  5
ED01
  8
ALPHA
 10
-167.421524
 20
58.413808
 30
0.0
  0
SEQEND
  5
ED02
  8
ALPHA
  0
POLYLINE
  5
DBCE
  8
ALPHA
 66
     1
 10
0.0
 20
0.0
 30
0.0
 70
   128
210
0.0
220
0.0
230
-1.0
  0
VERTEX
  5
ED03
  8
ALPHA
 10
-169.614474
 20
56.440208
 30
0.0
  0
VERTEX
  5
ED04
  8
ALPHA
 10
-169.844152
 20
55.94747
 30
0.0
  0
VERTEX
  5
ED05
  8
ALPHA
 10
-169.922215
 20
55.37562
 30
0.0
  0
VERTEX
  5
ED06
  8
ALPHA
 10
-169.605027
 20
54.728457
 30
0.0
  0
SEQEND
  5
ED07
  8
ALPHA
  0
DIMENSION
  5
DBD3
  8
COTATION1
  2
*D5
 10
179.374781
 20
3.728457
 30
0.0
 11
162.124781
 21
6.978457
 31
0.0
 13
144.874781
 23
95.728457
 33
0.0
 14
179.374781
 24
39.728457
 34
0.0
  0
LINE
  5
DBD7
  8
ALPHA
 10
160.874781
 20
47.728457
 30
0.0
 11
155.374781
 21
47.728457
 31
0.0
  0
LINE
  5
DBD8
  8
ALPHA
 10
167.374781
 20
49.228457
 30
0.0
 11
155.674781
 21
49.228457
 31
0.0
  0
LINE
  5
DBD9
  8
ALPHA
 10
167.374781
 20
39.728457
 30
0.0
 11
155.374781
 21
39.728457
 31
0.0
  0
LINE
  5
DBDB
  8
ALPHA
 10
144.874781
 20
116.028457
 30
0.0
 11
179.374781
 21
116.028457
 31
0.0
  0
LINE
  5
DBDC
  8
ALPHA
 10
155.374781
 20
53.728457
 30
0.0
 11
179.374781
 21
53.728457
 31
0.0
  0
ARC
  5
DBDD
  8
ALPHA
 10
5.032549
 20
55.387689
 30
0.0
 40
156.451664
 50
0.857269
 51
13.161146
  0
LINE
  5
DBDE
  8
AXE
 10
139.874781
 20
86.228457
 30
0.0
 11
194.374781
 21
86.228457
 31
0.0
  0
DIMENSION
  5
DBDF
  8
COTATION1
  2
*D4
 10
179.374781
 20
13.728457
 30
0.0
 11
164.374781
 21
16.978457
 31
0.0
 13
149.374781
 23
58.780776
 33
0.0
 14
179.374781
 24
39.728457
 34
0.0
  0
DIMENSION
  5
DBE0
  8
COTATION1
  2
*D3
 10
206.874781
 20
39.728457
 30
0.0
 11
206.874781
 21
100.478457
 31
0.0
 13
158.124781
 23
161.228457
 33
0.0
 14
179.374781
 24
39.728457
 34
0.0
 50
90.0
  0
LINE
  5
DBE2
  8
ALPHA
 10
149.374781
 20
92.3893
 30
0.0
 11
149.374781
 21
58.780776
 31
0.0
  0
LINE
  5
DBE3
  8
ALPHA
 10
155.374781
 20
47.728457
 30
0.0
 11
155.374781
 21
39.728457
 31
0.0
  0
LINE
  5
DBE4
  8
ALPHA
 10
155.674781
 20
49.228457
 30
0.0
 11
155.374781
 21
47.728457
 31
0.0
  0
ARC
  5
DBE5
  8
ALPHA
 10
151.2354
 20
51.192498
 30
0.0
 40
4.854438
 50
336.134766
 51
31.493383
  0
LINE
  5
DBE6
  8
ALPHA
 10
154.724305
 20
56.331078
 30
0.0
 11
155.374781
 21
53.728457
 31
0.0
  0
LINE
  5
DC20
  8
AXE
 10
166.874781
 20
141.390128
 30
0.0
 11
166.874781
 21
23.728457
 31
0.0
  0
LINE
  5
DC21
  8
ALPHA
 10
179.374781
 20
118.728457
 30
0.0
 11
179.374781
 21
53.728457
 31
0.0
  0
TEXT
  5
DC22
  8
AXE
 10
159.398591
 20
23.728457
 30
0.0
 40
8.0
  1
Y
 72
     2
 11
165.874781
 21
23.728457
 31
0.0
  0
LINE
  5
DC23
  8
ALPHA
 10
167.348537
 20
59.728457
 30
0.0
 11
166.347801
 21
56.728457
 31
0.0
  0
LINE
  5
DC24
  8
ALPHA
 10
179.374781
 20
47.728457
 30
0.0
 11
179.374781
 21
39.728457
 31
0.0
  0
LINE
  5
DC25
  8
ALPHA
 10
160.874781
 20
47.728457
 30
0.0
 11
160.874781
 21
39.728457
 31
0.0
  0
LINE
  5
DC26
  8
ALPHA
 10
173.874781
 20
47.728457
 30
0.0
 11
173.874781
 21
39.728457
 31
0.0
  0
LINE
  5
DC27
  8
ALPHA
 10
167.374781
 20
39.728457
 30
0.0
 11
179.374781
 21
39.728457
 31
0.0
  0
LINE
  5
DC28
  8
ALPHA
 10
167.374781
 20
49.228457
 30
0.0
 11
179.074781
 21
49.228457
 31
0.0
  0
LINE
  5
DC29
  8
ALPHA
 10
173.874781
 20
47.728457
 30
0.0
 11
179.374781
 21
47.728457
 31
0.0
  0
LINE
  5
DC2A
  8
ALPHA
 10
162.197683
 20
54.728457
 30
0.0
 11
179.374781
 21
54.728457
 31
0.0
  0
ARC
  5
DC2B
  8
ALPHA
 10
167.374781
 20
34.395124
 30
0.0
 40
14.833333
 50
64.010766
 51
115.989234
  0
LINE
  5
DC2C
  8
ALPHA
 10
163.858932
 20
56.728457
 30
0.0
 11
166.347801
 21
56.728457
 31
0.0
  0
LINE
  5
DC2D
  8
ALPHA
 10
161.466702
 20
57.728457
 30
0.0
 11
163.831029
 21
57.728457
 31
0.0
  0
ARC
  5
DC2E
  8
ALPHA
 10
183.514163
 20
51.192498
 30
0.0
 40
4.854438
 50
148.506617
 51
203.865234
  0
LINE
  5
DC2F
  8
ALPHA
 10
179.074781
 20
49.228457
 30
0.0
 11
179.374781
 21
47.728457
 31
0.0
  0
LINE
  5
DC30
  8
ALPHA
 10
167.348537
 20
59.728457
 30
0.0
 11
179.374781
 21
59.728457
 31
0.0
  0
TEXT
  5
DC31
  8
AXE
 10
187.898591
 20
87.228457
 30
0.0
 40
8.0
  1
Z
 72
     2
 11
194.374781
 21
87.228457
 31
0.0
  0
LINE
  5
DDB9
  8
ALPHA
 10
157.374781
 20
118.728457
 30
0.0
 11
157.374781
 21
91.010263
 31
0.0
  0
ARC
  5
DDBA
  8
ALPHA
 10
155.79577
 20
105.744296
 30
0.0
 40
14.818401
 50
222.524506
 51
276.116907
  0
LINE
  5
DDBC
  8
ALPHA
 10
144.874781
 20
95.728457
 30
0.0
 11
144.874781
 21
118.728457
 31
0.0
  0
DIMENSION
  5
E57F
  8
COTATION1
  2
*D9
 10
179.374781
 20
196.228457
 30
0.0
 11
159.374781
 21
199.478457
 31
0.0
 13
139.374781
 23
166.228457
 33
0.0
 14
179.374781
 24
118.728457
 34
0.0
  0
DIMENSION
  5
E580
  8
COTATION1
  2
*D8
 10
142.124781
 20
186.228457
 30
0.0
 11
126.624781
 21
186.228457
 31
0.0
 70
   128
 13
136.624781
 23
161.228457
 33
0.0
 14
142.124781
 24
161.228457
 34
0.0
  0
DIMENSION
  5
E581
  8
COTATION1
  2
*D7
 10
179.374781
 20
186.228457
 30
0.0
 11
167.374781
 21
189.478457
 31
0.0
 13
155.374781
 23
166.228457
 33
0.0
 14
179.374781
 24
118.728457
 34
0.0
  0
DIMENSION
  5
E582
  8
COTATION1
  2
*D6
 10
179.374781
 20
176.228457
 30
0.0
 11
173.124781
 21
179.478457
 31
0.0
 13
166.874781
 23
141.390128
 33
0.0
 14
179.374781
 24
118.728457
 34
0.0
  0
LINE
  5
E58C
  8
ALPHA
 10
144.874781
 20
118.728457
 30
0.0
 11
179.374781
 21
118.728457
 31
0.0
  0
LINE
  5
E5B6
  8
POINTILLE_COURT
 10
152.624781
 20
161.228457
 30
0.0
 11
152.624781
 21
141.642671
 31
0.0
  0
LINE
  5
E5B7
  8
POINTILLE_COURT
 10
150.624781
 20
159.728457
 30
0.0
 11
150.624781
 21
142.471098
 31
0.0
  0
LINE
  5
E5B8
  8
ALPHA
 10
144.124781
 20
159.728457
 30
0.0
 11
144.124781
 21
142.471098
 31
0.0
  0
LINE
  5
E5B9
  8
ALPHA
 10
142.124781
 20
161.228457
 30
0.0
 11
142.124781
 21
141.642671
 31
0.0
  0
LINE
  5
E5BA
  8
ALPHA
 10
136.624781
 20
161.228457
 30
0.0
 11
136.624781
 21
142.228457
 31
0.0
  0
LINE
  5
E5BB
  8
AXE
 10
139.374781
 20
166.228457
 30
0.0
 11
139.374781
 21
139.228457
 31
0.0
  0
LINE
  5
E5BC
  8
POINTILLE_COURT
 10
158.124781
 20
161.228457
 30
0.0
 11
158.124781
 21
142.228457
 31
0.0
  0
LINE
  5
E5BD
  8
AXE
 10
155.374781
 20
166.228457
 30
0.0
 11
155.374781
 21
139.228457
 31
0.0
  0
LINE
  5
E5CD
  8
POINTILLE_COURT
 10
152.624781
 20
142.228457
 30
0.0
 11
158.124781
 21
142.228457
 31
0.0
  0
ARC
  5
E5CE
  8
POINTILLE_COURT
 10
151.624781
 20
141.642671
 30
0.0
 40
1.0
 50
315.0
 51
360.0
  0
ARC
  5
E5D0
  8
POINTILLE_COURT
 10
149.624781
 20
142.471098
 30
0.0
 40
1.0
 50
315.0
 51
360.0
  0
ARC
  5
E5D2
  8
ALPHA
 10
145.124781
 20
142.471098
 30
0.0
 40
1.0
 50
180.0
 51
225.0
  0
ARC
  5
E5D3
  8
ALPHA
 10
143.124781
 20
141.642671
 30
0.0
 40
1.0
 50
180.0
 51
225.0
  0
LINE
  5
E5D4
  8
ALPHA
 10
136.624781
 20
142.228457
 30
0.0
 11
142.124781
 21
142.228457
 31
0.0
  0
LINE
  5
E5D5
  8
POINTILLE_COURT
 10
152.624781
 20
161.228457
 30
0.0
 11
158.124781
 21
161.228457
 31
0.0
  0
LINE
  5
E5D6
  8
POINTILLE_COURT
 10
152.624781
 20
159.728457
 30
0.0
 11
150.624781
 21
159.728457
 31
0.0
  0
LINE
  5
E5D7
  8
ALPHA
 10
142.124781
 20
159.728457
 30
0.0
 11
144.124781
 21
159.728457
 31
0.0
  0
LINE
  5
E5D8
  8
ALPHA
 10
136.624781
 20
161.228457
 30
0.0
 11
142.124781
 21
161.228457
 31
0.0
  0
LINE
  5
E8EB
  8
POINTILLE_COURT
 10
176.874781
 20
56.228457
 30
0.0
 11
179.374781
 21
56.228457
 31
0.0
  0
LINE
  5
E8EC
  8
POINTILLE_COURT
 10
176.874781
 20
59.228457
 30
0.0
 11
179.374781
 21
59.228457
 31
0.0
  0
ARC
  5
E8ED
  8
POINTILLE_COURT
 10
176.874781
 20
57.728457
 30
0.0
 40
1.5
 50
90.0
 51
270.0
  0
DIMENSION
  5
E8EF
  8
COTATION1
  2
*D11
 10
179.374781
 20
23.728457
 30
0.0
 11
189.374781
 21
23.728457
 31
0.0
 70
   128
 13
175.374781
 23
57.728457
 33
0.0
 14
179.374781
 24
39.728457
 34
0.0
  0
LINE
  5
EB84
  8
ALPHA
 10
136.624781
 20
142.228457
 30
0.0
 11
142.124781
 21
142.228457
 31
0.0
  0
POLYLINE
  5
EB85
  8
ALPHA
 66
     1
 10
0.0
 20
0.0
 30
0.0
 70
   128
210
0.0
220
0.0
230
-1.0
  0
VERTEX
  5
ED08
  8
ALPHA
 10
-172.90637
 20
136.390128
 30
0.0
  0
VERTEX
  5
ED09
  8
ALPHA
 10
-173.689651
 20
136.232103
 30
0.0
  0
VERTEX
  5
ED0A
  8
ALPHA
 10
-174.328791
 20
135.801058
 30
0.0
  0
VERTEX
  5
ED0B
  8
ALPHA
 10
-174.759454
 20
135.161537
 30
0.0
  0
VERTEX
  5
ED0C
  8
ALPHA
 10
-174.917305
 20
134.378081
 30
0.0
  0
SEQEND
  5
ED0D
  8
ALPHA
  0
POLYLINE
  5
EB86
  8
ALPHA
 66
     1
 10
0.0
 20
0.0
 30
0.0
 70
   128
  0
VERTEX
  5
ED0E
  8
ALPHA
 10
174.917305
 20
118.728457
 30
0.0
  0
VERTEX
  5
ED0F
  8
ALPHA
 10
174.736654
 20
118.728457
 30
0.0
  0
VERTEX
  5
ED10
  8
ALPHA
 10
174.226118
 20
118.728457
 30
0.0
  0
VERTEX
  5
ED11
  8
ALPHA
 10
172.403896
 20
118.728457
 30
0.0
  0
VERTEX
  5
ED12
  8
ALPHA
 10
169.827652
 20
118.728457
 30
0.0
  0
VERTEX
  5
ED13
  8
ALPHA
 10
166.874396
 20
118.728457
 30
0.0
  0
VERTEX
  5
ED14
  8
ALPHA
 10
163.921141
 20
118.728457
 30
0.0
  0
VERTEX
  5
ED15
  8
ALPHA
 10
161.344896
 20
118.728457
 30
0.0
  0
VERTEX
  5
ED16
  8
ALPHA
 10
159.522675
 20
118.728457
 30
0.0
  0
VERTEX
  5
ED17
  8
ALPHA
 10
159.012139
 20
118.728457
 30
0.0
  0
VERTEX
  5
ED18
  8
ALPHA
 10
158.831487
 20
118.728457
 30
0.0
  0
SEQEND
  5
ED19
  8
ALPHA
  0
POLYLINE
  5
EB87
  8
ALPHA
 66
     1
 10
0.0
 20
0.0
 30
0.0
 70
   128
210
0.0
220
0.0
230
-1.0
  0
VERTEX
  5
ED1A
  8
ALPHA
 10
-142.374781
 20
128.709459
 30
0.0
  0
VERTEX
  5
ED1B
  8
ALPHA
 10
-142.579776
 20
130.191553
 30
0.0
  0
VERTEX
  5
ED1C
  8
ALPHA
 10
-142.915369
 20
131.255287
 30
0.0
  0
VERTEX
  5
ED1D
  8
ALPHA
 10
-143.228771
 20
131.896545
 30
0.0
  0
VERTEX
  5
ED1E
  8
ALPHA
 10
-143.367191
 20
132.111213
 30
0.0
  0
SEQEND
  5
ED1F
  8
ALPHA
  0
POLYLINE
  5
EB88
  8
ALPHA
 66
     1
 10
0.0
 20
0.0
 30
0.0
 70
   128
  0
VERTEX
  5
ED20
  8
ALPHA
 10
145.176422
 20
132.228457
 30
0.0
  0
VERTEX
  5
ED21
  8
ALPHA
 10
145.176422
 20
131.882828
 30
0.0
  0
VERTEX
  5
ED22
  8
ALPHA
 10
145.176422
 20
130.971622
 30
0.0
  0
VERTEX
  5
ED23
  8
ALPHA
 10
145.176422
 20
128.206586
 30
0.0
  0
VERTEX
  5
ED24
  8
ALPHA
 10
145.176422
 20
125.44155
 30
0.0
  0
VERTEX
  5
ED25
  8
ALPHA
 10
145.176422
 20
124.530344
 30
0.0
  0
VERTEX
  5
ED26
  8
ALPHA
 10
145.176422
 20
124.184715
 30
0.0
  0
SEQEND
  5
ED27
  8
ALPHA
  0
LINE
  5
EB89
  8
ALPHA
 10
145.176422
 20
134.741154
 30
0.0
 11
145.176422
 21
121.670905
 31
0.0
  0
LINE
  5
EB8A
  8
ALPHA
 10
145.679852
 20
121.670905
 30
0.0
 11
145.679852
 21
134.741154
 31
0.0
  0
LINE
  5
EB8B
  8
ALPHA
 10
145.679852
 20
133.233092
 30
0.0
 11
145.679852
 21
123.17897
 31
0.0
  0
LINE
  5
EB8C
  8
ALPHA
 10
147.690229
 20
123.17897
 30
0.0
 11
147.690229
 21
133.233092
 31
0.0
  0
POLYLINE
  5
EB8D
  8
ALPHA
 66
     1
 10
0.0
 20
0.0
 30
0.0
 70
   128
  0
VERTEX
  5
ED28
  8
ALPHA
 10
145.67985
 20
119.602511
 30
0.0
  0
VERTEX
  5
ED29
  8
ALPHA
 10
145.67985
 20
120.072548
 30
0.0
  0
VERTEX
  5
ED2A
  8
ALPHA
 10
145.67985
 20
121.361104
 30
0.0
  0
VERTEX
  5
ED2B
  8
ALPHA
 10
145.67985
 20
123.285852
 30
0.0
  0
VERTEX
  5
ED2C
  8
ALPHA
 10
145.67985
 20
125.664461
 30
0.0
  0
VERTEX
  5
ED2D
  8
ALPHA
 10
145.67985
 20
131.053947
 30
0.0
  0
VERTEX
  5
ED2E
  8
ALPHA
 10
145.67985
 20
136.070928
 30
0.0
  0
SEQEND
  5
ED2F
  8
ALPHA
  0
POLYLINE
  5
EB8E
  8
ALPHA
 66
     1
 10
0.0
 20
0.0
 30
0.0
 70
   128
  0
VERTEX
  5
ED30
  8
ALPHA
 10
158.831487
 20
119.097416
 30
0.0
  0
VERTEX
  5
ED31
  8
ALPHA
 10
147.689119
 20
119.097416
 30
0.0
  0
VERTEX
  5
ED32
  8
ALPHA
 10
147.689131
 20
119.291621
 30
0.0
  0
VERTEX
  5
ED33
  8
ALPHA
 10
147.689166
 20
119.840462
 30
0.0
  0
VERTEX
  5
ED34
  8
ALPHA
 10
147.689292
 20
121.799402
 30
0.0
  0
VERTEX
  5
ED35
  8
ALPHA
 10
147.68947
 20
124.568938
 30
0.0
  0
VERTEX
  5
ED36
  8
ALPHA
 10
147.689674
 20
127.743772
 30
0.0
  0
VERTEX
  5
ED37
  8
ALPHA
 10
147.689878
 20
130.918606
 30
0.0
  0
VERTEX
  5
ED38
  8
ALPHA
 10
147.690056
 20
133.688142
 30
0.0
  0
VERTEX
  5
ED39
  8
ALPHA
 10
147.690182
 20
135.647082
 30
0.0
  0
VERTEX
  5
ED3A
  8
ALPHA
 10
147.690217
 20
136.195923
 30
0.0
  0
VERTEX
  5
ED3B
  8
ALPHA
 10
147.69023
 20
136.390128
 30
0.0
  0
VERTEX
  5
ED3C
  8
ALPHA
 10
172.90637
 20
136.390128
 30
0.0
  0
SEQEND
  5
ED3D
  8
ALPHA
  0
LINE
  5
EB8F
  8
ALPHA
 10
166.874117
 20
124.733481
 30
0.0
 11
149.007388
 21
124.733481
 31
0.0
  0
LINE
  5
EB90
  8
ALPHA
 10
143.285509
 20
128.709459
 30
0.0
 11
142.374781
 21
128.709459
 31
0.0
  0
POLYLINE
  5
EB91
  8
ALPHA
 66
     1
 10
0.0
 20
0.0
 30
0.0
 70
   128
  0
VERTEX
  5
ED3E
  8
ALPHA
 10
145.176422
 20
124.184715
 30
0.0
  0
VERTEX
  5
ED3F
  8
ALPHA
 10
144.893729
 20
124.202861
 30
0.0
  0
VERTEX
  5
ED40
  8
ALPHA
 10
144.271806
 20
124.242781
 30
0.0
  0
VERTEX
  5
ED41
  8
ALPHA
 10
143.649883
 20
124.282702
 30
0.0
  0
VERTEX
  5
ED42
  8
ALPHA
 10
143.367191
 20
124.300848
 30
0.0
  0
SEQEND
  5
ED43
  8
ALPHA
  0
LINE
  5
EB92
  8
ALPHA
 10
143.285509
 20
127.703713
 30
0.0
 11
143.285509
 21
128.709459
 31
0.0
  0
LINE
  5
EB93
  8
ALPHA
 10
142.374781
 20
127.703713
 30
0.0
 11
143.285509
 21
127.703713
 31
0.0
  0
POLYLINE
  5
EB94
  8
ALPHA
 66
     1
 10
0.0
 20
0.0
 30
0.0
 70
   128
210
0.0
220
0.0
230
-1.0
  0
VERTEX
  5
ED44
  8
ALPHA
 10
-143.367191
 20
124.300848
 30
0.0
  0
VERTEX
  5
ED45
  8
ALPHA
 10
-143.228771
 20
124.515689
 30
0.0
  0
VERTEX
  5
ED46
  8
ALPHA
 10
-142.915369
 20
125.157329
 30
0.0
  0
VERTEX
  5
ED47
  8
ALPHA
 10
-142.579776
 20
126.221445
 30
0.0
  0
VERTEX
  5
ED48
  8
ALPHA
 10
-142.374781
 20
127.703713
 30
0.0
  0
SEQEND
  5
ED49
  8
ALPHA
  0
LINE
  5
EB95
  8
ALPHA
 10
145.679852
 20
123.17897
 30
0.0
 11
147.690229
 21
123.17897
 31
0.0
  0
LINE
  5
EB96
  8
ALPHA
 10
145.679852
 20
128.763357
 30
0.0
 11
147.690229
 21
128.763357
 31
0.0
  0
LINE
  5
EB97
  8
ALPHA
 10
145.679852
 20
129.664641
 30
0.0
 11
147.690229
 21
129.664641
 31
0.0
  0
LINE
  5
EB98
  8
ALPHA
 10
145.679852
 20
127.649815
 30
0.0
 11
147.690229
 21
127.649815
 31
0.0
  0
LINE
  5
EB99
  8
ALPHA
 10
145.679852
 20
126.748534
 30
0.0
 11
147.690229
 21
126.748534
 31
0.0
  0
LINE
  5
EB9A
  8
ALPHA
 10
145.679852
 20
125.846141
 30
0.0
 11
147.690229
 21
125.846141
 31
0.0
  0
LINE
  5
EB9B
  8
ALPHA
 10
145.679852
 20
124.94486
 30
0.0
 11
147.690229
 21
124.94486
 31
0.0
  0
LINE
  5
EB9C
  8
ALPHA
 10
145.679852
 20
124.280289
 30
0.0
 11
147.690229
 21
124.280289
 31
0.0
  0
LINE
  5
EB9D
  8
ALPHA
 10
145.679852
 20
123.637389
 30
0.0
 11
147.690229
 21
123.637389
 31
0.0
  0
LINE
  5
EB9E
  8
ALPHA
 10
145.176422
 20
121.670905
 30
0.0
 11
145.679852
 21
121.670905
 31
0.0
  0
POLYLINE
  5
EB9F
  8
ALPHA
 66
     1
 10
0.0
 20
0.0
 30
0.0
 70
   128
  0
VERTEX
  5
ED4A
  8
ALPHA
 10
147.689151
 20
119.602498
 30
0.0
  0
VERTEX
  5
ED4B
  8
ALPHA
 10
147.375198
 20
119.6025
 30
0.0
  0
VERTEX
  5
ED4C
  8
ALPHA
 10
146.684501
 20
119.602505
 30
0.0
  0
VERTEX
  5
ED4D
  8
ALPHA
 10
145.993803
 20
119.602509
 30
0.0
  0
VERTEX
  5
ED4E
  8
ALPHA
 10
145.67985
 20
119.602511
 30
0.0
  0
SEQEND
  5
ED4F
  8
ALPHA
  0
POLYLINE
  5
EBA0
  8
ALPHA
 66
     1
 10
0.0
 20
0.0
 30
0.0
 70
   128
  0
VERTEX
  5
ED50
  8
ALPHA
 10
166.874118
 20
124.733481
 30
0.0
  0
VERTEX
  5
ED51
  8
ALPHA
 10
165.527065
 20
124.491306
 30
0.0
  0
VERTEX
  5
ED52
  8
ALPHA
 10
164.259857
 20
123.852846
 30
0.0
  0
VERTEX
  5
ED53
  8
ALPHA
 10
162.000559
 20
121.915448
 30
0.0
  0
VERTEX
  5
ED54
  8
ALPHA
 10
160.167382
 20
119.978051
 30
0.0
  0
VERTEX
  5
ED55
  8
ALPHA
 10
159.432827
 20
119.33959
 30
0.0
  0
VERTEX
  5
ED56
  8
ALPHA
 10
158.831487
 20
119.097416
 30
0.0
  0
SEQEND
  5
ED57
  8
ALPHA
  0
LINE
  5
EBA1
  8
ALPHA
 10
158.831487
 20
118.728457
 30
0.0
 11
158.831487
 21
119.097416
 31
0.0
  0
LINE
  5
EBA2
  8
POINTILLE_COURT
 10
152.624781
 20
142.228457
 30
0.0
 11
158.124781
 21
142.228457
 31
0.0
  0
ARC
  5
EBA3
  8
POINTILLE_COURT
 10
149.624781
 20
142.471098
 30
0.0
 40
1.0
 50
315.0
 51
0.0
  0
ARC
  5
EBA4
  8
ALPHA
 10
145.124781
 20
142.471098
 30
0.0
 40
1.0
 50
180.0
 51
225.0
  0
LINE
  5
EBA5
  8
POINTILLE_COURT
 10
149.034143
 20
139.819281
 30
0.0
 11
150.331888
 21
141.763991
 31
0.0
  0
ARC
  5
EBA6
  8
ALPHA
 10
144.620931
 20
136.031559
 30
0.0
 40
3.069531
 50
0.73486
 51
44.741953
  0
LINE
  5
EBA7
  8
ALPHA
 10
146.80117
 20
138.192248
 30
0.0
 11
144.417674
 21
141.763991
 31
0.0
  0
ARC
  5
EBA8
  8
ALPHA
 10
144.67985
 20
136.070928
 30
0.0
 40
1.0
 50
360.0
 51
45.0
  0
LINE
  5
EBA9
  8
ALPHA
 10
145.386957
 20
136.778035
 30
0.0
 11
142.417674
 21
140.935564
 31
0.0
  0
LINE
  5
EBAA
  8
ALPHA
 10
147.690229
 20
133.233092
 30
0.0
 11
145.679852
 21
133.233092
 31
0.0
  0
LINE
  5
EBAB
  8
ALPHA
 10
145.679852
 20
134.741154
 30
0.0
 11
145.176422
 21
134.741154
 31
0.0
  0
ARC
  5
EBAC
  8
ALPHA
 10
143.124781
 20
141.642671
 30
0.0
 40
1.0
 50
180.0
 51
225.0
  0
POLYLINE
  5
EBAD
  8
ALPHA
 66
     1
 10
0.0
 20
0.0
 30
0.0
 70
   128
  0
VERTEX
  5
ED58
  8
ALPHA
 10
143.367191
 20
132.111213
 30
0.0
  0
VERTEX
  5
ED59
  8
ALPHA
 10
143.649883
 20
132.129532
 30
0.0
  0
VERTEX
  5
ED5A
  8
ALPHA
 10
144.271806
 20
132.169835
 30
0.0
  0
VERTEX
  5
ED5B
  8
ALPHA
 10
144.893729
 20
132.210138
 30
0.0
  0
VERTEX
  5
ED5C
  8
ALPHA
 10
145.176422
 20
132.228457
 30
0.0
  0
SEQEND
  5
ED5D
  8
ALPHA
  0
LINE
  5
EBAE
  8
ALPHA
 10
145.679852
 20
131.467202
 30
0.0
 11
147.690229
 21
131.467202
 31
0.0
  0
LINE
  5
EBAF
  8
ALPHA
 10
145.679852
 20
132.131773
 30
0.0
 11
147.690229
 21
132.131773
 31
0.0
  0
LINE
  5
EBB0
  8
ALPHA
 10
145.679852
 20
132.774673
 30
0.0
 11
147.690229
 21
132.774673
 31
0.0
  0
LINE
  5
EBB1
  8
ALPHA
 10
145.679852
 20
130.565921
 30
0.0
 11
147.690229
 21
130.565921
 31
0.0
  0
ARC
  5
EBB2
  8
POINTILLE_COURT
 10
151.624781
 20
141.642671
 30
0.0
 40
1.0
 50
315.0
 51
0.0
  0
LINE
  5
EBB3
  8
POINTILLE_COURT
 10
150.727566
 20
138.689226
 30
0.0
 11
152.331888
 21
140.935564
 31
0.0
  0
POLYLINE
  5
EBB4
  8
ALPHA
 66
     1
 10
0.0
 20
0.0
 30
0.0
 70
   128
  0
VERTEX
  5
ED5E
  8
ALPHA
 10
174.917305
 20
134.378081
 30
0.0
  0
VERTEX
  5
ED5F
  8
ALPHA
 10
174.917305
 20
134.202329
 30
0.0
  0
VERTEX
  5
ED60
  8
ALPHA
 10
174.917305
 20
133.705636
 30
0.0
  0
VERTEX
  5
ED61
  8
ALPHA
 10
174.917305
 20
131.932827
 30
0.0
  0
VERTEX
  5
ED62
  8
ALPHA
 10
174.917305
 20
129.426442
 30
0.0
  0
VERTEX
  5
ED63
  8
ALPHA
 10
174.917305
 20
126.553269
 30
0.0
  0
VERTEX
  5
ED64
  8
ALPHA
 10
174.917305
 20
123.680096
 30
0.0
  0
VERTEX
  5
ED65
  8
ALPHA
 10
174.917305
 20
121.173711
 30
0.0
  0
VERTEX
  5
ED66
  8
ALPHA
 10
174.917305
 20
119.400902
 30
0.0
  0
VERTEX
  5
ED67
  8
ALPHA
 10
174.917305
 20
118.90421
 30
0.0
  0
VERTEX
  5
ED68
  8
ALPHA
 10
174.917305
 20
118.728457
 30
0.0
  0
SEQEND
  5
ED69
  8
ALPHA
  0
DIMENSION
  5
EBB6
  8
COTATION1
  2
*D30
 10
179.374781
 20
-6.271543
 30
0.0
 11
160.874781
 21
-3.021543
 31
0.0
 13
142.374781
 23
127.703713
 33
0.0
 14
179.374781
 24
29.728457
 34
0.0
  0
VIEWPORT
  5
494D
 67
     1
  8
0
 10
4.995325
 20
6.556512
 30
0.0
 40
22.70986
 41
13.988421
 68
    -1
 69
     1
1001
ACAD
1000
MVIEW
1002
{
1070
    16
1010
0.0
1020
0.0
1030
0.0
1010
0.0
1020
0.0
1030
1.0
1040
0.0
1040
13.988421
1040
4.995325
1040
6.556512
1040
50.0
1040
0.0
1040
0.0
1070
     0
1070
   100
1070
     1
1070
     1
1070
     0
1070
     0
1070
     0
1070
     0
1040
0.0
1040
0.0
1040
0.0
1040
10.0
1040
10.0
1040
10.0
1040
10.0
1070
     0
1002
{
1002
}
1002
}
  0
ENDSEC
  0
EOF
