  0
SECTION
  2
HEADER
  9
$ACADVER
  1
AC1014
  9
$ACADMAINTVER
 70
     9
  9
$DWGCODEPAGE
  3
ANSI_1252
  9
$INSBASE
 10
0.0
 20
0.0
 30
0.0
  9
$EXTMIN
 10
0.0
 20
0.190091554998471
 30
0.0
  9
$EXTMAX
 10
65.60000399999999
 20
41.19009155499847
 30
0.0
  9
$LIMMIN
 10
0.0
 20
0.0
  9
$LIMMAX
 10
16.40000099999999
 20
10.25
  9
$ORTHOMODE
 70
     0
  9
$REGENMODE
 70
     1
  9
$FILLMODE
 70
     1
  9
$QTEXTMODE
 70
     0
  9
$MIRRTEXT
 70
     1
  9
$DRAGMODE
 70
     2
  9
$LTSCALE
 40
1.0
  9
$OSMODE
 70
    39
  9
$ATTMODE
 70
     1
  9
$TEXTSIZE
 40
0.2
  9
$TRACEWID
 40
0.05
  9
$TEXTSTYLE
  7
ROMANS
  9
$CLAYER
  8
0
  9
$CELTYPE
  6
BYLAYER
  9
$CECOLOR
 62
   256
  9
$CELTSCALE
 40
1.0
  9
$DELOBJ
 70
     1
  9
$DISPSILH
 70
     0
  9
$DIMSCALE
 40
0.0
  9
$DIMASZ
 40
0.07
  9
$DIMEXO
 40
0.0625
  9
$DIMDLI
 40
0.38
  9
$DIMRND
 40
0.001
  9
$DIMDLE
 40
0.0
  9
$DIMEXE
 40
0.0625
  9
$DIMTP
 40
0.0
  9
$DIMTM
 40
0.0
  9
$DIMTXT
 40
0.1
  9
$DIMCEN
 40
0.09
  9
$DIMTSZ
 40
0.0
  9
$DIMTOL
 70
     0
  9
$DIMLIM
 70
     0
  9
$DIMTIH
 70
     1
  9
$DIMTOH
 70
     1
  9
$DIMSE1
 70
     0
  9
$DIMSE2
 70
     0
  9
$DIMTAD
 70
     0
  9
$DIMZIN
 70
     4
  9
$DIMBLK
  1
SEARROW
  9
$DIMASO
 70
     1
  9
$DIMSHO
 70
     1
  9
$DIMPOST
  1
\X
  9
$DIMAPOST
  1

  9
$DIMALT
 70
     1
  9
$DIMALTD
 70
     0
  9
$DIMALTF
 40
25.4
  9
$DIMLFAC
 40
1.0
  9
$DIMTOFL
 70
     0
  9
$DIMTVP
 40
0.0
  9
$DIMTIX
 70
     0
  9
$DIMSOXD
 70
     0
  9
$DIMSAH
 70
     0
  9
$DIMBLK1
  1

  9
$DIMBLK2
  1

  9
$DIMSTYLE
  2
SCHNEIDERELECTRIC
  9
$DIMCLRD
 70
   256
  9
$DIMCLRE
 70
   256
  9
$DIMCLRT
 70
   256
  9
$DIMTFAC
 40
1.0
  9
$DIMGAP
 40
0.04
  9
$DIMJUST
 70
     0
  9
$DIMSD1
 70
     0
  9
$DIMSD2
 70
     0
  9
$DIMTOLJ
 70
     1
  9
$DIMTZIN
 70
     0
  9
$DIMALTZ
 70
     0
  9
$DIMALTTZ
 70
     0
  9
$DIMFIT
 70
     3
  9
$DIMUPT
 70
     0
  9
$DIMUNIT
 70
     2
  9
$DIMDEC
 70
     2
  9
$DIMTDEC
 70
     2
  9
$DIMALTU
 70
     2
  9
$DIMALTTD
 70
     0
  9
$DIMTXSTY
  7
ROMANS
  9
$DIMAUNIT
 70
     0
  9
$LUNITS
 70
     2
  9
$LUPREC
 70
     4
  9
$SKETCHINC
 40
0.1
  9
$FILLETRAD
 40
0.5
  9
$AUNITS
 70
     0
  9
$AUPREC
 70
     0
  9
$MENU
  1
.
  9
$ELEVATION
 40
0.0
  9
$PELEVATION
 40
0.0
  9
$THICKNESS
 40
0.0
  9
$LIMCHECK
 70
     0
  9
$BLIPMODE
 70
     0
  9
$CHAMFERA
 40
0.5
  9
$CHAMFERB
 40
0.5
  9
$CHAMFERC
 40
1.0
  9
$CHAMFERD
 40
0.0
  9
$SKPOLY
 70
     0
  9
$TDCREATE
 40
2451764.535041909
  9
$TDUPDATE
 40
2451967.643950231
  9
$TDINDWG
 40
0.4515957060
  9
$TDUSRTIMER
 40
0.4515954745
  9
$USRTIMER
 70
     1
  9
$ANGBASE
 50
0.0
  9
$ANGDIR
 70
     0
  9
$PDMODE
 70
     0
  9
$PDSIZE
 40
0.0
  9
$PLINEWID
 40
0.0
  9
$COORDS
 70
     1
  9
$SPLFRAME
 70
     0
  9
$SPLINETYPE
 70
     6
  9
$SPLINESEGS
 70
     8
  9
$ATTDIA
 70
     0
  9
$ATTREQ
 70
     1
  9
$HANDLING
 70
-16383
  9
$HANDSEED
  5
975C
  9
$SURFTAB1
 70
     6
  9
$SURFTAB2
 70
     6
  9
$SURFTYPE
 70
     6
  9
$SURFU
 70
     6
  9
$SURFV
 70
     6
  9
$UCSNAME
  2

  9
$UCSORG
 10
0.0
 20
0.0
 30
0.0
  9
$UCSXDIR
 10
1.0
 20
0.0
 30
0.0
  9
$UCSYDIR
 10
0.0
 20
1.0
 30
0.0
  9
$PUCSNAME
  2

  9
$PUCSORG
 10
0.0
 20
0.0
 30
0.0
  9
$PUCSXDIR
 10
1.0
 20
0.0
 30
0.0
  9
$PUCSYDIR
 10
0.0
 20
1.0
 30
0.0
  9
$USERI1
 70
     0
  9
$USERI2
 70
     0
  9
$USERI3
 70
     0
  9
$USERI4
 70
     0
  9
$USERI5
 70
     0
  9
$USERR1
 40
0.0
  9
$USERR2
 40
0.0
  9
$USERR3
 40
0.0
  9
$USERR4
 40
0.0
  9
$USERR5
 40
0.0
  9
$WORLDVIEW
 70
     1
  9
$SHADEDGE
 70
     3
  9
$SHADEDIF
 70
    70
  9
$TILEMODE
 70
     1
  9
$MAXACTVP
 70
    48
  9
$PINSBASE
 10
0.0
 20
0.0
 30
0.0
  9
$PLIMCHECK
 70
     0
  9
$PEXTMIN
 10
0.0
 20
-0.1507193079929352
 30
0.0
  9
$PEXTMAX
 10
16.40000099999999
 20
10.25
 30
0.0
  9
$PLIMMIN
 10
-0.3022988315385811
 20
-0.4421500682141223
  9
$PLIMMAX
 10
16.69770068786963
 20
10.55784969148998
  9
$UNITMODE
 70
     0
  9
$VISRETAIN
 70
     1
  9
$PLINEGEN
 70
     0
  9
$PSLTSCALE
 70
     1
  9
$TREEDEPTH
 70
  3020
  9
$PICKSTYLE
 70
     1
  9
$CMLSTYLE
  2
STANDARD
  9
$CMLJUST
 70
     0
  9
$CMLSCALE
 40
1.0
  9
$PROXYGRAPHICS
 70
     1
  9
$MEASUREMENT
 70
     0
  0
ENDSEC
  0
SECTION
  2
CLASSES
  0
CLASS
  1
ACDBDICTIONARYWDFLT
  2
AcDbDictionaryWithDefault
  3
AutoCAD 2000
 90
        0
280
     0
281
     0
  0
CLASS
  1
ACDBPLACEHOLDER
  2
AcDbPlaceHolder
  3
AutoCAD 2000
 90
        0
280
     0
281
     0
  0
CLASS
  1
LAYOUT
  2
AcDbLayout
  3
AutoCAD 2000
 90
        0
280
     0
281
     0
  0
CLASS
  1
LONG_TRANSACTION
  2
AcDbLongTransaction
  3
AutoCAD 2000
 90
        0
280
     0
281
     0
  0
CLASS
  1
LWPOLYLINE
  2
AcDbPolyline
  3
AutoCAD 2000
 90
        0
280
     0
281
     1
  0
CLASS
  1
HATCH
  2
AcDbHatch
  3
AutoCAD 2000
 90
        0
280
     0
281
     1
  0
CLASS
  1
XRECORD
  2
AcDbXrecord
  3
AutoCAD 2000
 90
        0
280
     0
281
     0
  0
CLASS
  1
LONG_TRANSACTION
  2
AcDbLongTransaction
  3
AutoCAD 2000
 90
        0
280
     0
281
     0
  0
CLASS
  1
LWPOLYLINE
  2
AcDbPolyline
  3
AutoCAD 2000
 90
        0
280
     0
281
     1
  0
CLASS
  1
HATCH
  2
AcDbHatch
  3
AutoCAD 2000
 90
        0
280
     0
281
     1
  0
CLASS
  1
XRECORD
  2
AcDbXrecord
  3
AutoCAD 2000
 90
        0
280
     0
281
     0
  0
CLASS
  1
LONG_TRANSACTION
  2
AcDbLongTransaction
  3
AutoCAD 2000
 90
        0
280
     0
281
     0
  0
CLASS
  1
LWPOLYLINE
  2
AcDbPolyline
  3
AutoCAD 2000
 90
        0
280
     0
281
     1
  0
CLASS
  1
HATCH
  2
AcDbHatch
  3
AutoCAD 2000
 90
        0
280
     0
281
     1
  0
CLASS
  1
XRECORD
  2
AcDbXrecord
  3
AutoCAD 2000
 90
        0
280
     0
281
     0
  0
CLASS
  1
PLOTSETTINGS
  2
AcDbPlotSettings
  3
AutoCAD 2000
 90
        0
280
     0
281
     0
  0
CLASS
  1
ACME_DOCUMENT
  2
AcMeDbDoc
  3
AcMeServices
 90
        0
280
     0
281
     0
  0
CLASS
  1
AMGSETTINGSOBJ
  2
AmgSettingsObj
  3
"AcadM|Product Description: AutoCAD Mechanical 2000|Company: Autodesk"
 90
        0
280
     0
281
     0
  0
CLASS
  1
ACMESCOPE
  2
AcMeScope
  3
AcMeServices
 90
        0
280
     0
281
     0
  0
CLASS
  1
ACMECOMMANDHISTORY
  2
AcMeCommandHistory
  3
AcMeServices
 90
        0
280
     0
281
     0
  0
CLASS
  1
DICTIONARYVAR
  2
AcDbDictionaryVar
  3
AutoCAD 2000
 90
        0
280
     0
281
     0
  0
CLASS
  1
ACIMSYSVARMAN
  2
AcImSysVarManager
  3
AcMeServices
 90
        0
280
     0
281
     0
  0
CLASS
  1
ACIMREALSYSVAR
  2
AcImRealSysVar
  3
AcMeServices
 90
        0
280
     0
281
     0
  0
CLASS
  1
ACIMINTSYSVAR
  2
AcImIntSysVar
  3
AcMeServices
 90
        0
280
     0
281
     0
  0
CLASS
  1
ACMEDRAWINGMAN
  2
AcMeDrawingMan
  3
AcMeServices
 90
        0
280
     0
281
     0
  0
CLASS
  1
ACMEVIEW
  2
AcMeView
  3
AcMeServices
 90
        0
280
     0
281
     0
  0
CLASS
  1
ACDBENTITYCACHE
  2
AcMeEntityCache
  3
AcMeServices
 90
        0
280
     0
281
     0
  0
CLASS
  1
GSMANAGER
  2
AcMeGSManager
  3
AcMeServices
 90
        0
280
     0
281
     0
  0
CLASS
  1
AmdtInternalReactor
  2
AmdtInternalReactor
  3
AcMeServices
 90
        0
280
     0
281
     0
  0
CLASS
  1
ACMESTATEMGR
  2
AcMeStateMgr
  3
AcMeServices
 90
        0
280
     0
281
     0
  0
CLASS
  1
ACME_DATABASE
  2
AcMeDbDatabase
  3
AcMeServices
 90
        0
280
     0
281
     0
  0
CLASS
  1
ACRFINSADJUSTERMGR
  2
AcRfInsAdjusterMgr
  3
AcMeServices
 90
        0
280
     0
281
     0
  0
CLASS
  1
ACMDATADICTIONARY
  2
AcmDataDictionary
  3
"AcmSymBB|Product Description: AutoCAD Mechanical 2000|Company: Autodesk"
 90
        0
280
     0
281
     0
  0
CLASS
  1
ACMDATAENTRYBLOCK
  2
AcmDataEntryBlock
  3
"AcmSymBB|Product Description: AutoCAD Mechanical 2000|Company: Autodesk"
 90
        0
280
     0
281
     0
  0
CLASS
  1
AMGOBJPROPCFG
  2
AmgObjPropCfg
  3
"AmgLay|Product Description: AutoCAD Mechanical 2000|Company: Autodesk"
 90
        1
280
     0
281
     0
  0
CLASS
  1
ACAMGFILTERDAT
  2
AcAmgFilterDat
  3
"AcadM|Product Description: AutoCAD Mechanical 2000|Company: Autodesk"
 90
        0
280
     0
281
     0
  0
CLASS
  1
LAYER_INDEX
  2
AcDbLayerIndex
  3
AutoCAD 2000
 90
        0
280
     0
281
     0
  0
CLASS
  1
IDBUFFER
  2
AcDbIdBuffer
  3
AutoCAD 2000
 90
        0
280
     0
281
     0
  0
CLASS
  1
LONG_TRANSACTION
  2
AcDbLongTransaction
  3
AutoCAD 2000
 90
        0
280
     0
281
     0
  0
CLASS
  1
LWPOLYLINE
  2
AcDbPolyline
  3
AutoCAD 2000
 90
        0
280
     0
281
     1
  0
CLASS
  1
HATCH
  2
AcDbHatch
  3
AutoCAD 2000
 90
        0
280
     0
281
     1
  0
CLASS
  1
XRECORD
  2
AcDbXrecord
  3
AutoCAD 2000
 90
        0
280
     0
281
     0
  0
CLASS
  1
LONG_TRANSACTION
  2
AcDbLongTransaction
  3
AutoCAD 2000
 90
        0
280
     0
281
     0
  0
CLASS
  1
LWPOLYLINE
  2
AcDbPolyline
  3
AutoCAD 2000
 90
        0
280
     0
281
     1
  0
CLASS
  1
HATCH
  2
AcDbHatch
  3
AutoCAD 2000
 90
        0
280
     0
281
     1
  0
CLASS
  1
XRECORD
  2
AcDbXrecord
  3
AutoCAD 2000
 90
        0
280
     0
281
     0
  0
CLASS
  1
LONG_TRANSACTION
  2
AcDbLongTransaction
  3
AutoCAD 2000
 90
        0
280
     0
281
     0
  0
CLASS
  1
LWPOLYLINE
  2
AcDbPolyline
  3
AutoCAD 2000
 90
        0
280
     0
281
     1
  0
CLASS
  1
HATCH
  2
AcDbHatch
  3
AutoCAD 2000
 90
        0
280
     0
281
     1
  0
CLASS
  1
XRECORD
  2
AcDbXrecord
  3
AutoCAD 2000
 90
        0
280
     0
281
     0
  0
CLASS
  1
LONG_TRANSACTION
  2
AcDbLongTransaction
  3
AutoCAD 2000
 90
        0
280
     0
281
     0
  0
CLASS
  1
LWPOLYLINE
  2
AcDbPolyline
  3
AutoCAD 2000
 90
        0
280
     0
281
     1
  0
CLASS
  1
HATCH
  2
AcDbHatch
  3
AutoCAD 2000
 90
        0
280
     0
281
     1
  0
CLASS
  1
XRECORD
  2
AcDbXrecord
  3
AutoCAD 2000
 90
        0
280
     0
281
     0
  0
CLASS
  1
LONG_TRANSACTION
  2
AcDbLongTransaction
  3
AutoCAD 2000
 90
        0
280
     0
281
     0
  0
CLASS
  1
LWPOLYLINE
  2
AcDbPolyline
  3
AutoCAD 2000
 90
        0
280
     0
281
     1
  0
CLASS
  1
HATCH
  2
AcDbHatch
  3
AutoCAD 2000
 90
        0
280
     0
281
     1
  0
CLASS
  1
XRECORD
  2
AcDbXrecord
  3
AutoCAD 2000
 90
        0
280
     0
281
     0
  0
CLASS
  1
LONG_TRANSACTION
  2
AcDbLongTransaction
  3
AutoCAD 2000
 90
        0
280
     0
281
     0
  0
CLASS
  1
LWPOLYLINE
  2
AcDbPolyline
  3
AutoCAD 2000
 90
        0
280
     0
281
     1
  0
CLASS
  1
HATCH
  2
AcDbHatch
  3
AutoCAD 2000
 90
        0
280
     0
281
     1
  0
CLASS
  1
XRECORD
  2
AcDbXrecord
  3
AutoCAD 2000
 90
        0
280
     0
281
     0
  0
CLASS
  1
LONG_TRANSACTION
  2
AcDbLongTransaction
  3
AutoCAD 2000
 90
        0
280
     0
281
     0
  0
CLASS
  1
LWPOLYLINE
  2
AcDbPolyline
  3
AutoCAD 2000
 90
        0
280
     0
281
     1
  0
CLASS
  1
HATCH
  2
AcDbHatch
  3
AutoCAD 2000
 90
        0
280
     0
281
     1
  0
CLASS
  1
XRECORD
  2
AcDbXrecord
  3
AutoCAD 2000
 90
        0
280
     0
281
     0
  0
CLASS
  1
LONG_TRANSACTION
  2
AcDbLongTransaction
  3
AutoCAD 2000
 90
        0
280
     0
281
     0
  0
CLASS
  1
LWPOLYLINE
  2
AcDbPolyline
  3
AutoCAD 2000
 90
        0
280
     0
281
     1
  0
CLASS
  1
HATCH
  2
AcDbHatch
  3
AutoCAD 2000
 90
        0
280
     0
281
     1
  0
CLASS
  1
XRECORD
  2
AcDbXrecord
  3
AutoCAD 2000
 90
        0
280
     0
281
     0
  0
CLASS
  1
LONG_TRANSACTION
  2
AcDbLongTransaction
  3
AutoCAD 2000
 90
        0
280
     0
281
     0
  0
CLASS
  1
LWPOLYLINE
  2
AcDbPolyline
  3
AutoCAD 2000
 90
        0
280
     0
281
     1
  0
CLASS
  1
HATCH
  2
AcDbHatch
  3
AutoCAD 2000
 90
        0
280
     0
281
     1
  0
CLASS
  1
XRECORD
  2
AcDbXrecord
  3
AutoCAD 2000
 90
        0
280
     0
281
     0
  0
CLASS
  1
LONG_TRANSACTION
  2
AcDbLongTransaction
  3
AutoCAD 2000
 90
        0
280
     0
281
     0
  0
CLASS
  1
LWPOLYLINE
  2
AcDbPolyline
  3
AutoCAD 2000
 90
        0
280
     0
281
     1
  0
CLASS
  1
HATCH
  2
AcDbHatch
  3
AutoCAD 2000
 90
        0
280
     0
281
     1
  0
CLASS
  1
XRECORD
  2
AcDbXrecord
  3
AutoCAD 2000
 90
        0
280
     0
281
     0
  0
CLASS
  1
LONG_TRANSACTION
  2
AcDbLongTransaction
  3
AutoCAD 2000
 90
        0
280
     0
281
     0
  0
CLASS
  1
LWPOLYLINE
  2
AcDbPolyline
  3
AutoCAD 2000
 90
        0
280
     0
281
     1
  0
CLASS
  1
HATCH
  2
AcDbHatch
  3
AutoCAD 2000
 90
        0
280
     0
281
     1
  0
CLASS
  1
XRECORD
  2
AcDbXrecord
  3
AutoCAD 2000
 90
        0
280
     0
281
     0
  0
CLASS
  1
LONG_TRANSACTION
  2
AcDbLongTransaction
  3
AutoCAD 2000
 90
        0
280
     0
281
     0
  0
CLASS
  1
LWPOLYLINE
  2
AcDbPolyline
  3
AutoCAD 2000
 90
        0
280
     0
281
     1
  0
CLASS
  1
HATCH
  2
AcDbHatch
  3
AutoCAD 2000
 90
        0
280
     0
281
     1
  0
CLASS
  1
XRECORD
  2
AcDbXrecord
  3
AutoCAD 2000
 90
        0
280
     0
281
     0
  0
CLASS
  1
LONG_TRANSACTION
  2
AcDbLongTransaction
  3
AutoCAD 2000
 90
        0
280
     0
281
     0
  0
CLASS
  1
LWPOLYLINE
  2
AcDbPolyline
  3
AutoCAD 2000
 90
        0
280
     0
281
     1
  0
CLASS
  1
HATCH
  2
AcDbHatch
  3
AutoCAD 2000
 90
        0
280
     0
281
     1
  0
CLASS
  1
XRECORD
  2
AcDbXrecord
  3
AutoCAD 2000
 90
        0
280
     0
281
     0
  0
CLASS
  1
LONG_TRANSACTION
  2
AcDbLongTransaction
  3
AutoCAD 2000
 90
        0
280
     0
281
     0
  0
CLASS
  1
LWPOLYLINE
  2
AcDbPolyline
  3
AutoCAD 2000
 90
        0
280
     0
281
     1
  0
CLASS
  1
HATCH
  2
AcDbHatch
  3
AutoCAD 2000
 90
        0
280
     0
281
     1
  0
CLASS
  1
XRECORD
  2
AcDbXrecord
  3
AutoCAD 2000
 90
        0
280
     0
281
     0
  0
CLASS
  1
LONG_TRANSACTION
  2
AcDbLongTransaction
  3
AutoCAD 2000
 90
        0
280
     0
281
     0
  0
CLASS
  1
LWPOLYLINE
  2
AcDbPolyline
  3
AutoCAD 2000
 90
        0
280
     0
281
     1
  0
CLASS
  1
HATCH
  2
AcDbHatch
  3
AutoCAD 2000
 90
        0
280
     0
281
     1
  0
CLASS
  1
XRECORD
  2
AcDbXrecord
  3
AutoCAD 2000
 90
        0
280
     0
281
     0
  0
CLASS
  1
LONG_TRANSACTION
  2
AcDbLongTransaction
  3
AutoCAD 2000
 90
        0
280
     0
281
     0
  0
CLASS
  1
LWPOLYLINE
  2
AcDbPolyline
  3
AutoCAD 2000
 90
        0
280
     0
281
     1
  0
CLASS
  1
HATCH
  2
AcDbHatch
  3
AutoCAD 2000
 90
        0
280
     0
281
     1
  0
CLASS
  1
XRECORD
  2
AcDbXrecord
  3
AutoCAD 2000
 90
        0
280
     0
281
     0
  0
CLASS
  1
LONG_TRANSACTION
  2
AcDbLongTransaction
  3
AutoCAD 2000
 90
        0
280
     0
281
     0
  0
CLASS
  1
LWPOLYLINE
  2
AcDbPolyline
  3
AutoCAD 2000
 90
        0
280
     0
281
     1
  0
CLASS
  1
HATCH
  2
AcDbHatch
  3
AutoCAD 2000
 90
        0
280
     0
281
     1
  0
CLASS
  1
XRECORD
  2
AcDbXrecord
  3
AutoCAD 2000
 90
        0
280
     0
281
     0
  0
CLASS
  1
LONG_TRANSACTION
  2
AcDbLongTransaction
  3
AutoCAD 2000
 90
        0
280
     0
281
     0
  0
CLASS
  1
LWPOLYLINE
  2
AcDbPolyline
  3
AutoCAD 2000
 90
        0
280
     0
281
     1
  0
CLASS
  1
HATCH
  2
AcDbHatch
  3
AutoCAD 2000
 90
        0
280
     0
281
     1
  0
CLASS
  1
XRECORD
  2
AcDbXrecord
  3
AutoCAD 2000
 90
        0
280
     0
281
     0
  0
CLASS
  1
LONG_TRANSACTION
  2
AcDbLongTransaction
  3
AutoCAD 2000
 90
        0
280
     0
281
     0
  0
CLASS
  1
LWPOLYLINE
  2
AcDbPolyline
  3
AutoCAD 2000
 90
        0
280
     0
281
     1
  0
CLASS
  1
HATCH
  2
AcDbHatch
  3
AutoCAD 2000
 90
        0
280
     0
281
     1
  0
CLASS
  1
XRECORD
  2
AcDbXrecord
  3
AutoCAD 2000
 90
        0
280
     0
281
     0
  0
CLASS
  1
LONG_TRANSACTION
  2
AcDbLongTransaction
  3
AutoCAD 2000
 90
        0
280
     0
281
     0
  0
CLASS
  1
LWPOLYLINE
  2
AcDbPolyline
  3
AutoCAD 2000
 90
        0
280
     0
281
     1
  0
CLASS
  1
HATCH
  2
AcDbHatch
  3
AutoCAD 2000
 90
        0
280
     0
281
     1
  0
CLASS
  1
XRECORD
  2
AcDbXrecord
  3
AutoCAD 2000
 90
        0
280
     0
281
     0
  0
CLASS
  1
LONG_TRANSACTION
  2
AcDbLongTransaction
  3
AutoCAD 2000
 90
        0
280
     0
281
     0
  0
CLASS
  1
LWPOLYLINE
  2
AcDbPolyline
  3
AutoCAD 2000
 90
        0
280
     0
281
     1
  0
CLASS
  1
HATCH
  2
AcDbHatch
  3
AutoCAD 2000
 90
        0
280
     0
281
     1
  0
CLASS
  1
XRECORD
  2
AcDbXrecord
  3
AutoCAD 2000
 90
        0
280
     0
281
     0
  0
CLASS
  1
LONG_TRANSACTION
  2
AcDbLongTransaction
  3
AutoCAD 2000
 90
        0
280
     0
281
     0
  0
CLASS
  1
LWPOLYLINE
  2
AcDbPolyline
  3
AutoCAD 2000
 90
        0
280
     0
281
     1
  0
CLASS
  1
HATCH
  2
AcDbHatch
  3
AutoCAD 2000
 90
        0
280
     0
281
     1
  0
CLASS
  1
XRECORD
  2
AcDbXrecord
  3
AutoCAD 2000
 90
        0
280
     0
281
     0
  0
CLASS
  1
LONG_TRANSACTION
  2
AcDbLongTransaction
  3
AutoCAD 2000
 90
        0
280
     0
281
     0
  0
CLASS
  1
LWPOLYLINE
  2
AcDbPolyline
  3
AutoCAD 2000
 90
        0
280
     0
281
     1
  0
CLASS
  1
HATCH
  2
AcDbHatch
  3
AutoCAD 2000
 90
        0
280
     0
281
     1
  0
CLASS
  1
XRECORD
  2
AcDbXrecord
  3
AutoCAD 2000
 90
        0
280
     0
281
     0
  0
ENDSEC
  0
SECTION
  2
TABLES
  0
TABLE
  2
VPORT
  5
8
330
0
100
AcDbSymbolTable
 70
     2
  0
VPORT
  5
9738
330
8
100
AcDbSymbolTableRecord
100
AcDbViewportTableRecord
  2
*ACTIVE
 70
     0
 10
0.0
 20
0.0
 11
1.0
 21
1.0
 12
32.80000245823871
 22
21.63345076084539
 13
0.0
 23
0.0
 14
0.5
 24
0.5
 15
0.5
 25
0.5
 16
0.0
 26
0.0
 36
1.0
 17
0.0
 27
0.0
 37
0.0
 40
43.28909317429088
 41
1.710334788937409
 42
50.0
 43
0.0
 44
0.0
 50
0.0
 51
0.0
 71
     0
 72
   100
 73
     1
 74
     2
 75
     0
 76
     0
 77
     0
 78
     0
  0
ENDTAB
  0
TABLE
  2
LTYPE
  5
5
330
0
100
AcDbSymbolTable
 70
     7
  0
LTYPE
  5
14
330
5
100
AcDbSymbolTableRecord
100
AcDbLinetypeTableRecord
  2
BYBLOCK
 70
     0
  3

 72
    65
 73
     0
 40
0.0
  0
LTYPE
  5
15
330
5
100
AcDbSymbolTableRecord
100
AcDbLinetypeTableRecord
  2
BYLAYER
 70
     0
  3

 72
    65
 73
     0
 40
0.0
  0
LTYPE
  5
16
330
5
100
AcDbSymbolTableRecord
100
AcDbLinetypeTableRecord
  2
CONTINUOUS
 70
     0
  3
Solid line
 72
    65
 73
     0
 40
0.0
  0
LTYPE
  5
3D
330
5
100
AcDbSymbolTableRecord
100
AcDbLinetypeTableRecord
  2
CENTER2
 70
     0
  3
Center (.5x) ___ _ ___ _ ___ _ ___ _ ___ _ ___
 72
    65
 73
     4
 40
1.125
 49
0.75
 74
     0
 49
-0.125
 74
     0
 49
0.125
 74
     0
 49
-0.125
 74
     0
  0
LTYPE
  5
3E
330
5
100
AcDbSymbolTableRecord
100
AcDbLinetypeTableRecord
  2
DASHDOT2
 70
     0
  3
Dash dot (.5x) _._._._._._._._._._._._._._._.
 72
    65
 73
     4
 40
0.5
 49
0.25
 74
     0
 49
-0.125
 74
     0
 49
0.0
 74
     0
 49
-0.125
 74
     0
  0
LTYPE
  5
3F
330
5
100
AcDbSymbolTableRecord
100
AcDbLinetypeTableRecord
  2
DASHED2
 70
     0
  3
Dashed (.5x) _ _ _ _ _ _ _ _ _ _ _ _ _ _ _ _ _
 72
    65
 73
     2
 40
0.375
 49
0.25
 74
     0
 49
-0.125
 74
     0
  0
LTYPE
  5
40
330
5
100
AcDbSymbolTableRecord
100
AcDbLinetypeTableRecord
  2
HIDDEN2
 70
     0
  3
Hidden (.5x) _ _ _ _ _ _ _ _ _ _ _ _ _ _ _ _ _
 72
    65
 73
     2
 40
0.1875
 49
0.125
 74
     0
 49
-0.0625
 74
     0
  0
LTYPE
  5
41
330
5
100
AcDbSymbolTableRecord
100
AcDbLinetypeTableRecord
  2
PHANTOM2
 70
     0
  3
Phantom (.5x) ___ _ _ ___ _ _ ___ _ _ ___ _ _
 72
    65
 73
     6
 40
1.25
 49
0.625
 74
     0
 49
-0.125
 74
     0
 49
0.125
 74
     0
 49
-0.125
 74
     0
 49
0.125
 74
     0
 49
-0.125
 74
     0
  0
LTYPE
  5
8A4B
330
5
100
AcDbSymbolTableRecord
100
AcDbLinetypeTableRecord
  2
PHANTOM
 70
     0
  3
______  __  __  ______  __  __  ______  __  __ 
 72
    65
 73
     6
 40
2.5
 49
1.25
 74
     0
 49
-0.25
 74
     0
 49
0.25
 74
     0
 49
-0.25
 74
     0
 49
0.25
 74
     0
 49
-0.25
 74
     0
  0
ENDTAB
  0
TABLE
  2
LAYER
  5
2
330
0
100
AcDbSymbolTable
 70
    26
  0
LAYER
  5
10
330
2
100
AcDbSymbolTableRecord
100
AcDbLayerTableRecord
  2
0
 70
     0
 62
     7
  6
CONTINUOUS
  0
LAYER
  5
42
330
2
100
AcDbSymbolTableRecord
100
AcDbLayerTableRecord
  2
BLOCKS
 70
     0
 62
     7
  6
CONTINUOUS
  0
LAYER
  5
43
330
2
100
AcDbSymbolTableRecord
100
AcDbLayerTableRecord
  2
CENTER1
 70
     0
 62
     2
  6
CENTER2
  0
LAYER
  5
44
330
2
100
AcDbSymbolTableRecord
100
AcDbLayerTableRecord
  2
CENTER2
 70
     0
 62
    50
  6
CENTER2
  0
LAYER
  5
45
330
2
100
AcDbSymbolTableRecord
100
AcDbLayerTableRecord
  2
CENTER3
 70
     0
 62
    51
  6
CENTER2
  0
LAYER
  5
46
330
2
100
AcDbSymbolTableRecord
100
AcDbLayerTableRecord
  2
CONSTRUCTION
 70
     0
 62
   241
  6
DASHED2
  0
LAYER
  5
47
330
2
100
AcDbSymbolTableRecord
100
AcDbLayerTableRecord
  2
CONTINUOUS1
 70
     0
 62
     7
  6
CONTINUOUS
  0
LAYER
  5
48
330
2
100
AcDbSymbolTableRecord
100
AcDbLayerTableRecord
  2
CONTINUOUS2
 70
     0
 62
   254
  6
CONTINUOUS
  0
LAYER
  5
49
330
2
100
AcDbSymbolTableRecord
100
AcDbLayerTableRecord
  2
CONTINUOUS3
 70
     0
 62
   253
  6
CONTINUOUS
  0
LAYER
  5
4A
330
2
100
AcDbSymbolTableRecord
100
AcDbLayerTableRecord
  2
DASHDOT1
 70
     0
 62
     1
  6
DASHDOT2
  0
LAYER
  5
4B
330
2
100
AcDbSymbolTableRecord
100
AcDbLayerTableRecord
  2
DASHDOT2
 70
     0
 62
    10
  6
DASHDOT2
  0
LAYER
  5
4C
330
2
100
AcDbSymbolTableRecord
100
AcDbLayerTableRecord
  2
DASHDOT3
 70
     0
 62
    12
  6
DASHDOT2
  0
LAYER
  5
4D
330
2
100
AcDbSymbolTableRecord
100
AcDbLayerTableRecord
  2
DIM
 70
     0
 62
     2
  6
CONTINUOUS
  0
LAYER
  5
4E
330
2
100
AcDbSymbolTableRecord
100
AcDbLayerTableRecord
  2
HIDDEN1
 70
     0
 62
     5
  6
HIDDEN2
  0
LAYER
  5
4F
330
2
100
AcDbSymbolTableRecord
100
AcDbLayerTableRecord
  2
HIDDEN2
 70
     0
 62
   160
  6
HIDDEN2
  0
LAYER
  5
50
330
2
100
AcDbSymbolTableRecord
100
AcDbLayerTableRecord
  2
HIDDEN3
 70
     0
 62
   162
  6
HIDDEN2
  0
LAYER
  5
52
330
2
100
AcDbSymbolTableRecord
100
AcDbLayerTableRecord
  2
PHANTOM1
 70
     0
 62
     6
  6
PHANTOM2
  0
LAYER
  5
53
330
2
100
AcDbSymbolTableRecord
100
AcDbLayerTableRecord
  2
PHANTOM2
 70
     0
 62
   210
  6
PHANTOM2
  0
LAYER
  5
54
330
2
100
AcDbSymbolTableRecord
100
AcDbLayerTableRecord
  2
PHANTOM3
 70
     0
 62
   212
  6
PHANTOM2
  0
LAYER
  5
55
330
2
100
AcDbSymbolTableRecord
100
AcDbLayerTableRecord
  2
TEXT1
 70
     0
 62
     3
  6
CONTINUOUS
  0
LAYER
  5
56
330
2
100
AcDbSymbolTableRecord
100
AcDbLayerTableRecord
  2
TEXT2
 70
     0
 62
    80
  6
CONTINUOUS
  0
LAYER
  5
57
330
2
100
AcDbSymbolTableRecord
100
AcDbLayerTableRecord
  2
TEXT3
 70
     0
 62
    82
  6
CONTINUOUS
  0
LAYER
  5
58
330
2
100
AcDbSymbolTableRecord
100
AcDbLayerTableRecord
  2
TITLEBLOCK
 70
     0
 62
     9
  6
CONTINUOUS
  0
LAYER
  5
59
330
2
100
AcDbSymbolTableRecord
100
AcDbLayerTableRecord
  2
VIEWPORT
 70
     0
 62
     9
  6
CONTINUOUS
  0
LAYER
  5
8A4E
330
2
100
AcDbSymbolTableRecord
100
AcDbLayerTableRecord
  2
MOUNTING
 70
     0
 62
     7
  6
CENTER2
  0
LAYER
  5
8A51
330
2
100
AcDbSymbolTableRecord
100
AcDbLayerTableRecord
  2
DEFPOINTS
 70
     5
 62
    -4
  6
CONTINUOUS
  0
ENDTAB
  0
TABLE
  2
STYLE
  5
3
330
0
100
AcDbSymbolTable
 70
     4
  0
STYLE
  5
11
330
3
100
AcDbSymbolTableRecord
100
AcDbTextStyleTableRecord
  2
STANDARD
 70
     0
 40
0.0
 41
1.0
 50
0.0
 71
     0
 42
0.2
  3
txt
  4

  0
STYLE
  5
36
330
3
100
AcDbSymbolTableRecord
100
AcDbTextStyleTableRecord
  2
ROMANS
 70
     0
 40
0.0
 41
1.0
 50
0.0
 71
     0
 42
0.2
  3
romans.shx
  4

  0
STYLE
  5
6CC
330
3
100
AcDbSymbolTableRecord
100
AcDbTextStyleTableRecord
  2
M_STANDARD
 70
     0
 40
0.0
 41
0.8
 50
0.0
 71
     0
 42
0.0
  3
MEDUSA.SHX
  4

  0
STYLE
  5
D51
330
3
100
AcDbSymbolTableRecord
100
AcDbTextStyleTableRecord
  2
SIMPLEX
 70
     0
 40
0.0
 41
1.0
 50
0.0
 71
     0
 42
0.25
  3
SIMPLEX.shx
  4

  0
ENDTAB
  0
TABLE
  2
VIEW
  5
6
330
0
100
AcDbSymbolTable
 70
     0
  0
ENDTAB
  0
TABLE
  2
UCS
  5
7
330
0
100
AcDbSymbolTable
 70
     0
  0
ENDTAB
  0
TABLE
  2
APPID
  5
9
330
0
100
AcDbSymbolTable
 70
    11
  0
APPID
  5
12
330
9
100
AcDbSymbolTableRecord
100
AcDbRegAppTableRecord
  2
ACAD
 70
     0
  0
APPID
  5
6B
330
9
100
AcDbSymbolTableRecord
100
AcDbRegAppTableRecord
  2
DCO15
 70
     0
  0
APPID
  5
370
330
9
100
AcDbSymbolTableRecord
100
AcDbRegAppTableRecord
  2
MCAD_NO_VIS
 70
     0
  0
APPID
  5
371
330
9
100
AcDbSymbolTableRecord
100
AcDbRegAppTableRecord
  2
ACAD_TEMP_GRAPHIC
 70
     0
  0
APPID
  5
387
330
9
100
AcDbSymbolTableRecord
100
AcDbRegAppTableRecord
  2
GENIUS_GENSCREG_15
 70
     0
  0
APPID
  5
389
330
9
100
AcDbSymbolTableRecord
100
AcDbRegAppTableRecord
  2
GENIUS_GENODEF_13
 70
     0
  0
APPID
  5
38A
330
9
100
AcDbSymbolTableRecord
100
AcDbRegAppTableRecord
  2
GENIUS_GENOBJ-N-SDF_13
 70
     0
  0
APPID
  5
38B
330
9
100
AcDbSymbolTableRecord
100
AcDbRegAppTableRecord
  2
GENIUS_GENOENT_13
 70
     0
  0
APPID
  5
38C
330
9
100
AcDbSymbolTableRecord
100
AcDbRegAppTableRecord
  2
GENIUS_GENOREF_13
 70
     0
  0
APPID
  5
38D
330
9
100
AcDbSymbolTableRecord
100
AcDbRegAppTableRecord
  2
GENIUS_GENOLIS_13
 70
     0
  0
APPID
  5
6CE
330
9
100
AcDbSymbolTableRecord
100
AcDbRegAppTableRecord
  2
MED_PRIMTYPE
 70
     0
  0
ENDTAB
  0
TABLE
  2
DIMSTYLE
  5
A
330
0
100
AcDbSymbolTable
 70
     1
  0
DIMSTYLE
105
94B7
102
{ACAD_REACTORS
330
9387
330
9379
330
9106
330
9052
330
9040
330
903E
330
9031
330
9026
330
9025
330
9024
102
}
330
A
100
AcDbSymbolTableRecord
100
AcDbDimStyleTableRecord
  2
SCHNEIDERELECTRIC
 70
     0
  3
\X
  4

  5
SEARROW
  6

  7

 40
0.0
 41
0.07
 42
0.0625
 43
0.38
 44
0.0625
 45
0.001
 46
0.0
 47
0.0
 48
0.0
140
0.1
141
0.09
142
0.0
143
25.4
144
1.0
145
0.0
146
1.0
147
0.04
 71
     0
 72
     0
 73
     1
 74
     1
 75
     0
 76
     0
 77
     0
 78
     4
170
     1
171
     0
172
     0
173
     0
174
     0
175
     0
176
   256
177
   256
178
   256
270
     2
271
     2
272
     2
273
     2
274
     0
340
36
275
     0
280
     0
281
     0
282
     0
283
     1
284
     0
285
     0
286
     0
287
     3
288
     0
  0
ENDTAB
  0
TABLE
  2
BLOCK_RECORD
  5
1
330
0
100
AcDbSymbolTable
 70
    16
  0
BLOCK_RECORD
  5
1F
102
{ACAD_XDICTIONARY
360
73
102
}
330
1
100
AcDbSymbolTableRecord
100
AcDbBlockTableRecord
  2
*MODEL_SPACE
  0
BLOCK_RECORD
  5
1B
102
{ACAD_XDICTIONARY
360
75
102
}
330
1
100
AcDbSymbolTableRecord
100
AcDbBlockTableRecord
  2
*PAPER_SPACE
  0
BLOCK_RECORD
  5
783
330
1
100
AcDbSymbolTableRecord
100
AcDbBlockTableRecord
  2
NEWLAYERS
1001
ACAD
1000
DesignCenter Data
1002
{
1070
     1
1070
     1
1002
}
  0
BLOCK_RECORD
  5
841
330
1
100
AcDbSymbolTableRecord
100
AcDbBlockTableRecord
  2
LOGO-PAD
1001
ACAD
1000
DesignCenter Data
1002
{
1070
     1
1070
     1
1002
}
  0
BLOCK_RECORD
  5
AE5
330
1
100
AcDbSymbolTableRecord
100
AcDbBlockTableRecord
  2
TITLE-PAD
1001
ACAD
1000
DesignCenter Data
1002
{
1070
     1
1070
     1
1002
}
  0
BLOCK_RECORD
  5
D52
330
1
100
AcDbSymbolTableRecord
100
AcDbBlockTableRecord
  2
OEM-NOTES
1001
ACAD
1000
DesignCenter Data
1002
{
1070
     1
1070
     1
1002
}
  0
BLOCK_RECORD
  5
896D
330
1
100
AcDbSymbolTableRecord
100
AcDbBlockTableRecord
  2
REF2
  0
BLOCK_RECORD
  5
9110
330
1
100
AcDbSymbolTableRecord
100
AcDbBlockTableRecord
  2
*D5
  0
BLOCK_RECORD
  5
911D
330
1
100
AcDbSymbolTableRecord
100
AcDbBlockTableRecord
  2
*D6
  0
BLOCK_RECORD
  5
912A
330
1
100
AcDbSymbolTableRecord
100
AcDbBlockTableRecord
  2
*D7
  0
BLOCK_RECORD
  5
9137
330
1
100
AcDbSymbolTableRecord
100
AcDbBlockTableRecord
  2
*D8
  0
BLOCK_RECORD
  5
9144
330
1
100
AcDbSymbolTableRecord
100
AcDbBlockTableRecord
  2
*D9
  0
BLOCK_RECORD
  5
915E
330
1
100
AcDbSymbolTableRecord
100
AcDbBlockTableRecord
  2
*D10
  0
BLOCK_RECORD
  5
916B
330
1
100
AcDbSymbolTableRecord
100
AcDbBlockTableRecord
  2
*D11
  0
BLOCK_RECORD
  5
9178
330
1
100
AcDbSymbolTableRecord
100
AcDbBlockTableRecord
  2
*D12
  0
BLOCK_RECORD
  5
937A
330
1
100
AcDbSymbolTableRecord
100
AcDbBlockTableRecord
  2
*D13
  0
BLOCK_RECORD
  5
9388
330
1
100
AcDbSymbolTableRecord
100
AcDbBlockTableRecord
  2
*D14
  0
BLOCK_RECORD
  5
94B2
330
1
100
AcDbSymbolTableRecord
100
AcDbBlockTableRecord
  2
SEARROW
1001
ACAD
1000
DesignCenter Data
1002
{
1070
     1
1070
     1
1002
}
  0
ENDTAB
  0
ENDSEC
  0
SECTION
  2
BLOCKS
  0
BLOCK
  5
20
330
1F
100
AcDbEntity
  8
0
100
AcDbBlockBegin
  2
*MODEL_SPACE
 70
     0
 10
0.0
 20
0.0
 30
0.0
  3
*MODEL_SPACE
  1

  0
ENDBLK
  5
21
330
1F
100
AcDbEntity
  8
0
100
AcDbBlockEnd
  0
BLOCK
  5
1C
330
1B
100
AcDbEntity
 67
     1
  8
0
100
AcDbBlockBegin
  2
*PAPER_SPACE
 70
     0
 10
0.0
 20
0.0
 30
0.0
  3
*PAPER_SPACE
  1

  0
ENDBLK
  5
1D
330
1B
100
AcDbEntity
 67
     1
  8
0
100
AcDbBlockEnd
  0
BLOCK
  5
79C
330
783
100
AcDbEntity
  8
0
100
AcDbBlockBegin
  2
NEWLAYERS
 70
     0
 10
0.0
 20
0.0
 30
0.0
  3
NEWLAYERS
  1

  0
LINE
  5
784
330
783
100
AcDbEntity
  8
PHANTOM1
100
AcDbLine
 10
0.264152010466205
 20
0.3394492053544127
 30
0.0
 11
0.264152010466205
 21
0.1923545555598593
 31
0.0
  0
LINE
  5
785
330
783
100
AcDbEntity
  8
PHANTOM2
100
AcDbLine
 10
0.3018880119612959
 20
0.3394492053544127
 30
0.0
 11
0.3018880119612959
 21
0.1923545555598593
 31
0.0
  0
LINE
  5
786
330
783
100
AcDbEntity
  8
PHANTOM3
100
AcDbLine
 10
0.3396240134565005
 20
0.3394492053544127
 30
0.0
 11
0.3396240134565005
 21
0.1923545555598593
 31
0.0
  0
LINE
  5
787
330
783
100
AcDbEntity
  8
DASHDOT2
100
AcDbLine
 10
0.0
 20
0.3394492053544127
 30
0.0
 11
0.0
 21
0.1923545555598593
 31
0.0
  0
LINE
  5
788
330
783
100
AcDbEntity
  8
DASHDOT3
100
AcDbLine
 10
0.0377360014952046
 20
0.3394492053544127
 30
0.0
 11
0.0377360014952046
 21
0.1923545555598593
 31
0.0
  0
LINE
  5
789
330
783
100
AcDbEntity
  8
DIM
100
AcDbLine
 10
0.0754720029902956
 20
0.3394492053544127
 30
0.0
 11
0.0754720029902956
 21
0.1923545555598593
 31
0.0
  0
LINE
  5
78A
330
783
100
AcDbEntity
  8
HIDDEN1
100
AcDbLine
 10
0.1132080044855002
 20
0.3394492053544127
 30
0.0
 11
0.1132080044855002
 21
0.1923545555598593
 31
0.0
  0
LINE
  5
78B
330
783
100
AcDbEntity
  8
HIDDEN2
100
AcDbLine
 10
0.1509440059807048
 20
0.3394492053544127
 30
0.0
 11
0.1509440059807048
 21
0.1923545555598593
 31
0.0
  0
LINE
  5
78C
330
783
100
AcDbEntity
  8
HIDDEN3
100
AcDbLine
 10
0.1886800074757957
 20
0.3394492053544127
 30
0.0
 11
0.1886800074757957
 21
0.1923545555598593
 31
0.0
  0
LINE
  5
78D
330
783
100
AcDbEntity
  8
TEXT1
100
AcDbLine
 10
0.0
 20
0.1470946497945533
 30
0.0
 11
0.0
 21
0.0
 31
0.0
  0
LINE
  5
78E
330
783
100
AcDbEntity
  8
TEXT2
100
AcDbLine
 10
0.0377360014952046
 20
0.1470946497945533
 30
0.0
 11
0.0377360014952046
 21
0.0
 31
0.0
  0
LINE
  5
78F
330
783
100
AcDbEntity
  8
TEXT3
100
AcDbLine
 10
0.0754720029902956
 20
0.1470946497945533
 30
0.0
 11
0.0754720029902956
 21
0.0
 31
0.0
  0
LINE
  5
790
330
783
100
AcDbEntity
  8
TITLEBLOCK
100
AcDbLine
 10
0.1132080044855002
 20
0.1470946497945533
 30
0.0
 11
0.1132080044855002
 21
0.0
 31
0.0
  0
LINE
  5
791
330
783
100
AcDbEntity
  8
VIEWPORT
100
AcDbLine
 10
0.1509440059807048
 20
0.1470946497945533
 30
0.0
 11
0.1509440059807048
 21
0.0
 31
0.0
  0
LINE
  5
792
330
783
100
AcDbEntity
  8
BLOCKS
100
AcDbLine
 10
0.0377360014952046
 20
0.5318037609142721
 30
0.0
 11
0.0377360014952046
 21
0.3847091111197187
 31
0.0
  0
LINE
  5
793
330
783
100
AcDbEntity
  8
0
100
AcDbLine
 10
0.0
 20
0.5318037609142721
 30
0.0
 11
0.0
 21
0.3847091111197187
 31
0.0
  0
LINE
  5
794
330
783
100
AcDbEntity
  8
CENTER1
100
AcDbLine
 10
0.0754720029902956
 20
0.5318037609142721
 30
0.0
 11
0.0754720029902956
 21
0.3847091111197187
 31
0.0
  0
LINE
  5
795
330
783
100
AcDbEntity
  8
CENTER2
100
AcDbLine
 10
0.1132080044855002
 20
0.5318037609142721
 30
0.0
 11
0.1132080044855002
 21
0.3847091111197187
 31
0.0
  0
LINE
  5
796
330
783
100
AcDbEntity
  8
CENTER3
100
AcDbLine
 10
0.1509440059807048
 20
0.5318037609142721
 30
0.0
 11
0.1509440059807048
 21
0.3847091111197187
 31
0.0
  0
LINE
  5
797
330
783
100
AcDbEntity
  8
CONSTRUCTION
100
AcDbLine
 10
0.1886800074757957
 20
0.5318037609142721
 30
0.0
 11
0.1886800074757957
 21
0.3847091111197187
 31
0.0
  0
LINE
  5
798
330
783
100
AcDbEntity
  8
CONTINUOUS1
100
AcDbLine
 10
0.2264160089710003
 20
0.5318037609142721
 30
0.0
 11
0.2264160089710003
 21
0.3847091111197187
 31
0.0
  0
LINE
  5
799
330
783
100
AcDbEntity
  8
CONTINUOUS2
100
AcDbLine
 10
0.264152010466205
 20
0.5318037609142721
 30
0.0
 11
0.264152010466205
 21
0.3847091111197187
 31
0.0
  0
LINE
  5
79A
330
783
100
AcDbEntity
  8
CONTINUOUS3
100
AcDbLine
 10
0.3018880119612959
 20
0.5318037609142721
 30
0.0
 11
0.3018880119612959
 21
0.3847091111197187
 31
0.0
  0
LINE
  5
79B
330
783
100
AcDbEntity
  8
DASHDOT1
100
AcDbLine
 10
0.3396240134565005
 20
0.5318037609142721
 30
0.0
 11
0.3396240134565005
 21
0.3847091111197187
 31
0.0
  0
ENDBLK
  5
79D
330
783
100
AcDbEntity
  8
0
100
AcDbBlockEnd
  0
BLOCK
  5
852
330
841
100
AcDbEntity
  8
0
100
AcDbBlockBegin
  2
LOGO-PAD
 70
     0
 10
0.0
 20
0.0
 30
0.0
  3
LOGO-PAD
  1

  0
HATCH
  5
842
330
841
100
AcDbEntity
  8
TITLEBLOCK
 62
     0
100
AcDbHatch
 10
0.0
 20
0.0
 30
0.0
210
0.0
220
0.0
230
1.0
  2
SOLID
 70
     1
 71
     0
 91
        2
 92
        1
 93
       11
 72
     2
 10
1.203771209334867
 20
0.3650136751459491
 40
0.021562648149145
 50
90.00000747299615
 51
179.9997683268519
 73
     1
 72
     1
 10
1.182208561185898
 20
0.3650137623336376
 11
1.182208392435807
 21
0.2795138227272444
 72
     2
 10
1.203771079023129
 20
0.2795136821032751
 40
0.0215626865877801
 50
179.9996263378447
 51
269.9998903896797
 73
     1
 72
     1
 10
1.203771037772394
 20
0.2579509955155343
 11
1.330521045577125
 21
0.2579511736405264
 72
     2
 10
1.330521265257171
 20
0.2795136382789064
 40
0.021562464639499
 50
269.9994162661957
 51
311.7040125634689
 73
     1
 72
     1
 10
1.344866398698837
 20
0.2634152834601535
 11
1.352083334663557
 21
0.2579511736405264
 72
     1
 10
1.352083334663557
 20
0.2579511736405264
 11
1.365099386916806
 21
0.2751416404960081
 72
     1
 10
1.365099386916806
 20
0.2751416404960081
 11
1.352083522163621
 21
0.284997066934386
 72
     1
 10
1.352083522163621
 20
0.284997066934386
 11
1.352083690913712
 21
0.3650136723335662
 72
     2
 10
1.330521042764654
 20
0.3650136751460369
 40
0.0215626481490576
 50
359.9999925267666
 51
449.9999925267678
 73
     1
 72
     1
 10
1.330521045577125
 20
0.3865763232950938
 11
1.203771206522485
 21
0.3865763232950938
 97
        0
 92
       16
 93
       10
 72
     2
 10
1.21455271481628
 20
0.3542325202904111
 40
0.0107811520434708
 50
90.00043844291294
 51
179.9999701074038
 73
     1
 72
     1
 10
1.203771562772811
 20
0.3542325259151993
 11
1.203771562772811
 21
0.2902950591455122
 72
     2
 10
1.214552849813946
 20
0.2902948416431456
 40
0.0107812870433294
 50
179.9988441113203
 51
269.9988441346395
 73
     1
 72
     1
 10
1.214552632315967
 20
0.2795135546020104
 11
1.323606134809704
 21
0.2795135546020104
 72
     1
 10
1.323606134809704
 20
0.2795135546020104
 11
1.280867956889135
 21
0.311873265117333
 72
     1
 10
1.280867956889135
 20
0.311873265117333
 11
1.293884009142384
 21
0.3290635557226322
 72
     1
 10
1.293884009142384
 20
0.3290635557226322
 11
1.330521045577125
 21
0.3013240413506308
 72
     1
 10
1.330521045577125
 20
0.3013240413506308
 11
1.330521045577125
 21
0.3542324377902786
 72
     2
 10
1.319739809158772
 20
0.3542324359152127
 40
0.0107812364183532
 50
0.0000099648460607
 51
90.00000996484372
 73
     1
 72
     1
 10
1.319739807283706
 20
0.3650136723335662
 11
1.214552632315967
 21
0.3650136723335662
 97
        0
 75
     0
 76
     1
 98
        1
 10
-7.279586802153931
 20
-0.4081141432880261
  0
HATCH
  5
843
330
841
100
AcDbEntity
  8
TITLEBLOCK
 62
     0
100
AcDbHatch
 10
0.0
 20
0.0
 30
0.0
210
0.0
220
0.0
230
1.0
  2
SOLID
 70
     1
 71
     0
 91
        1
 92
        1
 93
        4
 72
     1
 10
3.703333445713536
 20
0.1990762889281312
 11
1.018147379006204
 21
0.1990762889281312
 72
     1
 10
1.018147379006204
 20
0.1990762889281312
 11
1.018147379006204
 21
0.220706173683743
 72
     1
 10
1.018147379006204
 20
0.220706173683743
 11
3.703333445713536
 21
0.220706173683743
 72
     1
 10
3.703333445713536
 20
0.220706173683743
 11
3.703333445713536
 21
0.1990762889281312
 97
        0
 75
     0
 76
     1
 98
        1
 10
-7.279586802153931
 20
-0.4081141432880261
  0
HATCH
  5
844
330
841
100
AcDbEntity
  8
TITLEBLOCK
 62
     0
100
AcDbHatch
 10
0.0
 20
0.0
 30
0.0
210
0.0
220
0.0
230
1.0
  2
SOLID
 70
     1
 71
     0
 91
        4
 92
        1
 93
        4
 72
     1
 10
0.8306472632318495
 20
0.4814782717956759
 11
0.4556470182475714
 21
0.4814782717956759
 72
     1
 10
0.4556470182475714
 20
0.4814782717956759
 11
0.4556470182475714
 21
0.1064783844396073
 72
     1
 10
0.4556470182475714
 20
0.1064783844396073
 11
0.8306472632318495
 21
0.1064783844396073
 72
     1
 10
0.8306472632318495
 20
0.1064783844396073
 11
0.8306472632318495
 21
0.4814782717956759
 97
        0
 92
        0
 93
       10
 72
     1
 10
0.7368972019857374
 20
0.4177282462416896
 11
0.5193971779121789
 21
0.4177282462416896
 72
     1
 10
0.5193971779121789
 20
0.4177282462416896
 11
0.5193971779121789
 21
0.37460312508514
 72
     1
 10
0.5193971779121789
 20
0.37460312508514
 11
0.5531473465883146
 21
0.37460312508514
 72
     1
 10
0.5531473465883146
 20
0.37460312508514
 11
0.5531473465883146
 21
0.2133535311501431
 72
     1
 10
0.5531473465883146
 20
0.2133535311501431
 11
0.5193971779121789
 21
0.2133535311501431
 72
     1
 10
0.5193971779121789
 20
0.2133535311501431
 11
0.5193971779121789
 21
0.1702282758831428
 72
     1
 10
0.5193971779121789
 20
0.1702282758831428
 11
0.7368972019857374
 21
0.1702282758831428
 72
     1
 10
0.7368972019857374
 20
0.1702282758831428
 11
0.7668970141602749
 21
0.2002283115750982
 72
     1
 10
0.7668970141602749
 20
0.2002283115750982
 11
0.7668970141602749
 21
0.3877281658462506
 72
     1
 10
0.7668970141602749
 20
0.3877281658462506
 11
0.7368972019857374
 21
0.4177282462416896
 97
        0
 92
       16
 93
        4
 72
     1
 10
0.7987720492890098
 20
0.4496031025563197
 11
0.4875220533764768
 21
0.4496031025563197
 72
     1
 10
0.4875220533764768
 20
0.4496031025563197
 11
0.4875220533764768
 21
0.1383533301613751
 72
     1
 10
0.4875220533764768
 20
0.1383533301613751
 11
0.7987720492890098
 21
0.1383533301613751
 72
     1
 10
0.7987720492890098
 20
0.1383533301613751
 11
0.7987720492890098
 21
0.4496031025563197
 97
        0
 92
        0
 93
        4
 72
     1
 10
0.5962724677448641
 20
0.37460312508514
 11
0.5962724677448641
 21
0.2133535311501431
 72
     1
 10
0.5962724677448641
 20
0.2133535311501431
 11
0.7237719824106926
 21
0.2133535311501431
 72
     1
 10
0.7237719824106926
 20
0.2133535311501431
 11
0.7237719824106926
 21
0.37460312508514
 72
     1
 10
0.7237719824106926
 20
0.37460312508514
 11
0.5962724677448641
 21
0.37460312508514
 97
        0
 75
     0
 76
     1
 98
        1
 10
-7.279586802153931
 20
-0.313212194787444
  0
HATCH
  5
845
330
841
100
AcDbEntity
  8
TITLEBLOCK
 62
     0
100
AcDbHatch
 10
0.0
 20
0.0
 30
0.0
210
0.0
220
0.0
230
1.0
  2
SOLID
 70
     1
 71
     0
 91
        1
 92
        1
 93
       26
 72
     1
 10
1.050490193885575
 20
0.3650136723335662
 11
1.138990457951802
 21
0.3650136723335662
 72
     2
 10
1.138990281703138
 20
0.3542326140418093
 40
0.0107810582931976
 50
270.0009366709926
 51
360.0009366862294
 73
     0
 72
     1
 10
1.149771339994895
 20
0.3542324377902786
 11
1.171333797831589
 21
0.3542324377902786
 72
     1
 10
1.171333797831589
 20
0.3542324377902786
 11
1.171333797831589
 21
0.3650136723335662
 72
     2
 10
1.149771243432702
 20
0.365013768896207
 40
0.0215625543991033
 50
359.9997434148255
 51
449.9997434160159
 73
     1
 72
     1
 10
1.149771339994895
 20
0.3865763232950938
 11
1.039708786842066
 21
0.3865763232950938
 72
     2
 10
1.039709408398413
 20
0.3650142939052909
 40
0.0215620293987615
 50
90.00165163282177
 51
180.0014125206716
 73
     1
 72
     1
 10
1.018147379006204
 20
0.3650137623336376
 11
1.018147379006204
 21
0.3334199129435318
 72
     2
 10
1.039709363397143
 20
0.3334193363730153
 40
0.0215619843986475
 50
179.9984679027414
 51
269.9984679437668
 73
     1
 72
     1
 10
1.039708786842066
 20
0.3118573519820755
 11
1.138990457951802
 21
0.311857620107139
 72
     2
 10
1.138990280765661
 20
0.3010765608779043
 40
0.0107810592306907
 50
270.0009416531222
 51
360.0009416684906
 73
     0
 72
     1
 10
1.149771339994895
 20
0.3010763836888712
 11
1.149771508744986
 21
0.2902949691454408
 72
     2
 10
1.138990231076649
 20
0.2902948322713164
 40
0.0107812776692067
 50
359.9992725992319
 51
449.9997907459082
 73
     0
 72
     1
 10
1.138990270451738
 20
0.279513554602181
 11
1.050490193885575
 21
0.2795135546020104
 72
     2
 10
1.05049014888543
 20
0.2902951041454384
 40
0.0107815495435218
 50
89.99976085826782
 51
179.9997608594354
 73
     0
 72
     1
 10
1.039708599342002
 20
0.2902950591455122
 11
1.018147379006204
 21
0.2902950591455122
 72
     1
 10
1.018147379006204
 20
0.2902950591455122
 11
1.018147379006204
 21
0.2795138227272444
 72
     2
 10
1.039709273392517
 20
0.2795130680345569
 40
0.0215618943995203
 50
179.9979945776083
 51
269.9987071039827
 73
     1
 72
     1
 10
1.039708786842066
 20
0.2579511736405264
 11
1.149771339994895
 21
0.2579511736405264
 72
     2
 10
1.149771378432784
 20
0.2795135930396681
 40
0.0215624193991759
 50
269.9998978626289
 51
359.9996636967671
 73
     1
 72
     1
 10
1.171333797831589
 20
0.2795134664769192
 11
1.171333797831589
 21
0.3114825579869829
 72
     2
 10
1.149771333432362
 20
0.3114825645494808
 40
0.0215624643992288
 50
359.9999825621309
 51
449.9999825620359
 73
     1
 72
     1
 10
1.149771339994895
 20
0.3330450289487088
 11
1.050490193885575
 21
0.3330447608234748
 72
     2
 10
1.050490103885701
 20
0.3438262653667981
 40
0.0107815045436989
 50
89.99952171675776
 51
179.9999900368059
 73
     0
 72
     1
 10
1.039708599342002
 20
0.3438262634919964
 11
1.039708786842066
 21
0.3542325259151993
 72
     2
 10
1.050490107634269
 20
0.3542323515402983
 40
0.0107813207936133
 50
180.0009266903443
 51
270.0004583701697
 73
     0
 97
        0
 75
     0
 76
     1
 98
        1
 10
-7.279586802153931
 20
-0.4081141432880261
  0
HATCH
  5
846
330
841
100
AcDbEntity
  8
TITLEBLOCK
 62
     0
100
AcDbHatch
 10
0.0
 20
0.0
 30
0.0
210
0.0
220
0.0
230
1.0
  2
SOLID
 70
     1
 71
     0
 91
        1
 92
        1
 93
       18
 72
     2
 10
2.471082802883087
 20
0.3650137595211706
 40
0.021562563774099
 50
180.0000074732525
 51
269.9997683261728
 73
     0
 72
     1
 10
2.471082715695484
 20
0.3865763232950938
 11
2.586957622645552
 21
0.3865763232950938
 72
     2
 10
2.586957713583391
 20
0.3650135813961111
 40
0.0215627418991744
 50
269.9997583630888
 51
359.999758364108
 73
     0
 72
     1
 10
2.608520455482373
 20
0.3650136723335662
 11
2.608520455482373
 21
0.3542324377902786
 72
     1
 10
2.608520455482373
 20
0.3542324377902786
 11
2.586957622645552
 21
0.3542324377902786
 72
     2
 10
2.576176208103625
 20
0.3542322577916381
 40
0.0107814145434302
 50
0.0009565685814303
 51
90.00095658455173
 73
     1
 72
     1
 10
2.576176028101979
 20
0.3650136723335662
 11
2.481864141488966
 21
0.3650136723335662
 72
     2
 10
2.481864045863444
 20
0.3542323421656055
 40
0.0107813301683848
 50
89.99949181235312
 51
179.9994918168631
 73
     1
 72
     1
 10
2.471082715695484
 20
0.3542324377902786
 11
2.471082715695484
 21
0.2902950591455122
 72
     2
 10
2.481864090863785
 20
0.2902951097704553
 40
0.0107813751684203
 50
180.0002690376259
 51
270.0002690388874
 73
     1
 72
     1
 10
2.481864141488966
 20
0.2795137346021532
 11
2.576176028101979
 21
0.2795135546020104
 72
     2
 10
2.576176073102679
 20
0.2902951041456356
 40
0.010781549543719
 50
269.9997608553225
 51
359.9992825760937
 73
     1
 72
     1
 10
2.586957622645552
 20
0.2902949691454408
 11
2.608520455482373
 21
0.2902950591455122
 72
     1
 10
2.608520455482373
 20
0.2902950591455122
 11
2.608520099232048
 21
0.2795134664769192
 72
     2
 10
2.586957670458414
 20
0.2795136024145366
 40
0.0215624287740632
 50
0.0003612140281018
 51
90.00012704854281
 73
     0
 72
     1
 10
2.586957622645552
 20
0.2579511736405264
 11
2.471082715695484
 21
0.2579511736405264
 72
     2
 10
2.471082667882924
 20
0.2795136024144634
 40
0.02156242877399
 50
89.99987295225965
 51
179.9998729525419
 73
     0
 72
     1
 10
2.449520239108988
 20
0.2795135546020104
 11
2.449520239108988
 21
0.3650137623336376
 97
        0
 75
     0
 76
     1
 98
        1
 10
-7.279586802153931
 20
-0.4081141432880261
  0
HATCH
  5
847
330
841
100
AcDbEntity
  8
TITLEBLOCK
 62
     0
100
AcDbHatch
 10
0.0
 20
0.0
 30
0.0
210
0.0
220
0.0
230
1.0
  2
SOLID
 70
     1
 71
     0
 91
        1
 92
        1
 93
       12
 72
     1
 10
2.026708344139745
 20
0.3865765014202565
 11
1.890208311215626
 21
0.3865765014202565
 72
     1
 10
1.890208311215626
 20
0.3865765014202565
 11
1.890208311215626
 21
0.2579511736405264
 72
     1
 10
1.890208311215626
 20
0.2579511736405264
 11
2.026708344139745
 21
0.2579511736405264
 72
     1
 10
2.026708344139745
 20
0.2579511736405264
 11
2.026708344139745
 21
0.2795135546020104
 72
     1
 10
2.026708344139745
 20
0.2795135546020104
 11
1.911770600302059
 21
0.2795135546020104
 72
     1
 10
1.911770600302059
 20
0.2795135546020104
 11
1.911770600302059
 21
0.3114825579869829
 72
     1
 10
1.911770600302059
 20
0.3114825579869829
 11
2.026708344139745
 21
0.3114825579869829
 72
     1
 10
2.026708344139745
 20
0.3114825579869829
 11
2.026708344139745
 21
0.333044848948566
 72
     1
 10
2.026708344139745
 20
0.333044848948566
 11
1.911770600302059
 21
0.333044848948566
 72
     1
 10
1.911770600302059
 20
0.333044848948566
 11
1.911770600302059
 21
0.3650136723335662
 72
     1
 10
1.911770600302059
 20
0.3650136723335662
 11
2.026708344139745
 21
0.3650136723335662
 72
     1
 10
2.026708344139745
 20
0.3650136723335662
 11
2.026708344139745
 21
0.3865765014202565
 97
        0
 75
     0
 76
     1
 98
        1
 10
-7.279586802153931
 20
-0.4081141432880261
  0
HATCH
  5
848
330
841
100
AcDbEntity
  8
TITLEBLOCK
 62
     0
100
AcDbHatch
 10
0.0
 20
0.0
 30
0.0
210
0.0
220
0.0
230
1.0
  2
SOLID
 70
     1
 71
     0
 91
        2
 92
        1
 93
        8
 72
     1
 10
1.614830743814064
 20
0.3865765014202565
 11
1.531145595393223
 21
0.2579509955155343
 72
     1
 10
1.531145595393223
 20
0.2579509955155343
 11
1.556870855949323
 21
0.2579511736405264
 72
     1
 10
1.556870855949323
 20
0.2579511736405264
 11
1.570898996363819
 21
0.2795135546020104
 72
     1
 10
1.570898996363819
 20
0.2795135546020104
 11
1.673830432358027
 21
0.2795135546020104
 72
     1
 10
1.673830432358027
 20
0.2795135546020104
 11
1.687858760272586
 21
0.2579514417655899
 72
     1
 10
1.687858760272586
 20
0.2579514417655899
 11
1.713583120827973
 21
0.2579514417655899
 72
     1
 10
1.713583120827973
 20
0.2579514417655899
 11
1.629898141157394
 21
0.3865765014202565
 72
     1
 10
1.629898141157394
 20
0.3865765014202565
 11
1.614830743814064
 21
0.3865765014202565
 97
        0
 92
       16
 93
        3
 72
     1
 10
1.622364536235675
 20
0.3586169575295115
 11
1.659801223192726
 21
0.3010763836888712
 72
     1
 10
1.659801223192726
 20
0.3010763836888712
 11
1.584928205528949
 21
0.3010762055637086
 72
     1
 10
1.584928205528949
 20
0.3010762055637086
 11
1.622364348735612
 21
0.3586165994043766
 97
        0
 75
     0
 76
     1
 98
        1
 10
-7.279586802153931
 20
-0.4081141432880261
  0
HATCH
  5
849
330
841
100
AcDbEntity
  8
TITLEBLOCK
 62
     0
100
AcDbHatch
 10
0.0
 20
0.0
 30
0.0
210
0.0
220
0.0
230
1.0
  2
SOLID
 70
     1
 71
     0
 91
        1
 92
        1
 93
       12
 72
     1
 10
1.392021104504447
 20
0.3865765014202565
 11
1.370458815418015
 21
0.3865765014202565
 72
     1
 10
1.370458815418015
 20
0.3865765014202565
 11
1.370458627917951
 21
0.2795138227272444
 72
     2
 10
1.39202114575308
 20
0.2795135133528436
 40
0.0215625178373483
 50
179.999177932392
 51
269.9998903944058
 73
     1
 72
     1
 10
1.392021104504447
 20
0.2579509955155343
 11
1.509583287556818
 21
0.2579511736405264
 72
     2
 10
1.509583335369764
 20
0.2795136024146219
 40
0.0215624287741484
 50
269.9998729512306
 51
359.9996387857453
 73
     1
 72
     1
 10
1.531145764143484
 20
0.2795134664769192
 11
1.531146120393639
 21
0.3865765014202565
 72
     1
 10
1.531146120393639
 20
0.3865765014202565
 11
1.509583287556818
 21
0.3865765014202565
 72
     1
 10
1.509583287556818
 20
0.3865765014202565
 11
1.509583287556818
 21
0.2902950591455122
 72
     2
 10
1.498801916139266
 20
0.290294926019563
 40
0.0107813714183743
 50
359.9992925246018
 51
449.9992925333428
 73
     0
 72
     1
 10
1.49880204926357
 20
0.2795135546020104
 11
1.402802342797695
 21
0.2795135546020104
 72
     2
 10
1.402802382172719
 20
0.2902950197703451
 40
0.0107814651684066
 50
90.00020925010334
 51
180.0002092508632
 73
     0
 72
     1
 10
1.392020917004384
 20
0.2902950591455122
 11
1.392021104504447
 21
0.3865765014202565
 97
        0
 75
     0
 76
     1
 98
        1
 10
-7.279586802153931
 20
-0.4081141432880261
  0
HATCH
  5
84A
330
841
100
AcDbEntity
  8
TITLEBLOCK
 62
     0
100
AcDbHatch
 10
0.0
 20
0.0
 30
0.0
210
0.0
220
0.0
230
1.0
  2
SOLID
 70
     1
 71
     0
 91
        2
 92
        1
 93
       13
 72
     2
 10
1.851958289039648
 20
0.2899198104641797
 40
0.0215625675244637
 50
0.0002565813902296
 51
90.00070498518821
 73
     1
 72
     2
 10
1.851958289040149
 20
0.3330449455099156
 40
0.0215625675245372
 50
269.9992950134807
 51
359.9995092535441
 73
     1
 72
     1
 10
1.873520856563896
 20
0.3330447608234748
 11
1.873520856563896
 21
0.3650136657708798
 72
     2
 10
1.851957894958188
 20
0.3650135398162329
 40
0.0215629616060761
 50
0.0003346789653151
 51
89.99920945081219
 73
     1
 72
     1
 10
1.851958192477166
 20
0.3865765014202565
 11
1.720333350237904
 21
0.3865765014202565
 72
     1
 10
1.720333350237904
 20
0.3865765014202565
 11
1.720333350237904
 21
0.2579511736405264
 72
     1
 10
1.720333350237904
 20
0.2579511736405264
 11
1.741896183074725
 21
0.2579511736405264
 72
     1
 10
1.741896183074725
 20
0.2579511736405264
 11
1.741896183074725
 21
0.3007013215688856
 72
     1
 10
1.741896183074725
 20
0.3007013215688856
 11
1.841176785433827
 21
0.3007013215688856
 72
     2
 10
1.841176693559081
 20
0.2899201789011263
 40
0.0107811426681508
 50
270.0004882631974
 51
360.0004882673548
 73
     0
 72
     1
 10
1.851957836226841
 20
0.289920087025598
 11
1.851958192477166
 21
0.2579511736405264
 72
     1
 10
1.851958192477166
 20
0.2579511736405264
 11
1.873520856563896
 21
0.2579511736405264
 72
     1
 10
1.873520856563896
 20
0.2579511736405264
 11
1.873520856563896
 21
0.2899199070254552
 97
        0
 92
       16
 93
        6
 72
     2
 10
1.841176693559081
 20
0.3542325296658069
 40
0.0107811426681508
 50
270.0004882631974
 51
360.0004882673548
 73
     0
 72
     1
 10
1.851957836226841
 20
0.3542324377902786
 11
1.851958192477166
 21
0.333044848948566
 72
     2
 10
1.841176871684197
 20
0.333044935198247
 40
0.0107813207933138
 50
0.0004583615308307
 51
90.00045836519477
 73
     0
 72
     1
 10
1.841176785433827
 20
0.3222636144052784
 11
1.741896183074725
 21
0.3222638825303419
 72
     1
 10
1.741896183074725
 20
0.3222638825303419
 11
1.741896183074725
 21
0.3650136723335662
 72
     1
 10
1.741896183074725
 20
0.3650136723335662
 11
1.841176785433827
 21
0.3650136723335662
 97
        0
 75
     0
 76
     1
 98
        1
 10
-7.279586802153931
 20
-0.4081141432880261
  0
HATCH
  5
84B
330
841
100
AcDbEntity
  8
TITLEBLOCK
 62
     0
100
AcDbHatch
 10
0.0
 20
0.0
 30
0.0
210
0.0
220
0.0
230
1.0
  2
SOLID
 70
     1
 71
     0
 91
        2
 92
        1
 93
       10
 72
     1
 10
2.168832611988261
 20
0.3650136723335662
 11
2.168832611988261
 21
0.2795135546021492
 72
     1
 10
2.168832611988261
 20
0.2795135546021492
 11
2.148020079641632
 21
0.2795135546021492
 72
     1
 10
2.148020079641632
 20
0.2795135546021492
 11
2.148020079641632
 21
0.2579511736406499
 72
     1
 10
2.148020079641632
 20
0.2579511736406499
 11
2.314895263659607
 21
0.2579511736406499
 72
     2
 10
2.314895311472477
 20
0.2795136024147182
 40
0.0215624287741214
 50
269.9998729514336
 51
359.9996387859474
 73
     1
 72
     1
 10
2.336457740246171
 20
0.2795134664770916
 11
2.336457740246171
 21
0.3650136723335662
 72
     2
 10
2.314895087410214
 20
0.3650138485844006
 40
0.0215626528366775
 50
359.9995316703829
 51
449.999531674211
 73
     1
 72
     1
 10
2.314895263659607
 20
0.386576501420358
 11
2.148020079641632
 21
0.386576501420358
 72
     1
 10
2.148020079641632
 20
0.386576501420358
 11
2.148020079641632
 21
0.3650136723335662
 72
     1
 10
2.148020079641632
 20
0.3650136723335662
 11
2.168832611988261
 21
0.3650136723335662
 97
        0
 92
       16
 93
        6
 72
     1
 10
2.190395257324933
 20
0.3650136723335662
 11
2.304113856616218
 21
0.3650136723335662
 72
     2
 10
2.304113942866619
 20
0.3542323515405775
 40
0.0107813207933337
 50
269.9995416346447
 51
359.9995416383139
 73
     0
 72
     1
 10
2.314895263659607
 20
0.3542324377902877
 11
2.314895263659607
 21
0.2902949691455452
 72
     2
 10
2.304113807866077
 20
0.2902950103956483
 40
0.0107814557936096
 50
0.0002192149982456
 51
89.99974092762393
 73
     0
 72
     1
 10
2.304113856616218
 20
0.2795135546021492
 11
2.190395257324933
 21
0.2795135546021492
 72
     1
 10
2.190395257324933
 20
0.2795135546021492
 11
2.190395257324933
 21
0.3650136723335662
 97
        0
 75
     0
 76
     1
 98
        1
 10
-7.279586802153931
 20
-0.4081141432880261
  0
HATCH
  5
84C
330
841
100
AcDbEntity
  8
TITLEBLOCK
 62
     0
100
AcDbHatch
 10
0.0
 20
0.0
 30
0.0
210
0.0
220
0.0
230
1.0
  2
SOLID
 70
     1
 71
     0
 91
        2
 92
        1
 93
        8
 72
     1
 10
3.241392303571654
 20
0.3865765014202565
 11
3.157707226761072
 21
0.2579509955155343
 72
     1
 10
3.157707226761072
 20
0.2579509955155343
 11
3.183432299816939
 21
0.2579511736405264
 72
     1
 10
3.183432299816939
 20
0.2579511736405264
 11
3.197460983981823
 21
0.2795133764768478
 72
     1
 10
3.197460983981823
 20
0.2795133764768478
 11
3.30039082622498
 21
0.2795135546020104
 72
     1
 10
3.30039082622498
 20
0.2795135546020104
 11
3.314419679139785
 21
0.2579514417655899
 72
     1
 10
3.314419679139785
 20
0.2579514417655899
 11
3.340144583445731
 21
0.2579511736405264
 72
     1
 10
3.340144583445731
 20
0.2579511736405264
 11
3.256459603774981
 21
0.3865765014202565
 72
     1
 10
3.256459603774981
 20
0.3865765014202565
 11
3.241392303571654
 21
0.3865765014202565
 97
        0
 92
       16
 93
        3
 72
     1
 10
3.248925740352245
 20
0.358616778466603
 11
3.211489480646473
 21
0.3010762055637086
 72
     1
 10
3.211489480646473
 20
0.3010762055637086
 11
3.28636178580994
 21
0.3010763836888712
 72
     1
 10
3.28636178580994
 20
0.3010763836888712
 11
3.248925740352245
 21
0.358616778466603
 97
        0
 75
     0
 76
     1
 98
        1
 10
-7.279586802153931
 20
-0.4081141432880261
  0
HATCH
  5
84D
330
841
100
AcDbEntity
  8
TITLEBLOCK
 62
     0
100
AcDbHatch
 10
0.0
 20
0.0
 30
0.0
210
0.0
220
0.0
230
1.0
  2
SOLID
 70
     1
 71
     0
 91
        1
 92
        1
 93
       13
 72
     1
 10
2.838488736968525
 20
0.3865765014202565
 11
2.806145209588674
 21
0.3865765014202565
 72
     1
 10
2.806145209588674
 20
0.3865765014202565
 11
2.806145209588674
 21
0.2579511736405264
 72
     1
 10
2.806145209588674
 20
0.2579511736405264
 11
2.827707667425368
 21
0.2579511736405264
 72
     1
 10
2.827707667425368
 20
0.2579511736405264
 11
2.827707667425368
 21
0.3640633654626753
 72
     1
 10
2.827707667425368
 20
0.3640633654626753
 11
2.899718420719221
 21
0.2579514417655899
 72
     1
 10
2.899718420719221
 20
0.2579514417655899
 11
2.922570860648686
 21
0.2579511736405264
 72
     1
 10
2.922570860648686
 20
0.2579511736405264
 11
2.994582138942956
 21
0.3640642598382782
 72
     1
 10
2.994582138942956
 20
0.3640642598382782
 11
2.994582138942956
 21
0.2579511736405264
 72
     1
 10
2.994582138942956
 20
0.2579511736405264
 11
3.016144596779479
 21
0.2579511736405264
 72
     1
 10
3.016144596779479
 20
0.2579511736405264
 11
3.016144596779479
 21
0.3865765014202565
 72
     1
 10
3.016144596779479
 20
0.3865765014202565
 11
2.983801425649954
 21
0.3865765014202565
 72
     1
 10
2.983801425649954
 20
0.3865765014202565
 11
2.911144640683954
 21
0.2795135546020104
 72
     1
 10
2.911144640683954
 20
0.2795135546020104
 11
2.838488380718199
 21
0.3865765014202565
 97
        0
 75
     0
 76
     1
 98
        1
 10
-7.279586802153931
 20
-0.4081141432880261
  0
HATCH
  5
84E
330
841
100
AcDbEntity
  8
TITLEBLOCK
 62
     0
100
AcDbHatch
 10
0.0
 20
0.0
 30
0.0
210
0.0
220
0.0
230
1.0
  2
SOLID
 70
     1
 71
     0
 91
        2
 92
        1
 93
        8
 72
     1
 10
2.79358243888161
 20
0.2795134664769192
 11
2.793582795131936
 21
0.3650136723335662
 72
     2
 10
2.772020240733041
 20
0.3650137688961994
 40
0.0215625543991104
 50
359.9997434148459
 51
449.999743415997
 73
     1
 72
     1
 10
2.772020337295241
 20
0.3865763232950938
 11
2.640957676673206
 21
0.3865763232950938
 72
     2
 10
2.640957763860811
 20
0.3650137595211699
 40
0.0215625637741002
 50
90.00023167383188
 51
179.9999925267453
 73
     1
 72
     1
 10
2.61939520008671
 20
0.3650137623336376
 11
2.61939520008671
 21
0.2795135546020104
 72
     2
 10
2.640957628860649
 20
0.2795136024144641
 40
0.0215624287739915
 50
180.0001270474597
 51
270.0001270477355
 73
     1
 72
     1
 10
2.640957676673206
 20
0.2579511736405264
 11
2.772020337295241
 21
0.2579511736405264
 72
     2
 10
2.772020197607671
 20
0.2795134149140743
 40
0.0215622412740004
 50
270.000371181646
 51
360.000137014207
 73
     1
 97
        0
 92
       16
 93
        8
 72
     2
 10
2.651738913091431
 20
0.3542324359149649
 40
0.0107812364186015
 50
89.9999900344766
 51
179.999521702949
 73
     1
 72
     1
 10
2.640957676673206
 20
0.3542325259151993
 11
2.640957676673206
 21
0.2902950591455122
 72
     2
 10
2.651738958091508
 20
0.2902950160204556
 40
0.010781281418388
 50
179.9997708172488
 51
269.9997708181704
 73
     1
 72
     1
 10
2.651738914966625
 20
0.2795137346021532
 11
2.761238742751839
 21
0.2795135546020104
 72
     2
 10
2.761238956501978
 20
0.2902951041442614
 40
0.0107815495443698
 50
269.9988640797126
 51
359.9992825833961
 73
     1
 72
     1
 10
2.772020506045503
 20
0.2902949691454408
 11
2.772020337295241
 21
0.3542324377902786
 72
     2
 10
2.761239007127366
 20
0.3542323421656908
 40
0.0107813301682991
 50
0.0005081826837109
 51
90.00050818719378
 73
     1
 72
     1
 10
2.76123891150193
 20
0.3650136723335662
 11
2.651738914966625
 21
0.3650136723335662
 97
        0
 75
     0
 76
     1
 98
        1
 10
-7.279586802153931
 20
-0.4081141432880261
  0
HATCH
  5
84F
330
841
100
AcDbEntity
  8
TITLEBLOCK
 62
     0
100
AcDbHatch
 10
0.0
 20
0.0
 30
0.0
210
0.0
220
0.0
230
1.0
  2
SOLID
 70
     1
 71
     0
 91
        2
 92
        1
 93
        8
 72
     2
 10
3.162769048174736
 20
0.3650134554401196
 40
0.0215630459811904
 50
270.0005663490367
 51
359.9994236862867
 73
     0
 72
     1
 10
3.184332094154836
 20
0.3650136723335662
 11
3.184332094154836
 21
0.3222638825303419
 72
     2
 10
3.162769397256125
 20
0.3222640184675962
 40
0.0215626968991391
 50
0.0003612085718475
 51
90.00036121084693
 73
     0
 72
     1
 10
3.162769261318015
 20
0.3007013215688856
 11
3.052707420665665
 21
0.3007013215688856
 72
     1
 10
3.052707420665665
 20
0.3007013215688856
 11
3.052707420665665
 21
0.2579511736405264
 72
     1
 10
3.052707420665665
 20
0.2579511736405264
 11
3.031144250328662
 21
0.2579511736405264
 72
     1
 10
3.031144250328662
 20
0.2579511736405264
 11
3.031144250328662
 21
0.3865765014202565
 72
     1
 10
3.031144250328662
 20
0.3865765014202565
 11
3.162769261318015
 21
0.3865765014202565
 97
        0
 92
       16
 93
        6
 72
     2
 10
3.151988118650169
 20
0.3542325296657216
 40
0.0107811426682361
 50
270.0004882627443
 51
360.0004882669015
 73
     0
 72
     1
 10
3.162769261318015
 20
0.3542324377902786
 11
3.162769261318015
 21
0.333044848948566
 72
     2
 10
3.151988118650169
 20
0.333044757073123
 40
0.0107811426682367
 50
359.9995117330984
 51
449.9995117372556
 73
     0
 72
     1
 10
3.15198821052483
 20
0.3222636144052784
 11
3.052707420665665
 21
0.3222638825303419
 72
     1
 10
3.052707420665665
 20
0.3222638825303419
 11
3.052707420665665
 21
0.3650136723335662
 72
     1
 10
3.052707420665665
 20
0.3650136723335662
 11
3.15198821052483
 21
0.3650136723335662
 97
        0
 75
     0
 76
     1
 98
        1
 10
-7.279586802153931
 20
-0.4081141432880261
  0
HATCH
  5
850
330
841
100
AcDbEntity
  8
TITLEBLOCK
 62
     0
100
AcDbHatch
 10
0.0
 20
0.0
 30
0.0
210
0.0
220
0.0
230
1.0
  2
SOLID
 70
     1
 71
     0
 91
        1
 92
        1
 93
        9
 72
     1
 10
3.556847887515953
 20
0.3865763232950938
 11
3.525206566844968
 21
0.3865765014202565
 72
     1
 10
3.525206566844968
 20
0.3865765014202565
 11
3.60348814923547
 21
0.3136817019238036
 72
     1
 10
3.60348814923547
 20
0.3136817019238036
 11
3.603486349234383
 21
0.2579511736405264
 72
     1
 10
3.603486349234383
 20
0.2579511736405264
 11
3.625050607072164
 21
0.2579511736405264
 72
     1
 10
3.625050607072164
 20
0.2579511736405264
 11
3.625050607072164
 21
0.3136813437984982
 72
     1
 10
3.625050607072164
 20
0.3136813437984982
 11
3.703331833212512
 21
0.3865766795454191
 72
     1
 10
3.703331833212512
 20
0.3865766795454191
 11
3.671691225042007
 21
0.3865765014202565
 72
     1
 10
3.671691225042007
 20
0.3865765014202565
 11
3.61426955627898
 21
0.3331056458632473
 72
     1
 10
3.61426955627898
 20
0.3331056458632473
 11
3.556847887515953
 21
0.3865763232950938
 97
        0
 75
     0
 76
     1
 98
        1
 10
-7.279586802153931
 20
-0.4081141432880261
  0
HATCH
  5
851
330
841
100
AcDbEntity
  8
TITLEBLOCK
 62
     0
100
AcDbHatch
 10
0.0
 20
0.0
 30
0.0
210
0.0
220
0.0
230
1.0
  2
SOLID
 70
     1
 71
     0
 91
        1
 92
        1
 93
       10
 72
     1
 10
3.376247484495632
 20
0.3865765014202565
 11
3.345207161752892
 21
0.3865765014202565
 72
     1
 10
3.345207161752892
 20
0.3865765014202565
 11
3.345207161752892
 21
0.2579511736405264
 72
     1
 10
3.345207161752892
 20
0.2579511736405264
 11
3.366769638339558
 21
0.2579511736405264
 72
     1
 10
3.366769638339558
 20
0.2579511736405264
 11
3.366769638339558
 21
0.3659393041881229
 72
     1
 10
3.366769638339558
 20
0.3659393041881229
 11
3.48273627034943
 21
0.2579509955155343
 72
     1
 10
3.48273627034943
 20
0.2579509955155343
 11
3.515082122730785
 21
0.2579511736405264
 72
     1
 10
3.515082122730785
 20
0.2579511736405264
 11
3.515082122730785
 21
0.3865765014202565
 72
     1
 10
3.515082122730785
 20
0.3865765014202565
 11
3.49351767739277
 21
0.3865765014202565
 72
     1
 10
3.49351767739277
 20
0.3865765014202565
 11
3.49351767739277
 21
0.277374671329744
 72
     1
 10
3.49351767739277
 20
0.277374671329744
 11
3.376247484495632
 21
0.3865765014202565
 97
        0
 75
     0
 76
     1
 98
        1
 10
-7.279586802153931
 20
-0.4081141432880261
  0
ENDBLK
  5
853
330
841
100
AcDbEntity
  8
0
100
AcDbBlockEnd
  0
BLOCK
  5
AF5
330
AE5
100
AcDbEntity
  8
0
100
AcDbBlockBegin
  2
TITLE-PAD
 70
     2
 10
0.0
 20
0.0
 30
0.0
  3
TITLE-PAD
  1

  0
LWPOLYLINE
  5
B1D
330
AE5
100
AcDbEntity
  8
CONTINUOUS2
 62
     0
100
AcDbPolyline
 90
        7
 70
     1
 43
0.0
 10
16.40000099999999
 20
0.0
 10
16.40000099999999
 20
0.0
 10
16.40000099999999
 20
0.0
 10
8.002461
 20
0.0
 10
8.002461
 20
0.9120019999999993
 10
16.40000099999999
 20
0.9120019999999993
 10
16.40000099999999
 20
0.0
  0
INSERT
  5
B1E
330
AE5
100
AcDbEntity
  8
TITLEBLOCK
 62
     0
100
AcDbBlockReference
  2
LOGO-PAD
 10
12.245701
 20
0.3040000000000003
 30
0.0
  0
LINE
  5
B1F
330
AE5
100
AcDbEntity
  8
CONTINUOUS2
 62
     0
100
AcDbLine
 10
16.40000099999999
 20
0.3040000000000003
 30
0.0
 11
12.245701
 21
0.3040000000000003
 31
0.0
  0
LINE
  5
B20
330
AE5
100
AcDbEntity
  8
CONTINUOUS2
 62
     0
100
AcDbLine
 10
12.245701
 20
0.9120019999999993
 30
0.0
 11
12.245701
 21
0.0
 31
0.0
  0
TEXT
  5
B21
330
AE5
100
AcDbEntity
  8
TEXT1
  6
CONTINUOUS
 62
     0
100
AcDbText
 10
12.36897712113656
 20
0.0611566731182909
 30
0.0
 40
0.0699999951940822
  1
NO.
  7
ROMANS
 11
12.36897712113656
 21
0.096156670715332
 31
0.0
100
AcDbText
 73
     2
  0
TEXT
  5
B22
330
AE5
100
AcDbEntity
  8
TEXT1
  6
CONTINUOUS
 62
     0
100
AcDbText
 10
12.36897712113656
 20
0.1661566731182908
 30
0.0
 40
0.0699999951940822
  1
DWG#
  7
ROMANS
 11
12.36897712113656
 21
0.2011566707153319
 31
0.0
100
AcDbText
 73
     2
  0
ATTDEF
  5
B23
330
AE5
100
AcDbEntity
  8
TEXT1
 62
     0
100
AcDbText
 10
10.10183834893798
 20
0.7474460884590166
 30
0.0
 40
0.1
  1

  7
ROMANS
 72
     4
 11
10.10183834893798
 21
0.7474460884590166
 31
0.0
100
AcDbAttributeDefinition
  3
DESCRIPTION 1
  2
DESCRIPTION 1
 70
     0
  0
ATTDEF
  5
B24
330
AE5
100
AcDbEntity
  8
TEXT1
 62
     0
100
AcDbText
 10
10.10183834893798
 20
0.6017231711406717
 30
0.0
 40
0.1
  1

  7
ROMANS
 72
     4
 11
10.10183834893798
 21
0.6017231711406717
 31
0.0
100
AcDbAttributeDefinition
  3
DESCRIPTION 2
  2
DESCRIPTION 2
 70
     0
  0
ATTDEF
  5
B25
330
AE5
100
AcDbEntity
  8
TEXT1
 62
     0
100
AcDbText
 10
10.10183834893798
 20
0.4560002538223267
 30
0.0
 40
0.08
  1

  7
ROMANS
 72
     4
 11
10.10183834893798
 21
0.4560002538223267
 31
0.0
100
AcDbAttributeDefinition
  3
DESCRIPTION 3
  2
DESCRIPTION 3
 70
     0
  0
ATTDEF
  5
B26
330
AE5
100
AcDbEntity
  8
TEXT1
 62
     0
100
AcDbText
 10
10.10183834893798
 20
0.3202773365039833
 30
0.0
 40
0.08
  1

  7
ROMANS
 72
     4
 11
10.10183834893798
 21
0.3202773365039833
 31
0.0
100
AcDbAttributeDefinition
  3
DESCRIPTION 4
  2
DESCRIPTION 4
 70
     0
  0
ATTDEF
  5
B27
330
AE5
100
AcDbEntity
  8
TEXT1
 62
     0
100
AcDbText
 10
10.10183834893798
 20
0.1845544191856399
 30
0.0
 40
0.08
  1

  7
ROMANS
 72
     4
 11
10.10183834893798
 21
0.1845544191856399
 31
0.0
100
AcDbAttributeDefinition
  3
DESCRIPTION 5
  2
DESCRIPTION 5
 70
     0
  0
ATTDEF
  5
B28
330
AE5
100
AcDbEntity
  8
TEXT1
 62
     0
100
AcDbText
 10
12.74772367103195
 20
0.096540546036505
 30
0.0
 40
0.12
  1

 41
0.9512024731840066
  7
M_STANDARD
 11
12.74772367103195
 21
0.156540546036505
 31
0.0
100
AcDbAttributeDefinition
  3
DRAWING NUMBER
  2
DWGNO
 70
     0
 74
     2
  0
ATTDEF
  5
B29
330
AE5
100
AcDbEntity
  8
TEXT1
 62
     0
100
AcDbText
 10
16.35506454949325
 20
-0.1507193079929352
 30
0.0
 40
0.08
  1

  7
ROMANS
 72
     2
 11
16.35506454949325
 21
-0.1107193079929352
 31
0.0
100
AcDbAttributeDefinition
  3
REF DWG #
  2
REF
 70
     0
 74
     2
  0
ATTDEF
  5
B2A
330
AE5
100
AcDbEntity
  8
TEXT1
 62
     0
100
AcDbText
 10
0.0266402374038712
 20
-0.1507193079929352
 30
0.0
 40
0.08
  1

  7
ROMANS
 11
0.0266402374038712
 21
-0.1107193079929352
 31
0.0
100
AcDbAttributeDefinition
  3
DATE MODIFIED
  2
DATE
 70
     0
 74
     2
  0
LWPOLYLINE
  5
B2B
330
AE5
100
AcDbEntity
  8
CONTINUOUS3
 62
     0
100
AcDbPolyline
 90
        4
 70
   129
 43
0.0
 10
0.0
 20
0.0
 10
16.40000099999999
 20
0.0
 10
16.40000099999999
 20
10.25
 10
0.0
 20
10.25
  0
ENDBLK
  5
AF6
330
AE5
100
AcDbEntity
  8
0
100
AcDbBlockEnd
  0
BLOCK
  5
D84
330
D52
100
AcDbEntity
  8
0
100
AcDbBlockBegin
  2
OEM-NOTES
 70
     0
 10
0.0
 20
0.0
 30
0.0
  3
OEM-NOTES
  1

  0
LWPOLYLINE
  5
D53
330
D52
100
AcDbEntity
  8
TITLEBLOCK
100
AcDbPolyline
 90
        2
 70
     0
 43
0.0128
 10
8.625
 20
1.599999999999996
 10
0.0
 20
1.6
  0
TEXT
  5
D57
330
D52
100
AcDbEntity
  8
TITLEBLOCK
100
AcDbText
 10
0.3131249999999959
 20
0.7406249999999998
 30
0.0
 40
0.13125
  1
BE USED ONLY IN CONFORMANCE WITH INSTRUCTIONS ISSUED BY SQUARE D COMPANY.
 41
0.9
  7
SIMPLEX
 72
     4
 11
4.3125
 21
0.7999999999999999
 31
0.0
100
AcDbText
  0
TEXT
  5
D58
330
D52
100
AcDbEntity
  8
TITLEBLOCK
100
AcDbText
 10
0.2540625000000007
 20
1.045625000000001
 30
0.0
 40
0.13125
  1
HEREON. THIS INFORMATION REMAINS THE PROPERTY OF SQUARE D COMPANY AND MAY
 41
0.9
  7
SIMPLEX
 72
     4
 11
4.3125
 21
1.105000000000001
 31
0.0
100
AcDbText
  0
TEXT
  5
D59
330
D52
100
AcDbEntity
  8
TITLEBLOCK
100
AcDbText
 10
0.3046875
 20
1.338124999999997
 30
0.0
 40
0.13125
  1
"THE SQUARE D COMPANY HAS PROPRIETARY RIGHTS TO THE INFORMATION CONTAINED
 41
0.9
  7
SIMPLEX
 72
     4
 11
4.3125
 21
1.409999999999997
 31
0.0
100
AcDbText
  0
TEXT
  5
D5A
330
D52
100
AcDbEntity
  8
TITLEBLOCK
100
AcDbText
 10
0.6309374999999977
 20
0.4387499999999984
 30
0.0
 40
0.13125
  1
USER SHOULD VERIFY DRAWINGS ARE TO THE LATEST/CURRENT REVISION PRIOR
 41
0.9
  7
SIMPLEX
 72
     4
 11
4.3125
 21
0.4949999999999984
 31
0.0
100
AcDbText
  0
TEXT
  5
D5B
330
D52
100
AcDbEntity
  8
TITLEBLOCK
100
AcDbText
 10
2.5490625
 20
0.1368749999999972
 30
0.0
 40
0.13125
  1
TO INCORPORATING IN A DESIGN FILE."
 41
0.9
  7
SIMPLEX
 72
     4
 11
4.3125
 21
0.2149999999999972
 31
0.0
100
AcDbText
  0
TEXT
  5
D5C
330
D52
100
AcDbEntity
  8
TITLEBLOCK
100
AcDbText
 10
9.046378855339687
 20
0.2629426489623099
 30
0.0
 40
0.112
  1
UNLESS OTHERWISE SPECIFIED DIMENSIONS ARE IN INCHES
 41
0.8
  7
SIMPLEX
 72
     4
 11
11.06451218867302
 21
0.3189426489623099
 31
0.0
100
AcDbText
  0
LWPOLYLINE
  5
D5D
330
D52
100
AcDbEntity
  8
TITLEBLOCK
100
AcDbPolyline
 90
        2
 70
     0
 43
0.0128
 10
8.625
 20
0.9599999999999964
 10
16.00492200000007
 20
0.9599999999999964
  0
TEXT
  5
D61
330
D52
100
AcDbEntity
  8
TITLEBLOCK
100
AcDbText
 10
8.7837120071254
 20
0.5472199999999967
 30
0.0
 40
0.2433162500000002
  1
%%uDO NOT SCALE DRAWING
  7
SIMPLEX
 72
     1
 11
11.06451218867302
 21
0.5472199999999967
 31
0.0
100
AcDbText
  0
LWPOLYLINE
  5
D62
330
D52
100
AcDbEntity
  8
TITLEBLOCK
100
AcDbPolyline
 90
        2
 70
     0
 43
0.0128
 10
8.625
 20
0.9599999999999964
 10
8.625
 20
0.0000000000000009
  0
LWPOLYLINE
  5
D66
330
D52
100
AcDbEntity
  8
TITLEBLOCK
100
AcDbPolyline
 90
        2
 70
     0
 43
0.0128
 10
8.625
 20
0.0000000000000009
 10
8.625
 20
1.6
  0
LWPOLYLINE
  5
D6A
330
D52
100
AcDbEntity
  8
TITLEBLOCK
100
AcDbPolyline
 90
        2
 70
     0
 43
0.0128
 10
13.49242200000007
 20
1.599999999999995
 10
13.49242200000007
 20
0.0000000000000009
  0
TEXT
  5
D6E
330
D52
100
AcDbEntity
  8
TITLEBLOCK
100
AcDbText
 10
13.77242200000007
 20
0.2099999999999964
 30
0.0
 40
0.1
  1
2 PLACE DECIMALS
  7
SIMPLEX
100
AcDbText
  0
TEXT
  5
D6F
330
D52
100
AcDbEntity
  8
TITLEBLOCK
100
AcDbText
 10
13.62242200000007
 20
0.4474999999999972
 30
0.0
 40
0.1
  1
UNLESS OTHERWISE SPECIFIED
  7
SIMPLEX
100
AcDbText
  0
TEXT
  5
D70
330
D52
100
AcDbEntity
  8
TITLEBLOCK
100
AcDbText
 10
15.57242200000007
 20
0.2099999999999964
 30
0.0
 40
0.1
  1
.01
  7
SIMPLEX
100
AcDbText
  0
LINE
  5
D71
330
D52
100
AcDbEntity
  8
TITLEBLOCK
100
AcDbLine
 10
15.35492200000008
 20
0.2187499999999973
 30
0.0
 11
15.45492200000008
 21
0.2187499999999973
 31
0.0
  0
TEXT
  5
D72
330
D52
100
AcDbEntity
  8
TITLEBLOCK
100
AcDbText
 10
15.35992200000007
 20
0.2474999999999961
 30
0.0
 40
0.1
  1
+
  7
SIMPLEX
100
AcDbText
  0
LWPOLYLINE
  5
D73
330
D52
100
AcDbEntity
  8
TITLEBLOCK
100
AcDbPolyline
 90
        2
 70
     0
 43
0.0128
 10
16.00492200000007
 20
1.599999999999995
 10
13.49242200000007
 20
1.599999999999995
  0
TEXT
  5
D77
330
D52
100
AcDbEntity
  8
TITLEBLOCK
100
AcDbText
 10
13.62242200000007
 20
1.147499999999996
 30
0.0
 40
0.1
  1
PROJECTION
  7
SIMPLEX
100
AcDbText
  0
TEXT
  5
D78
330
D52
100
AcDbEntity
  8
TITLEBLOCK
100
AcDbText
 10
13.55992200000007
 20
1.347499999999997
 30
0.0
 40
0.1
  1
THIRD ANGLE
  7
SIMPLEX
100
AcDbText
  0
LINE
  5
D79
330
D52
100
AcDbEntity
  8
TITLEBLOCK
100
AcDbLine
 10
14.69692486880008
 20
1.300351715199997
 30
0.0
 11
15.91292523520008
 21
1.300351715199997
 31
0.0
  0
TEXT
  5
D7A
330
D52
100
AcDbEntity
  8
TITLEBLOCK
100
AcDbText
 10
14.04742200000008
 20
0.6974999999999972
 30
0.0
 40
0.15
  1
%%uTOLERANCES
  7
SIMPLEX
100
AcDbText
  0
LINE
  5
D7B
330
D52
100
AcDbEntity
  8
TITLEBLOCK
100
AcDbLine
 10
14.95292615040008
 20
1.396354294399999
 30
0.0
 11
14.95292615040008
 21
1.524354553599997
 31
0.0
  0
CIRCLE
  5
D7C
330
D52
100
AcDbEntity
  8
TITLEBLOCK
100
AcDbCircle
 10
14.95292615040008
 20
1.300352668799996
 30
0.0
 40
0.1279999615999998
  0
CIRCLE
  5
D7D
330
D52
100
AcDbEntity
  8
TITLEBLOCK
100
AcDbCircle
 10
14.95292615040008
 20
1.300352668799996
 30
0.0
 40
0.064000004799999
  0
LINE
  5
D7E
330
D52
100
AcDbEntity
  8
TITLEBLOCK
100
AcDbLine
 10
14.95292615040008
 20
1.332351302399996
 30
0.0
 11
14.95292615040008
 21
1.268351172799996
 31
0.0
  0
LINE
  5
D7F
330
D52
100
AcDbEntity
  8
TITLEBLOCK
100
AcDbLine
 10
14.95292615040008
 20
1.204351996799997
 30
0.0
 11
14.95292615040008
 21
1.076351737599998
 31
0.0
  0
LINE
  5
D80
330
D52
100
AcDbEntity
  8
TITLEBLOCK
100
AcDbLine
 10
15.78492230560007
 20
1.172351455999998
 30
0.0
 11
15.33692425760007
 21
1.236351585599996
 31
0.0
  0
LINE
  5
D81
330
D52
100
AcDbEntity
  8
TITLEBLOCK
100
AcDbLine
 10
15.33692425760007
 20
1.364351844799998
 30
0.0
 11
15.78492230560007
 21
1.428351020799996
 31
0.0
  0
LINE
  5
D82
330
D52
100
AcDbEntity
  8
TITLEBLOCK
100
AcDbLine
 10
15.33692425760007
 20
1.236351585599996
 30
0.0
 11
15.33692425760007
 21
1.364351844799998
 31
0.0
  0
LINE
  5
D83
330
D52
100
AcDbEntity
  8
TITLEBLOCK
100
AcDbLine
 10
15.78492230560007
 20
1.428351020799996
 30
0.0
 11
15.78492230560007
 21
1.172351455999998
 31
0.0
  0
ENDBLK
  5
D85
330
D52
100
AcDbEntity
  8
0
100
AcDbBlockEnd
  0
BLOCK
  5
8980
330
896D
100
AcDbEntity
  8
0
100
AcDbBlockBegin
  2
REF2
 70
     2
 10
0.0
 20
0.0
 30
0.0
  3
REF2
  1

  0
ATTDEF
  5
896E
330
896D
100
AcDbEntity
  8
TEXT1
100
AcDbText
 10
2.0
 20
0.2204373050885353
 30
0.0
 40
0.125
  1

100
AcDbAttributeDefinition
  3
Mounting Hardware?
  2
MOUNTING_HWD
 70
     0
  0
ATTDEF
  5
896F
330
896D
100
AcDbEntity
  8
TEXT1
100
AcDbText
 10
2.0
 20
0.4484790897328282
 30
0.0
 40
0.125
  1

100
AcDbAttributeDefinition
  3
Terminal Torque
  2
TERM_TORQUE
 70
     0
  0
ATTDEF
  5
8970
330
896D
100
AcDbEntity
  8
TEXT1
100
AcDbText
 10
2.0
 20
0.6579373050885358
 30
0.0
 40
0.125
  1

100
AcDbAttributeDefinition
  3
Wire Size?
  2
WIRE_SIZE
 70
     0
  0
ATTDEF
  5
8971
330
896D
100
AcDbEntity
  8
TEXT1
100
AcDbText
 10
2.0
 20
0.8564164127663893
 30
0.0
 40
0.125
  1

100
AcDbAttributeDefinition
  3
Weight?
  2
WEIGHT
 70
     0
  0
ATTDEF
  5
8972
330
896D
100
AcDbEntity
  8
TEXT1
100
AcDbText
 10
2.0
 20
1.0625
 30
0.0
 40
0.125
  1

100
AcDbAttributeDefinition
  3
Meets Standards
  2
STANDARDS
 70
     0
  0
ATTDEF
  5
8973
330
896D
100
AcDbEntity
  8
TEXT1
100
AcDbText
 10
2.0
 20
1.293916394821363
 30
0.0
 40
0.125
  1

100
AcDbAttributeDefinition
  3
CSA File/Guide
  2
CSA
 70
     0
  0
ATTDEF
  5
8974
330
896D
100
AcDbEntity
  8
TEXT1
100
AcDbText
 10
2.010983301335642
 20
1.5
 30
0.0
 40
0.125
  1

100
AcDbAttributeDefinition
  3
UL File/Guide?
  2
UL
 70
     0
  0
ATTDEF
  5
8975
330
896D
100
AcDbEntity
  8
TEXT1
100
AcDbText
 10
2.0
 20
1.720437305088535
 30
0.0
 40
0.125
  1

100
AcDbAttributeDefinition
  3
Ratings?
  2
RATING
 70
     0
  0
ATTDEF
  5
8976
330
896D
100
AcDbEntity
  8
TEXT1
100
AcDbText
 10
2.0
 20
1.9375
 30
0.0
 40
0.125
  1

100
AcDbAttributeDefinition
  3
Catalog Number?
  2
CATALOG
 70
     0
  0
TEXT
  5
8977
330
896D
100
AcDbEntity
  8
TEXT1
100
AcDbText
 10
0.1875
 20
0.223214285714286
 30
0.0
 40
0.125
  1
Mounting Hwd.:
100
AcDbText
  0
TEXT
  5
8978
330
896D
100
AcDbEntity
  8
TEXT1
100
AcDbText
 10
0.1875
 20
0.4375
 30
0.0
 40
0.125
  1
Terminal torque:
100
AcDbText
  0
TEXT
  5
8979
330
896D
100
AcDbEntity
  8
TEXT1
100
AcDbText
 10
0.1875
 20
0.6517857142857145
 30
0.0
 40
0.125
  1
Wire Size:
100
AcDbText
  0
TEXT
  5
897A
330
896D
100
AcDbEntity
  8
TEXT1
100
AcDbText
 10
0.1875
 20
0.8660714285714288
 30
0.0
 40
0.125
  1
Weight:
100
AcDbText
  0
TEXT
  5
897B
330
896D
100
AcDbEntity
  8
TEXT1
100
AcDbText
 10
0.1875
 20
1.080357142857142
 30
0.0
 40
0.125
  1
Meets Standards:
100
AcDbText
  0
TEXT
  5
897C
330
896D
100
AcDbEntity
  8
TEXT1
100
AcDbText
 10
0.1875
 20
1.294642857142857
 30
0.0
 40
0.125
  1
CSA File/Class:
100
AcDbText
  0
TEXT
  5
897D
330
896D
100
AcDbEntity
  8
TEXT1
100
AcDbText
 10
0.1875
 20
1.508928571428571
 30
0.0
 40
0.125
  1
UL File/CCN:
100
AcDbText
  0
TEXT
  5
897E
330
896D
100
AcDbEntity
  8
TEXT1
100
AcDbText
 10
0.1875
 20
1.723214285714285
 30
0.0
 40
0.125
  1
Ratings:
100
AcDbText
  0
TEXT
  5
897F
330
896D
100
AcDbEntity
  8
TEXT1
100
AcDbText
 10
0.1875
 20
1.9375
 30
0.0
 40
0.125
  1
Catalog Number:
100
AcDbText
  0
ENDBLK
  5
8981
330
896D
100
AcDbEntity
  8
0
100
AcDbBlockEnd
  0
BLOCK
  5
911B
330
9110
100
AcDbEntity
  8
0
100
AcDbBlockBegin
  2
*D5
 70
     1
 10
0.0
 20
0.0
 30
0.0
  3
*D5
  1

  0
LINE
  5
95DF
330
9110
100
AcDbEntity
  8
DIM
100
AcDbLine
 10
34.9645383307289
 20
27.0029556779469
 30
0.0
 11
41.32577473513628
 21
27.00295567794689
 31
0.0
  0
LINE
  5
95E0
330
9110
100
AcDbEntity
  8
DIM
100
AcDbLine
 10
34.96453833072891
 20
17.8779556779469
 30
0.0
 11
41.32577473513628
 21
17.87795567794689
 31
0.0
  0
LINE
  5
95E1
330
9110
100
AcDbEntity
  8
DIM
100
AcDbLine
 10
41.07577473513628
 20
26.72295567794689
 30
0.0
 11
41.07577473513628
 21
23.23855091604213
 31
0.0
  0
LINE
  5
95E2
330
9110
100
AcDbEntity
  8
DIM
100
AcDbLine
 10
41.07577473513628
 20
18.15795567794689
 30
0.0
 11
41.07577473513628
 21
21.64236043985166
 31
0.0
  0
INSERT
  5
95E3
330
9110
100
AcDbEntity
  8
DIM
100
AcDbBlockReference
  2
SEARROW
 10
41.07577473513628
 20
27.00295567794689
 30
0.0
 41
0.28
 42
0.28
 43
0.28
 50
90.0
  0
INSERT
  5
95E4
330
9110
100
AcDbEntity
  8
DIM
100
AcDbBlockReference
  2
SEARROW
 10
41.07577473513628
 20
17.87795567794689
 30
0.0
 41
0.28
 42
0.28
 43
0.28
 50
270.0
  0
MTEXT
  5
95E5
330
9110
100
AcDbEntity
  8
DIM
100
AcDbMText
 10
41.07577473513628
 20
22.4404556779469
 30
0.0
 40
0.4
 41
0.0
 71
     5
 72
     1
  1
\A1;9.13\P [232]
  7
ROMANS
1001
ACAD
1000
MTEXTBEGIN
1070
    73
1070
     1
1070
    44
1040
1.0
1070
    74
1070
     0
1000
MTEXTEND
1000
MTEXTBEGIN
1070
    73
1070
     1
1070
    44
1040
1.0
1070
    74
1070
     0
1000
MTEXTEND
  0
POINT
  5
95E6
330
9110
100
AcDbEntity
  8
DEFPOINTS
 62
     0
100
AcDbPoint
 10
34.71453833072891
 20
27.0029556779469
 30
0.0
  0
POINT
  5
95E7
330
9110
100
AcDbEntity
  8
DEFPOINTS
 62
     0
100
AcDbPoint
 10
34.71453833072891
 20
17.8779556779469
 30
0.0
  0
POINT
  5
95E8
330
9110
100
AcDbEntity
  8
DEFPOINTS
 62
     0
100
AcDbPoint
 10
41.07577473513628
 20
17.87795567794689
 30
0.0
  0
ENDBLK
  5
911C
330
9110
100
AcDbEntity
  8
0
100
AcDbBlockEnd
  0
BLOCK
  5
9128
330
911D
100
AcDbEntity
  8
0
100
AcDbBlockBegin
  2
*D6
 70
     1
 10
0.0
 20
0.0
 30
0.0
  3
*D6
  1

  0
LINE
  5
95E9
330
911D
100
AcDbEntity
  8
DIM
100
AcDbLine
 10
34.24578833072891
 20
25.2604550649629
 30
0.0
 11
38.91212886954562
 21
25.2604550649629
 31
0.0
  0
LINE
  5
95EA
330
911D
100
AcDbEntity
  8
DIM
100
AcDbLine
 10
34.24578833072895
 20
20.5729550649629
 30
0.0
 11
38.91212886954562
 21
20.5729550649629
 31
0.0
  0
LINE
  5
95EB
330
911D
100
AcDbEntity
  8
DIM
100
AcDbLine
 10
38.66212886954562
 20
24.9804550649629
 30
0.0
 11
38.66212886954562
 21
23.71783347327101
 31
0.0
  0
LINE
  5
95EC
330
911D
100
AcDbEntity
  8
DIM
100
AcDbLine
 10
38.66212886954562
 20
20.8529550649629
 30
0.0
 11
38.66212886954562
 21
22.12164299708053
 31
0.0
  0
INSERT
  5
95ED
330
911D
100
AcDbEntity
  8
DIM
100
AcDbBlockReference
  2
SEARROW
 10
38.66212886954562
 20
25.2604550649629
 30
0.0
 41
0.28
 42
0.28
 43
0.28
 50
90.0
  0
INSERT
  5
95EE
330
911D
100
AcDbEntity
  8
DIM
100
AcDbBlockReference
  2
SEARROW
 10
38.66212886954562
 20
20.5729550649629
 30
0.0
 41
0.28
 42
0.28
 43
0.28
 50
270.0
  0
MTEXT
  5
95EF
330
911D
100
AcDbEntity
  8
DIM
100
AcDbMText
 10
38.66212886954561
 20
22.91973823517578
 30
0.0
 40
0.4
 41
0.0
 71
     5
 72
     1
  1
\A1;4.69\P [119]
  7
ROMANS
1001
ACAD
1000
MTEXTBEGIN
1070
    73
1070
     1
1070
    44
1040
1.0
1070
    74
1070
     0
1000
MTEXTEND
1000
MTEXTBEGIN
1070
    73
1070
     1
1070
    44
1040
1.0
1070
    74
1070
     0
1000
MTEXTEND
  0
POINT
  5
95F0
330
911D
100
AcDbEntity
  8
DEFPOINTS
 62
     0
100
AcDbPoint
 10
33.9957883307289
 20
25.2604550649629
 30
0.0
  0
POINT
  5
95F1
330
911D
100
AcDbEntity
  8
DEFPOINTS
 62
     0
100
AcDbPoint
 10
33.99578833072895
 20
20.5729550649629
 30
0.0
  0
POINT
  5
95F2
330
911D
100
AcDbEntity
  8
DEFPOINTS
 62
     0
100
AcDbPoint
 10
38.66212886954562
 20
20.5729550649629
 30
0.0
  0
ENDBLK
  5
9129
330
911D
100
AcDbEntity
  8
0
100
AcDbBlockEnd
  0
BLOCK
  5
9135
330
912A
100
AcDbEntity
  8
0
100
AcDbBlockBegin
  2
*D7
 70
     1
 10
0.0
 20
0.0
 30
0.0
  3
*D7
  1

  0
LINE
  5
95F3
330
912A
100
AcDbEntity
  8
DIM
100
AcDbLine
 10
47.06279646931766
 20
17.47975649107776
 30
0.0
 11
47.06279646931766
 21
10.27735273650343
 31
0.0
  0
LINE
  5
95F4
330
912A
100
AcDbEntity
  8
DIM
100
AcDbLine
 10
51.31279646931766
 20
22.08275638920484
 30
0.0
 11
51.31279646931766
 21
10.27735273650343
 31
0.0
  0
LINE
  5
95F5
330
912A
100
AcDbEntity
  8
DIM
100
AcDbLine
 10
47.34279646931766
 20
10.52735273650343
 30
0.0
 11
48.0754155169367
 21
10.52735273650343
 31
0.0
  0
LINE
  5
95F6
330
912A
100
AcDbEntity
  8
DIM
100
AcDbLine
 10
51.03279646931766
 20
10.52735273650343
 30
0.0
 11
50.30017742169861
 21
10.52735273650343
 31
0.0
  0
INSERT
  5
95F7
330
912A
100
AcDbEntity
  8
DIM
100
AcDbBlockReference
  2
SEARROW
 10
47.06279646931766
 20
10.52735273650343
 30
0.0
 41
0.28
 42
0.28
 43
0.28
 50
180.0
  0
INSERT
  5
95F8
330
912A
100
AcDbEntity
  8
DIM
100
AcDbBlockReference
  2
SEARROW
 10
51.31279646931766
 20
10.52735273650343
 30
0.0
 41
0.28
 42
0.28
 43
0.28
  0
MTEXT
  5
95F9
330
912A
100
AcDbEntity
  8
DIM
100
AcDbMText
 10
49.18779646931766
 20
10.52735273650343
 30
0.0
 40
0.4
 41
0.0
 71
     5
 72
     1
  1
\A1;\P4.25\P [108]
  7
ROMANS
1001
ACAD
1000
MTEXTBEGIN
1070
    73
1070
     1
1070
    44
1040
1.0
1070
    74
1070
     0
1000
MTEXTEND
1000
MTEXTBEGIN
1070
    73
1070
     1
1070
    44
1040
1.0
1070
    74
1070
     0
1000
MTEXTEND
  0
POINT
  5
95FA
330
912A
100
AcDbEntity
  8
DEFPOINTS
 62
     0
100
AcDbPoint
 10
47.06279646931766
 20
17.72975649107776
 30
0.0
  0
POINT
  5
95FB
330
912A
100
AcDbEntity
  8
DEFPOINTS
 62
     0
100
AcDbPoint
 10
51.31279646931766
 20
22.33275638920484
 30
0.0
  0
POINT
  5
95FC
330
912A
100
AcDbEntity
  8
DEFPOINTS
 62
     0
100
AcDbPoint
 10
51.31279646931766
 20
10.52735273650343
 30
0.0
  0
ENDBLK
  5
9136
330
912A
100
AcDbEntity
  8
0
100
AcDbBlockEnd
  0
BLOCK
  5
9142
330
9137
100
AcDbEntity
  8
0
100
AcDbBlockBegin
  2
*D8
 70
     1
 10
0.0
 20
0.0
 30
0.0
  3
*D8
  1

  0
LINE
  5
95FD
330
9137
100
AcDbEntity
  8
DIM
100
AcDbLine
 10
33.27703833072891
 20
17.6279556779469
 30
0.0
 11
33.27703833072891
 21
14.84897312646678
 31
0.0
  0
LINE
  5
95FE
330
9137
100
AcDbEntity
  8
DIM
100
AcDbLine
 10
34.71453833072891
 20
17.6279556779469
 30
0.0
 11
34.71453833072891
 21
14.84897312646678
 31
0.0
  0
LINE
  5
95FF
330
9137
100
AcDbEntity
  8
DIM
100
AcDbLine
 10
33.55703833072891
 20
15.09897312646678
 30
0.0
 11
34.43453833072891
 21
15.09897312646678
 31
0.0
  0
LINE
  5
9600
330
9137
100
AcDbEntity
  8
DIM
100
AcDbLine
 10
34.71453833072891
 20
15.09897312646678
 30
0.0
 11
35.81522635255361
 21
15.09897312646678
 31
0.0
  0
INSERT
  5
9601
330
9137
100
AcDbEntity
  8
DIM
100
AcDbBlockReference
  2
SEARROW
 10
33.27703833072891
 20
15.09897312646678
 30
0.0
 41
0.28
 42
0.28
 43
0.28
 50
180.0
  0
INSERT
  5
9602
330
9137
100
AcDbEntity
  8
DIM
100
AcDbBlockReference
  2
SEARROW
 10
34.71453833072891
 20
15.09897312646678
 30
0.0
 41
0.28
 42
0.28
 43
0.28
  0
MTEXT
  5
9603
330
9137
100
AcDbEntity
  8
DIM
100
AcDbMText
 10
36.73713111445838
 20
15.09897312646678
 30
0.0
 40
0.4
 41
0.0
 71
     5
 72
     1
  1
\A1;\P1.44\P [37]
  7
ROMANS
1001
ACAD
1000
MTEXTBEGIN
1070
    73
1070
     1
1070
    44
1040
1.0
1070
    74
1070
     0
1000
MTEXTEND
1000
MTEXTBEGIN
1070
    73
1070
     1
1070
    44
1040
1.0
1070
    74
1070
     0
1000
MTEXTEND
  0
POINT
  5
9604
330
9137
100
AcDbEntity
  8
DEFPOINTS
 62
     0
100
AcDbPoint
 10
33.27703833072891
 20
17.8779556779469
 30
0.0
  0
POINT
  5
9605
330
9137
100
AcDbEntity
  8
DEFPOINTS
 62
     0
100
AcDbPoint
 10
34.71453833072891
 20
17.8779556779469
 30
0.0
  0
POINT
  5
9606
330
9137
100
AcDbEntity
  8
DEFPOINTS
 62
     0
100
AcDbPoint
 10
34.71453833072891
 20
15.09897312646678
 30
0.0
  0
ENDBLK
  5
9143
330
9137
100
AcDbEntity
  8
0
100
AcDbBlockEnd
  0
BLOCK
  5
914F
330
9144
100
AcDbEntity
  8
0
100
AcDbBlockBegin
  2
*D9
 70
     1
 10
0.0
 20
0.0
 30
0.0
  3
*D9
  1

  0
LINE
  5
9607
330
9144
100
AcDbEntity
  8
DIM
100
AcDbLine
 10
34.24578833072891
 20
25.2604550649629
 30
0.0
 11
37.40599780473807
 21
25.2604550649629
 31
0.0
  0
LINE
  5
9608
330
9144
100
AcDbEntity
  8
DIM
100
AcDbLine
 10
31.74703636276122
 20
26.26309792493851
 30
0.0
 11
37.40599780473807
 21
26.26309792493851
 31
0.0
  0
LINE
  5
9609
330
9144
100
AcDbEntity
  8
DIM
100
AcDbLine
 10
37.15599780473807
 20
25.98309792493851
 30
0.0
 11
37.15599780473807
 21
25.5404550649629
 31
0.0
  0
LINE
  5
960A
330
9144
100
AcDbEntity
  8
DIM
100
AcDbLine
 10
37.15599780473807
 20
25.2604550649629
 30
0.0
 11
37.15599780473807
 21
24.44652343067248
 31
0.0
  0
LINE
  5
960B
330
9144
100
AcDbEntity
  8
DIM
100
AcDbLine
 10
37.15599780473807
 20
24.44652343067248
 30
0.0
 11
36.87599780473807
 21
24.44652343067248
 31
0.0
  0
INSERT
  5
960C
330
9144
100
AcDbEntity
  8
DIM
100
AcDbBlockReference
  2
SEARROW
 10
37.15599780473807
 20
26.26309792493851
 30
0.0
 41
0.28
 42
0.28
 43
0.28
 50
90.0
  0
INSERT
  5
960D
330
9144
100
AcDbEntity
  8
DIM
100
AcDbBlockReference
  2
SEARROW
 10
37.15599780473807
 20
25.2604550649629
 30
0.0
 41
0.28
 42
0.28
 43
0.28
 50
270.0
  0
MTEXT
  5
960E
330
9144
100
AcDbEntity
  8
DIM
100
AcDbMText
 10
35.95409304283331
 20
24.44652343067248
 30
0.0
 40
0.4
 41
0.0
 71
     5
 72
     1
  1
\A1;\P1.00\P [26]
  7
ROMANS
1001
ACAD
1000
MTEXTBEGIN
1070
    73
1070
     1
1070
    44
1040
1.0
1070
    74
1070
     0
1000
MTEXTEND
1000
MTEXTBEGIN
1070
    73
1070
     1
1070
    44
1040
1.0
1070
    74
1070
     0
1000
MTEXTEND
  0
POINT
  5
960F
330
9144
100
AcDbEntity
  8
DEFPOINTS
 62
     0
100
AcDbPoint
 10
33.9957883307289
 20
25.2604550649629
 30
0.0
  0
POINT
  5
9610
330
9144
100
AcDbEntity
  8
DEFPOINTS
 62
     0
100
AcDbPoint
 10
31.49703636276122
 20
26.26309792493851
 30
0.0
  0
POINT
  5
9611
330
9144
100
AcDbEntity
  8
DEFPOINTS
 62
     0
100
AcDbPoint
 10
37.15599780473807
 20
26.26309792493851
 30
0.0
  0
ENDBLK
  5
9150
330
9144
100
AcDbEntity
  8
0
100
AcDbBlockEnd
  0
BLOCK
  5
9169
330
915E
100
AcDbEntity
  8
0
100
AcDbBlockBegin
  2
*D10
 70
     1
 10
0.0
 20
0.0
 30
0.0
  3
*D10
  1

  0
LINE
  5
9612
330
915E
100
AcDbEntity
  8
DIM
100
AcDbLine
 10
34.08888745666397
 20
25.49247349688186
 30
0.0
 11
34.85880853142715
 21
27.41124425518664
 31
0.0
  0
LINE
  5
9613
330
915E
100
AcDbEntity
  8
DIM
100
AcDbLine
 10
31.59013548869627
 20
26.49511635685747
 30
0.0
 11
32.36005656345946
 21
28.41388711516226
 31
0.0
  0
LINE
  5
9614
330
915E
100
AcDbEntity
  8
DIM
100
AcDbLine
 10
34.50584876174286
 20
27.28349684431495
 30
0.0
 11
33.77059107015252
 21
27.57852447577483
 31
0.0
  0
LINE
  5
9615
330
915E
100
AcDbEntity
  8
DIM
100
AcDbLine
 10
32.52681808127364
 20
28.07759766219605
 30
0.0
 11
33.16487678443823
 21
27.82157184964067
 31
0.0
  0
INSERT
  5
9616
330
915E
100
AcDbEntity
  8
DIM
100
AcDbBlockReference
  2
SEARROW
 10
34.7657094054921
 20
27.17922582326769
 30
0.0
 41
0.28
 42
0.28
 43
0.28
 50
338.136507999834
  0
INSERT
  5
9617
330
915E
100
AcDbEntity
  8
DIM
100
AcDbBlockReference
  2
SEARROW
 10
32.26695743752441
 20
28.18186868324331
 30
0.0
 41
0.28
 42
0.28
 43
0.28
 50
158.136507999834
  0
MTEXT
  5
9618
330
915E
100
AcDbEntity
  8
DIM
100
AcDbMText
 10
33.46773392729537
 20
27.70004816270775
 30
0.0
 40
0.4
 41
0.0
 71
     5
 72
     1
  1
\A1;C
  7
ROMANS
1001
ACAD
1000
MTEXTBEGIN
1070
    73
1070
     1
1070
    44
1040
1.0
1070
    74
1070
     0
1000
MTEXTEND
1000
MTEXTBEGIN
1070
    73
1070
     1
1070
    44
1040
1.0
1070
    74
1070
     0
1000
MTEXTEND
  0
POINT
  5
9619
330
915E
100
AcDbEntity
  8
DEFPOINTS
 62
     0
100
AcDbPoint
 10
33.99578833072892
 20
25.26045506496291
 30
0.0
  0
POINT
  5
961A
330
915E
100
AcDbEntity
  8
DEFPOINTS
 62
     0
100
AcDbPoint
 10
31.49703636276123
 20
26.26309792493851
 30
0.0
  0
POINT
  5
961B
330
915E
100
AcDbEntity
  8
DEFPOINTS
 62
     0
100
AcDbPoint
 10
32.26695743752441
 20
28.18186868324331
 30
0.0
  0
ENDBLK
  5
916A
330
915E
100
AcDbEntity
  8
0
100
AcDbBlockEnd
  0
BLOCK
  5
9176
330
916B
100
AcDbEntity
  8
0
100
AcDbBlockBegin
  2
*D11
 70
     1
 10
0.0
 20
0.0
 30
0.0
  3
*D11
  1

  0
LINE
  5
961C
330
916B
100
AcDbEntity
  8
DIM
100
AcDbLine
 10
31.74703636276122
 20
26.26309792493851
 30
0.0
 11
38.77669172949611
 21
26.26309792493851
 31
0.0
  0
LINE
  5
961D
330
916B
100
AcDbEntity
  8
DIM
100
AcDbLine
 10
35.12578833072891
 20
31.2604550649629
 30
0.0
 11
38.77669172949611
 21
31.2604550649629
 31
0.0
  0
LINE
  5
961E
330
916B
100
AcDbEntity
  8
DIM
100
AcDbLine
 10
38.52669172949611
 20
26.54309792493851
 30
0.0
 11
38.52669172949611
 21
28.40177649495071
 31
0.0
  0
LINE
  5
961F
330
916B
100
AcDbEntity
  8
DIM
100
AcDbLine
 10
38.52669172949611
 20
30.9804550649629
 30
0.0
 11
38.52669172949611
 21
29.1217764949507
 31
0.0
  0
INSERT
  5
9620
330
916B
100
AcDbEntity
  8
DIM
100
AcDbBlockReference
  2
SEARROW
 10
38.52669172949611
 20
26.26309792493851
 30
0.0
 41
0.28
 42
0.28
 43
0.28
 50
270.0
  0
INSERT
  5
9621
330
916B
100
AcDbEntity
  8
DIM
100
AcDbBlockReference
  2
SEARROW
 10
38.52669172949611
 20
31.2604550649629
 30
0.0
 41
0.28
 42
0.28
 43
0.28
 50
90.0
  0
MTEXT
  5
9622
330
916B
100
AcDbEntity
  8
DIM
100
AcDbMText
 10
38.5266917294961
 20
28.76177649495071
 30
0.0
 40
0.4
 41
0.0
 71
     5
 72
     1
  1
\A1;X
  7
ROMANS
1001
ACAD
1000
MTEXTBEGIN
1070
    73
1070
     1
1070
    44
1040
1.0
1070
    74
1070
     0
1000
MTEXTEND
1000
MTEXTBEGIN
1070
    73
1070
     1
1070
    44
1040
1.0
1070
    74
1070
     0
1000
MTEXTEND
  0
POINT
  5
9623
330
916B
100
AcDbEntity
  8
DEFPOINTS
 62
     0
100
AcDbPoint
 10
31.49703636276122
 20
26.26309792493851
 30
0.0
  0
POINT
  5
9624
330
916B
100
AcDbEntity
  8
DEFPOINTS
 62
     0
100
AcDbPoint
 10
34.87578833072891
 20
31.2604550649629
 30
0.0
  0
POINT
  5
9625
330
916B
100
AcDbEntity
  8
DEFPOINTS
 62
     0
100
AcDbPoint
 10
38.52669172949611
 20
31.2604550649629
 30
0.0
  0
ENDBLK
  5
9177
330
916B
100
AcDbEntity
  8
0
100
AcDbBlockEnd
  0
BLOCK
  5
9183
330
9178
100
AcDbEntity
  8
0
100
AcDbBlockBegin
  2
*D12
 70
     1
 10
0.0
 20
0.0
 30
0.0
  3
*D12
  1

  0
LINE
  5
9626
330
9178
100
AcDbEntity
  8
DIM
100
AcDbLine
 10
30.06389152567646
 20
26.26309792493851
 30
0.0
 11
26.27982273601511
 21
26.26309792493851
 31
0.0
  0
LINE
  5
9627
330
9178
100
AcDbEntity
  8
DIM
100
AcDbLine
 10
31.24703636276122
 20
22.32292789757742
 30
0.0
 11
26.2798227360151
 21
22.32292789757742
 31
0.0
  0
LINE
  5
9628
330
9178
100
AcDbEntity
  8
DIM
100
AcDbLine
 10
26.5298227360151
 20
25.98309792493851
 30
0.0
 11
26.5298227360151
 21
25.0911081493532
 31
0.0
  0
LINE
  5
9629
330
9178
100
AcDbEntity
  8
DIM
100
AcDbLine
 10
26.5298227360151
 20
22.60292789757742
 30
0.0
 11
26.5298227360151
 21
23.49491767316272
 31
0.0
  0
INSERT
  5
962A
330
9178
100
AcDbEntity
  8
DIM
100
AcDbBlockReference
  2
SEARROW
 10
26.5298227360151
 20
26.26309792493851
 30
0.0
 41
0.28
 42
0.28
 43
0.28
 50
90.0
  0
INSERT
  5
962B
330
9178
100
AcDbEntity
  8
DIM
100
AcDbBlockReference
  2
SEARROW
 10
26.5298227360151
 20
22.32292789757742
 30
0.0
 41
0.28
 42
0.28
 43
0.28
 50
270.0
  0
MTEXT
  5
962C
330
9178
100
AcDbEntity
  8
DIM
100
AcDbMText
 10
26.5298227360151
 20
24.29301291125797
 30
0.0
 40
0.4
 41
0.0
 71
     5
 72
     1
  1
\A1;3.94\P [100]
  7
ROMANS
1001
ACAD
1000
MTEXTBEGIN
1070
    73
1070
     1
1070
    44
1040
1.0
1070
    74
1070
     0
1000
MTEXTEND
1000
MTEXTBEGIN
1070
    73
1070
     1
1070
    44
1040
1.0
1070
    74
1070
     0
1000
MTEXTEND
  0
POINT
  5
962D
330
9178
100
AcDbEntity
  8
DEFPOINTS
 62
     0
100
AcDbPoint
 10
30.31389152567646
 20
26.26309792493851
 30
0.0
  0
POINT
  5
962E
330
9178
100
AcDbEntity
  8
DEFPOINTS
 62
     0
100
AcDbPoint
 10
31.49703636276122
 20
22.32292789757742
 30
0.0
  0
POINT
  5
962F
330
9178
100
AcDbEntity
  8
DEFPOINTS
 62
     0
100
AcDbPoint
 10
26.5298227360151
 20
22.32292789757742
 30
0.0
  0
ENDBLK
  5
9184
330
9178
100
AcDbEntity
  8
0
100
AcDbBlockEnd
  0
BLOCK
  5
9385
330
937A
100
AcDbEntity
  8
0
100
AcDbBlockBegin
  2
*D13
 70
     1
 10
0.0
 20
0.0
 30
0.0
  3
*D13
  1

  0
LINE
  5
9630
330
937A
100
AcDbEntity
  8
DIM
100
AcDbLine
 10
33.9957883307289
 20
25.60045506496289
 30
0.0
 11
33.9957883307289
 21
33.5806153919019
 31
0.0
  0
LINE
  5
9631
330
937A
100
AcDbEntity
  8
DIM
100
AcDbLine
 10
31.49703636276122
 20
26.51309792493851
 30
0.0
 11
31.49703636276122
 21
33.5806153919019
 31
0.0
  0
LINE
  5
9632
330
937A
100
AcDbEntity
  8
DIM
100
AcDbLine
 10
33.7157883307289
 20
33.3306153919019
 30
0.0
 11
33.66831710864982
 21
33.3306153919019
 31
0.0
  0
LINE
  5
9633
330
937A
100
AcDbEntity
  8
DIM
100
AcDbLine
 10
31.77703636276122
 20
33.3306153919019
 30
0.0
 11
31.8245075848403
 21
33.3306153919019
 31
0.0
  0
INSERT
  5
9634
330
937A
100
AcDbEntity
  8
DIM
100
AcDbBlockReference
  2
SEARROW
 10
33.9957883307289
 20
33.3306153919019
 30
0.0
 41
0.28
 42
0.28
 43
0.28
  0
INSERT
  5
9635
330
937A
100
AcDbEntity
  8
DIM
100
AcDbBlockReference
  2
SEARROW
 10
31.49703636276122
 20
33.3306153919019
 30
0.0
 41
0.28
 42
0.28
 43
0.28
 50
180.0
  0
MTEXT
  5
9636
330
937A
100
AcDbEntity
  8
DIM
100
AcDbMText
 10
32.74641234674506
 20
33.3306153919019
 30
0.0
 40
0.4
 41
0.0
 71
     5
 72
     1
  1
\A1;\P\P2.50\P [64]\PMIN.
  7
ROMANS
1001
ACAD
1000
MTEXTBEGIN
1070
    73
1070
     1
1070
    44
1040
1.0
1070
    74
1070
     0
1000
MTEXTEND
1000
MTEXTBEGIN
1070
    73
1070
     1
1070
    44
1040
1.0
1070
    74
1070
     0
1000
MTEXTEND
  0
POINT
  5
9637
330
937A
100
AcDbEntity
  8
DEFPOINTS
 62
     0
100
AcDbPoint
 10
33.9957883307289
 20
25.3504550649629
 30
0.0
  0
POINT
  5
9638
330
937A
100
AcDbEntity
  8
DEFPOINTS
 62
     0
100
AcDbPoint
 10
31.49703636276122
 20
26.26309792493851
 30
0.0
  0
POINT
  5
9639
330
937A
100
AcDbEntity
  8
DEFPOINTS
 62
     0
100
AcDbPoint
 10
31.49703636276122
 20
33.3306153919019
 30
0.0
  0
ENDBLK
  5
9386
330
937A
100
AcDbEntity
  8
0
100
AcDbBlockEnd
  0
BLOCK
  5
9393
330
9388
100
AcDbEntity
  8
0
100
AcDbBlockBegin
  2
*D14
 70
     1
 10
0.0
 20
0.0
 30
0.0
  3
*D14
  1

  0
LINE
  5
963A
330
9388
100
AcDbEntity
  8
DIM
100
AcDbLine
 10
30.31389152567646
 20
26.74488476285302
 30
0.0
 11
30.31389152567646
 21
29.08188088719517
 31
0.0
  0
LINE
  5
963B
330
9388
100
AcDbEntity
  8
DIM
100
AcDbLine
 10
31.49703636276122
 20
26.57559792493851
 30
0.0
 11
31.49703636276122
 21
29.08188088719517
 31
0.0
  0
LINE
  5
963C
330
9388
100
AcDbEntity
  8
DIM
100
AcDbLine
 10
31.21703636276122
 20
28.83188088719517
 30
0.0
 11
30.59389152567646
 21
28.83188088719517
 31
0.0
  0
LINE
  5
963D
330
9388
100
AcDbEntity
  8
DIM
100
AcDbLine
 10
30.31389152567646
 20
28.83188088719517
 30
0.0
 11
29.47475843940769
 21
28.83188088719517
 31
0.0
  0
INSERT
  5
963E
330
9388
100
AcDbEntity
  8
DIM
100
AcDbBlockReference
  2
SEARROW
 10
31.49703636276122
 20
28.83188088719517
 30
0.0
 41
0.28
 42
0.28
 43
0.28
  0
INSERT
  5
963F
330
9388
100
AcDbEntity
  8
DIM
100
AcDbBlockReference
  2
SEARROW
 10
30.31389152567646
 20
28.83188088719517
 30
0.0
 41
0.28
 42
0.28
 43
0.28
 50
180.0
  0
MTEXT
  5
9640
330
9388
100
AcDbEntity
  8
DIM
100
AcDbMText
 10
28.55285367750293
 20
28.83188088719517
 30
0.0
 40
0.4
 41
0.0
 71
     5
 72
     1
  1
\A1;\P1.18\P [30]
  7
ROMANS
1001
ACAD
1000
MTEXTBEGIN
1070
    73
1070
     1
1070
    44
1040
1.0
1070
    74
1070
     0
1000
MTEXTEND
1000
MTEXTBEGIN
1070
    73
1070
     1
1070
    44
1040
1.0
1070
    74
1070
     0
1000
MTEXTEND
  0
POINT
  5
9641
330
9388
100
AcDbEntity
  8
DEFPOINTS
 62
     0
100
AcDbPoint
 10
30.31389152567646
 20
26.49488476285302
 30
0.0
  0
POINT
  5
9642
330
9388
100
AcDbEntity
  8
DEFPOINTS
 62
     0
100
AcDbPoint
 10
31.49703636276122
 20
26.32559792493851
 30
0.0
  0
POINT
  5
9643
330
9388
100
AcDbEntity
  8
DEFPOINTS
 62
     0
100
AcDbPoint
 10
31.49703636276122
 20
28.83188088719517
 30
0.0
  0
ENDBLK
  5
9394
330
9388
100
AcDbEntity
  8
0
100
AcDbBlockEnd
  0
BLOCK
  5
94B4
330
94B2
100
AcDbEntity
  8
0
100
AcDbBlockBegin
  2
SEARROW
 70
     0
 10
0.0
 20
0.0
 30
0.0
  3
SEARROW
  1

  0
LWPOLYLINE
  5
94B3
330
94B2
100
AcDbEntity
  8
0
  6
BYBLOCK
100
AcDbPolyline
 90
        2
 70
     0
 10
0.0
 20
0.0
 40
0.0
 41
0.5000000001500001
 10
-1.000000000300019
 20
0.0
 40
0.5000000001500001
 41
0.5000000001500001
  0
ENDBLK
  5
94B5
330
94B2
100
AcDbEntity
  8
0
100
AcDbBlockEnd
  0
ENDSEC
  0
SECTION
  2
ENTITIES
  0
INSERT
  5
79E
330
1F
100
AcDbEntity
  8
0
100
AcDbBlockReference
  2
NEWLAYERS
 10
0.0
 20
0.190091554998471
 30
0.0
 41
0.00020833333
 42
0.00020833333
 43
0.00020833333
  0
LWPOLYLINE
  5
BF7
330
1F
100
AcDbEntity
  8
VIEWPORT
100
AcDbPolyline
 90
        6
 70
     1
 43
0.0
 10
65.60000399999999
 20
41.19009155499847
 10
65.60000399999999
 20
3.838099554998468
 10
32.009844
 20
3.838099554998468
 10
32.009844
 20
0.190091554998471
 10
0.0
 20
0.190091554998471
 10
0.0
 20
41.19009155499847
1001
GENIUS_GENOREF_13
1005
0
1005
0
1005
0
1005
0
1005
0
1005
0
1005
0
  0
VIEWPORT
  5
BF8
330
1F
100
AcDbEntity
  8
VIEWPORT
100
AcDbViewport
 10
32.80000199999999
 20
20.69009155499847
 30
0.0
 40
65.60000399999999
 41
41.0
 69
     0
1001
ACAD
1000
MVIEW
1002
{
1070
    16
1010
0.0
1020
0.0
1030
0.0
1010
0.0
1020
0.0
1030
1.0
1040
0.0
1040
41.0
1040
32.79338763516309
1040
20.71142202491305
1040
50.0
1040
0.0
1040
0.0
1070
     0
1070
   100
1070
     1
1070
     2
1070
     0
1070
     0
1070
     0
1070
     0
1040
0.0
1040
0.0
1040
0.0
1040
0.5
1040
0.5
1040
0.5
1040
0.5
1070
     0
1002
{
1002
}
1002
}
1001
GENIUS_GENOREF_13
1005
0
1005
0
1005
0
1005
0
1005
0
1005
0
1005
0
1001
GENIUS_GENSCREG_15
1000
PF
1040
0.0
1000
DF
1040
0.0
1000
MIN
1011
0.0
1021
0.190091554998471
1031
0.0
1000
MAX
1011
65.60000399999999
1021
41.19009155499847
1031
0.0
1000
FLAGS
1070
     2
  0
INSERT
  5
8DC1
330
1F
100
AcDbEntity
  8
TEXT1
100
AcDbBlockReference
 66
     1
  2
REF2
 10
0.5951657740219503
 20
4.493689788454688
 30
0.0
 41
3.199993475000249
 42
3.199993475000249
 43
3.199993475000249
  0
ATTRIB
  5
8DC2
330
8DC1
100
AcDbEntity
  8
TEXT1
100
AcDbText
 10
6.595153539647402
 20
5.199087726384632
 30
0.0
 40
0.3999991843750312
  1
 (4) #8-32 screws
100
AcDbAttribute
  2
MOUNTING_HWD
 70
     0
  0
ATTRIB
  5
8DC3
330
8DC1
100
AcDbEntity
  8
TEXT1
100
AcDbText
 10
6.595153539647402
 20
5.928819949273796
 30
0.0
 40
0.3999991843750312
  1
 -
100
AcDbAttribute
  2
TERM_TORQUE
 70
     0
  0
ATTRIB
  5
8DC4
330
8DC1
100
AcDbEntity
  8
TEXT1
100
AcDbText
 10
6.595153539647402
 20
6.599084871697248
 30
0.0
 40
0.3999991843750312
  1
 -
100
AcDbAttribute
  2
WIRE_SIZE
 70
     0
  0
ATTRIB
  5
8DC5
330
8DC1
100
AcDbEntity
  8
TEXT1
100
AcDbText
 10
6.595153539647402
 20
7.234216721190262
 30
0.0
 40
0.3999991843750312
  1
 6.5 lbs
100
AcDbAttribute
  2
WEIGHT
 70
     0
  0
ATTRIB
  5
8DC6
330
8DC1
100
AcDbEntity
  8
TEXT1
100
AcDbText
 10
6.595153539647402
 20
7.893682855642446
 30
0.0
 40
0.3999991843750312
  1
 -
100
AcDbAttribute
  2
STANDARDS
 70
     0
  0
ATTRIB
  5
8DC7
330
8DC1
100
AcDbEntity
  8
TEXT1
100
AcDbText
 10
6.595153539647402
 20
8.634213809078907
 30
0.0
 40
0.3999991843750312
  1
 LR4199/321107
100
AcDbAttribute
  2
CSA
 70
     0
  0
ATTRIB
  5
8DC8
330
8DC1
100
AcDbEntity
  8
TEXT1
100
AcDbText
 10
6.63030003225543
 20
9.293680000955063
 30
0.0
 40
0.3999991843750312
  1
 E62922/DIHS2
100
AcDbAttribute
  2
UL
 70
     0
  0
ATTRIB
  5
8DC9
330
8DC1
100
AcDbEntity
  8
TEXT1
100
AcDbText
 10
6.595153539647402
 20
9.999077938885008
 30
0.0
 40
0.3999991843750312
  1
 -
100
AcDbAttribute
  2
RATING
 70
     0
  0
ATTRIB
  5
8DCA
330
8DC1
100
AcDbEntity
  8
TEXT1
100
AcDbText
 10
6.595153539647402
 20
10.69367714626767
 30
0.0
 40
0.3999991843750312
  1
 9422-CGJ30, CGJ50, CGJ10
100
AcDbAttribute
  2
CATALOG
 70
     0
  0
SEQEND
  5
8DCB
330
8DC1
100
AcDbEntity
  8
MOUNTING
  0
LINE
  5
8DD1
330
1F
100
AcDbEntity
  8
CONTINUOUS1
100
AcDbLine
 10
3.826781246448476
 20
37.60486695934405
 30
0.0
 11
3.826781246448476
 21
32.03048616716088
 31
0.0
  0
LINE
  5
8DD2
330
1F
100
AcDbEntity
  8
CONTINUOUS1
100
AcDbLine
 10
15.19615569314327
 20
35.1327726205388
 30
0.0
 11
15.19615569314325
 21
32.03048616716088
 31
0.0
  0
LINE
  5
8DD3
330
1F
100
AcDbEntity
  8
CONTINUOUS1
100
AcDbLine
 10
9.677215157434076
 20
37.60486695934404
 30
0.0
 11
9.677215157434069
 21
32.03048616716088
 31
0.0
  0
TEXT
  5
8DD4
330
1F
100
AcDbEntity
  8
TEXT1
100
AcDbText
 10
4.865168636489216
 20
33.76807561084349
 30
0.0
 40
0.3999999843749999
  1
36"
100
AcDbText
  0
TEXT
  5
8DD5
330
1F
100
AcDbEntity
  8
TEXT1
100
AcDbText
 10
6.78489775450153
 20
36.19795052805988
 30
0.0
 40
0.3999999843749999
  1
MAXIMUM
100
AcDbText
  0
TEXT
  5
8DD6
330
1F
100
AcDbEntity
  8
TEXT1
100
AcDbText
 10
7.499443356707978
 20
35.55381257398495
 30
0.0
 40
0.3999999843749999
  1
BOX
100
AcDbText
  0
LINE
  5
8DD7
330
1F
100
AcDbEntity
  8
CONTINUOUS1
100
AcDbLine
 10
1.41347771033935
 20
32.82156180338619
 30
0.0
 11
21.05967075565388
 21
32.82156180338619
 31
0.0
  0
LINE
  5
8DD8
330
1F
100
AcDbEntity
  8
CONTINUOUS1
100
AcDbLine
 10
1.41347771033935
 20
34.349590046793
 30
0.0
 11
21.05967075565388
 21
34.349590046793
 31
0.0
  0
TEXT
  5
8DD9
330
1F
100
AcDbEntity
  8
TEXT1
100
AcDbText
 10
4.672100880081877
 20
32.22156182682369
 30
0.0
 40
0.3999999843749999
  1
120"
100
AcDbText
  0
TEXT
  5
8DDA
330
1F
100
AcDbEntity
  8
TEXT1
100
AcDbText
 10
4.257271704916534
 20
36.21151032729878
 30
0.0
 40
0.3999999843749999
  1
CABLE
100
AcDbText
  0
TEXT
  5
8DDB
330
1F
100
AcDbEntity
  8
TEXT1
100
AcDbText
 10
10.56442082206012
 20
33.02103744742399
 30
0.0
 40
0.3999999843749999
  1
16.00 [406]
 72
     1
 11
12.26442075565387
 21
33.2210374396115
 31
0.0
100
AcDbText
 73
     2
  0
LINE
  5
8DDC
330
1F
100
AcDbEntity
  8
CONTINUOUS1
100
AcDbLine
 10
1.41347771033935
 20
32.03048616716087
 30
0.0
 11
21.05967075565387
 21
32.03048616716088
 31
0.0
  0
LINE
  5
8DDD
330
1F
100
AcDbEntity
  8
CONTINUOUS1
100
AcDbLine
 10
1.41347771033935
 20
37.60486695934404
 30
0.0
 11
21.0596707556539
 21
37.60486695934404
 31
0.0
  0
TEXT
  5
8DDE
330
1F
100
AcDbEntity
  8
TEXT1
100
AcDbText
 10
4.835254563215299
 20
33.05608737021309
 30
0.0
 40
0.399999984375
  1
60"
  7
SIMPLEX
 11
4.835254563215299
 21
33.45608735458809
 31
0.0
100
AcDbText
 73
     3
  0
TEXT
  5
8DDF
330
1F
100
AcDbEntity
  8
TEXT1
100
AcDbText
 10
4.118628472906675
 20
35.51836996011596
 30
0.0
 40
0.3999999843749999
  1
LENGTH
100
AcDbText
  0
LINE
  5
8DE0
330
1F
100
AcDbEntity
  8
CONTINUOUS1
100
AcDbLine
 10
6.468909061403493
 20
37.60486695934404
 30
0.0
 11
6.468909061403493
 21
32.03048616716088
 31
0.0
  0
TEXT
  5
8DE1
330
1F
100
AcDbEntity
  8
TEXT1
100
AcDbText
 10
7.787394541806273
 20
33.05608737021309
 30
0.0
 40
0.399999984375
  1
36"
  7
SIMPLEX
 11
7.787394541806273
 21
33.45608735458809
 31
0.0
100
AcDbText
 73
     3
  0
TEXT
  5
8DE2
330
1F
100
AcDbEntity
  8
TEXT1
100
AcDbText
 10
7.807837059898055
 20
33.80136218135636
 30
0.0
 40
0.3999999843749999
  1
24"
100
AcDbText
  0
TEXT
  5
8DE3
330
1F
100
AcDbEntity
  8
TEXT1
100
AcDbText
 10
7.807604983546658
 20
32.22156182682369
 30
0.0
 40
0.3999999843749999
  1
36"
100
AcDbText
  0
LINE
  5
8DE4
330
1F
100
AcDbEntity
  8
CONTINUOUS1
100
AcDbLine
 10
9.677215157434069
 20
35.13277262053883
 30
0.0
 11
21.05967075565388
 21
35.13277262053878
 31
0.0
  0
LINE
  5
8DE5
330
1F
100
AcDbEntity
  8
CONTINUOUS1
100
AcDbLine
 10
21.0596707556539
 20
37.60486695934405
 30
0.0
 11
21.05967075565387
 21
32.03048616716088
 31
0.0
  0
TEXT
  5
8DE6
330
1F
100
AcDbEntity
  8
TEXT1
100
AcDbText
 10
11.71293975961368
 20
36.98641473985098
 30
0.0
 40
0.3999999843749999
  1
MAXIMUM DISTANCE
100
AcDbText
  0
TEXT
  5
8DE7
330
1F
100
AcDbEntity
  8
TEXT1
100
AcDbText
 10
9.923530383816137
 20
36.42781277285693
 30
0.0
 40
0.3999999843749999
  1
FROM TOP RIGHT MOUNTING HOLE
100
AcDbText
  0
TEXT
  5
8DE8
330
1F
100
AcDbEntity
  8
TEXT1
100
AcDbText
 10
10.8511125121555
 20
35.86921070844701
 30
0.0
 40
0.3999999843749999
  1
TO UPPER MOUNTING HOLE
100
AcDbText
  0
TEXT
  5
8DE9
330
1F
100
AcDbEntity
  8
TEXT1
100
AcDbText
 10
10.19821295493083
 20
35.31551520689848
 30
0.0
 40
0.399999984375
  1
FOR HANDLE OPERATOR (DIM C)
  7
SIMPLEX
100
AcDbText
  0
TEXT
  5
8DEA
330
1F
100
AcDbEntity
  8
TEXT1
100
AcDbText
 10
10.58995257334949
 20
34.55843874730624
 30
0.0
 40
0.399999984375
  1
MINIMUM C
  7
SIMPLEX
100
AcDbText
  0
TEXT
  5
8DEB
330
1F
100
AcDbEntity
  8
TEXT1
100
AcDbText
 10
15.97165604356136
 20
34.50622651899912
 30
0.0
 40
0.399999984375
  1
MAXIMUM C
  7
SIMPLEX
100
AcDbText
  0
TEXT
  5
8DEC
330
1F
100
AcDbEntity
  8
TEXT1
100
AcDbText
 10
16.15649226123423
 20
32.237837447424
 30
0.0
 40
0.399999984375
  1
60.00 [1524]
  7
SIMPLEX
 72
     1
 11
18.12792075565387
 21
32.4378374396115
 31
0.0
100
AcDbText
 73
     2
  0
TEXT
  5
8DED
330
1F
100
AcDbEntity
  8
TEXT1
100
AcDbText
 10
1.942410895044082
 20
36.02735189751323
 30
0.0
 40
0.399999984375
  1
TYPE
  7
SIMPLEX
100
AcDbText
  0
LINE
  5
8DEE
330
1F
100
AcDbEntity
  8
CONTINUOUS1
100
AcDbLine
 10
1.41347771033935
 20
37.60486695934404
 30
0.0
 11
1.41347771033935
 21
32.03048616716088
 31
0.0
  0
TEXT
  5
8DEF
330
1F
100
AcDbEntity
  8
TEXT1
100
AcDbText
 10
1.760482902033995
 20
33.75411475364322
 30
0.0
 40
0.399999984375
  1
CGJ30
  7
SIMPLEX
100
AcDbText
  0
LINE
  5
8DF0
330
1F
100
AcDbEntity
  8
CONTINUOUS1
100
AcDbLine
 10
55.45509209587763
 20
16.88645739285055
 30
0.0
 11
54.76417634266878
 21
20.62230015010294
 31
0.0
  0
LINE
  5
8DF1
330
1F
100
AcDbEntity
  8
CONTINUOUS1
100
AcDbLine
 10
55.10914354677165
 20
16.88645739285055
 30
0.0
 11
54.4121047561429
 21
20.55718718331232
 31
0.0
  0
LINE
  5
8DF2
330
1F
100
AcDbEntity
  8
CONTINUOUS1
100
AcDbLine
 10
49.39106162376038
 20
18.11723237324353
 30
0.0
 11
49.39106162376038
 21
21.7013405747226
 31
0.0
  0
LINE
  5
8DF3
330
1F
100
AcDbEntity
  8
CONTINUOUS1
100
AcDbLine
 10
56.19142753997117
 20
20.75015589788224
 30
0.0
 11
55.66965570897528
 21
19.93709427127521
 31
0.0
  0
LINE
  5
8DF4
330
1F
100
AcDbEntity
  8
CONTINUOUS1
100
AcDbLine
 10
55.23792907781207
 20
20.9601484193758
 30
0.0
 11
55.4003864508729
 21
19.97078214104174
 31
0.0
  0
ARC
  5
8DF5
330
1F
100
AcDbEntity
  8
CONTINUOUS1
100
AcDbCircle
 10
57.61465436573804
 20
20.66440568857137
 30
0.0
 40
0.25
100
AcDbArc
 50
180.0
 51
270.0
  0
ARC
  5
8DF6
330
1F
100
AcDbEntity
  8
CONTINUOUS1
100
AcDbCircle
 10
57.73358032933003
 20
20.66440568857137
 30
0.0
 40
0.25
100
AcDbArc
 50
270.0
 51
0.0
  0
LINE
  5
8DF7
330
1F
100
AcDbEntity
  8
CONTINUOUS1
100
AcDbLine
 10
56.0247967768262
 20
17.210111539875
 30
0.0
 11
57.40482441139088
 21
20.5284961956773
 31
0.0
  0
LINE
  5
8DF8
330
1F
100
AcDbEntity
  8
CONTINUOUS1
100
AcDbLine
 10
58.52205439582246
 20
27.24973176025953
 30
0.0
 11
58.52205439582246
 21
18.44973176025951
 31
0.0
  0
LINE
  5
8DF9
330
1F
100
AcDbEntity
  8
CONTINUOUS1
100
AcDbLine
 10
58.61505439582246
 20
28.17282493048882
 30
0.0
 11
58.61505439582246
 21
15.61697814466104
 31
0.0
  0
LINE
  5
8DFA
330
1F
100
AcDbEntity
  8
CONTINUOUS1
100
AcDbLine
 10
58.52205439582246
 20
28.16985797674194
 30
0.0
 11
58.52205439582245
 21
15.61697814466105
 31
0.0
  0
LINE
  5
8DFB
330
1F
100
AcDbEntity
  8
CONTINUOUS1
100
AcDbLine
 10
46.96979646931765
 20
28.17085681559445
 30
0.0
 11
46.96979646931765
 21
17.59540681298755
 31
0.0
  0
LINE
  5
8DFC
330
1F
100
AcDbEntity
  8
CONTINUOUS1
100
AcDbLine
 10
47.06279646931766
 20
28.17382376934135
 30
0.0
 11
47.06279646931766
 21
17.59540681298755
 31
0.0
  0
LINE
  5
8DFD
330
1F
100
AcDbEntity
  8
CONTINUOUS1
100
AcDbLine
 10
47.23879646931766
 20
27.24223237324353
 30
0.0
 11
47.23879646931766
 21
18.11723237324353
 31
0.0
  0
LINE
  5
8DFE
330
1F
100
AcDbEntity
  8
CONTINUOUS1
100
AcDbLine
 10
49.39106162376038
 20
18.11723237324353
 30
0.0
 11
47.06279646931766
 21
18.11723237324353
 31
0.0
  0
LINE
  5
8DFF
330
1F
100
AcDbEntity
  8
CONTINUOUS1
100
AcDbLine
 10
47.33274818978115
 20
18.11723237324353
 30
0.0
 11
47.33274818978115
 21
17.17722409984708
 31
0.0
  0
LINE
  5
8E00
330
1F
100
AcDbEntity
  8
CONTINUOUS1
100
AcDbLine
 10
47.70774818978115
 20
18.11723237324353
 30
0.0
 11
47.70774818978115
 21
17.17722409984706
 31
0.0
  0
LINE
  5
8E01
330
1F
100
AcDbEntity
  8
CONTINUOUS1
100
AcDbLine
 10
47.33274818978116
 20
17.17722409984708
 30
0.0
 11
47.37045371836065
 21
16.85031660648179
 31
0.0
  0
LINE
  5
8E02
330
1F
100
AcDbEntity
  8
CONTINUOUS1
100
AcDbLine
 10
47.70774818978115
 20
17.17722409984708
 30
0.0
 11
47.66744829236496
 21
16.86322454168904
 31
0.0
  0
CIRCLE
  5
8E03
330
1F
100
AcDbEntity
  8
CONTINUOUS1
100
AcDbCircle
 10
47.995790159345
 20
19.39277286333244
 30
0.0
 40
0.0839745969405588
  0
LINE
  5
8E04
330
1F
100
AcDbEntity
  8
CONTINUOUS1
100
AcDbLine
 10
55.27576511039637
 20
17.85609430846384
 30
0.0
 11
55.53819930109193
 21
16.88645739285055
 31
0.0
  0
LINE
  5
8E05
330
1F
100
AcDbEntity
  8
CONTINUOUS1
100
AcDbLine
 10
54.92741339870972
 20
17.84348055610122
 30
0.0
 11
55.02538861689243
 21
16.88645739285054
 31
0.0
  0
LINE
  5
8E06
330
1F
100
AcDbEntity
  8
CONTINUOUS1
100
AcDbLine
 10
54.52205439582248
 20
19.97817289709409
 30
0.0
 11
54.52205439582247
 21
16.60895739285054
 31
0.0
  0
LINE
  5
8E07
330
1F
100
AcDbEntity
  8
CONTINUOUS1
100
AcDbLine
 10
54.78926960437836
 20
16.42145739285054
 30
0.0
 11
55.78926960437836
 21
16.42145739285055
 31
0.0
  0
LINE
  5
8E08
330
1F
100
AcDbEntity
  8
CONTINUOUS1
100
AcDbLine
 10
54.78926960437835
 20
16.88645739285054
 30
0.0
 11
55.78926960437835
 21
16.88645739285056
 31
0.0
  0
LINE
  5
8E09
330
1F
100
AcDbEntity
  8
CONTINUOUS1
100
AcDbLine
 10
54.52205439582247
 20
16.69895739285054
 30
0.0
 11
56.0247967768262
 21
16.69895739285055
 31
0.0
  0
LINE
  5
8E0A
330
1F
100
AcDbEntity
  8
CONTINUOUS1
100
AcDbLine
 10
54.52205439582247
 20
16.60895739285054
 30
0.0
 11
56.0247967768262
 21
16.60895739285055
 31
0.0
  0
LINE
  5
8E0B
330
1F
100
AcDbEntity
  8
CONTINUOUS1
100
AcDbLine
 10
55.0336383348393
 20
16.42145739285054
 30
0.0
 11
55.10914354677165
 21
15.47601570138683
 31
0.0
  0
LINE
  5
8E0C
330
1F
100
AcDbEntity
  8
CONTINUOUS1
100
AcDbLine
 10
54.78926960437835
 20
16.88645739285054
 30
0.0
 11
54.78926960437835
 21
16.69895739285054
 31
0.0
  0
LINE
  5
8E0D
330
1F
100
AcDbEntity
  8
CONTINUOUS1
100
AcDbLine
 10
55.01910135786596
 20
16.88645739285054
 30
0.0
 11
55.01910135786597
 21
16.69895739285054
 31
0.0
  0
LINE
  5
8E0E
330
1F
100
AcDbEntity
  8
CONTINUOUS1
100
AcDbLine
 10
55.01910135786597
 20
16.60895739285054
 30
0.0
 11
55.01910135786597
 21
16.42145739285054
 31
0.0
  0
LINE
  5
8E0F
330
1F
100
AcDbEntity
  8
CONTINUOUS1
100
AcDbLine
 10
54.78926960437835
 20
16.60895739285054
 30
0.0
 11
54.78926960437835
 21
16.42145739285054
 31
0.0
  0
LINE
  5
8E10
330
1F
100
AcDbEntity
  8
CONTINUOUS1
100
AcDbLine
 10
55.54490087391743
 20
16.42145739285054
 30
0.0
 11
55.4210341541022
 21
15.38181021322003
 31
0.0
  0
LINE
  5
8E11
330
1F
100
AcDbEntity
  8
CONTINUOUS1
100
AcDbLine
 10
56.0247967768262
 20
17.210111539875
 30
0.0
 11
56.0247967768262
 21
16.60895739285055
 31
0.0
  0
LINE
  5
8E12
330
1F
100
AcDbEntity
  8
CONTINUOUS1
100
AcDbLine
 10
55.78926960437835
 20
16.88645739285056
 30
0.0
 11
55.78926960437835
 21
16.69895739285055
 31
0.0
  0
LINE
  5
8E13
330
1F
100
AcDbEntity
  8
CONTINUOUS1
100
AcDbLine
 10
55.54001083991657
 20
16.88645739285055
 30
0.0
 11
55.54001083991657
 21
16.69895739285055
 31
0.0
  0
LINE
  5
8E14
330
1F
100
AcDbEntity
  8
CONTINUOUS1
100
AcDbLine
 10
55.28926960437835
 20
16.88645739285055
 30
0.0
 11
55.28926960437836
 21
16.69895739285055
 31
0.0
  0
LINE
  5
8E15
330
1F
100
AcDbEntity
  8
CONTINUOUS1
100
AcDbLine
 10
55.54001083991657
 20
16.60895739285055
 30
0.0
 11
55.54001083991658
 21
16.42145739285055
 31
0.0
  0
LINE
  5
8E16
330
1F
100
AcDbEntity
  8
CONTINUOUS1
100
AcDbLine
 10
55.28926960437836
 20
16.60895739285054
 30
0.0
 11
55.28926960437836
 21
16.42145739285054
 31
0.0
  0
LINE
  5
8E17
330
1F
100
AcDbEntity
  8
CONTINUOUS1
100
AcDbLine
 10
55.78926960437835
 20
16.60895739285055
 30
0.0
 11
55.78926960437835
 21
16.42145739285055
 31
0.0
  0
LINE
  5
8E18
330
1F
100
AcDbEntity
  8
CONTINUOUS1
100
AcDbLine
 10
56.54032174994966
 20
18.44973176025951
 30
0.0
 11
55.16597637093614
 21
18.44973176025951
 31
0.0
  0
ARC
  5
8E19
330
1F
100
AcDbEntity
  8
CONTINUOUS1
100
AcDbCircle
 10
54.77205439582247
 20
18.69973176025951
 30
0.0
 40
0.25
100
AcDbArc
 50
180.0
 51
270.0
  0
LINE
  5
8E1A
330
1F
100
AcDbEntity
  8
CONTINUOUS1
100
AcDbLine
 10
54.81229171166488
 20
18.44973176025951
 30
0.0
 11
54.77205439582247
 21
18.44973176025951
 31
0.0
  0
CIRCLE
  5
8E1B
330
1F
100
AcDbEntity
  8
CONTINUOUS1
100
AcDbCircle
 10
55.51021542798995
 20
19.75566507285138
 30
0.0
 40
0.1710834494346596
  0
CIRCLE
  5
8E1C
330
1F
100
AcDbEntity
  8
CONTINUOUS1
100
AcDbCircle
 10
55.51021542798995
 20
19.75566507285138
 30
0.0
 40
0.2415321039559721
  0
LINE
  5
8E1D
330
1F
100
AcDbEntity
  8
CONTINUOUS1
100
AcDbLine
 10
56.81534953346428
 20
19.781603763815
 30
0.0
 11
56.79020478339086
 21
19.71152016038612
 31
0.0
  0
LINE
  5
8E1E
330
1F
100
AcDbEntity
  8
CONTINUOUS1
100
AcDbLine
 10
57.10549991613659
 20
19.6775029684926
 30
0.0
 11
56.81534953346428
 21
19.781603763815
 31
0.0
  0
LINE
  5
8E1F
330
1F
100
AcDbEntity
  8
CONTINUOUS1
100
AcDbLine
 10
57.0133846867845
 20
19.41673353880378
 30
0.0
 11
56.72195480453058
 21
19.52129339581288
 31
0.0
  0
LINE
  5
8E20
330
1F
100
AcDbEntity
  8
CONTINUOUS1
100
AcDbLine
 10
56.74709955460401
 20
19.59137699924175
 30
0.0
 11
56.89717736641082
 21
19.53753175035583
 31
0.0
  0
LINE
  5
8E21
330
1F
100
AcDbEntity
  8
CONTINUOUS1
100
AcDbLine
 10
56.72195480453058
 20
19.52129339581288
 30
0.0
 11
56.74709955460401
 21
19.59137699924175
 31
0.0
  0
LINE
  5
8E22
330
1F
100
AcDbEntity
  8
CONTINUOUS1
100
AcDbLine
 10
56.92205853450364
 20
19.44949973748534
 30
0.0
 11
57.01545326343734
 21
19.70981010548748
 31
0.0
  0
LINE
  5
8E23
330
1F
100
AcDbEntity
  8
CONTINUOUS1
100
AcDbLine
 10
57.05547399797034
 20
19.6954513779342
 30
0.0
 11
56.96207926903664
 21
19.43514100993207
 31
0.0
  0
LINE
  5
8E24
330
1F
100
AcDbEntity
  8
CONTINUOUS1
100
AcDbLine
 10
56.89717736641082
 20
19.53753175035583
 30
0.0
 11
56.91872998080423
 21
19.59760333092802
 31
0.0
  0
LINE
  5
8E25
330
1F
100
AcDbEntity
  8
CONTINUOUS1
100
AcDbLine
 10
56.94028259519765
 20
19.6576749115002
 30
0.0
 11
56.91872998080423
 21
19.59760333092802
 31
0.0
  0
LINE
  5
8E26
330
1F
100
AcDbEntity
  8
CONTINUOUS1
100
AcDbLine
 10
56.79020478339086
 20
19.71152016038612
 30
0.0
 11
56.94028259519765
 21
19.6576749115002
 31
0.0
  0
POINT
  5
8E27
330
1F
100
AcDbEntity
  8
CONTINUOUS1
100
AcDbPoint
 10
58.52205439582245
 20
15.61697814466105
 30
0.0
  0
LINE
  5
8E28
330
1F
100
AcDbEntity
  8
CONTINUOUS1
100
AcDbLine
 10
58.52205439582245
 20
15.61697814466105
 30
0.0
 11
58.61505439582246
 21
15.61697814466104
 31
0.0
  0
LINE
  5
8E29
330
1F
100
AcDbEntity
  8
CONTINUOUS1
100
AcDbLine
 10
57.73358032933003
 20
20.41440568857137
 30
0.0
 11
57.61465436573804
 21
20.41440568857137
 31
0.0
  0
LINE
  5
8E2A
330
1F
100
AcDbEntity
  8
CONTINUOUS1
100
AcDbLine
 10
50.2746604634288
 20
27.24223237324353
 30
0.0
 11
51.31279646931766
 21
25.87291046640292
 31
0.0
  0
POINT
  5
8E2B
330
1F
100
AcDbEntity
  8
CONTINUOUS1
100
AcDbPoint
 10
46.96979646931765
 20
26.22915744643181
 30
0.0
  0
LINE
  5
8E2C
330
1F
100
AcDbEntity
  8
CONTINUOUS1
100
AcDbLine
 10
51.31279646931766
 20
25.87291046640292
 30
0.0
 11
51.31279646931766
 21
22.33275638920484
 31
0.0
  0
LINE
  5
8E2D
330
1F
100
AcDbEntity
  8
CONTINUOUS1
100
AcDbLine
 10
51.31279646931766
 20
22.33275638920484
 30
0.0
 11
49.39106162376038
 21
21.7013405747226
 31
0.0
  0
CIRCLE
  5
8E2E
330
1F
100
AcDbEntity
  8
CONTINUOUS1
100
AcDbCircle
 10
50.39995400344071
 20
23.87755873316679
 30
0.0
 40
0.1375984474541977
  0
LINE
  5
8E2F
330
1F
100
AcDbEntity
  8
CONTINUOUS1
100
AcDbLine
 10
50.2746604634288
 20
27.24223237324353
 30
0.0
 11
47.06279646931766
 21
27.24223237324353
 31
0.0
  0
LINE
  5
8E30
330
1F
100
AcDbEntity
  8
CONTINUOUS1
100
AcDbLine
 10
55.44802389285822
 20
26.74792451664667
 30
0.0
 11
55.44802389285822
 21
25.3130018370053
 31
0.0
  0
LINE
  5
8E31
330
1F
100
AcDbEntity
  8
CONTINUOUS1
100
AcDbLine
 10
57.96435756332579
 20
26.74792451664667
 30
0.0
 11
57.96435756332578
 21
24.73476476958543
 31
0.0
  0
LINE
  5
8E32
330
1F
100
AcDbEntity
  8
CONTINUOUS1
100
AcDbLine
 10
57.80939459725589
 20
26.74792451664667
 30
0.0
 11
57.8093945972559
 21
24.73476476958543
 31
0.0
  0
LINE
  5
8E33
330
1F
100
AcDbEntity
  8
CONTINUOUS1
100
AcDbLine
 10
54.52205439582247
 20
27.24973176025953
 30
0.0
 11
54.52205439582248
 21
24.53060650289076
 31
0.0
  0
LINE
  5
8E34
330
1F
100
AcDbEntity
  8
CONTINUOUS1
100
AcDbLine
 10
56.60419484982758
 20
20.9601484193758
 30
0.0
 11
57.36465436573803
 21
20.9601484193758
 31
0.0
  0
LINE
  5
8E35
330
1F
100
AcDbEntity
  8
CONTINUOUS1
100
AcDbLine
 10
57.80939459725589
 20
25.3130018370053
 30
0.0
 11
54.52205439582247
 21
25.3130018370053
 31
0.0
  0
LINE
  5
8E36
330
1F
100
AcDbEntity
  8
CONTINUOUS1
100
AcDbLine
 10
56.41089195928501
 20
24.19822217466784
 30
0.0
 11
57.36465436573803
 21
24.19822217466784
 31
0.0
  0
LINE
  5
8E37
330
1F
100
AcDbEntity
  8
CONTINUOUS1
100
AcDbLine
 10
54.52205439582248
 20
23.81477294924953
 30
0.0
 11
54.52205439582248
 21
21.5878010898622
 31
0.0
  0
LINE
  5
8E38
330
1F
100
AcDbEntity
  8
CONTINUOUS1
100
AcDbLine
 10
54.7027185475925
 20
20.61093399752779
 30
0.0
 11
54.11119541358751
 21
23.80935204727776
 31
0.0
  0
LINE
  5
8E39
330
1F
100
AcDbEntity
  8
CONTINUOUS1
100
AcDbLine
 10
54.47350751064262
 20
20.56884701778147
 30
0.0
 11
53.8669986797484
 21
23.76282999788697
 31
0.0
  0
LINE
  5
8E3A
330
1F
100
AcDbEntity
  8
CONTINUOUS1
100
AcDbLine
 10
53.81156491232416
 20
24.12644132280289
 30
0.0
 11
56.09187643750524
 21
23.13359503345505
 31
0.0
  0
ARC
  5
8E3B
330
1F
100
AcDbEntity
  8
CONTINUOUS1
100
AcDbCircle
 10
56.33907903086878
 20
23.63916854160124
 30
0.0
 40
0.562773217472993
100
AcDbArc
 50
243.9434568523279
 51
81.48744762408062
  0
CIRCLE
  5
8E3C
330
1F
100
AcDbEntity
  8
CONTINUOUS1
100
AcDbCircle
 10
56.33907903086878
 20
23.63916854160124
 30
0.0
 40
0.220172499749644
  0
LINE
  5
8E3D
330
1F
100
AcDbEntity
  8
CONTINUOUS1
100
AcDbLine
 10
57.24151743020938
 20
24.19822217466784
 30
0.0
 11
57.24151743020938
 21
20.9601484193758
 31
0.0
  0
LINE
  5
8E3E
330
1F
100
AcDbEntity
  8
CONTINUOUS1
100
AcDbLine
 10
55.124266975841
 20
23.55346058438904
 30
0.0
 11
55.124266975841
 21
23.02864658165161
 31
0.0
  0
LINE
  5
8E3F
330
1F
100
AcDbEntity
  8
CONTINUOUS1
100
AcDbLine
 10
55.23792907781207
 20
23.41199757126396
 30
0.0
 11
55.23792907781207
 21
23.50414027185064
 31
0.0
  0
LINE
  5
8E40
330
1F
100
AcDbEntity
  8
CONTINUOUS1
100
AcDbLine
 10
54.77205439582247
 20
20.9601484193758
 30
0.0
 11
56.01254707745115
 21
20.9601484193758
 31
0.0
  0
LINE
  5
8E41
330
1F
100
AcDbEntity
  8
CONTINUOUS1
100
AcDbLine
 10
55.124266975841
 20
23.02864658165161
 30
0.0
 11
55.36189941687908
 21
23.02864658165161
 31
0.0
  0
CIRCLE
  5
8E42
330
1F
100
AcDbEntity
  8
CONTINUOUS1
100
AcDbCircle
 10
54.81604468069305
 20
21.1419680478293
 30
0.0
 40
0.1107958729562846
  0
ARC
  5
8E43
330
1F
100
AcDbEntity
  8
CONTINUOUS1
100
AcDbCircle
 10
54.77205439582247
 20
21.21014841937581
 30
0.0
 40
0.25
100
AcDbArc
 50
235.3563038571147
 51
270.0
  0
LINE
  5
8E44
330
1F
100
AcDbEntity
  8
CONTINUOUS1
100
AcDbLine
 10
54.4121047561429
 20
20.55718718331232
 30
0.0
 11
54.76417634266878
 21
20.62230015010294
 31
0.0
  0
LINE
  5
8E45
330
1F
100
AcDbEntity
  8
CONTINUOUS1
100
AcDbLine
 10
55.36189941687908
 20
23.02864658165161
 30
0.0
 11
55.36189941687908
 21
20.9601484193758
 31
0.0
  0
LINE
  5
8E46
330
1F
100
AcDbEntity
  8
CONTINUOUS1
100
AcDbLine
 10
55.23792907781207
 20
23.02864658165161
 30
0.0
 11
55.23792907781207
 21
20.9601484193758
 31
0.0
  0
ARC
  5
8E47
330
1F
100
AcDbEntity
  8
CONTINUOUS1
100
AcDbCircle
 10
56.30837096363936
 20
21.03095843681242
 30
0.0
 40
0.3041805881526159
100
AcDbArc
 50
193.4613513711252
 51
346.5386486288747
  0
CIRCLE
  5
8E48
330
1F
100
AcDbEntity
  8
CONTINUOUS1
100
AcDbCircle
 10
56.31242951892049
 20
21.11639943045431
 30
0.0
 40
0.2415321039559721
  0
CIRCLE
  5
8E49
330
1F
100
AcDbEntity
  8
CONTINUOUS1
100
AcDbCircle
 10
56.31242951892049
 20
21.11639943045431
 30
0.0
 40
0.1710834494346596
  0
LINE
  5
8E4A
330
1F
100
AcDbEntity
  8
CONTINUOUS1
100
AcDbLine
 10
55.23792907781207
 20
23.02864658165161
 30
0.0
 11
55.23792907781207
 21
23.41199757126396
 31
0.0
  0
LINE
  5
8E4B
330
1F
100
AcDbEntity
  8
CONTINUOUS1
100
AcDbLine
 10
53.96285066783955
 20
24.62914598519834
 30
0.0
 11
56.42238414500289
 21
24.19574194400564
 31
0.0
  0
LINE
  5
8E4C
330
1F
100
AcDbEntity
  8
CONTINUOUS1
100
AcDbLine
 10
55.23792907781207
 20
24.95959982951862
 30
0.0
 11
54.52205439582247
 21
24.95959982951862
 31
0.0
  0
ARC
  5
8E4D
330
1F
100
AcDbEntity
  8
CONTINUOUS1
100
AcDbCircle
 10
53.88720779008185
 20
24.37779365400061
 30
0.0
 40
0.262487788961685
100
AcDbArc
 50
73.25116789473907
 51
253.251167894739
  0
LINE
  5
8E4E
330
1F
100
AcDbEntity
  8
CONTINUOUS1
100
AcDbLine
 10
54.16376185183407
 20
23.81907381091573
 30
0.0
 11
54.07212954209106
 21
24.01299163711627
 31
0.0
  0
LINE
  5
8E4F
330
1F
100
AcDbEntity
  8
CONTINUOUS1
100
AcDbLine
 10
54.11119541358751
 20
23.80935204727776
 30
0.0
 11
54.16376185183407
 21
23.81907381091573
 31
0.0
  0
LINE
  5
8E50
330
1F
100
AcDbEntity
  8
CONTINUOUS1
100
AcDbLine
 10
53.80559592524869
 20
23.75117016341783
 30
0.0
 11
53.8669986797484
 21
23.76282999788697
 31
0.0
  0
LINE
  5
8E51
330
1F
100
AcDbEntity
  8
CONTINUOUS1
100
AcDbLine
 10
53.80559592524869
 20
23.75117016341783
 30
0.0
 11
53.80649013691916
 21
24.12802476117786
 31
0.0
  0
CIRCLE
  5
8E52
330
1F
100
AcDbEntity
  8
CONTINUOUS1
100
AcDbCircle
 10
53.87228218709126
 20
24.38402891406319
 30
0.0
 40
0.0929477388840222
  0
LINE
  5
8E53
330
1F
100
AcDbEntity
  8
CONTINUOUS1
100
AcDbLine
 10
55.124266975841
 20
24.57624877902136
 30
0.0
 11
54.52205439582247
 21
24.57624877902136
 31
0.0
  0
LINE
  5
8E54
330
1F
100
AcDbEntity
  8
CONTINUOUS1
100
AcDbLine
 10
55.124266975841
 20
24.84601434434996
 30
0.0
 11
54.52205439582247
 21
24.84601434434996
 31
0.0
  0
LINE
  5
8E55
330
1F
100
AcDbEntity
  8
CONTINUOUS1
100
AcDbLine
 10
55.124266975841
 20
24.77502339328772
 30
0.0
 11
55.124266975841
 21
24.84601434434996
 31
0.0
  0
LINE
  5
8E56
330
1F
100
AcDbEntity
  8
CONTINUOUS1
100
AcDbLine
 10
55.124266975841
 20
24.77502339328772
 30
0.0
 11
55.124266975841
 21
24.57624877902136
 31
0.0
  0
LINE
  5
8E57
330
1F
100
AcDbEntity
  8
CONTINUOUS1
100
AcDbLine
 10
55.23792907781207
 20
24.77502339328772
 30
0.0
 11
55.23792907781207
 21
24.95959982951862
 31
0.0
  0
CIRCLE
  5
8E58
330
1F
100
AcDbEntity
  8
CONTINUOUS1
100
AcDbCircle
 10
56.33907903086878
 20
23.63916854160124
 30
0.0
 40
0.124012981863331
  0
LINE
  5
8E59
330
1F
100
AcDbEntity
  8
CONTINUOUS1
100
AcDbLine
 10
55.23792907781207
 20
24.40445941725741
 30
0.0
 11
55.23792907781207
 21
24.77502339328772
 31
0.0
  0
LINE
  5
8E5A
330
1F
100
AcDbEntity
  8
CONTINUOUS1
100
AcDbLine
 10
57.09005862783109
 20
25.21733496309826
 30
0.0
 11
56.81350110563723
 21
25.21733496309826
 31
0.0
  0
LINE
  5
8E5B
330
1F
100
AcDbEntity
  8
CONTINUOUS1
100
AcDbLine
 10
56.81350110563723
 20
25.25985357372361
 30
0.0
 11
57.09005862783109
 21
25.25985357372361
 31
0.0
  0
LINE
  5
8E5C
330
1F
100
AcDbEntity
  8
CONTINUOUS1
100
AcDbLine
 10
57.09005862783109
 20
25.3130018370053
 30
0.0
 11
57.09005862783109
 21
25.00474184908658
 31
0.0
  0
LINE
  5
8E5D
330
1F
100
AcDbEntity
  8
CONTINUOUS1
100
AcDbLine
 10
57.09005862783109
 20
25.00474184908658
 30
0.0
 11
57.01560078790921
 21
25.00474184908658
 31
0.0
  0
LINE
  5
8E5E
330
1F
100
AcDbEntity
  8
CONTINUOUS1
100
AcDbLine
 10
57.01560078790921
 20
25.00474184908658
 30
0.0
 11
57.01560078790921
 21
25.16418669981656
 31
0.0
  0
LINE
  5
8E5F
330
1F
100
AcDbEntity
  8
CONTINUOUS1
100
AcDbLine
 10
57.01560078790921
 20
25.16418669981656
 30
0.0
 11
56.95177986673416
 21
25.16418669981656
 31
0.0
  0
LINE
  5
8E60
330
1F
100
AcDbEntity
  8
CONTINUOUS1
100
AcDbLine
 10
56.88795894555911
 20
25.16418669981656
 30
0.0
 11
56.95177986673416
 21
25.16418669981656
 31
0.0
  0
LINE
  5
8E61
330
1F
100
AcDbEntity
  8
CONTINUOUS1
100
AcDbLine
 10
56.88795894555911
 20
25.00474184908658
 30
0.0
 11
56.88795894555911
 21
25.16418669981656
 31
0.0
  0
LINE
  5
8E62
330
1F
100
AcDbEntity
  8
CONTINUOUS1
100
AcDbLine
 10
56.81350110563723
 20
25.00474184908658
 30
0.0
 11
56.88795894555911
 21
25.00474184908658
 31
0.0
  0
LINE
  5
8E63
330
1F
100
AcDbEntity
  8
CONTINUOUS1
100
AcDbLine
 10
56.81350110563723
 20
25.3130018370053
 30
0.0
 11
56.81350110563723
 21
25.00474184908658
 31
0.0
  0
LINE
  5
8E64
330
1F
100
AcDbEntity
  8
CONTINUOUS1
100
AcDbLine
 10
58.12920995291539
 20
24.19822217466784
 30
0.0
 11
58.12920995291539
 21
20.9601484193758
 31
0.0
  0
LINE
  5
8E65
330
1F
100
AcDbEntity
  8
CONTINUOUS1
100
AcDbLine
 10
57.98358032933003
 20
24.49396490547227
 30
0.0
 11
57.98358032933003
 21
20.66440568857137
 31
0.0
  0
LINE
  5
8E66
330
1F
100
AcDbEntity
  8
CONTINUOUS1
100
AcDbLine
 10
57.36465436573803
 20
20.66440568857137
 30
0.0
 11
57.36465436573803
 21
24.49396490547227
 31
0.0
  0
LINE
  5
8E67
330
1F
100
AcDbEntity
  8
CONTINUOUS1
100
AcDbLine
 10
57.98358032933003
 20
20.9601484193758
 30
0.0
 11
58.52205439582246
 21
20.9601484193758
 31
0.0
  0
CIRCLE
  5
8E68
330
1F
100
AcDbEntity
  8
CONTINUOUS1
100
AcDbCircle
 10
57.51240018894257
 20
21.1419680478293
 30
0.0
 40
0.1107958729562846
  0
LINE
  5
8E69
330
1F
100
AcDbEntity
  8
CONTINUOUS1
100
AcDbLine
 10
57.66444750971248
 20
24.74396490547228
 30
0.0
 11
57.66444750971248
 21
25.3130018370053
 31
0.0
  0
LINE
  5
8E6A
330
1F
100
AcDbEntity
  8
CONTINUOUS1
100
AcDbLine
 10
58.12920995291539
 20
26.22140583042956
 30
0.0
 11
58.12920995291539
 21
24.73476476958543
 31
0.0
  0
LINE
  5
8E6B
330
1F
100
AcDbEntity
  8
CONTINUOUS1
100
AcDbLine
 10
57.98358032933003
 20
24.19822217466784
 30
0.0
 11
58.52205439582246
 21
24.19822217466784
 31
0.0
  0
LINE
  5
8E6C
330
1F
100
AcDbEntity
  8
CONTINUOUS1
100
AcDbLine
 10
57.8093945972559
 20
24.73476476958543
 30
0.0
 11
58.52205439582246
 21
24.73476476958543
 31
0.0
  0
CIRCLE
  5
8E6D
330
1F
100
AcDbEntity
  8
CONTINUOUS1
100
AcDbCircle
 10
57.51240018894257
 20
24.01640254621436
 30
0.0
 40
0.1107958729562846
  0
ARC
  5
8E6E
330
1F
100
AcDbEntity
  8
CONTINUOUS1
100
AcDbCircle
 10
57.73358032933003
 20
24.49396490547227
 30
0.0
 40
0.25
100
AcDbArc
 50
0.0
 51
90.0
  0
LINE
  5
8E6F
330
1F
100
AcDbEntity
  8
CONTINUOUS1
100
AcDbLine
 10
57.56902377913555
 20
24.56588459462773
 30
0.0
 11
57.77102360890356
 21
24.36388476485971
 31
0.0
  0
CIRCLE
  5
8E70
330
1F
100
AcDbEntity
  8
CONTINUOUS1
100
AcDbCircle
 10
57.67002369401955
 20
24.46488467974371
 30
0.0
 40
0.142835449427487
  0
ARC
  5
8E71
330
1F
100
AcDbEntity
  8
CONTINUOUS1
100
AcDbCircle
 10
57.61465436573804
 20
24.49396490547227
 30
0.0
 40
0.25
100
AcDbArc
 50
90.0
 51
180.0
  0
LINE
  5
8E72
330
1F
100
AcDbEntity
  8
CONTINUOUS1
100
AcDbLine
 10
57.61465436573804
 20
24.74396490547228
 30
0.0
 11
57.73358032933003
 21
24.74396490547228
 31
0.0
  0
LINE
  5
8E73
330
1F
100
AcDbEntity
  8
CONTINUOUS1
100
AcDbLine
 10
57.96435756332579
 20
26.22140583042956
 30
0.0
 11
58.52205439582246
 21
26.22140583042956
 31
0.0
  0
LINE
  5
8E74
330
1F
100
AcDbEntity
  8
CONTINUOUS1
100
AcDbLine
 10
54.52205439582247
 20
26.74792451664667
 30
0.0
 11
57.96435756332579
 21
26.74792451664667
 31
0.0
  0
LINE
  5
8E75
330
1F
100
AcDbEntity
  8
CONTINUOUS1
100
AcDbLine
 10
54.52205439582247
 20
27.24973176025953
 30
0.0
 11
56.67291371706177
 21
27.24973176025953
 31
0.0
  0
LINE
  5
8E76
330
1F
100
AcDbEntity
  8
CONTINUOUS1
100
AcDbLine
 10
56.67291371706177
 20
26.74792451664667
 30
0.0
 11
56.67291371706177
 21
27.24973176025953
 31
0.0
  0
LINE
  5
8E77
330
1F
100
AcDbEntity
  8
CONTINUOUS1
100
AcDbLine
 10
58.61505439582246
 20
28.17282493048882
 30
0.0
 11
58.52205439582246
 21
28.17282493048882
 31
0.0
  0
LINE
  5
8E78
330
1F
100
AcDbEntity
  8
CONTINUOUS1
100
AcDbLine
 10
58.52205439582245
 20
21.86526239967275
 30
0.0
 11
58.61505439582246
 21
21.95826239967275
 31
0.0
  0
LINE
  5
8E79
330
1F
100
AcDbEntity
  8
CONTINUOUS1
100
AcDbLine
 10
58.52205439582245
 20
22.04203909496938
 30
0.0
 11
58.61505439582246
 21
22.13503909496938
 31
0.0
  0
LINE
  5
8E7A
330
1F
100
AcDbEntity
  8
CONTINUOUS1
100
AcDbLine
 10
58.52205439582245
 20
22.21881579026602
 30
0.0
 11
58.61505439582246
 21
22.31181579026602
 31
0.0
  0
LINE
  5
8E7B
330
1F
100
AcDbEntity
  8
CONTINUOUS1
100
AcDbLine
 10
58.52205439582245
 20
22.39559248556266
 30
0.0
 11
58.61505439582246
 21
22.48859248556266
 31
0.0
  0
LINE
  5
8E7C
330
1F
100
AcDbEntity
  8
CONTINUOUS1
100
AcDbLine
 10
58.52205439582245
 20
22.57236918085929
 30
0.0
 11
58.61505439582246
 21
22.66536918085929
 31
0.0
  0
LINE
  5
8E7D
330
1F
100
AcDbEntity
  8
CONTINUOUS1
100
AcDbLine
 10
58.52205439582246
 20
22.74914587615593
 30
0.0
 11
58.61505439582246
 21
22.84214587615593
 31
0.0
  0
LINE
  5
8E7E
330
1F
100
AcDbEntity
  8
CONTINUOUS1
100
AcDbLine
 10
58.52205439582246
 20
22.92592257145257
 30
0.0
 11
58.61505439582246
 21
23.01892257145256
 31
0.0
  0
LINE
  5
8E7F
330
1F
100
AcDbEntity
  8
CONTINUOUS1
100
AcDbLine
 10
58.52205439582246
 20
23.10269926674921
 30
0.0
 11
58.61505439582246
 21
23.1956992667492
 31
0.0
  0
LINE
  5
8E80
330
1F
100
AcDbEntity
  8
CONTINUOUS1
100
AcDbLine
 10
58.52205439582246
 20
23.27947596204584
 30
0.0
 11
58.61505439582246
 21
23.37247596204584
 31
0.0
  0
LINE
  5
8E81
330
1F
100
AcDbEntity
  8
CONTINUOUS1
100
AcDbLine
 10
58.52205439582246
 20
23.45625265734248
 30
0.0
 11
58.61505439582246
 21
23.54925265734248
 31
0.0
  0
LINE
  5
8E82
330
1F
100
AcDbEntity
  8
CONTINUOUS1
100
AcDbLine
 10
58.52205439582246
 20
23.63302935263911
 30
0.0
 11
58.61505439582246
 21
23.72602935263912
 31
0.0
  0
LINE
  5
8E83
330
1F
100
AcDbEntity
  8
CONTINUOUS1
100
AcDbLine
 10
58.52205439582246
 20
23.80980604793575
 30
0.0
 11
58.61505439582246
 21
23.90280604793575
 31
0.0
  0
LINE
  5
8E84
330
1F
100
AcDbEntity
  8
CONTINUOUS1
100
AcDbLine
 10
58.52205439582246
 20
23.98658274323239
 30
0.0
 11
58.61505439582246
 21
24.07958274323239
 31
0.0
  0
LINE
  5
8E85
330
1F
100
AcDbEntity
  8
CONTINUOUS1
100
AcDbLine
 10
58.52205439582246
 20
24.16335943852903
 30
0.0
 11
58.61505439582246
 21
24.25635943852903
 31
0.0
  0
LINE
  5
8E86
330
1F
100
AcDbEntity
  8
CONTINUOUS1
100
AcDbLine
 10
58.52205439582246
 20
24.34013613382567
 30
0.0
 11
58.61505439582246
 21
24.43313613382566
 31
0.0
  0
LINE
  5
8E87
330
1F
100
AcDbEntity
  8
CONTINUOUS1
100
AcDbLine
 10
58.52205439582246
 20
24.5169128291223
 30
0.0
 11
58.61505439582246
 21
24.6099128291223
 31
0.0
  0
LINE
  5
8E88
330
1F
100
AcDbEntity
  8
CONTINUOUS1
100
AcDbLine
 10
58.52205439582246
 20
24.69368952441894
 30
0.0
 11
58.61505439582246
 21
24.78668952441893
 31
0.0
  0
LINE
  5
8E89
330
1F
100
AcDbEntity
  8
CONTINUOUS1
100
AcDbLine
 10
58.52205439582246
 20
24.87046621971558
 30
0.0
 11
58.61505439582246
 21
24.96346621971557
 31
0.0
  0
LINE
  5
8E8A
330
1F
100
AcDbEntity
  8
CONTINUOUS1
100
AcDbLine
 10
58.52205439582246
 20
25.04724291501221
 30
0.0
 11
58.61505439582246
 21
25.14024291501221
 31
0.0
  0
LINE
  5
8E8B
330
1F
100
AcDbEntity
  8
CONTINUOUS1
100
AcDbLine
 10
58.52205439582246
 20
25.22401961030885
 30
0.0
 11
58.61505439582246
 21
25.31701961030885
 31
0.0
  0
LINE
  5
8E8C
330
1F
100
AcDbEntity
  8
CONTINUOUS1
100
AcDbLine
 10
58.52205439582246
 20
25.40079630560548
 30
0.0
 11
58.61505439582246
 21
25.49379630560549
 31
0.0
  0
LINE
  5
8E8D
330
1F
100
AcDbEntity
  8
CONTINUOUS1
100
AcDbLine
 10
58.52205439582246
 20
25.57757300090212
 30
0.0
 11
58.61505439582246
 21
25.67057300090212
 31
0.0
  0
LINE
  5
8E8E
330
1F
100
AcDbEntity
  8
CONTINUOUS1
100
AcDbLine
 10
58.52205439582246
 20
25.75434969619876
 30
0.0
 11
58.61505439582246
 21
25.84734969619876
 31
0.0
  0
LINE
  5
8E8F
330
1F
100
AcDbEntity
  8
CONTINUOUS1
100
AcDbLine
 10
58.52205439582246
 20
25.9311263914954
 30
0.0
 11
58.61505439582246
 21
26.02412639149539
 31
0.0
  0
LINE
  5
8E90
330
1F
100
AcDbEntity
  8
CONTINUOUS1
100
AcDbLine
 10
58.52205439582246
 20
26.10790308679204
 30
0.0
 11
58.61505439582246
 21
26.20090308679203
 31
0.0
  0
LINE
  5
8E91
330
1F
100
AcDbEntity
  8
CONTINUOUS1
100
AcDbLine
 10
58.52205439582246
 20
26.28467978208867
 30
0.0
 11
58.61505439582246
 21
26.37767978208867
 31
0.0
  0
LINE
  5
8E92
330
1F
100
AcDbEntity
  8
CONTINUOUS1
100
AcDbLine
 10
58.52205439582246
 20
26.46145647738531
 30
0.0
 11
58.61505439582246
 21
26.55445647738531
 31
0.0
  0
LINE
  5
8E93
330
1F
100
AcDbEntity
  8
CONTINUOUS1
100
AcDbLine
 10
58.52205439582246
 20
26.63823317268194
 30
0.0
 11
58.61505439582246
 21
26.73123317268194
 31
0.0
  0
LINE
  5
8E94
330
1F
100
AcDbEntity
  8
CONTINUOUS1
100
AcDbLine
 10
58.52205439582246
 20
26.81500986797858
 30
0.0
 11
58.61505439582246
 21
26.90800986797858
 31
0.0
  0
LINE
  5
8E95
330
1F
100
AcDbEntity
  8
CONTINUOUS1
100
AcDbLine
 10
58.52205439582246
 20
26.99178656327522
 30
0.0
 11
58.61505439582246
 21
27.08478656327522
 31
0.0
  0
LINE
  5
8E96
330
1F
100
AcDbEntity
  8
CONTINUOUS1
100
AcDbLine
 10
58.52205439582246
 20
27.16856325857186
 30
0.0
 11
58.61505439582246
 21
27.26156325857186
 31
0.0
  0
LINE
  5
8E97
330
1F
100
AcDbEntity
  8
CONTINUOUS1
100
AcDbLine
 10
58.52205439582246
 20
27.34533995386849
 30
0.0
 11
58.61505439582246
 21
27.43833995386849
 31
0.0
  0
LINE
  5
8E98
330
1F
100
AcDbEntity
  8
CONTINUOUS1
100
AcDbLine
 10
58.52205439582246
 20
27.52211664916513
 30
0.0
 11
58.61505439582246
 21
27.61511664916513
 31
0.0
  0
LINE
  5
8E99
330
1F
100
AcDbEntity
  8
CONTINUOUS1
100
AcDbLine
 10
58.52205439582246
 20
27.69889334446177
 30
0.0
 11
58.61505439582246
 21
27.79189334446176
 31
0.0
  0
LINE
  5
8E9A
330
1F
100
AcDbEntity
  8
CONTINUOUS1
100
AcDbLine
 10
58.52205439582246
 20
27.87567003975841
 30
0.0
 11
58.61505439582246
 21
27.9686700397584
 31
0.0
  0
LINE
  5
8E9B
330
1F
100
AcDbEntity
  8
CONTINUOUS1
100
AcDbLine
 10
58.52205439582246
 20
28.05244673505504
 30
0.0
 11
58.61505439582246
 21
28.14544673505504
 31
0.0
  0
LINE
  5
8E9C
330
1F
100
AcDbEntity
  8
CONTINUOUS1
100
AcDbLine
 10
58.52205439582245
 20
21.68848570437611
 30
0.0
 11
58.61505439582246
 21
21.78148570437611
 31
0.0
  0
LINE
  5
8E9D
330
1F
100
AcDbEntity
  8
CONTINUOUS1
100
AcDbLine
 10
58.52205439582245
 20
21.51170900907947
 30
0.0
 11
58.61505439582246
 21
21.60470900907947
 31
0.0
  0
LINE
  5
8E9E
330
1F
100
AcDbEntity
  8
CONTINUOUS1
100
AcDbLine
 10
58.52205439582245
 20
21.33493231378284
 30
0.0
 11
58.61505439582246
 21
21.42793231378283
 31
0.0
  0
LINE
  5
8E9F
330
1F
100
AcDbEntity
  8
CONTINUOUS1
100
AcDbLine
 10
58.52205439582245
 20
21.1581556184862
 30
0.0
 11
58.61505439582246
 21
21.2511556184862
 31
0.0
  0
LINE
  5
8EA0
330
1F
100
AcDbEntity
  8
CONTINUOUS1
100
AcDbLine
 10
58.52205439582245
 20
20.98137892318956
 30
0.0
 11
58.61505439582246
 21
21.07437892318956
 31
0.0
  0
LINE
  5
8EA1
330
1F
100
AcDbEntity
  8
CONTINUOUS1
100
AcDbLine
 10
58.52205439582245
 20
20.80460222789293
 30
0.0
 11
58.61505439582246
 21
20.89760222789292
 31
0.0
  0
LINE
  5
8EA2
330
1F
100
AcDbEntity
  8
CONTINUOUS1
100
AcDbLine
 10
58.52205439582245
 20
20.62782553259629
 30
0.0
 11
58.61505439582246
 21
20.72082553259629
 31
0.0
  0
LINE
  5
8EA3
330
1F
100
AcDbEntity
  8
CONTINUOUS1
100
AcDbLine
 10
58.52205439582245
 20
20.45104883729965
 30
0.0
 11
58.61505439582246
 21
20.54404883729965
 31
0.0
  0
LINE
  5
8EA4
330
1F
100
AcDbEntity
  8
CONTINUOUS1
100
AcDbLine
 10
58.52205439582245
 20
20.27427214200301
 30
0.0
 11
58.61505439582246
 21
20.36727214200302
 31
0.0
  0
LINE
  5
8EA5
330
1F
100
AcDbEntity
  8
CONTINUOUS1
100
AcDbLine
 10
58.52205439582245
 20
20.09749544670638
 30
0.0
 11
58.61505439582246
 21
20.19049544670638
 31
0.0
  0
LINE
  5
8EA6
330
1F
100
AcDbEntity
  8
CONTINUOUS1
100
AcDbLine
 10
58.52205439582245
 20
19.92071875140974
 30
0.0
 11
58.61505439582246
 21
20.01371875140974
 31
0.0
  0
LINE
  5
8EA7
330
1F
100
AcDbEntity
  8
CONTINUOUS1
100
AcDbLine
 10
58.52205439582245
 20
19.74394205611311
 30
0.0
 11
58.61505439582246
 21
19.8369420561131
 31
0.0
  0
LINE
  5
8EA8
330
1F
100
AcDbEntity
  8
CONTINUOUS1
100
AcDbLine
 10
58.52205439582245
 20
19.56716536081647
 30
0.0
 11
58.61505439582246
 21
19.66016536081646
 31
0.0
  0
LINE
  5
8EA9
330
1F
100
AcDbEntity
  8
CONTINUOUS1
100
AcDbLine
 10
58.52205439582245
 20
19.39038866551983
 30
0.0
 11
58.61505439582246
 21
19.48338866551983
 31
0.0
  0
LINE
  5
8EAA
330
1F
100
AcDbEntity
  8
CONTINUOUS1
100
AcDbLine
 10
58.52205439582245
 20
19.21361197022319
 30
0.0
 11
58.61505439582246
 21
19.30661197022319
 31
0.0
  0
LINE
  5
8EAB
330
1F
100
AcDbEntity
  8
CONTINUOUS1
100
AcDbLine
 10
58.52205439582245
 20
19.03683527492655
 30
0.0
 11
58.61505439582246
 21
19.12983527492655
 31
0.0
  0
LINE
  5
8EAC
330
1F
100
AcDbEntity
  8
CONTINUOUS1
100
AcDbLine
 10
58.52205439582245
 20
18.86005857962992
 30
0.0
 11
58.61505439582246
 21
18.95305857962991
 31
0.0
  0
LINE
  5
8EAD
330
1F
100
AcDbEntity
  8
CONTINUOUS1
100
AcDbLine
 10
58.52205439582245
 20
18.68328188433328
 30
0.0
 11
58.61505439582246
 21
18.77628188433328
 31
0.0
  0
LINE
  5
8EAE
330
1F
100
AcDbEntity
  8
CONTINUOUS1
100
AcDbLine
 10
58.52205439582245
 20
18.50650518903664
 30
0.0
 11
58.61505439582246
 21
18.59950518903664
 31
0.0
  0
LINE
  5
8EAF
330
1F
100
AcDbEntity
  8
CONTINUOUS1
100
AcDbLine
 10
58.52205439582245
 20
18.32972849374
 30
0.0
 11
58.61505439582246
 21
18.42272849374
 31
0.0
  0
LINE
  5
8EB0
330
1F
100
AcDbEntity
  8
CONTINUOUS1
100
AcDbLine
 10
58.52205439582245
 20
18.15295179844336
 30
0.0
 11
58.61505439582246
 21
18.24595179844337
 31
0.0
  0
LINE
  5
8EB1
330
1F
100
AcDbEntity
  8
CONTINUOUS1
100
AcDbLine
 10
58.52205439582245
 20
17.97617510314672
 30
0.0
 11
58.61505439582246
 21
18.06917510314673
 31
0.0
  0
LINE
  5
8EB2
330
1F
100
AcDbEntity
  8
CONTINUOUS1
100
AcDbLine
 10
58.52205439582245
 20
17.7993984078501
 30
0.0
 11
58.61505439582246
 21
17.89239840785009
 31
0.0
  0
LINE
  5
8EB3
330
1F
100
AcDbEntity
  8
CONTINUOUS1
100
AcDbLine
 10
58.52205439582245
 20
17.62262171255346
 30
0.0
 11
58.61505439582246
 21
17.71562171255346
 31
0.0
  0
LINE
  5
8EB4
330
1F
100
AcDbEntity
  8
CONTINUOUS1
100
AcDbLine
 10
58.52205439582245
 20
17.44584501725682
 30
0.0
 11
58.61505439582246
 21
17.53884501725682
 31
0.0
  0
LINE
  5
8EB5
330
1F
100
AcDbEntity
  8
CONTINUOUS1
100
AcDbLine
 10
58.52205439582245
 20
17.26906832196018
 30
0.0
 11
58.61505439582246
 21
17.36206832196018
 31
0.0
  0
LINE
  5
8EB6
330
1F
100
AcDbEntity
  8
CONTINUOUS1
100
AcDbLine
 10
58.52205439582245
 20
17.09229162666354
 30
0.0
 11
58.61505439582246
 21
17.18529162666355
 31
0.0
  0
LINE
  5
8EB7
330
1F
100
AcDbEntity
  8
CONTINUOUS1
100
AcDbLine
 10
58.52205439582245
 20
16.91551493136691
 30
0.0
 11
58.61505439582246
 21
17.00851493136691
 31
0.0
  0
LINE
  5
8EB8
330
1F
100
AcDbEntity
  8
CONTINUOUS1
100
AcDbLine
 10
58.52205439582245
 20
16.73873823607027
 30
0.0
 11
58.61505439582246
 21
16.83173823607027
 31
0.0
  0
LINE
  5
8EB9
330
1F
100
AcDbEntity
  8
CONTINUOUS1
100
AcDbLine
 10
58.52205439582245
 20
16.56196154077363
 30
0.0
 11
58.61505439582246
 21
16.65496154077364
 31
0.0
  0
LINE
  5
8EBA
330
1F
100
AcDbEntity
  8
CONTINUOUS1
100
AcDbLine
 10
58.52205439582245
 20
16.385184845477
 30
0.0
 11
58.61505439582246
 21
16.478184845477
 31
0.0
  0
LINE
  5
8EBB
330
1F
100
AcDbEntity
  8
CONTINUOUS1
100
AcDbLine
 10
58.52205439582245
 20
16.20840815018036
 30
0.0
 11
58.61505439582246
 21
16.30140815018036
 31
0.0
  0
LINE
  5
8EBC
330
1F
100
AcDbEntity
  8
CONTINUOUS1
100
AcDbLine
 10
58.52205439582245
 20
16.03163145488372
 30
0.0
 11
58.61505439582246
 21
16.12463145488372
 31
0.0
  0
LINE
  5
8EBD
330
1F
100
AcDbEntity
  8
CONTINUOUS1
100
AcDbLine
 10
58.52205439582245
 20
15.85485475958709
 30
0.0
 11
58.61505439582246
 21
15.94785475958709
 31
0.0
  0
LINE
  5
8EBE
330
1F
100
AcDbEntity
  8
CONTINUOUS1
100
AcDbLine
 10
58.52205439582245
 20
15.67807806429045
 30
0.0
 11
58.61505439582246
 21
15.77107806429045
 31
0.0
  0
LINE
  5
8EBF
330
1F
100
AcDbEntity
  8
CONTINUOUS1
100
AcDbLine
 10
58.52205439582245
 20
21.92776239967274
 30
0.0
 11
58.61505439582246
 21
22.02076239967275
 31
0.0
  0
LINE
  5
8EC0
330
1F
100
AcDbEntity
  8
CONTINUOUS1
100
AcDbLine
 10
58.52205439582245
 20
22.10453909496938
 30
0.0
 11
58.61505439582246
 21
22.19753909496938
 31
0.0
  0
LINE
  5
8EC1
330
1F
100
AcDbEntity
  8
CONTINUOUS1
100
AcDbLine
 10
58.52205439582245
 20
22.28131579026602
 30
0.0
 11
58.61505439582246
 21
22.37431579026602
 31
0.0
  0
LINE
  5
8EC2
330
1F
100
AcDbEntity
  8
CONTINUOUS1
100
AcDbLine
 10
58.52205439582245
 20
22.45809248556266
 30
0.0
 11
58.61505439582246
 21
22.55109248556265
 31
0.0
  0
LINE
  5
8EC3
330
1F
100
AcDbEntity
  8
CONTINUOUS1
100
AcDbLine
 10
58.52205439582245
 20
22.63486918085929
 30
0.0
 11
58.61505439582246
 21
22.72786918085929
 31
0.0
  0
LINE
  5
8EC4
330
1F
100
AcDbEntity
  8
CONTINUOUS1
100
AcDbLine
 10
58.52205439582246
 20
22.81164587615593
 30
0.0
 11
58.61505439582246
 21
22.90464587615593
 31
0.0
  0
LINE
  5
8EC5
330
1F
100
AcDbEntity
  8
CONTINUOUS1
100
AcDbLine
 10
58.52205439582246
 20
22.98842257145257
 30
0.0
 11
58.61505439582246
 21
23.08142257145257
 31
0.0
  0
LINE
  5
8EC6
330
1F
100
AcDbEntity
  8
CONTINUOUS1
100
AcDbLine
 10
58.52205439582246
 20
23.1651992667492
 30
0.0
 11
58.61505439582246
 21
23.2581992667492
 31
0.0
  0
LINE
  5
8EC7
330
1F
100
AcDbEntity
  8
CONTINUOUS1
100
AcDbLine
 10
58.52205439582246
 20
23.34197596204584
 30
0.0
 11
58.61505439582246
 21
23.43497596204584
 31
0.0
  0
LINE
  5
8EC8
330
1F
100
AcDbEntity
  8
CONTINUOUS1
100
AcDbLine
 10
58.52205439582246
 20
23.51875265734248
 30
0.0
 11
58.61505439582246
 21
23.61175265734248
 31
0.0
  0
LINE
  5
8EC9
330
1F
100
AcDbEntity
  8
CONTINUOUS1
100
AcDbLine
 10
58.52205439582246
 20
23.69552935263911
 30
0.0
 11
58.61505439582246
 21
23.78852935263912
 31
0.0
  0
LINE
  5
8ECA
330
1F
100
AcDbEntity
  8
CONTINUOUS1
100
AcDbLine
 10
58.52205439582246
 20
23.87230604793575
 30
0.0
 11
58.61505439582246
 21
23.96530604793575
 31
0.0
  0
LINE
  5
8ECB
330
1F
100
AcDbEntity
  8
CONTINUOUS1
100
AcDbLine
 10
58.52205439582246
 20
24.04908274323239
 30
0.0
 11
58.61505439582246
 21
24.14208274323239
 31
0.0
  0
LINE
  5
8ECC
330
1F
100
AcDbEntity
  8
CONTINUOUS1
100
AcDbLine
 10
58.52205439582246
 20
24.22585943852903
 30
0.0
 11
58.61505439582246
 21
24.31885943852902
 31
0.0
  0
LINE
  5
8ECD
330
1F
100
AcDbEntity
  8
CONTINUOUS1
100
AcDbLine
 10
58.52205439582246
 20
24.40263613382567
 30
0.0
 11
58.61505439582246
 21
24.49563613382566
 31
0.0
  0
LINE
  5
8ECE
330
1F
100
AcDbEntity
  8
CONTINUOUS1
100
AcDbLine
 10
58.52205439582246
 20
24.5794128291223
 30
0.0
 11
58.61505439582246
 21
24.6724128291223
 31
0.0
  0
LINE
  5
8ECF
330
1F
100
AcDbEntity
  8
CONTINUOUS1
100
AcDbLine
 10
58.52205439582246
 20
24.75618952441894
 30
0.0
 11
58.61505439582246
 21
24.84918952441894
 31
0.0
  0
LINE
  5
8ED0
330
1F
100
AcDbEntity
  8
CONTINUOUS1
100
AcDbLine
 10
58.52205439582246
 20
24.93296621971557
 30
0.0
 11
58.61505439582246
 21
25.02596621971557
 31
0.0
  0
LINE
  5
8ED1
330
1F
100
AcDbEntity
  8
CONTINUOUS1
100
AcDbLine
 10
58.52205439582246
 20
25.10974291501221
 30
0.0
 11
58.61505439582246
 21
25.20274291501221
 31
0.0
  0
LINE
  5
8ED2
330
1F
100
AcDbEntity
  8
CONTINUOUS1
100
AcDbLine
 10
58.52205439582246
 20
25.28651961030885
 30
0.0
 11
58.61505439582246
 21
25.37951961030885
 31
0.0
  0
LINE
  5
8ED3
330
1F
100
AcDbEntity
  8
CONTINUOUS1
100
AcDbLine
 10
58.52205439582246
 20
25.46329630560549
 30
0.0
 11
58.61505439582246
 21
25.55629630560549
 31
0.0
  0
LINE
  5
8ED4
330
1F
100
AcDbEntity
  8
CONTINUOUS1
100
AcDbLine
 10
58.52205439582246
 20
25.64007300090212
 30
0.0
 11
58.61505439582246
 21
25.73307300090212
 31
0.0
  0
LINE
  5
8ED5
330
1F
100
AcDbEntity
  8
CONTINUOUS1
100
AcDbLine
 10
58.52205439582246
 20
25.81684969619876
 30
0.0
 11
58.61505439582246
 21
25.90984969619876
 31
0.0
  0
LINE
  5
8ED6
330
1F
100
AcDbEntity
  8
CONTINUOUS1
100
AcDbLine
 10
58.52205439582246
 20
25.9936263914954
 30
0.0
 11
58.61505439582246
 21
26.08662639149539
 31
0.0
  0
LINE
  5
8ED7
330
1F
100
AcDbEntity
  8
CONTINUOUS1
100
AcDbLine
 10
58.52205439582246
 20
26.17040308679204
 30
0.0
 11
58.61505439582246
 21
26.26340308679203
 31
0.0
  0
LINE
  5
8ED8
330
1F
100
AcDbEntity
  8
CONTINUOUS1
100
AcDbLine
 10
58.52205439582246
 20
26.34717978208867
 30
0.0
 11
58.61505439582246
 21
26.44017978208867
 31
0.0
  0
LINE
  5
8ED9
330
1F
100
AcDbEntity
  8
CONTINUOUS1
100
AcDbLine
 10
58.52205439582246
 20
26.52395647738531
 30
0.0
 11
58.61505439582246
 21
26.61695647738531
 31
0.0
  0
LINE
  5
8EDA
330
1F
100
AcDbEntity
  8
CONTINUOUS1
100
AcDbLine
 10
58.52205439582246
 20
26.70073317268194
 30
0.0
 11
58.61505439582246
 21
26.79373317268194
 31
0.0
  0
LINE
  5
8EDB
330
1F
100
AcDbEntity
  8
CONTINUOUS1
100
AcDbLine
 10
58.52205439582246
 20
26.87750986797858
 30
0.0
 11
58.61505439582246
 21
26.97050986797858
 31
0.0
  0
LINE
  5
8EDC
330
1F
100
AcDbEntity
  8
CONTINUOUS1
100
AcDbLine
 10
58.52205439582246
 20
27.05428656327522
 30
0.0
 11
58.61505439582246
 21
27.14728656327522
 31
0.0
  0
LINE
  5
8EDD
330
1F
100
AcDbEntity
  8
CONTINUOUS1
100
AcDbLine
 10
58.52205439582246
 20
27.23106325857186
 30
0.0
 11
58.61505439582246
 21
27.32406325857185
 31
0.0
  0
LINE
  5
8EDE
330
1F
100
AcDbEntity
  8
CONTINUOUS1
100
AcDbLine
 10
58.52205439582246
 20
27.40783995386849
 30
0.0
 11
58.61505439582246
 21
27.50083995386849
 31
0.0
  0
LINE
  5
8EDF
330
1F
100
AcDbEntity
  8
CONTINUOUS1
100
AcDbLine
 10
58.52205439582246
 20
27.58461664916513
 30
0.0
 11
58.61505439582246
 21
27.67761664916513
 31
0.0
  0
LINE
  5
8EE0
330
1F
100
AcDbEntity
  8
CONTINUOUS1
100
AcDbLine
 10
58.52205439582246
 20
27.76139334446177
 30
0.0
 11
58.61505439582246
 21
27.85439334446176
 31
0.0
  0
LINE
  5
8EE1
330
1F
100
AcDbEntity
  8
CONTINUOUS1
100
AcDbLine
 10
58.52205439582246
 20
27.9381700397584
 30
0.0
 11
58.61505439582246
 21
28.0311700397584
 31
0.0
  0
LINE
  5
8EE2
330
1F
100
AcDbEntity
  8
CONTINUOUS1
100
AcDbLine
 10
58.52205439582246
 20
28.11494673505504
 30
0.0
 11
58.57993259125624
 21
28.17282493048882
 31
0.0
  0
LINE
  5
8EE3
330
1F
100
AcDbEntity
  8
CONTINUOUS1
100
AcDbLine
 10
58.52205439582245
 20
21.75098570437611
 30
0.0
 11
58.61505439582246
 21
21.84398570437611
 31
0.0
  0
LINE
  5
8EE4
330
1F
100
AcDbEntity
  8
CONTINUOUS1
100
AcDbLine
 10
58.52205439582245
 20
21.57420900907947
 30
0.0
 11
58.61505439582246
 21
21.66720900907947
 31
0.0
  0
LINE
  5
8EE5
330
1F
100
AcDbEntity
  8
CONTINUOUS1
100
AcDbLine
 10
58.52205439582245
 20
21.39743231378284
 30
0.0
 11
58.61505439582246
 21
21.49043231378283
 31
0.0
  0
LINE
  5
8EE6
330
1F
100
AcDbEntity
  8
CONTINUOUS1
100
AcDbLine
 10
58.52205439582245
 20
21.2206556184862
 30
0.0
 11
58.61505439582246
 21
21.31365561848619
 31
0.0
  0
LINE
  5
8EE7
330
1F
100
AcDbEntity
  8
CONTINUOUS1
100
AcDbLine
 10
58.52205439582245
 20
21.04387892318956
 30
0.0
 11
58.61505439582246
 21
21.13687892318956
 31
0.0
  0
LINE
  5
8EE8
330
1F
100
AcDbEntity
  8
CONTINUOUS1
100
AcDbLine
 10
58.52205439582245
 20
20.86710222789292
 30
0.0
 11
58.61505439582246
 21
20.96010222789292
 31
0.0
  0
LINE
  5
8EE9
330
1F
100
AcDbEntity
  8
CONTINUOUS1
100
AcDbLine
 10
58.52205439582245
 20
20.69032553259628
 30
0.0
 11
58.61505439582246
 21
20.78332553259629
 31
0.0
  0
LINE
  5
8EEA
330
1F
100
AcDbEntity
  8
CONTINUOUS1
100
AcDbLine
 10
58.52205439582245
 20
20.51354883729965
 30
0.0
 11
58.61505439582246
 21
20.60654883729966
 31
0.0
  0
LINE
  5
8EEB
330
1F
100
AcDbEntity
  8
CONTINUOUS1
100
AcDbLine
 10
58.52205439582245
 20
20.33677214200301
 30
0.0
 11
58.61505439582246
 21
20.42977214200301
 31
0.0
  0
LINE
  5
8EEC
330
1F
100
AcDbEntity
  8
CONTINUOUS1
100
AcDbLine
 10
58.52205439582245
 20
20.15999544670637
 30
0.0
 11
58.61505439582246
 21
20.25299544670638
 31
0.0
  0
LINE
  5
8EED
330
1F
100
AcDbEntity
  8
CONTINUOUS1
100
AcDbLine
 10
58.52205439582245
 20
19.98321875140974
 30
0.0
 11
58.61505439582246
 21
20.07621875140974
 31
0.0
  0
LINE
  5
8EEE
330
1F
100
AcDbEntity
  8
CONTINUOUS1
100
AcDbLine
 10
58.52205439582245
 20
19.8064420561131
 30
0.0
 11
58.61505439582246
 21
19.8994420561131
 31
0.0
  0
LINE
  5
8EEF
330
1F
100
AcDbEntity
  8
CONTINUOUS1
100
AcDbLine
 10
58.52205439582245
 20
19.62966536081647
 30
0.0
 11
58.61505439582246
 21
19.72266536081646
 31
0.0
  0
LINE
  5
8EF0
330
1F
100
AcDbEntity
  8
CONTINUOUS1
100
AcDbLine
 10
58.52205439582245
 20
19.45288866551982
 30
0.0
 11
58.61505439582246
 21
19.54588866551983
 31
0.0
  0
LINE
  5
8EF1
330
1F
100
AcDbEntity
  8
CONTINUOUS1
100
AcDbLine
 10
58.52205439582245
 20
19.27611197022319
 30
0.0
 11
58.61505439582246
 21
19.36911197022319
 31
0.0
  0
LINE
  5
8EF2
330
1F
100
AcDbEntity
  8
CONTINUOUS1
100
AcDbLine
 10
58.52205439582245
 20
19.09933527492655
 30
0.0
 11
58.61505439582246
 21
19.19233527492655
 31
0.0
  0
LINE
  5
8EF3
330
1F
100
AcDbEntity
  8
CONTINUOUS1
100
AcDbLine
 10
58.52205439582245
 20
18.92255857962992
 30
0.0
 11
58.61505439582246
 21
19.01555857962991
 31
0.0
  0
LINE
  5
8EF4
330
1F
100
AcDbEntity
  8
CONTINUOUS1
100
AcDbLine
 10
58.52205439582245
 20
18.74578188433328
 30
0.0
 11
58.61505439582246
 21
18.83878188433327
 31
0.0
  0
LINE
  5
8EF5
330
1F
100
AcDbEntity
  8
CONTINUOUS1
100
AcDbLine
 10
58.52205439582245
 20
18.56900518903664
 30
0.0
 11
58.61505439582246
 21
18.66200518903665
 31
0.0
  0
LINE
  5
8EF6
330
1F
100
AcDbEntity
  8
CONTINUOUS1
100
AcDbLine
 10
58.52205439582245
 20
18.39222849374
 30
0.0
 11
58.61505439582246
 21
18.48522849374001
 31
0.0
  0
LINE
  5
8EF7
330
1F
100
AcDbEntity
  8
CONTINUOUS1
100
AcDbLine
 10
58.52205439582245
 20
18.21545179844336
 30
0.0
 11
58.61505439582246
 21
18.30845179844337
 31
0.0
  0
LINE
  5
8EF8
330
1F
100
AcDbEntity
  8
CONTINUOUS1
100
AcDbLine
 10
58.52205439582245
 20
18.03867510314673
 30
0.0
 11
58.61505439582246
 21
18.13167510314673
 31
0.0
  0
LINE
  5
8EF9
330
1F
100
AcDbEntity
  8
CONTINUOUS1
100
AcDbLine
 10
58.52205439582245
 20
17.86189840785009
 30
0.0
 11
58.61505439582246
 21
17.95489840785009
 31
0.0
  0
LINE
  5
8EFA
330
1F
100
AcDbEntity
  8
CONTINUOUS1
100
AcDbLine
 10
58.52205439582245
 20
17.68512171255346
 30
0.0
 11
58.61505439582246
 21
17.77812171255346
 31
0.0
  0
LINE
  5
8EFB
330
1F
100
AcDbEntity
  8
CONTINUOUS1
100
AcDbLine
 10
58.52205439582245
 20
17.50834501725682
 30
0.0
 11
58.61505439582246
 21
17.60134501725682
 31
0.0
  0
LINE
  5
8EFC
330
1F
100
AcDbEntity
  8
CONTINUOUS1
100
AcDbLine
 10
58.52205439582245
 20
17.33156832196018
 30
0.0
 11
58.61505439582246
 21
17.42456832196018
 31
0.0
  0
LINE
  5
8EFD
330
1F
100
AcDbEntity
  8
CONTINUOUS1
100
AcDbLine
 10
58.52205439582245
 20
17.15479162666354
 30
0.0
 11
58.61505439582246
 21
17.24779162666354
 31
0.0
  0
LINE
  5
8EFE
330
1F
100
AcDbEntity
  8
CONTINUOUS1
100
AcDbLine
 10
58.52205439582245
 20
16.97801493136691
 30
0.0
 11
58.61505439582246
 21
17.07101493136691
 31
0.0
  0
LINE
  5
8EFF
330
1F
100
AcDbEntity
  8
CONTINUOUS1
100
AcDbLine
 10
58.52205439582245
 20
16.80123823607027
 30
0.0
 11
58.61505439582246
 21
16.89423823607028
 31
0.0
  0
LINE
  5
8F00
330
1F
100
AcDbEntity
  8
CONTINUOUS1
100
AcDbLine
 10
58.52205439582245
 20
16.62446154077363
 30
0.0
 11
58.61505439582246
 21
16.71746154077364
 31
0.0
  0
LINE
  5
8F01
330
1F
100
AcDbEntity
  8
CONTINUOUS1
100
AcDbLine
 10
58.52205439582245
 20
16.44768484547699
 30
0.0
 11
58.61505439582246
 21
16.540684845477
 31
0.0
  0
LINE
  5
8F02
330
1F
100
AcDbEntity
  8
CONTINUOUS1
100
AcDbLine
 10
58.52205439582245
 20
16.27090815018036
 30
0.0
 11
58.61505439582246
 21
16.36390815018036
 31
0.0
  0
LINE
  5
8F03
330
1F
100
AcDbEntity
  8
CONTINUOUS1
100
AcDbLine
 10
58.52205439582245
 20
16.09413145488373
 30
0.0
 11
58.61505439582246
 21
16.18713145488372
 31
0.0
  0
LINE
  5
8F04
330
1F
100
AcDbEntity
  8
CONTINUOUS1
100
AcDbLine
 10
58.52205439582245
 20
15.91735475958709
 30
0.0
 11
58.61505439582246
 21
16.01035475958709
 31
0.0
  0
LINE
  5
8F05
330
1F
100
AcDbEntity
  8
CONTINUOUS1
100
AcDbLine
 10
58.52205439582245
 20
15.74057806429045
 30
0.0
 11
58.61505439582246
 21
15.83357806429045
 31
0.0
  0
LINE
  5
8F06
330
1F
100
AcDbEntity
  8
CONTINUOUS1
100
AcDbLine
 10
58.57523117148969
 20
15.61697814466104
 30
0.0
 11
58.61505439582246
 21
15.65680136899382
 31
0.0
  0
LINE
  5
8F07
330
1F
100
AcDbEntity
  8
CONTINUOUS1
100
AcDbLine
 10
47.66744829236496
 20
16.86322454168904
 30
0.0
 11
47.69494697893121
 21
16.49587073412944
 31
0.0
  0
LINE
  5
8F08
330
1F
100
AcDbEntity
  8
CONTINUOUS1
100
AcDbLine
 10
47.37045371836065
 20
16.85031660648179
 30
0.0
 11
47.39827211317128
 21
16.48826900912101
 31
0.0
  0
LINE
  5
8F09
330
1F
100
AcDbEntity
  8
CONTINUOUS1
100
AcDbLine
 10
47.06279646931766
 20
22.67950395938359
 30
0.0
 11
46.96979646931767
 21
22.7725039593836
 31
0.0
  0
LINE
  5
8F0A
330
1F
100
AcDbEntity
  8
CONTINUOUS1
100
AcDbLine
 10
47.06279646931766
 20
22.85628065468023
 30
0.0
 11
46.96979646931767
 21
22.94928065468023
 31
0.0
  0
LINE
  5
8F0B
330
1F
100
AcDbEntity
  8
CONTINUOUS1
100
AcDbLine
 10
47.06279646931766
 20
23.03305734997687
 30
0.0
 11
46.96979646931767
 21
23.12605734997688
 31
0.0
  0
LINE
  5
8F0C
330
1F
100
AcDbEntity
  8
CONTINUOUS1
100
AcDbLine
 10
47.06279646931766
 20
23.20983404527351
 30
0.0
 11
46.96979646931767
 21
23.30283404527351
 31
0.0
  0
LINE
  5
8F0D
330
1F
100
AcDbEntity
  8
CONTINUOUS1
100
AcDbLine
 10
47.06279646931766
 20
23.38661074057015
 30
0.0
 11
46.96979646931767
 21
23.47961074057014
 31
0.0
  0
LINE
  5
8F0E
330
1F
100
AcDbEntity
  8
CONTINUOUS1
100
AcDbLine
 10
47.06279646931766
 20
23.56338743586678
 30
0.0
 11
46.96979646931767
 21
23.65638743586678
 31
0.0
  0
LINE
  5
8F0F
330
1F
100
AcDbEntity
  8
CONTINUOUS1
100
AcDbLine
 10
47.06279646931766
 20
23.74016413116342
 30
0.0
 11
46.96979646931767
 21
23.83316413116342
 31
0.0
  0
LINE
  5
8F10
330
1F
100
AcDbEntity
  8
CONTINUOUS1
100
AcDbLine
 10
47.06279646931766
 20
23.91694082646006
 30
0.0
 11
46.96979646931767
 21
24.00994082646006
 31
0.0
  0
LINE
  5
8F11
330
1F
100
AcDbEntity
  8
CONTINUOUS1
100
AcDbLine
 10
47.06279646931766
 20
24.09371752175669
 30
0.0
 11
46.96979646931767
 21
24.18671752175669
 31
0.0
  0
LINE
  5
8F12
330
1F
100
AcDbEntity
  8
CONTINUOUS1
100
AcDbLine
 10
47.06279646931766
 20
24.27049421705333
 30
0.0
 11
46.96979646931767
 21
24.36349421705333
 31
0.0
  0
LINE
  5
8F13
330
1F
100
AcDbEntity
  8
CONTINUOUS1
100
AcDbLine
 10
47.06279646931766
 20
24.44727091234996
 30
0.0
 11
46.96979646931767
 21
24.54027091234997
 31
0.0
  0
LINE
  5
8F14
330
1F
100
AcDbEntity
  8
CONTINUOUS1
100
AcDbLine
 10
47.06279646931766
 20
24.6240476076466
 30
0.0
 11
46.96979646931767
 21
24.7170476076466
 31
0.0
  0
LINE
  5
8F15
330
1F
100
AcDbEntity
  8
CONTINUOUS1
100
AcDbLine
 10
47.06279646931766
 20
24.80082430294324
 30
0.0
 11
46.96979646931767
 21
24.89382430294325
 31
0.0
  0
LINE
  5
8F16
330
1F
100
AcDbEntity
  8
CONTINUOUS1
100
AcDbLine
 10
47.06279646931766
 20
24.97760099823988
 30
0.0
 11
46.96979646931767
 21
25.07060099823988
 31
0.0
  0
LINE
  5
8F17
330
1F
100
AcDbEntity
  8
CONTINUOUS1
100
AcDbLine
 10
47.06279646931766
 20
25.15437769353652
 30
0.0
 11
46.96979646931767
 21
25.24737769353651
 31
0.0
  0
LINE
  5
8F18
330
1F
100
AcDbEntity
  8
CONTINUOUS1
100
AcDbLine
 10
47.06279646931766
 20
25.33115438883315
 30
0.0
 11
46.96979646931767
 21
25.42415438883315
 31
0.0
  0
LINE
  5
8F19
330
1F
100
AcDbEntity
  8
CONTINUOUS1
100
AcDbLine
 10
47.06279646931766
 20
25.50793108412979
 30
0.0
 11
46.96979646931767
 21
25.60093108412979
 31
0.0
  0
LINE
  5
8F1A
330
1F
100
AcDbEntity
  8
CONTINUOUS1
100
AcDbLine
 10
47.06279646931766
 20
25.68470777942643
 30
0.0
 11
46.96979646931767
 21
25.77770777942642
 31
0.0
  0
LINE
  5
8F1B
330
1F
100
AcDbEntity
  8
CONTINUOUS1
100
AcDbLine
 10
47.06279646931766
 20
25.86148447472306
 30
0.0
 11
46.96979646931767
 21
25.95448447472306
 31
0.0
  0
LINE
  5
8F1C
330
1F
100
AcDbEntity
  8
CONTINUOUS1
100
AcDbLine
 10
47.06279646931766
 20
26.0382611700197
 30
0.0
 11
46.96979646931767
 21
26.1312611700197
 31
0.0
  0
LINE
  5
8F1D
330
1F
100
AcDbEntity
  8
CONTINUOUS1
100
AcDbLine
 10
47.06279646931766
 20
26.21503786531633
 30
0.0
 11
46.96979646931767
 21
26.30803786531634
 31
0.0
  0
LINE
  5
8F1E
330
1F
100
AcDbEntity
  8
CONTINUOUS1
100
AcDbLine
 10
47.06279646931766
 20
26.39181456061297
 30
0.0
 11
46.96979646931767
 21
26.48481456061297
 31
0.0
  0
LINE
  5
8F1F
330
1F
100
AcDbEntity
  8
CONTINUOUS1
100
AcDbLine
 10
47.06279646931766
 20
26.56859125590961
 30
0.0
 11
46.96979646931767
 21
26.66159125590961
 31
0.0
  0
LINE
  5
8F20
330
1F
100
AcDbEntity
  8
CONTINUOUS1
100
AcDbLine
 10
47.06279646931766
 20
26.74536795120625
 30
0.0
 11
46.96979646931767
 21
26.83836795120624
 31
0.0
  0
LINE
  5
8F21
330
1F
100
AcDbEntity
  8
CONTINUOUS1
100
AcDbLine
 10
47.06279646931766
 20
26.92214464650289
 30
0.0
 11
46.96979646931767
 21
27.01514464650288
 31
0.0
  0
LINE
  5
8F22
330
1F
100
AcDbEntity
  8
CONTINUOUS1
100
AcDbLine
 10
47.06279646931766
 20
27.09892134179952
 30
0.0
 11
46.96979646931767
 21
27.19192134179952
 31
0.0
  0
LINE
  5
8F23
330
1F
100
AcDbEntity
  8
CONTINUOUS1
100
AcDbLine
 10
47.06279646931766
 20
27.27569803709616
 30
0.0
 11
46.96979646931767
 21
27.36869803709616
 31
0.0
  0
LINE
  5
8F24
330
1F
100
AcDbEntity
  8
CONTINUOUS1
100
AcDbLine
 10
47.06279646931766
 20
27.45247473239279
 30
0.0
 11
46.96979646931767
 21
27.54547473239279
 31
0.0
  0
LINE
  5
8F25
330
1F
100
AcDbEntity
  8
CONTINUOUS1
100
AcDbLine
 10
47.06279646931766
 20
27.62925142768943
 30
0.0
 11
46.96979646931767
 21
27.72225142768943
 31
0.0
  0
LINE
  5
8F26
330
1F
100
AcDbEntity
  8
CONTINUOUS1
100
AcDbLine
 10
47.06279646931766
 20
27.80602812298607
 30
0.0
 11
46.96979646931767
 21
27.89902812298607
 31
0.0
  0
LINE
  5
8F27
330
1F
100
AcDbEntity
  8
CONTINUOUS1
100
AcDbLine
 10
47.06279646931766
 20
27.9828048182827
 30
0.0
 11
46.96979646931767
 21
28.07580481828271
 31
0.0
  0
LINE
  5
8F28
330
1F
100
AcDbEntity
  8
CONTINUOUS1
100
AcDbLine
 10
47.06279646931766
 20
28.15958151357934
 30
0.0
 11
47.03404976504443
 21
28.18832821785257
 31
0.0
  0
LINE
  5
8F29
330
1F
100
AcDbEntity
  8
CONTINUOUS1
100
AcDbLine
 10
47.06279646931766
 20
22.50272726408697
 30
0.0
 11
46.96979646931767
 21
22.59572726408696
 31
0.0
  0
LINE
  5
8F2A
330
1F
100
AcDbEntity
  8
CONTINUOUS1
100
AcDbLine
 10
47.06279646931766
 20
22.32595056879032
 30
0.0
 11
46.96979646931767
 21
22.41895056879032
 31
0.0
  0
LINE
  5
8F2B
330
1F
100
AcDbEntity
  8
CONTINUOUS1
100
AcDbLine
 10
47.06279646931766
 20
22.14917387349369
 30
0.0
 11
46.96979646931767
 21
22.24217387349369
 31
0.0
  0
LINE
  5
8F2C
330
1F
100
AcDbEntity
  8
CONTINUOUS1
100
AcDbLine
 10
47.06279646931766
 20
21.97239717819705
 30
0.0
 11
46.96979646931767
 21
22.06539717819705
 31
0.0
  0
LINE
  5
8F2D
330
1F
100
AcDbEntity
  8
CONTINUOUS1
100
AcDbLine
 10
47.06279646931766
 20
21.79562048290041
 30
0.0
 11
46.96979646931767
 21
21.88862048290042
 31
0.0
  0
LINE
  5
8F2E
330
1F
100
AcDbEntity
  8
CONTINUOUS1
100
AcDbLine
 10
47.06279646931766
 20
21.61884378760378
 30
0.0
 11
46.96979646931767
 21
21.71184378760377
 31
0.0
  0
LINE
  5
8F2F
330
1F
100
AcDbEntity
  8
CONTINUOUS1
100
AcDbLine
 10
47.06279646931766
 20
21.44206709230714
 30
0.0
 11
46.96979646931767
 21
21.53506709230714
 31
0.0
  0
LINE
  5
8F30
330
1F
100
AcDbEntity
  8
CONTINUOUS1
100
AcDbLine
 10
47.06279646931766
 20
21.2652903970105
 30
0.0
 11
46.96979646931767
 21
21.35829039701051
 31
0.0
  0
LINE
  5
8F31
330
1F
100
AcDbEntity
  8
CONTINUOUS1
100
AcDbLine
 10
47.06279646931766
 20
21.08851370171386
 30
0.0
 11
46.96979646931767
 21
21.18151370171387
 31
0.0
  0
LINE
  5
8F32
330
1F
100
AcDbEntity
  8
CONTINUOUS1
100
AcDbLine
 10
47.06279646931766
 20
20.91173700641723
 30
0.0
 11
46.96979646931767
 21
21.00473700641723
 31
0.0
  0
LINE
  5
8F33
330
1F
100
AcDbEntity
  8
CONTINUOUS1
100
AcDbLine
 10
47.06279646931766
 20
20.7349603111206
 30
0.0
 11
46.96979646931767
 21
20.82796031112059
 31
0.0
  0
LINE
  5
8F34
330
1F
100
AcDbEntity
  8
CONTINUOUS1
100
AcDbLine
 10
47.06279646931766
 20
20.55818361582395
 30
0.0
 11
46.96979646931767
 21
20.65118361582395
 31
0.0
  0
LINE
  5
8F35
330
1F
100
AcDbEntity
  8
CONTINUOUS1
100
AcDbLine
 10
47.06279646931766
 20
20.38140692052732
 30
0.0
 11
46.96979646931767
 21
20.47440692052732
 31
0.0
  0
LINE
  5
8F36
330
1F
100
AcDbEntity
  8
CONTINUOUS1
100
AcDbLine
 10
47.06279646931766
 20
20.20463022523068
 30
0.0
 11
46.96979646931767
 21
20.29763022523068
 31
0.0
  0
LINE
  5
8F37
330
1F
100
AcDbEntity
  8
CONTINUOUS1
100
AcDbLine
 10
47.06279646931766
 20
20.02785352993405
 30
0.0
 11
46.96979646931767
 21
20.12085352993405
 31
0.0
  0
LINE
  5
8F38
330
1F
100
AcDbEntity
  8
CONTINUOUS1
100
AcDbLine
 10
47.06279646931766
 20
19.85107683463741
 30
0.0
 11
46.96979646931767
 21
19.94407683463741
 31
0.0
  0
LINE
  5
8F39
330
1F
100
AcDbEntity
  8
CONTINUOUS1
100
AcDbLine
 10
47.06279646931766
 20
19.67430013934077
 30
0.0
 11
46.96979646931767
 21
19.76730013934077
 31
0.0
  0
LINE
  5
8F3A
330
1F
100
AcDbEntity
  8
CONTINUOUS1
100
AcDbLine
 10
47.06279646931766
 20
19.49752344404413
 30
0.0
 11
46.96979646931767
 21
19.59052344404414
 31
0.0
  0
LINE
  5
8F3B
330
1F
100
AcDbEntity
  8
CONTINUOUS1
100
AcDbLine
 10
47.06279646931766
 20
19.32074674874749
 30
0.0
 11
46.96979646931767
 21
19.41374674874749
 31
0.0
  0
LINE
  5
8F3C
330
1F
100
AcDbEntity
  8
CONTINUOUS1
100
AcDbLine
 10
47.06279646931766
 20
19.14397005345086
 30
0.0
 11
46.96979646931767
 21
19.23697005345086
 31
0.0
  0
LINE
  5
8F3D
330
1F
100
AcDbEntity
  8
CONTINUOUS1
100
AcDbLine
 10
47.06279646931766
 20
18.96719335815422
 30
0.0
 11
46.96979646931767
 21
19.06019335815422
 31
0.0
  0
LINE
  5
8F3E
330
1F
100
AcDbEntity
  8
CONTINUOUS1
100
AcDbLine
 10
47.06279646931766
 20
18.79041666285758
 30
0.0
 11
46.96979646931767
 21
18.88341666285758
 31
0.0
  0
LINE
  5
8F3F
330
1F
100
AcDbEntity
  8
CONTINUOUS1
100
AcDbLine
 10
47.06279646931766
 20
18.61363996756095
 30
0.0
 11
46.96979646931767
 21
18.70663996756095
 31
0.0
  0
LINE
  5
8F40
330
1F
100
AcDbEntity
  8
CONTINUOUS1
100
AcDbLine
 10
47.06279646931766
 20
18.43686327226431
 30
0.0
 11
46.96979646931767
 21
18.52986327226431
 31
0.0
  0
LINE
  5
8F41
330
1F
100
AcDbEntity
  8
CONTINUOUS1
100
AcDbLine
 10
47.06279646931766
 20
18.26008657696768
 30
0.0
 11
46.96979646931767
 21
18.35308657696767
 31
0.0
  0
LINE
  5
8F42
330
1F
100
AcDbEntity
  8
CONTINUOUS1
100
AcDbLine
 10
47.06279646931766
 20
18.08330988167104
 30
0.0
 11
46.96979646931767
 21
18.17630988167104
 31
0.0
  0
LINE
  5
8F43
330
1F
100
AcDbEntity
  8
CONTINUOUS1
100
AcDbLine
 10
47.06279646931766
 20
17.9065331863744
 30
0.0
 11
46.96979646931767
 21
17.9995331863744
 31
0.0
  0
LINE
  5
8F44
330
1F
100
AcDbEntity
  8
CONTINUOUS1
100
AcDbLine
 10
47.06279646931766
 20
17.72975649107776
 30
0.0
 11
46.96979646931767
 21
17.82275649107776
 31
0.0
  0
LINE
  5
8F45
330
1F
100
AcDbEntity
  8
CONTINUOUS1
100
AcDbLine
 10
47.01979659742604
 20
17.59597966767275
 30
0.0
 11
46.96979646931767
 21
17.64597979578113
 31
0.0
  0
LINE
  5
8F46
330
1F
100
AcDbEntity
  8
CONTINUOUS1
100
AcDbLine
 10
47.06279646931766
 20
22.74200395938359
 30
0.0
 11
46.96979646931767
 21
22.8350039593836
 31
0.0
  0
LINE
  5
8F47
330
1F
100
AcDbEntity
  8
CONTINUOUS1
100
AcDbLine
 10
47.06279646931766
 20
22.91878065468023
 30
0.0
 11
46.96979646931767
 21
23.01178065468024
 31
0.0
  0
LINE
  5
8F48
330
1F
100
AcDbEntity
  8
CONTINUOUS1
100
AcDbLine
 10
47.06279646931766
 20
23.09555734997687
 30
0.0
 11
46.96979646931767
 21
23.18855734997688
 31
0.0
  0
LINE
  5
8F49
330
1F
100
AcDbEntity
  8
CONTINUOUS1
100
AcDbLine
 10
47.06279646931766
 20
23.27233404527351
 30
0.0
 11
46.96979646931767
 21
23.3653340452735
 31
0.0
  0
LINE
  5
8F4A
330
1F
100
AcDbEntity
  8
CONTINUOUS1
100
AcDbLine
 10
47.06279646931766
 20
23.44911074057015
 30
0.0
 11
46.96979646931767
 21
23.54211074057015
 31
0.0
  0
LINE
  5
8F4B
330
1F
100
AcDbEntity
  8
CONTINUOUS1
100
AcDbLine
 10
47.06279646931766
 20
23.62588743586678
 30
0.0
 11
46.96979646931767
 21
23.71888743586678
 31
0.0
  0
LINE
  5
8F4C
330
1F
100
AcDbEntity
  8
CONTINUOUS1
100
AcDbLine
 10
47.06279646931766
 20
23.80266413116342
 30
0.0
 11
46.96979646931767
 21
23.89566413116342
 31
0.0
  0
LINE
  5
8F4D
330
1F
100
AcDbEntity
  8
CONTINUOUS1
100
AcDbLine
 10
47.06279646931766
 20
23.97944082646005
 30
0.0
 11
46.96979646931767
 21
24.07244082646006
 31
0.0
  0
LINE
  5
8F4E
330
1F
100
AcDbEntity
  8
CONTINUOUS1
100
AcDbLine
 10
47.06279646931766
 20
24.15621752175669
 30
0.0
 11
46.96979646931767
 21
24.24921752175669
 31
0.0
  0
LINE
  5
8F4F
330
1F
100
AcDbEntity
  8
CONTINUOUS1
100
AcDbLine
 10
47.06279646931766
 20
24.33299421705333
 30
0.0
 11
46.96979646931767
 21
24.42599421705333
 31
0.0
  0
LINE
  5
8F50
330
1F
100
AcDbEntity
  8
CONTINUOUS1
100
AcDbLine
 10
47.06279646931766
 20
24.50977091234996
 30
0.0
 11
46.96979646931767
 21
24.60277091234997
 31
0.0
  0
LINE
  5
8F51
330
1F
100
AcDbEntity
  8
CONTINUOUS1
100
AcDbLine
 10
47.06279646931766
 20
24.6865476076466
 30
0.0
 11
46.96979646931767
 21
24.77954760764661
 31
0.0
  0
LINE
  5
8F52
330
1F
100
AcDbEntity
  8
CONTINUOUS1
100
AcDbLine
 10
47.06279646931766
 20
24.86332430294324
 30
0.0
 11
46.96979646931767
 21
24.95632430294325
 31
0.0
  0
LINE
  5
8F53
330
1F
100
AcDbEntity
  8
CONTINUOUS1
100
AcDbLine
 10
47.06279646931766
 20
25.04010099823988
 30
0.0
 11
46.96979646931767
 21
25.13310099823987
 31
0.0
  0
LINE
  5
8F54
330
1F
100
AcDbEntity
  8
CONTINUOUS1
100
AcDbLine
 10
47.06279646931766
 20
25.21687769353652
 30
0.0
 11
46.96979646931767
 21
25.30987769353651
 31
0.0
  0
LINE
  5
8F55
330
1F
100
AcDbEntity
  8
CONTINUOUS1
100
AcDbLine
 10
47.06279646931766
 20
25.39365438883315
 30
0.0
 11
46.96979646931767
 21
25.48665438883315
 31
0.0
  0
LINE
  5
8F56
330
1F
100
AcDbEntity
  8
CONTINUOUS1
100
AcDbLine
 10
47.06279646931766
 20
25.57043108412979
 30
0.0
 11
46.96979646931767
 21
25.66343108412979
 31
0.0
  0
LINE
  5
8F57
330
1F
100
AcDbEntity
  8
CONTINUOUS1
100
AcDbLine
 10
47.06279646931766
 20
25.74720777942642
 30
0.0
 11
46.96979646931767
 21
25.84020777942643
 31
0.0
  0
LINE
  5
8F58
330
1F
100
AcDbEntity
  8
CONTINUOUS1
100
AcDbLine
 10
47.06279646931766
 20
25.92398447472306
 30
0.0
 11
46.96979646931767
 21
26.01698447472306
 31
0.0
  0
LINE
  5
8F59
330
1F
100
AcDbEntity
  8
CONTINUOUS1
100
AcDbLine
 10
47.06279646931766
 20
26.1007611700197
 30
0.0
 11
46.96979646931767
 21
26.1937611700197
 31
0.0
  0
LINE
  5
8F5A
330
1F
100
AcDbEntity
  8
CONTINUOUS1
100
AcDbLine
 10
47.06279646931766
 20
26.27753786531633
 30
0.0
 11
46.96979646931767
 21
26.37053786531634
 31
0.0
  0
LINE
  5
8F5B
330
1F
100
AcDbEntity
  8
CONTINUOUS1
100
AcDbLine
 10
47.06279646931766
 20
26.45431456061297
 30
0.0
 11
46.96979646931767
 21
26.54731456061298
 31
0.0
  0
LINE
  5
8F5C
330
1F
100
AcDbEntity
  8
CONTINUOUS1
100
AcDbLine
 10
47.06279646931766
 20
26.63109125590961
 30
0.0
 11
46.96979646931767
 21
26.72409125590961
 31
0.0
  0
LINE
  5
8F5D
330
1F
100
AcDbEntity
  8
CONTINUOUS1
100
AcDbLine
 10
47.06279646931766
 20
26.80786795120625
 30
0.0
 11
46.96979646931767
 21
26.90086795120624
 31
0.0
  0
LINE
  5
8F5E
330
1F
100
AcDbEntity
  8
CONTINUOUS1
100
AcDbLine
 10
47.06279646931766
 20
26.98464464650289
 30
0.0
 11
46.96979646931767
 21
27.07764464650288
 31
0.0
  0
LINE
  5
8F5F
330
1F
100
AcDbEntity
  8
CONTINUOUS1
100
AcDbLine
 10
47.06279646931766
 20
27.16142134179952
 30
0.0
 11
46.96979646931767
 21
27.25442134179952
 31
0.0
  0
LINE
  5
8F60
330
1F
100
AcDbEntity
  8
CONTINUOUS1
100
AcDbLine
 10
47.06279646931766
 20
27.33819803709616
 30
0.0
 11
46.96979646931767
 21
27.43119803709616
 31
0.0
  0
LINE
  5
8F61
330
1F
100
AcDbEntity
  8
CONTINUOUS1
100
AcDbLine
 10
47.06279646931766
 20
27.51497473239279
 30
0.0
 11
46.96979646931767
 21
27.6079747323928
 31
0.0
  0
LINE
  5
8F62
330
1F
100
AcDbEntity
  8
CONTINUOUS1
100
AcDbLine
 10
47.06279646931766
 20
27.69175142768943
 30
0.0
 11
46.96979646931767
 21
27.78475142768943
 31
0.0
  0
LINE
  5
8F63
330
1F
100
AcDbEntity
  8
CONTINUOUS1
100
AcDbLine
 10
47.06279646931766
 20
27.86852812298606
 30
0.0
 11
46.96979646931767
 21
27.96152812298607
 31
0.0
  0
LINE
  5
8F64
330
1F
100
AcDbEntity
  8
CONTINUOUS1
100
AcDbLine
 10
47.06279646931766
 20
28.0453048182827
 30
0.0
 11
46.96979646931767
 21
28.1383048182827
 31
0.0
  0
LINE
  5
8F65
330
1F
100
AcDbEntity
  8
CONTINUOUS1
100
AcDbLine
 10
47.06279646931766
 20
22.56522726408696
 30
0.0
 11
46.96979646931767
 21
22.65822726408696
 31
0.0
  0
LINE
  5
8F66
330
1F
100
AcDbEntity
  8
CONTINUOUS1
100
AcDbLine
 10
47.06279646931766
 20
22.38845056879033
 30
0.0
 11
46.96979646931767
 21
22.48145056879032
 31
0.0
  0
LINE
  5
8F67
330
1F
100
AcDbEntity
  8
CONTINUOUS1
100
AcDbLine
 10
47.06279646931766
 20
22.21167387349369
 30
0.0
 11
46.96979646931767
 21
22.30467387349369
 31
0.0
  0
LINE
  5
8F68
330
1F
100
AcDbEntity
  8
CONTINUOUS1
100
AcDbLine
 10
47.06279646931766
 20
22.03489717819705
 30
0.0
 11
46.96979646931767
 21
22.12789717819705
 31
0.0
  0
LINE
  5
8F69
330
1F
100
AcDbEntity
  8
CONTINUOUS1
100
AcDbLine
 10
47.06279646931766
 20
21.85812048290041
 30
0.0
 11
46.96979646931767
 21
21.95112048290041
 31
0.0
  0
LINE
  5
8F6A
330
1F
100
AcDbEntity
  8
CONTINUOUS1
100
AcDbLine
 10
47.06279646931766
 20
21.68134378760378
 30
0.0
 11
46.96979646931767
 21
21.77434378760378
 31
0.0
  0
LINE
  5
8F6B
330
1F
100
AcDbEntity
  8
CONTINUOUS1
100
AcDbLine
 10
47.06279646931766
 20
21.50456709230714
 30
0.0
 11
46.96979646931767
 21
21.59756709230714
 31
0.0
  0
LINE
  5
8F6C
330
1F
100
AcDbEntity
  8
CONTINUOUS1
100
AcDbLine
 10
47.06279646931766
 20
21.3277903970105
 30
0.0
 11
46.96979646931767
 21
21.42079039701051
 31
0.0
  0
LINE
  5
8F6D
330
1F
100
AcDbEntity
  8
CONTINUOUS1
100
AcDbLine
 10
47.06279646931766
 20
21.15101370171386
 30
0.0
 11
46.96979646931767
 21
21.24401370171387
 31
0.0
  0
LINE
  5
8F6E
330
1F
100
AcDbEntity
  8
CONTINUOUS1
100
AcDbLine
 10
47.06279646931766
 20
20.97423700641722
 30
0.0
 11
46.96979646931767
 21
21.06723700641723
 31
0.0
  0
LINE
  5
8F6F
330
1F
100
AcDbEntity
  8
CONTINUOUS1
100
AcDbLine
 10
47.06279646931766
 20
20.7974603111206
 30
0.0
 11
46.96979646931767
 21
20.89046031112059
 31
0.0
  0
LINE
  5
8F70
330
1F
100
AcDbEntity
  8
CONTINUOUS1
100
AcDbLine
 10
47.06279646931766
 20
20.62068361582396
 30
0.0
 11
46.96979646931767
 21
20.71368361582395
 31
0.0
  0
LINE
  5
8F71
330
1F
100
AcDbEntity
  8
CONTINUOUS1
100
AcDbLine
 10
47.06279646931766
 20
20.44390692052732
 30
0.0
 11
46.96979646931767
 21
20.53690692052732
 31
0.0
  0
LINE
  5
8F72
330
1F
100
AcDbEntity
  8
CONTINUOUS1
100
AcDbLine
 10
47.06279646931766
 20
20.26713022523068
 30
0.0
 11
46.96979646931767
 21
20.36013022523068
 31
0.0
  0
LINE
  5
8F73
330
1F
100
AcDbEntity
  8
CONTINUOUS1
100
AcDbLine
 10
47.06279646931766
 20
20.09035352993404
 30
0.0
 11
46.96979646931767
 21
20.18335352993405
 31
0.0
  0
LINE
  5
8F74
330
1F
100
AcDbEntity
  8
CONTINUOUS1
100
AcDbLine
 10
47.06279646931766
 20
19.91357683463741
 30
0.0
 11
46.96979646931767
 21
20.00657683463741
 31
0.0
  0
LINE
  5
8F75
330
1F
100
AcDbEntity
  8
CONTINUOUS1
100
AcDbLine
 10
47.06279646931766
 20
19.73680013934077
 30
0.0
 11
46.96979646931767
 21
19.82980013934077
 31
0.0
  0
LINE
  5
8F76
330
1F
100
AcDbEntity
  8
CONTINUOUS1
100
AcDbLine
 10
47.06279646931766
 20
19.56002344404413
 30
0.0
 11
46.96979646931767
 21
19.65302344404414
 31
0.0
  0
LINE
  5
8F77
330
1F
100
AcDbEntity
  8
CONTINUOUS1
100
AcDbLine
 10
47.06279646931766
 20
19.38324674874749
 30
0.0
 11
46.96979646931767
 21
19.4762467487475
 31
0.0
  0
LINE
  5
8F78
330
1F
100
AcDbEntity
  8
CONTINUOUS1
100
AcDbLine
 10
47.06279646931766
 20
19.20647005345086
 30
0.0
 11
46.96979646931767
 21
19.29947005345086
 31
0.0
  0
LINE
  5
8F79
330
1F
100
AcDbEntity
  8
CONTINUOUS1
100
AcDbLine
 10
47.06279646931766
 20
19.02969335815422
 30
0.0
 11
46.96979646931767
 21
19.12269335815422
 31
0.0
  0
LINE
  5
8F7A
330
1F
100
AcDbEntity
  8
CONTINUOUS1
100
AcDbLine
 10
47.06279646931766
 20
18.85291666285758
 30
0.0
 11
46.96979646931767
 21
18.94591666285758
 31
0.0
  0
LINE
  5
8F7B
330
1F
100
AcDbEntity
  8
CONTINUOUS1
100
AcDbLine
 10
47.06279646931766
 20
18.67613996756094
 30
0.0
 11
46.96979646931767
 21
18.76913996756095
 31
0.0
  0
LINE
  5
8F7C
330
1F
100
AcDbEntity
  8
CONTINUOUS1
100
AcDbLine
 10
47.06279646931766
 20
18.49936327226431
 30
0.0
 11
46.96979646931767
 21
18.59236327226431
 31
0.0
  0
LINE
  5
8F7D
330
1F
100
AcDbEntity
  8
CONTINUOUS1
100
AcDbLine
 10
47.06279646931766
 20
18.32258657696768
 30
0.0
 11
46.96979646931767
 21
18.41558657696767
 31
0.0
  0
LINE
  5
8F7E
330
1F
100
AcDbEntity
  8
CONTINUOUS1
100
AcDbLine
 10
47.06279646931766
 20
18.14580988167104
 30
0.0
 11
46.96979646931767
 21
18.23880988167103
 31
0.0
  0
LINE
  5
8F7F
330
1F
100
AcDbEntity
  8
CONTINUOUS1
100
AcDbLine
 10
47.06279646931766
 20
17.9690331863744
 30
0.0
 11
46.96979646931767
 21
18.06203318637439
 31
0.0
  0
LINE
  5
8F80
330
1F
100
AcDbEntity
  8
CONTINUOUS1
100
AcDbLine
 10
47.06279646931766
 20
17.79225649107776
 30
0.0
 11
46.96979646931767
 21
17.88525649107777
 31
0.0
  0
LINE
  5
8F81
330
1F
100
AcDbEntity
  8
CONTINUOUS1
100
AcDbLine
 10
47.06279646931766
 20
17.61547979578112
 30
0.0
 11
46.96979646931767
 21
17.70847979578113
 31
0.0
  0
LINE
  5
8F82
330
1F
100
AcDbEntity
  8
CONTINUOUS1
100
AcDbLine
 10
47.06279646931766
 20
17.59540681298755
 30
0.0
 11
47.04937668685852
 21
17.60686291334373
 31
0.0
  0
LINE
  5
8F83
330
1F
100
AcDbEntity
  8
CONTINUOUS1
100
AcDbLine
 10
47.04937668685852
 20
17.60686291334373
 30
0.0
 11
47.0392264404962
 21
17.61223581672467
 31
0.0
  0
LINE
  5
8F84
330
1F
100
AcDbEntity
  8
CONTINUOUS1
100
AcDbLine
 10
47.0392264404962
 20
17.61223581672467
 30
0.0
 11
47.03180671037968
 21
17.6127972788886
 31
0.0
  0
LINE
  5
8F85
330
1F
100
AcDbEntity
  8
CONTINUOUS1
100
AcDbLine
 10
47.03180671037968
 20
17.6127972788886
 30
0.0
 11
47.02657847665799
 21
17.60981905559374
 31
0.0
  0
LINE
  5
8F86
330
1F
100
AcDbEntity
  8
CONTINUOUS1
100
AcDbLine
 10
47.02657847665799
 20
17.60981905559374
 30
0.0
 11
47.02300271948012
 21
17.60457290259831
 31
0.0
  0
LINE
  5
8F87
330
1F
100
AcDbEntity
  8
CONTINUOUS1
100
AcDbLine
 10
47.02300271948012
 20
17.60457290259831
 30
0.0
 11
47.02054041899508
 21
17.59833057566056
 31
0.0
  0
LINE
  5
8F88
330
1F
100
AcDbEntity
  8
CONTINUOUS1
100
AcDbLine
 10
47.02054041899508
 20
17.59833057566056
 30
0.0
 11
47.01865255535188
 21
17.59236383053868
 31
0.0
  0
LINE
  5
8F89
330
1F
100
AcDbEntity
  8
CONTINUOUS1
100
AcDbLine
 10
47.01865255535188
 20
17.59236383053868
 30
0.0
 11
47.01680010869952
 21
17.58794442299092
 31
0.0
  0
LINE
  5
8F8A
330
1F
100
AcDbEntity
  8
CONTINUOUS1
100
AcDbLine
 10
47.01680010869952
 20
17.58794442299092
 30
0.0
 11
47.0145050422032
 21
17.58602087206987
 31
0.0
  0
LINE
  5
8F8B
330
1F
100
AcDbEntity
  8
CONTINUOUS1
100
AcDbLine
 10
47.0145050422032
 20
17.58602087206987
 30
0.0
 11
47.01153325109284
 21
17.58624875000567
 31
0.0
  0
LINE
  5
8F8C
330
1F
100
AcDbEntity
  8
CONTINUOUS1
100
AcDbLine
 10
47.01153325109284
 20
17.58624875000567
 30
0.0
 11
47.00771161361454
 21
17.58796039232285
 31
0.0
  0
LINE
  5
8F8D
330
1F
100
AcDbEntity
  8
CONTINUOUS1
100
AcDbLine
 10
47.00771161361454
 20
17.58796039232285
 30
0.0
 11
47.00286700801441
 21
17.59048813454592
 31
0.0
  0
LINE
  5
8F8E
330
1F
100
AcDbEntity
  8
CONTINUOUS1
100
AcDbLine
 10
47.00286700801441
 20
17.59048813454592
 30
0.0
 11
46.99682631253854
 21
17.59316431219941
 31
0.0
  0
LINE
  5
8F8F
330
1F
100
AcDbEntity
  8
CONTINUOUS1
100
AcDbLine
 10
46.99682631253854
 20
17.59316431219941
 30
0.0
 11
46.98941640543305
 21
17.59532126080783
 31
0.0
  0
LINE
  5
8F90
330
1F
100
AcDbEntity
  8
CONTINUOUS1
100
AcDbLine
 10
46.98941640543305
 20
17.59532126080783
 30
0.0
 11
46.98046416494406
 21
17.5962913158957
 31
0.0
  0
LINE
  5
8F91
330
1F
100
AcDbEntity
  8
CONTINUOUS1
100
AcDbLine
 10
46.98046416494406
 20
17.5962913158957
 30
0.0
 11
46.96979646931765
 21
17.59540681298755
 31
0.0
  0
LINE
  5
8F92
330
1F
100
AcDbEntity
  8
CONTINUOUS1
100
AcDbLine
 10
47.06279646931766
 20
28.17382376934135
 30
0.0
 11
47.04919066444467
 21
28.18662456935557
 31
0.0
  0
LINE
  5
8F93
330
1F
100
AcDbEntity
  8
CONTINUOUS1
100
AcDbLine
 10
47.04919066444467
 20
28.18662456935557
 30
0.0
 11
47.03864828266727
 21
28.19001353273486
 31
0.0
  0
LINE
  5
8F94
330
1F
100
AcDbEntity
  8
CONTINUOUS1
100
AcDbLine
 10
47.03864828266727
 20
28.19001353273486
 30
0.0
 11
47.02992058456239
 21
28.18681491076347
 31
0.0
  0
LINE
  5
8F95
330
1F
100
AcDbEntity
  8
CONTINUOUS1
100
AcDbLine
 10
47.02992058456239
 20
28.18681491076347
 30
0.0
 11
47.02175883070694
 21
28.17985295472563
 31
0.0
  0
LINE
  5
8F96
330
1F
100
AcDbEntity
  8
CONTINUOUS1
100
AcDbLine
 10
47.02175883070694
 20
28.17985295472563
 30
0.0
 11
47.01291428167784
 21
28.17195191590556
 31
0.0
  0
LINE
  5
8F97
330
1F
100
AcDbEntity
  8
CONTINUOUS1
100
AcDbLine
 10
47.01291428167784
 20
28.17195191590556
 30
0.0
 11
47.00213819805197
 21
28.16593604558752
 31
0.0
  0
LINE
  5
8F98
330
1F
100
AcDbEntity
  8
CONTINUOUS1
100
AcDbLine
 10
47.00213819805197
 20
28.16593604558752
 30
0.0
 11
46.98818184040628
 21
28.16462959505575
 31
0.0
  0
LINE
  5
8F99
330
1F
100
AcDbEntity
  8
CONTINUOUS1
100
AcDbLine
 10
46.98818184040628
 20
28.16462959505575
 30
0.0
 11
46.96979646931765
 21
28.17085681559445
 31
0.0
  0
ARC
  5
8F9A
330
1F
100
AcDbEntity
  8
CONTINUOUS1
100
AcDbCircle
 10
57.67411734753405
 20
20.89698170891447
 30
0.0
 40
0.4256872554210532
100
AcDbArc
 50
269.9999999999971
 51
280.747017587344
  0
ARC
  5
8F9B
330
1F
100
AcDbEntity
  8
CONTINUOUS1
100
AcDbCircle
 10
57.70575494485699
 20
20.73029433603828
 30
0.0
 40
0.2560240070708704
100
AcDbArc
 50
280.7470175873402
 51
294.6183200578266
  0
ARC
  5
8F9C
330
1F
100
AcDbEntity
  8
CONTINUOUS1
100
AcDbCircle
 10
57.75372150535435
 20
20.62561472498827
 30
0.0
 40
0.1408779611312484
100
AcDbArc
 50
294.6183200578468
 51
317.8877700830403
  0
ARC
  5
8F9D
330
1F
100
AcDbEntity
  8
CONTINUOUS1
100
AcDbCircle
 10
57.82530124620008
 20
20.56090970753264
 30
0.0
 40
0.0443875544398281
100
AcDbArc
 50
317.8877700830335
 51
0.0000000000045864
  0
ARC
  5
8F9E
330
1F
100
AcDbEntity
  8
CONTINUOUS1
100
AcDbCircle
 10
57.8253012462001
 20
20.56090970753264
 30
0.0
 40
0.0443875544398083
100
AcDbArc
 50
0.0000000000045864
 51
42.11222991697812
  0
ARC
  5
8F9F
330
1F
100
AcDbEntity
  8
CONTINUOUS1
100
AcDbCircle
 10
57.75372150535435
 20
20.496204690077
 30
0.0
 40
0.1408779611312495
100
AcDbArc
 50
42.11222991695966
 51
65.38167994215315
  0
ARC
  5
8FA0
330
1F
100
AcDbEntity
  8
CONTINUOUS1
100
AcDbCircle
 10
57.70575494485701
 20
20.39152507902703
 30
0.0
 40
0.2560240070708157
100
AcDbArc
 50
65.38167994217123
 51
79.2529824126606
  0
ARC
  5
8FA1
330
1F
100
AcDbEntity
  8
CONTINUOUS1
100
AcDbCircle
 10
57.67411734753398
 20
20.2248377061509
 30
0.0
 40
0.4256872554209567
100
AcDbArc
 50
79.25298241264474
 51
89.99999999999426
  0
ARC
  5
8FA2
330
1F
100
AcDbEntity
  8
CONTINUOUS1
100
AcDbCircle
 10
57.67411734753408
 20
20.22483770615091
 30
0.0
 40
0.4256872554209395
100
AcDbArc
 50
90.00000000000667
 51
100.7470175873556
  0
ARC
  5
8FA3
330
1F
100
AcDbEntity
  8
CONTINUOUS1
100
AcDbCircle
 10
57.64247975021107
 20
20.39152507902703
 30
0.0
 40
0.2560240070708215
100
AcDbArc
 50
100.7470175873423
 51
114.6183200578298
  0
ARC
  5
8FA4
330
1F
100
AcDbEntity
  8
CONTINUOUS1
100
AcDbCircle
 10
57.59451318971372
 20
20.49620469007696
 30
0.0
 40
0.1408779611312842
100
AcDbArc
 50
114.618320057837
 51
137.8877700830294
  0
ARC
  5
8FA5
330
1F
100
AcDbEntity
  8
CONTINUOUS1
100
AcDbCircle
 10
57.52293344886797
 20
20.56090970753263
 30
0.0
 40
0.0443875544398228
100
AcDbArc
 50
137.8877700830273
 51
179.9999999999862
  0
ARC
  5
8FA6
330
1F
100
AcDbEntity
  8
CONTINUOUS1
100
AcDbCircle
 10
57.52293344886798
 20
20.56090970753264
 30
0.0
 40
0.0443875544398367
100
AcDbArc
 50
180.0
 51
222.1122299169637
  0
ARC
  5
8FA7
330
1F
100
AcDbEntity
  8
CONTINUOUS1
100
AcDbCircle
 10
57.59451318971371
 20
20.62561472498829
 30
0.0
 40
0.1408779611312686
100
AcDbArc
 50
222.1122299169682
 51
245.3816799421632
  0
ARC
  5
8FA8
330
1F
100
AcDbEntity
  8
CONTINUOUS1
100
AcDbCircle
 10
57.64247975021106
 20
20.73029433603826
 30
0.0
 40
0.2560240070708447
100
AcDbArc
 50
245.3816799421741
 51
259.2529824126634
  0
ARC
  5
8FA9
330
1F
100
AcDbEntity
  8
CONTINUOUS1
100
AcDbCircle
 10
57.67411734753402
 20
20.8969817089144
 30
0.0
 40
0.4256872554209819
100
AcDbArc
 50
259.252982412655
 51
270.0000000000009
  0
LINE
  5
8FAA
330
1F
100
AcDbEntity
  8
CONTINUOUS2
100
AcDbLine
 10
34.71453833072891
 20
27.0029556779469
 30
0.0
 11
34.71453833072891
 21
17.8779556779469
 31
0.0
  0
LINE
  5
8FAB
330
1F
100
AcDbEntity
  8
CONTINUOUS2
100
AcDbLine
 10
34.71453833072891
 20
17.8779556779469
 30
0.0
 11
33.27703833072891
 21
17.8779556779469
 31
0.0
  0
ARC
  5
8FAC
330
1F
100
AcDbEntity
  8
CONTINUOUS1
100
AcDbCircle
 10
33.9957883307289
 20
21.8229550649629
 30
0.0
 40
0.25
100
AcDbArc
 50
180.0
 51
0.0
  0
CIRCLE
  5
8FAD
330
1F
100
AcDbEntity
  8
CONTINUOUS1
100
AcDbCircle
 10
33.99578833072895
 20
20.5729550649629
 30
0.0
 40
0.109375
  0
LINE
  5
8FAE
330
1F
100
AcDbEntity
  8
CONTINUOUS1
100
AcDbLine
 10
34.24578833072891
 20
22.8229550649629
 30
0.0
 11
34.24578833072891
 21
21.8229550649629
 31
0.0
  0
LINE
  5
8FAF
330
1F
100
AcDbEntity
  8
CONTINUOUS1
100
AcDbLine
 10
33.7457883307289
 20
22.8229550649629
 30
0.0
 11
33.7457883307289
 21
21.8229550649629
 31
0.0
  0
ARC
  5
8FB0
330
1F
100
AcDbEntity
  8
CONTINUOUS1
100
AcDbCircle
 10
33.9957883307289
 20
22.8229550649629
 30
0.0
 40
0.25
100
AcDbArc
 50
0.0
 51
180.0
  0
LINE
  5
8FB1
330
1F
100
AcDbEntity
  8
CONTINUOUS1
100
AcDbLine
 10
33.7457883307289
 20
24.6979550649629
 30
0.0
 11
33.7457883307289
 21
23.6979550649629
 31
0.0
  0
LINE
  5
8FB2
330
1F
100
AcDbEntity
  8
CONTINUOUS1
100
AcDbLine
 10
34.24578833072891
 20
24.6979550649629
 30
0.0
 11
34.24578833072891
 21
23.6979550649629
 31
0.0
  0
ARC
  5
8FB3
330
1F
100
AcDbEntity
  8
CONTINUOUS1
100
AcDbCircle
 10
33.9957883307289
 20
23.6979550649629
 30
0.0
 40
0.25
100
AcDbArc
 50
180.0
 51
0.0
  0
CIRCLE
  5
8FB4
330
1F
100
AcDbEntity
  8
CONTINUOUS1
100
AcDbCircle
 10
33.9957883307289
 20
25.2604550649629
 30
0.0
 40
0.109375
  0
ARC
  5
8FB5
330
1F
100
AcDbEntity
  8
CONTINUOUS1
100
AcDbCircle
 10
33.9957883307289
 20
24.6979550649629
 30
0.0
 40
0.25
100
AcDbArc
 50
0.0
 51
180.0
  0
LINE
  5
8FB6
330
1F
100
AcDbEntity
  8
CONTINUOUS2
100
AcDbLine
 10
34.71453833072891
 20
27.0029556779469
 30
0.0
 11
33.2770383307289
 21
27.0029556779469
 31
0.0
  0
LINE
  5
8FB7
330
1F
100
AcDbEntity
  8
CENTER2
100
AcDbLine
 10
33.99578833072895
 20
20.48295506496289
 30
0.0
 11
33.99578833072895
 21
20.6629550649629
 31
0.0
  0
LINE
  5
8FB8
330
1F
100
AcDbEntity
  8
CENTER2
100
AcDbLine
 10
33.90578833072895
 20
20.5729550649629
 30
0.0
 11
34.08578833072895
 21
20.5729550649629
 31
0.0
  0
LINE
  5
8FB9
330
1F
100
AcDbEntity
  8
CENTER2
100
AcDbLine
 10
33.9957883307289
 20
25.17045506496289
 30
0.0
 11
33.9957883307289
 21
25.3504550649629
 31
0.0
  0
LINE
  5
8FBA
330
1F
100
AcDbEntity
  8
CENTER2
100
AcDbLine
 10
33.90578833072891
 20
25.2604550649629
 30
0.0
 11
34.08578833072891
 21
25.2604550649629
 31
0.0
  0
LINE
  5
8FBB
330
1F
100
AcDbEntity
  8
PHANTOM1
100
AcDbLine
 10
26.96531401267907
 20
30.6354550649629
 30
0.0
 11
32.9357883307289
 21
30.6354550649629
 31
0.0
  0
LINE
  5
8FBC
330
1F
100
AcDbEntity
  8
PHANTOM1
100
AcDbLine
 10
26.96531401267907
 20
31.2604550649629
 30
0.0
 11
34.87578833072891
 21
31.2604550649629
 31
0.0
  0
POLYLINE
  5
8FBD
330
1F
100
AcDbEntity
  8
PHANTOM1
100
AcDb2dPolyline
 66
     1
 10
0.0
 20
0.0
 30
0.0
 70
     4
 75
     6
  0
VERTEX
  5
8FBE
330
8FBD
100
AcDbEntity
  8
PHANTOM1
100
AcDbVertex
100
AcDb2dVertex
 10
26.96531401267907
 20
31.2604550649629
 30
0.0
 70
    16
  0
VERTEX
  5
8FBF
330
8FBD
100
AcDbEntity
  8
PHANTOM1
100
AcDbVertex
100
AcDb2dVertex
 10
26.96531401267907
 20
31.2604550649629
 30
0.0
 70
     8
  0
VERTEX
  5
8FC0
330
8FBD
100
AcDbEntity
  8
PHANTOM1
100
AcDbVertex
100
AcDb2dVertex
 10
26.92151715403014
 20
31.18636946775792
 30
0.0
 70
     8
  0
VERTEX
  5
8FC1
330
8FBD
100
AcDbEntity
  8
PHANTOM1
100
AcDbVertex
100
AcDb2dVertex
 10
26.89413700499643
 20
31.12562799038833
 30
0.0
 70
     8
  0
VERTEX
  5
8FC2
330
8FBD
100
AcDbEntity
  8
PHANTOM1
100
AcDbVertex
100
AcDb2dVertex
 10
26.87964001983388
 20
31.07620554510324
 30
0.0
 70
     8
  0
VERTEX
  5
8FC3
330
8FBD
100
AcDbEntity
  8
PHANTOM1
100
AcDbVertex
100
AcDb2dVertex
 10
26.87449265279838
 20
31.03607704415175
 30
0.0
 70
     8
  0
VERTEX
  5
8FC4
330
8FBD
100
AcDbEntity
  8
PHANTOM1
100
AcDbVertex
100
AcDb2dVertex
 10
26.87516135814588
 20
31.00321739978298
 30
0.0
 70
     8
  0
VERTEX
  5
8FC5
330
8FBD
100
AcDbEntity
  8
PHANTOM1
100
AcDbVertex
100
AcDb2dVertex
 10
26.87811259013227
 20
30.97560152424601
 30
0.0
 70
     8
  0
VERTEX
  5
8FC6
330
8FBD
100
AcDbEntity
  8
PHANTOM1
100
AcDbVertex
100
AcDb2dVertex
 10
26.87981280301348
 20
30.95120432978998
 30
0.0
 70
     8
  0
VERTEX
  5
8FC7
330
8FBD
100
AcDbEntity
  8
PHANTOM1
100
AcDbVertex
100
AcDb2dVertex
 10
26.87672845104541
 20
30.92800072866396
 30
0.0
 70
     8
  0
VERTEX
  5
8FC8
330
8FBD
100
AcDbEntity
  8
PHANTOM1
100
AcDbVertex
100
AcDb2dVertex
 10
26.8667117896583
 20
30.90414751654586
 30
0.0
 70
     8
  0
VERTEX
  5
8FC9
330
8FBD
100
AcDbEntity
  8
PHANTOM1
100
AcDbVertex
100
AcDb2dVertex
 10
26.85315827897955
 20
30.87852902282865
 30
0.0
 70
     8
  0
VERTEX
  5
8FCA
330
8FBD
100
AcDbEntity
  8
PHANTOM1
100
AcDbVertex
100
AcDb2dVertex
 10
26.84084918031089
 20
30.8502114603341
 30
0.0
 70
     8
  0
VERTEX
  5
8FCB
330
8FBD
100
AcDbEntity
  8
PHANTOM1
100
AcDbVertex
100
AcDb2dVertex
 10
26.83456575495404
 20
30.81826104188396
 30
0.0
 70
     8
  0
VERTEX
  5
8FCC
330
8FBD
100
AcDbEntity
  8
PHANTOM1
100
AcDbVertex
100
AcDb2dVertex
 10
26.83908926421071
 20
30.78174398030002
 30
0.0
 70
     8
  0
VERTEX
  5
8FCD
330
8FBD
100
AcDbEntity
  8
PHANTOM1
100
AcDbVertex
100
AcDb2dVertex
 10
26.85920096938263
 20
30.73972648840401
 30
0.0
 70
     8
  0
VERTEX
  5
8FCE
330
8FBD
100
AcDbEntity
  8
PHANTOM1
100
AcDbVertex
100
AcDb2dVertex
 10
26.8996821317715
 20
30.69127477901772
 30
0.0
 70
     8
  0
VERTEX
  5
8FCF
330
8FBD
100
AcDbEntity
  8
PHANTOM1
100
AcDbVertex
100
AcDb2dVertex
 10
26.96531401267907
 20
30.6354550649629
 30
0.0
 70
     8
  0
VERTEX
  5
8FD0
330
8FBD
100
AcDbEntity
  8
PHANTOM1
100
AcDbVertex
100
AcDb2dVertex
 10
26.8234925139113
 20
31.04330123463497
 30
0.0
 70
    16
  0
VERTEX
  5
8FD1
330
8FBD
100
AcDbEntity
  8
PHANTOM1
100
AcDbVertex
100
AcDb2dVertex
 10
26.96545496404117
 20
30.93687000248654
 30
0.0
 70
    16
  0
VERTEX
  5
8FD2
330
8FBD
100
AcDbEntity
  8
PHANTOM1
100
AcDbVertex
100
AcDb2dVertex
 10
26.75251136218801
 20
30.79496167504779
 30
0.0
 70
    16
  0
VERTEX
  5
8FD3
330
8FBD
100
AcDbEntity
  8
PHANTOM1
100
AcDbVertex
100
AcDb2dVertex
 10
26.96531401267907
 20
30.6354550649629
 30
0.0
 70
    16
  0
SEQEND
  5
8FD4
330
8FBD
100
AcDbEntity
  8
PHANTOM1
  0
LINE
  5
8FD5
330
1F
100
AcDbEntity
  8
CONTINUOUS2
100
AcDbLine
 10
34.71453833072891
 20
27.0029556779469
 30
0.0
 11
34.71453833072891
 21
17.8779556779469
 31
0.0
  0
LINE
  5
8FD6
330
1F
100
AcDbEntity
  8
CONTINUOUS2
100
AcDbLine
 10
33.2770383307289
 20
27.0029556779469
 30
0.0
 11
33.27703833072891
 21
17.8779556779469
 31
0.0
  0
LINE
  5
8FD7
330
1F
100
AcDbEntity
  8
PHANTOM1
100
AcDbLine
 10
32.9357883307289
 20
30.6354550649629
 30
0.0
 11
32.9357883307289
 21
8.458268509105375
 31
0.0
  0
LINE
  5
8FD8
330
1F
100
AcDbEntity
  8
PHANTOM1
100
AcDbLine
 10
34.87578833072891
 20
31.2604550649629
 30
0.0
 11
34.87578833072891
 21
8.645768509105382
 31
0.0
  0
POLYLINE
  5
8FD9
330
1F
100
AcDbEntity
  8
PHANTOM1
100
AcDb2dPolyline
 66
     1
 10
0.0
 20
0.0
 30
0.0
 70
     4
 75
     6
  0
VERTEX
  5
8FDA
330
8FD9
100
AcDbEntity
  8
PHANTOM1
100
AcDbVertex
100
AcDb2dVertex
 10
32.9357883307289
 20
8.458268509105382
 30
0.0
 70
    16
  0
VERTEX
  5
8FDB
330
8FD9
100
AcDbEntity
  8
PHANTOM1
100
AcDbVertex
100
AcDb2dVertex
 10
32.93578833072889
 20
8.458268509105382
 30
0.0
 70
     8
  0
VERTEX
  5
8FDC
330
8FD9
100
AcDbEntity
  8
PHANTOM1
100
AcDbVertex
100
AcDb2dVertex
 10
33.24616349348932
 20
8.588226880350408
 30
0.0
 70
     8
  0
VERTEX
  5
8FDD
330
8FD9
100
AcDbEntity
  8
PHANTOM1
100
AcDbVertex
100
AcDb2dVertex
 10
33.48003963281223
 20
8.661688505436517
 30
0.0
 70
     8
  0
VERTEX
  5
8FDE
330
8FD9
100
AcDbEntity
  8
PHANTOM1
100
AcDbVertex
100
AcDb2dVertex
 10
33.64904272526016
 20
8.688584993464012
 30
0.0
 70
     8
  0
VERTEX
  5
8FDF
330
8FD9
100
AcDbEntity
  8
PHANTOM1
100
AcDbVertex
100
AcDb2dVertex
 10
33.76479874739557
 20
8.678847953533196
 30
0.0
 70
     8
  0
VERTEX
  5
8FE0
330
8FD9
100
AcDbEntity
  8
PHANTOM1
100
AcDbVertex
100
AcDb2dVertex
 10
33.83893367578099
 20
8.642408994744373
 30
0.0
 70
     8
  0
VERTEX
  5
8FE1
330
8FD9
100
AcDbEntity
  8
PHANTOM1
100
AcDbVertex
100
AcDb2dVertex
 10
33.88307348697891
 20
8.589199726197843
 30
0.0
 70
     8
  0
VERTEX
  5
8FE2
330
8FD9
100
AcDbEntity
  8
PHANTOM1
100
AcDbVertex
100
AcDb2dVertex
 10
33.90884415755182
 20
8.529151756993913
 30
0.0
 70
     8
  0
VERTEX
  5
8FE3
330
8FD9
100
AcDbEntity
  8
PHANTOM1
100
AcDbVertex
100
AcDb2dVertex
 10
33.92787166406224
 20
8.472196696232883
 30
0.0
 70
     8
  0
VERTEX
  5
8FE4
330
8FD9
100
AcDbEntity
  8
PHANTOM1
100
AcDbVertex
100
AcDb2dVertex
 10
33.94964086979141
 20
8.426563336289104
 30
0.0
 70
     8
  0
VERTEX
  5
8FE5
330
8FD9
100
AcDbEntity
  8
PHANTOM1
100
AcDbVertex
100
AcDb2dVertex
 10
33.97507218489558
 20
8.39366920263313
 30
0.0
 70
     8
  0
VERTEX
  5
8FE6
330
8FD9
100
AcDbEntity
  8
PHANTOM1
100
AcDbVertex
100
AcDb2dVertex
 10
34.00294490624974
 20
8.373229004009557
 30
0.0
 70
     8
  0
VERTEX
  5
8FE7
330
8FD9
100
AcDbEntity
  8
PHANTOM1
100
AcDbVertex
100
AcDb2dVertex
 10
34.03203833072891
 20
8.364957449162986
 30
0.0
 70
     8
  0
VERTEX
  5
8FE8
330
8FD9
100
AcDbEntity
  8
PHANTOM1
100
AcDbVertex
100
AcDb2dVertex
 10
34.06113175520808
 20
8.368569246838017
 30
0.0
 70
     8
  0
VERTEX
  5
8FE9
330
8FD9
100
AcDbEntity
  8
PHANTOM1
100
AcDbVertex
100
AcDb2dVertex
 10
34.08900447656224
 20
8.383779105779249
 30
0.0
 70
     8
  0
VERTEX
  5
8FEA
330
8FD9
100
AcDbEntity
  8
PHANTOM1
100
AcDbVertex
100
AcDb2dVertex
 10
34.11443579166641
 20
8.410301734731282
 30
0.0
 70
     8
  0
VERTEX
  5
8FEB
330
8FD9
100
AcDbEntity
  8
PHANTOM1
100
AcDbVertex
100
AcDb2dVertex
 10
34.13620499739558
 20
8.447851842438716
 30
0.0
 70
     8
  0
VERTEX
  5
8FEC
330
8FD9
100
AcDbEntity
  8
PHANTOM1
100
AcDbVertex
100
AcDb2dVertex
 10
34.15347794661433
 20
8.495744095042882
 30
0.0
 70
     8
  0
VERTEX
  5
8FED
330
8FD9
100
AcDbEntity
  8
PHANTOM1
100
AcDbVertex
100
AcDb2dVertex
 10
34.16696671614558
 20
8.551692988272048
 30
0.0
 70
     8
  0
VERTEX
  5
8FEE
330
8FD9
100
AcDbEntity
  8
PHANTOM1
100
AcDbVertex
100
AcDb2dVertex
 10
34.17776993880183
 20
8.613012975251216
 30
0.0
 70
     8
  0
VERTEX
  5
8FEF
330
8FD9
100
AcDbEntity
  8
PHANTOM1
100
AcDbVertex
100
AcDb2dVertex
 10
34.18698624739558
 20
8.677018509105382
 30
0.0
 70
     8
  0
VERTEX
  5
8FF0
330
8FD9
100
AcDbEntity
  8
PHANTOM1
100
AcDbVertex
100
AcDb2dVertex
 10
34.19571427473933
 20
8.741024042959548
 30
0.0
 70
     8
  0
VERTEX
  5
8FF1
330
8FD9
100
AcDbEntity
  8
PHANTOM1
100
AcDbVertex
100
AcDb2dVertex
 10
34.20505265364558
 20
8.802344029938716
 30
0.0
 70
     8
  0
VERTEX
  5
8FF2
330
8FD9
100
AcDbEntity
  8
PHANTOM1
100
AcDbVertex
100
AcDb2dVertex
 10
34.21610001692683
 20
8.858292923167882
 30
0.0
 70
     8
  0
VERTEX
  5
8FF3
330
8FD9
100
AcDbEntity
  8
PHANTOM1
100
AcDbVertex
100
AcDb2dVertex
 10
34.22995499739558
 20
8.906185175772048
 30
0.0
 70
     8
  0
VERTEX
  5
8FF4
330
8FD9
100
AcDbEntity
  8
PHANTOM1
100
AcDbVertex
100
AcDb2dVertex
 10
34.24737036197891
 20
8.943823522126216
 30
0.0
 70
     8
  0
VERTEX
  5
8FF5
330
8FD9
100
AcDbEntity
  8
PHANTOM1
100
AcDbVertex
100
AcDb2dVertex
 10
34.26771541406223
 20
8.970963821605382
 30
0.0
 70
     8
  0
VERTEX
  5
8FF6
330
8FD9
100
AcDbEntity
  8
PHANTOM1
100
AcDbVertex
100
AcDb2dVertex
 10
34.29001359114558
 20
8.987850214834548
 30
0.0
 70
     8
  0
VERTEX
  5
8FF7
330
8FD9
100
AcDbEntity
  8
PHANTOM1
100
AcDbVertex
100
AcDb2dVertex
 10
34.31328833072891
 20
8.994726842438716
 30
0.0
 70
     8
  0
VERTEX
  5
8FF8
330
8FD9
100
AcDbEntity
  8
PHANTOM1
100
AcDbVertex
100
AcDb2dVertex
 10
34.33656307031224
 20
8.991837845042882
 30
0.0
 70
     8
  0
VERTEX
  5
8FF9
330
8FD9
100
AcDbEntity
  8
PHANTOM1
100
AcDbVertex
100
AcDb2dVertex
 10
34.35886124739558
 20
8.979427363272048
 30
0.0
 70
     8
  0
VERTEX
  5
8FFA
330
8FD9
100
AcDbEntity
  8
PHANTOM1
100
AcDbVertex
100
AcDb2dVertex
 10
34.37920629947891
 20
8.957739537751216
 30
0.0
 70
     8
  0
VERTEX
  5
8FFB
330
8FD9
100
AcDbEntity
  8
PHANTOM1
100
AcDbVertex
100
AcDb2dVertex
 10
34.39662166406224
 20
8.927018509105382
 30
0.0
 70
     8
  0
VERTEX
  5
8FFC
330
8FD9
100
AcDbEntity
  8
PHANTOM1
100
AcDbVertex
100
AcDb2dVertex
 10
34.41053786816104
 20
8.887833938792882
 30
0.0
 70
     8
  0
VERTEX
  5
8FFD
330
8FD9
100
AcDbEntity
  8
PHANTOM1
100
AcDbVertex
100
AcDb2dVertex
 10
34.42201379685266
 20
8.842057571605382
 30
0.0
 70
     8
  0
VERTEX
  5
8FFE
330
8FD9
100
AcDbEntity
  8
PHANTOM1
100
AcDbVertex
100
AcDb2dVertex
 10
34.4325154247299
 20
8.791886673167882
 30
0.0
 70
     8
  0
VERTEX
  5
8FFF
330
8FD9
100
AcDbEntity
  8
PHANTOM1
100
AcDbVertex
100
AcDb2dVertex
 10
34.44350872638557
 20
8.739518509105382
 30
0.0
 70
     8
  0
VERTEX
  5
9000
330
8FD9
100
AcDbEntity
  8
PHANTOM1
100
AcDbVertex
100
AcDb2dVertex
 10
34.4564596764125
 20
8.687150345042882
 30
0.0
 70
     8
  0
VERTEX
  5
9001
330
8FD9
100
AcDbEntity
  8
PHANTOM1
100
AcDbVertex
100
AcDb2dVertex
 10
34.47283424940349
 20
8.636979446605382
 30
0.0
 70
     8
  0
VERTEX
  5
9002
330
8FD9
100
AcDbEntity
  8
PHANTOM1
100
AcDbVertex
100
AcDb2dVertex
 10
34.49409841995136
 20
8.591203079417882
 30
0.0
 70
     8
  0
VERTEX
  5
9003
330
8FD9
100
AcDbEntity
  8
PHANTOM1
100
AcDbVertex
100
AcDb2dVertex
 10
34.52171816264891
 20
8.552018509105382
 30
0.0
 70
     8
  0
VERTEX
  5
9004
330
8FD9
100
AcDbEntity
  8
PHANTOM1
100
AcDbVertex
100
AcDb2dVertex
 10
34.55662897294438
 20
8.521439895824132
 30
0.0
 70
     8
  0
VERTEX
  5
9005
330
8FD9
100
AcDbEntity
  8
PHANTOM1
100
AcDbVertex
100
AcDb2dVertex
 10
34.59764442970765
 20
8.500748977855382
 30
0.0
 70
     8
  0
VERTEX
  5
9006
330
8FD9
100
AcDbEntity
  8
PHANTOM1
100
AcDbVertex
100
AcDb2dVertex
 10
34.64304763266406
 20
8.491044388011632
 30
0.0
 70
     8
  0
VERTEX
  5
9007
330
8FD9
100
AcDbEntity
  8
PHANTOM1
100
AcDbVertex
100
AcDb2dVertex
 10
34.6911216815389
 20
8.493424759105382
 30
0.0
 70
     8
  0
VERTEX
  5
9008
330
8FD9
100
AcDbEntity
  8
PHANTOM1
100
AcDbVertex
100
AcDb2dVertex
 10
34.7401496760575
 20
8.508988723949132
 30
0.0
 70
     8
  0
VERTEX
  5
9009
330
8FD9
100
AcDbEntity
  8
PHANTOM1
100
AcDbVertex
100
AcDb2dVertex
 10
34.78841471594515
 20
8.538834915355382
 30
0.0
 70
     8
  0
VERTEX
  5
900A
330
8FD9
100
AcDbEntity
  8
PHANTOM1
100
AcDbVertex
100
AcDb2dVertex
 10
34.83419990092718
 20
8.584061966136632
 30
0.0
 70
     8
  0
VERTEX
  5
900B
330
8FD9
100
AcDbEntity
  8
PHANTOM1
100
AcDbVertex
100
AcDb2dVertex
 10
34.87578833072891
 20
8.645768509105382
 30
0.0
 70
     8
  0
VERTEX
  5
900C
330
8FD9
100
AcDbEntity
  8
PHANTOM1
100
AcDbVertex
100
AcDb2dVertex
 10
33.87578833072891
 20
8.888981257615386
 30
0.0
 70
    16
  0
VERTEX
  5
900D
330
8FD9
100
AcDbEntity
  8
PHANTOM1
100
AcDbVertex
100
AcDb2dVertex
 10
33.87578833072891
 20
8.333268509105382
 30
0.0
 70
    16
  0
VERTEX
  5
900E
330
8FD9
100
AcDbEntity
  8
PHANTOM1
100
AcDbVertex
100
AcDb2dVertex
 10
34.18828833072891
 20
8.333268509105382
 30
0.0
 70
    16
  0
VERTEX
  5
900F
330
8FD9
100
AcDbEntity
  8
PHANTOM1
100
AcDbVertex
100
AcDb2dVertex
 10
34.18828833072891
 20
9.020768509105382
 30
0.0
 70
    16
  0
VERTEX
  5
9010
330
8FD9
100
AcDbEntity
  8
PHANTOM1
100
AcDbVertex
100
AcDb2dVertex
 10
34.43828833072891
 20
9.020768509105382
 30
0.0
 70
    16
  0
VERTEX
  5
9011
330
8FD9
100
AcDbEntity
  8
PHANTOM1
100
AcDbVertex
100
AcDb2dVertex
 10
34.43828833072891
 20
8.458268509105382
 30
0.0
 70
    16
  0
VERTEX
  5
9012
330
8FD9
100
AcDbEntity
  8
PHANTOM1
100
AcDbVertex
100
AcDb2dVertex
 10
34.7720076584089
 20
8.458268509105382
 30
0.0
 70
    16
  0
VERTEX
  5
9013
330
8FD9
100
AcDbEntity
  8
PHANTOM1
100
AcDbVertex
100
AcDb2dVertex
 10
34.87578833072891
 20
8.645768509105382
 30
0.0
 70
    16
  0
SEQEND
  5
9014
330
8FD9
100
AcDbEntity
  8
PHANTOM1
  0
LINE
  5
9015
330
1F
100
AcDbEntity
  8
CONTINUOUS2
100
AcDbLine
 10
34.71453833072891
 20
17.8779556779469
 30
0.0
 11
33.27703833072891
 21
17.8779556779469
 31
0.0
  0
ARC
  5
9016
330
1F
100
AcDbEntity
  8
CONTINUOUS2
100
AcDbCircle
 10
33.9957883307289
 20
21.8229550649629
 30
0.0
 40
0.25
100
AcDbArc
 50
180.0
 51
0.0
  0
CIRCLE
  5
9017
330
1F
100
AcDbEntity
  8
CONTINUOUS2
100
AcDbCircle
 10
33.9957883307289
 20
20.5729550649629
 30
0.0
 40
0.14
  0
LINE
  5
9018
330
1F
100
AcDbEntity
  8
CONTINUOUS2
100
AcDbLine
 10
34.24578833072891
 20
22.8229550649629
 30
0.0
 11
34.24578833072891
 21
21.8229550649629
 31
0.0
  0
LINE
  5
9019
330
1F
100
AcDbEntity
  8
CONTINUOUS2
100
AcDbLine
 10
33.7457883307289
 20
22.8229550649629
 30
0.0
 11
33.7457883307289
 21
21.8229550649629
 31
0.0
  0
ARC
  5
901A
330
1F
100
AcDbEntity
  8
CONTINUOUS2
100
AcDbCircle
 10
33.9957883307289
 20
22.8229550649629
 30
0.0
 40
0.25
100
AcDbArc
 50
0.0
 51
180.0
  0
LINE
  5
901B
330
1F
100
AcDbEntity
  8
CONTINUOUS2
100
AcDbLine
 10
33.7457883307289
 20
24.6979550649629
 30
0.0
 11
33.7457883307289
 21
23.6979550649629
 31
0.0
  0
LINE
  5
901C
330
1F
100
AcDbEntity
  8
CONTINUOUS2
100
AcDbLine
 10
34.24578833072891
 20
24.6979550649629
 30
0.0
 11
34.24578833072891
 21
23.6979550649629
 31
0.0
  0
ARC
  5
901D
330
1F
100
AcDbEntity
  8
CONTINUOUS2
100
AcDbCircle
 10
33.9957883307289
 20
23.6979550649629
 30
0.0
 40
0.25
100
AcDbArc
 50
180.0
 51
0.0
  0
ARC
  5
901E
330
1F
100
AcDbEntity
  8
CONTINUOUS2
100
AcDbCircle
 10
33.9957883307289
 20
24.6979550649629
 30
0.0
 40
0.25
100
AcDbArc
 50
0.0
 51
180.0
  0
CIRCLE
  5
901F
330
1F
100
AcDbEntity
  8
CONTINUOUS2
100
AcDbCircle
 10
33.9957883307289
 20
25.2604550649629
 30
0.0
 40
0.14
  0
LINE
  5
9020
330
1F
100
AcDbEntity
  8
CONTINUOUS2
100
AcDbLine
 10
34.71453833072891
 20
27.0029556779469
 30
0.0
 11
33.2770383307289
 21
27.0029556779469
 31
0.0
  0
POINT
  5
9021
330
1F
100
AcDbEntity
  8
PHANTOM1
100
AcDbPoint
 10
34.87578833072891
 20
31.2604550649629
 30
0.0
  0
TEXT
  5
9022
330
1F
100
AcDbEntity
  8
TEXT1
100
AcDbText
 10
1.760482902033995
 20
32.98770909467558
 30
0.0
 40
0.399999984375
  1
CGJ50
  7
SIMPLEX
100
AcDbText
  0
TEXT
  5
9023
330
1F
100
AcDbEntity
  8
TEXT1
100
AcDbText
 10
1.760482902033995
 20
32.18747357647899
 30
0.0
 40
0.399999984375
  1
CGJ10
  7
SIMPLEX
100
AcDbText
  0
DIMENSION
  5
9024
330
1F
100
AcDbEntity
  8
DIM
100
AcDbDimension
  2
*D5
 10
41.07577473513628
 20
17.87795567794689
 30
0.0
 11
41.07577473513628
 21
22.4404556779469
 31
0.0
 70
   160
  3
SCHNEIDERELECTRIC
100
AcDbAlignedDimension
 13
34.71453833072891
 23
27.0029556779469
 33
0.0
 14
34.71453833072891
 24
17.8779556779469
 34
0.0
 50
90.0
100
AcDbRotatedDimension
1001
ACAD
1000
DSTYLE
1002
{
1070
    40
1040
4.0
1002
}
  0
DIMENSION
  5
9025
330
1F
100
AcDbEntity
  8
DIM
100
AcDbDimension
  2
*D6
 10
38.66212886954562
 20
20.5729550649629
 30
0.0
 11
38.66212886954561
 21
22.91973823517578
 31
0.0
 70
   160
  3
SCHNEIDERELECTRIC
100
AcDbAlignedDimension
 13
33.9957883307289
 23
25.2604550649629
 33
0.0
 14
33.99578833072895
 24
20.5729550649629
 34
0.0
 50
90.0
100
AcDbRotatedDimension
1001
ACAD
1000
DSTYLE
1002
{
1070
    40
1040
4.0
1002
}
  0
DIMENSION
  5
9026
330
1F
100
AcDbEntity
  8
DIM
100
AcDbDimension
  2
*D7
 10
51.31279646931766
 20
10.52735273650343
 30
0.0
 11
49.18779646931766
 21
10.52735273650343
 31
0.0
 70
   160
  1
\P<>
  3
SCHNEIDERELECTRIC
100
AcDbAlignedDimension
 13
47.06279646931766
 23
17.72975649107776
 33
0.0
 14
51.31279646931766
 24
22.33275638920484
 34
0.0
100
AcDbRotatedDimension
1001
ACAD
1000
DSTYLE
1002
{
1070
    40
1040
4.0
1002
}
  0
TEXT
  5
9027
330
1F
100
AcDbEntity
  8
TEXT1
100
AcDbText
 10
24.58182903832275
 20
37.75214064423026
 30
0.0
 40
0.4
  1
REFER TO NEC ARTICLE 430-10 FOR MINIMUM
  7
SIMPLEX
100
AcDbText
  0
TEXT
  5
9028
330
1F
100
AcDbEntity
  8
TEXT1
100
AcDbText
 10
24.58182903832275
 20
36.91400374880028
 30
0.0
 40
0.4
  1
DIMENSION X FROM CIRCUIT BREAKER TOP
  7
SIMPLEX
100
AcDbText
  0
TEXT
  5
9029
330
1F
100
AcDbEntity
  8
TEXT1
100
AcDbText
 10
24.58182903832275
 20
36.07586685337031
 30
0.0
 40
0.4
  1
MOUNTING HOLE TO WALL OR BARRIER TO
  7
SIMPLEX
100
AcDbText
  0
LINE
  5
902B
330
1F
100
AcDbEntity
  8
CONTINUOUS1
100
AcDbLine
 10
1.41347771033935
 20
33.6126374396115
 30
0.0
 11
21.05967075565388
 21
33.6126374396115
 31
0.0
  0
TEXT
  5
902C
330
1F
100
AcDbEntity
  8
TEXT1
100
AcDbText
 10
10.83108747831013
 20
33.804237447424
 30
0.0
 40
0.3999999843749999
  1
2.50 [64]
 72
     1
 11
12.26442075565387
 21
34.0042374396115
 31
0.0
100
AcDbText
 73
     2
  0
TEXT
  5
902D
330
1F
100
AcDbEntity
  8
TEXT1
100
AcDbText
 10
10.39775416190388
 20
32.237837447424
 30
0.0
 40
0.3999999843749999
  1
48.00 [1219]
 72
     1
 11
12.26442075565387
 21
32.4378374396115
 31
0.0
100
AcDbText
 73
     2
  0
TEXT
  5
902E
330
1F
100
AcDbEntity
  8
TEXT1
100
AcDbText
 10
16.42792082206013
 20
33.02103744742399
 30
0.0
 40
0.3999999843749999
  1
24.00 [610]
 72
     1
 11
18.12792075565387
 21
33.2210374396115
 31
0.0
100
AcDbText
 73
     2
  0
TEXT
  5
902F
330
1F
100
AcDbEntity
  8
TEXT1
100
AcDbText
 10
16.59458748221638
 20
33.804237447424
 30
0.0
 40
0.3999999843749999
  1
7.00 [178]
 72
     1
 11
18.12792075565387
 21
34.0042374396115
 31
0.0
100
AcDbText
 73
     2
  0
TEXT
  5
9030
330
1F
100
AcDbEntity
  8
TEXT1
100
AcDbText
 10
7.168832623728103
 20
34.98878914899146
 30
0.0
 40
0.3999999843749999
  1
DEPTH
100
AcDbText
  0
DIMENSION
  5
9031
330
1F
100
AcDbEntity
  8
DIM
100
AcDbDimension
  2
*D8
 10
34.71453833072891
 20
15.09897312646678
 30
0.0
 11
36.73713111445838
 21
15.09897312646678
 31
0.0
 70
   160
  1
\P<>
  3
SCHNEIDERELECTRIC
100
AcDbAlignedDimension
 13
33.27703833072891
 23
17.8779556779469
 33
0.0
 14
34.71453833072891
 24
17.8779556779469
 34
0.0
100
AcDbRotatedDimension
1001
ACAD
1000
DSTYLE
1002
{
1070
    40
1040
4.0
1002
}
  0
LINE
  5
9032
330
1F
100
AcDbEntity
  8
CONTINUOUS1
100
AcDbLine
 10
53.69819653173364
 20
23.93780035662526
 30
0.0
 11
53.69819653173364
 21
24.19565474115764
 31
0.0
  0
LINE
  5
9033
330
1F
100
AcDbEntity
  8
CONTINUOUS1
100
AcDbLine
 10
53.69819653173364
 20
24.93592340767591
 30
0.0
 11
53.32754063352919
 21
24.93592340767591
 31
0.0
  0
LINE
  5
9034
330
1F
100
AcDbEntity
  8
CONTINUOUS1
100
AcDbLine
 10
53.32754063352919
 20
24.93592340767591
 30
0.0
 11
53.32754063352919
 21
23.93780035662526
 31
0.0
  0
LINE
  5
9035
330
1F
100
AcDbEntity
  8
CONTINUOUS1
100
AcDbLine
 10
53.32754063352919
 20
23.93780035662526
 30
0.0
 11
53.80603876685874
 21
23.93780035662526
 31
0.0
  0
LINE
  5
9036
330
1F
100
AcDbEntity
  8
CONTINUOUS1
100
AcDbLine
 10
54.15850358573134
 20
24.59466921711496
 30
0.0
 11
54.15784726075134
 21
24.93592340767591
 31
0.0
  0
LINE
  5
9037
330
1F
100
AcDbEntity
  8
CONTINUOUS1
100
AcDbLine
 10
54.15784726075134
 20
24.93592340767591
 30
0.0
 11
53.69819653173364
 21
24.93592340767591
 31
0.0
  0
LINE
  5
9038
330
1F
100
AcDbEntity
  8
CONTINUOUS1
100
AcDbLine
 10
53.69819653173364
 20
24.55993256684359
 30
0.0
 11
53.69819653173364
 21
24.93592340767591
 31
0.0
  0
LINE
  5
9039
330
1F
100
AcDbEntity
  8
CONTINUOUS1
100
AcDbLine
 10
53.69790016597264
 20
24.66344411064275
 30
0.0
 11
53.58461781439541
 21
24.66344411064275
 31
0.0
  0
LINE
  5
903A
330
1F
100
AcDbEntity
  8
CONTINUOUS1
100
AcDbLine
 10
53.56461781439541
 20
24.64344411064276
 30
0.0
 11
53.56461781439541
 21
24.20193995099496
 31
0.0
  0
LINE
  5
903B
330
1F
100
AcDbEntity
  8
CONTINUOUS1
100
AcDbLine
 10
53.58461781439542
 20
24.18193995099496
 30
0.0
 11
53.69790016597264
 21
24.18193995099496
 31
0.0
  0
ARC
  5
903C
330
1F
100
AcDbEntity
  8
CONTINUOUS1
100
AcDbCircle
 10
53.58461781439541
 20
24.64344411064276
 30
0.0
 40
0.02
100
AcDbArc
 50
90.0
 51
180.0
  0
ARC
  5
903D
330
1F
100
AcDbEntity
  8
CONTINUOUS1
100
AcDbCircle
 10
53.58461781439542
 20
24.20193995099496
 30
0.0
 40
0.02
100
AcDbArc
 50
180.0000000000008
 51
270.0
  0
DIMENSION
  5
903E
330
1F
100
AcDbEntity
  8
DIM
100
AcDbDimension
  2
*D9
 10
37.15599780473807
 20
26.26309792493851
 30
0.0
 11
35.95409304283331
 21
24.44652343067248
 31
0.0
 70
   160
  1
\P<>
  3
SCHNEIDERELECTRIC
100
AcDbAlignedDimension
 13
33.9957883307289
 23
25.2604550649629
 33
0.0
 14
31.49703636276122
 24
26.26309792493851
 34
0.0
 50
90.0
100
AcDbRotatedDimension
1001
ACAD
1000
DSTYLE
1002
{
1070
    40
1040
4.0
1002
}
  0
DIMENSION
  5
9040
330
1F
100
AcDbEntity
  8
DIM
100
AcDbDimension
  2
*D10
 10
32.26695743752441
 20
28.18186868324331
 30
0.0
 11
33.46773392729537
 21
27.70004816270775
 31
0.0
 70
   161
  1
C
  3
SCHNEIDERELECTRIC
100
AcDbAlignedDimension
 13
33.99578833072891
 23
25.2604550649629
 33
0.0
 14
31.49703636276122
 24
26.26309792493851
 34
0.0
1001
ACAD
1000
DSTYLE
1002
{
1070
    40
1040
4.0
1002
}
  0
LINE
  5
9041
330
1F
100
AcDbEntity
  8
CONTINUOUS2
100
AcDbLine
 10
29.14546204776811
 20
26.39466255678929
 30
0.0
 11
29.14546204776811
 21
22.0746625567893
 31
0.0
  0
LINE
  5
9042
330
1F
100
AcDbEntity
  8
CONTINUOUS2
100
AcDbLine
 10
29.34546204776811
 20
21.8746625567893
 30
0.0
 11
32.48546204776811
 21
21.8746625567893
 31
0.0
  0
LINE
  5
9043
330
1F
100
AcDbEntity
  8
CONTINUOUS2
100
AcDbLine
 10
29.34546204776811
 20
26.5946625567893
 30
0.0
 11
32.48546204776811
 21
26.5946625567893
 31
0.0
  0
LINE
  5
9044
330
1F
100
AcDbEntity
  8
CONTINUOUS2
100
AcDbLine
 10
29.34546204776811
 20
26.5946625567893
 30
0.0
 11
29.14546204776811
 21
26.39466255678929
 31
0.0
  0
LINE
  5
9045
330
1F
100
AcDbEntity
  8
CONTINUOUS2
100
AcDbLine
 10
29.34546204776811
 20
21.8746625567893
 30
0.0
 11
29.14546204776811
 21
22.0746625567893
 31
0.0
  0
LINE
  5
9046
330
1F
100
AcDbEntity
  8
CONTINUOUS2
100
AcDbLine
 10
32.48546204776811
 20
26.5946625567893
 30
0.0
 11
32.68546204776811
 21
26.39466255678931
 31
0.0
  0
LINE
  5
9047
330
1F
100
AcDbEntity
  8
CONTINUOUS2
100
AcDbLine
 10
32.68546204776811
 20
22.0746625567893
 30
0.0
 11
32.48546204776811
 21
21.8746625567893
 31
0.0
  0
LINE
  5
9048
330
1F
100
AcDbEntity
  8
CONTINUOUS1
100
AcDbLine
 10
32.68546204776811
 20
22.0746625567893
 30
0.0
 11
32.9357883307289
 21
22.0746625567893
 31
0.0
  0
LINE
  5
9049
330
1F
100
AcDbEntity
  8
CONTINUOUS1
100
AcDbLine
 10
32.68546204776811
 20
26.39466255678931
 30
0.0
 11
32.93578833072889
 21
26.39466255678931
 31
0.0
  0
CIRCLE
  5
904A
330
1F
100
AcDbEntity
  8
CONTINUOUS2
100
AcDbCircle
 10
31.49703636276122
 20
22.32292789757742
 30
0.0
 40
0.16
  0
LINE
  5
904B
330
1F
100
AcDbEntity
  8
CENTER2
100
AcDbLine
 10
31.49703636276122
 20
22.55458276745249
 30
0.0
 11
31.49703636276122
 21
22.09100909162348
 31
0.0
  0
LINE
  5
904C
330
1F
100
AcDbEntity
  8
CENTER2
100
AcDbLine
 10
31.71953700145176
 20
22.32292789757742
 30
0.0
 11
31.28219320817102
 21
22.32292789757742
 31
0.0
  0
CIRCLE
  5
904D
330
1F
100
AcDbEntity
  8
CONTINUOUS2
100
AcDbCircle
 10
30.31389152567646
 20
26.26309792493851
 30
0.0
 40
0.16
  0
LINE
  5
904E
330
1F
100
AcDbEntity
  8
CENTER2
100
AcDbLine
 10
30.31389152567646
 20
26.49488476285302
 30
0.0
 11
30.31389152567646
 21
26.03131108702401
 31
0.0
  0
LINE
  5
904F
330
1F
100
AcDbEntity
  8
CENTER2
100
AcDbLine
 10
30.536392164367
 20
26.26309792493851
 30
0.0
 11
30.09904837108626
 21
26.26309792493851
 31
0.0
  0
CIRCLE
  5
9050
330
1F
100
AcDbEntity
  8
CONTINUOUS1
100
AcDbCircle
 10
30.31389152567646
 20
26.26309792493851
 30
0.0
 40
0.16
  0
CIRCLE
  5
9051
330
1F
100
AcDbEntity
  8
CONTINUOUS1
100
AcDbCircle
 10
31.49703636276122
 20
22.32292789757742
 30
0.0
 40
0.16
  0
DIMENSION
  5
9052
330
1F
100
AcDbEntity
  8
DIM
100
AcDbDimension
  2
*D11
 10
38.52669172949611
 20
31.2604550649629
 30
0.0
 11
38.5266917294961
 21
28.76177649495071
 31
0.0
 70
    32
  1
X
  3
SCHNEIDERELECTRIC
100
AcDbAlignedDimension
 13
31.49703636276122
 23
26.26309792493851
 33
0.0
 14
34.87578833072891
 24
31.2604550649629
 34
0.0
 50
90.0
100
AcDbRotatedDimension
1001
ACAD
1000
DSTYLE
1002
{
1070
    40
1040
4.0
1002
}
  0
TEXT
  5
9053
330
1F
100
AcDbEntity
  8
TEXT1
100
AcDbText
 10
24.61761579171208
 20
35.36464064423025
 30
0.0
 40
0.4
  1
ENSURE ADEQUATE WIRE BENDING SPACE.
  7
SIMPLEX
100
AcDbText
  0
TEXT
  5
9054
330
1F
100
AcDbEntity
  8
TEXT1
100
AcDbText
 10
1.397848305199784
 20
14.42737716473406
 30
0.0
 40
0.39995
  1
NOTE:  BEND RADIUS IN CABLE MUST NEVER BE LESS THAN 6 INCHES.
  7
SIMPLEX
100
AcDbText
  0
TEXT
  5
9055
330
1F
100
AcDbEntity
  8
TEXT1
100
AcDbText
 10
1.397848305199784
 20
13.74174859330548
 30
0.0
 40
0.39995
  1
ELECTRICAL CLEARANCES MUST BE MAINTAINED BETWEEN CABLE AND 
  7
SIMPLEX
100
AcDbText
  0
TEXT
  5
9056
330
1F
100
AcDbEntity
  8
TEXT1
100
AcDbText
 10
1.397848305199784
 20
13.05612002187691
 30
0.0
 40
0.39995
  1
LIVE ELECTRICAL PARTS.
  7
SIMPLEX
100
AcDbText
  0
LINE
  5
9057
330
1F
100
AcDbEntity
  8
CONTINUOUS2
100
AcDbLine
 10
33.2770383307289
 20
27.0029556779469
 30
0.0
 11
33.27703833072891
 21
22.0746625567893
 31
0.0
  0
LINE
  5
9058
330
1F
100
AcDbEntity
  8
CONTINUOUS2
100
AcDbLine
 10
33.27703833072891
 20
22.0746625567893
 30
0.0
 11
33.27703833072891
 21
17.8779556779469
 31
0.0
  0
ARC
  5
9063
330
1F
100
AcDbEntity
  8
CONTINUOUS1
100
AcDbCircle
 10
51.75178880570067
 20
15.94984315461126
 30
0.0
 40
3.390317219243906
100
AcDbArc
 50
230.3969920481712
 51
7.996130793634981
  0
ARC
  5
9064
330
1F
100
AcDbEntity
  8
CONTINUOUS1
100
AcDbCircle
 10
51.73107001654746
 20
15.98722755047182
 30
0.0
 40
3.749252725990972
100
AcDbArc
 50
263.8914160069869
 51
6.650791197965876
  0
ARC
  5
9065
330
1F
100
AcDbEntity
  8
CONTINUOUS1
100
AcDbCircle
 10
52.66284962433411
 20
17.32973407853583
 30
0.0
 40
5.037398611520203
100
AcDbArc
 50
189.5282870272512
 51
232.4183291011517
  0
ARC
  5
9066
330
1F
100
AcDbEntity
  8
CONTINUOUS1
100
AcDbCircle
 10
52.18230833793106
 20
16.9942576443018
 30
0.0
 40
4.810720018744173
100
AcDbArc
 50
186.0375025373022
 51
259.8205400491051
  0
CIRCLE
  5
9067
330
1F
100
AcDbEntity
  8
CONTINUOUS1
100
AcDbCircle
 10
50.39995400344071
 20
23.87755873316679
 30
0.0
 40
0.220172499749644
  0
LINE
  5
906E
330
1F
100
AcDbEntity
  8
CONTINUOUS2
100
AcDbLine
 10
32.70486991539051
 20
21.14574150563814
 30
0.0
 11
32.70486991539051
 21
19.44574150563814
 31
0.0
  0
LINE
  5
906F
330
1F
100
AcDbEntity
  8
CONTINUOUS2
100
AcDbLine
 10
32.40521639570025
 20
19.44574150563814
 30
0.0
 11
32.70486991539051
 21
19.44574150563814
 31
0.0
  0
LINE
  5
9070
330
1F
100
AcDbEntity
  8
CONTINUOUS1
100
AcDbLine
 10
33.15009103063564
 20
19.54574150563814
 30
0.0
 11
32.51942146368408
 21
19.54574150563814
 31
0.0
  0
LINE
  5
9071
330
1F
100
AcDbEntity
  8
CONTINUOUS2
100
AcDbLine
 10
32.51942146368408
 20
19.54574150563814
 30
0.0
 11
32.51942146368408
 21
19.84574150563814
 31
0.0
  0
LINE
  5
9072
330
1F
100
AcDbEntity
  8
CONTINUOUS2
100
AcDbLine
 10
32.51942146368408
 20
19.84574150563814
 30
0.0
 11
32.70486991539051
 21
19.84574150563814
 31
0.0
  0
LINE
  5
9073
330
1F
100
AcDbEntity
  8
CONTINUOUS1
100
AcDbLine
 10
32.66942146368407
 20
19.84574150563814
 30
0.0
 11
32.9357883307289
 21
19.84574150563814
 31
0.0
  0
LINE
  5
9074
330
1F
100
AcDbEntity
  8
CONTINUOUS2
100
AcDbLine
 10
32.93578833072889
 20
18.09621357044398
 30
0.0
 11
32.86892296425115
 21
16.41498759580074
 31
0.0
  0
LINE
  5
9075
330
1F
100
AcDbEntity
  8
CONTINUOUS2
100
AcDbLine
 10
32.51942146368408
 20
19.54574150563814
 30
0.0
 11
32.40521639570025
 21
19.54574150563814
 31
0.0
  0
LINE
  5
9076
330
1F
100
AcDbEntity
  8
CONTINUOUS1
100
AcDbLine
 10
32.84066484740668
 20
19.54574150563814
 30
0.0
 11
32.84066484740668
 21
25.83335868044993
 31
0.0
  0
LINE
  5
9077
330
1F
100
AcDbEntity
  8
CONTINUOUS2
100
AcDbLine
 10
32.94527237260133
 20
26.89756059126561
 30
0.0
 11
32.70486991539051
 21
26.89756059126561
 31
0.0
  0
LINE
  5
9078
330
1F
100
AcDbEntity
  8
CONTINUOUS1
100
AcDbLine
 10
32.88589140253067
 20
24.68564252099781
 30
0.0
 11
32.9357883307289
 21
24.68564252099781
 31
0.0
  0
LINE
  5
9079
330
1F
100
AcDbEntity
  8
CONTINUOUS1
100
AcDbLine
 10
32.88589140253067
 20
24.1856425209978
 30
0.0
 11
32.9357883307289
 21
24.1856425209978
 31
0.0
  0
LINE
  5
907A
330
1F
100
AcDbEntity
  8
CONTINUOUS1
100
AcDbLine
 10
32.88589140253067
 20
24.68564252099781
 30
0.0
 11
32.88589140253067
 21
24.1856425209978
 31
0.0
  0
LINE
  5
907B
330
1F
100
AcDbEntity
  8
CONTINUOUS2
100
AcDbLine
 10
32.70486991539051
 20
27.21532369226282
 30
0.0
 11
32.94724784188875
 21
27.21532369226282
 31
0.0
  0
LINE
  5
907C
330
1F
100
AcDbEntity
  8
CONTINUOUS2
100
AcDbLine
 10
32.94724784188875
 20
27.48282824274268
 30
0.0
 11
32.70486991539051
 21
27.48282824274268
 31
0.0
  0
ARC
  5
907D
330
1F
100
AcDbEntity
  8
CONTINUOUS2
100
AcDbCircle
 10
33.75786648453198
 20
12.08484160944102
 30
0.0
 40
2.122082995151881
100
AcDbArc
 50
165.4523397712733
 51
11.73893453287485
  0
LINE
  5
907E
330
1F
100
AcDbEntity
  8
CONTINUOUS2
100
AcDbLine
 10
32.55695530236286
 20
16.52634805482579
 30
0.0
 11
31.70381952358129
 21
12.61787755618565
 31
0.0
  0
LINE
  5
907F
330
1F
100
AcDbEntity
  8
CONTINUOUS2
100
AcDbLine
 10
34.39741581968151
 20
17.87795567794689
 30
0.0
 11
35.83556565402698
 21
12.51658505107346
 31
0.0
  0
ARC
  5
9080
330
1F
100
AcDbEntity
  8
CONTINUOUS2
100
AcDbCircle
 10
33.75786648453198
 20
12.08484160944102
 30
0.0
 40
1.878954394755968
100
AcDbArc
 50
164.7735161250388
 51
12.34462940641112
  0
LINE
  5
9081
330
1F
100
AcDbEntity
  8
CONTINUOUS2
100
AcDbLine
 10
32.86892296425115
 20
16.41498759580074
 30
0.0
 11
31.94487240901448
 21
12.57832119332588
 31
0.0
  0
LINE
  5
9082
330
1F
100
AcDbEntity
  8
CONTINUOUS2
100
AcDbLine
 10
34.11244850838739
 20
17.87795567794689
 30
0.0
 11
35.59337821784161
 21
12.48654584697839
 31
0.0
  0
LINE
  5
9083
330
1F
100
AcDbEntity
  8
CONTINUOUS1
100
AcDbLine
 10
32.93578833072889
 20
26.08138464417659
 30
0.0
 11
32.84066484740668
 21
26.08138464417659
 31
0.0
  0
LINE
  5
9084
330
1F
100
AcDbEntity
  8
CONTINUOUS1
100
AcDbLine
 10
32.93578833072889
 20
25.83335868044993
 30
0.0
 11
32.84066484740668
 21
25.83335868044993
 31
0.0
  0
LINE
  5
9085
330
1F
100
AcDbEntity
  8
CONTINUOUS2
100
AcDbLine
 10
32.70486991539051
 20
27.21532369226282
 30
0.0
 11
32.70486991539051
 21
26.89756059126561
 31
0.0
  0
LINE
  5
9086
330
1F
100
AcDbEntity
  8
CONTINUOUS2
100
AcDbLine
 10
32.70486991539051
 20
27.48282824274268
 30
0.0
 11
32.70486991539051
 21
27.21532369226282
 31
0.0
  0
LINE
  5
9087
330
1F
100
AcDbEntity
  8
CONTINUOUS2
100
AcDbLine
 10
32.94724784188875
 20
27.21532369226282
 30
0.0
 11
32.94724784188875
 21
27.48282824274268
 31
0.0
  0
LINE
  5
9088
330
1F
100
AcDbEntity
  8
CONTINUOUS1
100
AcDbLine
 10
32.84066484740668
 20
26.08138464417659
 30
0.0
 11
32.84066484740668
 21
26.89756059126561
 31
0.0
  0
LINE
  5
9089
330
1F
100
AcDbEntity
  8
CONTINUOUS1
100
AcDbLine
 10
32.84066484740668
 20
25.83335868044993
 30
0.0
 11
32.84066484740668
 21
26.08138464417659
 31
0.0
  0
LINE
  5
908A
330
1F
100
AcDbEntity
  8
CONTINUOUS2
100
AcDbLine
 10
32.70486991539051
 20
26.89756059126561
 30
0.0
 11
32.70486991539051
 21
21.14574150563814
 31
0.0
  0
LINE
  5
908B
330
1F
100
AcDbEntity
  8
CONTINUOUS2
100
AcDbLine
 10
32.70486991539051
 20
19.44574150563814
 30
0.0
 11
32.55695530236286
 21
16.52634805482579
 31
0.0
  0
LINE
  5
908C
330
1F
100
AcDbEntity
  8
CONTINUOUS1
100
AcDbLine
 10
32.70575427446763
 20
19.44574150563814
 30
0.0
 11
32.9357883307289
 21
19.44574150563814
 31
0.0
  0
CIRCLE
  5
908D
330
1F
100
AcDbEntity
  8
CONTINUOUS2
100
AcDbCircle
 10
31.49703636276122
 20
26.26309792493851
 30
0.0
 40
0.16
  0
CIRCLE
  5
908E
330
1F
100
AcDbEntity
  8
CONTINUOUS1
100
AcDbCircle
 10
31.49703636276122
 20
26.26309792493851
 30
0.0
 40
0.16
  0
CIRCLE
  5
9090
330
1F
100
AcDbEntity
  8
CONTINUOUS2
100
AcDbCircle
 10
30.31389152567646
 20
22.32292789757742
 30
0.0
 40
0.16
  0
CIRCLE
  5
9091
330
1F
100
AcDbEntity
  8
CONTINUOUS1
100
AcDbCircle
 10
30.31389152567646
 20
22.32292789757742
 30
0.0
 40
0.16
  0
LINE
  5
9096
330
1F
100
AcDbEntity
  8
PHANTOM1
  6
PHANTOM
 62
   254
100
AcDbLine
 10
31.45372927428969
 20
23.32609005092277
 30
0.0
 11
31.45372927383749
 21
25.53081446037158
 31
0.0
  0
LINE
  5
9097
330
1F
100
AcDbEntity
  8
PHANTOM1
  6
PHANTOM
 62
   254
100
AcDbLine
 10
30.64664266002089
 20
23.7920085092026
 30
0.0
 11
30.64664265973397
 21
25.19088036439805
 31
0.0
  0
LINE
  5
9098
330
1F
100
AcDbEntity
  8
PHANTOM1
  6
PHANTOM
 62
   254
100
AcDbLine
 10
31.19782376238309
 20
23.7920085092026
 30
0.0
 11
31.19782376209619
 21
25.19088036439805
 31
0.0
  0
LINE
  5
9099
330
1F
100
AcDbEntity
  8
PHANTOM1
  6
PHANTOM
 62
   254
100
AcDbLine
 10
30.66632891334473
 20
24.2319425300724
 30
0.0
 11
30.66632891317309
 21
25.06877538029021
 31
0.0
  0
LINE
  5
909A
330
1F
100
AcDbEntity
  8
PHANTOM1
  6
PHANTOM
 62
   254
100
AcDbLine
 10
32.69388671134115
 20
23.11349162572591
 30
0.0
 11
32.69388671081305
 21
25.68829477533221
 31
0.0
  0
LINE
  5
909B
330
1F
100
AcDbEntity
  8
PHANTOM1
  6
PHANTOM
 62
   254
100
AcDbLine
 10
29.15057971134115
 20
23.11349162572591
 30
0.0
 11
29.15057971081305
 21
25.68829477533221
 31
0.0
  0
LINE
  5
909C
330
1F
100
AcDbEntity
  8
PHANTOM1
  6
PHANTOM
 62
   254
100
AcDbLine
 10
31.17813991334473
 20
24.2319425300724
 30
0.0
 11
31.17813991317309
 21
25.06877538029021
 31
0.0
  0
LINE
  5
909D
330
1F
100
AcDbEntity
  8
PHANTOM1
  6
PHANTOM
 62
   254
100
AcDbLine
 10
30.39073714830543
 20
23.32609005092277
 30
0.0
 11
30.39073714785323
 21
25.53081446037158
 31
0.0
  0
LINE
  5
909E
330
1F
100
AcDbEntity
  8
PHANTOM1
  6
PHANTOM
 62
   254
100
AcDbLine
 10
30.39073715016279
 20
23.32609005092277
 30
0.0
 11
31.45372927614705
 21
23.32609005092277
 31
0.0
  0
LINE
  5
909F
330
1F
100
AcDbEntity
  8
PHANTOM1
  6
PHANTOM
 62
   254
100
AcDbLine
 10
29.15057971315491
 20
23.11349162572591
 30
0.0
 11
32.69388671315491
 21
23.11349162572591
 31
0.0
  0
LINE
  5
90A0
330
1F
100
AcDbEntity
  8
PHANTOM1
  6
PHANTOM
 62
   254
100
AcDbLine
 10
29.15057971315491
 20
21.87333414541095
 30
0.0
 11
32.69388671315491
 21
21.87333414541095
 31
0.0
  0
LINE
  5
90A1
330
1F
100
AcDbEntity
  8
PHANTOM1
  6
PHANTOM
 62
   254
100
AcDbLine
 10
29.15057971146069
 20
22.53066298095059
 30
0.0
 11
29.15057971134115
 21
23.11349162572591
 31
0.0
  0
ARC
  5
90A2
330
1F
100
AcDbEntity
  8
PHANTOM1
  6
PHANTOM
 62
   254
100
AcDbCircle
 10
29.77262691394232
 20
22.32609005092277
 30
0.0
 40
0.1968503937007906
100
AcDbArc
 50
180.0
 51
0.0
  0
ARC
  5
90A3
330
1F
100
AcDbEntity
  8
PHANTOM1
  6
PHANTOM
 62
   254
100
AcDbCircle
 10
29.77262691394232
 20
22.32609005092277
 30
0.0
 40
0.1968503937007906
100
AcDbArc
 50
359.9999945286526
 51
180.0
  0
ARC
  5
90A4
330
1F
100
AcDbEntity
  8
PHANTOM1
  6
PHANTOM
 62
   254
100
AcDbCircle
 10
29.15057971315491
 20
22.32609010865779
 30
0.0
 40
0.08858267716536
100
AcDbArc
 50
270.0
 51
0.0
  0
LINE
  5
90A5
330
1F
100
AcDbEntity
  8
PHANTOM1
  6
PHANTOM
 62
   254
100
AcDbLine
 10
29.15057971315491
 20
22.12151712089496
 30
0.0
 11
29.32774515408817
 21
22.22380363590885
 31
0.0
  0
LINE
  5
90A6
330
1F
100
AcDbEntity
  8
PHANTOM1
  6
PHANTOM
 62
   254
100
AcDbLine
 10
29.15057971154461
 20
22.12151712089496
 30
0.0
 11
29.15057971152083
 21
22.23750747370001
 31
0.0
  0
LINE
  5
90A7
330
1F
100
AcDbEntity
  8
PHANTOM1
  6
PHANTOM
 62
   254
100
AcDbLine
 10
29.15057971159551
 20
21.87333414541095
 30
0.0
 11
29.15057971154461
 21
22.12151712089496
 31
0.0
  0
LINE
  5
90A8
330
1F
100
AcDbEntity
  8
PHANTOM1
  6
PHANTOM
 62
   254
100
AcDbLine
 10
29.15057971315491
 20
22.53066298095059
 30
0.0
 11
29.32774515408817
 21
22.42837646593667
 31
0.0
  0
ARC
  5
90A9
330
1F
100
AcDbEntity
  8
PHANTOM1
  6
PHANTOM
 62
   254
100
AcDbCircle
 10
29.15057971315491
 20
22.32609010865779
 30
0.0
 40
0.08858267716536
100
AcDbArc
 50
0.0
 51
90.0
  0
LINE
  5
90AA
330
1F
100
AcDbEntity
  8
PHANTOM1
  6
PHANTOM
 62
   254
100
AcDbLine
 10
29.15057971148455
 20
22.41467285908565
 30
0.0
 11
29.15057971146077
 21
22.53066309642063
 31
0.0
  0
LINE
  5
90AB
330
1F
100
AcDbEntity
  8
PHANTOM1
  6
PHANTOM
 62
   254
100
AcDbLine
 10
29.32774506585435
 20
22.22380348590885
 30
0.0
 11
29.32774506581239
 21
22.42837661593668
 31
0.0
  0
ARC
  5
90AC
330
1F
100
AcDbEntity
  8
PHANTOM1
  6
PHANTOM
 62
   254
100
AcDbCircle
 10
30.92223321315492
 20
22.32609005092277
 30
0.0
 40
0.1968503937007888
100
AcDbArc
 50
180.0
 51
0.0
  0
ARC
  5
90AD
330
1F
100
AcDbEntity
  8
PHANTOM1
  6
PHANTOM
 62
   254
100
AcDbCircle
 10
30.31625303719226
 20
22.35713482869484
 30
0.0
 40
0.1574803149606312
100
AcDbArc
 50
359.9999945286496
 51
180.0
  0
ARC
  5
90AE
330
1F
100
AcDbEntity
  8
PHANTOM1
  6
PHANTOM
 62
   254
100
AcDbCircle
 10
30.92223321315492
 20
22.32609005092277
 30
0.0
 40
0.1968503937007897
100
AcDbArc
 50
359.9999945286526
 51
180.0
  0
ARC
  5
90AF
330
1F
100
AcDbEntity
  8
PHANTOM1
  6
PHANTOM
 62
   254
100
AcDbCircle
 10
30.31625303719226
 20
22.27839467121452
 30
0.0
 40
0.1574803149606305
100
AcDbArc
 50
180.0
 51
0.0
  0
LINE
  5
90B0
330
1F
100
AcDbEntity
  8
PHANTOM1
  6
PHANTOM
 62
   254
100
AcDbLine
 10
30.15877272224777
 20
22.27839447121452
 30
0.0
 11
30.15877272223163
 21
22.35713482869484
 31
0.0
  0
LINE
  5
90B1
330
1F
100
AcDbEntity
  8
PHANTOM1
  6
PHANTOM
 62
   254
100
AcDbLine
 10
30.47373335216903
 20
22.27839447121452
 30
0.0
 11
30.47373335215289
 21
22.35713482869484
 31
0.0
  0
ARC
  5
90B2
330
1F
100
AcDbEntity
  8
PHANTOM1
  6
PHANTOM
 62
   254
100
AcDbCircle
 10
30.92223321315492
 20
22.79853099580465
 30
0.0
 40
0.1673228346456703
100
AcDbArc
 50
180.0
 51
0.0
  0
ARC
  5
90B3
330
1F
100
AcDbEntity
  8
PHANTOM1
  6
PHANTOM
 62
   254
100
AcDbCircle
 10
30.92223321315492
 20
22.79853099580465
 30
0.0
 40
0.1673228346456711
100
AcDbArc
 50
359.9999945286542
 51
180.0
  0
LINE
  5
90B4
330
1F
100
AcDbEntity
  8
PHANTOM1
  6
PHANTOM
 62
   254
100
AcDbLine
 10
30.91350211471579
 20
22.84372379740337
 30
0.0
 11
30.99589463047775
 21
22.92611631316533
 31
0.0
  0
LINE
  5
90B5
330
1F
100
AcDbEntity
  8
PHANTOM1
  6
PHANTOM
 62
   254
100
AcDbLine
 10
30.94827974970931
 20
22.82364492047809
 30
0.0
 11
30.96573687662717
 21
22.81356604355279
 31
0.0
  0
LINE
  5
90B6
330
1F
100
AcDbEntity
  8
PHANTOM1
  6
PHANTOM
 62
   254
100
AcDbLine
 10
30.96573687662717
 20
22.81356604355279
 30
0.0
 11
30.99589463047775
 21
22.92611631316533
 31
0.0
  0
LINE
  5
90B7
330
1F
100
AcDbEntity
  8
PHANTOM1
  6
PHANTOM
 62
   254
100
AcDbLine
 10
30.83991154179423
 20
22.67594567844397
 30
0.0
 11
30.85723204986993
 21
22.66594567844397
 31
0.0
  0
LINE
  5
90B8
330
1F
100
AcDbEntity
  8
PHANTOM1
  6
PHANTOM
 62
   254
100
AcDbLine
 10
30.85723204986993
 20
22.66594567844397
 30
0.0
 11
30.94827974970931
 21
22.82364492047809
 31
0.0
  0
LINE
  5
90B9
330
1F
100
AcDbEntity
  8
PHANTOM1
  6
PHANTOM
 62
   254
100
AcDbLine
 10
30.83991154179423
 20
22.67594567844397
 30
0.0
 11
30.93095924163363
 21
22.83364492047809
 31
0.0
  0
LINE
  5
90BA
330
1F
100
AcDbEntity
  8
PHANTOM1
  6
PHANTOM
 62
   254
100
AcDbLine
 10
30.91350211471579
 20
22.84372379740337
 30
0.0
 11
30.93095924163363
 21
22.83364492047809
 31
0.0
  0
LINE
  5
90BB
330
1F
100
AcDbEntity
  8
PHANTOM1
  6
PHANTOM
 62
   254
100
AcDbLine
 10
30.66632891342453
 20
23.84284156396885
 30
0.0
 11
30.66632891341939
 21
23.86795010867387
 31
0.0
  0
LINE
  5
90BC
330
1F
100
AcDbEntity
  8
PHANTOM1
  6
PHANTOM
 62
   254
100
AcDbLine
 10
31.17813991342453
 20
23.84284156396885
 30
0.0
 11
31.17813991341939
 21
23.86795010867387
 31
0.0
  0
LINE
  5
90BD
330
1F
100
AcDbEntity
  8
PHANTOM1
  6
PHANTOM
 62
   254
100
AcDbLine
 10
30.66632891344743
 20
23.73122489395867
 30
0.0
 11
30.66632891342453
 21
23.84284156396883
 31
0.0
  0
LINE
  5
90BE
330
1F
100
AcDbEntity
  8
PHANTOM1
  6
PHANTOM
 62
   254
100
AcDbLine
 10
30.66632891538789
 20
23.73122489395866
 30
0.0
 11
31.17813991538789
 21
23.73122489395866
 31
0.0
  0
LINE
  5
90BF
330
1F
100
AcDbEntity
  8
PHANTOM1
  6
PHANTOM
 62
   254
100
AcDbLine
 10
30.66632891345009
 20
23.71827416210613
 30
0.0
 11
30.66632891344743
 21
23.73122489395866
 31
0.0
  0
LINE
  5
90C0
330
1F
100
AcDbEntity
  8
PHANTOM1
  6
PHANTOM
 62
   254
100
AcDbLine
 10
30.66632891345009
 20
23.71827416210613
 30
0.0
 11
30.66632891344987
 21
23.71934672846164
 31
0.0
  0
LINE
  5
90C1
330
1F
100
AcDbEntity
  8
PHANTOM1
  6
PHANTOM
 62
   254
100
AcDbLine
 10
30.66632891538789
 20
23.71827416210613
 30
0.0
 11
30.92223441538789
 21
23.71827416210613
 31
0.0
  0
LINE
  5
90C2
330
1F
100
AcDbEntity
  8
PHANTOM1
  6
PHANTOM
 62
   254
100
AcDbLine
 10
30.92223441538789
 20
23.71827416210613
 30
0.0
 11
31.17813991538789
 21
23.71827416210613
 31
0.0
  0
LINE
  5
90C3
330
1F
100
AcDbEntity
  8
PHANTOM1
  6
PHANTOM
 62
   254
100
AcDbLine
 10
30.64664256197381
 20
23.7920085092026
 30
0.0
 11
31.19782386433601
 21
23.7920085092026
 31
0.0
  0
LINE
  5
90C4
330
1F
100
AcDbEntity
  8
PHANTOM1
  6
PHANTOM
 62
   254
100
AcDbLine
 10
31.17813991344743
 20
23.73122489395867
 30
0.0
 11
31.17813991342453
 21
23.84284156396883
 31
0.0
  0
LINE
  5
90C5
330
1F
100
AcDbEntity
  8
PHANTOM1
  6
PHANTOM
 62
   254
100
AcDbLine
 10
31.17813991345009
 20
23.71827416210613
 30
0.0
 11
31.17813991344743
 21
23.73122489395866
 31
0.0
  0
LINE
  5
90C6
330
1F
100
AcDbEntity
  8
PHANTOM1
  6
PHANTOM
 62
   254
100
AcDbLine
 10
31.17813991345009
 20
23.71827416210613
 30
0.0
 11
31.17813991344987
 21
23.71934672846164
 31
0.0
  0
LINE
  5
90C7
330
1F
100
AcDbEntity
  8
PHANTOM1
  6
PHANTOM
 62
   254
100
AcDbLine
 10
30.66632891538789
 20
23.84284156396883
 30
0.0
 11
31.17813991538789
 21
23.84284156396883
 31
0.0
  0
LINE
  5
90C8
330
1F
100
AcDbEntity
  8
PHANTOM1
  6
PHANTOM
 62
   254
100
AcDbLine
 10
30.66632891341939
 20
23.86795010867393
 30
0.0
 11
30.66632891336353
 21
24.14026244491999
 31
0.0
  0
LINE
  5
90C9
330
1F
100
AcDbEntity
  8
PHANTOM1
  6
PHANTOM
 62
   254
100
AcDbLine
 10
30.66632891336353
 20
24.14026244492156
 30
0.0
 11
30.66632891334473
 21
24.23194253007527
 31
0.0
  0
LINE
  5
90CA
330
1F
100
AcDbEntity
  8
PHANTOM1
  6
PHANTOM
 62
   254
100
AcDbLine
 10
31.17813991341939
 20
23.86795010867393
 30
0.0
 11
31.17813991336353
 21
24.14026244491999
 31
0.0
  0
LINE
  5
90CB
330
1F
100
AcDbEntity
  8
PHANTOM1
  6
PHANTOM
 62
   254
100
AcDbLine
 10
31.17813991336353
 20
24.14026244492156
 30
0.0
 11
31.17813991334473
 21
24.23194253007527
 31
0.0
  0
LINE
  5
90CC
330
1F
100
AcDbEntity
  8
PHANTOM1
  6
PHANTOM
 62
   254
100
AcDbLine
 10
30.64664266197381
 20
23.97559420138959
 30
0.0
 11
30.66632891538789
 21
23.97559420138959
 31
0.0
  0
LINE
  5
90CD
330
1F
100
AcDbEntity
  8
PHANTOM1
  6
PHANTOM
 62
   254
100
AcDbLine
 10
31.17813991538789
 20
23.97559420138959
 30
0.0
 11
31.19782376433601
 21
23.97559420138959
 31
0.0
  0
LINE
  5
90CE
330
1F
100
AcDbEntity
  8
PHANTOM1
  6
PHANTOM
 62
   254
100
AcDbLine
 10
30.66632891538789
 20
23.86795010867387
 30
0.0
 11
31.17813991538789
 21
23.86795010867387
 31
0.0
  0
LINE
  5
90CF
330
1F
100
AcDbEntity
  8
PHANTOM1
  6
PHANTOM
 62
   254
100
AcDbLine
 10
30.66632891538789
 20
24.14026244491999
 30
0.0
 11
31.17813991538789
 21
24.14026244491999
 31
0.0
  0
LINE
  5
90D0
330
1F
100
AcDbEntity
  8
PHANTOM1
  6
PHANTOM
 62
   254
100
AcDbLine
 10
30.66632891538789
 20
24.23194253007527
 30
0.0
 11
31.17813991538789
 21
24.23194253007527
 31
0.0
  0
LINE
  5
90D1
330
1F
100
AcDbEntity
  8
PHANTOM1
  6
PHANTOM
 62
   254
100
AcDbLine
 10
32.69388671146069
 20
22.53066298095059
 30
0.0
 11
32.69388671134115
 21
23.11349162572591
 31
0.0
  0
ARC
  5
90D2
330
1F
100
AcDbEntity
  8
PHANTOM1
  6
PHANTOM
 62
   254
100
AcDbCircle
 10
32.07183951236751
 20
22.32609005092277
 30
0.0
 40
0.1968503937007782
100
AcDbArc
 50
180.0
 51
0.0
  0
ARC
  5
90D3
330
1F
100
AcDbEntity
  8
PHANTOM1
  6
PHANTOM
 62
   254
100
AcDbCircle
 10
31.49703636276122
 20
22.32292789757742
 30
0.0
 40
0.1574803149606303
100
AcDbArc
 50
359.9999945286564
 51
180.0
  0
ARC
  5
90D4
330
1F
100
AcDbEntity
  8
PHANTOM1
  6
PHANTOM
 62
   254
100
AcDbCircle
 10
32.07183951236752
 20
22.32609005092277
 30
0.0
 40
0.196850393700779
100
AcDbArc
 50
359.9999945286526
 51
180.0
  0
ARC
  5
90D5
330
1F
100
AcDbEntity
  8
PHANTOM1
  6
PHANTOM
 62
   254
100
AcDbCircle
 10
31.49703636276122
 20
22.32292789757742
 30
0.0
 40
0.1574803149606296
100
AcDbArc
 50
180.0
 51
0.0
  0
ARC
  5
90D6
330
1F
100
AcDbEntity
  8
PHANTOM1
  6
PHANTOM
 62
   254
100
AcDbCircle
 10
32.69388671315491
 20
22.32609010865779
 30
0.0
 40
0.0885826771653609
100
AcDbArc
 50
180.0
 51
270.0
  0
LINE
  5
90D7
330
1F
100
AcDbEntity
  8
PHANTOM1
  6
PHANTOM
 62
   254
100
AcDbLine
 10
32.51672127222167
 20
22.22380363590885
 30
0.0
 11
32.69388671315491
 21
22.12151712089496
 31
0.0
  0
LINE
  5
90D8
330
1F
100
AcDbEntity
  8
PHANTOM1
  6
PHANTOM
 62
   254
100
AcDbLine
 10
32.69388671154461
 20
22.12151712089496
 30
0.0
 11
32.69388671152083
 21
22.23750747370001
 31
0.0
  0
LINE
  5
90D9
330
1F
100
AcDbEntity
  8
PHANTOM1
  6
PHANTOM
 62
   254
100
AcDbLine
 10
32.69388671159551
 20
21.87333414541095
 30
0.0
 11
32.69388671154461
 21
22.12151712089496
 31
0.0
  0
ARC
  5
90DA
330
1F
100
AcDbEntity
  8
PHANTOM1
  6
PHANTOM
 62
   254
100
AcDbCircle
 10
32.69388671315491
 20
22.32609010865779
 30
0.0
 40
0.0885826771653609
100
AcDbArc
 50
90.0
 51
180.0
  0
LINE
  5
90DB
330
1F
100
AcDbEntity
  8
PHANTOM1
  6
PHANTOM
 62
   254
100
AcDbLine
 10
32.51672135719293
 20
22.22380348590885
 30
0.0
 11
32.51672135715097
 21
22.42837661593668
 31
0.0
  0
LINE
  5
90DC
330
1F
100
AcDbEntity
  8
PHANTOM1
  6
PHANTOM
 62
   254
100
AcDbLine
 10
32.69388671148449
 20
22.41467285908565
 30
0.0
 11
32.69388671146069
 21
22.53066309642063
 31
0.0
  0
LINE
  5
90DD
330
1F
100
AcDbEntity
  8
PHANTOM1
  6
PHANTOM
 62
   254
100
AcDbLine
 10
32.51672127222167
 20
22.42837646593667
 30
0.0
 11
32.69388671315491
 21
22.53066298095059
 31
0.0
  0
LINE
  5
90DE
330
1F
100
AcDbEntity
  8
PHANTOM1
  6
PHANTOM
 62
   254
100
AcDbLine
 10
30.39073715016279
 20
25.53081446037158
 30
0.0
 11
31.45372927614705
 21
25.53081446037158
 31
0.0
  0
LINE
  5
90DF
330
1F
100
AcDbEntity
  8
PHANTOM1
  6
PHANTOM
 62
   254
100
AcDbLine
 10
29.15057971315491
 20
25.68829477533221
 30
0.0
 11
32.69388671315491
 21
25.68829477533221
 31
0.0
  0
LINE
  5
90E0
330
1F
100
AcDbEntity
  8
PHANTOM1
  6
PHANTOM
 62
   254
100
AcDbLine
 10
29.15057971315491
 20
26.59774359422986
 30
0.0
 11
32.69388671315491
 21
26.59774359422986
 31
0.0
  0
ARC
  5
90E1
330
1F
100
AcDbEntity
  8
PHANTOM1
  6
PHANTOM
 62
   254
100
AcDbCircle
 10
30.34743006354862
 20
26.26309792493851
 30
0.0
 40
0.1574803149606312
100
AcDbArc
 50
179.9999945286567
 51
0.0
  0
ARC
  5
90E2
330
1F
100
AcDbEntity
  8
PHANTOM1
  6
PHANTOM
 62
   254
100
AcDbCircle
 10
29.15057971315492
 20
26.26309786720348
 30
0.0
 40
0.0885826771653488
100
AcDbArc
 50
359.9999945286518
 51
90.00000000000746
  0
ARC
  5
90E3
330
1F
100
AcDbEntity
  8
PHANTOM1
  6
PHANTOM
 62
   254
100
AcDbCircle
 10
30.92223321315492
 20
26.14498768871803
 30
0.0
 40
0.1968503937007897
100
AcDbArc
 50
179.9999945286521
 51
0.0
  0
ARC
  5
90E4
330
1F
100
AcDbEntity
  8
PHANTOM1
  6
PHANTOM
 62
   254
100
AcDbCircle
 10
30.34743006354862
 20
26.26309792493851
 30
0.0
 40
0.1574803149606305
100
AcDbArc
 50
0.0
 51
180.0000054713425
  0
ARC
  5
90E5
330
1F
100
AcDbEntity
  8
PHANTOM1
  6
PHANTOM
 62
   254
100
AcDbCircle
 10
30.92223321315492
 20
26.14498768871803
 30
0.0
 40
0.1968503937007906
100
AcDbArc
 50
0.0
 51
180.0000054713416
  0
ARC
  5
90E6
330
1F
100
AcDbEntity
  8
PHANTOM1
  6
PHANTOM
 62
   254
100
AcDbCircle
 10
29.77262691394232
 20
26.14498768871803
 30
0.0
 40
0.1968503937007906
100
AcDbArc
 50
0.0
 51
180.0000054713416
  0
ARC
  5
90E7
330
1F
100
AcDbEntity
  8
PHANTOM1
  6
PHANTOM
 62
   254
100
AcDbCircle
 10
29.77262691394232
 20
26.14498768871803
 30
0.0
 40
0.1968503937007906
100
AcDbArc
 50
179.9999945286521
 51
0.0
  0
LINE
  5
90E8
330
1F
100
AcDbEntity
  8
PHANTOM1
  6
PHANTOM
 62
   254
100
AcDbLine
 10
29.32774506504685
 20
26.16081135992462
 30
0.0
 11
29.32774506500489
 21
26.36538448995241
 31
0.0
  0
LINE
  5
90E9
330
1F
100
AcDbEntity
  8
PHANTOM1
  6
PHANTOM
 62
   254
100
AcDbLine
 10
29.15057971315491
 20
26.05852499491069
 30
0.0
 11
29.32774515408817
 21
26.16081150992459
 31
0.0
  0
ARC
  5
90EA
330
1F
100
AcDbEntity
  8
PHANTOM1
  6
PHANTOM
 62
   254
100
AcDbCircle
 10
29.15057971315491
 20
26.26309786720349
 30
0.0
 40
0.0885826771653609
100
AcDbArc
 50
270.0
 51
0.0
  0
LINE
  5
90EB
330
1F
100
AcDbEntity
  8
PHANTOM1
  6
PHANTOM
 62
   254
100
AcDbLine
 10
29.15057971073713
 20
26.05852487944063
 30
0.0
 11
29.15057971071333
 21
26.17451511677562
 31
0.0
  0
LINE
  5
90EC
330
1F
100
AcDbEntity
  8
PHANTOM1
  6
PHANTOM
 62
   254
100
AcDbLine
 10
29.15057971081303
 20
25.68829477533221
 30
0.0
 11
29.15057971073709
 21
26.05852499491069
 31
0.0
  0
LINE
  5
90ED
330
1F
100
AcDbEntity
  8
PHANTOM1
  6
PHANTOM
 62
   254
100
AcDbLine
 10
30.64664256197381
 20
25.19088025406027
 30
0.0
 11
31.19782386433601
 21
25.19088025406027
 31
0.0
  0
LINE
  5
90EE
330
1F
100
AcDbEntity
  8
PHANTOM1
  6
PHANTOM
 62
   254
100
AcDbLine
 10
30.64664266197381
 20
25.00729456187325
 30
0.0
 11
30.66632891538789
 21
25.00729456187325
 31
0.0
  0
LINE
  5
90EF
330
1F
100
AcDbEntity
  8
PHANTOM1
  6
PHANTOM
 62
   254
100
AcDbLine
 10
31.17813991538789
 20
25.00729456187325
 30
0.0
 11
31.19782376433601
 21
25.00729456187325
 31
0.0
  0
LINE
  5
90F0
330
1F
100
AcDbEntity
  8
PHANTOM1
  6
PHANTOM
 62
   254
100
AcDbLine
 10
30.66632880077943
 20
25.06877538011833
 30
0.0
 11
31.17814002999633
 21
25.06877538011833
 31
0.0
  0
LINE
  5
90F1
330
1F
100
AcDbEntity
  8
PHANTOM1
  6
PHANTOM
 62
   254
100
AcDbLine
 10
29.15057971315491
 20
26.46767085496634
 30
0.0
 11
29.32774515408817
 21
26.36538433995241
 31
0.0
  0
LINE
  5
90F2
330
1F
100
AcDbEntity
  8
PHANTOM1
  6
PHANTOM
 62
   254
100
AcDbLine
 10
29.15057971067699
 20
26.35168050216127
 30
0.0
 11
29.15057971065321
 21
26.46767085496634
 31
0.0
  0
LINE
  5
90F3
330
1F
100
AcDbEntity
  8
PHANTOM1
  6
PHANTOM
 62
   254
100
AcDbLine
 10
29.15057971065321
 20
26.46767085496634
 30
0.0
 11
29.15057971062653
 21
26.59774359422986
 31
0.0
  0
ARC
  5
90F4
330
1F
100
AcDbEntity
  8
PHANTOM1
  6
PHANTOM
 62
   254
100
AcDbCircle
 10
31.49703636276122
 20
26.26309792493851
 30
0.0
 40
0.1574803149606296
100
AcDbArc
 50
0.0
 51
180.0000054713425
  0
ARC
  5
90F5
330
1F
100
AcDbEntity
  8
PHANTOM1
  6
PHANTOM
 62
   254
100
AcDbCircle
 10
32.07183951236751
 20
26.14498768871803
 30
0.0
 40
0.196850393700779
100
AcDbArc
 50
179.9999945286521
 51
0.0
  0
ARC
  5
90F6
330
1F
100
AcDbEntity
  8
PHANTOM1
  6
PHANTOM
 62
   254
100
AcDbCircle
 10
32.07183951236751
 20
26.14498768871803
 30
0.0
 40
0.1968503937007799
100
AcDbArc
 50
0.0
 51
180.0000054713416
  0
ARC
  5
90F7
330
1F
100
AcDbEntity
  8
PHANTOM1
  6
PHANTOM
 62
   254
100
AcDbCircle
 10
32.6938867131549
 20
26.26309786720348
 30
0.0
 40
0.0885826771653502
100
AcDbArc
 50
89.99999999999195
 51
180.0000054713469
  0
ARC
  5
90F8
330
1F
100
AcDbEntity
  8
PHANTOM1
  6
PHANTOM
 62
   254
100
AcDbCircle
 10
31.49703636276122
 20
26.26309792493851
 30
0.0
 40
0.1574803149606303
100
AcDbArc
 50
179.9999945286567
 51
0.0
  0
ARC
  5
90F9
330
1F
100
AcDbEntity
  8
PHANTOM1
  6
PHANTOM
 62
   254
100
AcDbCircle
 10
32.69388671315491
 20
26.26309786720349
 30
0.0
 40
0.0885826771653612
100
AcDbArc
 50
179.9999945286588
 51
270.0
  0
LINE
  5
90FA
330
1F
100
AcDbEntity
  8
PHANTOM1
  6
PHANTOM
 62
   254
100
AcDbLine
 10
32.51672127222167
 20
26.16081150992459
 30
0.0
 11
32.69388671315491
 21
26.05852499491069
 31
0.0
  0
LINE
  5
90FB
330
1F
100
AcDbEntity
  8
PHANTOM1
  6
PHANTOM
 62
   254
100
AcDbLine
 10
32.69388671081305
 20
25.68829477533221
 30
0.0
 11
32.69388671073713
 21
26.05852499491069
 31
0.0
  0
LINE
  5
90FC
330
1F
100
AcDbEntity
  8
PHANTOM1
  6
PHANTOM
 62
   254
100
AcDbLine
 10
32.69388671073713
 20
26.05852487944063
 30
0.0
 11
32.69388671071332
 21
26.17451511677562
 31
0.0
  0
LINE
  5
90FD
330
1F
100
AcDbEntity
  8
PHANTOM1
  6
PHANTOM
 62
   254
100
AcDbLine
 10
32.51672127222167
 20
26.36538433995241
 30
0.0
 11
32.69388671315491
 21
26.46767085496634
 31
0.0
  0
LINE
  5
90FE
330
1F
100
AcDbEntity
  8
PHANTOM1
  6
PHANTOM
 62
   254
100
AcDbLine
 10
32.69388671065321
 20
26.46767085496634
 30
0.0
 11
32.69388671062653
 21
26.59774359422986
 31
0.0
  0
LINE
  5
90FF
330
1F
100
AcDbEntity
  8
PHANTOM1
  6
PHANTOM
 62
   254
100
AcDbLine
 10
32.69388671067699
 20
26.35168050216127
 30
0.0
 11
32.69388671065321
 21
26.46767085496634
 31
0.0
  0
LINE
  5
9100
330
1F
100
AcDbEntity
  8
CONTINUOUS1
100
AcDbLine
 10
32.69409953539724
 20
23.70135957124947
 30
0.0
 11
30.28490460904982
 21
23.70135957124947
 31
0.0
  0
LINE
  5
9101
330
1F
100
AcDbEntity
  8
CONTINUOUS1
100
AcDbLine
 10
30.28490460904982
 20
23.70135957124947
 30
0.0
 11
30.28490460904982
 21
24.6951032704207
 31
0.0
  0
LINE
  5
9102
330
1F
100
AcDbEntity
  8
CONTINUOUS1
100
AcDbLine
 10
30.28490460904982
 20
24.6951032704207
 30
0.0
 11
32.70645437294451
 21
24.6951032704207
 31
0.0
  0
LWPOLYLINE
  5
9103
330
1F
100
AcDbEntity
  8
CONTINUOUS1
100
AcDbPolyline
 90
        4
 70
     1
 43
0.0
 10
30.60613051899805
 20
23.76311047505181
 10
30.60613051899805
 20
24.13361589786592
 10
31.23622776878532
 20
24.13361589786592
 10
31.23622776878532
 20
23.76311047505181
  0
LINE
  5
9104
330
1F
100
AcDbEntity
  8
CONTINUOUS2
100
AcDbLine
 10
32.40521639570025
 20
19.54574150563814
 30
0.0
 11
32.40521639570025
 21
19.44574150563814
 31
0.0
  0
LINE
  5
9105
330
1F
100
AcDbEntity
  8
PHANTOM1
  6
PHANTOM
 62
   254
100
AcDbLine
 10
32.51672127226363
 20
26.16081120992459
 30
0.0
 11
32.51672127222167
 21
26.36538433995241
 31
0.0
  0
DIMENSION
  5
9106
330
1F
100
AcDbEntity
  8
DIM
100
AcDbDimension
  2
*D12
 10
26.5298227360151
 20
22.32292789757742
 30
0.0
 11
26.5298227360151
 21
24.29301291125797
 31
0.0
 70
   160
  3
SCHNEIDERELECTRIC
100
AcDbAlignedDimension
 13
30.31389152567646
 23
26.26309792493851
 33
0.0
 14
31.49703636276122
 24
22.32292789757742
 34
0.0
 50
90.0
100
AcDbRotatedDimension
1001
ACAD
1000
DSTYLE
1002
{
1070
    40
1040
4.0
1002
}
  0
TEXT
  5
9107
330
1F
100
AcDbEntity
  8
TEXT1
100
AcDbText
 10
1.384938383291696
 20
39.11487028207672
 30
0.0
 40
0.39995
  1
CABLE MECHANISMS FOR USE WITH CLASS 9422
  7
SIMPLEX
100
AcDbText
  0
TEXT
  5
9108
330
1F
100
AcDbEntity
  8
TEXT1
100
AcDbText
 10
1.384938383291696
 20
38.25971403207672
 30
0.0
 40
0.39995
  1
TYPE GJL 75 AMPERE FRAME CIRCUIT BREAKER.
  7
SIMPLEX
100
AcDbText
  0
LINE
  5
9109
330
1F
100
AcDbEntity
  8
CONTINUOUS2
100
AcDbLine
 10
33.14934802386953
 20
19.54574150563814
 30
0.0
 11
33.14934802386953
 21
19.84574150563814
 31
0.0
  0
LINE
  5
910A
330
1F
100
AcDbEntity
  8
CONTINUOUS2
100
AcDbLine
 10
33.26355309185336
 20
19.44574150563814
 30
0.0
 11
32.94527237260133
 21
19.44574150563814
 31
0.0
  0
LINE
  5
910B
330
1F
100
AcDbEntity
  8
CONTINUOUS2
100
AcDbLine
 10
33.14934802386953
 20
19.54574150563814
 30
0.0
 11
33.26355309185336
 21
19.54574150563814
 31
0.0
  0
LINE
  5
910C
330
1F
100
AcDbEntity
  8
CONTINUOUS2
100
AcDbLine
 10
33.26355309185336
 20
19.54574150563814
 30
0.0
 11
33.26355309185336
 21
19.44574150563814
 31
0.0
  0
LINE
  5
910D
330
1F
100
AcDbEntity
  8
CONTINUOUS2
100
AcDbLine
 10
33.14934802386953
 20
19.84574150563814
 30
0.0
 11
32.94527237260133
 21
19.84574150563814
 31
0.0
  0
LINE
  5
910E
330
1F
100
AcDbEntity
  8
CONTINUOUS2
100
AcDbLine
 10
32.93578833072889
 20
18.09621357044398
 30
0.0
 11
32.94527237260133
 21
19.44574150563814
 31
0.0
  0
LINE
  5
910F
330
1F
100
AcDbEntity
  8
CONTINUOUS2
100
AcDbLine
 10
32.94527237260133
 20
26.89756059126561
 30
0.0
 11
32.94527237260133
 21
19.44574150563814
 31
0.0
  0
DIMENSION
  5
9379
330
1F
100
AcDbEntity
  8
DIM
100
AcDbDimension
  2
*D13
 10
31.49703636276122
 20
33.3306153919019
 30
0.0
 11
32.74641234674506
 21
33.3306153919019
 31
0.0
 70
   160
  1
\P\P<>\PMIN.
  3
SCHNEIDERELECTRIC
100
AcDbAlignedDimension
 13
33.9957883307289
 23
25.3504550649629
 33
0.0
 14
31.49703636276122
 24
26.26309792493851
 34
0.0
100
AcDbRotatedDimension
1001
ACAD
1000
DSTYLE
1002
{
1070
    40
1040
4.0
1002
}
  0
DIMENSION
  5
9387
330
1F
100
AcDbEntity
  8
DIM
100
AcDbDimension
  2
*D14
 10
31.49703636276122
 20
28.83188088719517
 30
0.0
 11
28.55285367750293
 21
28.83188088719517
 31
0.0
 70
   160
  1
\P<>
  3
SCHNEIDERELECTRIC
100
AcDbAlignedDimension
 13
30.31389152567646
 23
26.49488476285302
 33
0.0
 14
31.49703636276122
 24
26.32559792493851
 34
0.0
100
AcDbRotatedDimension
1001
ACAD
1000
DSTYLE
1002
{
1070
    40
1040
4.0
1002
}
  0
VIEWPORT
  5
32
330
1B
100
AcDbEntity
 67
     1
  8
0
100
AcDbViewport
 10
8.200294961817053
 20
5.289035598983839
 30
0.0
 40
18.78165491370674
 41
10.98127397933321
 68
     2
 69
     1
1001
ACAD
1000
MVIEW
1002
{
1070
    16
1010
0.0
1020
0.0
1030
0.0
1010
0.0
1020
0.0
1030
1.0
1040
0.0
1040
10.98127397933321
1040
8.200294961817053
1040
5.289035598983839
1040
50.0
1040
0.0
1040
0.0
1070
     0
1070
   100
1070
     1
1070
     0
1070
     0
1070
     0
1070
     0
1070
     0
1040
0.0
1040
0.0
1040
0.0
1040
0.5
1040
0.5
1040
0.5
1040
0.5
1070
     0
1002
{
1002
}
1002
}
  0
LWPOLYLINE
  5
175
330
1B
100
AcDbEntity
 67
     1
  8
VIEWPORT
100
AcDbPolyline
 90
        6
 70
     1
 43
0.0
 10
16.40000099999999
 20
10.25
 10
16.40000099999999
 20
0.9120019999999993
 10
8.002461
 20
0.9120019999999993
 10
8.002461
 20
0.0
 10
0.0
 20
0.0
 10
0.0
 20
10.25
1001
GENIUS_GENOREF_13
1005
0
1005
0
1005
0
1005
0
1005
0
1005
0
1005
0
  0
VIEWPORT
  5
177
330
1B
100
AcDbEntity
 67
     1
  8
VIEWPORT
100
AcDbViewport
 10
8.200000499999999
 20
5.125
 30
0.0
 40
16.40000099999999
 41
10.25
 68
     1
 69
     2
1001
ACAD
1000
MVIEW
1002
{
1070
    16
1010
0.0
1020
0.0
1030
0.0
1010
0.0
1020
0.0
1030
1.0
1040
0.0
1040
41.0
1040
32.80000230548315
1040
20.61924431107597
1040
50.0
1040
0.0
1040
0.0
1070
     0
1070
   100
1070
     1
1070
     2
1070
     0
1070
     0
1070
     0
1070
     0
1040
0.0
1040
0.0
1040
0.0
1040
0.5
1040
0.5
1040
0.5
1040
0.5
1070
     0
1002
{
1002
}
1002
}
1001
GENIUS_GENOREF_13
1005
0
1005
0
1005
0
1005
0
1005
0
1005
0
1005
0
1001
GENIUS_GENSCREG_15
1000
PF
1040
0.0
1000
DF
1040
0.0
1000
MIN
1011
0.0
1021
0.0
1031
0.0
1000
MAX
1011
16.40000099999999
1021
10.25
1031
0.0
1000
FLAGS
1070
     2
  0
INSERT
  5
B2C
330
1B
100
AcDbEntity
 67
     1
  8
TITLEBLOCK
100
AcDbBlockReference
 66
     1
  2
TITLE-PAD
 10
0.0
 20
0.0
 30
0.0
  0
ATTRIB
  5
B2D
330
B2C
100
AcDbEntity
 67
     1
  8
TEXT1
 62
     0
100
AcDbText
 10
8.258981206080846
 20
0.6974460884590165
 30
0.0
 40
0.1
  1
CIRCUIT BREAKER CABLE OPERATOR MECHANISM
  7
ROMANS
 72
     4
 11
10.10183834893798
 21
0.7474460884590166
 31
0.0
100
AcDbAttribute
  2
DESCRIPTION 1
 70
     0
  0
ATTRIB
  5
B2E
330
B2C
100
AcDbEntity
 67
     1
  8
TEXT1
 62
     0
100
AcDbText
 10
9.582790729890369
 20
0.5517231711406716
 30
0.0
 40
0.1
  1
CLASS 9422 
  7
ROMANS
 72
     4
 11
10.10183834893798
 21
0.6017231711406717
 31
0.0
100
AcDbAttribute
  2
DESCRIPTION 2
 70
     0
  0
ATTRIB
  5
B2F
330
B2C
100
AcDbEntity
 67
     1
  8
TEXT1
 62
     0
100
AcDbText
 10
9.246600253699892
 20
0.4236193014413743
 30
0.0
 40
0.08
  1
TYPE CGJ30, CGJ50, CGJ10
  7
ROMANS
 72
     4
 11
10.10183834893798
 21
0.4560002538223267
 31
0.0
100
AcDbAttribute
  2
DESCRIPTION 3
 70
     0
  0
ATTRIB
  5
B30
330
B2C
100
AcDbEntity
 67
     1
  8
TEXT1
 62
     0
100
AcDbText
 10
9.981838348937989
 20
0.3202773365039833
 30
0.0
 40
0.08
  1
   
  7
ROMANS
 72
     4
 11
10.10183834893798
 21
0.3202773365039833
 31
0.0
100
AcDbAttribute
  2
DESCRIPTION 4
 70
     0
  0
ATTRIB
  5
B31
330
B2C
100
AcDbEntity
 67
     1
  8
TEXT1
 62
     0
100
AcDbText
 10
10.10183834893798
 20
0.1845544191856399
 30
0.0
 40
0.08
  1

  7
ROMANS
 72
     4
 11
10.10183834893798
 21
0.1845544191856399
 31
0.0
100
AcDbAttribute
  2
DESCRIPTION 5
 70
     0
  0
ATTRIB
  5
B32
330
B2C
100
AcDbEntity
 67
     1
  8
TEXT1
 62
     0
100
AcDbText
 10
12.74772367103195
 20
0.096540546036505
 30
0.0
 40
0.12
  1
9422 CGJ_OUTLINE-001
 41
0.9512024731840066
  7
M_STANDARD
 11
12.74772367103195
 21
0.156540546036505
 31
0.0
100
AcDbAttribute
  2
DWGNO
 70
     0
 74
     2
  0
ATTRIB
  5
B33
330
B2C
100
AcDbEntity
 67
     1
  8
TEXT1
 62
     0
100
AcDbText
 10
15.78363597806468
 20
-0.1507193079929352
 30
0.0
 40
0.08
  1
E0104901
  7
ROMANS
 72
     2
 11
16.35506454949325
 21
-0.1107193079929352
 31
0.0
100
AcDbAttribute
  2
REF
 70
     0
 74
     2
  0
ATTRIB
  5
B34
330
B2C
100
AcDbEntity
 67
     1
  8
TEXT1
 62
     0
100
AcDbText
 10
0.0266402374038712
 20
-0.1507193079929352
 30
0.0
 40
0.08
  1
FEBRUARY 2001
  7
ROMANS
 11
0.0266402374038712
 21
-0.1107193079929352
 31
0.0
100
AcDbAttribute
  2
DATE
 70
     0
 74
     2
  0
SEQEND
  5
B35
330
B2C
100
AcDbEntity
 67
     1
  8
0
  0
INSERT
  5
D86
330
1B
100
AcDbEntity
 67
     1
  8
TITLEBLOCK
100
AcDbBlockReference
  2
OEM-NOTES
 10
0.0
 20
0.0
 30
0.0
 41
0.5
 42
0.5
 43
0.5
  0
ENDSEC
  0
SECTION
  2
OBJECTS
  0
DICTIONARY
  5
C
330
0
100
AcDbDictionary
  3
ACAD_GROUP
350
D
  3
ACAD_LAYOUT
350
1A
  3
ACAD_MLINESTYLE
350
17
  3
ACAD_PLOTSETTINGS
350
19
  3
ACAD_PLOTSTYLENAME
350
E
  3
ACADDIM
350
806A
  3
ACDBHEADERROUNDTRIPXREC
350
9739
  3
ACDBVARIABLEDICTIONARY
350
374
  3
ACMDICTIONARY
350
383
  3
AMG
350
36B
  3
AMGSNAPSETTINGS
350
399
  3
ASE_INDEX_DICTIONARY
350
6A
  3
DWGPROPS
350
CB4
  0
DICTIONARY
  5
73
330
1F
100
AcDbDictionary
280
     1
  3
ACAD_INDEX
360
CB8
  3
ACAD_LAYOUTSELFREF
360
975B
  0
DICTIONARY
  5
75
330
1B
100
AcDbDictionary
280
     1
  3
ACAD_LAYOUTSELFREF
360
975A
  0
DICTIONARY
  5
D
102
{ACAD_REACTORS
330
C
102
}
330
C
100
AcDbDictionary
  0
DICTIONARY
  5
1A
102
{ACAD_REACTORS
330
C
102
}
330
C
100
AcDbDictionary
  0
DICTIONARY
  5
17
102
{ACAD_REACTORS
330
C
102
}
330
C
100
AcDbDictionary
  3
STANDARD
350
18
  0
DICTIONARY
  5
19
102
{ACAD_REACTORS
330
C
102
}
330
C
100
AcDbDictionary
  3
A_SIZE_PAPER
350
2FF
  3
B_SIZE_PAPER
350
2FD
  3
D_SIZE_PAPER
350
2FE
  0
ACDBDICTIONARYWDFLT
  5
E
102
{ACAD_REACTORS
330
C
102
}
330
C
100
AcDbDictionary
281
     1
  3
Normal
350
F
100
AcDbDictionaryWithDefault
340
F
  0
XRECORD
  5
806A
102
{ACAD_REACTORS
330
C
102
}
330
C
100
AcDbXrecord
 90
   990106
  3

 60
     0
 61
     0
 62
     1
 63
     3
 64
     0
 65
     0
 66
     0
 67
     3
 68
     1
 69
     0
 70
     0
 71
     0
 72
     0
 40
0.0
170
     0
  0
DICTIONARY
  5
9739
102
{ACAD_REACTORS
330
C
102
}
330
C
100
AcDbDictionary
  3
CEPSNTYPE
350
9743
  3
DIMSTYLEDATA
350
9747
  3
FINGERPRINTGUID
350
9744
  3
HYPERLINKBASE
350
973C
  3
INSUNITS
350
9742
  3
LAYOUTDICT
350
973E
  3
LWETCUNION
350
9741
  3
PLOTSETDICT
350
973F
  3
PLOTSTYLNAMDICT
350
9740
  3
PSVPSCALE
350
9746
  3
PUCSBASE
350
974A
  3
PUCSORGBACK
350
9750
  3
PUCSORGBOTTOM
350
974C
  3
PUCSORGFRONT
350
974F
  3
PUCSORGLEFT
350
974D
  3
PUCSORGRIGHT
350
974E
  3
PUCSORGTOP
350
974B
  3
PUCSORTHOREF
350
9748
  3
PUCSORTHOVIEW
350
9749
  3
STYLESHEET
350
973D
  3
TSTACKALIGN
350
973A
  3
TSTACKSIZE
350
973B
  3
UCSBASE
350
9753
  3
UCSORGBACK
350
9759
  3
UCSORGBOTTOM
350
9755
  3
UCSORGFRONT
350
9758
  3
UCSORGLEFT
350
9756
  3
UCSORGRIGHT
350
9757
  3
UCSORGTOP
350
9754
  3
UCSORTHOREF
350
9751
  3
UCSORTHOVIEW
350
9752
  3
VERSIONGUID
350
9745
  0
DICTIONARY
  5
374
102
{ACAD_REACTORS
330
C
102
}
330
C
100
AcDbDictionary
  3
INDEXCTL
350
375
  0
DICTIONARY
  5
383
102
{ACAD_REACTORS
330
C
102
}
330
C
100
AcDbDictionary
  0
DICTIONARY
  5
36B
102
{ACAD_REACTORS
330
C
102
}
330
C
100
AcDbDictionary
  3
ACMGSETTINGS
350
36C
  0
DICTIONARY
  5
399
102
{ACAD_REACTORS
330
C
102
}
330
C
100
AcDbDictionary
  0
DICTIONARY
  5
6A
102
{ACAD_REACTORS
330
C
102
}
330
C
100
AcDbDictionary
  3
ASEBLOCKHIERARCHYINDEXRECORD
350
6C
1001
DCO15
1040
1379130883.246999
  0
XRECORD
  5
CB4
102
{ACAD_REACTORS
330
C
102
}
330
C
100
AcDbXrecord
  1
DWGPROPS COOKIE
  2

  3

  4

  6

  7

  8
mgp706
  9

300
AmdtFileType=84
301
=
302
=
303
=
304
=
305
=
306
=
307
=
308
=
309
=
 40
0.2107598032407407
 41
2451764.535041909
 42
2451851.591606284
  1

 90
        1
  0
DICTIONARY
  5
CB8
102
{ACAD_REACTORS
330
73
102
}
330
73
100
AcDbDictionary
  3
*A1
350
CB9
  0
XRECORD
  5
975B
102
{ACAD_REACTORS
330
73
102
}
330
73
100
AcDbXrecord
340
1F
  0
XRECORD
  5
975A
102
{ACAD_REACTORS
330
75
102
}
330
75
100
AcDbXrecord
340
1B
  0
MLINESTYLE
  5
18
102
{ACAD_REACTORS
330
17
102
}
330
17
100
AcDbMlineStyle
  2
STANDARD
 70
     0
  3

 62
   256
 51
90.0
 52
90.0
 71
     2
 49
0.5
 62
   256
  6
BYLAYER
 49
-0.5
 62
   256
  6
BYLAYER
  0
PLOTSETTINGS
  5
2FF
102
{ACAD_REACTORS
330
19
102
}
330
19
100
AcDbPlotSettings
  1
A Size Paper
  2
none_device
  4
ANSI_A_(8.50_x_11.00_Inches)
  6

 40
6.349999904632568
 41
19.04999923706054
 42
6.350006103515625
 43
19.04998779296875
 44
215.8999938964843
 45
279.3999938964843
 46
19.04999999999999
 47
-9.651999999999999
 48
0.0
 49
0.0
140
0.0
141
0.0
142
1.0
143
1.6
 70
   740
 72
     0
 73
     1
 74
     1
  7
monochrome.ctb
 75
     0
147
0.625
148
0.0034886547032954
149
0.0199946439100934
  0
PLOTSETTINGS
  5
2FD
102
{ACAD_REACTORS
330
19
102
}
330
19
100
AcDbPlotSettings
  1
B Size Paper
  2
none_device
  4
ANSI_B_(11.00_x_17.00_Inches)
  6

 40
6.349999904632568
 41
19.04999923706054
 42
6.350006103515625
 43
19.04998779296875
 44
279.3999938964843
 45
431.7999877929687
 46
1.27
 47
-11.43
 48
0.0
 49
0.0
140
0.0
141
0.0
142
1.0
143
1.0
 70
   756
 72
     0
 73
     1
 74
     1
  7
monochrome.ctb
 75
    16
147
1.0
148
0.0034886547032954
149
0.0199946439100934
  0
PLOTSETTINGS
  5
2FE
102
{ACAD_REACTORS
330
19
102
}
330
19
100
AcDbPlotSettings
  1
D Size Paper
  2
none_device
  4
ANSI_D_(22.00_x_34.00_Inches)
  6

 40
6.349999904632568
 41
19.04999923706054
 42
6.3499755859375
 43
19.04998779296875
 44
558.7999877929687
 45
863.5999755859375
 46
8.889999999999998
 47
-3.809999999999999
 48
0.0
 49
0.0
140
0.0
141
0.0
142
1.0
143
0.5
 70
   740
 72
     0
 73
     1
 74
     1
  7
monochrome.ctb
 75
     0
147
2.0
148
0.0034886547032954
149
0.0199946439100934
  0
ACDBPLACEHOLDER
  5
F
102
{ACAD_REACTORS
330
E
102
}
330
E
100
AcDbPlaceHolder
280
     0
  0
XRECORD
  5
9743
102
{ACAD_REACTORS
330
9739
102
}
330
9739
100
AcDbXrecord
 90
        0
  0
XRECORD
  5
9747
102
{ACAD_REACTORS
330
9739
102
}
330
9739
100
AcDbXrecord
1000
DSTYLE
1002
{
1070
    79
 70
     1
1070
   148
 40
0.1
1070
   341
340
94B2
1070
   342
340
94B2
1070
   371
 70
    -1
1070
   372
 70
    -1
1002
}
  0
XRECORD
  5
9744
102
{ACAD_REACTORS
330
9739
102
}
330
9739
100
AcDbXrecord
  1
{4E694E3A-6C64-11D4-81E3-0004AC4461C9}
  0
XRECORD
  5
973C
102
{ACAD_REACTORS
330
9739
102
}
330
9739
100
AcDbXrecord
  1

  0
XRECORD
  5
9742
102
{ACAD_REACTORS
330
9739
102
}
330
9739
100
AcDbXrecord
 90
        1
  0
XRECORD
  5
973E
102
{ACAD_REACTORS
330
9739
102
}
330
9739
100
AcDbXrecord
340
1A
  0
XRECORD
  5
9741
102
{ACAD_REACTORS
330
9739
102
}
330
9739
100
AcDbXrecord
 90
    10269
  0
XRECORD
  5
973F
102
{ACAD_REACTORS
330
9739
102
}
330
9739
100
AcDbXrecord
340
19
  0
XRECORD
  5
9740
102
{ACAD_REACTORS
330
9739
102
}
330
9739
100
AcDbXrecord
340
E
  0
XRECORD
  5
9746
102
{ACAD_REACTORS
330
9739
102
}
330
9739
100
AcDbXrecord
 40
0.25
  0
XRECORD
  5
974A
102
{ACAD_REACTORS
330
9739
102
}
330
9739
100
AcDbXrecord
340
0
  0
XRECORD
  5
9750
102
{ACAD_REACTORS
330
9739
102
}
330
9739
100
AcDbXrecord
 10
0.0
 20
0.0
 30
0.0
  0
XRECORD
  5
974C
102
{ACAD_REACTORS
330
9739
102
}
330
9739
100
AcDbXrecord
 10
0.0
 20
0.0
 30
0.0
  0
XRECORD
  5
974F
102
{ACAD_REACTORS
330
9739
102
}
330
9739
100
AcDbXrecord
 10
0.0
 20
0.0
 30
0.0
  0
XRECORD
  5
974D
102
{ACAD_REACTORS
330
9739
102
}
330
9739
100
AcDbXrecord
 10
0.0
 20
0.0
 30
0.0
  0
XRECORD
  5
974E
102
{ACAD_REACTORS
330
9739
102
}
330
9739
100
AcDbXrecord
 10
0.0
 20
0.0
 30
0.0
  0
XRECORD
  5
974B
102
{ACAD_REACTORS
330
9739
102
}
330
9739
100
AcDbXrecord
 10
0.0
 20
0.0
 30
0.0
  0
XRECORD
  5
9748
102
{ACAD_REACTORS
330
9739
102
}
330
9739
100
AcDbXrecord
340
0
  0
XRECORD
  5
9749
102
{ACAD_REACTORS
330
9739
102
}
330
9739
100
AcDbXrecord
 70
     0
  0
XRECORD
  5
973D
102
{ACAD_REACTORS
330
9739
102
}
330
9739
100
AcDbXrecord
  1

  0
XRECORD
  5
973A
102
{ACAD_REACTORS
330
9739
102
}
330
9739
100
AcDbXrecord
 90
        1
  0
XRECORD
  5
973B
102
{ACAD_REACTORS
330
9739
102
}
330
9739
100
AcDbXrecord
 90
       70
  0
XRECORD
  5
9753
102
{ACAD_REACTORS
330
9739
102
}
330
9739
100
AcDbXrecord
340
0
  0
XRECORD
  5
9759
102
{ACAD_REACTORS
330
9739
102
}
330
9739
100
AcDbXrecord
 10
0.0
 20
0.0
 30
0.0
  0
XRECORD
  5
9755
102
{ACAD_REACTORS
330
9739
102
}
330
9739
100
AcDbXrecord
 10
0.0
 20
0.0
 30
0.0
  0
XRECORD
  5
9758
102
{ACAD_REACTORS
330
9739
102
}
330
9739
100
AcDbXrecord
 10
0.0
 20
0.0
 30
0.0
  0
XRECORD
  5
9756
102
{ACAD_REACTORS
330
9739
102
}
330
9739
100
AcDbXrecord
 10
0.0
 20
0.0
 30
0.0
  0
XRECORD
  5
9757
102
{ACAD_REACTORS
330
9739
102
}
330
9739
100
AcDbXrecord
 10
0.0
 20
0.0
 30
0.0
  0
XRECORD
  5
9754
102
{ACAD_REACTORS
330
9739
102
}
330
9739
100
AcDbXrecord
 10
0.0
 20
0.0
 30
0.0
  0
XRECORD
  5
9751
102
{ACAD_REACTORS
330
9739
102
}
330
9739
100
AcDbXrecord
340
0
  0
XRECORD
  5
9752
102
{ACAD_REACTORS
330
9739
102
}
330
9739
100
AcDbXrecord
 70
     0
  0
XRECORD
  5
9745
102
{ACAD_REACTORS
330
9739
102
}
330
9739
100
AcDbXrecord
  1
{B6EAA4EF-0C2A-11D5-B1B2-000629309E34}
  0
DICTIONARYVAR
  5
375
102
{ACAD_REACTORS
330
374
102
}
330
374
100
DictionaryVariables
280
     0
  1
1
  0
DICTIONARY
  5
36C
102
{ACAD_REACTORS
330
36B
102
}
330
36B
100
AcDbDictionary
  3
DWGSETTINGS
350
CA0
  0
XRECORD
  5
6C
102
{ACAD_REACTORS
330
6A
102
}
330
6A
100
AcDbXrecord
  0
LAYER_INDEX
  5
CB9
102
{ACAD_REACTORS
330
CB8
102
}
330
CB8
100
AcDbIndex
 40
2451967.643950231
100
AcDbLayerIndex
  8
0
360
CBA
 90
        1
  8
BLOCKS
360
CBB
 90
        0
  8
CENTER1
360
CBC
 90
        0
  8
CENTER2
360
CBD
 90
        8
  8
CENTER3
360
CBE
 90
        0
  8
CONSTRUCTION
360
CBF
 90
        0
  8
CONTINUOUS1
360
CC0
 90
      502
  8
CONTINUOUS2
360
CC1
 90
       58
  8
CONTINUOUS3
360
CC2
 90
        0
  8
DASHDOT1
360
CC3
 90
        0
  8
DASHDOT2
360
CC4
 90
        0
  8
DASHDOT3
360
CC5
 90
        0
  8
DIM
360
CC6
 90
       10
  8
HIDDEN1
360
CC7
 90
        0
  8
HIDDEN2
360
CC8
 90
        0
  8
HIDDEN3
360
CC9
 90
        0
  8
PHANTOM1
360
CCA
 90
      114
  8
PHANTOM2
360
CCB
 90
        0
  8
PHANTOM3
360
CCC
 90
        0
  8
TEXT1
360
CCD
 90
       37
  8
TEXT2
360
CCE
 90
        0
  8
TEXT3
360
CCF
 90
        0
  8
TITLEBLOCK
360
CD0
 90
        0
  8
VIEWPORT
360
CD1
 90
        2
  8
MOUNTING
360
9437
 90
        0
  8
DEFPOINTS
360
9438
 90
        0
  0
XRECORD
  5
CA0
102
{ACAD_REACTORS
330
36C
102
}
330
36C
100
AcDbXrecord
  1
VERSION
140
15.0
  1
PRODUCT
  2
AutoCAD Mechanical 2000
  0
IDBUFFER
  5
CBA
330
0
100
AcDbIdBuffer
330
79E
  0
IDBUFFER
  5
CBB
330
0
100
AcDbIdBuffer
  0
IDBUFFER
  5
CBC
330
0
100
AcDbIdBuffer
  0
IDBUFFER
  5
CBD
330
0
100
AcDbIdBuffer
330
8FB7
330
8FB8
330
8FB9
330
8FBA
330
904B
330
904C
330
904E
330
904F
  0
IDBUFFER
  5
CBE
330
0
100
AcDbIdBuffer
  0
IDBUFFER
  5
CBF
330
0
100
AcDbIdBuffer
  0
IDBUFFER
  5
CC0
330
0
100
AcDbIdBuffer
330
8DD1
330
8DD2
330
8DD3
330
8DD7
330
8DD8
330
8DDC
330
8DDD
330
8DE0
330
8DE4
330
8DE5
330
8DEE
330
8DF0
330
8DF1
330
8DF2
330
8DF3
330
8DF4
330
8DF5
330
8DF6
330
8DF7
330
8DF8
330
8DF9
330
8DFA
330
8DFB
330
8DFC
330
8DFD
330
8DFE
330
8DFF
330
8E00
330
8E01
330
8E02
330
8E03
330
8E04
330
8E05
330
8E06
330
8E07
330
8E08
330
8E09
330
8E0A
330
8E0B
330
8E0C
330
8E0D
330
8E0E
330
8E0F
330
8E10
330
8E11
330
8E12
330
8E13
330
8E14
330
8E15
330
8E16
330
8E17
330
8E18
330
8E19
330
8E1A
330
8E1B
330
8E1C
330
8E1D
330
8E1E
330
8E1F
330
8E20
330
8E21
330
8E22
330
8E23
330
8E24
330
8E25
330
8E26
330
8E27
330
8E28
330
8E29
330
8E2A
330
8E2B
330
8E2C
330
8E2D
330
8E2E
330
8E2F
330
8E30
330
8E31
330
8E32
330
8E33
330
8E34
330
8E35
330
8E36
330
8E37
330
8E38
330
8E39
330
8E3A
330
8E3B
330
8E3C
330
8E3D
330
8E3E
330
8E3F
330
8E40
330
8E41
330
8E42
330
8E43
330
8E44
330
8E45
330
8E46
330
8E47
330
8E48
330
8E49
330
8E4A
330
8E4B
330
8E4C
330
8E4D
330
8E4E
330
8E4F
330
8E50
330
8E51
330
8E52
330
8E53
330
8E54
330
8E55
330
8E56
330
8E57
330
8E58
330
8E59
330
8E5A
330
8E5B
330
8E5C
330
8E5D
330
8E5E
330
8E5F
330
8E60
330
8E61
330
8E62
330
8E63
330
8E64
330
8E65
330
8E66
330
8E67
330
8E68
330
8E69
330
8E6A
330
8E6B
330
8E6C
330
8E6D
330
8E6E
330
8E6F
330
8E70
330
8E71
330
8E72
330
8E73
330
8E74
330
8E75
330
8E76
330
8E77
330
8E78
330
8E79
330
8E7A
330
8E7B
330
8E7C
330
8E7D
330
8E7E
330
8E7F
330
8E80
330
8E81
330
8E82
330
8E83
330
8E84
330
8E85
330
8E86
330
8E87
330
8E88
330
8E89
330
8E8A
330
8E8B
330
8E8C
330
8E8D
330
8E8E
330
8E8F
330
8E90
330
8E91
330
8E92
330
8E93
330
8E94
330
8E95
330
8E96
330
8E97
330
8E98
330
8E99
330
8E9A
330
8E9B
330
8E9C
330
8E9D
330
8E9E
330
8E9F
330
8EA0
330
8EA1
330
8EA2
330
8EA3
330
8EA4
330
8EA5
330
8EA6
330
8EA7
330
8EA8
330
8EA9
330
8EAA
330
8EAB
330
8EAC
330
8EAD
330
8EAE
330
8EAF
330
8EB0
330
8EB1
330
8EB2
330
8EB3
330
8EB4
330
8EB5
330
8EB6
330
8EB7
330
8EB8
330
8EB9
330
8EBA
330
8EBB
330
8EBC
330
8EBD
330
8EBE
330
8EBF
330
8EC0
330
8EC1
330
8EC2
330
8EC3
330
8EC4
330
8EC5
330
8EC6
330
8EC7
330
8EC8
330
8EC9
330
8ECA
330
8ECB
330
8ECC
330
8ECD
330
8ECE
330
8ECF
330
8ED0
330
8ED1
330
8ED2
330
8ED3
330
8ED4
330
8ED5
330
8ED6
330
8ED7
330
8ED8
330
8ED9
330
8EDA
330
8EDB
330
8EDC
330
8EDD
330
8EDE
330
8EDF
330
8EE0
330
8EE1
330
8EE2
330
8EE3
330
8EE4
330
8EE5
330
8EE6
330
8EE7
330
8EE8
330
8EE9
330
8EEA
330
8EEB
330
8EEC
330
8EED
330
8EEE
330
8EEF
330
8EF0
330
8EF1
330
8EF2
330
8EF3
330
8EF4
330
8EF5
330
8EF6
330
8EF7
330
8EF8
330
8EF9
330
8EFA
330
8EFB
330
8EFC
330
8EFD
330
8EFE
330
8EFF
330
8F00
330
8F01
330
8F02
330
8F03
330
8F04
330
8F05
330
8F06
330
8F07
330
8F08
330
8F09
330
8F0A
330
8F0B
330
8F0C
330
8F0D
330
8F0E
330
8F0F
330
8F10
330
8F11
330
8F12
330
8F13
330
8F14
330
8F15
330
8F16
330
8F17
330
8F18
330
8F19
330
8F1A
330
8F1B
330
8F1C
330
8F1D
330
8F1E
330
8F1F
330
8F20
330
8F21
330
8F22
330
8F23
330
8F24
330
8F25
330
8F26
330
8F27
330
8F28
330
8F29
330
8F2A
330
8F2B
330
8F2C
330
8F2D
330
8F2E
330
8F2F
330
8F30
330
8F31
330
8F32
330
8F33
330
8F34
330
8F35
330
8F36
330
8F37
330
8F38
330
8F39
330
8F3A
330
8F3B
330
8F3C
330
8F3D
330
8F3E
330
8F3F
330
8F40
330
8F41
330
8F42
330
8F43
330
8F44
330
8F45
330
8F46
330
8F47
330
8F48
330
8F49
330
8F4A
330
8F4B
330
8F4C
330
8F4D
330
8F4E
330
8F4F
330
8F50
330
8F51
330
8F52
330
8F53
330
8F54
330
8F55
330
8F56
330
8F57
330
8F58
330
8F59
330
8F5A
330
8F5B
330
8F5C
330
8F5D
330
8F5E
330
8F5F
330
8F60
330
8F61
330
8F62
330
8F63
330
8F64
330
8F65
330
8F66
330
8F67
330
8F68
330
8F69
330
8F6A
330
8F6B
330
8F6C
330
8F6D
330
8F6E
330
8F6F
330
8F70
330
8F71
330
8F72
330
8F73
330
8F74
330
8F75
330
8F76
330
8F77
330
8F78
330
8F79
330
8F7A
330
8F7B
330
8F7C
330
8F7D
330
8F7E
330
8F7F
330
8F80
330
8F81
330
8F82
330
8F83
330
8F84
330
8F85
330
8F86
330
8F87
330
8F88
330
8F89
330
8F8A
330
8F8B
330
8F8C
330
8F8D
330
8F8E
330
8F8F
330
8F90
330
8F91
330
8F92
330
8F93
330
8F94
330
8F95
330
8F96
330
8F97
330
8F98
330
8F99
330
8F9A
330
8F9B
330
8F9C
330
8F9D
330
8F9E
330
8F9F
330
8FA0
330
8FA1
330
8FA2
330
8FA3
330
8FA4
330
8FA5
330
8FA6
330
8FA7
330
8FA8
330
8FA9
330
8FAC
330
8FAD
330
8FAE
330
8FAF
330
8FB0
330
8FB1
330
8FB2
330
8FB3
330
8FB4
330
8FB5
330
902B
330
9032
330
9033
330
9034
330
9035
330
9036
330
9037
330
9038
330
9039
330
903A
330
903B
330
903C
330
903D
330
9048
330
9049
330
9050
330
9051
330
9063
330
9064
330
9065
330
9066
330
9067
330
9070
330
9073
330
9076
330
9078
330
9079
330
907A
330
9083
330
9084
330
9088
330
9089
330
908C
330
908E
330
9091
330
9100
330
9101
330
9102
330
9103
  0
IDBUFFER
  5
CC1
330
0
100
AcDbIdBuffer
330
8FAA
330
8FAB
330
8FB6
330
8FD5
330
8FD6
330
9015
330
9016
330
9017
330
9018
330
9019
330
901A
330
901B
330
901C
330
901D
330
901E
330
901F
330
9020
330
9041
330
9042
330
9043
330
9044
330
9045
330
9046
330
9047
330
904A
330
904D
330
9057
330
9058
330
906E
330
906F
330
9071
330
9072
330
9074
330
9075
330
9077
330
907B
330
907C
330
907D
330
907E
330
907F
330
9080
330
9081
330
9082
330
9085
330
9086
330
9087
330
908A
330
908B
330
908D
330
9090
330
9104
330
9109
330
910A
330
910B
330
910C
330
910D
330
910E
330
910F
  0
IDBUFFER
  5
CC2
330
0
100
AcDbIdBuffer
  0
IDBUFFER
  5
CC3
330
0
100
AcDbIdBuffer
  0
IDBUFFER
  5
CC4
330
0
100
AcDbIdBuffer
  0
IDBUFFER
  5
CC5
330
0
100
AcDbIdBuffer
  0
IDBUFFER
  5
CC6
330
0
100
AcDbIdBuffer
330
9024
330
9025
330
9026
330
9031
330
903E
330
9040
330
9052
330
9106
330
9379
330
9387
  0
IDBUFFER
  5
CC7
330
0
100
AcDbIdBuffer
  0
IDBUFFER
  5
CC8
330
0
100
AcDbIdBuffer
  0
IDBUFFER
  5
CC9
330
0
100
AcDbIdBuffer
  0
IDBUFFER
  5
CCA
330
0
100
AcDbIdBuffer
330
8FBB
330
8FBC
330
8FBD
330
8FD7
330
8FD8
330
8FD9
330
9021
330
9096
330
9097
330
9098
330
9099
330
909A
330
909B
330
909C
330
909D
330
909E
330
909F
330
90A0
330
90A1
330
90A2
330
90A3
330
90A4
330
90A5
330
90A6
330
90A7
330
90A8
330
90A9
330
90AA
330
90AB
330
90AC
330
90AD
330
90AE
330
90AF
330
90B0
330
90B1
330
90B2
330
90B3
330
90B4
330
90B5
330
90B6
330
90B7
330
90B8
330
90B9
330
90BA
330
90BB
330
90BC
330
90BD
330
90BE
330
90BF
330
90C0
330
90C1
330
90C2
330
90C3
330
90C4
330
90C5
330
90C6
330
90C7
330
90C8
330
90C9
330
90CA
330
90CB
330
90CC
330
90CD
330
90CE
330
90CF
330
90D0
330
90D1
330
90D2
330
90D3
330
90D4
330
90D5
330
90D6
330
90D7
330
90D8
330
90D9
330
90DA
330
90DB
330
90DC
330
90DD
330
90DE
330
90DF
330
90E0
330
90E1
330
90E2
330
90E3
330
90E4
330
90E5
330
90E6
330
90E7
330
90E8
330
90E9
330
90EA
330
90EB
330
90EC
330
90ED
330
90EE
330
90EF
330
90F0
330
90F1
330
90F2
330
90F3
330
90F4
330
90F5
330
90F6
330
90F7
330
90F8
330
90F9
330
90FA
330
90FB
330
90FC
330
90FD
330
90FE
330
90FF
330
9105
  0
IDBUFFER
  5
CCB
330
0
100
AcDbIdBuffer
  0
IDBUFFER
  5
CCC
330
0
100
AcDbIdBuffer
  0
IDBUFFER
  5
CCD
330
0
100
AcDbIdBuffer
330
8DC1
330
8DD4
330
8DD5
330
8DD6
330
8DD9
330
8DDA
330
8DDB
330
8DDE
330
8DDF
330
8DE1
330
8DE2
330
8DE3
330
8DE6
330
8DE7
330
8DE8
330
8DE9
330
8DEA
330
8DEB
330
8DEC
330
8DED
330
8DEF
330
9022
330
9023
330
9027
330
9028
330
9029
330
902C
330
902D
330
902E
330
902F
330
9030
330
9053
330
9054
330
9055
330
9056
330
9107
330
9108
  0
IDBUFFER
  5
CCE
330
0
100
AcDbIdBuffer
  0
IDBUFFER
  5
CCF
330
0
100
AcDbIdBuffer
  0
IDBUFFER
  5
CD0
330
0
100
AcDbIdBuffer
  0
IDBUFFER
  5
CD1
330
0
100
AcDbIdBuffer
330
BF7
330
BF8
  0
IDBUFFER
  5
9437
330
0
100
AcDbIdBuffer
  0
IDBUFFER
  5
9438
330
0
100
AcDbIdBuffer
  0
ENDSEC
  0
EOF
