  0
SECTION
  2
HEADER
  9
$ACADVER
  1
AC1009
  9
$INSBASE
 10
402.590624
 20
-1.041018
 30
0.0
  9
$EXTMIN
 10
-2.068473
 20
-22.188719
 30
0.0
  9
$EXTMAX
 10
57.019931
 20
78.144998
 30
0.0
  9
$LIMMIN
 10
-407.970438
 20
-367.832444
  9
$LIMMAX
 10
429.804077
 20
234.370848
  9
$ORTHOMODE
 70
     1
  9
$REGENMODE
 70
     1
  9
$FILLMODE
 70
     1
  9
$QTEXTMODE
 70
     0
  9
$MIRRTEXT
 70
     1
  9
$DRAGMODE
 70
     2
  9
$LTSCALE
 40
10.0
  9
$OSMODE
 70
    35
  9
$ATTMODE
 70
     1
  9
$TEXTSIZE
 40
6.0
  9
$TRACEWID
 40
1.0
  9
$TEXTSTYLE
  7
ROMANS
  9
$CLAYER
  8
ALPHA
  9
$CELTYPE
  6
BYLAYER
  9
$CECOLOR
 62
   256
  9
$DIMSCALE
 40
1.0
  9
$DIMASZ
 40
5.0
  9
$DIMEXO
 40
2.0
  9
$DIMDLI
 40
0.38
  9
$DIMRND
 40
0.0
  9
$DIMDLE
 40
0.0
  9
$DIMEXE
 40
2.5
  9
$DIMTP
 40
0.0
  9
$DIMTM
 40
0.0
  9
$DIMTXT
 40
2.5
  9
$DIMCEN
 40
0.0
  9
$DIMTSZ
 40
0.0
  9
$DIMTOL
 70
     0
  9
$DIMLIM
 70
     0
  9
$DIMTIH
 70
     1
  9
$DIMTOH
 70
     1
  9
$DIMSE1
 70
     0
  9
$DIMSE2
 70
     0
  9
$DIMTAD
 70
     1
  9
$DIMZIN
 70
    12
  9
$DIMBLK
  1
OPEN30
  9
$DIMASO
 70
     1
  9
$DIMSHO
 70
     1
  9
$DIMPOST
  1

  9
$DIMAPOST
  1

  9
$DIMALT
 70
     0
  9
$DIMALTD
 70
     2
  9
$DIMALTF
 40
25.4
  9
$DIMLFAC
 40
1.0
  9
$DIMTOFL
 70
     0
  9
$DIMTVP
 40
0.0
  9
$DIMTIX
 70
     0
  9
$DIMSOXD
 70
     0
  9
$DIMSAH
 70
     0
  9
$DIMBLK1
  1

  9
$DIMBLK2
  1

  9
$DIMSTYLE
  2
SC_DEFAUT
  9
$DIMCLRD
 70
     0
  9
$DIMCLRE
 70
     0
  9
$DIMCLRT
 70
     0
  9
$DIMTFAC
 40
1.0
  9
$DIMGAP
 40
2.0
  9
$LUNITS
 70
     2
  9
$LUPREC
 70
     1
  9
$SKETCHINC
 40
0.1
  9
$FILLETRAD
 40
0.0
  9
$AUNITS
 70
     0
  9
$AUPREC
 70
     0
  9
$MENU
  1
acad
  9
$ELEVATION
 40
0.0
  9
$PELEVATION
 40
0.0
  9
$THICKNESS
 40
0.0
  9
$LIMCHECK
 70
     0
  9
$BLIPMODE
 70
     0
  9
$CHAMFERA
 40
0.0
  9
$CHAMFERB
 40
0.0
  9
$SKPOLY
 70
     0
  9
$TDCREATE
 40
2450373.687919
  9
$TDUPDATE
 40
2453035.653092
  9
$TDINDWG
 40
1.0757
  9
$TDUSRTIMER
 40
1.0757
  9
$USRTIMER
 70
     1
  9
$ANGBASE
 50
0.0
  9
$ANGDIR
 70
     0
  9
$PDMODE
 70
    32
  9
$PDSIZE
 40
0.0
  9
$PLINEWID
 40
0.0
  9
$COORDS
 70
     1
  9
$SPLFRAME
 70
     0
  9
$SPLINETYPE
 70
     6
  9
$SPLINESEGS
 70
     8
  9
$ATTDIA
 70
     0
  9
$ATTREQ
 70
     1
  9
$HANDLING
 70
     1
  9
$HANDSEED
  5
A80D
  9
$SURFTAB1
 70
     6
  9
$SURFTAB2
 70
     6
  9
$SURFTYPE
 70
     6
  9
$SURFU
 70
     6
  9
$SURFV
 70
     6
  9
$UCSNAME
  2

  9
$UCSORG
 10
0.0
 20
0.0
 30
0.0
  9
$UCSXDIR
 10
1.0
 20
0.0
 30
0.0
  9
$UCSYDIR
 10
0.0
 20
1.0
 30
0.0
  9
$PUCSNAME
  2

  9
$PUCSORG
 10
0.0
 20
0.0
 30
0.0
  9
$PUCSXDIR
 10
1.0
 20
0.0
 30
0.0
  9
$PUCSYDIR
 10
0.0
 20
1.0
 30
0.0
  9
$USERI1
 70
     0
  9
$USERI2
 70
     0
  9
$USERI3
 70
     0
  9
$USERI4
 70
     0
  9
$USERI5
 70
     0
  9
$USERR1
 40
0.0
  9
$USERR2
 40
0.0
  9
$USERR3
 40
0.0
  9
$USERR4
 40
0.0
  9
$USERR5
 40
0.0
  9
$WORLDVIEW
 70
     1
  9
$SHADEDGE
 70
     3
  9
$SHADEDIF
 70
    70
  9
$TILEMODE
 70
     1
  9
$MAXACTVP
 70
    16
  9
$PLIMCHECK
 70
     0
  9
$PEXTMIN
 10
-1.452248
 20
-0.437698
 30
0.0
  9
$PEXTMAX
 10
12.749749
 20
8.310198
 30
0.0
  9
$PLIMMIN
 10
0.0
 20
0.0
  9
$PLIMMAX
 10
12.0
 20
9.0
  9
$UNITMODE
 70
     0
  9
$VISRETAIN
 70
     0
  9
$PLINEGEN
 70
     0
  9
$PSLTSCALE
 70
     0
  0
ENDSEC
  0
SECTION
  2
TABLES
  0
TABLE
  2
VPORT
 70
     2
  0
VPORT
  2
*ACTIVE
 70
     0
 10
0.0
 20
0.0
 11
1.0
 21
1.0
 12
27.471356
 22
27.983718
 13
0.0
 23
0.0
 14
1.0
 24
1.0
 15
10.0
 25
10.0
 16
0.0
 26
0.0
 36
1.0
 17
0.0
 27
0.0
 37
0.0
 40
101.111743
 41
1.466346
 42
50.0
 43
0.0
 44
0.0
 50
0.0
 51
0.0
 71
     0
 72
   100
 73
     1
 74
     0
 75
     0
 76
     0
 77
     0
 78
     0
  0
ENDTAB
  0
TABLE
  2
LTYPE
 70
     3
  0
LTYPE
  2
CONTINUOUS
 70
     0
  3
Solid line
 72
    65
 73
     0
 40
0.0
  0
LTYPE
  2
AXES2
 70
     0
  3
___ _ ___ _ ___ _ ___ _ ___ _ ___ _ ___ _ ___ _
 72
    65
 73
     4
 40
1.125
 49
0.75
 49
-0.125
 49
0.125
 49
-0.125
  0
LTYPE
  2
CACHE2
 70
     0
  3
Caché (x.5) _ _ _ _ _ _ _ _ _ _ _ _ _ _ _ _ _
 72
    65
 73
     2
 40
0.1875
 49
0.125
 49
-0.0625
  0
ENDTAB
  0
TABLE
  2
LAYER
 70
     6
  0
LAYER
  2
0
 70
     0
 62
   255
  6
CONTINUOUS
  0
LAYER
  2
COTATION1
 70
     0
 62
     2
  6
CONTINUOUS
  0
LAYER
  2
AXE
 70
     0
 62
    80
  6
AXES2
  0
LAYER
  2
DEFPOINTS
 70
     0
 62
     7
  6
CONTINUOUS
  0
LAYER
  2
ALPHA
 70
     0
 62
   254
  6
CONTINUOUS
  0
LAYER
  2
POINTILLE_COURT
 70
     0
 62
    41
  6
CACHE2
  0
ENDTAB
  0
TABLE
  2
STYLE
 70
     2
  0
STYLE
  2
ROMANS
 70
     0
 40
0.0
 41
1.0
 50
0.0
 71
     0
 42
6.0
  3
romans
  4

  0
STYLE
  2
STANDARD
 70
     0
 40
0.0
 41
1.0
 50
0.0
 71
     0
 42
0.2
  3
txt
  4

  0
ENDTAB
  0
TABLE
  2
VIEW
 70
     0
  0
ENDTAB
  0
TABLE
  2
UCS
 70
     0
  0
ENDTAB
  0
TABLE
  2
APPID
 70
     1
  0
APPID
  2
ACAD
 70
     0
  0
ENDTAB
  0
TABLE
  2
DIMSTYLE
 70
     2
  0
DIMSTYLE
  2
SC_DEFAUT
 70
     0
  3

  4

  5
OPEN30
  6

  7

 40
1.0
 41
5.0
 42
2.0
 43
0.38
 44
2.5
 45
0.0
 46
0.0
 47
0.0
 48
0.0
140
2.5
141
0.0
142
0.0
143
25.4
144
1.0
145
0.0
146
1.0
147
2.0
 71
     0
 72
     0
 73
     1
 74
     1
 75
     0
 76
     0
 77
     1
 78
    12
170
     0
171
     2
172
     0
173
     0
174
     0
175
     0
176
     0
177
     0
178
     0
  0
DIMSTYLE
  2
STANDARD
 70
     0
  3

  4

  5

  6

  7

 40
1.0
 41
0.18
 42
0.0625
 43
0.38
 44
0.18
 45
0.0
 46
0.0
 47
0.0
 48
0.0
140
0.18
141
0.09
142
0.0
143
25.4
144
1.0
145
0.0
146
1.0
147
0.09
 71
     0
 72
     0
 73
     1
 74
     1
 75
     0
 76
     0
 77
     0
 78
     0
170
     0
171
     2
172
     0
173
     0
174
     0
175
     0
176
     0
177
     0
178
     0
  0
ENDTAB
  0
ENDSEC
  0
SECTION
  2
BLOCKS
  0
BLOCK
  8
0
  2
$MODEL_SPACE
 70
     0
 10
0.0
 20
0.0
 30
0.0
  3
$MODEL_SPACE
  1

  0
ENDBLK
  5
A806
  8
0
  0
BLOCK
 67
     1
  8
0
  2
$PAPER_SPACE
 70
     0
 10
0.0
 20
0.0
 30
0.0
  3
$PAPER_SPACE
  1

  0
ENDBLK
  5
A804
 67
     1
  8
0
  0
BLOCK
  8
0
  2
COTE
 70
     0
 10
0.0
 20
0.0
 30
0.0
  3
COTE
  1

  0
ENDBLK
  5
F
  8
0
  0
BLOCK
  8
0
  2
FOND
 70
     0
 10
0.0
 20
0.0
 30
0.0
  3
FOND
  1

  0
ENDBLK
  5
75
  8
0
  0
BLOCK
  8
0
  2
_OPEN30
 70
     0
 10
0.0
 20
0.0
 30
0.0
  3
_OPEN30
  1

  0
LINE
  5
4B05
  8
COTATION1
 62
     0
 10
-1.0
 20
0.267949
 30
0.0
 11
0.0
 21
0.0
 31
0.0
1001
ACAD
1000
RTLwPs
1070
   158
  0
LINE
  5
4B06
  8
COTATION1
 62
     0
 10
0.0
 20
0.0
 30
0.0
 11
-1.0
 21
-0.267949
 31
0.0
1001
ACAD
1000
RTLwPs
1070
   158
  0
LINE
  5
4B07
  8
COTATION1
 62
     0
 10
0.0
 20
0.0
 30
0.0
 11
-1.0
 21
0.0
 31
0.0
1001
ACAD
1000
RTLwPs
1070
   158
  0
ENDBLK
  5
4B09
  8
0
  0
BLOCK
  8
0
  2
*D3
 70
     1
 10
0.0
 20
0.0
 30
0.0
  3
*D3
  1

  0
LINE
  5
A722
  8
COTATION1
 62
     0
 10
11.903216
 20
65.442089
 30
0.0
 11
11.903216
 21
75.942089
 31
0.0
1001
ACAD
1000
RTLwPs
1070
   158
  0
LINE
  5
A723
  8
COTATION1
 62
     0
 10
27.659838
 20
65.442089
 30
0.0
 11
27.659838
 21
75.942089
 31
0.0
1001
ACAD
1000
RTLwPs
1070
   158
  0
LINE
  5
A724
  8
COTATION1
 62
     0
 10
16.903216
 20
73.442089
 30
0.0
 11
22.659838
 21
73.442089
 31
0.0
1001
ACAD
1000
RTLwPs
1070
   158
  0
INSERT
  5
A725
  8
COTATION1
 62
     0
  2
_OPEN30
 10
11.903216
 20
73.442089
 30
0.0
 41
5.0
 42
5.0
 43
5.0
 50
180.0
1001
ACAD
1000
RTLwPs
1070
   158
  0
INSERT
  5
A726
  8
COTATION1
 62
     0
  2
_OPEN30
 10
27.659838
 20
73.442089
 30
0.0
 41
5.0
 42
5.0
 43
5.0
1001
ACAD
1000
RTLwPs
1070
   158
  0
TEXT
  5
A727
  8
COTATION1
 62
     0
 10
15.436289
 20
75.442089
 30
0.0
 40
2.5
  1
15.8
1001
ACAD
1000
MTEXTBEGIN
1070
    73
1070
     1
1070
    44
1040
1.0
1070
    74
1070
     0
1000
MTEXTEND
  0
POINT
  5
A728
  8
DEFPOINTS
 62
     0
 10
11.903216
 20
63.442089
 30
0.0
  0
POINT
  5
A729
  8
DEFPOINTS
 62
     0
 10
27.659838
 20
63.442089
 30
0.0
  0
POINT
  5
A72A
  8
DEFPOINTS
 62
     0
 10
27.659838
 20
73.442089
 30
0.0
  0
ENDBLK
  5
9B98
  8
0
  0
BLOCK
  8
0
  2
*D4
 70
     1
 10
0.0
 20
0.0
 30
0.0
  3
*D4
  1

  0
LINE
  5
A761
  8
COTATION1
 62
     0
 10
7.931527
 20
50.942089
 30
0.0
 11
7.931527
 21
75.942089
 31
0.0
1001
ACAD
1000
RTLwPs
1070
   158
  0
LINE
  5
A762
  8
COTATION1
 62
     0
 10
11.903216
 20
65.442089
 30
0.0
 11
11.903216
 21
75.942089
 31
0.0
1001
ACAD
1000
RTLwPs
1070
   158
  0
LINE
  5
A763
  8
COTATION1
 62
     0
 10
2.931527
 20
73.442089
 30
0.0
 11
-2.068473
 21
73.442089
 31
0.0
1001
ACAD
1000
RTLwPs
1070
   158
  0
LINE
  5
A764
  8
COTATION1
 62
     0
 10
16.903216
 20
73.442089
 30
0.0
 11
21.903216
 21
73.442089
 31
0.0
1001
ACAD
1000
RTLwPs
1070
   158
  0
TEXT
  5
A765
  8
COTATION1
 62
     0
 10
-1.351325
 20
75.644998
 30
0.0
 40
2.5
  1
4
1001
ACAD
1000
MTEXTBEGIN
1070
    73
1070
     1
1070
    44
1040
1.0
1070
    74
1070
     0
1000
MTEXTEND
  0
INSERT
  5
A766
  8
COTATION1
 62
     0
  2
_OPEN30
 10
7.931527
 20
73.442089
 30
0.0
 41
5.0
 42
5.0
 43
5.0
1001
ACAD
1000
RTLwPs
1070
   158
  0
INSERT
  5
A767
  8
COTATION1
 62
     0
  2
_OPEN30
 10
11.903216
 20
73.442089
 30
0.0
 41
5.0
 42
5.0
 43
5.0
 50
180.0
1001
ACAD
1000
RTLwPs
1070
   158
  0
POINT
  5
A768
  8
DEFPOINTS
 62
     0
 10
7.931527
 20
48.942089
 30
0.0
  0
POINT
  5
A769
  8
DEFPOINTS
 62
     0
 10
11.903216
 20
63.442089
 30
0.0
  0
POINT
  5
A76A
  8
DEFPOINTS
 62
     0
 10
11.903216
 20
73.442089
 30
0.0
  0
ENDBLK
  5
A738
  8
0
  0
BLOCK
  8
0
  2
*D5
 70
     1
 10
0.0
 20
0.0
 30
0.0
  3
*D5
  1

  0
LINE
  5
A78B
  8
COTATION1
 62
     0
 10
7.931527
 20
46.942089
 30
0.0
 11
7.931527
 21
-7.937092
 31
0.0
1001
ACAD
1000
RTLwPs
1070
   158
  0
LINE
  5
A78C
  8
COTATION1
 62
     0
 10
20.781527
 20
14.042089
 30
0.0
 11
20.781527
 21
-7.937092
 31
0.0
1001
ACAD
1000
RTLwPs
1070
   158
  0
LINE
  5
A78D
  8
COTATION1
 62
     0
 10
2.931527
 20
-5.437092
 30
0.0
 11
-2.068473
 21
-5.437092
 31
0.0
1001
ACAD
1000
RTLwPs
1070
   158
  0
LINE
  5
A78E
  8
COTATION1
 62
     0
 10
25.781527
 20
-5.437092
 30
0.0
 11
30.781527
 21
-5.437092
 31
0.0
1001
ACAD
1000
RTLwPs
1070
   158
  0
INSERT
  5
A78F
  8
COTATION1
 62
     0
  2
_OPEN30
 10
7.931527
 20
-5.437092
 30
0.0
 41
5.0
 42
5.0
 43
5.0
1001
ACAD
1000
RTLwPs
1070
   158
  0
INSERT
  5
A790
  8
COTATION1
 62
     0
  2
_OPEN30
 10
20.781527
 20
-5.437092
 30
0.0
 41
5.0
 42
5.0
 43
5.0
 50
180.0
1001
ACAD
1000
RTLwPs
1070
   158
  0
TEXT
  5
A791
  8
COTATION1
 62
     0
 10
10.070812
 20
-3.437092
 30
0.0
 40
2.5
  1
12.9
1001
ACAD
1000
MTEXTBEGIN
1070
    73
1070
     1
1070
    44
1040
1.0
1070
    74
1070
     0
1000
MTEXTEND
  0
POINT
  5
A792
  8
DEFPOINTS
 62
     0
 10
7.931527
 20
48.942089
 30
0.0
  0
POINT
  5
A793
  8
DEFPOINTS
 62
     0
 10
20.781527
 20
16.042089
 30
0.0
  0
POINT
  5
A794
  8
DEFPOINTS
 62
     0
 10
20.781527
 20
-5.437092
 30
0.0
  0
ENDBLK
  5
A781
  8
0
  0
ENDSEC
  0
SECTION
  2
ENTITIES
  0
INSERT
  5
A
  8
0
  2
COTE
 10
0.0
 20
0.0
 30
0.0
  0
INSERT
  5
17
  8
0
  2
COTE
 10
284.010391
 20
6.373258
 30
0.0
  0
INSERT
  5
72
  8
0
  2
FOND
 10
0.0
 20
0.0
 30
0.0
  0
DIMENSION
  5
9B8C
  8
COTATION1
  2
*D3
 10
27.659838
 20
73.442089
 30
0.0
 11
19.781527
 21
76.692089
 31
0.0
 13
11.903216
 23
63.442089
 33
0.0
 14
27.659838
 24
63.442089
 34
0.0
  0
LINE
  5
9BBF
  8
AXE
 10
11.903216
 20
34.442089
 30
0.0
 11
11.903216
 21
63.442089
 31
0.0
  0
TEXT
  5
9BC2
  8
AXE
 10
37.583908
 20
49.942089
 30
0.0
 40
5.0
  1
Z
 72
     2
 11
41.631527
 21
49.942089
 31
0.0
  0
LINE
  5
9BC3
  8
AXE
 10
2.931527
 20
48.942089
 30
0.0
 11
41.631527
 21
48.942089
 31
0.0
  0
LINE
  5
9E84
  8
ALPHA
 10
18.781527
 20
36.169925
 30
0.0
 11
18.781527
 21
16.042089
 31
0.0
  0
LINE
  5
9E85
  8
ALPHA
 10
20.781527
 20
36.169925
 30
0.0
 11
20.781527
 21
16.042089
 31
0.0
  0
LINE
  5
9E86
  8
ALPHA
 10
20.781527
 20
16.042089
 30
0.0
 11
18.781527
 21
16.042089
 31
0.0
  0
LINE
  5
9E87
  8
ALPHA
 10
20.781527
 20
24.042089
 30
0.0
 11
18.781527
 21
24.042089
 31
0.0
  0
LINE
  5
9E88
  8
ALPHA
 10
20.781527
 20
25.03562
 30
0.0
 11
18.781527
 21
25.03562
 31
0.0
  0
LINE
  5
A33F
  8
ALPHA
 10
20.781527
 20
36.169925
 30
0.0
 11
20.781527
 21
16.042089
 31
0.0
  0
LINE
  5
A340
  8
ALPHA
 10
18.781527
 20
36.169925
 30
0.0
 11
18.781527
 21
16.042089
 31
0.0
  0
LINE
  5
A341
  8
ALPHA
 10
20.781527
 20
16.042089
 30
0.0
 11
18.781527
 21
16.042089
 31
0.0
  0
ARC
  5
A342
  8
ALPHA
 10
17.331527
 20
42.258677
 30
0.0
 40
0.5
 50
180.0
 51
218.0
  0
LINE
  5
A343
  8
ALPHA
 10
14.531527
 20
58.442089
 30
0.0
 11
14.531527
 21
39.442089
 31
0.0
  0
LINE
  5
A344
  8
ALPHA
 10
14.831527
 20
42.086514
 30
0.0
 11
14.831527
 21
54.942089
 31
0.0
  0
ARC
  5
A345
  8
ALPHA
 10
53.528718
 20
48.942089
 30
0.0
 40
45.5
 50
186.435689
 51
191.744035
  0
LINE
  5
A346
  8
ALPHA
 10
8.981184
 20
39.681027
 30
0.0
 11
8.981184
 21
58.203151
 31
0.0
  0
LINE
  5
A347
  8
ALPHA
 10
9.274904
 20
58.442089
 30
0.0
 11
9.274904
 21
39.442089
 31
0.0
  0
LINE
  5
A348
  8
ALPHA
 10
16.831527
 20
42.086514
 30
0.0
 11
15.255505
 21
40.855191
 31
0.0
  0
LINE
  5
A349
  8
ALPHA
 10
16.831527
 20
42.086514
 30
0.0
 11
14.831527
 21
42.086514
 31
0.0
  0
LINE
  5
A34A
  8
ALPHA
 10
18.675532
 20
36.477756
 30
0.0
 11
15.255505
 21
40.855191
 31
0.0
  0
ARC
  5
A34B
  8
ALPHA
 10
16.831527
 20
42.086514
 30
0.0
 40
2.0
 50
180.0
 51
218.0
  0
ARC
  5
A34C
  8
ALPHA
 10
9.274904
 20
39.742089
 30
0.0
 40
0.3
 50
191.744035
 51
270.0
  0
LINE
  5
A34D
  8
ALPHA
 10
9.274904
 20
39.442089
 30
0.0
 11
14.531527
 21
39.442089
 31
0.0
  0
LINE
  5
A34E
  8
ALPHA
 10
20.781527
 20
24.042089
 30
0.0
 11
18.781527
 21
24.042089
 31
0.0
  0
LINE
  5
A34F
  8
ALPHA
 10
20.781527
 20
25.03562
 30
0.0
 11
18.781527
 21
25.03562
 31
0.0
  0
ARC
  5
A350
  8
ALPHA
 10
18.281527
 20
36.169925
 30
0.0
 40
0.5
 50
0.0
 51
38.0
  0
LINE
  5
A351
  8
ALPHA
 10
18.754286
 20
36.332709
 30
0.0
 11
20.645323
 21
36.983846
 31
0.0
  0
ARC
  5
A352
  8
ALPHA
 10
18.281527
 20
36.169925
 30
0.0
 40
2.5
 50
0.0
 51
38.0
  0
LINE
  5
A353
  8
ALPHA
 10
20.251554
 20
37.709079
 30
0.0
 11
16.831527
 21
42.086514
 31
0.0
  0
LINE
  5
A354
  8
ALPHA
 10
16.831527
 20
51.00095
 30
0.0
 11
14.831527
 21
51.00095
 31
0.0
  0
LINE
  5
A355
  8
ALPHA
 10
14.831527
 20
54.942089
 30
0.0
 11
16.831527
 21
54.942089
 31
0.0
  0
LINE
  5
A356
  8
ALPHA
 10
8.315445
 20
43.842089
 30
0.0
 11
8.315445
 21
54.042089
 31
0.0
  0
ARC
  5
A357
  8
ALPHA
 10
38.414189
 20
48.970355
 30
0.0
 40
30.5
 50
181.932016
 51
189.260707
  0
ARC
  5
A358
  8
ALPHA
 10
38.414189
 20
48.913823
 30
0.0
 40
30.5
 50
170.739293
 51
178.067984
  0
LINE
  5
A359
  8
ALPHA
 10
7.931527
 20
47.942089
 30
0.0
 11
7.931527
 21
49.942089
 31
0.0
  0
LINE
  5
A35A
  8
ALPHA
 10
14.531527
 20
53.392089
 30
0.0
 11
14.781527
 21
53.142089
 31
0.0
  0
LINE
  5
A35B
  8
ALPHA
 10
14.781527
 20
51.917089
 30
0.0
 11
14.831527
 21
51.917089
 31
0.0
  0
LINE
  5
A35C
  8
ALPHA
 10
14.781527
 20
45.967089
 30
0.0
 11
14.831527
 21
45.967089
 31
0.0
  0
LINE
  5
A35D
  8
ALPHA
 10
14.531527
 20
44.492089
 30
0.0
 11
14.781527
 21
44.742089
 31
0.0
  0
LINE
  5
A35E
  8
ALPHA
 10
14.781527
 20
53.14204
 30
0.0
 11
14.781527
 21
44.742138
 31
0.0
  0
ARC
  5
A35F
  8
ALPHA
 10
9.274904
 20
58.142089
 30
0.0
 40
0.3
 50
90.0
 51
168.255965
  0
ARC
  5
A360
  8
ALPHA
 10
53.528718
 20
48.942089
 30
0.0
 40
45.5
 50
168.255965
 51
173.564311
  0
LINE
  5
A361
  8
ALPHA
 10
9.274904
 20
58.442089
 30
0.0
 11
14.531527
 21
58.442089
 31
0.0
  0
LINE
  5
A362
  8
ALPHA
 10
16.831527
 20
42.258677
 30
0.0
 11
16.831527
 21
54.942089
 31
0.0
  0
LINE
  5
A363
  8
ALPHA
 10
16.831527
 20
50.992089
 30
0.0
 11
18.331527
 21
50.992089
 31
0.0
  0
LINE
  5
A364
  8
ALPHA
 10
16.831527
 20
46.892089
 30
0.0
 11
18.331527
 21
46.892089
 31
0.0
  0
LINE
  5
A365
  8
ALPHA
 10
18.331527
 20
50.992033
 30
0.0
 11
18.331527
 21
46.892145
 31
0.0
  0
LINE
  5
A6F5
  8
POINTILLE_COURT
 10
30.288149
 20
58.442089
 30
0.0
 11
25.031527
 21
58.442089
 31
0.0
  0
LINE
  5
A6F6
  8
POINTILLE_COURT
 10
30.288149
 20
39.442089
 30
0.0
 11
25.031527
 21
39.442089
 31
0.0
  0
ARC
  5
A6F7
  8
POINTILLE_COURT
 10
1.148865
 20
48.913823
 30
0.0
 40
30.5
 50
1.932016
 51
9.260707
  0
LINE
  5
A6F8
  8
POINTILLE_COURT
 10
31.247608
 20
43.842089
 30
0.0
 11
31.247608
 21
54.042089
 31
0.0
  0
LINE
  5
A6F9
  8
POINTILLE_COURT
 10
30.288149
 20
58.442089
 30
0.0
 11
30.288149
 21
39.442089
 31
0.0
  0
LINE
  5
A6FA
  8
POINTILLE_COURT
 10
30.581869
 20
39.681027
 30
0.0
 11
30.581869
 21
58.203151
 31
0.0
  0
LINE
  5
A6FB
  8
POINTILLE_COURT
 10
31.631527
 20
47.942089
 30
0.0
 11
31.631527
 21
49.942089
 31
0.0
  0
ARC
  5
A6FC
  8
POINTILLE_COURT
 10
1.148865
 20
48.970355
 30
0.0
 40
30.5
 50
350.739293
 51
358.067984
  0
ARC
  5
A6FD
  8
POINTILLE_COURT
 10
30.288149
 20
39.742089
 30
0.0
 40
0.3
 50
270.0
 51
348.255965
  0
ARC
  5
A6FE
  8
POINTILLE_COURT
 10
-13.965664
 20
48.942089
 30
0.0
 40
45.5
 50
348.255965
 51
353.564311
  0
ARC
  5
A6FF
  8
POINTILLE_COURT
 10
-13.965664
 20
48.942089
 30
0.0
 40
45.5
 50
6.435689
 51
11.744035
  0
ARC
  5
A700
  8
POINTILLE_COURT
 10
30.288149
 20
58.142089
 30
0.0
 40
0.3
 50
11.744035
 51
90.0
  0
LINE
  5
A701
  8
AXE
 10
27.659838
 20
34.442089
 30
0.0
 11
27.659838
 21
63.442089
 31
0.0
  0
LINE
  5
A702
  8
POINTILLE_COURT
 10
21.231527
 20
50.992033
 30
0.0
 11
21.231527
 21
46.892145
 31
0.0
  0
LINE
  5
A703
  8
POINTILLE_COURT
 10
22.731527
 20
42.258677
 30
0.0
 11
22.731527
 21
54.942089
 31
0.0
  0
LINE
  5
A704
  8
POINTILLE_COURT
 10
24.781527
 20
53.14204
 30
0.0
 11
24.781527
 21
44.742138
 31
0.0
  0
LINE
  5
A705
  8
POINTILLE_COURT
 10
24.731527
 20
42.086514
 30
0.0
 11
24.731527
 21
54.942089
 31
0.0
  0
LINE
  5
A706
  8
POINTILLE_COURT
 10
25.031527
 20
58.442089
 30
0.0
 11
25.031527
 21
39.442089
 31
0.0
  0
LINE
  5
A707
  8
POINTILLE_COURT
 10
19.3115
 20
37.709079
 30
0.0
 11
22.731527
 21
42.086514
 31
0.0
  0
LINE
  5
A708
  8
POINTILLE_COURT
 10
20.887521
 20
36.477756
 30
0.0
 11
24.307548
 21
40.855191
 31
0.0
  0
LINE
  5
A709
  8
POINTILLE_COURT
 10
20.808767
 20
36.332709
 30
0.0
 11
18.91773
 21
36.983846
 31
0.0
  0
ARC
  5
A70A
  8
POINTILLE_COURT
 10
21.281527
 20
36.169925
 30
0.0
 40
0.5
 50
142.0
 51
180.0
  0
ARC
  5
A70B
  8
POINTILLE_COURT
 10
21.281527
 20
36.169925
 30
0.0
 40
2.5
 50
142.0
 51
180.0
  0
LINE
  5
A70C
  8
POINTILLE_COURT
 10
22.731527
 20
46.892089
 30
0.0
 11
21.231527
 21
46.892089
 31
0.0
  0
LINE
  5
A70D
  8
POINTILLE_COURT
 10
25.031527
 20
44.492089
 30
0.0
 11
24.781527
 21
44.742089
 31
0.0
  0
LINE
  5
A70E
  8
POINTILLE_COURT
 10
24.781527
 20
45.967089
 30
0.0
 11
24.731527
 21
45.967089
 31
0.0
  0
ARC
  5
A70F
  8
POINTILLE_COURT
 10
22.731527
 20
42.086514
 30
0.0
 40
2.0
 50
322.0
 51
0.0
  0
LINE
  5
A710
  8
POINTILLE_COURT
 10
22.731527
 20
42.086514
 30
0.0
 11
24.731527
 21
42.086514
 31
0.0
  0
LINE
  5
A711
  8
POINTILLE_COURT
 10
22.731527
 20
42.086514
 30
0.0
 11
24.307548
 21
40.855191
 31
0.0
  0
ARC
  5
A712
  8
POINTILLE_COURT
 10
22.231527
 20
42.258677
 30
0.0
 40
0.5
 50
322.0
 51
0.0
  0
LINE
  5
A713
  8
POINTILLE_COURT
 10
22.731527
 20
50.992089
 30
0.0
 11
21.231527
 21
50.992089
 31
0.0
  0
LINE
  5
A714
  8
POINTILLE_COURT
 10
24.781527
 20
51.917089
 30
0.0
 11
24.731527
 21
51.917089
 31
0.0
  0
LINE
  5
A715
  8
POINTILLE_COURT
 10
25.031527
 20
53.392089
 30
0.0
 11
24.781527
 21
53.142089
 31
0.0
  0
LINE
  5
A716
  8
POINTILLE_COURT
 10
24.731527
 20
54.942089
 30
0.0
 11
22.731527
 21
54.942089
 31
0.0
  0
LINE
  5
A717
  8
POINTILLE_COURT
 10
22.731527
 20
51.00095
 30
0.0
 11
24.731527
 21
51.00095
 31
0.0
  0
DIMENSION
  5
A72B
  8
COTATION1
  2
*D4
 10
11.903216
 20
73.442089
 30
0.0
 11
-0.101325
 21
76.894998
 31
0.0
 70
   128
 13
7.931527
 23
48.942089
 33
0.0
 14
11.903216
 24
63.442089
 34
0.0
  0
LINE
  5
A76B
  8
COTATION1
 10
30.519931
 20
-13.537444
 30
0.0
 11
57.019931
 21
-13.537444
 31
0.0
  0
LINE
  5
A76C
  8
COTATION1
 10
57.019931
 20
-18.537444
 30
0.0
 11
30.519931
 21
-18.537444
 31
0.0
  0
LINE
  5
A76D
  8
AXE
 10
19.781527
 20
4.562908
 30
0.0
 11
19.781527
 21
42.086514
 31
0.0
  0
DIMENSION
  5
A76E
  8
COTATION1
  2
*D5
 10
20.781527
 20
-5.437092
 30
0.0
 11
14.356527
 21
-2.187092
 31
0.0
 13
7.931527
 23
48.942089
 33
0.0
 14
20.781527
 24
16.042089
 34
0.0
  0
LINE
  5
A76F
  8
COTATION1
 10
20.781527
 20
-7.937092
 30
0.0
 11
20.781527
 21
-22.188719
 31
0.0
  0
LINE
  5
A770
  8
COTATION1
 10
23.281527
 20
-16.037444
 30
0.0
 11
30.519931
 21
-16.037444
 31
0.0
  0
SOLID
  5
A771
  8
COTATION1
 10
20.781527
 20
-17.48082
 30
0.0
 11
20.781527
 21
-14.594069
 31
0.0
 12
23.281527
 22
-16.037444
 32
0.0
 13
23.281527
 23
-16.037444
 33
0.0
  0
TEXT
  5
A772
  8
AXE
 10
14.733908
 20
4.562908
 30
0.0
 40
5.0
  1
Y
 72
     2
 11
18.781527
 21
4.562908
 31
0.0
  0
TEXT
  5
A773
  8
COTATION1
 10
31.769931
 20
-17.287444
 30
0.0
 40
2.5
  1
PLANE_TO_LINE_UP
 41
0.626087
  7
STANDARD
 72
     5
 11
55.769931
 21
-17.287444
 31
0.0
  0
LINE
  5
A774
  8
COTATION1
 10
30.519931
 20
-18.537444
 30
0.0
 11
30.519931
 21
-13.537444
 31
0.0
  0
LINE
  5
A775
  8
COTATION1
 10
57.019931
 20
-13.537444
 30
0.0
 11
57.019931
 21
-18.537444
 31
0.0
  0
VIEWPORT
  5
494D
 67
     1
  8
0
 10
4.995325
 20
6.556512
 30
0.0
 40
22.70986
 41
13.988421
 68
    -1
 69
     1
1001
ACAD
1000
MVIEW
1002
{
1070
    16
1010
0.0
1020
0.0
1030
0.0
1010
0.0
1020
0.0
1030
1.0
1040
0.0
1040
13.988421
1040
4.995325
1040
6.556512
1040
50.0
1040
0.0
1040
0.0
1070
     0
1070
   100
1070
     1
1070
     1
1070
     0
1070
     0
1070
     0
1070
     0
1040
0.0
1040
0.0
1040
0.0
1040
10.0
1040
10.0
1040
10.0
1040
10.0
1070
     0
1002
{
1002
}
1002
}
  0
ENDSEC
  0
EOF
