  0
SECTION
  2
HEADER
  9
$ACADVER
  1
AC1014
  9
$ACADMAINTVER
 70
     0
  9
$DWGCODEPAGE
  3
ANSI_1252
  9
$INSBASE
 10
-19.338193
 20
-13.569653
 30
0.0
  9
$EXTMIN
 10
-44.652406
 20
-43.97344
 30
0.0
  9
$EXTMAX
 10
112.367573
 20
21.46811
 30
0.0
  9
$LIMMIN
 10
0.0
 20
0.0
  9
$LIMMAX
 10
210.0
 20
297.0
  9
$ORTHOMODE
 70
     1
  9
$REGENMODE
 70
     1
  9
$FILLMODE
 70
     1
  9
$QTEXTMODE
 70
     0
  9
$MIRRTEXT
 70
     1
  9
$DRAGMODE
 70
     2
  9
$LTSCALE
 40
10.0
  9
$OSMODE
 70
     0
  9
$ATTMODE
 70
     1
  9
$TEXTSIZE
 40
2.9
  9
$TRACEWID
 40
0.05
  9
$TEXTSTYLE
  7
ROMANS
  9
$CLAYER
  8
AXE
  9
$CELTYPE
  6
BYLAYER
  9
$CECOLOR
 62
   256
  9
$CELTSCALE
 40
1.0
  9
$DELOBJ
 70
     1
  9
$DISPSILH
 70
     0
  9
$DIMSCALE
 40
1.0
  9
$DIMASZ
 40
3.0
  9
$DIMEXO
 40
0.0625
  9
$DIMDLI
 40
0.38
  9
$DIMRND
 40
0.01
  9
$DIMDLE
 40
0.0
  9
$DIMEXE
 40
0.18
  9
$DIMTP
 40
0.0
  9
$DIMTM
 40
0.0
  9
$DIMTXT
 40
2.5
  9
$DIMCEN
 40
0.09
  9
$DIMTSZ
 40
0.0
  9
$DIMTOL
 70
     0
  9
$DIMLIM
 70
     0
  9
$DIMTIH
 70
     0
  9
$DIMTOH
 70
     0
  9
$DIMSE1
 70
     0
  9
$DIMSE2
 70
     0
  9
$DIMTAD
 70
     1
  9
$DIMZIN
 70
    12
  9
$DIMBLK
  1
_OPEN
  9
$DIMASO
 70
     1
  9
$DIMSHO
 70
     1
  9
$DIMPOST
  1

  9
$DIMAPOST
  1

  9
$DIMALT
 70
     0
  9
$DIMALTD
 70
     2
  9
$DIMALTF
 40
25.4
  9
$DIMLFAC
 40
1.0
  9
$DIMTOFL
 70
     1
  9
$DIMTVP
 40
0.0
  9
$DIMTIX
 70
     0
  9
$DIMSOXD
 70
     0
  9
$DIMSAH
 70
     0
  9
$DIMBLK1
  1

  9
$DIMBLK2
  1

  9
$DIMSTYLE
  2
SC_STAND
  9
$DIMCLRD
 70
     0
  9
$DIMCLRE
 70
     0
  9
$DIMCLRT
 70
     0
  9
$DIMTFAC
 40
1.0
  9
$DIMGAP
 40
1.0
  9
$DIMJUST
 70
     0
  9
$DIMSD1
 70
     0
  9
$DIMSD2
 70
     0
  9
$DIMTOLJ
 70
     1
  9
$DIMTZIN
 70
    12
  9
$DIMALTZ
 70
    12
  9
$DIMALTTZ
 70
    12
  9
$DIMFIT
 70
     5
  9
$DIMUPT
 70
     0
  9
$DIMUNIT
 70
     2
  9
$DIMDEC
 70
     4
  9
$DIMTDEC
 70
     4
  9
$DIMALTU
 70
     2
  9
$DIMALTTD
 70
     2
  9
$DIMTXSTY
  7
ROMANS
  9
$DIMAUNIT
 70
     0
  9
$LUNITS
 70
     2
  9
$LUPREC
 70
     4
  9
$SKETCHINC
 40
0.1
  9
$FILLETRAD
 40
0.0
  9
$AUNITS
 70
     0
  9
$AUPREC
 70
     0
  9
$MENU
  1
.
  9
$ELEVATION
 40
0.0
  9
$PELEVATION
 40
0.0
  9
$THICKNESS
 40
0.0
  9
$LIMCHECK
 70
     0
  9
$BLIPMODE
 70
     1
  9
$CHAMFERA
 40
0.5
  9
$CHAMFERB
 40
0.5
  9
$CHAMFERC
 40
0.0
  9
$CHAMFERD
 40
0.0
  9
$SKPOLY
 70
     0
  9
$TDCREATE
 40
2451260.632006713
  9
$TDUPDATE
 40
2451387.896171319
  9
$TDINDWG
 40
0.0249295139
  9
$TDUSRTIMER
 40
0.0249295139
  9
$USRTIMER
 70
     1
  9
$ANGBASE
 50
0.0
  9
$ANGDIR
 70
     0
  9
$PDMODE
 70
     0
  9
$PDSIZE
 40
0.0
  9
$PLINEWID
 40
0.0
  9
$COORDS
 70
     1
  9
$SPLFRAME
 70
     0
  9
$SPLINETYPE
 70
     6
  9
$SPLINESEGS
 70
     8
  9
$ATTDIA
 70
     1
  9
$ATTREQ
 70
     1
  9
$HANDLING
 70
     1
  9
$HANDSEED
  5
379
  9
$SURFTAB1
 70
     6
  9
$SURFTAB2
 70
     6
  9
$SURFTYPE
 70
     6
  9
$SURFU
 70
     6
  9
$SURFV
 70
     6
  9
$UCSNAME
  2

  9
$UCSORG
 10
0.0
 20
0.0
 30
0.0
  9
$UCSXDIR
 10
1.0
 20
0.0
 30
0.0
  9
$UCSYDIR
 10
0.0
 20
1.0
 30
0.0
  9
$PUCSNAME
  2

  9
$PUCSORG
 10
0.0
 20
0.0
 30
0.0
  9
$PUCSXDIR
 10
1.0
 20
0.0
 30
0.0
  9
$PUCSYDIR
 10
0.0
 20
1.0
 30
0.0
  9
$USERI1
 70
     0
  9
$USERI2
 70
     0
  9
$USERI3
 70
     0
  9
$USERI4
 70
     0
  9
$USERI5
 70
     0
  9
$USERR1
 40
0.0
  9
$USERR2
 40
0.0
  9
$USERR3
 40
0.0
  9
$USERR4
 40
0.0
  9
$USERR5
 40
0.0
  9
$WORLDVIEW
 70
     1
  9
$SHADEDGE
 70
     3
  9
$SHADEDIF
 70
    70
  9
$TILEMODE
 70
     1
  9
$MAXACTVP
 70
    16
  9
$PINSBASE
 10
0.0
 20
0.0
 30
0.0
  9
$PLIMCHECK
 70
     0
  9
$PEXTMIN
 10
0.0
 20
0.0
 30
0.0
  9
$PEXTMAX
 10
420.0
 20
297.0
 30
0.0
  9
$PLIMMIN
 10
0.0
 20
0.0
  9
$PLIMMAX
 10
420.0
 20
297.0
  9
$UNITMODE
 70
     0
  9
$VISRETAIN
 70
     0
  9
$PLINEGEN
 70
     0
  9
$PSLTSCALE
 70
     1
  9
$TREEDEPTH
 70
  3020
  9
$PICKSTYLE
 70
     1
  9
$CMLSTYLE
  2
STANDARD
  9
$CMLJUST
 70
     0
  9
$CMLSCALE
 40
1.0
  9
$PROXYGRAPHICS
 70
     1
  9
$MEASUREMENT
 70
     0
  0
ENDSEC
  0
SECTION
  2
CLASSES
  0
CLASS
  1
DICTIONARYVAR
  2
AcDbDictionaryVar
  3
"AutoCAD"
 90
        0
280
     0
281
     0
  0
CLASS
  1
LWPOLYLINE
  2
AcDbPolyline
  3
"AutoCAD"
 90
        0
280
     0
281
     1
  0
ENDSEC
  0
SECTION
  2
TABLES
  0
TABLE
  2
VPORT
  5
348
100
AcDbSymbolTable
 70
     1
  0
VPORT
  5
374
100
AcDbSymbolTableRecord
100
AcDbViewportTableRecord
  2
*ACTIVE
 70
     0
 10
0.0
 20
0.0
 11
1.0
 21
1.0
 12
33.857583
 22
3.008916
 13
0.0
 23
0.0
 14
1.0
 24
1.0
 15
0.0
 25
0.0
 16
0.0
 26
0.0
 36
1.0
 17
0.0
 27
0.0
 37
0.0
 40
93.964712
 41
1.671053
 42
50.0
 43
0.0
 44
0.0
 50
0.0
 51
0.0
 71
     0
 72
   100
 73
     1
 74
     1
 75
     0
 76
     0
 77
     0
 78
     0
  0
ENDTAB
  0
TABLE
  2
LTYPE
  5
345
100
AcDbSymbolTable
 70
     3
  0
LTYPE
  5
351
100
AcDbSymbolTableRecord
100
AcDbLinetypeTableRecord
  2
BYBLOCK
 70
     0
  3

 72
    65
 73
     0
 40
0.0
  0
LTYPE
  5
352
100
AcDbSymbolTableRecord
100
AcDbLinetypeTableRecord
  2
BYLAYER
 70
     0
  3

 72
    65
 73
     0
 40
0.0
  0
LTYPE
  5
353
100
AcDbSymbolTableRecord
100
AcDbLinetypeTableRecord
  2
CONTINUOUS
 70
     0
  3
Solid line
 72
    65
 73
     0
 40
0.0
  0
LTYPE
  5
362
100
AcDbSymbolTableRecord
100
AcDbLinetypeTableRecord
  2
AXES2
 70
     0
  3
___ _ ___ _ ___ _ ___ _ ___ _ ___ _ ___ _ ___ _
 72
    65
 73
     4
 40
1.125
 49
0.75
 74
     0
 49
-0.125
 74
     0
 49
0.125
 74
     0
 49
-0.125
 74
     0
  0
LTYPE
  5
363
100
AcDbSymbolTableRecord
100
AcDbLinetypeTableRecord
  2
CACHE
 70
     0
  3
__ __ __ __ __ __ __ __ __ __ __ __ __ __ __ __
 72
    65
 73
     2
 40
0.375
 49
0.25
 74
     0
 49
-0.125
 74
     0
  0
ENDTAB
  0
TABLE
  2
LAYER
  5
342
100
AcDbSymbolTable
 70
     6
  0
LAYER
  5
34E
100
AcDbSymbolTableRecord
100
AcDbLayerTableRecord
  2
0
 70
     0
 62
   255
  6
CONTINUOUS
  0
LAYER
  5
366
100
AcDbSymbolTableRecord
100
AcDbLayerTableRecord
  2
AXE
 70
     0
 62
    80
  6
AXES2
  0
LAYER
  5
367
100
AcDbSymbolTableRecord
100
AcDbLayerTableRecord
  2
COTATION1
 70
     0
 62
     2
  6
CONTINUOUS
  0
LAYER
  5
368
100
AcDbSymbolTableRecord
100
AcDbLayerTableRecord
  2
POINTILLE_MOYEN
 70
     0
 62
   140
  6
CACHE
  0
LAYER
  5
369
100
AcDbSymbolTableRecord
100
AcDbLayerTableRecord
  2
ALPHA
 70
     0
 62
   254
  6
CONTINUOUS
  0
LAYER
  5
36A
100
AcDbSymbolTableRecord
100
AcDbLayerTableRecord
  2
DEFPOINTS
 70
     0
 62
     7
  6
CONTINUOUS
  0
ENDTAB
  0
TABLE
  2
STYLE
  5
343
100
AcDbSymbolTable
 70
     2
  0
STYLE
  5
34F
100
AcDbSymbolTableRecord
100
AcDbTextStyleTableRecord
  2
STANDARD
 70
     0
 40
0.0
 41
1.0
 50
0.0
 71
     0
 42
0.2
  3
txt
  4

  0
STYLE
  5
361
100
AcDbSymbolTableRecord
100
AcDbTextStyleTableRecord
  2
ROMANS
 70
     0
 40
0.0
 41
1.0
 50
0.0
 71
     0
 42
2.9
  3
romans.shx
  4

  0
ENDTAB
  0
TABLE
  2
VIEW
  5
346
100
AcDbSymbolTable
 70
     0
  0
ENDTAB
  0
TABLE
  2
UCS
  5
347
100
AcDbSymbolTable
 70
     0
  0
ENDTAB
  0
TABLE
  2
APPID
  5
349
100
AcDbSymbolTable
 70
     1
  0
APPID
  5
350
100
AcDbSymbolTableRecord
100
AcDbRegAppTableRecord
  2
ACAD
 70
     0
  0
ENDTAB
  0
TABLE
  2
DIMSTYLE
  5
34A
100
AcDbSymbolTable
 70
     1
  0
DIMSTYLE
105
365
102
{ACAD_REACTORS
330
22
330
3F
330
53
330
27D
102
}
100
AcDbSymbolTableRecord
100
AcDbDimStyleTableRecord
  2
SC_STAND
 70
     0
  3

  4

  5

  6

  7

 40
1.0
 41
3.0
 42
0.0625
 43
0.38
 44
0.18
 45
0.01
 46
0.0
 47
0.0
 48
0.0
140
2.5
141
0.09
142
0.0
143
25.4
144
1.0
145
0.0
146
1.0
147
1.0
 71
     0
 72
     0
 73
     0
 74
     0
 75
     0
 76
     0
 77
     1
 78
    12
170
     0
171
     2
172
     1
173
     0
174
     0
175
     0
176
     0
177
     0
178
     0
270
     2
271
     4
272
     4
273
     2
274
     2
340
361
275
     0
280
     0
281
     0
282
     0
283
     1
284
    12
285
    12
286
    12
287
     5
288
     0
  0
ENDTAB
  0
TABLE
  2
BLOCK_RECORD
  5
341
100
AcDbSymbolTable
 70
     5
  0
BLOCK_RECORD
  5
357
100
AcDbSymbolTableRecord
100
AcDbBlockTableRecord
  2
*MODEL_SPACE
  0
BLOCK_RECORD
  5
354
100
AcDbSymbolTableRecord
100
AcDbBlockTableRecord
  2
*PAPER_SPACE
  0
BLOCK_RECORD
  5
35C
100
AcDbSymbolTableRecord
100
AcDbBlockTableRecord
  2
*D0
  0
BLOCK_RECORD
  5
35D
100
AcDbSymbolTableRecord
100
AcDbBlockTableRecord
  2
*D1
  0
BLOCK_RECORD
  5
35E
100
AcDbSymbolTableRecord
100
AcDbBlockTableRecord
  2
*D2
  0
BLOCK_RECORD
  5
35F
100
AcDbSymbolTableRecord
100
AcDbBlockTableRecord
  2
*D3
  0
BLOCK_RECORD
  5
360
100
AcDbSymbolTableRecord
100
AcDbBlockTableRecord
  2
_OPEN
  0
ENDTAB
  0
ENDSEC
  0
SECTION
  2
BLOCKS
  0
BLOCK
  5
36D
100
AcDbEntity
  8
0
100
AcDbBlockBegin
  2
*MODEL_SPACE
 70
     0
 10
0.0
 20
0.0
 30
0.0
  3
*MODEL_SPACE
  1

  0
ENDBLK
  5
36E
100
AcDbEntity
  8
0
100
AcDbBlockEnd
  0
BLOCK
  5
36B
100
AcDbEntity
 67
     1
  8
0
100
AcDbBlockBegin
  2
*PAPER_SPACE
 70
     0
 10
0.0
 20
0.0
 30
0.0
  3
*PAPER_SPACE
  1

  0
ENDBLK
  5
36C
100
AcDbEntity
 67
     1
  8
0
100
AcDbBlockEnd
  0
BLOCK
  5
5E
100
AcDbEntity
  8
0
100
AcDbBlockBegin
  2
*D0
 70
     1
 10
0.0
 20
0.0
 30
0.0
  3
*D0
  1

  0
LINE
  5
55
100
AcDbEntity
  8
0
  6
BYBLOCK
 62
     0
100
AcDbLine
 10
-34.338193
 20
-17.132153
 30
0.0
 11
-34.338193
 21
-31.059211
 31
0.0
  0
LINE
  5
56
100
AcDbEntity
  8
0
  6
BYBLOCK
 62
     0
100
AcDbLine
 10
-19.338193
 20
-17.632153
 30
0.0
 11
-19.338193
 21
-31.059211
 31
0.0
  0
LINE
  5
57
100
AcDbEntity
  8
0
  6
BYBLOCK
 62
     0
100
AcDbLine
 10
-31.338193
 20
-30.879211
 30
0.0
 11
-22.338193
 21
-30.879211
 31
0.0
  0
INSERT
  5
58
100
AcDbEntity
  8
0
  6
BYBLOCK
 62
     0
100
AcDbBlockReference
  2
_OPEN
 10
-34.338193
 20
-30.879211
 30
0.0
 41
3.0
 42
3.0
 43
3.0
 50
180.0
  0
INSERT
  5
59
100
AcDbEntity
  8
0
  6
BYBLOCK
 62
     0
100
AcDbBlockReference
  2
_OPEN
 10
-19.338193
 20
-30.879211
 30
0.0
 41
3.0
 42
3.0
 43
3.0
  0
TEXT
  5
5A
100
AcDbEntity
  8
0
  6
BYBLOCK
 62
     0
100
AcDbText
 10
-28.504859
 20
-29.879211
 30
0.0
 40
2.5
  1
15
100
AcDbText
  0
POINT
  5
5B
100
AcDbEntity
  8
DEFPOINTS
  6
BYBLOCK
 62
     0
100
AcDbPoint
 10
-34.338193
 20
-17.069653
 30
0.0
  0
POINT
  5
5C
100
AcDbEntity
  8
DEFPOINTS
  6
BYBLOCK
 62
     0
100
AcDbPoint
 10
-19.338193
 20
-17.569653
 30
0.0
  0
POINT
  5
5D
100
AcDbEntity
  8
DEFPOINTS
  6
BYBLOCK
 62
     0
100
AcDbPoint
 10
-19.338193
 20
-30.879211
 30
0.0
  0
ENDBLK
  5
5F
100
AcDbEntity
  8
0
100
AcDbBlockEnd
  0
BLOCK
  5
288
100
AcDbEntity
  8
0
100
AcDbBlockBegin
  2
*D1
 70
     1
 10
0.0
 20
0.0
 30
0.0
  3
*D1
  1

  0
LINE
  5
27F
100
AcDbEntity
  8
0
  6
BYBLOCK
 62
     0
100
AcDbLine
 10
59.141327
 20
-17.725385
 30
0.0
 11
59.141327
 21
-30.992866
 31
0.0
  0
LINE
  5
280
100
AcDbEntity
  8
0
  6
BYBLOCK
 62
     0
100
AcDbLine
 10
79.141327
 20
-17.725385
 30
0.0
 11
79.141327
 21
-30.992866
 31
0.0
  0
LINE
  5
281
100
AcDbEntity
  8
0
  6
BYBLOCK
 62
     0
100
AcDbLine
 10
62.141327
 20
-30.812866
 30
0.0
 11
76.141327
 21
-30.812866
 31
0.0
  0
INSERT
  5
282
100
AcDbEntity
  8
0
  6
BYBLOCK
 62
     0
100
AcDbBlockReference
  2
_OPEN
 10
59.141327
 20
-30.812866
 30
0.0
 41
3.0
 42
3.0
 43
3.0
 50
180.0
  0
INSERT
  5
283
100
AcDbEntity
  8
0
  6
BYBLOCK
 62
     0
100
AcDbBlockReference
  2
_OPEN
 10
79.141327
 20
-30.812866
 30
0.0
 41
3.0
 42
3.0
 43
3.0
  0
TEXT
  5
284
100
AcDbEntity
  8
0
  6
BYBLOCK
 62
     0
100
AcDbText
 10
67.266327
 20
-29.812866
 30
0.0
 40
2.5
  1
20
100
AcDbText
  0
POINT
  5
285
100
AcDbEntity
  8
DEFPOINTS
  6
BYBLOCK
 62
     0
100
AcDbPoint
 10
59.141327
 20
-17.662885
 30
0.0
  0
POINT
  5
286
100
AcDbEntity
  8
DEFPOINTS
  6
BYBLOCK
 62
     0
100
AcDbPoint
 10
79.141327
 20
-17.662885
 30
0.0
  0
POINT
  5
287
100
AcDbEntity
  8
DEFPOINTS
  6
BYBLOCK
 62
     0
100
AcDbPoint
 10
79.141327
 20
-30.812866
 30
0.0
  0
ENDBLK
  5
289
100
AcDbEntity
  8
0
100
AcDbBlockEnd
  0
BLOCK
  5
4C
100
AcDbEntity
  8
0
100
AcDbBlockBegin
  2
*D2
 70
     1
 10
0.0
 20
0.0
 30
0.0
  3
*D2
  1

  0
LINE
  5
41
100
AcDbEntity
  8
0
  6
BYBLOCK
 62
     0
100
AcDbLine
 10
-33.900693
 20
-17.569653
 30
0.0
 11
-41.332406
 21
-17.569653
 31
0.0
  0
LINE
  5
42
100
AcDbEntity
  8
0
  6
BYBLOCK
 62
     0
100
AcDbLine
 10
-33.900693
 20
-9.569653
 30
0.0
 11
-41.332406
 21
-9.569653
 31
0.0
  0
LINE
  5
43
100
AcDbEntity
  8
0
  6
BYBLOCK
 62
     0
100
AcDbLine
 10
-41.152406
 20
-20.569653
 30
0.0
 11
-41.152406
 21
-23.569653
 31
0.0
  0
LINE
  5
44
100
AcDbEntity
  8
0
  6
BYBLOCK
 62
     0
100
AcDbLine
 10
-41.152406
 20
-6.569653
 30
0.0
 11
-41.152406
 21
6.763681
 31
0.0
  0
LINE
  5
45
100
AcDbEntity
  8
0
  6
BYBLOCK
 62
     0
100
AcDbLine
 10
-41.152406
 20
-17.569653
 30
0.0
 11
-41.152406
 21
-9.569653
 31
0.0
  0
INSERT
  5
46
100
AcDbEntity
  8
0
  6
BYBLOCK
 62
     0
100
AcDbBlockReference
  2
_OPEN
 10
-41.152406
 20
-17.569653
 30
0.0
 41
3.0
 42
3.0
 43
3.0
 50
90.0
  0
INSERT
  5
47
100
AcDbEntity
  8
0
  6
BYBLOCK
 62
     0
100
AcDbBlockReference
  2
_OPEN
 10
-41.152406
 20
-9.569653
 30
0.0
 41
3.0
 42
3.0
 43
3.0
 50
270.0
  0
TEXT
  5
48
100
AcDbEntity
  8
0
  6
BYBLOCK
 62
     0
100
AcDbText
 10
-42.152406
 20
-2.569653
 30
0.0
 40
2.5
  1
M8x1
 50
90.0
100
AcDbText
  0
POINT
  5
49
100
AcDbEntity
  8
DEFPOINTS
  6
BYBLOCK
 62
     0
100
AcDbPoint
 10
-33.838193
 20
-17.569653
 30
0.0
  0
POINT
  5
4A
100
AcDbEntity
  8
DEFPOINTS
  6
BYBLOCK
 62
     0
100
AcDbPoint
 10
-33.838193
 20
-9.569653
 30
0.0
  0
POINT
  5
4B
100
AcDbEntity
  8
DEFPOINTS
  6
BYBLOCK
 62
     0
100
AcDbPoint
 10
-41.152406
 20
-9.569653
 30
0.0
  0
ENDBLK
  5
4D
100
AcDbEntity
  8
0
100
AcDbBlockEnd
  0
BLOCK
  5
37
100
AcDbEntity
  8
0
100
AcDbBlockBegin
  2
*D3
 70
     1
 10
0.0
 20
0.0
 30
0.0
  3
*D3
  1

  0
LINE
  5
25
100
AcDbEntity
  8
0
  6
BYBLOCK
 62
     0
100
AcDbLine
 10
79.203448
 20
-15.56988
 30
0.0
 11
87.724905
 21
-15.56988
 31
0.0
  0
LINE
  5
26
100
AcDbEntity
  8
0
  6
BYBLOCK
 62
     0
100
AcDbLine
 10
79.203478
 20
-11.569653
 30
0.0
 11
87.724905
 21
-11.569653
 31
0.0
  0
LINE
  5
27
100
AcDbEntity
  8
0
  6
BYBLOCK
 62
     0
100
AcDbLine
 10
87.544905
 20
-18.56988
 30
0.0
 11
87.544905
 21
-21.56988
 31
0.0
  0
LINE
  5
28
100
AcDbEntity
  8
0
  6
BYBLOCK
 62
     0
100
AcDbLine
 10
87.544905
 20
-8.569653
 30
0.0
 11
87.544905
 21
0.597014
 31
0.0
  0
LINE
  5
29
100
AcDbEntity
  8
0
  6
BYBLOCK
 62
     0
100
AcDbLine
 10
87.544905
 20
-15.56988
 30
0.0
 11
87.544905
 21
-11.569653
 31
0.0
  0
INSERT
  5
2A
100
AcDbEntity
  8
0
  6
BYBLOCK
 62
     0
100
AcDbBlockReference
  2
_OPEN
 10
87.544905
 20
-15.56988
 30
0.0
 41
3.0
 42
3.0
 43
3.0
 50
90.0
  0
INSERT
  5
31
100
AcDbEntity
  8
0
  6
BYBLOCK
 62
     0
100
AcDbBlockReference
  2
_OPEN
 10
87.544905
 20
-11.569653
 30
0.0
 41
3.0
 42
3.0
 43
3.0
 50
270.0
  0
TEXT
  5
32
100
AcDbEntity
  8
0
  6
BYBLOCK
 62
     0
100
AcDbText
 10
86.544905
 20
-4.569653
 30
0.0
 40
2.5
  1
M4
 50
90.0
100
AcDbText
  0
POINT
  5
33
100
AcDbEntity
  8
DEFPOINTS
  6
BYBLOCK
 62
     0
100
AcDbPoint
 10
79.140948
 20
-15.56988
 30
0.0
  0
POINT
  5
35
100
AcDbEntity
  8
DEFPOINTS
  6
BYBLOCK
 62
     0
100
AcDbPoint
 10
79.140978
 20
-11.569653
 30
0.0
  0
POINT
  5
36
100
AcDbEntity
  8
DEFPOINTS
  6
BYBLOCK
 62
     0
100
AcDbPoint
 10
87.544905
 20
-11.569653
 30
0.0
  0
ENDBLK
  5
38
100
AcDbEntity
  8
0
100
AcDbBlockEnd
  0
BLOCK
  5
2F
100
AcDbEntity
  8
0
100
AcDbBlockBegin
  2
_OPEN
 70
     0
 10
0.0
 20
0.0
 30
0.0
  3
_OPEN
  1

  0
LINE
  5
2C
100
AcDbEntity
  8
0
  6
BYBLOCK
 62
     0
100
AcDbLine
 10
-1.0
 20
0.166667
 30
0.0
 11
0.0
 21
0.0
 31
0.0
  0
LINE
  5
2D
100
AcDbEntity
  8
0
  6
BYBLOCK
 62
     0
100
AcDbLine
 10
0.0
 20
0.0
 30
0.0
 11
-1.0
 21
-0.166667
 31
0.0
  0
LINE
  5
2E
100
AcDbEntity
  8
0
  6
BYBLOCK
 62
     0
100
AcDbLine
 10
0.0
 20
0.0
 30
0.0
 11
-1.0
 21
0.0
 31
0.0
  0
ENDBLK
  5
30
100
AcDbEntity
  8
0
100
AcDbBlockEnd
  0
ENDSEC
  0
SECTION
  2
ENTITIES
  0
LINE
  5
21
100
AcDbEntity
  8
AXE
100
AcDbLine
 10
-39.724294
 20
-13.569653
 30
0.0
 11
112.367573
 21
-13.569653
 31
0.0
  0
DIMENSION
  5
22
100
AcDbEntity
  8
COTATION1
100
AcDbDimension
  2
*D3
 10
87.544905
 20
-11.569653
 30
0.0
 11
85.294905
 21
-2.486319
 31
0.0
  1
{M<>}
  3
SC_STAND
100
AcDbAlignedDimension
 13
79.140948
 23
-15.56988
 33
0.0
 14
79.140978
 24
-11.569653
 34
0.0
 50
90.0
100
AcDbRotatedDimension
1001
ACAD
1000
DSTYLE
1002
{
1070
   284
1070
     0
1070
   340
1005
E
1070
   287
1070
     3
1070
     5
1000
_OPEN
1070
   285
1070
     0
1070
   286
1070
     0
1002
}
  0
LINE
  5
39
100
AcDbEntity
  8
COTATION1
100
AcDbLine
 10
-16.338193
 20
-38.470283
 30
0.0
 11
39.696602
 21
-38.470283
 31
0.0
  0
LINE
  5
3A
100
AcDbEntity
  8
ALPHA
100
AcDbLine
 10
2.948307
 20
-16.342433
 30
0.0
 11
3.31801
 21
-16.342433
 31
0.0
  0
LINE
  5
3B
100
AcDbEntity
  8
ALPHA
100
AcDbLine
 10
3.417308
 20
-16.230611
 30
0.0
 11
2.778102
 21
-10.861405
 31
0.0
  0
ARC
  5
3C
100
AcDbEntity
  8
ALPHA
100
AcDbCircle
 10
3.12272
 20
-11.049204
 30
0.0
 40
0.450296
100
AcDbArc
 50
231.501766
 51
322.076497
  0
LINE
  5
3D
100
AcDbEntity
  8
AXE
100
AcDbLine
 10
-19.338193
 20
-9.569653
 30
0.0
 11
-19.338193
 21
21.316313
 31
0.0
  0
TEXT
  5
3E
100
AcDbEntity
  8
AXE
100
AcDbText
 10
-36.617828
 20
6.46811
 30
0.0
 40
15.0
  1
Y
  7
ROMANS
100
AcDbText
  0
DIMENSION
  5
3F
100
AcDbEntity
  8
COTATION1
100
AcDbDimension
  2
*D2
 10
-41.152406
 20
-9.569653
 30
0.0
 11
-43.402406
 21
1.597014
 31
0.0
  1
{M<>x1}
  3
SC_STAND
100
AcDbAlignedDimension
 13
-33.838193
 23
-17.569653
 33
0.0
 14
-33.838193
 24
-9.569653
 34
0.0
 50
90.0
100
AcDbRotatedDimension
1001
ACAD
1000
DSTYLE
1002
{
1070
   284
1070
     0
1070
   340
1005
E
1070
   287
1070
     3
1070
     5
1000
_OPEN
1070
   285
1070
     0
1070
   286
1070
     0
1002
}
  0
LINE
  5
4E
100
AcDbEntity
  8
COTATION1
100
AcDbLine
 10
-19.338193
 20
-30.941711
 30
0.0
 11
-19.338193
 21
-38.650283
 31
0.0
  0
SOLID
  5
4F
100
AcDbEntity
  8
COTATION1
100
AcDbTrace
 10
-16.338193
 20
-37.970283
 30
0.0
 11
-16.338193
 21
-38.970283
 31
0.0
 12
-19.338193
 22
-38.470283
 32
0.0
 13
-19.338193
 23
-38.470283
 33
0.0
  0
ARC
  5
50
100
AcDbEntity
  8
ALPHA
100
AcDbCircle
 10
-16.958697
 20
-15.967154
 30
0.0
 40
0.450296
100
AcDbArc
 50
51.501766
 51
142.076497
  0
LINE
  5
51
100
AcDbEntity
  8
ALPHA
100
AcDbLine
 10
-16.772397
 20
-10.773226
 30
0.0
 11
-17.142185
 21
-10.773226
 31
0.0
  0
LINE
  5
52
100
AcDbEntity
  8
ALPHA
100
AcDbLine
 10
-17.241484
 20
-10.88505
 30
0.0
 11
-16.602191
 21
-16.254256
 31
0.0
  0
DIMENSION
  5
53
100
AcDbEntity
  8
COTATION1
100
AcDbDimension
  2
*D0
 10
-19.338193
 20
-30.879211
 30
0.0
 11
-26.838193
 21
-28.629211
 31
0.0
  3
SC_STAND
100
AcDbAlignedDimension
 13
-34.338193
 23
-17.069653
 33
0.0
 14
-19.338193
 24
-17.569653
 34
0.0
100
AcDbRotatedDimension
1001
ACAD
1000
DSTYLE
1002
{
1070
   284
1070
     0
1070
   340
1005
E
1070
   287
1070
     3
1070
     5
1000
_OPEN
1070
   285
1070
     0
1070
   286
1070
     0
1002
}
  0
LINE
  5
60
100
AcDbEntity
  8
ALPHA
100
AcDbLine
 10
-33.838193
 20
-17.569653
 30
0.0
 11
-19.338193
 21
-17.569653
 31
0.0
  0
LINE
  5
61
100
AcDbEntity
  8
ALPHA
 62
   255
100
AcDbLine
 10
-34.338193
 20
-17.069653
 30
0.0
 11
-19.338193
 21
-17.069653
 31
0.0
  0
LINE
  5
62
100
AcDbEntity
  8
ALPHA
 62
   255
100
AcDbLine
 10
-34.338193
 20
-10.069653
 30
0.0
 11
-19.338193
 21
-10.069653
 31
0.0
  0
LINE
  5
63
100
AcDbEntity
  8
ALPHA
100
AcDbLine
 10
-33.838193
 20
-9.569653
 30
0.0
 11
-19.338193
 21
-9.569653
 31
0.0
  0
LINE
  5
64
100
AcDbEntity
  8
ALPHA
100
AcDbLine
 10
-33.838193
 20
-9.569653
 30
0.0
 11
-33.838193
 21
-13.569653
 31
0.0
  0
LINE
  5
65
100
AcDbEntity
  8
ALPHA
100
AcDbLine
 10
-34.338193
 20
-13.569653
 30
0.0
 11
-34.338193
 21
-10.069653
 31
0.0
  0
LINE
  5
66
100
AcDbEntity
  8
ALPHA
100
AcDbLine
 10
-33.838193
 20
-17.569653
 30
0.0
 11
-34.338193
 21
-17.069653
 31
0.0
  0
LINE
  5
67
100
AcDbEntity
  8
ALPHA
100
AcDbLine
 10
-34.338193
 20
-13.569653
 30
0.0
 11
-34.338193
 21
-17.069653
 31
0.0
  0
LINE
  5
68
100
AcDbEntity
  8
ALPHA
100
AcDbLine
 10
-33.838193
 20
-17.569653
 30
0.0
 11
-33.838193
 21
-13.569653
 31
0.0
  0
LINE
  5
69
100
AcDbEntity
  8
ALPHA
100
AcDbLine
 10
-33.838193
 20
-9.569653
 30
0.0
 11
-34.338193
 21
-10.069653
 31
0.0
  0
POINT
  5
6A
100
AcDbEntity
  8
DEFPOINTS
  6
BYBLOCK
 62
     0
100
AcDbPoint
 10
-19.338193
 20
-30.879211
 30
0.0
  0
LINE
  5
6B
100
AcDbEntity
  8
ALPHA
100
AcDbLine
 10
-18.465292
 20
-16.230611
 30
0.0
 11
-19.104498
 21
-10.861405
 31
0.0
  0
LINE
  5
6C
100
AcDbEntity
  8
ALPHA
100
AcDbLine
 10
-18.457184
 20
-10.88505
 30
0.0
 11
-17.817891
 21
-16.254256
 31
0.0
  0
LINE
  5
6D
100
AcDbEntity
  8
ALPHA
100
AcDbLine
 10
-17.249592
 20
-16.230611
 30
0.0
 11
-17.888798
 21
-10.861405
 31
0.0
  0
LINE
  5
6E
100
AcDbEntity
  8
ALPHA
100
AcDbLine
 10
-19.338193
 20
-13.569653
 30
0.0
 11
-19.338193
 21
-9.569653
 31
0.0
  0
ARC
  5
6F
100
AcDbEntity
  8
ALPHA
100
AcDbCircle
 10
-19.390097
 20
-15.967154
 30
0.0
 40
0.450296
100
AcDbArc
 50
51.501766
 51
83.381035
  0
LINE
  5
70
100
AcDbEntity
  8
ALPHA
100
AcDbLine
 10
-19.338193
 20
-13.696009
 30
0.0
 11
-19.033591
 21
-16.254256
 31
0.0
  0
LINE
  5
71
100
AcDbEntity
  8
ALPHA
100
AcDbLine
 10
-19.338193
 20
-13.569653
 30
0.0
 11
-19.338193
 21
-17.569653
 31
0.0
  0
ARC
  5
72
100
AcDbEntity
  8
ALPHA
100
AcDbCircle
 10
-18.56459
 20
-16.242433
 30
0.0
 40
0.1
100
AcDbArc
 50
270.0
 51
6.789131
  0
ARC
  5
73
100
AcDbEntity
  8
ALPHA
100
AcDbCircle
 10
-18.934293
 20
-16.242433
 30
0.0
 40
0.1
100
AcDbArc
 50
186.79004
 51
270.0
  0
LINE
  5
74
100
AcDbEntity
  8
ALPHA
100
AcDbLine
 10
-18.934293
 20
-16.342433
 30
0.0
 11
-18.56459
 21
-16.342433
 31
0.0
  0
ARC
  5
75
100
AcDbEntity
  8
ALPHA
100
AcDbCircle
 10
-17.34889
 20
-16.242433
 30
0.0
 40
0.1
100
AcDbArc
 50
270.0
 51
6.789131
  0
ARC
  5
76
100
AcDbEntity
  8
ALPHA
100
AcDbCircle
 10
-17.718593
 20
-16.242433
 30
0.0
 40
0.1
100
AcDbArc
 50
186.79004
 51
270.0
  0
LINE
  5
77
100
AcDbEntity
  8
ALPHA
100
AcDbLine
 10
-17.718593
 20
-16.342433
 30
0.0
 11
-17.34889
 21
-16.342433
 31
0.0
  0
ARC
  5
78
100
AcDbEntity
  8
ALPHA
100
AcDbCircle
 10
-18.174397
 20
-15.967154
 30
0.0
 40
0.450296
100
AcDbArc
 50
51.501766
 51
142.076497
  0
LINE
  5
79
100
AcDbEntity
  8
ALPHA
100
AcDbLine
 10
-19.203797
 20
-10.773226
 30
0.0
 11
-19.338193
 21
-10.773226
 31
0.0
  0
ARC
  5
7A
100
AcDbEntity
  8
ALPHA
100
AcDbCircle
 10
-19.203797
 20
-10.873226
 30
0.0
 40
0.1
100
AcDbArc
 50
6.789131
 51
90.0
  0
ARC
  5
7B
100
AcDbEntity
  8
ALPHA
100
AcDbCircle
 10
-18.75988
 20
-11.049204
 30
0.0
 40
0.450296
100
AcDbArc
 50
231.501766
 51
322.076497
  0
ARC
  5
7C
100
AcDbEntity
  8
ALPHA
100
AcDbCircle
 10
-17.988097
 20
-10.873226
 30
0.0
 40
0.1
100
AcDbArc
 50
6.789131
 51
90.0
  0
ARC
  5
7D
100
AcDbEntity
  8
ALPHA
100
AcDbCircle
 10
-18.357885
 20
-10.873226
 30
0.0
 40
0.1
100
AcDbArc
 50
90.0
 51
186.79004
  0
LINE
  5
7E
100
AcDbEntity
  8
ALPHA
100
AcDbLine
 10
-17.988097
 20
-10.773226
 30
0.0
 11
-18.357885
 21
-10.773226
 31
0.0
  0
ARC
  5
7F
100
AcDbEntity
  8
ALPHA
100
AcDbCircle
 10
-17.54418
 20
-11.049204
 30
0.0
 40
0.450296
100
AcDbArc
 50
231.501766
 51
322.076497
  0
ARC
  5
80
100
AcDbEntity
  8
ALPHA
100
AcDbCircle
 10
-17.142185
 20
-10.873226
 30
0.0
 40
0.1
100
AcDbArc
 50
90.0
 51
186.79004
  0
ARC
  5
81
100
AcDbEntity
  8
ALPHA
100
AcDbCircle
 10
-6.777293
 20
-16.242433
 30
0.0
 40
0.1
100
AcDbArc
 50
186.79004
 51
270.0
  0
LINE
  5
82
100
AcDbEntity
  8
ALPHA
100
AcDbLine
 10
-6.308292
 20
-16.230611
 30
0.0
 11
-6.947498
 21
-10.861405
 31
0.0
  0
ARC
  5
83
100
AcDbEntity
  8
ALPHA
100
AcDbCircle
 10
-6.60288
 20
-11.049204
 30
0.0
 40
0.450296
100
AcDbArc
 50
231.501766
 51
322.076497
  0
ARC
  5
84
100
AcDbEntity
  8
ALPHA
100
AcDbCircle
 10
-12.095897
 20
-15.967154
 30
0.0
 40
0.450296
100
AcDbArc
 50
51.501766
 51
142.076497
  0
ARC
  5
85
100
AcDbEntity
  8
ALPHA
100
AcDbCircle
 10
-11.909597
 20
-10.873226
 30
0.0
 40
0.1
100
AcDbArc
 50
6.789131
 51
90.0
  0
LINE
  5
86
100
AcDbEntity
  8
ALPHA
100
AcDbLine
 10
-12.378684
 20
-10.88505
 30
0.0
 11
-11.739391
 21
-16.254256
 31
0.0
  0
LINE
  5
87
100
AcDbEntity
  8
ALPHA
100
AcDbLine
 10
-16.033892
 20
-16.230611
 30
0.0
 11
-16.673098
 21
-10.861405
 31
0.0
  0
LINE
  5
88
100
AcDbEntity
  8
ALPHA
100
AcDbLine
 10
-16.025784
 20
-10.88505
 30
0.0
 11
-15.386491
 21
-16.254256
 31
0.0
  0
LINE
  5
89
100
AcDbEntity
  8
ALPHA
100
AcDbLine
 10
-14.818192
 20
-16.230611
 30
0.0
 11
-15.457398
 21
-10.861405
 31
0.0
  0
LINE
  5
8A
100
AcDbEntity
  8
ALPHA
100
AcDbLine
 10
-14.810084
 20
-10.88505
 30
0.0
 11
-14.170791
 21
-16.254256
 31
0.0
  0
LINE
  5
8B
100
AcDbEntity
  8
ALPHA
100
AcDbLine
 10
-13.602492
 20
-16.230611
 30
0.0
 11
-14.241698
 21
-10.861405
 31
0.0
  0
LINE
  5
8C
100
AcDbEntity
  8
ALPHA
100
AcDbLine
 10
-13.594384
 20
-10.88505
 30
0.0
 11
-12.955091
 21
-16.254256
 31
0.0
  0
LINE
  5
8D
100
AcDbEntity
  8
ALPHA
100
AcDbLine
 10
-12.386792
 20
-16.230611
 30
0.0
 11
-13.025998
 21
-10.861405
 31
0.0
  0
ARC
  5
8E
100
AcDbEntity
  8
ALPHA
100
AcDbCircle
 10
-14.527297
 20
-15.967154
 30
0.0
 40
0.450296
100
AcDbArc
 50
51.501766
 51
142.076497
  0
ARC
  5
8F
100
AcDbEntity
  8
ALPHA
100
AcDbCircle
 10
-16.13319
 20
-16.242433
 30
0.0
 40
0.1
100
AcDbArc
 50
270.0
 51
6.789131
  0
ARC
  5
90
100
AcDbEntity
  8
ALPHA
100
AcDbCircle
 10
-16.502893
 20
-16.242433
 30
0.0
 40
0.1
100
AcDbArc
 50
186.79004
 51
270.0
  0
LINE
  5
91
100
AcDbEntity
  8
ALPHA
100
AcDbLine
 10
-16.502893
 20
-16.342433
 30
0.0
 11
-16.13319
 21
-16.342433
 31
0.0
  0
ARC
  5
92
100
AcDbEntity
  8
ALPHA
100
AcDbCircle
 10
-14.91749
 20
-16.242433
 30
0.0
 40
0.1
100
AcDbArc
 50
270.0
 51
6.789131
  0
ARC
  5
93
100
AcDbEntity
  8
ALPHA
100
AcDbCircle
 10
-15.287193
 20
-16.242433
 30
0.0
 40
0.1
100
AcDbArc
 50
186.79004
 51
270.0
  0
LINE
  5
94
100
AcDbEntity
  8
ALPHA
100
AcDbLine
 10
-15.287193
 20
-16.342433
 30
0.0
 11
-14.91749
 21
-16.342433
 31
0.0
  0
ARC
  5
95
100
AcDbEntity
  8
ALPHA
100
AcDbCircle
 10
-15.742997
 20
-15.967154
 30
0.0
 40
0.450296
100
AcDbArc
 50
51.501766
 51
142.076497
  0
ARC
  5
96
100
AcDbEntity
  8
ALPHA
100
AcDbCircle
 10
-13.70179
 20
-16.242433
 30
0.0
 40
0.1
100
AcDbArc
 50
270.0
 51
6.789131
  0
ARC
  5
97
100
AcDbEntity
  8
ALPHA
100
AcDbCircle
 10
-14.071493
 20
-16.242433
 30
0.0
 40
0.1
100
AcDbArc
 50
186.79004
 51
270.0
  0
LINE
  5
98
100
AcDbEntity
  8
ALPHA
100
AcDbLine
 10
-14.071493
 20
-16.342433
 30
0.0
 11
-13.70179
 21
-16.342433
 31
0.0
  0
ARC
  5
99
100
AcDbEntity
  8
ALPHA
100
AcDbCircle
 10
-12.48609
 20
-16.242433
 30
0.0
 40
0.1
100
AcDbArc
 50
270.0
 51
6.789131
  0
ARC
  5
9A
100
AcDbEntity
  8
ALPHA
100
AcDbCircle
 10
-12.855793
 20
-16.242433
 30
0.0
 40
0.1
100
AcDbArc
 50
186.79004
 51
270.0
  0
LINE
  5
9B
100
AcDbEntity
  8
ALPHA
100
AcDbLine
 10
-12.855793
 20
-16.342433
 30
0.0
 11
-12.48609
 21
-16.342433
 31
0.0
  0
ARC
  5
9C
100
AcDbEntity
  8
ALPHA
100
AcDbCircle
 10
-13.311597
 20
-15.967154
 30
0.0
 40
0.450296
100
AcDbArc
 50
51.501766
 51
142.076497
  0
ARC
  5
9D
100
AcDbEntity
  8
ALPHA
100
AcDbCircle
 10
-14.340997
 20
-10.873226
 30
0.0
 40
0.1
100
AcDbArc
 50
6.789131
 51
90.0
  0
ARC
  5
9E
100
AcDbEntity
  8
ALPHA
100
AcDbCircle
 10
-16.772397
 20
-10.873226
 30
0.0
 40
0.1
100
AcDbArc
 50
6.789131
 51
90.0
  0
ARC
  5
9F
100
AcDbEntity
  8
ALPHA
100
AcDbCircle
 10
-16.32848
 20
-11.049204
 30
0.0
 40
0.450296
100
AcDbArc
 50
231.501766
 51
322.076497
  0
ARC
  5
A0
100
AcDbEntity
  8
ALPHA
100
AcDbCircle
 10
-15.556697
 20
-10.873226
 30
0.0
 40
0.1
100
AcDbArc
 50
6.789131
 51
90.0
  0
ARC
  5
A1
100
AcDbEntity
  8
ALPHA
100
AcDbCircle
 10
-15.926485
 20
-10.873226
 30
0.0
 40
0.1
100
AcDbArc
 50
90.0
 51
186.79004
  0
LINE
  5
A2
100
AcDbEntity
  8
ALPHA
100
AcDbLine
 10
-15.556697
 20
-10.773226
 30
0.0
 11
-15.926485
 21
-10.773226
 31
0.0
  0
ARC
  5
A3
100
AcDbEntity
  8
ALPHA
100
AcDbCircle
 10
-15.11278
 20
-11.049204
 30
0.0
 40
0.450296
100
AcDbArc
 50
231.501766
 51
322.076497
  0
ARC
  5
A4
100
AcDbEntity
  8
ALPHA
100
AcDbCircle
 10
-14.710785
 20
-10.873226
 30
0.0
 40
0.1
100
AcDbArc
 50
90.0
 51
186.79004
  0
LINE
  5
A5
100
AcDbEntity
  8
ALPHA
100
AcDbLine
 10
-14.340997
 20
-10.773226
 30
0.0
 11
-14.710785
 21
-10.773226
 31
0.0
  0
ARC
  5
A6
100
AcDbEntity
  8
ALPHA
100
AcDbCircle
 10
-13.89708
 20
-11.049204
 30
0.0
 40
0.450296
100
AcDbArc
 50
231.501766
 51
322.076497
  0
ARC
  5
A7
100
AcDbEntity
  8
ALPHA
100
AcDbCircle
 10
-13.125297
 20
-10.873226
 30
0.0
 40
0.1
100
AcDbArc
 50
6.789131
 51
90.0
  0
ARC
  5
A8
100
AcDbEntity
  8
ALPHA
100
AcDbCircle
 10
-13.495085
 20
-10.873226
 30
0.0
 40
0.1
100
AcDbArc
 50
90.0
 51
186.79004
  0
LINE
  5
A9
100
AcDbEntity
  8
ALPHA
100
AcDbLine
 10
-13.125297
 20
-10.773226
 30
0.0
 11
-13.495085
 21
-10.773226
 31
0.0
  0
ARC
  5
AA
100
AcDbEntity
  8
ALPHA
100
AcDbCircle
 10
-12.68138
 20
-11.049204
 30
0.0
 40
0.450296
100
AcDbArc
 50
231.501766
 51
322.076497
  0
ARC
  5
AB
100
AcDbEntity
  8
ALPHA
100
AcDbCircle
 10
-12.279385
 20
-10.873226
 30
0.0
 40
0.1
100
AcDbArc
 50
90.0
 51
186.79004
  0
LINE
  5
AC
100
AcDbEntity
  8
ALPHA
100
AcDbLine
 10
-11.909597
 20
-10.773226
 30
0.0
 11
-12.279385
 21
-10.773226
 31
0.0
  0
LINE
  5
AD
100
AcDbEntity
  8
ALPHA
100
AcDbLine
 10
-11.171092
 20
-16.230611
 30
0.0
 11
-11.810298
 21
-10.861405
 31
0.0
  0
LINE
  5
AE
100
AcDbEntity
  8
ALPHA
100
AcDbLine
 10
-11.162984
 20
-10.88505
 30
0.0
 11
-10.523691
 21
-16.254256
 31
0.0
  0
LINE
  5
AF
100
AcDbEntity
  8
ALPHA
100
AcDbLine
 10
-9.955392
 20
-16.230611
 30
0.0
 11
-10.594598
 21
-10.861405
 31
0.0
  0
LINE
  5
B0
100
AcDbEntity
  8
ALPHA
100
AcDbLine
 10
-9.947284
 20
-10.88505
 30
0.0
 11
-9.307991
 21
-16.254256
 31
0.0
  0
LINE
  5
B1
100
AcDbEntity
  8
ALPHA
100
AcDbLine
 10
-8.739692
 20
-16.230611
 30
0.0
 11
-9.378898
 21
-10.861405
 31
0.0
  0
LINE
  5
B2
100
AcDbEntity
  8
ALPHA
100
AcDbLine
 10
-8.731584
 20
-10.88505
 30
0.0
 11
-8.092291
 21
-16.254256
 31
0.0
  0
LINE
  5
B3
100
AcDbEntity
  8
ALPHA
100
AcDbLine
 10
-7.523992
 20
-16.230611
 30
0.0
 11
-8.163198
 21
-10.861405
 31
0.0
  0
LINE
  5
B4
100
AcDbEntity
  8
ALPHA
100
AcDbLine
 10
-7.515884
 20
-10.88505
 30
0.0
 11
-6.876591
 21
-16.254256
 31
0.0
  0
ARC
  5
B5
100
AcDbEntity
  8
ALPHA
100
AcDbCircle
 10
-11.27039
 20
-16.242433
 30
0.0
 40
0.1
100
AcDbArc
 50
270.0
 51
6.789131
  0
ARC
  5
B6
100
AcDbEntity
  8
ALPHA
100
AcDbCircle
 10
-11.640093
 20
-16.242433
 30
0.0
 40
0.1
100
AcDbArc
 50
186.79004
 51
270.0
  0
LINE
  5
B7
100
AcDbEntity
  8
ALPHA
100
AcDbLine
 10
-11.640093
 20
-16.342433
 30
0.0
 11
-11.27039
 21
-16.342433
 31
0.0
  0
ARC
  5
B8
100
AcDbEntity
  8
ALPHA
100
AcDbCircle
 10
-10.05469
 20
-16.242433
 30
0.0
 40
0.1
100
AcDbArc
 50
270.0
 51
6.789131
  0
ARC
  5
B9
100
AcDbEntity
  8
ALPHA
100
AcDbCircle
 10
-10.424393
 20
-16.242433
 30
0.0
 40
0.1
100
AcDbArc
 50
186.79004
 51
270.0
  0
LINE
  5
BA
100
AcDbEntity
  8
ALPHA
100
AcDbLine
 10
-10.424393
 20
-16.342433
 30
0.0
 11
-10.05469
 21
-16.342433
 31
0.0
  0
ARC
  5
BB
100
AcDbEntity
  8
ALPHA
100
AcDbCircle
 10
-10.880197
 20
-15.967154
 30
0.0
 40
0.450296
100
AcDbArc
 50
51.501766
 51
142.076497
  0
ARC
  5
BC
100
AcDbEntity
  8
ALPHA
100
AcDbCircle
 10
-9.664497
 20
-15.967154
 30
0.0
 40
0.450296
100
AcDbArc
 50
51.501766
 51
142.076497
  0
ARC
  5
BD
100
AcDbEntity
  8
ALPHA
100
AcDbCircle
 10
-8.83899
 20
-16.242433
 30
0.0
 40
0.1
100
AcDbArc
 50
270.0
 51
6.789131
  0
ARC
  5
BE
100
AcDbEntity
  8
ALPHA
100
AcDbCircle
 10
-9.208693
 20
-16.242433
 30
0.0
 40
0.1
100
AcDbArc
 50
186.79004
 51
270.0
  0
LINE
  5
BF
100
AcDbEntity
  8
ALPHA
100
AcDbLine
 10
-9.208693
 20
-16.342433
 30
0.0
 11
-8.83899
 21
-16.342433
 31
0.0
  0
ARC
  5
C0
100
AcDbEntity
  8
ALPHA
100
AcDbCircle
 10
-7.62329
 20
-16.242433
 30
0.0
 40
0.1
100
AcDbArc
 50
270.0
 51
6.789131
  0
ARC
  5
C1
100
AcDbEntity
  8
ALPHA
100
AcDbCircle
 10
-7.992993
 20
-16.242433
 30
0.0
 40
0.1
100
AcDbArc
 50
186.79004
 51
270.0
  0
LINE
  5
C2
100
AcDbEntity
  8
ALPHA
100
AcDbLine
 10
-7.992993
 20
-16.342433
 30
0.0
 11
-7.62329
 21
-16.342433
 31
0.0
  0
ARC
  5
C3
100
AcDbEntity
  8
ALPHA
100
AcDbCircle
 10
-8.448797
 20
-15.967154
 30
0.0
 40
0.450296
100
AcDbArc
 50
51.501766
 51
142.076497
  0
ARC
  5
C4
100
AcDbEntity
  8
ALPHA
100
AcDbCircle
 10
-7.233097
 20
-15.967154
 30
0.0
 40
0.450296
100
AcDbArc
 50
51.501766
 51
142.076497
  0
ARC
  5
C5
100
AcDbEntity
  8
ALPHA
100
AcDbCircle
 10
-11.46568
 20
-11.049204
 30
0.0
 40
0.450296
100
AcDbArc
 50
231.501766
 51
322.076497
  0
ARC
  5
C6
100
AcDbEntity
  8
ALPHA
100
AcDbCircle
 10
-10.693897
 20
-10.873226
 30
0.0
 40
0.1
100
AcDbArc
 50
6.789131
 51
90.0
  0
ARC
  5
C7
100
AcDbEntity
  8
ALPHA
100
AcDbCircle
 10
-11.063685
 20
-10.873226
 30
0.0
 40
0.1
100
AcDbArc
 50
90.0
 51
186.79004
  0
LINE
  5
C8
100
AcDbEntity
  8
ALPHA
100
AcDbLine
 10
-10.693897
 20
-10.773226
 30
0.0
 11
-11.063685
 21
-10.773226
 31
0.0
  0
ARC
  5
C9
100
AcDbEntity
  8
ALPHA
100
AcDbCircle
 10
-10.24998
 20
-11.049204
 30
0.0
 40
0.450296
100
AcDbArc
 50
231.501766
 51
322.076497
  0
ARC
  5
CA
100
AcDbEntity
  8
ALPHA
100
AcDbCircle
 10
-9.478197
 20
-10.873226
 30
0.0
 40
0.1
100
AcDbArc
 50
6.789131
 51
90.0
  0
ARC
  5
CB
100
AcDbEntity
  8
ALPHA
100
AcDbCircle
 10
-9.847985
 20
-10.873226
 30
0.0
 40
0.1
100
AcDbArc
 50
90.0
 51
186.79004
  0
LINE
  5
CC
100
AcDbEntity
  8
ALPHA
100
AcDbLine
 10
-9.478197
 20
-10.773226
 30
0.0
 11
-9.847985
 21
-10.773226
 31
0.0
  0
ARC
  5
CD
100
AcDbEntity
  8
ALPHA
100
AcDbCircle
 10
-9.03428
 20
-11.049204
 30
0.0
 40
0.450296
100
AcDbArc
 50
231.501766
 51
322.076497
  0
ARC
  5
CE
100
AcDbEntity
  8
ALPHA
100
AcDbCircle
 10
-8.262497
 20
-10.873226
 30
0.0
 40
0.1
100
AcDbArc
 50
6.789131
 51
90.0
  0
ARC
  5
CF
100
AcDbEntity
  8
ALPHA
100
AcDbCircle
 10
-8.632285
 20
-10.873226
 30
0.0
 40
0.1
100
AcDbArc
 50
90.0
 51
186.79004
  0
LINE
  5
D0
100
AcDbEntity
  8
ALPHA
100
AcDbLine
 10
-8.262497
 20
-10.773226
 30
0.0
 11
-8.632285
 21
-10.773226
 31
0.0
  0
ARC
  5
D1
100
AcDbEntity
  8
ALPHA
100
AcDbCircle
 10
-7.81858
 20
-11.049204
 30
0.0
 40
0.450296
100
AcDbArc
 50
231.501766
 51
322.076497
  0
ARC
  5
D2
100
AcDbEntity
  8
ALPHA
100
AcDbCircle
 10
-7.046797
 20
-10.873226
 30
0.0
 40
0.1
100
AcDbArc
 50
6.789131
 51
90.0
  0
ARC
  5
D3
100
AcDbEntity
  8
ALPHA
100
AcDbCircle
 10
-7.416585
 20
-10.873226
 30
0.0
 40
0.1
100
AcDbArc
 50
90.0
 51
186.79004
  0
LINE
  5
D4
100
AcDbEntity
  8
ALPHA
100
AcDbLine
 10
-7.046797
 20
-10.773226
 30
0.0
 11
-7.416585
 21
-10.773226
 31
0.0
  0
LINE
  5
D5
100
AcDbEntity
  8
ALPHA
100
AcDbLine
 10
-1.914493
 20
-16.342433
 30
0.0
 11
-1.54479
 21
-16.342433
 31
0.0
  0
LINE
  5
D6
100
AcDbEntity
  8
ALPHA
100
AcDbLine
 10
-1.445492
 20
-16.230611
 30
0.0
 11
-2.084698
 21
-10.861405
 31
0.0
  0
ARC
  5
D7
100
AcDbEntity
  8
ALPHA
100
AcDbCircle
 10
-1.74008
 20
-11.049204
 30
0.0
 40
0.450296
100
AcDbArc
 50
231.501766
 51
322.076497
  0
LINE
  5
D8
100
AcDbEntity
  8
ALPHA
100
AcDbLine
 10
-6.300184
 20
-10.88505
 30
0.0
 11
-5.660891
 21
-16.254256
 31
0.0
  0
LINE
  5
D9
100
AcDbEntity
  8
ALPHA
100
AcDbLine
 10
-5.092592
 20
-16.230611
 30
0.0
 11
-5.731798
 21
-10.861405
 31
0.0
  0
LINE
  5
DA
100
AcDbEntity
  8
ALPHA
100
AcDbLine
 10
-5.084484
 20
-10.88505
 30
0.0
 11
-4.445191
 21
-16.254256
 31
0.0
  0
LINE
  5
DB
100
AcDbEntity
  8
ALPHA
100
AcDbLine
 10
-3.876892
 20
-16.230611
 30
0.0
 11
-4.516098
 21
-10.861405
 31
0.0
  0
LINE
  5
DC
100
AcDbEntity
  8
ALPHA
100
AcDbLine
 10
-3.868784
 20
-10.88505
 30
0.0
 11
-3.229491
 21
-16.254256
 31
0.0
  0
LINE
  5
DD
100
AcDbEntity
  8
ALPHA
100
AcDbLine
 10
-2.661192
 20
-16.230611
 30
0.0
 11
-3.300398
 21
-10.861405
 31
0.0
  0
LINE
  5
DE
100
AcDbEntity
  8
ALPHA
100
AcDbLine
 10
-2.653084
 20
-10.88505
 30
0.0
 11
-2.013791
 21
-16.254256
 31
0.0
  0
ARC
  5
DF
100
AcDbEntity
  8
ALPHA
100
AcDbCircle
 10
-4.345893
 20
-16.242433
 30
0.0
 40
0.1
100
AcDbArc
 50
186.79004
 51
270.0
  0
ARC
  5
E0
100
AcDbEntity
  8
ALPHA
100
AcDbCircle
 10
-6.40759
 20
-16.242433
 30
0.0
 40
0.1
100
AcDbArc
 50
270.0
 51
6.789131
  0
LINE
  5
E1
100
AcDbEntity
  8
ALPHA
100
AcDbLine
 10
-6.777293
 20
-16.342433
 30
0.0
 11
-6.40759
 21
-16.342433
 31
0.0
  0
ARC
  5
E2
100
AcDbEntity
  8
ALPHA
100
AcDbCircle
 10
-5.19189
 20
-16.242433
 30
0.0
 40
0.1
100
AcDbArc
 50
270.0
 51
6.789131
  0
ARC
  5
E3
100
AcDbEntity
  8
ALPHA
100
AcDbCircle
 10
-5.561593
 20
-16.242433
 30
0.0
 40
0.1
100
AcDbArc
 50
186.79004
 51
270.0
  0
LINE
  5
E4
100
AcDbEntity
  8
ALPHA
100
AcDbLine
 10
-5.561593
 20
-16.342433
 30
0.0
 11
-5.19189
 21
-16.342433
 31
0.0
  0
ARC
  5
E5
100
AcDbEntity
  8
ALPHA
100
AcDbCircle
 10
-6.017397
 20
-15.967154
 30
0.0
 40
0.450296
100
AcDbArc
 50
51.501766
 51
142.076497
  0
ARC
  5
E6
100
AcDbEntity
  8
ALPHA
100
AcDbCircle
 10
-4.801697
 20
-15.967154
 30
0.0
 40
0.450296
100
AcDbArc
 50
51.501766
 51
142.076497
  0
ARC
  5
E7
100
AcDbEntity
  8
ALPHA
100
AcDbCircle
 10
-3.97619
 20
-16.242433
 30
0.0
 40
0.1
100
AcDbArc
 50
270.0
 51
6.789131
  0
LINE
  5
E8
100
AcDbEntity
  8
ALPHA
100
AcDbLine
 10
-4.345893
 20
-16.342433
 30
0.0
 11
-3.97619
 21
-16.342433
 31
0.0
  0
ARC
  5
E9
100
AcDbEntity
  8
ALPHA
100
AcDbCircle
 10
-2.76049
 20
-16.242433
 30
0.0
 40
0.1
100
AcDbArc
 50
270.0
 51
6.789131
  0
ARC
  5
EA
100
AcDbEntity
  8
ALPHA
100
AcDbCircle
 10
-3.130193
 20
-16.242433
 30
0.0
 40
0.1
100
AcDbArc
 50
186.79004
 51
270.0
  0
LINE
  5
EB
100
AcDbEntity
  8
ALPHA
100
AcDbLine
 10
-3.130193
 20
-16.342433
 30
0.0
 11
-2.76049
 21
-16.342433
 31
0.0
  0
ARC
  5
EC
100
AcDbEntity
  8
ALPHA
100
AcDbCircle
 10
-3.585997
 20
-15.967154
 30
0.0
 40
0.450296
100
AcDbArc
 50
51.501766
 51
142.076497
  0
ARC
  5
ED
100
AcDbEntity
  8
ALPHA
100
AcDbCircle
 10
-1.914493
 20
-16.242433
 30
0.0
 40
0.1
100
AcDbArc
 50
186.79004
 51
270.0
  0
ARC
  5
EE
100
AcDbEntity
  8
ALPHA
100
AcDbCircle
 10
-2.370297
 20
-15.967154
 30
0.0
 40
0.450296
100
AcDbArc
 50
51.501766
 51
142.076497
  0
ARC
  5
EF
100
AcDbEntity
  8
ALPHA
100
AcDbCircle
 10
-4.17148
 20
-11.049204
 30
0.0
 40
0.450296
100
AcDbArc
 50
231.501766
 51
322.076497
  0
ARC
  5
F0
100
AcDbEntity
  8
ALPHA
100
AcDbCircle
 10
-5.831097
 20
-10.873226
 30
0.0
 40
0.1
100
AcDbArc
 50
6.789131
 51
90.0
  0
ARC
  5
F1
100
AcDbEntity
  8
ALPHA
100
AcDbCircle
 10
-6.200885
 20
-10.873226
 30
0.0
 40
0.1
100
AcDbArc
 50
90.0
 51
186.79004
  0
LINE
  5
F2
100
AcDbEntity
  8
ALPHA
100
AcDbLine
 10
-5.831097
 20
-10.773226
 30
0.0
 11
-6.200885
 21
-10.773226
 31
0.0
  0
ARC
  5
F3
100
AcDbEntity
  8
ALPHA
100
AcDbCircle
 10
-5.38718
 20
-11.049204
 30
0.0
 40
0.450296
100
AcDbArc
 50
231.501766
 51
322.076497
  0
ARC
  5
F4
100
AcDbEntity
  8
ALPHA
100
AcDbCircle
 10
-4.615397
 20
-10.873226
 30
0.0
 40
0.1
100
AcDbArc
 50
6.789131
 51
90.0
  0
ARC
  5
F5
100
AcDbEntity
  8
ALPHA
100
AcDbCircle
 10
-4.985185
 20
-10.873226
 30
0.0
 40
0.1
100
AcDbArc
 50
90.0
 51
186.79004
  0
LINE
  5
F6
100
AcDbEntity
  8
ALPHA
100
AcDbLine
 10
-4.615397
 20
-10.773226
 30
0.0
 11
-4.985185
 21
-10.773226
 31
0.0
  0
ARC
  5
F7
100
AcDbEntity
  8
ALPHA
100
AcDbCircle
 10
-3.399697
 20
-10.873226
 30
0.0
 40
0.1
100
AcDbArc
 50
6.789131
 51
90.0
  0
ARC
  5
F8
100
AcDbEntity
  8
ALPHA
100
AcDbCircle
 10
-3.769485
 20
-10.873226
 30
0.0
 40
0.1
100
AcDbArc
 50
90.0
 51
186.79004
  0
LINE
  5
F9
100
AcDbEntity
  8
ALPHA
100
AcDbLine
 10
-3.399697
 20
-10.773226
 30
0.0
 11
-3.769485
 21
-10.773226
 31
0.0
  0
ARC
  5
FA
100
AcDbEntity
  8
ALPHA
100
AcDbCircle
 10
-2.95578
 20
-11.049204
 30
0.0
 40
0.450296
100
AcDbArc
 50
231.501766
 51
322.076497
  0
ARC
  5
FB
100
AcDbEntity
  8
ALPHA
100
AcDbCircle
 10
-2.183997
 20
-10.873226
 30
0.0
 40
0.1
100
AcDbArc
 50
6.789131
 51
90.0
  0
ARC
  5
FC
100
AcDbEntity
  8
ALPHA
100
AcDbCircle
 10
-2.553785
 20
-10.873226
 30
0.0
 40
0.1
100
AcDbArc
 50
90.0
 51
186.79004
  0
LINE
  5
FD
100
AcDbEntity
  8
ALPHA
100
AcDbLine
 10
-2.183997
 20
-10.773226
 30
0.0
 11
-2.553785
 21
-10.773226
 31
0.0
  0
LINE
  5
FE
100
AcDbEntity
  8
ALPHA
100
AcDbLine
 10
-1.437384
 20
-10.88505
 30
0.0
 11
-0.798091
 21
-16.254256
 31
0.0
  0
LINE
  5
FF
100
AcDbEntity
  8
ALPHA
100
AcDbLine
 10
-0.229792
 20
-16.230611
 30
0.0
 11
-0.868998
 21
-10.861405
 31
0.0
  0
LINE
  5
100
100
AcDbEntity
  8
ALPHA
100
AcDbLine
 10
-0.221684
 20
-10.88505
 30
0.0
 11
0.417609
 21
-16.254256
 31
0.0
  0
LINE
  5
101
100
AcDbEntity
  8
ALPHA
100
AcDbLine
 10
0.985908
 20
-16.230611
 30
0.0
 11
0.346702
 21
-10.861405
 31
0.0
  0
LINE
  5
102
100
AcDbEntity
  8
ALPHA
100
AcDbLine
 10
0.994016
 20
-10.88505
 30
0.0
 11
1.633309
 21
-16.254256
 31
0.0
  0
LINE
  5
103
100
AcDbEntity
  8
ALPHA
100
AcDbLine
 10
2.201608
 20
-16.230611
 30
0.0
 11
1.562402
 21
-10.861405
 31
0.0
  0
LINE
  5
104
100
AcDbEntity
  8
ALPHA
100
AcDbLine
 10
2.209716
 20
-10.88505
 30
0.0
 11
2.849009
 21
-16.254256
 31
0.0
  0
LINE
  5
105
100
AcDbEntity
  8
ALPHA
100
AcDbLine
 10
0.516907
 20
-16.342433
 30
0.0
 11
0.88661
 21
-16.342433
 31
0.0
  0
ARC
  5
106
100
AcDbEntity
  8
ALPHA
100
AcDbCircle
 10
-1.54479
 20
-16.242433
 30
0.0
 40
0.1
100
AcDbArc
 50
270.0
 51
6.789131
  0
ARC
  5
107
100
AcDbEntity
  8
ALPHA
100
AcDbCircle
 10
-0.32909
 20
-16.242433
 30
0.0
 40
0.1
100
AcDbArc
 50
270.0
 51
6.789131
  0
ARC
  5
108
100
AcDbEntity
  8
ALPHA
100
AcDbCircle
 10
-0.698793
 20
-16.242433
 30
0.0
 40
0.1
100
AcDbArc
 50
186.79004
 51
270.0
  0
LINE
  5
109
100
AcDbEntity
  8
ALPHA
100
AcDbLine
 10
-0.698793
 20
-16.342433
 30
0.0
 11
-0.32909
 21
-16.342433
 31
0.0
  0
ARC
  5
10A
100
AcDbEntity
  8
ALPHA
100
AcDbCircle
 10
-1.154597
 20
-15.967154
 30
0.0
 40
0.450296
100
AcDbArc
 50
51.501766
 51
142.076497
  0
ARC
  5
10B
100
AcDbEntity
  8
ALPHA
100
AcDbCircle
 10
0.516907
 20
-16.242433
 30
0.0
 40
0.1
100
AcDbArc
 50
186.79004
 51
270.0
  0
ARC
  5
10C
100
AcDbEntity
  8
ALPHA
100
AcDbCircle
 10
0.061103
 20
-15.967154
 30
0.0
 40
0.450296
100
AcDbArc
 50
51.501766
 51
142.076497
  0
ARC
  5
10D
100
AcDbEntity
  8
ALPHA
100
AcDbCircle
 10
0.88661
 20
-16.242433
 30
0.0
 40
0.1
100
AcDbArc
 50
270.0
 51
6.789131
  0
ARC
  5
10E
100
AcDbEntity
  8
ALPHA
100
AcDbCircle
 10
2.10231
 20
-16.242433
 30
0.0
 40
0.1
100
AcDbArc
 50
270.0
 51
6.789131
  0
ARC
  5
10F
100
AcDbEntity
  8
ALPHA
100
AcDbCircle
 10
1.732607
 20
-16.242433
 30
0.0
 40
0.1
100
AcDbArc
 50
186.79004
 51
270.0
  0
LINE
  5
110
100
AcDbEntity
  8
ALPHA
100
AcDbLine
 10
1.732607
 20
-16.342433
 30
0.0
 11
2.10231
 21
-16.342433
 31
0.0
  0
ARC
  5
111
100
AcDbEntity
  8
ALPHA
100
AcDbCircle
 10
1.276803
 20
-15.967154
 30
0.0
 40
0.450296
100
AcDbArc
 50
51.501766
 51
142.076497
  0
ARC
  5
112
100
AcDbEntity
  8
ALPHA
100
AcDbCircle
 10
2.948307
 20
-16.242433
 30
0.0
 40
0.1
100
AcDbArc
 50
186.79004
 51
270.0
  0
ARC
  5
113
100
AcDbEntity
  8
ALPHA
100
AcDbCircle
 10
2.492503
 20
-15.967154
 30
0.0
 40
0.450296
100
AcDbArc
 50
51.501766
 51
142.076497
  0
ARC
  5
114
100
AcDbEntity
  8
ALPHA
100
AcDbCircle
 10
2.10231
 20
-16.242433
 30
0.0
 40
0.1
100
AcDbArc
 50
270.0
 51
6.789131
  0
ARC
  5
115
100
AcDbEntity
  8
ALPHA
100
AcDbCircle
 10
0.69132
 20
-11.049204
 30
0.0
 40
0.450296
100
AcDbArc
 50
231.501766
 51
322.076497
  0
ARC
  5
116
100
AcDbEntity
  8
ALPHA
100
AcDbCircle
 10
-0.968297
 20
-10.873226
 30
0.0
 40
0.1
100
AcDbArc
 50
6.789131
 51
90.0
  0
ARC
  5
117
100
AcDbEntity
  8
ALPHA
100
AcDbCircle
 10
-1.338085
 20
-10.873226
 30
0.0
 40
0.1
100
AcDbArc
 50
90.0
 51
186.79004
  0
LINE
  5
118
100
AcDbEntity
  8
ALPHA
100
AcDbLine
 10
-0.968297
 20
-10.773226
 30
0.0
 11
-1.338085
 21
-10.773226
 31
0.0
  0
ARC
  5
119
100
AcDbEntity
  8
ALPHA
100
AcDbCircle
 10
-0.52438
 20
-11.049204
 30
0.0
 40
0.450296
100
AcDbArc
 50
231.501766
 51
322.076497
  0
ARC
  5
11A
100
AcDbEntity
  8
ALPHA
100
AcDbCircle
 10
0.247403
 20
-10.873226
 30
0.0
 40
0.1
100
AcDbArc
 50
6.789131
 51
90.0
  0
ARC
  5
11B
100
AcDbEntity
  8
ALPHA
100
AcDbCircle
 10
-0.122385
 20
-10.873226
 30
0.0
 40
0.1
100
AcDbArc
 50
90.0
 51
186.79004
  0
LINE
  5
11C
100
AcDbEntity
  8
ALPHA
100
AcDbLine
 10
0.247403
 20
-10.773226
 30
0.0
 11
-0.122385
 21
-10.773226
 31
0.0
  0
ARC
  5
11D
100
AcDbEntity
  8
ALPHA
100
AcDbCircle
 10
1.463103
 20
-10.873226
 30
0.0
 40
0.1
100
AcDbArc
 50
6.789131
 51
90.0
  0
ARC
  5
11E
100
AcDbEntity
  8
ALPHA
100
AcDbCircle
 10
1.093315
 20
-10.873226
 30
0.0
 40
0.1
100
AcDbArc
 50
90.0
 51
186.79004
  0
LINE
  5
11F
100
AcDbEntity
  8
ALPHA
100
AcDbLine
 10
1.463103
 20
-10.773226
 30
0.0
 11
1.093315
 21
-10.773226
 31
0.0
  0
ARC
  5
120
100
AcDbEntity
  8
ALPHA
100
AcDbCircle
 10
1.90702
 20
-11.049204
 30
0.0
 40
0.450296
100
AcDbArc
 50
231.501766
 51
322.076497
  0
ARC
  5
121
100
AcDbEntity
  8
ALPHA
100
AcDbCircle
 10
2.678803
 20
-10.873226
 30
0.0
 40
0.1
100
AcDbArc
 50
6.789131
 51
90.0
  0
ARC
  5
122
100
AcDbEntity
  8
ALPHA
100
AcDbCircle
 10
2.309015
 20
-10.873226
 30
0.0
 40
0.1
100
AcDbArc
 50
90.0
 51
186.79004
  0
LINE
  5
123
100
AcDbEntity
  8
ALPHA
100
AcDbLine
 10
2.678803
 20
-10.773226
 30
0.0
 11
2.309015
 21
-10.773226
 31
0.0
  0
TEXT
  5
124
100
AcDbEntity
  8
COTATION1
100
AcDbText
 10
35.900951
 20
6.200507
 30
0.0
 40
2.5
  1
7 sur plats
100
AcDbText
  0
INSERT
  5
125
100
AcDbEntity
  8
COTATION1
100
AcDbBlockReference
  2
_OPEN
 10
64.349859
 20
-9.022998
 30
0.0
 41
3.0
 42
3.0
 43
3.0
 50
265.866203
1001
ACAD
1000
DSTYLE
1002
{
1070
   284
1070
     0
1070
   340
1005
7C1BCE010000000E
1070
   287
1070
     3
1070
     5
1000
_OPEN
1070
   285
1070
     0
1070
   286
1070
     0
1002
}
  0
LWPOLYLINE
  5
332
100
AcDbEntity
  8
COTATION1
100
AcDbPolyline
 90
        3
 70
   128
 43
0.0
 10
64.566116
 20
-6.030802
 10
65.317618
 20
4.367173
 10
35.900951
 20
4.367173
1001
ACAD
1000
R13OBJECT
1002
{
1005
125
1002
}
  0
LINE
  5
126
100
AcDbEntity
  8
COTATION1
100
AcDbLine
 10
42.689521
 20
-38.470283
 30
0.0
 11
56.141327
 21
-38.470283
 31
0.0
  0
LINE
  5
127
100
AcDbEntity
  8
ALPHA
100
AcDbLine
 10
42.327816
 20
-10.88505
 30
0.0
 11
42.967109
 21
-16.254256
 31
0.0
  0
ARC
  5
128
100
AcDbEntity
  8
ALPHA
100
AcDbCircle
 10
42.796903
 20
-10.873226
 30
0.0
 40
0.1
100
AcDbArc
 50
6.789131
 51
90.0
  0
ARC
  5
129
100
AcDbEntity
  8
ALPHA
100
AcDbCircle
 10
42.610603
 20
-15.967154
 30
0.0
 40
0.450296
100
AcDbArc
 50
51.501766
 51
142.076497
  0
TEXT
  5
12A
100
AcDbEntity
  8
COTATION1
100
AcDbText
 10
16.3599
 20
-37.470283
 30
0.0
 40
2.5
  1
1000
100
AcDbText
  0
LWPOLYLINE
  5
12B
100
AcDbEntity
  8
COTATION1
100
AcDbPolyline
 90
        4
 70
     0
 43
0.0
 10
39.696602
 20
-38.470283
 10
41.248486
 20
-35.226108
 10
40.250846
 20
-43.97344
 10
42.689521
 20
-38.470283
  0
LINE
  5
131
100
AcDbEntity
  8
ALPHA
100
AcDbLine
 10
23.345703
 20
-10.773226
 30
0.0
 11
22.975915
 21
-10.773226
 31
0.0
  0
LINE
  5
132
100
AcDbEntity
  8
ALPHA
100
AcDbLine
 10
22.876616
 20
-10.88505
 30
0.0
 11
23.515909
 21
-16.254256
 31
0.0
  0
ARC
  5
133
100
AcDbEntity
  8
ALPHA
100
AcDbCircle
 10
23.159403
 20
-15.967154
 30
0.0
 40
0.450296
100
AcDbArc
 50
51.501766
 51
142.076497
  0
ARC
  5
134
100
AcDbEntity
  8
ALPHA
100
AcDbCircle
 10
12.84832
 20
-11.049204
 30
0.0
 40
0.450296
100
AcDbArc
 50
231.501766
 51
322.076497
  0
LINE
  5
135
100
AcDbEntity
  8
ALPHA
100
AcDbLine
 10
12.673907
 20
-16.342433
 30
0.0
 11
13.04361
 21
-16.342433
 31
0.0
  0
LINE
  5
136
100
AcDbEntity
  8
ALPHA
100
AcDbLine
 10
13.142908
 20
-16.230611
 30
0.0
 11
12.503702
 21
-10.861405
 31
0.0
  0
ARC
  5
137
100
AcDbEntity
  8
ALPHA
100
AcDbCircle
 10
7.98552
 20
-11.049204
 30
0.0
 40
0.450296
100
AcDbArc
 50
231.501766
 51
322.076497
  0
LINE
  5
138
100
AcDbEntity
  8
ALPHA
100
AcDbLine
 10
7.811107
 20
-16.342433
 30
0.0
 11
8.18081
 21
-16.342433
 31
0.0
  0
LINE
  5
139
100
AcDbEntity
  8
ALPHA
100
AcDbLine
 10
8.280108
 20
-16.230611
 30
0.0
 11
7.640902
 21
-10.861405
 31
0.0
  0
LINE
  5
13A
100
AcDbEntity
  8
ALPHA
100
AcDbLine
 10
7.072516
 20
-10.88505
 30
0.0
 11
7.711809
 21
-16.254256
 31
0.0
  0
LINE
  5
13B
100
AcDbEntity
  8
ALPHA
100
AcDbLine
 10
5.856816
 20
-10.88505
 30
0.0
 11
6.496109
 21
-16.254256
 31
0.0
  0
LINE
  5
13C
100
AcDbEntity
  8
ALPHA
100
AcDbLine
 10
7.064408
 20
-16.230611
 30
0.0
 11
6.425202
 21
-10.861405
 31
0.0
  0
LINE
  5
13D
100
AcDbEntity
  8
ALPHA
100
AcDbLine
 10
4.641116
 20
-10.88505
 30
0.0
 11
5.280409
 21
-16.254256
 31
0.0
  0
LINE
  5
13E
100
AcDbEntity
  8
ALPHA
100
AcDbLine
 10
5.848708
 20
-16.230611
 30
0.0
 11
5.209502
 21
-10.861405
 31
0.0
  0
LINE
  5
13F
100
AcDbEntity
  8
ALPHA
100
AcDbLine
 10
3.425416
 20
-10.88505
 30
0.0
 11
4.064709
 21
-16.254256
 31
0.0
  0
LINE
  5
140
100
AcDbEntity
  8
ALPHA
100
AcDbLine
 10
4.633008
 20
-16.230611
 30
0.0
 11
3.993802
 21
-10.861405
 31
0.0
  0
LINE
  5
141
100
AcDbEntity
  8
ALPHA
100
AcDbLine
 10
5.379707
 20
-16.342433
 30
0.0
 11
5.74941
 21
-16.342433
 31
0.0
  0
ARC
  5
142
100
AcDbEntity
  8
ALPHA
100
AcDbCircle
 10
3.31801
 20
-16.242433
 30
0.0
 40
0.1
100
AcDbArc
 50
270.0
 51
6.789131
  0
ARC
  5
143
100
AcDbEntity
  8
ALPHA
100
AcDbCircle
 10
5.379707
 20
-16.242433
 30
0.0
 40
0.1
100
AcDbArc
 50
186.79004
 51
270.0
  0
ARC
  5
144
100
AcDbEntity
  8
ALPHA
100
AcDbCircle
 10
4.923903
 20
-15.967154
 30
0.0
 40
0.450296
100
AcDbArc
 50
51.501766
 51
142.076497
  0
ARC
  5
145
100
AcDbEntity
  8
ALPHA
100
AcDbCircle
 10
4.53371
 20
-16.242433
 30
0.0
 40
0.1
100
AcDbArc
 50
270.0
 51
6.789131
  0
ARC
  5
146
100
AcDbEntity
  8
ALPHA
100
AcDbCircle
 10
4.164007
 20
-16.242433
 30
0.0
 40
0.1
100
AcDbArc
 50
186.79004
 51
270.0
  0
LINE
  5
147
100
AcDbEntity
  8
ALPHA
100
AcDbLine
 10
4.164007
 20
-16.342433
 30
0.0
 11
4.53371
 21
-16.342433
 31
0.0
  0
ARC
  5
148
100
AcDbEntity
  8
ALPHA
100
AcDbCircle
 10
3.708203
 20
-15.967154
 30
0.0
 40
0.450296
100
AcDbArc
 50
51.501766
 51
142.076497
  0
ARC
  5
149
100
AcDbEntity
  8
ALPHA
100
AcDbCircle
 10
7.811107
 20
-16.242433
 30
0.0
 40
0.1
100
AcDbArc
 50
186.79004
 51
270.0
  0
ARC
  5
14A
100
AcDbEntity
  8
ALPHA
100
AcDbCircle
 10
7.355303
 20
-15.967154
 30
0.0
 40
0.450296
100
AcDbArc
 50
51.501766
 51
142.076497
  0
ARC
  5
14B
100
AcDbEntity
  8
ALPHA
100
AcDbCircle
 10
6.96511
 20
-16.242433
 30
0.0
 40
0.1
100
AcDbArc
 50
270.0
 51
6.789131
  0
ARC
  5
14C
100
AcDbEntity
  8
ALPHA
100
AcDbCircle
 10
6.595407
 20
-16.242433
 30
0.0
 40
0.1
100
AcDbArc
 50
186.79004
 51
270.0
  0
LINE
  5
14D
100
AcDbEntity
  8
ALPHA
100
AcDbLine
 10
6.595407
 20
-16.342433
 30
0.0
 11
6.96511
 21
-16.342433
 31
0.0
  0
ARC
  5
14E
100
AcDbEntity
  8
ALPHA
100
AcDbCircle
 10
6.139603
 20
-15.967154
 30
0.0
 40
0.450296
100
AcDbArc
 50
51.501766
 51
142.076497
  0
ARC
  5
14F
100
AcDbEntity
  8
ALPHA
100
AcDbCircle
 10
5.74941
 20
-16.242433
 30
0.0
 40
0.1
100
AcDbArc
 50
270.0
 51
6.789131
  0
ARC
  5
150
100
AcDbEntity
  8
ALPHA
100
AcDbCircle
 10
5.55412
 20
-11.049204
 30
0.0
 40
0.450296
100
AcDbArc
 50
231.501766
 51
322.076497
  0
ARC
  5
151
100
AcDbEntity
  8
ALPHA
100
AcDbCircle
 10
5.110203
 20
-10.873226
 30
0.0
 40
0.1
100
AcDbArc
 50
6.789131
 51
90.0
  0
ARC
  5
152
100
AcDbEntity
  8
ALPHA
100
AcDbCircle
 10
4.740415
 20
-10.873226
 30
0.0
 40
0.1
100
AcDbArc
 50
90.0
 51
186.79004
  0
LINE
  5
153
100
AcDbEntity
  8
ALPHA
100
AcDbLine
 10
5.110203
 20
-10.773226
 30
0.0
 11
4.740415
 21
-10.773226
 31
0.0
  0
ARC
  5
154
100
AcDbEntity
  8
ALPHA
100
AcDbCircle
 10
3.894503
 20
-10.873226
 30
0.0
 40
0.1
100
AcDbArc
 50
6.789131
 51
90.0
  0
ARC
  5
155
100
AcDbEntity
  8
ALPHA
100
AcDbCircle
 10
4.33842
 20
-11.049204
 30
0.0
 40
0.450296
100
AcDbArc
 50
231.501766
 51
322.076497
  0
ARC
  5
156
100
AcDbEntity
  8
ALPHA
100
AcDbCircle
 10
3.524715
 20
-10.873226
 30
0.0
 40
0.1
100
AcDbArc
 50
90.0
 51
186.79004
  0
LINE
  5
157
100
AcDbEntity
  8
ALPHA
100
AcDbLine
 10
3.894503
 20
-10.773226
 30
0.0
 11
3.524715
 21
-10.773226
 31
0.0
  0
ARC
  5
158
100
AcDbEntity
  8
ALPHA
100
AcDbCircle
 10
7.541603
 20
-10.873226
 30
0.0
 40
0.1
100
AcDbArc
 50
6.789131
 51
90.0
  0
ARC
  5
159
100
AcDbEntity
  8
ALPHA
100
AcDbCircle
 10
7.171815
 20
-10.873226
 30
0.0
 40
0.1
100
AcDbArc
 50
90.0
 51
186.79004
  0
LINE
  5
15A
100
AcDbEntity
  8
ALPHA
100
AcDbLine
 10
7.541603
 20
-10.773226
 30
0.0
 11
7.171815
 21
-10.773226
 31
0.0
  0
ARC
  5
15B
100
AcDbEntity
  8
ALPHA
100
AcDbCircle
 10
6.325903
 20
-10.873226
 30
0.0
 40
0.1
100
AcDbArc
 50
6.789131
 51
90.0
  0
ARC
  5
15C
100
AcDbEntity
  8
ALPHA
100
AcDbCircle
 10
6.76982
 20
-11.049204
 30
0.0
 40
0.450296
100
AcDbArc
 50
231.501766
 51
322.076497
  0
ARC
  5
15D
100
AcDbEntity
  8
ALPHA
100
AcDbCircle
 10
5.956115
 20
-10.873226
 30
0.0
 40
0.1
100
AcDbArc
 50
90.0
 51
186.79004
  0
LINE
  5
15E
100
AcDbEntity
  8
ALPHA
100
AcDbLine
 10
6.325903
 20
-10.773226
 30
0.0
 11
5.956115
 21
-10.773226
 31
0.0
  0
LINE
  5
15F
100
AcDbEntity
  8
ALPHA
100
AcDbLine
 10
11.935316
 20
-10.88505
 30
0.0
 11
12.574609
 21
-16.254256
 31
0.0
  0
LINE
  5
160
100
AcDbEntity
  8
ALPHA
100
AcDbLine
 10
10.719616
 20
-10.88505
 30
0.0
 11
11.358909
 21
-16.254256
 31
0.0
  0
LINE
  5
161
100
AcDbEntity
  8
ALPHA
100
AcDbLine
 10
11.927208
 20
-16.230611
 30
0.0
 11
11.288002
 21
-10.861405
 31
0.0
  0
LINE
  5
162
100
AcDbEntity
  8
ALPHA
100
AcDbLine
 10
9.503916
 20
-10.88505
 30
0.0
 11
10.143209
 21
-16.254256
 31
0.0
  0
LINE
  5
163
100
AcDbEntity
  8
ALPHA
100
AcDbLine
 10
10.711508
 20
-16.230611
 30
0.0
 11
10.072302
 21
-10.861405
 31
0.0
  0
LINE
  5
164
100
AcDbEntity
  8
ALPHA
100
AcDbLine
 10
8.288216
 20
-10.88505
 30
0.0
 11
8.927509
 21
-16.254256
 31
0.0
  0
LINE
  5
165
100
AcDbEntity
  8
ALPHA
100
AcDbLine
 10
9.495808
 20
-16.230611
 30
0.0
 11
8.856602
 21
-10.861405
 31
0.0
  0
LINE
  5
166
100
AcDbEntity
  8
ALPHA
100
AcDbLine
 10
10.242507
 20
-16.342433
 30
0.0
 11
10.61221
 21
-16.342433
 31
0.0
  0
ARC
  5
167
100
AcDbEntity
  8
ALPHA
100
AcDbCircle
 10
10.242507
 20
-16.242433
 30
0.0
 40
0.1
100
AcDbArc
 50
186.79004
 51
270.0
  0
ARC
  5
168
100
AcDbEntity
  8
ALPHA
100
AcDbCircle
 10
9.786703
 20
-15.967154
 30
0.0
 40
0.450296
100
AcDbArc
 50
51.501766
 51
142.076497
  0
ARC
  5
169
100
AcDbEntity
  8
ALPHA
100
AcDbCircle
 10
9.39651
 20
-16.242433
 30
0.0
 40
0.1
100
AcDbArc
 50
270.0
 51
6.789131
  0
ARC
  5
16A
100
AcDbEntity
  8
ALPHA
100
AcDbCircle
 10
9.026807
 20
-16.242433
 30
0.0
 40
0.1
100
AcDbArc
 50
186.79004
 51
270.0
  0
LINE
  5
16B
100
AcDbEntity
  8
ALPHA
100
AcDbLine
 10
9.026807
 20
-16.342433
 30
0.0
 11
9.39651
 21
-16.342433
 31
0.0
  0
ARC
  5
16C
100
AcDbEntity
  8
ALPHA
100
AcDbCircle
 10
8.571003
 20
-15.967154
 30
0.0
 40
0.450296
100
AcDbArc
 50
51.501766
 51
142.076497
  0
ARC
  5
16D
100
AcDbEntity
  8
ALPHA
100
AcDbCircle
 10
8.18081
 20
-16.242433
 30
0.0
 40
0.1
100
AcDbArc
 50
270.0
 51
6.789131
  0
ARC
  5
16E
100
AcDbEntity
  8
ALPHA
100
AcDbCircle
 10
12.673907
 20
-16.242433
 30
0.0
 40
0.1
100
AcDbArc
 50
186.79004
 51
270.0
  0
ARC
  5
16F
100
AcDbEntity
  8
ALPHA
100
AcDbCircle
 10
12.218103
 20
-15.967154
 30
0.0
 40
0.450296
100
AcDbArc
 50
51.501766
 51
142.076497
  0
ARC
  5
170
100
AcDbEntity
  8
ALPHA
100
AcDbCircle
 10
11.82791
 20
-16.242433
 30
0.0
 40
0.1
100
AcDbArc
 50
270.0
 51
6.789131
  0
ARC
  5
171
100
AcDbEntity
  8
ALPHA
100
AcDbCircle
 10
11.458207
 20
-16.242433
 30
0.0
 40
0.1
100
AcDbArc
 50
186.79004
 51
270.0
  0
LINE
  5
172
100
AcDbEntity
  8
ALPHA
100
AcDbLine
 10
11.458207
 20
-16.342433
 30
0.0
 11
11.82791
 21
-16.342433
 31
0.0
  0
ARC
  5
173
100
AcDbEntity
  8
ALPHA
100
AcDbCircle
 10
11.002403
 20
-15.967154
 30
0.0
 40
0.450296
100
AcDbArc
 50
51.501766
 51
142.076497
  0
ARC
  5
174
100
AcDbEntity
  8
ALPHA
100
AcDbCircle
 10
10.61221
 20
-16.242433
 30
0.0
 40
0.1
100
AcDbArc
 50
270.0
 51
6.789131
  0
ARC
  5
175
100
AcDbEntity
  8
ALPHA
100
AcDbCircle
 10
10.41692
 20
-11.049204
 30
0.0
 40
0.450296
100
AcDbArc
 50
231.501766
 51
322.076497
  0
ARC
  5
176
100
AcDbEntity
  8
ALPHA
100
AcDbCircle
 10
9.973003
 20
-10.873226
 30
0.0
 40
0.1
100
AcDbArc
 50
6.789131
 51
90.0
  0
ARC
  5
177
100
AcDbEntity
  8
ALPHA
100
AcDbCircle
 10
9.603215
 20
-10.873226
 30
0.0
 40
0.1
100
AcDbArc
 50
90.0
 51
186.79004
  0
LINE
  5
178
100
AcDbEntity
  8
ALPHA
100
AcDbLine
 10
9.973003
 20
-10.773226
 30
0.0
 11
9.603215
 21
-10.773226
 31
0.0
  0
ARC
  5
179
100
AcDbEntity
  8
ALPHA
100
AcDbCircle
 10
8.757303
 20
-10.873226
 30
0.0
 40
0.1
100
AcDbArc
 50
6.789131
 51
90.0
  0
ARC
  5
17A
100
AcDbEntity
  8
ALPHA
100
AcDbCircle
 10
9.20122
 20
-11.049204
 30
0.0
 40
0.450296
100
AcDbArc
 50
231.501766
 51
322.076497
  0
ARC
  5
17B
100
AcDbEntity
  8
ALPHA
100
AcDbCircle
 10
8.387515
 20
-10.873226
 30
0.0
 40
0.1
100
AcDbArc
 50
90.0
 51
186.79004
  0
LINE
  5
17C
100
AcDbEntity
  8
ALPHA
100
AcDbLine
 10
8.757303
 20
-10.773226
 30
0.0
 11
8.387515
 21
-10.773226
 31
0.0
  0
ARC
  5
17D
100
AcDbEntity
  8
ALPHA
100
AcDbCircle
 10
12.404403
 20
-10.873226
 30
0.0
 40
0.1
100
AcDbArc
 50
6.789131
 51
90.0
  0
ARC
  5
17E
100
AcDbEntity
  8
ALPHA
100
AcDbCircle
 10
12.034615
 20
-10.873226
 30
0.0
 40
0.1
100
AcDbArc
 50
90.0
 51
186.79004
  0
LINE
  5
17F
100
AcDbEntity
  8
ALPHA
100
AcDbLine
 10
12.404403
 20
-10.773226
 30
0.0
 11
12.034615
 21
-10.773226
 31
0.0
  0
ARC
  5
180
100
AcDbEntity
  8
ALPHA
100
AcDbCircle
 10
11.188703
 20
-10.873226
 30
0.0
 40
0.1
100
AcDbArc
 50
6.789131
 51
90.0
  0
ARC
  5
181
100
AcDbEntity
  8
ALPHA
100
AcDbCircle
 10
11.63262
 20
-11.049204
 30
0.0
 40
0.450296
100
AcDbArc
 50
231.501766
 51
322.076497
  0
ARC
  5
182
100
AcDbEntity
  8
ALPHA
100
AcDbCircle
 10
10.818915
 20
-10.873226
 30
0.0
 40
0.1
100
AcDbArc
 50
90.0
 51
186.79004
  0
LINE
  5
183
100
AcDbEntity
  8
ALPHA
100
AcDbLine
 10
11.188703
 20
-10.773226
 30
0.0
 11
10.818915
 21
-10.773226
 31
0.0
  0
LINE
  5
184
100
AcDbEntity
  8
AXE
100
AcDbLine
 10
14.810466
 20
-16.99513
 30
0.0
 11
19.785448
 21
-10.413958
 31
0.0
  0
LINE
  5
185
100
AcDbEntity
  8
AXE
100
AcDbLine
 10
13.92458
 20
-16.962589
 30
0.0
 11
18.899562
 21
-10.381417
 31
0.0
  0
ARC
  5
186
100
AcDbEntity
  8
ALPHA
100
AcDbCircle
 10
18.113115
 20
-10.873226
 30
0.0
 40
0.1
100
AcDbArc
 50
90.0
 51
186.79004
  0
LINE
  5
187
100
AcDbEntity
  8
ALPHA
100
AcDbLine
 10
18.013816
 20
-10.88505
 30
0.0
 11
18.082538
 21
-11.46222
 31
0.0
  0
ARC
  5
188
100
AcDbEntity
  8
ALPHA
100
AcDbCircle
 10
17.71112
 20
-11.049204
 30
0.0
 40
0.450296
100
AcDbArc
 50
231.501766
 51
322.076497
  0
ARC
  5
189
100
AcDbEntity
  8
ALPHA
100
AcDbCircle
 10
18.296603
 20
-15.967154
 30
0.0
 40
0.450296
100
AcDbArc
 50
51.501766
 51
142.076497
  0
ARC
  5
18A
100
AcDbEntity
  8
ALPHA
100
AcDbCircle
 10
17.90641
 20
-16.242433
 30
0.0
 40
0.1
100
AcDbArc
 50
270.0
 51
6.789131
  0
LINE
  5
18B
100
AcDbEntity
  8
ALPHA
100
AcDbLine
 10
16.475427
 20
-13.588192
 30
0.0
 11
16.150802
 21
-10.861405
 31
0.0
  0
LINE
  5
18C
100
AcDbEntity
  8
ALPHA
100
AcDbLine
 10
15.425134
 20
-14.977576
 30
0.0
 11
14.935102
 21
-10.861405
 31
0.0
  0
LINE
  5
18D
100
AcDbEntity
  8
ALPHA
100
AcDbLine
 10
18.005708
 20
-16.230611
 30
0.0
 11
17.6496
 21
-13.239371
 31
0.0
  0
LINE
  5
18E
100
AcDbEntity
  8
ALPHA
100
AcDbLine
 10
15.582416
 20
-10.88505
 30
0.0
 11
15.98199
 21
-14.240938
 31
0.0
  0
LINE
  5
18F
100
AcDbEntity
  8
ALPHA
100
AcDbLine
 10
14.366716
 20
-10.88505
 30
0.0
 11
14.931716
 21
-15.630296
 31
0.0
  0
LINE
  5
190
100
AcDbEntity
  8
ALPHA
100
AcDbLine
 10
13.151016
 20
-10.88505
 30
0.0
 11
13.790309
 21
-16.254256
 31
0.0
  0
LINE
  5
191
100
AcDbEntity
  8
ALPHA
100
AcDbLine
 10
14.358608
 20
-16.230611
 30
0.0
 11
13.719402
 21
-10.861405
 31
0.0
  0
ARC
  5
192
100
AcDbEntity
  8
ALPHA
100
AcDbCircle
 10
15.47501
 20
-16.242433
 30
0.0
 40
0.1
100
AcDbArc
 50
270.0
 51
6.789131
  0
LINE
  5
193
100
AcDbEntity
  8
ALPHA
100
AcDbLine
 10
15.303867
 20
-16.342433
 30
0.0
 11
15.47501
 21
-16.342433
 31
0.0
  0
ARC
  5
194
100
AcDbEntity
  8
ALPHA
100
AcDbCircle
 10
14.649503
 20
-15.967154
 30
0.0
 40
0.450296
100
AcDbArc
 50
51.501766
 51
142.076497
  0
ARC
  5
195
100
AcDbEntity
  8
ALPHA
100
AcDbCircle
 10
14.25931
 20
-16.242433
 30
0.0
 40
0.1
100
AcDbArc
 50
270.0
 51
6.789131
  0
ARC
  5
196
100
AcDbEntity
  8
ALPHA
100
AcDbCircle
 10
13.889607
 20
-16.242433
 30
0.0
 40
0.1
100
AcDbArc
 50
186.79004
 51
270.0
  0
LINE
  5
197
100
AcDbEntity
  8
ALPHA
100
AcDbLine
 10
13.889607
 20
-16.342433
 30
0.0
 11
14.25931
 21
-16.342433
 31
0.0
  0
ARC
  5
198
100
AcDbEntity
  8
ALPHA
100
AcDbCircle
 10
13.433803
 20
-15.967154
 30
0.0
 40
0.450296
100
AcDbArc
 50
51.501766
 51
142.076497
  0
ARC
  5
199
100
AcDbEntity
  8
ALPHA
100
AcDbCircle
 10
13.04361
 20
-16.242433
 30
0.0
 40
0.1
100
AcDbArc
 50
270.0
 51
6.789131
  0
LINE
  5
19A
100
AcDbEntity
  8
ALPHA
100
AcDbLine
 10
17.156158
 20
-13.892123
 30
0.0
 11
17.437409
 21
-16.254256
 31
0.0
  0
LINE
  5
19B
100
AcDbEntity
  8
ALPHA
100
AcDbLine
 10
16.105884
 20
-15.281482
 30
0.0
 11
16.221709
 21
-16.254256
 31
0.0
  0
ARC
  5
19C
100
AcDbEntity
  8
ALPHA
100
AcDbCircle
 10
17.536707
 20
-16.242433
 30
0.0
 40
0.1
100
AcDbArc
 50
186.79004
 51
270.0
  0
LINE
  5
19D
100
AcDbEntity
  8
ALPHA
100
AcDbLine
 10
17.536707
 20
-16.342433
 30
0.0
 11
17.90641
 21
-16.342433
 31
0.0
  0
ARC
  5
19E
100
AcDbEntity
  8
ALPHA
100
AcDbCircle
 10
17.080903
 20
-15.967154
 30
0.0
 40
0.450296
100
AcDbArc
 50
51.501766
 51
142.076497
  0
ARC
  5
19F
100
AcDbEntity
  8
ALPHA
100
AcDbCircle
 10
16.69071
 20
-16.242433
 30
0.0
 40
0.1
100
AcDbArc
 50
270.0
 51
6.789131
  0
ARC
  5
1A0
100
AcDbEntity
  8
ALPHA
100
AcDbCircle
 10
16.321007
 20
-16.242433
 30
0.0
 40
0.1
100
AcDbArc
 50
186.79004
 51
270.0
  0
LINE
  5
1A1
100
AcDbEntity
  8
ALPHA
100
AcDbLine
 10
16.321007
 20
-16.342433
 30
0.0
 11
16.69071
 21
-16.342433
 31
0.0
  0
LINE
  5
1A2
100
AcDbEntity
  8
ALPHA
100
AcDbLine
 10
16.790008
 20
-16.230611
 30
0.0
 11
16.599307
 21
-14.628755
 31
0.0
  0
ARC
  5
1A3
100
AcDbEntity
  8
ALPHA
100
AcDbCircle
 10
15.865203
 20
-15.967154
 30
0.0
 40
0.450296
100
AcDbArc
 50
51.501766
 51
82.376153
  0
LINE
  5
1A4
100
AcDbEntity
  8
ALPHA
100
AcDbLine
 10
15.574308
 20
-16.230611
 30
0.0
 11
15.549014
 21
-16.018139
 31
0.0
  0
ARC
  5
1A5
100
AcDbEntity
  8
ALPHA
100
AcDbCircle
 10
15.27972
 20
-11.049204
 30
0.0
 40
0.450296
100
AcDbArc
 50
231.501766
 51
322.076497
  0
ARC
  5
1A6
100
AcDbEntity
  8
ALPHA
100
AcDbCircle
 10
14.835803
 20
-10.873226
 30
0.0
 40
0.1
100
AcDbArc
 50
6.789131
 51
90.0
  0
ARC
  5
1A7
100
AcDbEntity
  8
ALPHA
100
AcDbCircle
 10
14.466015
 20
-10.873226
 30
0.0
 40
0.1
100
AcDbArc
 50
90.0
 51
186.79004
  0
LINE
  5
1A8
100
AcDbEntity
  8
ALPHA
100
AcDbLine
 10
14.835803
 20
-10.773226
 30
0.0
 11
14.466015
 21
-10.773226
 31
0.0
  0
ARC
  5
1A9
100
AcDbEntity
  8
ALPHA
100
AcDbCircle
 10
13.620103
 20
-10.873226
 30
0.0
 40
0.1
100
AcDbArc
 50
6.789131
 51
90.0
  0
ARC
  5
1AA
100
AcDbEntity
  8
ALPHA
100
AcDbCircle
 10
14.06402
 20
-11.049204
 30
0.0
 40
0.450296
100
AcDbArc
 50
231.501766
 51
322.076497
  0
ARC
  5
1AB
100
AcDbEntity
  8
ALPHA
100
AcDbCircle
 10
13.250315
 20
-10.873226
 30
0.0
 40
0.1
100
AcDbArc
 50
90.0
 51
186.79004
  0
LINE
  5
1AC
100
AcDbEntity
  8
ALPHA
100
AcDbLine
 10
13.620103
 20
-10.773226
 30
0.0
 11
13.250315
 21
-10.773226
 31
0.0
  0
LINE
  5
1AD
100
AcDbEntity
  8
ALPHA
100
AcDbLine
 10
17.525721
 20
-12.198808
 30
0.0
 11
17.366502
 21
-10.861405
 31
0.0
  0
ARC
  5
1AE
100
AcDbEntity
  8
ALPHA
100
AcDbCircle
 10
17.267203
 20
-10.873226
 30
0.0
 40
0.1
100
AcDbArc
 50
6.789131
 51
90.0
  0
ARC
  5
1AF
100
AcDbEntity
  8
ALPHA
100
AcDbCircle
 10
16.897415
 20
-10.873226
 30
0.0
 40
0.1
100
AcDbArc
 50
90.0
 51
186.79004
  0
LINE
  5
1B0
100
AcDbEntity
  8
ALPHA
100
AcDbLine
 10
17.267203
 20
-10.773226
 30
0.0
 11
16.897415
 21
-10.773226
 31
0.0
  0
LINE
  5
1B1
100
AcDbEntity
  8
ALPHA
100
AcDbLine
 10
16.798116
 20
-10.88505
 30
0.0
 11
17.032264
 21
-12.851579
 31
0.0
  0
ARC
  5
1B2
100
AcDbEntity
  8
ALPHA
100
AcDbCircle
 10
16.051503
 20
-10.873226
 30
0.0
 40
0.1
100
AcDbArc
 50
6.789131
 51
90.0
  0
ARC
  5
1B3
100
AcDbEntity
  8
ALPHA
100
AcDbCircle
 10
16.49542
 20
-11.049204
 30
0.0
 40
0.450296
100
AcDbArc
 50
231.501766
 51
322.076497
  0
ARC
  5
1B4
100
AcDbEntity
  8
ALPHA
100
AcDbCircle
 10
15.681715
 20
-10.873226
 30
0.0
 40
0.1
100
AcDbArc
 50
90.0
 51
186.79004
  0
LINE
  5
1B5
100
AcDbEntity
  8
ALPHA
100
AcDbLine
 10
16.051503
 20
-10.773226
 30
0.0
 11
15.681715
 21
-10.773226
 31
0.0
  0
LINE
  5
1B6
100
AcDbEntity
  8
ALPHA
100
AcDbLine
 10
18.206432
 20
-12.502765
 30
0.0
 11
18.653109
 21
-16.254256
 31
0.0
  0
LINE
  5
1B7
100
AcDbEntity
  8
ALPHA
100
AcDbLine
 10
21.660916
 20
-10.88505
 30
0.0
 11
22.300209
 21
-16.254256
 31
0.0
  0
LINE
  5
1B8
100
AcDbEntity
  8
ALPHA
100
AcDbLine
 10
22.868508
 20
-16.230611
 30
0.0
 11
22.229302
 21
-10.861405
 31
0.0
  0
LINE
  5
1B9
100
AcDbEntity
  8
ALPHA
100
AcDbLine
 10
20.445216
 20
-10.88505
 30
0.0
 11
21.084509
 21
-16.254256
 31
0.0
  0
LINE
  5
1BA
100
AcDbEntity
  8
ALPHA
100
AcDbLine
 10
21.652808
 20
-16.230611
 30
0.0
 11
21.013602
 21
-10.861405
 31
0.0
  0
LINE
  5
1BB
100
AcDbEntity
  8
ALPHA
100
AcDbLine
 10
19.256706
 20
-11.113406
 30
0.0
 11
19.868809
 21
-16.254256
 31
0.0
  0
LINE
  5
1BC
100
AcDbEntity
  8
ALPHA
100
AcDbLine
 10
20.437108
 20
-16.230611
 30
0.0
 11
19.797902
 21
-10.861405
 31
0.0
  0
LINE
  5
1BD
100
AcDbEntity
  8
ALPHA
100
AcDbLine
 10
19.221408
 20
-16.230611
 30
0.0
 11
18.699893
 21
-11.849987
 31
0.0
  0
ARC
  5
1BE
100
AcDbEntity
  8
ALPHA
100
AcDbCircle
 10
20.728003
 20
-15.967154
 30
0.0
 40
0.450296
100
AcDbArc
 50
51.501766
 51
142.076497
  0
ARC
  5
1BF
100
AcDbEntity
  8
ALPHA
100
AcDbCircle
 10
20.33781
 20
-16.242433
 30
0.0
 40
0.1
100
AcDbArc
 50
270.0
 51
6.789131
  0
ARC
  5
1C0
100
AcDbEntity
  8
ALPHA
100
AcDbCircle
 10
19.968107
 20
-16.242433
 30
0.0
 40
0.1
100
AcDbArc
 50
186.79004
 51
270.0
  0
LINE
  5
1C1
100
AcDbEntity
  8
ALPHA
100
AcDbLine
 10
19.968107
 20
-16.342433
 30
0.0
 11
20.33781
 21
-16.342433
 31
0.0
  0
ARC
  5
1C2
100
AcDbEntity
  8
ALPHA
100
AcDbCircle
 10
19.512303
 20
-15.967154
 30
0.0
 40
0.450296
100
AcDbArc
 50
51.501766
 51
142.076497
  0
ARC
  5
1C3
100
AcDbEntity
  8
ALPHA
100
AcDbCircle
 10
19.12211
 20
-16.242433
 30
0.0
 40
0.1
100
AcDbArc
 50
270.0
 51
6.789131
  0
ARC
  5
1C4
100
AcDbEntity
  8
ALPHA
100
AcDbCircle
 10
18.752407
 20
-16.242433
 30
0.0
 40
0.1
100
AcDbArc
 50
186.79004
 51
270.0
  0
LINE
  5
1C5
100
AcDbEntity
  8
ALPHA
100
AcDbLine
 10
18.752407
 20
-16.342433
 30
0.0
 11
19.12211
 21
-16.342433
 31
0.0
  0
ARC
  5
1C6
100
AcDbEntity
  8
ALPHA
100
AcDbCircle
 10
22.76921
 20
-16.242433
 30
0.0
 40
0.1
100
AcDbArc
 50
270.0
 51
6.789131
  0
ARC
  5
1C7
100
AcDbEntity
  8
ALPHA
100
AcDbCircle
 10
22.399507
 20
-16.242433
 30
0.0
 40
0.1
100
AcDbArc
 50
186.79004
 51
270.0
  0
LINE
  5
1C8
100
AcDbEntity
  8
ALPHA
100
AcDbLine
 10
22.399507
 20
-16.342433
 30
0.0
 11
22.76921
 21
-16.342433
 31
0.0
  0
ARC
  5
1C9
100
AcDbEntity
  8
ALPHA
100
AcDbCircle
 10
21.943703
 20
-15.967154
 30
0.0
 40
0.450296
100
AcDbArc
 50
51.501766
 51
142.076497
  0
ARC
  5
1CA
100
AcDbEntity
  8
ALPHA
100
AcDbCircle
 10
21.55351
 20
-16.242433
 30
0.0
 40
0.1
100
AcDbArc
 50
270.0
 51
6.789131
  0
ARC
  5
1CB
100
AcDbEntity
  8
ALPHA
100
AcDbCircle
 10
21.183807
 20
-16.242433
 30
0.0
 40
0.1
100
AcDbArc
 50
186.79004
 51
270.0
  0
LINE
  5
1CC
100
AcDbEntity
  8
ALPHA
100
AcDbLine
 10
21.183807
 20
-16.342433
 30
0.0
 11
21.55351
 21
-16.342433
 31
0.0
  0
ARC
  5
1CD
100
AcDbEntity
  8
ALPHA
100
AcDbCircle
 10
20.544515
 20
-10.873226
 30
0.0
 40
0.1
100
AcDbArc
 50
90.0
 51
186.79004
  0
ARC
  5
1CE
100
AcDbEntity
  8
ALPHA
100
AcDbCircle
 10
20.14252
 20
-11.049204
 30
0.0
 40
0.450296
100
AcDbArc
 50
231.501766
 51
322.076497
  0
ARC
  5
1CF
100
AcDbEntity
  8
ALPHA
100
AcDbCircle
 10
19.698603
 20
-10.873226
 30
0.0
 40
0.1
100
AcDbArc
 50
6.789131
 51
90.0
  0
LINE
  5
1D0
100
AcDbEntity
  8
ALPHA
100
AcDbLine
 10
19.698603
 20
-10.773226
 30
0.0
 11
19.513862
 21
-10.773226
 31
0.0
  0
ARC
  5
1D1
100
AcDbEntity
  8
ALPHA
100
AcDbCircle
 10
18.482903
 20
-10.873226
 30
0.0
 40
0.1
100
AcDbArc
 50
6.789131
 51
90.0
  0
ARC
  5
1D2
100
AcDbEntity
  8
ALPHA
100
AcDbCircle
 10
18.92682
 20
-11.049204
 30
0.0
 40
0.450296
100
AcDbArc
 50
275.009782
 51
322.076497
  0
LINE
  5
1D3
100
AcDbEntity
  8
ALPHA
100
AcDbLine
 10
18.482903
 20
-10.773226
 30
0.0
 11
18.113115
 21
-10.773226
 31
0.0
  0
ARC
  5
1D4
100
AcDbEntity
  8
ALPHA
100
AcDbCircle
 10
22.975915
 20
-10.873226
 30
0.0
 40
0.1
100
AcDbArc
 50
90.0
 51
186.79004
  0
ARC
  5
1D5
100
AcDbEntity
  8
ALPHA
100
AcDbCircle
 10
22.130003
 20
-10.873226
 30
0.0
 40
0.1
100
AcDbArc
 50
6.789131
 51
90.0
  0
ARC
  5
1D6
100
AcDbEntity
  8
ALPHA
100
AcDbCircle
 10
22.57392
 20
-11.049204
 30
0.0
 40
0.450296
100
AcDbArc
 50
231.501766
 51
322.076497
  0
ARC
  5
1D7
100
AcDbEntity
  8
ALPHA
100
AcDbCircle
 10
21.760215
 20
-10.873226
 30
0.0
 40
0.1
100
AcDbArc
 50
90.0
 51
186.79004
  0
LINE
  5
1D8
100
AcDbEntity
  8
ALPHA
100
AcDbLine
 10
22.130003
 20
-10.773226
 30
0.0
 11
21.760215
 21
-10.773226
 31
0.0
  0
ARC
  5
1D9
100
AcDbEntity
  8
ALPHA
100
AcDbCircle
 10
20.914303
 20
-10.873226
 30
0.0
 40
0.1
100
AcDbArc
 50
6.789131
 51
90.0
  0
ARC
  5
1DA
100
AcDbEntity
  8
ALPHA
100
AcDbCircle
 10
21.35822
 20
-11.049204
 30
0.0
 40
0.450296
100
AcDbArc
 50
231.501766
 51
322.076497
  0
LINE
  5
1DB
100
AcDbEntity
  8
ALPHA
100
AcDbLine
 10
20.914303
 20
-10.773226
 30
0.0
 11
20.544515
 21
-10.773226
 31
0.0
  0
LINE
  5
1DC
100
AcDbEntity
  8
ALPHA
100
AcDbLine
 10
33.071303
 20
-10.773226
 30
0.0
 11
32.701515
 21
-10.773226
 31
0.0
  0
LINE
  5
1DD
100
AcDbEntity
  8
ALPHA
100
AcDbLine
 10
32.602216
 20
-10.88505
 30
0.0
 11
33.241509
 21
-16.254256
 31
0.0
  0
ARC
  5
1DE
100
AcDbEntity
  8
ALPHA
100
AcDbCircle
 10
32.885003
 20
-15.967154
 30
0.0
 40
0.450296
100
AcDbArc
 50
51.501766
 51
142.076497
  0
LINE
  5
1DF
100
AcDbEntity
  8
ALPHA
100
AcDbLine
 10
28.208503
 20
-10.773226
 30
0.0
 11
27.838715
 21
-10.773226
 31
0.0
  0
LINE
  5
1E0
100
AcDbEntity
  8
ALPHA
100
AcDbLine
 10
27.739416
 20
-10.88505
 30
0.0
 11
28.378709
 21
-16.254256
 31
0.0
  0
ARC
  5
1E1
100
AcDbEntity
  8
ALPHA
100
AcDbCircle
 10
28.022203
 20
-15.967154
 30
0.0
 40
0.450296
100
AcDbArc
 50
51.501766
 51
142.076497
  0
LINE
  5
1E2
100
AcDbEntity
  8
ALPHA
100
AcDbLine
 10
26.523716
 20
-10.88505
 30
0.0
 11
27.163009
 21
-16.254256
 31
0.0
  0
LINE
  5
1E3
100
AcDbEntity
  8
ALPHA
100
AcDbLine
 10
27.731308
 20
-16.230611
 30
0.0
 11
27.092102
 21
-10.861405
 31
0.0
  0
LINE
  5
1E4
100
AcDbEntity
  8
ALPHA
100
AcDbLine
 10
25.308016
 20
-10.88505
 30
0.0
 11
25.947309
 21
-16.254256
 31
0.0
  0
LINE
  5
1E5
100
AcDbEntity
  8
ALPHA
100
AcDbLine
 10
26.515608
 20
-16.230611
 30
0.0
 11
25.876402
 21
-10.861405
 31
0.0
  0
LINE
  5
1E6
100
AcDbEntity
  8
ALPHA
100
AcDbLine
 10
24.092316
 20
-10.88505
 30
0.0
 11
24.731609
 21
-16.254256
 31
0.0
  0
LINE
  5
1E7
100
AcDbEntity
  8
ALPHA
100
AcDbLine
 10
25.299908
 20
-16.230611
 30
0.0
 11
24.660702
 21
-10.861405
 31
0.0
  0
LINE
  5
1E8
100
AcDbEntity
  8
ALPHA
100
AcDbLine
 10
24.084208
 20
-16.230611
 30
0.0
 11
23.445002
 21
-10.861405
 31
0.0
  0
ARC
  5
1E9
100
AcDbEntity
  8
ALPHA
100
AcDbCircle
 10
25.590803
 20
-15.967154
 30
0.0
 40
0.450296
100
AcDbArc
 50
51.501766
 51
142.076497
  0
ARC
  5
1EA
100
AcDbEntity
  8
ALPHA
100
AcDbCircle
 10
25.20061
 20
-16.242433
 30
0.0
 40
0.1
100
AcDbArc
 50
270.0
 51
6.789131
  0
ARC
  5
1EB
100
AcDbEntity
  8
ALPHA
100
AcDbCircle
 10
24.830907
 20
-16.242433
 30
0.0
 40
0.1
100
AcDbArc
 50
186.79004
 51
270.0
  0
LINE
  5
1EC
100
AcDbEntity
  8
ALPHA
100
AcDbLine
 10
24.830907
 20
-16.342433
 30
0.0
 11
25.20061
 21
-16.342433
 31
0.0
  0
ARC
  5
1ED
100
AcDbEntity
  8
ALPHA
100
AcDbCircle
 10
24.375103
 20
-15.967154
 30
0.0
 40
0.450296
100
AcDbArc
 50
51.501766
 51
142.076497
  0
ARC
  5
1EE
100
AcDbEntity
  8
ALPHA
100
AcDbCircle
 10
23.98491
 20
-16.242433
 30
0.0
 40
0.1
100
AcDbArc
 50
270.0
 51
6.789131
  0
ARC
  5
1EF
100
AcDbEntity
  8
ALPHA
100
AcDbCircle
 10
23.615207
 20
-16.242433
 30
0.0
 40
0.1
100
AcDbArc
 50
186.79004
 51
270.0
  0
LINE
  5
1F0
100
AcDbEntity
  8
ALPHA
100
AcDbLine
 10
23.615207
 20
-16.342433
 30
0.0
 11
23.98491
 21
-16.342433
 31
0.0
  0
ARC
  5
1F1
100
AcDbEntity
  8
ALPHA
100
AcDbCircle
 10
27.63201
 20
-16.242433
 30
0.0
 40
0.1
100
AcDbArc
 50
270.0
 51
6.789131
  0
ARC
  5
1F2
100
AcDbEntity
  8
ALPHA
100
AcDbCircle
 10
27.262307
 20
-16.242433
 30
0.0
 40
0.1
100
AcDbArc
 50
186.79004
 51
270.0
  0
LINE
  5
1F3
100
AcDbEntity
  8
ALPHA
100
AcDbLine
 10
27.262307
 20
-16.342433
 30
0.0
 11
27.63201
 21
-16.342433
 31
0.0
  0
ARC
  5
1F4
100
AcDbEntity
  8
ALPHA
100
AcDbCircle
 10
26.806503
 20
-15.967154
 30
0.0
 40
0.450296
100
AcDbArc
 50
51.501766
 51
142.076497
  0
ARC
  5
1F5
100
AcDbEntity
  8
ALPHA
100
AcDbCircle
 10
26.41631
 20
-16.242433
 30
0.0
 40
0.1
100
AcDbArc
 50
270.0
 51
6.789131
  0
ARC
  5
1F6
100
AcDbEntity
  8
ALPHA
100
AcDbCircle
 10
26.046607
 20
-16.242433
 30
0.0
 40
0.1
100
AcDbArc
 50
186.79004
 51
270.0
  0
LINE
  5
1F7
100
AcDbEntity
  8
ALPHA
100
AcDbLine
 10
26.046607
 20
-16.342433
 30
0.0
 11
26.41631
 21
-16.342433
 31
0.0
  0
LINE
  5
1F8
100
AcDbEntity
  8
ALPHA
100
AcDbLine
 10
25.777103
 20
-10.773226
 30
0.0
 11
25.407315
 21
-10.773226
 31
0.0
  0
ARC
  5
1F9
100
AcDbEntity
  8
ALPHA
100
AcDbCircle
 10
25.407315
 20
-10.873226
 30
0.0
 40
0.1
100
AcDbArc
 50
90.0
 51
186.79004
  0
ARC
  5
1FA
100
AcDbEntity
  8
ALPHA
100
AcDbCircle
 10
24.561403
 20
-10.873226
 30
0.0
 40
0.1
100
AcDbArc
 50
6.789131
 51
90.0
  0
ARC
  5
1FB
100
AcDbEntity
  8
ALPHA
100
AcDbCircle
 10
25.00532
 20
-11.049204
 30
0.0
 40
0.450296
100
AcDbArc
 50
231.501766
 51
322.076497
  0
ARC
  5
1FC
100
AcDbEntity
  8
ALPHA
100
AcDbCircle
 10
24.191615
 20
-10.873226
 30
0.0
 40
0.1
100
AcDbArc
 50
90.0
 51
186.79004
  0
LINE
  5
1FD
100
AcDbEntity
  8
ALPHA
100
AcDbLine
 10
24.561403
 20
-10.773226
 30
0.0
 11
24.191615
 21
-10.773226
 31
0.0
  0
ARC
  5
1FE
100
AcDbEntity
  8
ALPHA
100
AcDbCircle
 10
23.345703
 20
-10.873226
 30
0.0
 40
0.1
100
AcDbArc
 50
6.789131
 51
90.0
  0
ARC
  5
1FF
100
AcDbEntity
  8
ALPHA
100
AcDbCircle
 10
23.78962
 20
-11.049204
 30
0.0
 40
0.450296
100
AcDbArc
 50
231.501766
 51
322.076497
  0
ARC
  5
200
100
AcDbEntity
  8
ALPHA
100
AcDbCircle
 10
27.838715
 20
-10.873226
 30
0.0
 40
0.1
100
AcDbArc
 50
90.0
 51
186.79004
  0
ARC
  5
201
100
AcDbEntity
  8
ALPHA
100
AcDbCircle
 10
26.992803
 20
-10.873226
 30
0.0
 40
0.1
100
AcDbArc
 50
6.789131
 51
90.0
  0
ARC
  5
202
100
AcDbEntity
  8
ALPHA
100
AcDbCircle
 10
27.43672
 20
-11.049204
 30
0.0
 40
0.450296
100
AcDbArc
 50
231.501766
 51
322.076497
  0
ARC
  5
203
100
AcDbEntity
  8
ALPHA
100
AcDbCircle
 10
26.623015
 20
-10.873226
 30
0.0
 40
0.1
100
AcDbArc
 50
90.0
 51
186.79004
  0
LINE
  5
204
100
AcDbEntity
  8
ALPHA
100
AcDbLine
 10
26.992803
 20
-10.773226
 30
0.0
 11
26.623015
 21
-10.773226
 31
0.0
  0
ARC
  5
205
100
AcDbEntity
  8
ALPHA
100
AcDbCircle
 10
25.777103
 20
-10.873226
 30
0.0
 40
0.1
100
AcDbArc
 50
6.789131
 51
90.0
  0
ARC
  5
206
100
AcDbEntity
  8
ALPHA
100
AcDbCircle
 10
26.22102
 20
-11.049204
 30
0.0
 40
0.450296
100
AcDbArc
 50
231.501766
 51
322.076497
  0
LINE
  5
207
100
AcDbEntity
  8
ALPHA
100
AcDbLine
 10
31.386516
 20
-10.88505
 30
0.0
 11
32.025809
 21
-16.254256
 31
0.0
  0
LINE
  5
208
100
AcDbEntity
  8
ALPHA
100
AcDbLine
 10
32.594108
 20
-16.230611
 30
0.0
 11
31.954902
 21
-10.861405
 31
0.0
  0
LINE
  5
209
100
AcDbEntity
  8
ALPHA
100
AcDbLine
 10
30.170816
 20
-10.88505
 30
0.0
 11
30.810109
 21
-16.254256
 31
0.0
  0
LINE
  5
20A
100
AcDbEntity
  8
ALPHA
100
AcDbLine
 10
31.378408
 20
-16.230611
 30
0.0
 11
30.739202
 21
-10.861405
 31
0.0
  0
LINE
  5
20B
100
AcDbEntity
  8
ALPHA
100
AcDbLine
 10
28.955116
 20
-10.88505
 30
0.0
 11
29.594409
 21
-16.254256
 31
0.0
  0
LINE
  5
20C
100
AcDbEntity
  8
ALPHA
100
AcDbLine
 10
30.162708
 20
-16.230611
 30
0.0
 11
29.523502
 21
-10.861405
 31
0.0
  0
LINE
  5
20D
100
AcDbEntity
  8
ALPHA
100
AcDbLine
 10
28.947008
 20
-16.230611
 30
0.0
 11
28.307802
 21
-10.861405
 31
0.0
  0
ARC
  5
20E
100
AcDbEntity
  8
ALPHA
100
AcDbCircle
 10
30.453603
 20
-15.967154
 30
0.0
 40
0.450296
100
AcDbArc
 50
51.501766
 51
142.076497
  0
ARC
  5
20F
100
AcDbEntity
  8
ALPHA
100
AcDbCircle
 10
30.06341
 20
-16.242433
 30
0.0
 40
0.1
100
AcDbArc
 50
270.0
 51
6.789131
  0
ARC
  5
210
100
AcDbEntity
  8
ALPHA
100
AcDbCircle
 10
29.693707
 20
-16.242433
 30
0.0
 40
0.1
100
AcDbArc
 50
186.79004
 51
270.0
  0
LINE
  5
211
100
AcDbEntity
  8
ALPHA
100
AcDbLine
 10
29.693707
 20
-16.342433
 30
0.0
 11
30.06341
 21
-16.342433
 31
0.0
  0
ARC
  5
212
100
AcDbEntity
  8
ALPHA
100
AcDbCircle
 10
29.237903
 20
-15.967154
 30
0.0
 40
0.450296
100
AcDbArc
 50
51.501766
 51
142.076497
  0
ARC
  5
213
100
AcDbEntity
  8
ALPHA
100
AcDbCircle
 10
28.84771
 20
-16.242433
 30
0.0
 40
0.1
100
AcDbArc
 50
270.0
 51
6.789131
  0
ARC
  5
214
100
AcDbEntity
  8
ALPHA
100
AcDbCircle
 10
28.478007
 20
-16.242433
 30
0.0
 40
0.1
100
AcDbArc
 50
186.79004
 51
270.0
  0
LINE
  5
215
100
AcDbEntity
  8
ALPHA
100
AcDbLine
 10
28.478007
 20
-16.342433
 30
0.0
 11
28.84771
 21
-16.342433
 31
0.0
  0
ARC
  5
216
100
AcDbEntity
  8
ALPHA
100
AcDbCircle
 10
32.49481
 20
-16.242433
 30
0.0
 40
0.1
100
AcDbArc
 50
270.0
 51
6.789131
  0
ARC
  5
217
100
AcDbEntity
  8
ALPHA
100
AcDbCircle
 10
32.125107
 20
-16.242433
 30
0.0
 40
0.1
100
AcDbArc
 50
186.79004
 51
270.0
  0
LINE
  5
218
100
AcDbEntity
  8
ALPHA
100
AcDbLine
 10
32.125107
 20
-16.342433
 30
0.0
 11
32.49481
 21
-16.342433
 31
0.0
  0
ARC
  5
219
100
AcDbEntity
  8
ALPHA
100
AcDbCircle
 10
31.669303
 20
-15.967154
 30
0.0
 40
0.450296
100
AcDbArc
 50
51.501766
 51
142.076497
  0
ARC
  5
21A
100
AcDbEntity
  8
ALPHA
100
AcDbCircle
 10
31.27911
 20
-16.242433
 30
0.0
 40
0.1
100
AcDbArc
 50
270.0
 51
6.789131
  0
ARC
  5
21B
100
AcDbEntity
  8
ALPHA
100
AcDbCircle
 10
30.909407
 20
-16.242433
 30
0.0
 40
0.1
100
AcDbArc
 50
186.79004
 51
270.0
  0
LINE
  5
21C
100
AcDbEntity
  8
ALPHA
100
AcDbLine
 10
30.909407
 20
-16.342433
 30
0.0
 11
31.27911
 21
-16.342433
 31
0.0
  0
LINE
  5
21D
100
AcDbEntity
  8
ALPHA
100
AcDbLine
 10
30.639903
 20
-10.773226
 30
0.0
 11
30.270115
 21
-10.773226
 31
0.0
  0
ARC
  5
21E
100
AcDbEntity
  8
ALPHA
100
AcDbCircle
 10
30.270115
 20
-10.873226
 30
0.0
 40
0.1
100
AcDbArc
 50
90.0
 51
186.79004
  0
ARC
  5
21F
100
AcDbEntity
  8
ALPHA
100
AcDbCircle
 10
29.424203
 20
-10.873226
 30
0.0
 40
0.1
100
AcDbArc
 50
6.789131
 51
90.0
  0
ARC
  5
220
100
AcDbEntity
  8
ALPHA
100
AcDbCircle
 10
29.86812
 20
-11.049204
 30
0.0
 40
0.450296
100
AcDbArc
 50
231.501766
 51
322.076497
  0
ARC
  5
221
100
AcDbEntity
  8
ALPHA
100
AcDbCircle
 10
29.054415
 20
-10.873226
 30
0.0
 40
0.1
100
AcDbArc
 50
90.0
 51
186.79004
  0
LINE
  5
222
100
AcDbEntity
  8
ALPHA
100
AcDbLine
 10
29.424203
 20
-10.773226
 30
0.0
 11
29.054415
 21
-10.773226
 31
0.0
  0
ARC
  5
223
100
AcDbEntity
  8
ALPHA
100
AcDbCircle
 10
28.208503
 20
-10.873226
 30
0.0
 40
0.1
100
AcDbArc
 50
6.789131
 51
90.0
  0
ARC
  5
224
100
AcDbEntity
  8
ALPHA
100
AcDbCircle
 10
28.65242
 20
-11.049204
 30
0.0
 40
0.450296
100
AcDbArc
 50
231.501766
 51
322.076497
  0
ARC
  5
225
100
AcDbEntity
  8
ALPHA
100
AcDbCircle
 10
32.701515
 20
-10.873226
 30
0.0
 40
0.1
100
AcDbArc
 50
90.0
 51
186.79004
  0
ARC
  5
226
100
AcDbEntity
  8
ALPHA
100
AcDbCircle
 10
31.855603
 20
-10.873226
 30
0.0
 40
0.1
100
AcDbArc
 50
6.789131
 51
90.0
  0
ARC
  5
227
100
AcDbEntity
  8
ALPHA
100
AcDbCircle
 10
32.29952
 20
-11.049204
 30
0.0
 40
0.450296
100
AcDbArc
 50
231.501766
 51
322.076497
  0
ARC
  5
228
100
AcDbEntity
  8
ALPHA
100
AcDbCircle
 10
31.485815
 20
-10.873226
 30
0.0
 40
0.1
100
AcDbArc
 50
90.0
 51
186.79004
  0
LINE
  5
229
100
AcDbEntity
  8
ALPHA
100
AcDbLine
 10
31.855603
 20
-10.773226
 30
0.0
 11
31.485815
 21
-10.773226
 31
0.0
  0
ARC
  5
22A
100
AcDbEntity
  8
ALPHA
100
AcDbCircle
 10
30.639903
 20
-10.873226
 30
0.0
 40
0.1
100
AcDbArc
 50
6.789131
 51
90.0
  0
ARC
  5
22B
100
AcDbEntity
  8
ALPHA
100
AcDbCircle
 10
31.08382
 20
-11.049204
 30
0.0
 40
0.450296
100
AcDbArc
 50
231.501766
 51
322.076497
  0
LINE
  5
22C
100
AcDbEntity
  8
ALPHA
100
AcDbLine
 10
37.465016
 20
-10.88505
 30
0.0
 11
38.104309
 21
-16.254256
 31
0.0
  0
LINE
  5
22D
100
AcDbEntity
  8
ALPHA
100
AcDbLine
 10
37.934103
 20
-10.773226
 30
0.0
 11
37.564315
 21
-10.773226
 31
0.0
  0
ARC
  5
22E
100
AcDbEntity
  8
ALPHA
100
AcDbCircle
 10
37.747803
 20
-15.967154
 30
0.0
 40
0.450296
100
AcDbArc
 50
51.501766
 51
142.076497
  0
LINE
  5
22F
100
AcDbEntity
  8
ALPHA
100
AcDbLine
 10
36.249316
 20
-10.88505
 30
0.0
 11
36.888609
 21
-16.254256
 31
0.0
  0
LINE
  5
230
100
AcDbEntity
  8
ALPHA
100
AcDbLine
 10
37.456908
 20
-16.230611
 30
0.0
 11
36.817702
 21
-10.861405
 31
0.0
  0
LINE
  5
231
100
AcDbEntity
  8
ALPHA
100
AcDbLine
 10
35.033616
 20
-10.88505
 30
0.0
 11
35.672909
 21
-16.254256
 31
0.0
  0
LINE
  5
232
100
AcDbEntity
  8
ALPHA
100
AcDbLine
 10
36.241208
 20
-16.230611
 30
0.0
 11
35.602002
 21
-10.861405
 31
0.0
  0
LINE
  5
233
100
AcDbEntity
  8
ALPHA
100
AcDbLine
 10
33.817916
 20
-10.88505
 30
0.0
 11
34.457209
 21
-16.254256
 31
0.0
  0
LINE
  5
234
100
AcDbEntity
  8
ALPHA
100
AcDbLine
 10
35.025508
 20
-16.230611
 30
0.0
 11
34.386302
 21
-10.861405
 31
0.0
  0
LINE
  5
235
100
AcDbEntity
  8
ALPHA
100
AcDbLine
 10
33.809808
 20
-16.230611
 30
0.0
 11
33.170602
 21
-10.861405
 31
0.0
  0
ARC
  5
236
100
AcDbEntity
  8
ALPHA
100
AcDbCircle
 10
35.316403
 20
-15.967154
 30
0.0
 40
0.450296
100
AcDbArc
 50
51.501766
 51
142.076497
  0
ARC
  5
237
100
AcDbEntity
  8
ALPHA
100
AcDbCircle
 10
34.92621
 20
-16.242433
 30
0.0
 40
0.1
100
AcDbArc
 50
270.0
 51
6.789131
  0
ARC
  5
238
100
AcDbEntity
  8
ALPHA
100
AcDbCircle
 10
34.556507
 20
-16.242433
 30
0.0
 40
0.1
100
AcDbArc
 50
186.79004
 51
270.0
  0
LINE
  5
239
100
AcDbEntity
  8
ALPHA
100
AcDbLine
 10
34.556507
 20
-16.342433
 30
0.0
 11
34.92621
 21
-16.342433
 31
0.0
  0
ARC
  5
23A
100
AcDbEntity
  8
ALPHA
100
AcDbCircle
 10
34.100703
 20
-15.967154
 30
0.0
 40
0.450296
100
AcDbArc
 50
51.501766
 51
142.076497
  0
ARC
  5
23B
100
AcDbEntity
  8
ALPHA
100
AcDbCircle
 10
33.71051
 20
-16.242433
 30
0.0
 40
0.1
100
AcDbArc
 50
270.0
 51
6.789131
  0
ARC
  5
23C
100
AcDbEntity
  8
ALPHA
100
AcDbCircle
 10
33.340807
 20
-16.242433
 30
0.0
 40
0.1
100
AcDbArc
 50
186.79004
 51
270.0
  0
LINE
  5
23D
100
AcDbEntity
  8
ALPHA
100
AcDbLine
 10
33.340807
 20
-16.342433
 30
0.0
 11
33.71051
 21
-16.342433
 31
0.0
  0
ARC
  5
23E
100
AcDbEntity
  8
ALPHA
100
AcDbCircle
 10
37.35761
 20
-16.242433
 30
0.0
 40
0.1
100
AcDbArc
 50
270.0
 51
6.789131
  0
ARC
  5
23F
100
AcDbEntity
  8
ALPHA
100
AcDbCircle
 10
36.987907
 20
-16.242433
 30
0.0
 40
0.1
100
AcDbArc
 50
186.79004
 51
270.0
  0
LINE
  5
240
100
AcDbEntity
  8
ALPHA
100
AcDbLine
 10
36.987907
 20
-16.342433
 30
0.0
 11
37.35761
 21
-16.342433
 31
0.0
  0
ARC
  5
241
100
AcDbEntity
  8
ALPHA
100
AcDbCircle
 10
36.532103
 20
-15.967154
 30
0.0
 40
0.450296
100
AcDbArc
 50
51.501766
 51
142.076497
  0
ARC
  5
242
100
AcDbEntity
  8
ALPHA
100
AcDbCircle
 10
36.14191
 20
-16.242433
 30
0.0
 40
0.1
100
AcDbArc
 50
270.0
 51
6.789131
  0
ARC
  5
243
100
AcDbEntity
  8
ALPHA
100
AcDbCircle
 10
35.772207
 20
-16.242433
 30
0.0
 40
0.1
100
AcDbArc
 50
186.79004
 51
270.0
  0
LINE
  5
244
100
AcDbEntity
  8
ALPHA
100
AcDbLine
 10
35.772207
 20
-16.342433
 30
0.0
 11
36.14191
 21
-16.342433
 31
0.0
  0
LINE
  5
245
100
AcDbEntity
  8
ALPHA
100
AcDbLine
 10
35.502703
 20
-10.773226
 30
0.0
 11
35.132915
 21
-10.773226
 31
0.0
  0
ARC
  5
246
100
AcDbEntity
  8
ALPHA
100
AcDbCircle
 10
35.132915
 20
-10.873226
 30
0.0
 40
0.1
100
AcDbArc
 50
90.0
 51
186.79004
  0
ARC
  5
247
100
AcDbEntity
  8
ALPHA
100
AcDbCircle
 10
34.287003
 20
-10.873226
 30
0.0
 40
0.1
100
AcDbArc
 50
6.789131
 51
90.0
  0
ARC
  5
248
100
AcDbEntity
  8
ALPHA
100
AcDbCircle
 10
34.73092
 20
-11.049204
 30
0.0
 40
0.450296
100
AcDbArc
 50
231.501766
 51
322.076497
  0
ARC
  5
249
100
AcDbEntity
  8
ALPHA
100
AcDbCircle
 10
33.917215
 20
-10.873226
 30
0.0
 40
0.1
100
AcDbArc
 50
90.0
 51
186.79004
  0
LINE
  5
24A
100
AcDbEntity
  8
ALPHA
100
AcDbLine
 10
34.287003
 20
-10.773226
 30
0.0
 11
33.917215
 21
-10.773226
 31
0.0
  0
ARC
  5
24B
100
AcDbEntity
  8
ALPHA
100
AcDbCircle
 10
33.071303
 20
-10.873226
 30
0.0
 40
0.1
100
AcDbArc
 50
6.789131
 51
90.0
  0
ARC
  5
24C
100
AcDbEntity
  8
ALPHA
100
AcDbCircle
 10
33.51522
 20
-11.049204
 30
0.0
 40
0.450296
100
AcDbArc
 50
231.501766
 51
322.076497
  0
ARC
  5
24D
100
AcDbEntity
  8
ALPHA
100
AcDbCircle
 10
37.564315
 20
-10.873226
 30
0.0
 40
0.1
100
AcDbArc
 50
90.0
 51
186.79004
  0
ARC
  5
24E
100
AcDbEntity
  8
ALPHA
100
AcDbCircle
 10
36.348615
 20
-10.873226
 30
0.0
 40
0.1
100
AcDbArc
 50
90.0
 51
186.79004
  0
ARC
  5
24F
100
AcDbEntity
  8
ALPHA
100
AcDbCircle
 10
36.718403
 20
-10.873226
 30
0.0
 40
0.1
100
AcDbArc
 50
6.789131
 51
90.0
  0
LINE
  5
250
100
AcDbEntity
  8
ALPHA
100
AcDbLine
 10
36.718403
 20
-10.773226
 30
0.0
 11
36.348615
 21
-10.773226
 31
0.0
  0
ARC
  5
251
100
AcDbEntity
  8
ALPHA
100
AcDbCircle
 10
37.16232
 20
-11.049204
 30
0.0
 40
0.450296
100
AcDbArc
 50
231.501766
 51
322.076497
  0
ARC
  5
252
100
AcDbEntity
  8
ALPHA
100
AcDbCircle
 10
35.94662
 20
-11.049204
 30
0.0
 40
0.450296
100
AcDbArc
 50
231.501766
 51
322.076497
  0
ARC
  5
253
100
AcDbEntity
  8
ALPHA
100
AcDbCircle
 10
35.502703
 20
-10.873226
 30
0.0
 40
0.1
100
AcDbArc
 50
6.789131
 51
90.0
  0
LINE
  5
254
100
AcDbEntity
  8
ALPHA
100
AcDbLine
 10
41.112116
 20
-10.88505
 30
0.0
 11
41.751409
 21
-16.254256
 31
0.0
  0
LINE
  5
255
100
AcDbEntity
  8
ALPHA
100
AcDbLine
 10
42.319708
 20
-16.230611
 30
0.0
 11
41.680502
 21
-10.861405
 31
0.0
  0
LINE
  5
256
100
AcDbEntity
  8
ALPHA
100
AcDbLine
 10
39.896416
 20
-10.88505
 30
0.0
 11
40.535709
 21
-16.254256
 31
0.0
  0
LINE
  5
257
100
AcDbEntity
  8
ALPHA
100
AcDbLine
 10
41.104008
 20
-16.230611
 30
0.0
 11
40.464802
 21
-10.861405
 31
0.0
  0
LINE
  5
258
100
AcDbEntity
  8
ALPHA
100
AcDbLine
 10
38.680716
 20
-10.88505
 30
0.0
 11
39.320009
 21
-16.254256
 31
0.0
  0
LINE
  5
259
100
AcDbEntity
  8
ALPHA
100
AcDbLine
 10
39.888308
 20
-16.230611
 30
0.0
 11
39.249102
 21
-10.861405
 31
0.0
  0
LINE
  5
25A
100
AcDbEntity
  8
ALPHA
100
AcDbLine
 10
38.672608
 20
-16.230611
 30
0.0
 11
38.033402
 21
-10.861405
 31
0.0
  0
ARC
  5
25B
100
AcDbEntity
  8
ALPHA
100
AcDbCircle
 10
40.179203
 20
-15.967154
 30
0.0
 40
0.450296
100
AcDbArc
 50
51.501766
 51
142.076497
  0
ARC
  5
25C
100
AcDbEntity
  8
ALPHA
100
AcDbCircle
 10
39.78901
 20
-16.242433
 30
0.0
 40
0.1
100
AcDbArc
 50
270.0
 51
6.789131
  0
ARC
  5
25D
100
AcDbEntity
  8
ALPHA
100
AcDbCircle
 10
39.419307
 20
-16.242433
 30
0.0
 40
0.1
100
AcDbArc
 50
186.79004
 51
270.0
  0
LINE
  5
25E
100
AcDbEntity
  8
ALPHA
100
AcDbLine
 10
39.419307
 20
-16.342433
 30
0.0
 11
39.78901
 21
-16.342433
 31
0.0
  0
ARC
  5
25F
100
AcDbEntity
  8
ALPHA
100
AcDbCircle
 10
38.57331
 20
-16.242433
 30
0.0
 40
0.1
100
AcDbArc
 50
270.0
 51
6.789131
  0
ARC
  5
260
100
AcDbEntity
  8
ALPHA
100
AcDbCircle
 10
38.963503
 20
-15.967154
 30
0.0
 40
0.450296
100
AcDbArc
 50
51.501766
 51
142.076497
  0
ARC
  5
261
100
AcDbEntity
  8
ALPHA
100
AcDbCircle
 10
38.203607
 20
-16.242433
 30
0.0
 40
0.1
100
AcDbArc
 50
186.79004
 51
270.0
  0
LINE
  5
262
100
AcDbEntity
  8
ALPHA
100
AcDbLine
 10
38.203607
 20
-16.342433
 30
0.0
 11
38.57331
 21
-16.342433
 31
0.0
  0
ARC
  5
263
100
AcDbEntity
  8
ALPHA
100
AcDbCircle
 10
42.22041
 20
-16.242433
 30
0.0
 40
0.1
100
AcDbArc
 50
270.0
 51
6.789131
  0
ARC
  5
264
100
AcDbEntity
  8
ALPHA
100
AcDbCircle
 10
41.850707
 20
-16.242433
 30
0.0
 40
0.1
100
AcDbArc
 50
186.79004
 51
270.0
  0
LINE
  5
265
100
AcDbEntity
  8
ALPHA
100
AcDbLine
 10
41.850707
 20
-16.342433
 30
0.0
 11
42.22041
 21
-16.342433
 31
0.0
  0
ARC
  5
266
100
AcDbEntity
  8
ALPHA
100
AcDbCircle
 10
41.00471
 20
-16.242433
 30
0.0
 40
0.1
100
AcDbArc
 50
270.0
 51
6.789131
  0
ARC
  5
267
100
AcDbEntity
  8
ALPHA
100
AcDbCircle
 10
41.394903
 20
-15.967154
 30
0.0
 40
0.450296
100
AcDbArc
 50
51.501766
 51
142.076497
  0
ARC
  5
268
100
AcDbEntity
  8
ALPHA
100
AcDbCircle
 10
40.635007
 20
-16.242433
 30
0.0
 40
0.1
100
AcDbArc
 50
186.79004
 51
270.0
  0
LINE
  5
269
100
AcDbEntity
  8
ALPHA
100
AcDbLine
 10
40.635007
 20
-16.342433
 30
0.0
 11
41.00471
 21
-16.342433
 31
0.0
  0
ARC
  5
26A
100
AcDbEntity
  8
ALPHA
100
AcDbCircle
 10
40.365503
 20
-10.873226
 30
0.0
 40
0.1
100
AcDbArc
 50
6.789131
 51
90.0
  0
ARC
  5
26B
100
AcDbEntity
  8
ALPHA
100
AcDbCircle
 10
39.995715
 20
-10.873226
 30
0.0
 40
0.1
100
AcDbArc
 50
90.0
 51
186.79004
  0
LINE
  5
26C
100
AcDbEntity
  8
ALPHA
100
AcDbLine
 10
40.365503
 20
-10.773226
 30
0.0
 11
39.995715
 21
-10.773226
 31
0.0
  0
ARC
  5
26D
100
AcDbEntity
  8
ALPHA
100
AcDbCircle
 10
38.780015
 20
-10.873226
 30
0.0
 40
0.1
100
AcDbArc
 50
90.0
 51
186.79004
  0
ARC
  5
26E
100
AcDbEntity
  8
ALPHA
100
AcDbCircle
 10
39.149803
 20
-10.873226
 30
0.0
 40
0.1
100
AcDbArc
 50
6.789131
 51
90.0
  0
LINE
  5
26F
100
AcDbEntity
  8
ALPHA
100
AcDbLine
 10
39.149803
 20
-10.773226
 30
0.0
 11
38.780015
 21
-10.773226
 31
0.0
  0
ARC
  5
270
100
AcDbEntity
  8
ALPHA
100
AcDbCircle
 10
39.59372
 20
-11.049204
 30
0.0
 40
0.450296
100
AcDbArc
 50
231.501766
 51
322.076497
  0
ARC
  5
271
100
AcDbEntity
  8
ALPHA
100
AcDbCircle
 10
37.934103
 20
-10.873226
 30
0.0
 40
0.1
100
AcDbArc
 50
6.789131
 51
90.0
  0
ARC
  5
272
100
AcDbEntity
  8
ALPHA
100
AcDbCircle
 10
38.37802
 20
-11.049204
 30
0.0
 40
0.450296
100
AcDbArc
 50
231.501766
 51
322.076497
  0
ARC
  5
273
100
AcDbEntity
  8
ALPHA
100
AcDbCircle
 10
42.427115
 20
-10.873226
 30
0.0
 40
0.1
100
AcDbArc
 50
90.0
 51
186.79004
  0
LINE
  5
274
100
AcDbEntity
  8
ALPHA
100
AcDbLine
 10
42.796903
 20
-10.773226
 30
0.0
 11
42.427115
 21
-10.773226
 31
0.0
  0
ARC
  5
275
100
AcDbEntity
  8
ALPHA
100
AcDbCircle
 10
41.211415
 20
-10.873226
 30
0.0
 40
0.1
100
AcDbArc
 50
90.0
 51
186.79004
  0
ARC
  5
276
100
AcDbEntity
  8
ALPHA
100
AcDbCircle
 10
41.581203
 20
-10.873226
 30
0.0
 40
0.1
100
AcDbArc
 50
6.789131
 51
90.0
  0
LINE
  5
277
100
AcDbEntity
  8
ALPHA
100
AcDbLine
 10
41.581203
 20
-10.773226
 30
0.0
 11
41.211415
 21
-10.773226
 31
0.0
  0
ARC
  5
278
100
AcDbEntity
  8
ALPHA
100
AcDbCircle
 10
42.02512
 20
-11.049204
 30
0.0
 40
0.450296
100
AcDbArc
 50
231.501766
 51
322.076497
  0
ARC
  5
279
100
AcDbEntity
  8
ALPHA
100
AcDbCircle
 10
40.80942
 20
-11.049204
 30
0.0
 40
0.450296
100
AcDbArc
 50
231.501766
 51
322.076497
  0
LINE
  5
27A
100
AcDbEntity
  8
COTATION1
100
AcDbLine
 10
59.141327
 20
-17.725385
 30
0.0
 11
59.141327
 21
-38.650283
 31
0.0
  0
SOLID
  5
27B
100
AcDbEntity
  8
COTATION1
100
AcDbTrace
 10
56.141327
 20
-37.970283
 30
0.0
 11
56.141327
 21
-38.970283
 31
0.0
 12
59.141327
 22
-38.470283
 32
0.0
 13
59.141327
 23
-38.470283
 33
0.0
  0
POINT
  5
27C
100
AcDbEntity
  8
COTATION1
100
AcDbPoint
 10
59.141327
 20
-38.470283
 30
0.0
  0
DIMENSION
  5
27D
100
AcDbEntity
  8
COTATION1
100
AcDbDimension
  2
*D1
 10
79.141327
 20
-30.812866
 30
0.0
 11
69.141327
 21
-28.562866
 31
0.0
  3
SC_STAND
100
AcDbAlignedDimension
 13
59.141327
 23
-17.662885
 33
0.0
 14
79.141327
 24
-17.662885
 34
0.0
100
AcDbRotatedDimension
1001
ACAD
1000
DSTYLE
1002
{
1070
   284
1070
     0
1070
   340
1005
E
1070
   287
1070
     3
1070
     5
1000
_OPEN
1070
   285
1070
     0
1070
   286
1070
     0
1002
}
  0
LINE
  5
28A
100
AcDbEntity
  8
ALPHA
100
AcDbLine
 10
78.757677
 20
-9.022998
 30
0.0
 11
59.525116
 21
-9.022998
 31
0.0
  0
LINE
  5
28B
100
AcDbEntity
  8
ALPHA
100
AcDbLine
 10
59.525116
 20
-18.260602
 30
0.0
 11
78.757677
 21
-18.260602
 31
0.0
  0
LINE
  5
28C
100
AcDbEntity
  8
ALPHA
100
AcDbLine
 10
78.757677
 20
-15.869705
 30
0.0
 11
59.525116
 21
-15.869705
 31
0.0
  0
LINE
  5
28D
100
AcDbEntity
  8
ALPHA
100
AcDbLine
 10
78.757677
 20
-11.269546
 30
0.0
 11
59.525116
 21
-11.269546
 31
0.0
  0
LINE
  5
28E
100
AcDbEntity
  8
ALPHA
100
AcDbLine
 10
52.792007
 20
-16.342433
 30
0.0
 11
53.16171
 21
-16.342433
 31
0.0
  0
ARC
  5
28F
100
AcDbEntity
  8
ALPHA
100
AcDbCircle
 10
52.96642
 20
-11.049204
 30
0.0
 40
0.450296
100
AcDbArc
 50
231.501766
 51
322.076497
  0
LINE
  5
290
100
AcDbEntity
  8
ALPHA
100
AcDbLine
 10
53.261008
 20
-16.230611
 30
0.0
 11
52.621802
 21
-10.861405
 31
0.0
  0
ARC
  5
291
100
AcDbEntity
  8
ALPHA
100
AcDbCircle
 10
47.929207
 20
-16.242433
 30
0.0
 40
0.1
100
AcDbArc
 50
186.79004
 51
270.0
  0
ARC
  5
292
100
AcDbEntity
  8
ALPHA
100
AcDbCircle
 10
48.10362
 20
-11.049204
 30
0.0
 40
0.450296
100
AcDbArc
 50
231.501766
 51
322.076497
  0
LINE
  5
293
100
AcDbEntity
  8
ALPHA
100
AcDbLine
 10
48.398208
 20
-16.230611
 30
0.0
 11
47.759002
 21
-10.861405
 31
0.0
  0
LINE
  5
294
100
AcDbEntity
  8
ALPHA
100
AcDbLine
 10
47.190616
 20
-10.88505
 30
0.0
 11
47.829909
 21
-16.254256
 31
0.0
  0
LINE
  5
295
100
AcDbEntity
  8
ALPHA
100
AcDbLine
 10
45.974916
 20
-10.88505
 30
0.0
 11
46.614209
 21
-16.254256
 31
0.0
  0
LINE
  5
296
100
AcDbEntity
  8
ALPHA
100
AcDbLine
 10
47.182508
 20
-16.230611
 30
0.0
 11
46.543302
 21
-10.861405
 31
0.0
  0
LINE
  5
297
100
AcDbEntity
  8
ALPHA
100
AcDbLine
 10
44.759216
 20
-10.88505
 30
0.0
 11
45.398509
 21
-16.254256
 31
0.0
  0
LINE
  5
298
100
AcDbEntity
  8
ALPHA
100
AcDbLine
 10
45.966808
 20
-16.230611
 30
0.0
 11
45.327602
 21
-10.861405
 31
0.0
  0
LINE
  5
299
100
AcDbEntity
  8
ALPHA
100
AcDbLine
 10
43.543516
 20
-10.88505
 30
0.0
 11
44.182809
 21
-16.254256
 31
0.0
  0
LINE
  5
29A
100
AcDbEntity
  8
ALPHA
100
AcDbLine
 10
44.751108
 20
-16.230611
 30
0.0
 11
44.111902
 21
-10.861405
 31
0.0
  0
LINE
  5
29B
100
AcDbEntity
  8
ALPHA
100
AcDbLine
 10
43.535408
 20
-16.230611
 30
0.0
 11
42.896202
 21
-10.861405
 31
0.0
  0
ARC
  5
29C
100
AcDbEntity
  8
ALPHA
100
AcDbCircle
 10
44.65181
 20
-16.242433
 30
0.0
 40
0.1
100
AcDbArc
 50
270.0
 51
6.789131
  0
ARC
  5
29D
100
AcDbEntity
  8
ALPHA
100
AcDbCircle
 10
45.042003
 20
-15.967154
 30
0.0
 40
0.450296
100
AcDbArc
 50
51.501766
 51
142.076497
  0
ARC
  5
29E
100
AcDbEntity
  8
ALPHA
100
AcDbCircle
 10
44.282107
 20
-16.242433
 30
0.0
 40
0.1
100
AcDbArc
 50
186.79004
 51
270.0
  0
LINE
  5
29F
100
AcDbEntity
  8
ALPHA
100
AcDbLine
 10
44.282107
 20
-16.342433
 30
0.0
 11
44.65181
 21
-16.342433
 31
0.0
  0
ARC
  5
2A0
100
AcDbEntity
  8
ALPHA
100
AcDbCircle
 10
43.43611
 20
-16.242433
 30
0.0
 40
0.1
100
AcDbArc
 50
270.0
 51
6.789131
  0
ARC
  5
2A1
100
AcDbEntity
  8
ALPHA
100
AcDbCircle
 10
43.826303
 20
-15.967154
 30
0.0
 40
0.450296
100
AcDbArc
 50
51.501766
 51
142.076497
  0
ARC
  5
2A2
100
AcDbEntity
  8
ALPHA
100
AcDbCircle
 10
43.066407
 20
-16.242433
 30
0.0
 40
0.1
100
AcDbArc
 50
186.79004
 51
270.0
  0
LINE
  5
2A3
100
AcDbEntity
  8
ALPHA
100
AcDbLine
 10
43.066407
 20
-16.342433
 30
0.0
 11
43.43611
 21
-16.342433
 31
0.0
  0
ARC
  5
2A4
100
AcDbEntity
  8
ALPHA
100
AcDbCircle
 10
47.08321
 20
-16.242433
 30
0.0
 40
0.1
100
AcDbArc
 50
270.0
 51
6.789131
  0
ARC
  5
2A5
100
AcDbEntity
  8
ALPHA
100
AcDbCircle
 10
47.473403
 20
-15.967154
 30
0.0
 40
0.450296
100
AcDbArc
 50
51.501766
 51
142.076497
  0
ARC
  5
2A6
100
AcDbEntity
  8
ALPHA
100
AcDbCircle
 10
46.713507
 20
-16.242433
 30
0.0
 40
0.1
100
AcDbArc
 50
186.79004
 51
270.0
  0
LINE
  5
2A7
100
AcDbEntity
  8
ALPHA
100
AcDbLine
 10
46.713507
 20
-16.342433
 30
0.0
 11
47.08321
 21
-16.342433
 31
0.0
  0
ARC
  5
2A8
100
AcDbEntity
  8
ALPHA
100
AcDbCircle
 10
45.86751
 20
-16.242433
 30
0.0
 40
0.1
100
AcDbArc
 50
270.0
 51
6.789131
  0
ARC
  5
2A9
100
AcDbEntity
  8
ALPHA
100
AcDbCircle
 10
46.257703
 20
-15.967154
 30
0.0
 40
0.450296
100
AcDbArc
 50
51.501766
 51
142.076497
  0
ARC
  5
2AA
100
AcDbEntity
  8
ALPHA
100
AcDbCircle
 10
45.497807
 20
-16.242433
 30
0.0
 40
0.1
100
AcDbArc
 50
186.79004
 51
270.0
  0
LINE
  5
2AB
100
AcDbEntity
  8
ALPHA
100
AcDbLine
 10
45.497807
 20
-16.342433
 30
0.0
 11
45.86751
 21
-16.342433
 31
0.0
  0
ARC
  5
2AC
100
AcDbEntity
  8
ALPHA
100
AcDbCircle
 10
44.858515
 20
-10.873226
 30
0.0
 40
0.1
100
AcDbArc
 50
90.0
 51
186.79004
  0
ARC
  5
2AD
100
AcDbEntity
  8
ALPHA
100
AcDbCircle
 10
45.228303
 20
-10.873226
 30
0.0
 40
0.1
100
AcDbArc
 50
6.789131
 51
90.0
  0
LINE
  5
2AE
100
AcDbEntity
  8
ALPHA
100
AcDbLine
 10
45.228303
 20
-10.773226
 30
0.0
 11
44.858515
 21
-10.773226
 31
0.0
  0
ARC
  5
2AF
100
AcDbEntity
  8
ALPHA
100
AcDbCircle
 10
43.642815
 20
-10.873226
 30
0.0
 40
0.1
100
AcDbArc
 50
90.0
 51
186.79004
  0
ARC
  5
2B0
100
AcDbEntity
  8
ALPHA
100
AcDbCircle
 10
44.012603
 20
-10.873226
 30
0.0
 40
0.1
100
AcDbArc
 50
6.789131
 51
90.0
  0
LINE
  5
2B1
100
AcDbEntity
  8
ALPHA
100
AcDbLine
 10
44.012603
 20
-10.773226
 30
0.0
 11
43.642815
 21
-10.773226
 31
0.0
  0
ARC
  5
2B2
100
AcDbEntity
  8
ALPHA
100
AcDbCircle
 10
44.45652
 20
-11.049204
 30
0.0
 40
0.450296
100
AcDbArc
 50
231.501766
 51
322.076497
  0
ARC
  5
2B3
100
AcDbEntity
  8
ALPHA
100
AcDbCircle
 10
43.24082
 20
-11.049204
 30
0.0
 40
0.450296
100
AcDbArc
 50
231.501766
 51
322.076497
  0
ARC
  5
2B4
100
AcDbEntity
  8
ALPHA
100
AcDbCircle
 10
47.289915
 20
-10.873226
 30
0.0
 40
0.1
100
AcDbArc
 50
90.0
 51
186.79004
  0
ARC
  5
2B5
100
AcDbEntity
  8
ALPHA
100
AcDbCircle
 10
47.659703
 20
-10.873226
 30
0.0
 40
0.1
100
AcDbArc
 50
6.789131
 51
90.0
  0
LINE
  5
2B6
100
AcDbEntity
  8
ALPHA
100
AcDbLine
 10
47.659703
 20
-10.773226
 30
0.0
 11
47.289915
 21
-10.773226
 31
0.0
  0
ARC
  5
2B7
100
AcDbEntity
  8
ALPHA
100
AcDbCircle
 10
46.074215
 20
-10.873226
 30
0.0
 40
0.1
100
AcDbArc
 50
90.0
 51
186.79004
  0
ARC
  5
2B8
100
AcDbEntity
  8
ALPHA
100
AcDbCircle
 10
46.444003
 20
-10.873226
 30
0.0
 40
0.1
100
AcDbArc
 50
6.789131
 51
90.0
  0
LINE
  5
2B9
100
AcDbEntity
  8
ALPHA
100
AcDbLine
 10
46.444003
 20
-10.773226
 30
0.0
 11
46.074215
 21
-10.773226
 31
0.0
  0
ARC
  5
2BA
100
AcDbEntity
  8
ALPHA
100
AcDbCircle
 10
46.88792
 20
-11.049204
 30
0.0
 40
0.450296
100
AcDbArc
 50
231.501766
 51
322.076497
  0
ARC
  5
2BB
100
AcDbEntity
  8
ALPHA
100
AcDbCircle
 10
45.67222
 20
-11.049204
 30
0.0
 40
0.450296
100
AcDbArc
 50
231.501766
 51
322.076497
  0
LINE
  5
2BC
100
AcDbEntity
  8
ALPHA
100
AcDbLine
 10
52.053416
 20
-10.88505
 30
0.0
 11
52.692709
 21
-16.254256
 31
0.0
  0
LINE
  5
2BD
100
AcDbEntity
  8
ALPHA
100
AcDbLine
 10
50.837716
 20
-10.88505
 30
0.0
 11
51.477009
 21
-16.254256
 31
0.0
  0
LINE
  5
2BE
100
AcDbEntity
  8
ALPHA
100
AcDbLine
 10
52.045308
 20
-16.230611
 30
0.0
 11
51.406102
 21
-10.861405
 31
0.0
  0
LINE
  5
2BF
100
AcDbEntity
  8
ALPHA
100
AcDbLine
 10
49.622016
 20
-10.88505
 30
0.0
 11
50.261309
 21
-16.254256
 31
0.0
  0
LINE
  5
2C0
100
AcDbEntity
  8
ALPHA
100
AcDbLine
 10
50.829608
 20
-16.230611
 30
0.0
 11
50.190402
 21
-10.861405
 31
0.0
  0
LINE
  5
2C1
100
AcDbEntity
  8
ALPHA
100
AcDbLine
 10
48.406316
 20
-10.88505
 30
0.0
 11
49.045609
 21
-16.254256
 31
0.0
  0
LINE
  5
2C2
100
AcDbEntity
  8
ALPHA
100
AcDbLine
 10
49.613908
 20
-16.230611
 30
0.0
 11
48.974702
 21
-10.861405
 31
0.0
  0
ARC
  5
2C3
100
AcDbEntity
  8
ALPHA
100
AcDbCircle
 10
50.360607
 20
-16.242433
 30
0.0
 40
0.1
100
AcDbArc
 50
186.79004
 51
270.0
  0
ARC
  5
2C4
100
AcDbEntity
  8
ALPHA
100
AcDbCircle
 10
49.51461
 20
-16.242433
 30
0.0
 40
0.1
100
AcDbArc
 50
270.0
 51
6.789131
  0
ARC
  5
2C5
100
AcDbEntity
  8
ALPHA
100
AcDbCircle
 10
49.904803
 20
-15.967154
 30
0.0
 40
0.450296
100
AcDbArc
 50
51.501766
 51
142.076497
  0
ARC
  5
2C6
100
AcDbEntity
  8
ALPHA
100
AcDbCircle
 10
49.144907
 20
-16.242433
 30
0.0
 40
0.1
100
AcDbArc
 50
186.79004
 51
270.0
  0
LINE
  5
2C7
100
AcDbEntity
  8
ALPHA
100
AcDbLine
 10
49.144907
 20
-16.342433
 30
0.0
 11
49.51461
 21
-16.342433
 31
0.0
  0
ARC
  5
2C8
100
AcDbEntity
  8
ALPHA
100
AcDbCircle
 10
48.29891
 20
-16.242433
 30
0.0
 40
0.1
100
AcDbArc
 50
270.0
 51
6.789131
  0
ARC
  5
2C9
100
AcDbEntity
  8
ALPHA
100
AcDbCircle
 10
48.689103
 20
-15.967154
 30
0.0
 40
0.450296
100
AcDbArc
 50
51.501766
 51
142.076497
  0
LINE
  5
2CA
100
AcDbEntity
  8
ALPHA
100
AcDbLine
 10
47.929207
 20
-16.342433
 30
0.0
 11
48.29891
 21
-16.342433
 31
0.0
  0
ARC
  5
2CB
100
AcDbEntity
  8
ALPHA
100
AcDbCircle
 10
52.792007
 20
-16.242433
 30
0.0
 40
0.1
100
AcDbArc
 50
186.79004
 51
270.0
  0
ARC
  5
2CC
100
AcDbEntity
  8
ALPHA
100
AcDbCircle
 10
51.94601
 20
-16.242433
 30
0.0
 40
0.1
100
AcDbArc
 50
270.0
 51
6.789131
  0
ARC
  5
2CD
100
AcDbEntity
  8
ALPHA
100
AcDbCircle
 10
52.336203
 20
-15.967154
 30
0.0
 40
0.450296
100
AcDbArc
 50
51.501766
 51
142.076497
  0
ARC
  5
2CE
100
AcDbEntity
  8
ALPHA
100
AcDbCircle
 10
51.576307
 20
-16.242433
 30
0.0
 40
0.1
100
AcDbArc
 50
186.79004
 51
270.0
  0
LINE
  5
2CF
100
AcDbEntity
  8
ALPHA
100
AcDbLine
 10
51.576307
 20
-16.342433
 30
0.0
 11
51.94601
 21
-16.342433
 31
0.0
  0
ARC
  5
2D0
100
AcDbEntity
  8
ALPHA
100
AcDbCircle
 10
50.73031
 20
-16.242433
 30
0.0
 40
0.1
100
AcDbArc
 50
270.0
 51
6.789131
  0
ARC
  5
2D1
100
AcDbEntity
  8
ALPHA
100
AcDbCircle
 10
51.120503
 20
-15.967154
 30
0.0
 40
0.450296
100
AcDbArc
 50
51.501766
 51
142.076497
  0
LINE
  5
2D2
100
AcDbEntity
  8
ALPHA
100
AcDbLine
 10
50.360607
 20
-16.342433
 30
0.0
 11
50.73031
 21
-16.342433
 31
0.0
  0
ARC
  5
2D3
100
AcDbEntity
  8
ALPHA
100
AcDbCircle
 10
50.53502
 20
-11.049204
 30
0.0
 40
0.450296
100
AcDbArc
 50
231.501766
 51
322.076497
  0
ARC
  5
2D4
100
AcDbEntity
  8
ALPHA
100
AcDbCircle
 10
49.721315
 20
-10.873226
 30
0.0
 40
0.1
100
AcDbArc
 50
90.0
 51
186.79004
  0
ARC
  5
2D5
100
AcDbEntity
  8
ALPHA
100
AcDbCircle
 10
50.091103
 20
-10.873226
 30
0.0
 40
0.1
100
AcDbArc
 50
6.789131
 51
90.0
  0
LINE
  5
2D6
100
AcDbEntity
  8
ALPHA
100
AcDbLine
 10
50.091103
 20
-10.773226
 30
0.0
 11
49.721315
 21
-10.773226
 31
0.0
  0
ARC
  5
2D7
100
AcDbEntity
  8
ALPHA
100
AcDbCircle
 10
48.505615
 20
-10.873226
 30
0.0
 40
0.1
100
AcDbArc
 50
90.0
 51
186.79004
  0
ARC
  5
2D8
100
AcDbEntity
  8
ALPHA
100
AcDbCircle
 10
48.875403
 20
-10.873226
 30
0.0
 40
0.1
100
AcDbArc
 50
6.789131
 51
90.0
  0
LINE
  5
2D9
100
AcDbEntity
  8
ALPHA
100
AcDbLine
 10
48.875403
 20
-10.773226
 30
0.0
 11
48.505615
 21
-10.773226
 31
0.0
  0
ARC
  5
2DA
100
AcDbEntity
  8
ALPHA
100
AcDbCircle
 10
49.31932
 20
-11.049204
 30
0.0
 40
0.450296
100
AcDbArc
 50
231.501766
 51
322.076497
  0
ARC
  5
2DB
100
AcDbEntity
  8
ALPHA
100
AcDbCircle
 10
52.152715
 20
-10.873226
 30
0.0
 40
0.1
100
AcDbArc
 50
90.0
 51
186.79004
  0
ARC
  5
2DC
100
AcDbEntity
  8
ALPHA
100
AcDbCircle
 10
52.522503
 20
-10.873226
 30
0.0
 40
0.1
100
AcDbArc
 50
6.789131
 51
90.0
  0
LINE
  5
2DD
100
AcDbEntity
  8
ALPHA
100
AcDbLine
 10
52.522503
 20
-10.773226
 30
0.0
 11
52.152715
 21
-10.773226
 31
0.0
  0
ARC
  5
2DE
100
AcDbEntity
  8
ALPHA
100
AcDbCircle
 10
50.937015
 20
-10.873226
 30
0.0
 40
0.1
100
AcDbArc
 50
90.0
 51
186.79004
  0
ARC
  5
2DF
100
AcDbEntity
  8
ALPHA
100
AcDbCircle
 10
51.306803
 20
-10.873226
 30
0.0
 40
0.1
100
AcDbArc
 50
6.789131
 51
90.0
  0
LINE
  5
2E0
100
AcDbEntity
  8
ALPHA
100
AcDbLine
 10
51.306803
 20
-10.773226
 30
0.0
 11
50.937015
 21
-10.773226
 31
0.0
  0
ARC
  5
2E1
100
AcDbEntity
  8
ALPHA
100
AcDbCircle
 10
51.75072
 20
-11.049204
 30
0.0
 40
0.450296
100
AcDbArc
 50
231.501766
 51
322.076497
  0
LINE
  5
2E2
100
AcDbEntity
  8
ALPHA
100
AcDbLine
 10
57.654807
 20
-16.342433
 30
0.0
 11
58.02451
 21
-16.342433
 31
0.0
  0
ARC
  5
2E3
100
AcDbEntity
  8
ALPHA
100
AcDbCircle
 10
57.82922
 20
-11.049204
 30
0.0
 40
0.450296
100
AcDbArc
 50
231.501766
 51
322.076497
  0
LINE
  5
2E4
100
AcDbEntity
  8
ALPHA
100
AcDbLine
 10
58.123808
 20
-16.230611
 30
0.0
 11
57.484602
 21
-10.861405
 31
0.0
  0
LINE
  5
2E5
100
AcDbEntity
  8
ALPHA
100
AcDbLine
 10
56.916216
 20
-10.88505
 30
0.0
 11
57.555509
 21
-16.254256
 31
0.0
  0
LINE
  5
2E6
100
AcDbEntity
  8
ALPHA
100
AcDbLine
 10
55.700516
 20
-10.88505
 30
0.0
 11
56.339809
 21
-16.254256
 31
0.0
  0
LINE
  5
2E7
100
AcDbEntity
  8
ALPHA
100
AcDbLine
 10
56.908108
 20
-16.230611
 30
0.0
 11
56.268902
 21
-10.861405
 31
0.0
  0
LINE
  5
2E8
100
AcDbEntity
  8
ALPHA
100
AcDbLine
 10
54.484816
 20
-10.88505
 30
0.0
 11
55.124109
 21
-16.254256
 31
0.0
  0
LINE
  5
2E9
100
AcDbEntity
  8
ALPHA
100
AcDbLine
 10
55.692408
 20
-16.230611
 30
0.0
 11
55.053202
 21
-10.861405
 31
0.0
  0
LINE
  5
2EA
100
AcDbEntity
  8
ALPHA
100
AcDbLine
 10
53.269116
 20
-10.88505
 30
0.0
 11
53.908409
 21
-16.254256
 31
0.0
  0
LINE
  5
2EB
100
AcDbEntity
  8
ALPHA
100
AcDbLine
 10
54.476708
 20
-16.230611
 30
0.0
 11
53.837502
 21
-10.861405
 31
0.0
  0
LINE
  5
2EC
100
AcDbEntity
  8
ALPHA
100
AcDbLine
 10
55.223407
 20
-16.342433
 30
0.0
 11
55.59311
 21
-16.342433
 31
0.0
  0
ARC
  5
2ED
100
AcDbEntity
  8
ALPHA
100
AcDbCircle
 10
55.223407
 20
-16.242433
 30
0.0
 40
0.1
100
AcDbArc
 50
186.79004
 51
270.0
  0
ARC
  5
2EE
100
AcDbEntity
  8
ALPHA
100
AcDbCircle
 10
54.37741
 20
-16.242433
 30
0.0
 40
0.1
100
AcDbArc
 50
270.0
 51
6.789131
  0
ARC
  5
2EF
100
AcDbEntity
  8
ALPHA
100
AcDbCircle
 10
54.767603
 20
-15.967154
 30
0.0
 40
0.450296
100
AcDbArc
 50
51.501766
 51
142.076497
  0
ARC
  5
2F0
100
AcDbEntity
  8
ALPHA
100
AcDbCircle
 10
54.007707
 20
-16.242433
 30
0.0
 40
0.1
100
AcDbArc
 50
186.79004
 51
270.0
  0
LINE
  5
2F1
100
AcDbEntity
  8
ALPHA
100
AcDbLine
 10
54.007707
 20
-16.342433
 30
0.0
 11
54.37741
 21
-16.342433
 31
0.0
  0
ARC
  5
2F2
100
AcDbEntity
  8
ALPHA
100
AcDbCircle
 10
53.16171
 20
-16.242433
 30
0.0
 40
0.1
100
AcDbArc
 50
270.0
 51
6.789131
  0
ARC
  5
2F3
100
AcDbEntity
  8
ALPHA
100
AcDbCircle
 10
53.551903
 20
-15.967154
 30
0.0
 40
0.450296
100
AcDbArc
 50
51.501766
 51
142.076497
  0
ARC
  5
2F4
100
AcDbEntity
  8
ALPHA
100
AcDbCircle
 10
57.654807
 20
-16.242433
 30
0.0
 40
0.1
100
AcDbArc
 50
186.79004
 51
270.0
  0
ARC
  5
2F5
100
AcDbEntity
  8
ALPHA
100
AcDbCircle
 10
56.80881
 20
-16.242433
 30
0.0
 40
0.1
100
AcDbArc
 50
270.0
 51
6.789131
  0
ARC
  5
2F6
100
AcDbEntity
  8
ALPHA
100
AcDbCircle
 10
57.199003
 20
-15.967154
 30
0.0
 40
0.450296
100
AcDbArc
 50
51.501766
 51
142.076497
  0
ARC
  5
2F7
100
AcDbEntity
  8
ALPHA
100
AcDbCircle
 10
56.439107
 20
-16.242433
 30
0.0
 40
0.1
100
AcDbArc
 50
186.79004
 51
270.0
  0
LINE
  5
2F8
100
AcDbEntity
  8
ALPHA
100
AcDbLine
 10
56.439107
 20
-16.342433
 30
0.0
 11
56.80881
 21
-16.342433
 31
0.0
  0
ARC
  5
2F9
100
AcDbEntity
  8
ALPHA
100
AcDbCircle
 10
55.59311
 20
-16.242433
 30
0.0
 40
0.1
100
AcDbArc
 50
270.0
 51
6.789131
  0
ARC
  5
2FA
100
AcDbEntity
  8
ALPHA
100
AcDbCircle
 10
55.983303
 20
-15.967154
 30
0.0
 40
0.450296
100
AcDbArc
 50
51.501766
 51
142.076497
  0
ARC
  5
2FB
100
AcDbEntity
  8
ALPHA
100
AcDbCircle
 10
55.39782
 20
-11.049204
 30
0.0
 40
0.450296
100
AcDbArc
 50
231.501766
 51
322.076497
  0
ARC
  5
2FC
100
AcDbEntity
  8
ALPHA
100
AcDbCircle
 10
54.584115
 20
-10.873226
 30
0.0
 40
0.1
100
AcDbArc
 50
90.0
 51
186.79004
  0
ARC
  5
2FD
100
AcDbEntity
  8
ALPHA
100
AcDbCircle
 10
54.953903
 20
-10.873226
 30
0.0
 40
0.1
100
AcDbArc
 50
6.789131
 51
90.0
  0
LINE
  5
2FE
100
AcDbEntity
  8
ALPHA
100
AcDbLine
 10
54.953903
 20
-10.773226
 30
0.0
 11
54.584115
 21
-10.773226
 31
0.0
  0
ARC
  5
2FF
100
AcDbEntity
  8
ALPHA
100
AcDbCircle
 10
53.368415
 20
-10.873226
 30
0.0
 40
0.1
100
AcDbArc
 50
90.0
 51
186.79004
  0
ARC
  5
300
100
AcDbEntity
  8
ALPHA
100
AcDbCircle
 10
53.738203
 20
-10.873226
 30
0.0
 40
0.1
100
AcDbArc
 50
6.789131
 51
90.0
  0
LINE
  5
301
100
AcDbEntity
  8
ALPHA
100
AcDbLine
 10
53.738203
 20
-10.773226
 30
0.0
 11
53.368415
 21
-10.773226
 31
0.0
  0
ARC
  5
302
100
AcDbEntity
  8
ALPHA
100
AcDbCircle
 10
54.18212
 20
-11.049204
 30
0.0
 40
0.450296
100
AcDbArc
 50
231.501766
 51
322.076497
  0
ARC
  5
303
100
AcDbEntity
  8
ALPHA
100
AcDbCircle
 10
57.015515
 20
-10.873226
 30
0.0
 40
0.1
100
AcDbArc
 50
90.0
 51
186.79004
  0
ARC
  5
304
100
AcDbEntity
  8
ALPHA
100
AcDbCircle
 10
57.385303
 20
-10.873226
 30
0.0
 40
0.1
100
AcDbArc
 50
6.789131
 51
90.0
  0
LINE
  5
305
100
AcDbEntity
  8
ALPHA
100
AcDbLine
 10
57.385303
 20
-10.773226
 30
0.0
 11
57.015515
 21
-10.773226
 31
0.0
  0
ARC
  5
306
100
AcDbEntity
  8
ALPHA
100
AcDbCircle
 10
55.799815
 20
-10.873226
 30
0.0
 40
0.1
100
AcDbArc
 50
90.0
 51
186.79004
  0
ARC
  5
307
100
AcDbEntity
  8
ALPHA
100
AcDbCircle
 10
56.169603
 20
-10.873226
 30
0.0
 40
0.1
100
AcDbArc
 50
6.789131
 51
90.0
  0
LINE
  5
308
100
AcDbEntity
  8
ALPHA
100
AcDbLine
 10
56.169603
 20
-10.773226
 30
0.0
 11
55.799815
 21
-10.773226
 31
0.0
  0
ARC
  5
309
100
AcDbEntity
  8
ALPHA
100
AcDbCircle
 10
56.61352
 20
-11.049204
 30
0.0
 40
0.450296
100
AcDbArc
 50
231.501766
 51
322.076497
  0
LINE
  5
30A
100
AcDbEntity
  8
ALPHA
100
AcDbLine
 10
58.131916
 20
-10.88505
 30
0.0
 11
58.771209
 21
-16.254256
 31
0.0
  0
LINE
  5
30B
100
AcDbEntity
  8
ALPHA
100
AcDbLine
 10
59.141327
 20
-14.565926
 30
0.0
 11
58.700302
 21
-10.861405
 31
0.0
  0
LINE
  5
30C
100
AcDbEntity
  8
ALPHA
100
AcDbLine
 10
59.141327
 20
-9.625171
 30
0.0
 11
59.141327
 21
-17.662885
 31
0.0
  0
LWPOLYLINE
  5
30D
100
AcDbEntity
  8
ALPHA
100
AcDbPolyline
 90
        4
 70
     0
 43
0.0
 10
59.525116
 20
-18.260602
 42
-0.320603
 10
59.525088
 20
-15.874161
 42
-0.1668
 10
59.525124
 20
-11.274185
 42
-0.341396
 10
59.525098
 20
-9.027423
  0
POINT
  5
313
100
AcDbEntity
  8
DEFPOINTS
  6
BYBLOCK
 62
     0
100
AcDbPoint
 10
59.141327
 20
-17.662885
 30
0.0
  0
ARC
  5
314
100
AcDbEntity
  8
ALPHA
100
AcDbCircle
 10
58.870507
 20
-16.242433
 30
0.0
 40
0.1
100
AcDbArc
 50
186.79004
 51
270.0
  0
LINE
  5
315
100
AcDbEntity
  8
ALPHA
100
AcDbLine
 10
58.870507
 20
-16.342433
 30
0.0
 11
59.141327
 21
-16.342433
 31
0.0
  0
ARC
  5
316
100
AcDbEntity
  8
ALPHA
100
AcDbCircle
 10
58.02451
 20
-16.242433
 30
0.0
 40
0.1
100
AcDbArc
 50
270.0
 51
6.789131
  0
ARC
  5
317
100
AcDbEntity
  8
ALPHA
100
AcDbCircle
 10
58.414703
 20
-15.967154
 30
0.0
 40
0.450296
100
AcDbArc
 50
51.501766
 51
142.076497
  0
LINE
  5
318
100
AcDbEntity
  8
ALPHA
100
AcDbLine
 10
59.141327
 20
-17.662885
 30
0.0
 11
59.525116
 21
-18.260602
 31
0.0
  0
ARC
  5
319
100
AcDbEntity
  8
ALPHA
100
AcDbCircle
 10
58.231215
 20
-10.873226
 30
0.0
 40
0.1
100
AcDbArc
 50
90.0
 51
186.79004
  0
ARC
  5
31A
100
AcDbEntity
  8
ALPHA
100
AcDbCircle
 10
58.601003
 20
-10.873226
 30
0.0
 40
0.1
100
AcDbArc
 50
6.789131
 51
90.0
  0
LINE
  5
31B
100
AcDbEntity
  8
ALPHA
100
AcDbLine
 10
58.601003
 20
-10.773226
 30
0.0
 11
58.231215
 21
-10.773226
 31
0.0
  0
ARC
  5
31C
100
AcDbEntity
  8
ALPHA
100
AcDbCircle
 10
59.04492
 20
-11.049204
 30
0.0
 40
0.450296
100
AcDbArc
 50
231.501766
 51
282.362626
  0
LINE
  5
31D
100
AcDbEntity
  8
ALPHA
100
AcDbLine
 10
59.525116
 20
-9.022998
 30
0.0
 11
59.141327
 21
-9.625171
 31
0.0
  0
LINE
  5
31E
100
AcDbEntity
  8
POINTILLE_MOYEN
100
AcDbLine
 10
64.299962
 20
-15.569653
 30
0.0
 11
79.140948
 21
-15.56988
 31
0.0
  0
LINE
  5
321
100
AcDbEntity
  8
POINTILLE_MOYEN
100
AcDbLine
 10
63.058671
 20
-15.069634
 30
0.0
 11
79.140955
 21
-15.06988
 31
0.0
  0
LINE
  5
322
100
AcDbEntity
  8
POINTILLE_MOYEN
100
AcDbLine
 10
63.058693
 20
-12.069653
 30
0.0
 11
79.140978
 21
-12.069653
 31
0.0
  0
LINE
  5
323
100
AcDbEntity
  8
POINTILLE_MOYEN
100
AcDbLine
 10
64.299993
 20
-11.569653
 30
0.0
 11
79.140978
 21
-11.569653
 31
0.0
  0
LINE
  5
324
100
AcDbEntity
  8
POINTILLE_MOYEN
100
AcDbLine
 10
64.299993
 20
-11.569653
 30
0.0
 11
64.299993
 21
-13.569653
 31
0.0
  0
LINE
  5
325
100
AcDbEntity
  8
POINTILLE_MOYEN
100
AcDbLine
 10
64.299962
 20
-15.569653
 30
0.0
 11
64.299993
 21
-13.569653
 31
0.0
  0
LINE
  5
326
100
AcDbEntity
  8
ALPHA
100
AcDbLine
 10
79.141327
 20
-9.625171
 30
0.0
 11
79.141327
 21
-17.662885
 31
0.0
  0
LINE
  5
327
100
AcDbEntity
  8
ALPHA
100
AcDbLine
 10
79.140978
 20
-17.662885
 30
0.0
 11
79.140978
 21
-9.625171
 31
0.0
  0
ARC
  5
328
100
AcDbEntity
  8
ALPHA
100
AcDbCircle
 10
72.054778
 20
-13.56971
 30
0.0
 40
7.086549
100
AcDbArc
 50
341.060952
 51
18.939966
  0
LINE
  5
329
100
AcDbEntity
  8
ALPHA
100
AcDbLine
 10
78.757677
 20
-18.260602
 30
0.0
 11
79.140978
 21
-17.662885
 31
0.0
  0
ARC
  5
32A
100
AcDbEntity
  8
ALPHA
100
AcDbCircle
 10
77.086337
 20
-17.065186
 30
0.0
 40
2.05488
100
AcDbArc
 50
324.4256
 51
35.574578
  0
LINE
  5
32B
100
AcDbEntity
  8
ALPHA
100
AcDbLine
 10
79.140978
 20
-9.625171
 30
0.0
 11
78.757677
 21
-9.022998
 31
0.0
  0
ARC
  5
32C
100
AcDbEntity
  8
ALPHA
100
AcDbCircle
 10
77.304272
 20
-10.146273
 30
0.0
 40
1.836882
100
AcDbArc
 50
322.299975
 51
37.698908
  0
TEXT
  5
32D
100
AcDbEntity
  8
AXE
100
AcDbText
 10
93.974332
 20
-9.708523
 30
0.0
 40
15.0
  1
X
  7
ROMANS
100
AcDbText
  0
ENDSEC
  0
SECTION
  2
OBJECTS
  0
DICTIONARY
  5
34C
100
AcDbDictionary
  3
ACAD_GROUP
350
34D
  3
ACAD_MLINESTYLE
350
35A
  3
ACDBVARIABLEDICTIONARY
350
36F
  0
DICTIONARY
  5
34D
102
{ACAD_REACTORS
330
34C
102
}
100
AcDbDictionary
  0
DICTIONARY
  5
35A
102
{ACAD_REACTORS
330
34C
102
}
100
AcDbDictionary
  3
STANDARD
350
35B
  0
DICTIONARY
  5
36F
102
{ACAD_REACTORS
330
34C
102
}
100
AcDbDictionary
  3
DIMADEC
350
370
  0
MLINESTYLE
  5
35B
102
{ACAD_REACTORS
330
35A
102
}
100
AcDbMlineStyle
  2
STANDARD
 70
     0
  3

 62
   256
 51
90.0
 52
90.0
 71
     2
 49
0.5
 62
   256
  6
BYLAYER
 49
-0.5
 62
   256
  6
BYLAYER
  0
DICTIONARYVAR
  5
370
102
{ACAD_REACTORS
330
36F
102
}
100
DictionaryVariables
280
     0
  1
0
  0
ENDSEC
  0
EOF
