  0
SECTION
  2
HEADER
  9
$ACADVER
  1
AC1014
  9
$ACADMAINTVER
 70
     9
  9
$DWGCODEPAGE
  3
ANSI_1252
  9
$INSBASE
 10
0.0
 20
0.0
 30
0.0
  9
$EXTMIN
 10
-0.0000014740623202
 20
0.1900200015532691
 30
0.0
  9
$EXTMAX
 10
32.80000199999999
 20
20.69009155499847
 30
0.0
  9
$LIMMIN
 10
0.0
 20
0.0
  9
$LIMMAX
 10
16.40000099999999
 20
10.25
  9
$ORTHOMODE
 70
     0
  9
$REGENMODE
 70
     1
  9
$FILLMODE
 70
     1
  9
$QTEXTMODE
 70
     0
  9
$MIRRTEXT
 70
     1
  9
$DRAGMODE
 70
     2
  9
$LTSCALE
 40
1.0
  9
$OSMODE
 70
    39
  9
$ATTMODE
 70
     1
  9
$TEXTSIZE
 40
0.16
  9
$TRACEWID
 40
0.05
  9
$TEXTSTYLE
  7
ROMANS
  9
$CLAYER
  8
0
  9
$CELTYPE
  6
BYLAYER
  9
$CECOLOR
 62
   256
  9
$CELTSCALE
 40
1.0
  9
$DELOBJ
 70
     1
  9
$DISPSILH
 70
     0
  9
$DIMSCALE
 40
2.0
  9
$DIMASZ
 40
0.07
  9
$DIMEXO
 40
0.0625
  9
$DIMDLI
 40
0.38
  9
$DIMRND
 40
0.001
  9
$DIMDLE
 40
0.0
  9
$DIMEXE
 40
0.0625
  9
$DIMTP
 40
0.0
  9
$DIMTM
 40
0.0
  9
$DIMTXT
 40
0.1
  9
$DIMCEN
 40
0.09
  9
$DIMTSZ
 40
0.0
  9
$DIMTOL
 70
     0
  9
$DIMLIM
 70
     0
  9
$DIMTIH
 70
     1
  9
$DIMTOH
 70
     1
  9
$DIMSE1
 70
     0
  9
$DIMSE2
 70
     0
  9
$DIMTAD
 70
     0
  9
$DIMZIN
 70
     4
  9
$DIMBLK
  1
SEARROW
  9
$DIMASO
 70
     1
  9
$DIMSHO
 70
     1
  9
$DIMPOST
  1
\X
  9
$DIMAPOST
  1

  9
$DIMALT
 70
     1
  9
$DIMALTD
 70
     0
  9
$DIMALTF
 40
25.4
  9
$DIMLFAC
 40
1.0
  9
$DIMTOFL
 70
     0
  9
$DIMTVP
 40
0.0
  9
$DIMTIX
 70
     0
  9
$DIMSOXD
 70
     0
  9
$DIMSAH
 70
     0
  9
$DIMBLK1
  1

  9
$DIMBLK2
  1

  9
$DIMSTYLE
  2
SCHNEIDERELECTRIC_DUAL_BEL
  9
$DIMCLRD
 70
   256
  9
$DIMCLRE
 70
   256
  9
$DIMCLRT
 70
   256
  9
$DIMTFAC
 40
1.0
  9
$DIMGAP
 40
0.04
  9
$DIMJUST
 70
     0
  9
$DIMSD1
 70
     0
  9
$DIMSD2
 70
     0
  9
$DIMTOLJ
 70
     1
  9
$DIMTZIN
 70
     0
  9
$DIMALTZ
 70
     4
  9
$DIMALTTZ
 70
     0
  9
$DIMFIT
 70
     3
  9
$DIMUPT
 70
     0
  9
$DIMUNIT
 70
     2
  9
$DIMDEC
 70
     2
  9
$DIMTDEC
 70
     2
  9
$DIMALTU
 70
     2
  9
$DIMALTTD
 70
     0
  9
$DIMTXSTY
  7
ROMANS
  9
$DIMAUNIT
 70
     0
  9
$LUNITS
 70
     2
  9
$LUPREC
 70
     4
  9
$SKETCHINC
 40
0.1
  9
$FILLETRAD
 40
0.03125
  9
$AUNITS
 70
     0
  9
$AUPREC
 70
     0
  9
$MENU
  1
.
  9
$ELEVATION
 40
0.0
  9
$PELEVATION
 40
0.0
  9
$THICKNESS
 40
0.0
  9
$LIMCHECK
 70
     0
  9
$BLIPMODE
 70
     0
  9
$CHAMFERA
 40
0.015625
  9
$CHAMFERB
 40
0.015625
  9
$CHAMFERC
 40
1.0
  9
$CHAMFERD
 40
0.0
  9
$SKPOLY
 70
     0
  9
$TDCREATE
 40
2451764.535041909
  9
$TDUPDATE
 40
2452024.593963264
  9
$TDINDWG
 40
1.6132123264
  9
$TDUSRTIMER
 40
1.6132120949
  9
$USRTIMER
 70
     1
  9
$ANGBASE
 50
0.0
  9
$ANGDIR
 70
     0
  9
$PDMODE
 70
     0
  9
$PDSIZE
 40
0.0
  9
$PLINEWID
 40
0.0
  9
$COORDS
 70
     1
  9
$SPLFRAME
 70
     0
  9
$SPLINETYPE
 70
     6
  9
$SPLINESEGS
 70
     8
  9
$ATTDIA
 70
     0
  9
$ATTREQ
 70
     1
  9
$HANDLING
 70
-16383
  9
$HANDSEED
  5
139FB
  9
$SURFTAB1
 70
     6
  9
$SURFTAB2
 70
     6
  9
$SURFTYPE
 70
     6
  9
$SURFU
 70
     6
  9
$SURFV
 70
     6
  9
$UCSNAME
  2

  9
$UCSORG
 10
0.0
 20
0.0
 30
0.0
  9
$UCSXDIR
 10
1.0
 20
0.0
 30
0.0
  9
$UCSYDIR
 10
0.0
 20
1.0
 30
0.0
  9
$PUCSNAME
  2

  9
$PUCSORG
 10
0.0
 20
0.0
 30
0.0
  9
$PUCSXDIR
 10
1.0
 20
0.0
 30
0.0
  9
$PUCSYDIR
 10
0.0
 20
1.0
 30
0.0
  9
$USERI1
 70
     0
  9
$USERI2
 70
     0
  9
$USERI3
 70
     0
  9
$USERI4
 70
     0
  9
$USERI5
 70
     0
  9
$USERR1
 40
0.0
  9
$USERR2
 40
0.0
  9
$USERR3
 40
0.0
  9
$USERR4
 40
0.0
  9
$USERR5
 40
0.0
  9
$WORLDVIEW
 70
     1
  9
$SHADEDGE
 70
     3
  9
$SHADEDIF
 70
    70
  9
$TILEMODE
 70
     0
  9
$MAXACTVP
 70
    48
  9
$PINSBASE
 10
0.0
 20
0.0
 30
0.0
  9
$PLIMCHECK
 70
     0
  9
$PEXTMIN
 10
0.0
 20
-0.1507193079929352
 30
0.0
  9
$PEXTMAX
 10
16.40000099999999
 20
10.25
 30
0.0
  9
$PLIMMIN
 10
-0.3022988315385811
 20
-0.4421500682141223
  9
$PLIMMAX
 10
16.69770068786963
 20
10.55784969148998
  9
$UNITMODE
 70
     0
  9
$VISRETAIN
 70
     1
  9
$PLINEGEN
 70
     0
  9
$PSLTSCALE
 70
     1
  9
$TREEDEPTH
 70
  3020
  9
$PICKSTYLE
 70
     1
  9
$CMLSTYLE
  2
STANDARD
  9
$CMLJUST
 70
     0
  9
$CMLSCALE
 40
1.0
  9
$PROXYGRAPHICS
 70
     1
  9
$MEASUREMENT
 70
     0
  0
ENDSEC
  0
SECTION
  2
CLASSES
  0
CLASS
  1
ACDBDICTIONARYWDFLT
  2
AcDbDictionaryWithDefault
  3
AutoCAD 2000
 90
        0
280
     0
281
     0
  0
CLASS
  1
ACDBPLACEHOLDER
  2
AcDbPlaceHolder
  3
AutoCAD 2000
 90
        0
280
     0
281
     0
  0
CLASS
  1
LAYOUT
  2
AcDbLayout
  3
AutoCAD 2000
 90
        0
280
     0
281
     0
  0
CLASS
  1
LONG_TRANSACTION
  2
AcDbLongTransaction
  3
AutoCAD 2000
 90
        0
280
     0
281
     0
  0
CLASS
  1
LWPOLYLINE
  2
AcDbPolyline
  3
AutoCAD 2000
 90
        0
280
     0
281
     1
  0
CLASS
  1
HATCH
  2
AcDbHatch
  3
AutoCAD 2000
 90
        0
280
     0
281
     1
  0
CLASS
  1
XRECORD
  2
AcDbXrecord
  3
AutoCAD 2000
 90
        0
280
     0
281
     0
  0
CLASS
  1
LONG_TRANSACTION
  2
AcDbLongTransaction
  3
AutoCAD 2000
 90
        0
280
     0
281
     0
  0
CLASS
  1
LWPOLYLINE
  2
AcDbPolyline
  3
AutoCAD 2000
 90
        0
280
     0
281
     1
  0
CLASS
  1
HATCH
  2
AcDbHatch
  3
AutoCAD 2000
 90
        0
280
     0
281
     1
  0
CLASS
  1
XRECORD
  2
AcDbXrecord
  3
AutoCAD 2000
 90
        0
280
     0
281
     0
  0
CLASS
  1
LONG_TRANSACTION
  2
AcDbLongTransaction
  3
AutoCAD 2000
 90
        0
280
     0
281
     0
  0
CLASS
  1
LWPOLYLINE
  2
AcDbPolyline
  3
AutoCAD 2000
 90
        0
280
     0
281
     1
  0
CLASS
  1
HATCH
  2
AcDbHatch
  3
AutoCAD 2000
 90
        0
280
     0
281
     1
  0
CLASS
  1
XRECORD
  2
AcDbXrecord
  3
AutoCAD 2000
 90
        0
280
     0
281
     0
  0
CLASS
  1
PLOTSETTINGS
  2
AcDbPlotSettings
  3
AutoCAD 2000
 90
        0
280
     0
281
     0
  0
CLASS
  1
ACME_DOCUMENT
  2
AcMeDbDoc
  3
AcMeServices
 90
        0
280
     0
281
     0
  0
CLASS
  1
AMGSETTINGSOBJ
  2
AmgSettingsObj
  3
"AcadM|Product Description: AutoCAD Mechanical 2000|Company: Autodesk"
 90
        0
280
     0
281
     0
  0
CLASS
  1
ACMESCOPE
  2
AcMeScope
  3
AcMeServices
 90
        0
280
     0
281
     0
  0
CLASS
  1
ACMECOMMANDHISTORY
  2
AcMeCommandHistory
  3
AcMeServices
 90
        0
280
     0
281
     0
  0
CLASS
  1
DICTIONARYVAR
  2
AcDbDictionaryVar
  3
AutoCAD 2000
 90
        0
280
     0
281
     0
  0
CLASS
  1
ACIMSYSVARMAN
  2
AcImSysVarManager
  3
AcMeServices
 90
        0
280
     0
281
     0
  0
CLASS
  1
ACIMREALSYSVAR
  2
AcImRealSysVar
  3
AcMeServices
 90
        0
280
     0
281
     0
  0
CLASS
  1
ACIMINTSYSVAR
  2
AcImIntSysVar
  3
AcMeServices
 90
        0
280
     0
281
     0
  0
CLASS
  1
ACMEDRAWINGMAN
  2
AcMeDrawingMan
  3
AcMeServices
 90
        0
280
     0
281
     0
  0
CLASS
  1
ACMEVIEW
  2
AcMeView
  3
AcMeServices
 90
        0
280
     0
281
     0
  0
CLASS
  1
ACDBENTITYCACHE
  2
AcMeEntityCache
  3
AcMeServices
 90
        0
280
     0
281
     0
  0
CLASS
  1
GSMANAGER
  2
AcMeGSManager
  3
AcMeServices
 90
        0
280
     0
281
     0
  0
CLASS
  1
AmdtInternalReactor
  2
AmdtInternalReactor
  3
AcMeServices
 90
        0
280
     0
281
     0
  0
CLASS
  1
ACMESTATEMGR
  2
AcMeStateMgr
  3
AcMeServices
 90
        0
280
     0
281
     0
  0
CLASS
  1
ACME_DATABASE
  2
AcMeDbDatabase
  3
AcMeServices
 90
        0
280
     0
281
     0
  0
CLASS
  1
ACRFINSADJUSTERMGR
  2
AcRfInsAdjusterMgr
  3
AcMeServices
 90
        0
280
     0
281
     0
  0
CLASS
  1
ACMDATADICTIONARY
  2
AcmDataDictionary
  3
"AcmSymBB|Product Description: AutoCAD Mechanical 2000|Company: Autodesk"
 90
        0
280
     0
281
     0
  0
CLASS
  1
ACMDATAENTRYBLOCK
  2
AcmDataEntryBlock
  3
"AcmSymBB|Product Description: AutoCAD Mechanical 2000|Company: Autodesk"
 90
        0
280
     0
281
     0
  0
CLASS
  1
AMGOBJPROPCFG
  2
AmgObjPropCfg
  3
"AmgLay|Product Description: AutoCAD Mechanical 2000|Company: Autodesk"
 90
        1
280
     0
281
     0
  0
CLASS
  1
ACAMGFILTERDAT
  2
AcAmgFilterDat
  3
"AcadM|Product Description: AutoCAD Mechanical 2000|Company: Autodesk"
 90
        0
280
     0
281
     0
  0
CLASS
  1
LAYER_INDEX
  2
AcDbLayerIndex
  3
AutoCAD 2000
 90
        0
280
     0
281
     0
  0
CLASS
  1
IDBUFFER
  2
AcDbIdBuffer
  3
AutoCAD 2000
 90
        0
280
     0
281
     0
  0
CLASS
  1
LONG_TRANSACTION
  2
AcDbLongTransaction
  3
AutoCAD 2000
 90
        0
280
     0
281
     0
  0
CLASS
  1
LWPOLYLINE
  2
AcDbPolyline
  3
AutoCAD 2000
 90
        0
280
     0
281
     1
  0
CLASS
  1
HATCH
  2
AcDbHatch
  3
AutoCAD 2000
 90
        0
280
     0
281
     1
  0
CLASS
  1
XRECORD
  2
AcDbXrecord
  3
AutoCAD 2000
 90
        0
280
     0
281
     0
  0
CLASS
  1
LONG_TRANSACTION
  2
AcDbLongTransaction
  3
AutoCAD 2000
 90
        0
280
     0
281
     0
  0
CLASS
  1
LWPOLYLINE
  2
AcDbPolyline
  3
AutoCAD 2000
 90
        0
280
     0
281
     1
  0
CLASS
  1
HATCH
  2
AcDbHatch
  3
AutoCAD 2000
 90
        0
280
     0
281
     1
  0
CLASS
  1
XRECORD
  2
AcDbXrecord
  3
AutoCAD 2000
 90
        0
280
     0
281
     0
  0
CLASS
  1
LONG_TRANSACTION
  2
AcDbLongTransaction
  3
AutoCAD 2000
 90
        0
280
     0
281
     0
  0
CLASS
  1
LWPOLYLINE
  2
AcDbPolyline
  3
AutoCAD 2000
 90
        0
280
     0
281
     1
  0
CLASS
  1
HATCH
  2
AcDbHatch
  3
AutoCAD 2000
 90
        0
280
     0
281
     1
  0
CLASS
  1
XRECORD
  2
AcDbXrecord
  3
AutoCAD 2000
 90
        0
280
     0
281
     0
  0
CLASS
  1
LONG_TRANSACTION
  2
AcDbLongTransaction
  3
AutoCAD 2000
 90
        0
280
     0
281
     0
  0
CLASS
  1
LWPOLYLINE
  2
AcDbPolyline
  3
AutoCAD 2000
 90
        0
280
     0
281
     1
  0
CLASS
  1
HATCH
  2
AcDbHatch
  3
AutoCAD 2000
 90
        0
280
     0
281
     1
  0
CLASS
  1
XRECORD
  2
AcDbXrecord
  3
AutoCAD 2000
 90
        0
280
     0
281
     0
  0
CLASS
  1
LONG_TRANSACTION
  2
AcDbLongTransaction
  3
AutoCAD 2000
 90
        0
280
     0
281
     0
  0
CLASS
  1
LWPOLYLINE
  2
AcDbPolyline
  3
AutoCAD 2000
 90
        0
280
     0
281
     1
  0
CLASS
  1
HATCH
  2
AcDbHatch
  3
AutoCAD 2000
 90
        0
280
     0
281
     1
  0
CLASS
  1
XRECORD
  2
AcDbXrecord
  3
AutoCAD 2000
 90
        0
280
     0
281
     0
  0
CLASS
  1
LONG_TRANSACTION
  2
AcDbLongTransaction
  3
AutoCAD 2000
 90
        0
280
     0
281
     0
  0
CLASS
  1
LWPOLYLINE
  2
AcDbPolyline
  3
AutoCAD 2000
 90
        0
280
     0
281
     1
  0
CLASS
  1
HATCH
  2
AcDbHatch
  3
AutoCAD 2000
 90
        0
280
     0
281
     1
  0
CLASS
  1
XRECORD
  2
AcDbXrecord
  3
AutoCAD 2000
 90
        0
280
     0
281
     0
  0
CLASS
  1
LONG_TRANSACTION
  2
AcDbLongTransaction
  3
AutoCAD 2000
 90
        0
280
     0
281
     0
  0
CLASS
  1
LWPOLYLINE
  2
AcDbPolyline
  3
AutoCAD 2000
 90
        0
280
     0
281
     1
  0
CLASS
  1
HATCH
  2
AcDbHatch
  3
AutoCAD 2000
 90
        0
280
     0
281
     1
  0
CLASS
  1
XRECORD
  2
AcDbXrecord
  3
AutoCAD 2000
 90
        0
280
     0
281
     0
  0
CLASS
  1
LONG_TRANSACTION
  2
AcDbLongTransaction
  3
AutoCAD 2000
 90
        0
280
     0
281
     0
  0
CLASS
  1
LWPOLYLINE
  2
AcDbPolyline
  3
AutoCAD 2000
 90
        0
280
     0
281
     1
  0
CLASS
  1
HATCH
  2
AcDbHatch
  3
AutoCAD 2000
 90
        0
280
     0
281
     1
  0
CLASS
  1
XRECORD
  2
AcDbXrecord
  3
AutoCAD 2000
 90
        0
280
     0
281
     0
  0
CLASS
  1
LONG_TRANSACTION
  2
AcDbLongTransaction
  3
AutoCAD 2000
 90
        0
280
     0
281
     0
  0
CLASS
  1
LWPOLYLINE
  2
AcDbPolyline
  3
AutoCAD 2000
 90
        0
280
     0
281
     1
  0
CLASS
  1
HATCH
  2
AcDbHatch
  3
AutoCAD 2000
 90
        0
280
     0
281
     1
  0
CLASS
  1
XRECORD
  2
AcDbXrecord
  3
AutoCAD 2000
 90
        0
280
     0
281
     0
  0
CLASS
  1
LONG_TRANSACTION
  2
AcDbLongTransaction
  3
AutoCAD 2000
 90
        0
280
     0
281
     0
  0
CLASS
  1
LWPOLYLINE
  2
AcDbPolyline
  3
AutoCAD 2000
 90
        0
280
     0
281
     1
  0
CLASS
  1
HATCH
  2
AcDbHatch
  3
AutoCAD 2000
 90
        0
280
     0
281
     1
  0
CLASS
  1
XRECORD
  2
AcDbXrecord
  3
AutoCAD 2000
 90
        0
280
     0
281
     0
  0
CLASS
  1
LONG_TRANSACTION
  2
AcDbLongTransaction
  3
AutoCAD 2000
 90
        0
280
     0
281
     0
  0
CLASS
  1
LWPOLYLINE
  2
AcDbPolyline
  3
AutoCAD 2000
 90
        0
280
     0
281
     1
  0
CLASS
  1
HATCH
  2
AcDbHatch
  3
AutoCAD 2000
 90
        0
280
     0
281
     1
  0
CLASS
  1
XRECORD
  2
AcDbXrecord
  3
AutoCAD 2000
 90
        0
280
     0
281
     0
  0
CLASS
  1
LONG_TRANSACTION
  2
AcDbLongTransaction
  3
AutoCAD 2000
 90
        0
280
     0
281
     0
  0
CLASS
  1
LWPOLYLINE
  2
AcDbPolyline
  3
AutoCAD 2000
 90
        0
280
     0
281
     1
  0
CLASS
  1
HATCH
  2
AcDbHatch
  3
AutoCAD 2000
 90
        0
280
     0
281
     1
  0
CLASS
  1
XRECORD
  2
AcDbXrecord
  3
AutoCAD 2000
 90
        0
280
     0
281
     0
  0
CLASS
  1
LONG_TRANSACTION
  2
AcDbLongTransaction
  3
AutoCAD 2000
 90
        0
280
     0
281
     0
  0
CLASS
  1
LWPOLYLINE
  2
AcDbPolyline
  3
AutoCAD 2000
 90
        0
280
     0
281
     1
  0
CLASS
  1
HATCH
  2
AcDbHatch
  3
AutoCAD 2000
 90
        0
280
     0
281
     1
  0
CLASS
  1
XRECORD
  2
AcDbXrecord
  3
AutoCAD 2000
 90
        0
280
     0
281
     0
  0
CLASS
  1
LONG_TRANSACTION
  2
AcDbLongTransaction
  3
AutoCAD 2000
 90
        0
280
     0
281
     0
  0
CLASS
  1
LWPOLYLINE
  2
AcDbPolyline
  3
AutoCAD 2000
 90
        0
280
     0
281
     1
  0
CLASS
  1
HATCH
  2
AcDbHatch
  3
AutoCAD 2000
 90
        0
280
     0
281
     1
  0
CLASS
  1
XRECORD
  2
AcDbXrecord
  3
AutoCAD 2000
 90
        0
280
     0
281
     0
  0
CLASS
  1
LONG_TRANSACTION
  2
AcDbLongTransaction
  3
AutoCAD 2000
 90
        0
280
     0
281
     0
  0
CLASS
  1
LWPOLYLINE
  2
AcDbPolyline
  3
AutoCAD 2000
 90
        0
280
     0
281
     1
  0
CLASS
  1
HATCH
  2
AcDbHatch
  3
AutoCAD 2000
 90
        0
280
     0
281
     1
  0
CLASS
  1
XRECORD
  2
AcDbXrecord
  3
AutoCAD 2000
 90
        0
280
     0
281
     0
  0
CLASS
  1
LONG_TRANSACTION
  2
AcDbLongTransaction
  3
AutoCAD 2000
 90
        0
280
     0
281
     0
  0
CLASS
  1
LWPOLYLINE
  2
AcDbPolyline
  3
AutoCAD 2000
 90
        0
280
     0
281
     1
  0
CLASS
  1
HATCH
  2
AcDbHatch
  3
AutoCAD 2000
 90
        0
280
     0
281
     1
  0
CLASS
  1
XRECORD
  2
AcDbXrecord
  3
AutoCAD 2000
 90
        0
280
     0
281
     0
  0
CLASS
  1
LONG_TRANSACTION
  2
AcDbLongTransaction
  3
AutoCAD 2000
 90
        0
280
     0
281
     0
  0
CLASS
  1
LWPOLYLINE
  2
AcDbPolyline
  3
AutoCAD 2000
 90
        0
280
     0
281
     1
  0
CLASS
  1
HATCH
  2
AcDbHatch
  3
AutoCAD 2000
 90
        0
280
     0
281
     1
  0
CLASS
  1
XRECORD
  2
AcDbXrecord
  3
AutoCAD 2000
 90
        0
280
     0
281
     0
  0
CLASS
  1
LONG_TRANSACTION
  2
AcDbLongTransaction
  3
AutoCAD 2000
 90
        0
280
     0
281
     0
  0
CLASS
  1
LWPOLYLINE
  2
AcDbPolyline
  3
AutoCAD 2000
 90
        0
280
     0
281
     1
  0
CLASS
  1
HATCH
  2
AcDbHatch
  3
AutoCAD 2000
 90
        0
280
     0
281
     1
  0
CLASS
  1
XRECORD
  2
AcDbXrecord
  3
AutoCAD 2000
 90
        0
280
     0
281
     0
  0
CLASS
  1
LONG_TRANSACTION
  2
AcDbLongTransaction
  3
AutoCAD 2000
 90
        0
280
     0
281
     0
  0
CLASS
  1
LWPOLYLINE
  2
AcDbPolyline
  3
AutoCAD 2000
 90
        0
280
     0
281
     1
  0
CLASS
  1
HATCH
  2
AcDbHatch
  3
AutoCAD 2000
 90
        0
280
     0
281
     1
  0
CLASS
  1
XRECORD
  2
AcDbXrecord
  3
AutoCAD 2000
 90
        0
280
     0
281
     0
  0
CLASS
  1
LONG_TRANSACTION
  2
AcDbLongTransaction
  3
AutoCAD 2000
 90
        0
280
     0
281
     0
  0
CLASS
  1
LWPOLYLINE
  2
AcDbPolyline
  3
AutoCAD 2000
 90
        0
280
     0
281
     1
  0
CLASS
  1
HATCH
  2
AcDbHatch
  3
AutoCAD 2000
 90
        0
280
     0
281
     1
  0
CLASS
  1
XRECORD
  2
AcDbXrecord
  3
AutoCAD 2000
 90
        0
280
     0
281
     0
  0
CLASS
  1
LONG_TRANSACTION
  2
AcDbLongTransaction
  3
AutoCAD 2000
 90
        0
280
     0
281
     0
  0
CLASS
  1
LWPOLYLINE
  2
AcDbPolyline
  3
AutoCAD 2000
 90
        0
280
     0
281
     1
  0
CLASS
  1
HATCH
  2
AcDbHatch
  3
AutoCAD 2000
 90
        0
280
     0
281
     1
  0
CLASS
  1
XRECORD
  2
AcDbXrecord
  3
AutoCAD 2000
 90
        0
280
     0
281
     0
  0
CLASS
  1
LONG_TRANSACTION
  2
AcDbLongTransaction
  3
AutoCAD 2000
 90
        0
280
     0
281
     0
  0
CLASS
  1
LWPOLYLINE
  2
AcDbPolyline
  3
AutoCAD 2000
 90
        0
280
     0
281
     1
  0
CLASS
  1
HATCH
  2
AcDbHatch
  3
AutoCAD 2000
 90
        0
280
     0
281
     1
  0
CLASS
  1
XRECORD
  2
AcDbXrecord
  3
AutoCAD 2000
 90
        0
280
     0
281
     0
  0
CLASS
  1
LONG_TRANSACTION
  2
AcDbLongTransaction
  3
AutoCAD 2000
 90
        0
280
     0
281
     0
  0
CLASS
  1
LWPOLYLINE
  2
AcDbPolyline
  3
AutoCAD 2000
 90
        0
280
     0
281
     1
  0
CLASS
  1
HATCH
  2
AcDbHatch
  3
AutoCAD 2000
 90
        0
280
     0
281
     1
  0
CLASS
  1
XRECORD
  2
AcDbXrecord
  3
AutoCAD 2000
 90
        0
280
     0
281
     0
  0
CLASS
  1
LONG_TRANSACTION
  2
AcDbLongTransaction
  3
AutoCAD 2000
 90
        0
280
     0
281
     0
  0
CLASS
  1
LWPOLYLINE
  2
AcDbPolyline
  3
AutoCAD 2000
 90
        0
280
     0
281
     1
  0
CLASS
  1
HATCH
  2
AcDbHatch
  3
AutoCAD 2000
 90
        0
280
     0
281
     1
  0
CLASS
  1
XRECORD
  2
AcDbXrecord
  3
AutoCAD 2000
 90
        0
280
     0
281
     0
  0
CLASS
  1
LONG_TRANSACTION
  2
AcDbLongTransaction
  3
AutoCAD 2000
 90
        0
280
     0
281
     0
  0
CLASS
  1
LWPOLYLINE
  2
AcDbPolyline
  3
AutoCAD 2000
 90
        0
280
     0
281
     1
  0
CLASS
  1
HATCH
  2
AcDbHatch
  3
AutoCAD 2000
 90
        0
280
     0
281
     1
  0
CLASS
  1
XRECORD
  2
AcDbXrecord
  3
AutoCAD 2000
 90
        0
280
     0
281
     0
  0
CLASS
  1
LONG_TRANSACTION
  2
AcDbLongTransaction
  3
AutoCAD 2000
 90
        0
280
     0
281
     0
  0
CLASS
  1
LWPOLYLINE
  2
AcDbPolyline
  3
AutoCAD 2000
 90
        0
280
     0
281
     1
  0
CLASS
  1
HATCH
  2
AcDbHatch
  3
AutoCAD 2000
 90
        0
280
     0
281
     1
  0
CLASS
  1
XRECORD
  2
AcDbXrecord
  3
AutoCAD 2000
 90
        0
280
     0
281
     0
  0
CLASS
  1
LONG_TRANSACTION
  2
AcDbLongTransaction
  3
AutoCAD 2000
 90
        0
280
     0
281
     0
  0
CLASS
  1
LWPOLYLINE
  2
AcDbPolyline
  3
AutoCAD 2000
 90
        0
280
     0
281
     1
  0
CLASS
  1
HATCH
  2
AcDbHatch
  3
AutoCAD 2000
 90
        0
280
     0
281
     1
  0
CLASS
  1
XRECORD
  2
AcDbXrecord
  3
AutoCAD 2000
 90
        0
280
     0
281
     0
  0
CLASS
  1
LONG_TRANSACTION
  2
AcDbLongTransaction
  3
AutoCAD 2000
 90
        0
280
     0
281
     0
  0
CLASS
  1
LWPOLYLINE
  2
AcDbPolyline
  3
AutoCAD 2000
 90
        0
280
     0
281
     1
  0
CLASS
  1
HATCH
  2
AcDbHatch
  3
AutoCAD 2000
 90
        0
280
     0
281
     1
  0
CLASS
  1
XRECORD
  2
AcDbXrecord
  3
AutoCAD 2000
 90
        0
280
     0
281
     0
  0
CLASS
  1
LONG_TRANSACTION
  2
AcDbLongTransaction
  3
AutoCAD 2000
 90
        0
280
     0
281
     0
  0
CLASS
  1
LWPOLYLINE
  2
AcDbPolyline
  3
AutoCAD 2000
 90
        0
280
     0
281
     1
  0
CLASS
  1
HATCH
  2
AcDbHatch
  3
AutoCAD 2000
 90
        0
280
     0
281
     1
  0
CLASS
  1
XRECORD
  2
AcDbXrecord
  3
AutoCAD 2000
 90
        0
280
     0
281
     0
  0
CLASS
  1
LONG_TRANSACTION
  2
AcDbLongTransaction
  3
AutoCAD 2000
 90
        0
280
     0
281
     0
  0
CLASS
  1
LWPOLYLINE
  2
AcDbPolyline
  3
AutoCAD 2000
 90
        0
280
     0
281
     1
  0
CLASS
  1
HATCH
  2
AcDbHatch
  3
AutoCAD 2000
 90
        0
280
     0
281
     1
  0
CLASS
  1
XRECORD
  2
AcDbXrecord
  3
AutoCAD 2000
 90
        0
280
     0
281
     0
  0
CLASS
  1
LONG_TRANSACTION
  2
AcDbLongTransaction
  3
AutoCAD 2000
 90
        0
280
     0
281
     0
  0
CLASS
  1
LWPOLYLINE
  2
AcDbPolyline
  3
AutoCAD 2000
 90
        0
280
     0
281
     1
  0
CLASS
  1
HATCH
  2
AcDbHatch
  3
AutoCAD 2000
 90
        0
280
     0
281
     1
  0
CLASS
  1
XRECORD
  2
AcDbXrecord
  3
AutoCAD 2000
 90
        0
280
     0
281
     0
  0
CLASS
  1
LONG_TRANSACTION
  2
AcDbLongTransaction
  3
AutoCAD 2000
 90
        0
280
     0
281
     0
  0
CLASS
  1
LWPOLYLINE
  2
AcDbPolyline
  3
AutoCAD 2000
 90
        0
280
     0
281
     1
  0
CLASS
  1
HATCH
  2
AcDbHatch
  3
AutoCAD 2000
 90
        0
280
     0
281
     1
  0
CLASS
  1
XRECORD
  2
AcDbXrecord
  3
AutoCAD 2000
 90
        0
280
     0
281
     0
  0
CLASS
  1
LONG_TRANSACTION
  2
AcDbLongTransaction
  3
AutoCAD 2000
 90
        0
280
     0
281
     0
  0
CLASS
  1
LWPOLYLINE
  2
AcDbPolyline
  3
AutoCAD 2000
 90
        0
280
     0
281
     1
  0
CLASS
  1
HATCH
  2
AcDbHatch
  3
AutoCAD 2000
 90
        0
280
     0
281
     1
  0
CLASS
  1
XRECORD
  2
AcDbXrecord
  3
AutoCAD 2000
 90
        0
280
     0
281
     0
  0
CLASS
  1
LONG_TRANSACTION
  2
AcDbLongTransaction
  3
AutoCAD 2000
 90
        0
280
     0
281
     0
  0
CLASS
  1
LWPOLYLINE
  2
AcDbPolyline
  3
AutoCAD 2000
 90
        0
280
     0
281
     1
  0
CLASS
  1
HATCH
  2
AcDbHatch
  3
AutoCAD 2000
 90
        0
280
     0
281
     1
  0
CLASS
  1
XRECORD
  2
AcDbXrecord
  3
AutoCAD 2000
 90
        0
280
     0
281
     0
  0
CLASS
  1
LONG_TRANSACTION
  2
AcDbLongTransaction
  3
AutoCAD 2000
 90
        0
280
     0
281
     0
  0
CLASS
  1
LWPOLYLINE
  2
AcDbPolyline
  3
AutoCAD 2000
 90
        0
280
     0
281
     1
  0
CLASS
  1
HATCH
  2
AcDbHatch
  3
AutoCAD 2000
 90
        0
280
     0
281
     1
  0
CLASS
  1
XRECORD
  2
AcDbXrecord
  3
AutoCAD 2000
 90
        0
280
     0
281
     0
  0
CLASS
  1
LONG_TRANSACTION
  2
AcDbLongTransaction
  3
AutoCAD 2000
 90
        0
280
     0
281
     0
  0
CLASS
  1
LWPOLYLINE
  2
AcDbPolyline
  3
AutoCAD 2000
 90
        0
280
     0
281
     1
  0
CLASS
  1
HATCH
  2
AcDbHatch
  3
AutoCAD 2000
 90
        0
280
     0
281
     1
  0
CLASS
  1
XRECORD
  2
AcDbXrecord
  3
AutoCAD 2000
 90
        0
280
     0
281
     0
  0
CLASS
  1
LONG_TRANSACTION
  2
AcDbLongTransaction
  3
AutoCAD 2000
 90
        0
280
     0
281
     0
  0
CLASS
  1
LWPOLYLINE
  2
AcDbPolyline
  3
AutoCAD 2000
 90
        0
280
     0
281
     1
  0
CLASS
  1
HATCH
  2
AcDbHatch
  3
AutoCAD 2000
 90
        0
280
     0
281
     1
  0
CLASS
  1
XRECORD
  2
AcDbXrecord
  3
AutoCAD 2000
 90
        0
280
     0
281
     0
  0
CLASS
  1
LONG_TRANSACTION
  2
AcDbLongTransaction
  3
AutoCAD 2000
 90
        0
280
     0
281
     0
  0
CLASS
  1
LWPOLYLINE
  2
AcDbPolyline
  3
AutoCAD 2000
 90
        0
280
     0
281
     1
  0
CLASS
  1
HATCH
  2
AcDbHatch
  3
AutoCAD 2000
 90
        0
280
     0
281
     1
  0
CLASS
  1
XRECORD
  2
AcDbXrecord
  3
AutoCAD 2000
 90
        0
280
     0
281
     0
  0
CLASS
  1
LONG_TRANSACTION
  2
AcDbLongTransaction
  3
AutoCAD 2000
 90
        0
280
     0
281
     0
  0
CLASS
  1
LWPOLYLINE
  2
AcDbPolyline
  3
AutoCAD 2000
 90
        0
280
     0
281
     1
  0
CLASS
  1
HATCH
  2
AcDbHatch
  3
AutoCAD 2000
 90
        0
280
     0
281
     1
  0
CLASS
  1
XRECORD
  2
AcDbXrecord
  3
AutoCAD 2000
 90
        0
280
     0
281
     0
  0
CLASS
  1
LONG_TRANSACTION
  2
AcDbLongTransaction
  3
AutoCAD 2000
 90
        0
280
     0
281
     0
  0
CLASS
  1
LWPOLYLINE
  2
AcDbPolyline
  3
AutoCAD 2000
 90
        0
280
     0
281
     1
  0
CLASS
  1
HATCH
  2
AcDbHatch
  3
AutoCAD 2000
 90
        0
280
     0
281
     1
  0
CLASS
  1
XRECORD
  2
AcDbXrecord
  3
AutoCAD 2000
 90
        0
280
     0
281
     0
  0
CLASS
  1
LONG_TRANSACTION
  2
AcDbLongTransaction
  3
AutoCAD 2000
 90
        0
280
     0
281
     0
  0
CLASS
  1
LWPOLYLINE
  2
AcDbPolyline
  3
AutoCAD 2000
 90
        0
280
     0
281
     1
  0
CLASS
  1
HATCH
  2
AcDbHatch
  3
AutoCAD 2000
 90
        0
280
     0
281
     1
  0
CLASS
  1
XRECORD
  2
AcDbXrecord
  3
AutoCAD 2000
 90
        0
280
     0
281
     0
  0
CLASS
  1
LONG_TRANSACTION
  2
AcDbLongTransaction
  3
AutoCAD 2000
 90
        0
280
     0
281
     0
  0
CLASS
  1
LWPOLYLINE
  2
AcDbPolyline
  3
AutoCAD 2000
 90
        0
280
     0
281
     1
  0
CLASS
  1
HATCH
  2
AcDbHatch
  3
AutoCAD 2000
 90
        0
280
     0
281
     1
  0
CLASS
  1
XRECORD
  2
AcDbXrecord
  3
AutoCAD 2000
 90
        0
280
     0
281
     0
  0
ENDSEC
  0
SECTION
  2
TABLES
  0
TABLE
  2
VPORT
  5
8
330
0
100
AcDbSymbolTable
 70
     1
  0
VPORT
  5
13859
330
8
100
AcDbSymbolTableRecord
100
AcDbViewportTableRecord
  2
*ACTIVE
 70
     0
 10
0.0
 20
0.0
 11
1.0
 21
1.0
 12
16.40000033933731
 22
10.43975754859882
 13
0.0
 23
0.0
 14
0.5
 24
0.5
 15
0.5
 25
0.5
 16
0.0
 26
0.0
 36
1.0
 17
0.0
 27
0.0
 37
0.0
 40
20.70033671533143
 41
1.788368336025848
 42
50.0
 43
0.0
 44
0.0
 50
0.0
 51
0.0
 71
     0
 72
   100
 73
     1
 74
     2
 75
     0
 76
     0
 77
     0
 78
     0
  0
ENDTAB
  0
TABLE
  2
LTYPE
  5
5
330
0
100
AcDbSymbolTable
 70
     6
  0
LTYPE
  5
14
330
5
100
AcDbSymbolTableRecord
100
AcDbLinetypeTableRecord
  2
BYBLOCK
 70
     0
  3

 72
    65
 73
     0
 40
0.0
  0
LTYPE
  5
15
330
5
100
AcDbSymbolTableRecord
100
AcDbLinetypeTableRecord
  2
BYLAYER
 70
     0
  3

 72
    65
 73
     0
 40
0.0
  0
LTYPE
  5
16
330
5
100
AcDbSymbolTableRecord
100
AcDbLinetypeTableRecord
  2
CONTINUOUS
 70
     0
  3
Solid line
 72
    65
 73
     0
 40
0.0
  0
LTYPE
  5
3D
330
5
100
AcDbSymbolTableRecord
100
AcDbLinetypeTableRecord
  2
CENTER2
 70
     0
  3
Center (.5x) ___ _ ___ _ ___ _ ___ _ ___ _ ___
 72
    65
 73
     4
 40
1.125
 49
0.75
 74
     0
 49
-0.125
 74
     0
 49
0.125
 74
     0
 49
-0.125
 74
     0
  0
LTYPE
  5
3E
330
5
100
AcDbSymbolTableRecord
100
AcDbLinetypeTableRecord
  2
DASHDOT2
 70
     0
  3
Dash dot (.5x) _._._._._._._._._._._._._._._.
 72
    65
 73
     4
 40
0.5
 49
0.25
 74
     0
 49
-0.125
 74
     0
 49
0.0
 74
     0
 49
-0.125
 74
     0
  0
LTYPE
  5
3F
330
5
100
AcDbSymbolTableRecord
100
AcDbLinetypeTableRecord
  2
DASHED2
 70
     0
  3
Dashed (.5x) _ _ _ _ _ _ _ _ _ _ _ _ _ _ _ _ _
 72
    65
 73
     2
 40
0.375
 49
0.25
 74
     0
 49
-0.125
 74
     0
  0
LTYPE
  5
40
330
5
100
AcDbSymbolTableRecord
100
AcDbLinetypeTableRecord
  2
HIDDEN2
 70
     0
  3
Hidden (.5x) _ _ _ _ _ _ _ _ _ _ _ _ _ _ _ _ _
 72
    65
 73
     2
 40
0.1875
 49
0.125
 74
     0
 49
-0.0625
 74
     0
  0
LTYPE
  5
41
330
5
100
AcDbSymbolTableRecord
100
AcDbLinetypeTableRecord
  2
PHANTOM2
 70
     0
  3
Phantom (.5x) ___ _ _ ___ _ _ ___ _ _ ___ _ _
 72
    65
 73
     6
 40
1.25
 49
0.625
 74
     0
 49
-0.125
 74
     0
 49
0.125
 74
     0
 49
-0.125
 74
     0
 49
0.125
 74
     0
 49
-0.125
 74
     0
  0
ENDTAB
  0
TABLE
  2
LAYER
  5
2
330
0
100
AcDbSymbolTable
 70
    25
  0
LAYER
  5
10
330
2
100
AcDbSymbolTableRecord
100
AcDbLayerTableRecord
  2
0
 70
     0
 62
     7
  6
CONTINUOUS
  0
LAYER
  5
42
330
2
100
AcDbSymbolTableRecord
100
AcDbLayerTableRecord
  2
BLOCKS
 70
     0
 62
     7
  6
CONTINUOUS
  0
LAYER
  5
43
330
2
100
AcDbSymbolTableRecord
100
AcDbLayerTableRecord
  2
CENTER1
 70
     0
 62
     2
  6
CENTER2
  0
LAYER
  5
44
330
2
100
AcDbSymbolTableRecord
100
AcDbLayerTableRecord
  2
CENTER2
 70
     0
 62
    50
  6
CENTER2
  0
LAYER
  5
45
330
2
100
AcDbSymbolTableRecord
100
AcDbLayerTableRecord
  2
CENTER3
 70
     0
 62
    51
  6
CENTER2
  0
LAYER
  5
46
330
2
100
AcDbSymbolTableRecord
100
AcDbLayerTableRecord
  2
CONSTRUCTION
 70
     0
 62
   241
  6
DASHED2
  0
LAYER
  5
47
330
2
100
AcDbSymbolTableRecord
100
AcDbLayerTableRecord
  2
CONTINUOUS1
 70
     0
 62
     7
  6
CONTINUOUS
  0
LAYER
  5
48
330
2
100
AcDbSymbolTableRecord
100
AcDbLayerTableRecord
  2
CONTINUOUS2
 70
     0
 62
   254
  6
CONTINUOUS
  0
LAYER
  5
49
330
2
100
AcDbSymbolTableRecord
100
AcDbLayerTableRecord
  2
CONTINUOUS3
 70
     0
 62
   253
  6
CONTINUOUS
  0
LAYER
  5
4A
330
2
100
AcDbSymbolTableRecord
100
AcDbLayerTableRecord
  2
DASHDOT1
 70
     0
 62
     1
  6
DASHDOT2
  0
LAYER
  5
4B
330
2
100
AcDbSymbolTableRecord
100
AcDbLayerTableRecord
  2
DASHDOT2
 70
     0
 62
    10
  6
DASHDOT2
  0
LAYER
  5
4C
330
2
100
AcDbSymbolTableRecord
100
AcDbLayerTableRecord
  2
DASHDOT3
 70
     0
 62
    12
  6
DASHDOT2
  0
LAYER
  5
4D
330
2
100
AcDbSymbolTableRecord
100
AcDbLayerTableRecord
  2
DIM
 70
     0
 62
     2
  6
CONTINUOUS
  0
LAYER
  5
4E
330
2
100
AcDbSymbolTableRecord
100
AcDbLayerTableRecord
  2
HIDDEN1
 70
     0
 62
     5
  6
HIDDEN2
  0
LAYER
  5
4F
330
2
100
AcDbSymbolTableRecord
100
AcDbLayerTableRecord
  2
HIDDEN2
 70
     0
 62
   160
  6
HIDDEN2
  0
LAYER
  5
50
330
2
100
AcDbSymbolTableRecord
100
AcDbLayerTableRecord
  2
HIDDEN3
 70
     0
 62
   162
  6
HIDDEN2
  0
LAYER
  5
52
330
2
100
AcDbSymbolTableRecord
100
AcDbLayerTableRecord
  2
PHANTOM1
 70
     0
 62
     6
  6
PHANTOM2
  0
LAYER
  5
53
330
2
100
AcDbSymbolTableRecord
100
AcDbLayerTableRecord
  2
PHANTOM2
 70
     0
 62
   210
  6
PHANTOM2
  0
LAYER
  5
54
330
2
100
AcDbSymbolTableRecord
100
AcDbLayerTableRecord
  2
PHANTOM3
 70
     0
 62
   212
  6
PHANTOM2
  0
LAYER
  5
55
330
2
100
AcDbSymbolTableRecord
100
AcDbLayerTableRecord
  2
TEXT1
 70
     0
 62
     3
  6
CONTINUOUS
  0
LAYER
  5
56
330
2
100
AcDbSymbolTableRecord
100
AcDbLayerTableRecord
  2
TEXT2
 70
     0
 62
    80
  6
CONTINUOUS
  0
LAYER
  5
57
330
2
100
AcDbSymbolTableRecord
100
AcDbLayerTableRecord
  2
TEXT3
 70
     0
 62
    82
  6
CONTINUOUS
  0
LAYER
  5
58
330
2
100
AcDbSymbolTableRecord
100
AcDbLayerTableRecord
  2
TITLEBLOCK
 70
     0
 62
     9
  6
CONTINUOUS
  0
LAYER
  5
59
330
2
100
AcDbSymbolTableRecord
100
AcDbLayerTableRecord
  2
VIEWPORT
 70
     0
 62
     9
  6
CONTINUOUS
  0
LAYER
  5
12794
330
2
100
AcDbSymbolTableRecord
100
AcDbLayerTableRecord
  2
DEFPOINTS
 70
     0
 62
     7
  6
CONTINUOUS
  0
ENDTAB
  0
TABLE
  2
STYLE
  5
3
330
0
100
AcDbSymbolTable
 70
     4
  0
STYLE
  5
11
330
3
100
AcDbSymbolTableRecord
100
AcDbTextStyleTableRecord
  2
STANDARD
 70
     0
 40
0.0
 41
1.0
 50
0.0
 71
     0
 42
0.2
  3
txt
  4

  0
STYLE
  5
36
330
3
100
AcDbSymbolTableRecord
100
AcDbTextStyleTableRecord
  2
ROMANS
 70
     0
 40
0.0
 41
1.0
 50
0.0
 71
     0
 42
0.16
  3
romans.shx
  4

  0
STYLE
  5
6CC
330
3
100
AcDbSymbolTableRecord
100
AcDbTextStyleTableRecord
  2
M_STANDARD
 70
     0
 40
0.0
 41
0.8
 50
0.0
 71
     0
 42
0.0
  3
MEDUSA.SHX
  4

  0
STYLE
  5
D51
330
3
100
AcDbSymbolTableRecord
100
AcDbTextStyleTableRecord
  2
SIMPLEX
 70
     0
 40
0.0
 41
1.0
 50
0.0
 71
     0
 42
0.25
  3
SIMPLEX.shx
  4

  0
ENDTAB
  0
TABLE
  2
VIEW
  5
6
330
0
100
AcDbSymbolTable
 70
     0
  0
ENDTAB
  0
TABLE
  2
UCS
  5
7
330
0
100
AcDbSymbolTable
 70
     0
  0
ENDTAB
  0
TABLE
  2
APPID
  5
9
330
0
100
AcDbSymbolTable
 70
    11
  0
APPID
  5
12
330
9
100
AcDbSymbolTableRecord
100
AcDbRegAppTableRecord
  2
ACAD
 70
     0
  0
APPID
  5
6B
330
9
100
AcDbSymbolTableRecord
100
AcDbRegAppTableRecord
  2
DCO15
 70
     0
  0
APPID
  5
370
330
9
100
AcDbSymbolTableRecord
100
AcDbRegAppTableRecord
  2
MCAD_NO_VIS
 70
     0
  0
APPID
  5
371
330
9
100
AcDbSymbolTableRecord
100
AcDbRegAppTableRecord
  2
ACAD_TEMP_GRAPHIC
 70
     0
  0
APPID
  5
387
330
9
100
AcDbSymbolTableRecord
100
AcDbRegAppTableRecord
  2
GENIUS_GENSCREG_15
 70
     0
  0
APPID
  5
389
330
9
100
AcDbSymbolTableRecord
100
AcDbRegAppTableRecord
  2
GENIUS_GENODEF_13
 70
     0
  0
APPID
  5
38A
330
9
100
AcDbSymbolTableRecord
100
AcDbRegAppTableRecord
  2
GENIUS_GENOBJ-N-SDF_13
 70
     0
  0
APPID
  5
38B
330
9
100
AcDbSymbolTableRecord
100
AcDbRegAppTableRecord
  2
GENIUS_GENOENT_13
 70
     0
  0
APPID
  5
38C
330
9
100
AcDbSymbolTableRecord
100
AcDbRegAppTableRecord
  2
GENIUS_GENOREF_13
 70
     0
  0
APPID
  5
38D
330
9
100
AcDbSymbolTableRecord
100
AcDbRegAppTableRecord
  2
GENIUS_GENOLIS_13
 70
     0
  0
APPID
  5
6CE
330
9
100
AcDbSymbolTableRecord
100
AcDbRegAppTableRecord
  2
MED_PRIMTYPE
 70
     0
  0
ENDTAB
  0
TABLE
  2
DIMSTYLE
  5
A
330
0
100
AcDbSymbolTable
 70
     1
  0
DIMSTYLE
105
C2FA
102
{ACAD_REACTORS
330
12793
330
127A2
330
127B0
330
127CA
330
12A5D
330
12A6B
330
12A8D
102
}
330
A
100
AcDbSymbolTableRecord
100
AcDbDimStyleTableRecord
  2
SCHNEIDERELECTRIC_DUAL_BEL
 70
     0
  3
\X
  4

  5
SEARROW
  6

  7

 40
0.0
 41
0.07
 42
0.0625
 43
0.38
 44
0.0625
 45
0.001
 46
0.0
 47
0.0
 48
0.0
140
0.1
141
0.09
142
0.0
143
25.4
144
1.0
145
0.0
146
1.0
147
0.04
 71
     0
 72
     0
 73
     1
 74
     1
 75
     0
 76
     0
 77
     0
 78
     4
170
     1
171
     0
172
     0
173
     0
174
     0
175
     0
176
   256
177
   256
178
   256
270
     2
271
     2
272
     2
273
     2
274
     0
340
36
275
     0
280
     0
281
     0
282
     0
283
     1
284
     0
285
     4
286
     0
287
     3
288
     0
  0
ENDTAB
  0
TABLE
  2
BLOCK_RECORD
  5
1
330
0
100
AcDbSymbolTable
 70
    12
  0
BLOCK_RECORD
  5
1F
102
{ACAD_XDICTIONARY
360
73
102
}
330
1
100
AcDbSymbolTableRecord
100
AcDbBlockTableRecord
  2
*MODEL_SPACE
  0
BLOCK_RECORD
  5
1B
102
{ACAD_XDICTIONARY
360
75
102
}
330
1
100
AcDbSymbolTableRecord
100
AcDbBlockTableRecord
  2
*PAPER_SPACE
  0
BLOCK_RECORD
  5
783
330
1
100
AcDbSymbolTableRecord
100
AcDbBlockTableRecord
  2
NEWLAYERS
1001
ACAD
1000
DesignCenter Data
1002
{
1070
     1
1070
     1
1002
}
  0
BLOCK_RECORD
  5
841
330
1
100
AcDbSymbolTableRecord
100
AcDbBlockTableRecord
  2
LOGO-PAD
1001
ACAD
1000
DesignCenter Data
1002
{
1070
     1
1070
     1
1002
}
  0
BLOCK_RECORD
  5
AE5
330
1
100
AcDbSymbolTableRecord
100
AcDbBlockTableRecord
  2
TITLE-PAD
1001
ACAD
1000
DesignCenter Data
1002
{
1070
     1
1070
     1
1002
}
  0
BLOCK_RECORD
  5
D52
330
1
100
AcDbSymbolTableRecord
100
AcDbBlockTableRecord
  2
OEM-NOTES
1001
ACAD
1000
DesignCenter Data
1002
{
1070
     1
1070
     1
1002
}
  0
BLOCK_RECORD
  5
AA81
330
1
100
AcDbSymbolTableRecord
100
AcDbBlockTableRecord
  2
SEARROW
1001
ACAD
1000
DesignCenter Data
1002
{
1070
     1
1070
     1
1002
}
  0
BLOCK_RECORD
  5
12795
330
1
100
AcDbSymbolTableRecord
100
AcDbBlockTableRecord
  2
*D5
  0
BLOCK_RECORD
  5
127A3
330
1
100
AcDbSymbolTableRecord
100
AcDbBlockTableRecord
  2
*D6
  0
BLOCK_RECORD
  5
127B1
330
1
100
AcDbSymbolTableRecord
100
AcDbBlockTableRecord
  2
*D7
  0
BLOCK_RECORD
  5
127CB
330
1
100
AcDbSymbolTableRecord
100
AcDbBlockTableRecord
  2
*D8
  0
BLOCK_RECORD
  5
12A5E
330
1
100
AcDbSymbolTableRecord
100
AcDbBlockTableRecord
  2
*D9
  0
BLOCK_RECORD
  5
12A6C
330
1
100
AcDbSymbolTableRecord
100
AcDbBlockTableRecord
  2
*D10
  0
BLOCK_RECORD
  5
12A8E
330
1
100
AcDbSymbolTableRecord
100
AcDbBlockTableRecord
  2
*D11
  0
ENDTAB
  0
ENDSEC
  0
SECTION
  2
BLOCKS
  0
BLOCK
  5
20
330
1F
100
AcDbEntity
  8
0
100
AcDbBlockBegin
  2
*MODEL_SPACE
 70
     0
 10
0.0
 20
0.0
 30
0.0
  3
*MODEL_SPACE
  1

  0
ENDBLK
  5
21
330
1F
100
AcDbEntity
  8
0
100
AcDbBlockEnd
  0
BLOCK
  5
1C
330
1B
100
AcDbEntity
 67
     1
  8
0
100
AcDbBlockBegin
  2
*PAPER_SPACE
 70
     0
 10
0.0
 20
0.0
 30
0.0
  3
*PAPER_SPACE
  1

  0
ENDBLK
  5
1D
330
1B
100
AcDbEntity
 67
     1
  8
0
100
AcDbBlockEnd
  0
BLOCK
  5
79C
330
783
100
AcDbEntity
  8
0
100
AcDbBlockBegin
  2
NEWLAYERS
 70
     0
 10
0.0
 20
0.0
 30
0.0
  3
NEWLAYERS
  1

  0
LINE
  5
784
330
783
100
AcDbEntity
  8
PHANTOM1
100
AcDbLine
 10
0.264152010466205
 20
0.3394492053544127
 30
0.0
 11
0.264152010466205
 21
0.1923545555598593
 31
0.0
  0
LINE
  5
785
330
783
100
AcDbEntity
  8
PHANTOM2
100
AcDbLine
 10
0.3018880119612959
 20
0.3394492053544127
 30
0.0
 11
0.3018880119612959
 21
0.1923545555598593
 31
0.0
  0
LINE
  5
786
330
783
100
AcDbEntity
  8
PHANTOM3
100
AcDbLine
 10
0.3396240134565005
 20
0.3394492053544127
 30
0.0
 11
0.3396240134565005
 21
0.1923545555598593
 31
0.0
  0
LINE
  5
787
330
783
100
AcDbEntity
  8
DASHDOT2
100
AcDbLine
 10
0.0
 20
0.3394492053544127
 30
0.0
 11
0.0
 21
0.1923545555598593
 31
0.0
  0
LINE
  5
788
330
783
100
AcDbEntity
  8
DASHDOT3
100
AcDbLine
 10
0.0377360014952046
 20
0.3394492053544127
 30
0.0
 11
0.0377360014952046
 21
0.1923545555598593
 31
0.0
  0
LINE
  5
789
330
783
100
AcDbEntity
  8
DIM
100
AcDbLine
 10
0.0754720029902956
 20
0.3394492053544127
 30
0.0
 11
0.0754720029902956
 21
0.1923545555598593
 31
0.0
  0
LINE
  5
78A
330
783
100
AcDbEntity
  8
HIDDEN1
100
AcDbLine
 10
0.1132080044855002
 20
0.3394492053544127
 30
0.0
 11
0.1132080044855002
 21
0.1923545555598593
 31
0.0
  0
LINE
  5
78B
330
783
100
AcDbEntity
  8
HIDDEN2
100
AcDbLine
 10
0.1509440059807048
 20
0.3394492053544127
 30
0.0
 11
0.1509440059807048
 21
0.1923545555598593
 31
0.0
  0
LINE
  5
78C
330
783
100
AcDbEntity
  8
HIDDEN3
100
AcDbLine
 10
0.1886800074757957
 20
0.3394492053544127
 30
0.0
 11
0.1886800074757957
 21
0.1923545555598593
 31
0.0
  0
LINE
  5
78D
330
783
100
AcDbEntity
  8
TEXT1
100
AcDbLine
 10
0.0
 20
0.1470946497945533
 30
0.0
 11
0.0
 21
0.0
 31
0.0
  0
LINE
  5
78E
330
783
100
AcDbEntity
  8
TEXT2
100
AcDbLine
 10
0.0377360014952046
 20
0.1470946497945533
 30
0.0
 11
0.0377360014952046
 21
0.0
 31
0.0
  0
LINE
  5
78F
330
783
100
AcDbEntity
  8
TEXT3
100
AcDbLine
 10
0.0754720029902956
 20
0.1470946497945533
 30
0.0
 11
0.0754720029902956
 21
0.0
 31
0.0
  0
LINE
  5
790
330
783
100
AcDbEntity
  8
TITLEBLOCK
100
AcDbLine
 10
0.1132080044855002
 20
0.1470946497945533
 30
0.0
 11
0.1132080044855002
 21
0.0
 31
0.0
  0
LINE
  5
791
330
783
100
AcDbEntity
  8
VIEWPORT
100
AcDbLine
 10
0.1509440059807048
 20
0.1470946497945533
 30
0.0
 11
0.1509440059807048
 21
0.0
 31
0.0
  0
LINE
  5
792
330
783
100
AcDbEntity
  8
BLOCKS
100
AcDbLine
 10
0.0377360014952046
 20
0.5318037609142721
 30
0.0
 11
0.0377360014952046
 21
0.3847091111197187
 31
0.0
  0
LINE
  5
793
330
783
100
AcDbEntity
  8
0
100
AcDbLine
 10
0.0
 20
0.5318037609142721
 30
0.0
 11
0.0
 21
0.3847091111197187
 31
0.0
  0
LINE
  5
794
330
783
100
AcDbEntity
  8
CENTER1
100
AcDbLine
 10
0.0754720029902956
 20
0.5318037609142721
 30
0.0
 11
0.0754720029902956
 21
0.3847091111197187
 31
0.0
  0
LINE
  5
795
330
783
100
AcDbEntity
  8
CENTER2
100
AcDbLine
 10
0.1132080044855002
 20
0.5318037609142721
 30
0.0
 11
0.1132080044855002
 21
0.3847091111197187
 31
0.0
  0
LINE
  5
796
330
783
100
AcDbEntity
  8
CENTER3
100
AcDbLine
 10
0.1509440059807048
 20
0.5318037609142721
 30
0.0
 11
0.1509440059807048
 21
0.3847091111197187
 31
0.0
  0
LINE
  5
797
330
783
100
AcDbEntity
  8
CONSTRUCTION
100
AcDbLine
 10
0.1886800074757957
 20
0.5318037609142721
 30
0.0
 11
0.1886800074757957
 21
0.3847091111197187
 31
0.0
  0
LINE
  5
798
330
783
100
AcDbEntity
  8
CONTINUOUS1
100
AcDbLine
 10
0.2264160089710003
 20
0.5318037609142721
 30
0.0
 11
0.2264160089710003
 21
0.3847091111197187
 31
0.0
  0
LINE
  5
799
330
783
100
AcDbEntity
  8
CONTINUOUS2
100
AcDbLine
 10
0.264152010466205
 20
0.5318037609142721
 30
0.0
 11
0.264152010466205
 21
0.3847091111197187
 31
0.0
  0
LINE
  5
79A
330
783
100
AcDbEntity
  8
CONTINUOUS3
100
AcDbLine
 10
0.3018880119612959
 20
0.5318037609142721
 30
0.0
 11
0.3018880119612959
 21
0.3847091111197187
 31
0.0
  0
LINE
  5
79B
330
783
100
AcDbEntity
  8
DASHDOT1
100
AcDbLine
 10
0.3396240134565005
 20
0.5318037609142721
 30
0.0
 11
0.3396240134565005
 21
0.3847091111197187
 31
0.0
  0
ENDBLK
  5
79D
330
783
100
AcDbEntity
  8
0
100
AcDbBlockEnd
  0
BLOCK
  5
852
330
841
100
AcDbEntity
  8
0
100
AcDbBlockBegin
  2
LOGO-PAD
 70
     0
 10
0.0
 20
0.0
 30
0.0
  3
LOGO-PAD
  1

  0
HATCH
  5
842
330
841
100
AcDbEntity
  8
TITLEBLOCK
 62
     0
100
AcDbHatch
 10
0.0
 20
0.0
 30
0.0
210
0.0
220
0.0
230
1.0
  2
SOLID
 70
     1
 71
     0
 91
        2
 92
        1
 93
       11
 72
     2
 10
1.203771209334867
 20
0.3650136751459491
 40
0.021562648149145
 50
90.00000747299615
 51
179.9997683268519
 73
     1
 72
     1
 10
1.182208561185898
 20
0.3650137623336376
 11
1.182208392435807
 21
0.2795138227272444
 72
     2
 10
1.203771079023129
 20
0.2795136821032751
 40
0.0215626865877801
 50
179.9996263378447
 51
269.9998903896797
 73
     1
 72
     1
 10
1.203771037772394
 20
0.2579509955155343
 11
1.330521045577125
 21
0.2579511736405264
 72
     2
 10
1.330521265257171
 20
0.2795136382789064
 40
0.021562464639499
 50
269.9994162661957
 51
311.7040125634689
 73
     1
 72
     1
 10
1.344866398698837
 20
0.2634152834601535
 11
1.352083334663557
 21
0.2579511736405264
 72
     1
 10
1.352083334663557
 20
0.2579511736405264
 11
1.365099386916806
 21
0.2751416404960081
 72
     1
 10
1.365099386916806
 20
0.2751416404960081
 11
1.352083522163621
 21
0.284997066934386
 72
     1
 10
1.352083522163621
 20
0.284997066934386
 11
1.352083690913712
 21
0.3650136723335662
 72
     2
 10
1.330521042764654
 20
0.3650136751460369
 40
0.0215626481490576
 50
359.9999925267666
 51
449.9999925267678
 73
     1
 72
     1
 10
1.330521045577125
 20
0.3865763232950938
 11
1.203771206522485
 21
0.3865763232950938
 97
        0
 92
       16
 93
       10
 72
     2
 10
1.21455271481628
 20
0.3542325202904111
 40
0.0107811520434708
 50
90.00043844291294
 51
179.9999701074038
 73
     1
 72
     1
 10
1.203771562772811
 20
0.3542325259151993
 11
1.203771562772811
 21
0.2902950591455122
 72
     2
 10
1.214552849813946
 20
0.2902948416431456
 40
0.0107812870433294
 50
179.9988441113203
 51
269.9988441346395
 73
     1
 72
     1
 10
1.214552632315967
 20
0.2795135546020104
 11
1.323606134809704
 21
0.2795135546020104
 72
     1
 10
1.323606134809704
 20
0.2795135546020104
 11
1.280867956889135
 21
0.311873265117333
 72
     1
 10
1.280867956889135
 20
0.311873265117333
 11
1.293884009142384
 21
0.3290635557226322
 72
     1
 10
1.293884009142384
 20
0.3290635557226322
 11
1.330521045577125
 21
0.3013240413506308
 72
     1
 10
1.330521045577125
 20
0.3013240413506308
 11
1.330521045577125
 21
0.3542324377902786
 72
     2
 10
1.319739809158772
 20
0.3542324359152127
 40
0.0107812364183532
 50
0.0000099648460607
 51
90.00000996484372
 73
     1
 72
     1
 10
1.319739807283706
 20
0.3650136723335662
 11
1.214552632315967
 21
0.3650136723335662
 97
        0
 75
     0
 76
     1
 98
        1
 10
-7.279586802153931
 20
-0.4081141432880261
  0
HATCH
  5
843
330
841
100
AcDbEntity
  8
TITLEBLOCK
 62
     0
100
AcDbHatch
 10
0.0
 20
0.0
 30
0.0
210
0.0
220
0.0
230
1.0
  2
SOLID
 70
     1
 71
     0
 91
        1
 92
        1
 93
        4
 72
     1
 10
3.703333445713536
 20
0.1990762889281312
 11
1.018147379006204
 21
0.1990762889281312
 72
     1
 10
1.018147379006204
 20
0.1990762889281312
 11
1.018147379006204
 21
0.220706173683743
 72
     1
 10
1.018147379006204
 20
0.220706173683743
 11
3.703333445713536
 21
0.220706173683743
 72
     1
 10
3.703333445713536
 20
0.220706173683743
 11
3.703333445713536
 21
0.1990762889281312
 97
        0
 75
     0
 76
     1
 98
        1
 10
-7.279586802153931
 20
-0.4081141432880261
  0
HATCH
  5
844
330
841
100
AcDbEntity
  8
TITLEBLOCK
 62
     0
100
AcDbHatch
 10
0.0
 20
0.0
 30
0.0
210
0.0
220
0.0
230
1.0
  2
SOLID
 70
     1
 71
     0
 91
        4
 92
        1
 93
        4
 72
     1
 10
0.8306472632318495
 20
0.4814782717956759
 11
0.4556470182475714
 21
0.4814782717956759
 72
     1
 10
0.4556470182475714
 20
0.4814782717956759
 11
0.4556470182475714
 21
0.1064783844396073
 72
     1
 10
0.4556470182475714
 20
0.1064783844396073
 11
0.8306472632318495
 21
0.1064783844396073
 72
     1
 10
0.8306472632318495
 20
0.1064783844396073
 11
0.8306472632318495
 21
0.4814782717956759
 97
        0
 92
        0
 93
       10
 72
     1
 10
0.7368972019857374
 20
0.4177282462416896
 11
0.5193971779121789
 21
0.4177282462416896
 72
     1
 10
0.5193971779121789
 20
0.4177282462416896
 11
0.5193971779121789
 21
0.37460312508514
 72
     1
 10
0.5193971779121789
 20
0.37460312508514
 11
0.5531473465883146
 21
0.37460312508514
 72
     1
 10
0.5531473465883146
 20
0.37460312508514
 11
0.5531473465883146
 21
0.2133535311501431
 72
     1
 10
0.5531473465883146
 20
0.2133535311501431
 11
0.5193971779121789
 21
0.2133535311501431
 72
     1
 10
0.5193971779121789
 20
0.2133535311501431
 11
0.5193971779121789
 21
0.1702282758831428
 72
     1
 10
0.5193971779121789
 20
0.1702282758831428
 11
0.7368972019857374
 21
0.1702282758831428
 72
     1
 10
0.7368972019857374
 20
0.1702282758831428
 11
0.7668970141602749
 21
0.2002283115750982
 72
     1
 10
0.7668970141602749
 20
0.2002283115750982
 11
0.7668970141602749
 21
0.3877281658462506
 72
     1
 10
0.7668970141602749
 20
0.3877281658462506
 11
0.7368972019857374
 21
0.4177282462416896
 97
        0
 92
       16
 93
        4
 72
     1
 10
0.7987720492890098
 20
0.4496031025563197
 11
0.4875220533764768
 21
0.4496031025563197
 72
     1
 10
0.4875220533764768
 20
0.4496031025563197
 11
0.4875220533764768
 21
0.1383533301613751
 72
     1
 10
0.4875220533764768
 20
0.1383533301613751
 11
0.7987720492890098
 21
0.1383533301613751
 72
     1
 10
0.7987720492890098
 20
0.1383533301613751
 11
0.7987720492890098
 21
0.4496031025563197
 97
        0
 92
        0
 93
        4
 72
     1
 10
0.5962724677448641
 20
0.37460312508514
 11
0.5962724677448641
 21
0.2133535311501431
 72
     1
 10
0.5962724677448641
 20
0.2133535311501431
 11
0.7237719824106926
 21
0.2133535311501431
 72
     1
 10
0.7237719824106926
 20
0.2133535311501431
 11
0.7237719824106926
 21
0.37460312508514
 72
     1
 10
0.7237719824106926
 20
0.37460312508514
 11
0.5962724677448641
 21
0.37460312508514
 97
        0
 75
     0
 76
     1
 98
        1
 10
-7.279586802153931
 20
-0.313212194787444
  0
HATCH
  5
845
330
841
100
AcDbEntity
  8
TITLEBLOCK
 62
     0
100
AcDbHatch
 10
0.0
 20
0.0
 30
0.0
210
0.0
220
0.0
230
1.0
  2
SOLID
 70
     1
 71
     0
 91
        1
 92
        1
 93
       26
 72
     1
 10
1.050490193885575
 20
0.3650136723335662
 11
1.138990457951802
 21
0.3650136723335662
 72
     2
 10
1.138990281703138
 20
0.3542326140418093
 40
0.0107810582931976
 50
270.0009366709926
 51
360.0009366862294
 73
     0
 72
     1
 10
1.149771339994895
 20
0.3542324377902786
 11
1.171333797831589
 21
0.3542324377902786
 72
     1
 10
1.171333797831589
 20
0.3542324377902786
 11
1.171333797831589
 21
0.3650136723335662
 72
     2
 10
1.149771243432702
 20
0.365013768896207
 40
0.0215625543991033
 50
359.9997434148255
 51
449.9997434160159
 73
     1
 72
     1
 10
1.149771339994895
 20
0.3865763232950938
 11
1.039708786842066
 21
0.3865763232950938
 72
     2
 10
1.039709408398413
 20
0.3650142939052909
 40
0.0215620293987615
 50
90.00165163282177
 51
180.0014125206716
 73
     1
 72
     1
 10
1.018147379006204
 20
0.3650137623336376
 11
1.018147379006204
 21
0.3334199129435318
 72
     2
 10
1.039709363397143
 20
0.3334193363730153
 40
0.0215619843986475
 50
179.9984679027414
 51
269.9984679437668
 73
     1
 72
     1
 10
1.039708786842066
 20
0.3118573519820755
 11
1.138990457951802
 21
0.311857620107139
 72
     2
 10
1.138990280765661
 20
0.3010765608779043
 40
0.0107810592306907
 50
270.0009416531222
 51
360.0009416684906
 73
     0
 72
     1
 10
1.149771339994895
 20
0.3010763836888712
 11
1.149771508744986
 21
0.2902949691454408
 72
     2
 10
1.138990231076649
 20
0.2902948322713164
 40
0.0107812776692067
 50
359.9992725992319
 51
449.9997907459082
 73
     0
 72
     1
 10
1.138990270451738
 20
0.279513554602181
 11
1.050490193885575
 21
0.2795135546020104
 72
     2
 10
1.05049014888543
 20
0.2902951041454384
 40
0.0107815495435218
 50
89.99976085826782
 51
179.9997608594354
 73
     0
 72
     1
 10
1.039708599342002
 20
0.2902950591455122
 11
1.018147379006204
 21
0.2902950591455122
 72
     1
 10
1.018147379006204
 20
0.2902950591455122
 11
1.018147379006204
 21
0.2795138227272444
 72
     2
 10
1.039709273392517
 20
0.2795130680345569
 40
0.0215618943995203
 50
179.9979945776083
 51
269.9987071039827
 73
     1
 72
     1
 10
1.039708786842066
 20
0.2579511736405264
 11
1.149771339994895
 21
0.2579511736405264
 72
     2
 10
1.149771378432784
 20
0.2795135930396681
 40
0.0215624193991759
 50
269.9998978626289
 51
359.9996636967671
 73
     1
 72
     1
 10
1.171333797831589
 20
0.2795134664769192
 11
1.171333797831589
 21
0.3114825579869829
 72
     2
 10
1.149771333432362
 20
0.3114825645494808
 40
0.0215624643992288
 50
359.9999825621309
 51
449.9999825620359
 73
     1
 72
     1
 10
1.149771339994895
 20
0.3330450289487088
 11
1.050490193885575
 21
0.3330447608234748
 72
     2
 10
1.050490103885701
 20
0.3438262653667981
 40
0.0107815045436989
 50
89.99952171675776
 51
179.9999900368059
 73
     0
 72
     1
 10
1.039708599342002
 20
0.3438262634919964
 11
1.039708786842066
 21
0.3542325259151993
 72
     2
 10
1.050490107634269
 20
0.3542323515402983
 40
0.0107813207936133
 50
180.0009266903443
 51
270.0004583701697
 73
     0
 97
        0
 75
     0
 76
     1
 98
        1
 10
-7.279586802153931
 20
-0.4081141432880261
  0
HATCH
  5
846
330
841
100
AcDbEntity
  8
TITLEBLOCK
 62
     0
100
AcDbHatch
 10
0.0
 20
0.0
 30
0.0
210
0.0
220
0.0
230
1.0
  2
SOLID
 70
     1
 71
     0
 91
        1
 92
        1
 93
       18
 72
     2
 10
2.471082802883087
 20
0.3650137595211706
 40
0.021562563774099
 50
180.0000074732525
 51
269.9997683261728
 73
     0
 72
     1
 10
2.471082715695484
 20
0.3865763232950938
 11
2.586957622645552
 21
0.3865763232950938
 72
     2
 10
2.586957713583391
 20
0.3650135813961111
 40
0.0215627418991744
 50
269.9997583630888
 51
359.999758364108
 73
     0
 72
     1
 10
2.608520455482373
 20
0.3650136723335662
 11
2.608520455482373
 21
0.3542324377902786
 72
     1
 10
2.608520455482373
 20
0.3542324377902786
 11
2.586957622645552
 21
0.3542324377902786
 72
     2
 10
2.576176208103625
 20
0.3542322577916381
 40
0.0107814145434302
 50
0.0009565685814303
 51
90.00095658455173
 73
     1
 72
     1
 10
2.576176028101979
 20
0.3650136723335662
 11
2.481864141488966
 21
0.3650136723335662
 72
     2
 10
2.481864045863444
 20
0.3542323421656055
 40
0.0107813301683848
 50
89.99949181235312
 51
179.9994918168631
 73
     1
 72
     1
 10
2.471082715695484
 20
0.3542324377902786
 11
2.471082715695484
 21
0.2902950591455122
 72
     2
 10
2.481864090863785
 20
0.2902951097704553
 40
0.0107813751684203
 50
180.0002690376259
 51
270.0002690388874
 73
     1
 72
     1
 10
2.481864141488966
 20
0.2795137346021532
 11
2.576176028101979
 21
0.2795135546020104
 72
     2
 10
2.576176073102679
 20
0.2902951041456356
 40
0.010781549543719
 50
269.9997608553225
 51
359.9992825760937
 73
     1
 72
     1
 10
2.586957622645552
 20
0.2902949691454408
 11
2.608520455482373
 21
0.2902950591455122
 72
     1
 10
2.608520455482373
 20
0.2902950591455122
 11
2.608520099232048
 21
0.2795134664769192
 72
     2
 10
2.586957670458414
 20
0.2795136024145366
 40
0.0215624287740632
 50
0.0003612140281018
 51
90.00012704854281
 73
     0
 72
     1
 10
2.586957622645552
 20
0.2579511736405264
 11
2.471082715695484
 21
0.2579511736405264
 72
     2
 10
2.471082667882924
 20
0.2795136024144634
 40
0.02156242877399
 50
89.99987295225965
 51
179.9998729525419
 73
     0
 72
     1
 10
2.449520239108988
 20
0.2795135546020104
 11
2.449520239108988
 21
0.3650137623336376
 97
        0
 75
     0
 76
     1
 98
        1
 10
-7.279586802153931
 20
-0.4081141432880261
  0
HATCH
  5
847
330
841
100
AcDbEntity
  8
TITLEBLOCK
 62
     0
100
AcDbHatch
 10
0.0
 20
0.0
 30
0.0
210
0.0
220
0.0
230
1.0
  2
SOLID
 70
     1
 71
     0
 91
        1
 92
        1
 93
       12
 72
     1
 10
2.026708344139745
 20
0.3865765014202565
 11
1.890208311215626
 21
0.3865765014202565
 72
     1
 10
1.890208311215626
 20
0.3865765014202565
 11
1.890208311215626
 21
0.2579511736405264
 72
     1
 10
1.890208311215626
 20
0.2579511736405264
 11
2.026708344139745
 21
0.2579511736405264
 72
     1
 10
2.026708344139745
 20
0.2579511736405264
 11
2.026708344139745
 21
0.2795135546020104
 72
     1
 10
2.026708344139745
 20
0.2795135546020104
 11
1.911770600302059
 21
0.2795135546020104
 72
     1
 10
1.911770600302059
 20
0.2795135546020104
 11
1.911770600302059
 21
0.3114825579869829
 72
     1
 10
1.911770600302059
 20
0.3114825579869829
 11
2.026708344139745
 21
0.3114825579869829
 72
     1
 10
2.026708344139745
 20
0.3114825579869829
 11
2.026708344139745
 21
0.333044848948566
 72
     1
 10
2.026708344139745
 20
0.333044848948566
 11
1.911770600302059
 21
0.333044848948566
 72
     1
 10
1.911770600302059
 20
0.333044848948566
 11
1.911770600302059
 21
0.3650136723335662
 72
     1
 10
1.911770600302059
 20
0.3650136723335662
 11
2.026708344139745
 21
0.3650136723335662
 72
     1
 10
2.026708344139745
 20
0.3650136723335662
 11
2.026708344139745
 21
0.3865765014202565
 97
        0
 75
     0
 76
     1
 98
        1
 10
-7.279586802153931
 20
-0.4081141432880261
  0
HATCH
  5
848
330
841
100
AcDbEntity
  8
TITLEBLOCK
 62
     0
100
AcDbHatch
 10
0.0
 20
0.0
 30
0.0
210
0.0
220
0.0
230
1.0
  2
SOLID
 70
     1
 71
     0
 91
        2
 92
        1
 93
        8
 72
     1
 10
1.614830743814064
 20
0.3865765014202565
 11
1.531145595393223
 21
0.2579509955155343
 72
     1
 10
1.531145595393223
 20
0.2579509955155343
 11
1.556870855949323
 21
0.2579511736405264
 72
     1
 10
1.556870855949323
 20
0.2579511736405264
 11
1.570898996363819
 21
0.2795135546020104
 72
     1
 10
1.570898996363819
 20
0.2795135546020104
 11
1.673830432358027
 21
0.2795135546020104
 72
     1
 10
1.673830432358027
 20
0.2795135546020104
 11
1.687858760272586
 21
0.2579514417655899
 72
     1
 10
1.687858760272586
 20
0.2579514417655899
 11
1.713583120827973
 21
0.2579514417655899
 72
     1
 10
1.713583120827973
 20
0.2579514417655899
 11
1.629898141157394
 21
0.3865765014202565
 72
     1
 10
1.629898141157394
 20
0.3865765014202565
 11
1.614830743814064
 21
0.3865765014202565
 97
        0
 92
       16
 93
        3
 72
     1
 10
1.622364536235675
 20
0.3586169575295115
 11
1.659801223192726
 21
0.3010763836888712
 72
     1
 10
1.659801223192726
 20
0.3010763836888712
 11
1.584928205528949
 21
0.3010762055637086
 72
     1
 10
1.584928205528949
 20
0.3010762055637086
 11
1.622364348735612
 21
0.3586165994043766
 97
        0
 75
     0
 76
     1
 98
        1
 10
-7.279586802153931
 20
-0.4081141432880261
  0
HATCH
  5
849
330
841
100
AcDbEntity
  8
TITLEBLOCK
 62
     0
100
AcDbHatch
 10
0.0
 20
0.0
 30
0.0
210
0.0
220
0.0
230
1.0
  2
SOLID
 70
     1
 71
     0
 91
        1
 92
        1
 93
       12
 72
     1
 10
1.392021104504447
 20
0.3865765014202565
 11
1.370458815418015
 21
0.3865765014202565
 72
     1
 10
1.370458815418015
 20
0.3865765014202565
 11
1.370458627917951
 21
0.2795138227272444
 72
     2
 10
1.39202114575308
 20
0.2795135133528436
 40
0.0215625178373483
 50
179.999177932392
 51
269.9998903944058
 73
     1
 72
     1
 10
1.392021104504447
 20
0.2579509955155343
 11
1.509583287556818
 21
0.2579511736405264
 72
     2
 10
1.509583335369764
 20
0.2795136024146219
 40
0.0215624287741484
 50
269.9998729512306
 51
359.9996387857453
 73
     1
 72
     1
 10
1.531145764143484
 20
0.2795134664769192
 11
1.531146120393639
 21
0.3865765014202565
 72
     1
 10
1.531146120393639
 20
0.3865765014202565
 11
1.509583287556818
 21
0.3865765014202565
 72
     1
 10
1.509583287556818
 20
0.3865765014202565
 11
1.509583287556818
 21
0.2902950591455122
 72
     2
 10
1.498801916139266
 20
0.290294926019563
 40
0.0107813714183743
 50
359.9992925246018
 51
449.9992925333428
 73
     0
 72
     1
 10
1.49880204926357
 20
0.2795135546020104
 11
1.402802342797695
 21
0.2795135546020104
 72
     2
 10
1.402802382172719
 20
0.2902950197703451
 40
0.0107814651684066
 50
90.00020925010334
 51
180.0002092508632
 73
     0
 72
     1
 10
1.392020917004384
 20
0.2902950591455122
 11
1.392021104504447
 21
0.3865765014202565
 97
        0
 75
     0
 76
     1
 98
        1
 10
-7.279586802153931
 20
-0.4081141432880261
  0
HATCH
  5
84A
330
841
100
AcDbEntity
  8
TITLEBLOCK
 62
     0
100
AcDbHatch
 10
0.0
 20
0.0
 30
0.0
210
0.0
220
0.0
230
1.0
  2
SOLID
 70
     1
 71
     0
 91
        2
 92
        1
 93
       13
 72
     2
 10
1.851958289039648
 20
0.2899198104641797
 40
0.0215625675244637
 50
0.0002565813902296
 51
90.00070498518821
 73
     1
 72
     2
 10
1.851958289040149
 20
0.3330449455099156
 40
0.0215625675245372
 50
269.9992950134807
 51
359.9995092535441
 73
     1
 72
     1
 10
1.873520856563896
 20
0.3330447608234748
 11
1.873520856563896
 21
0.3650136657708798
 72
     2
 10
1.851957894958188
 20
0.3650135398162329
 40
0.0215629616060761
 50
0.0003346789653151
 51
89.99920945081219
 73
     1
 72
     1
 10
1.851958192477166
 20
0.3865765014202565
 11
1.720333350237904
 21
0.3865765014202565
 72
     1
 10
1.720333350237904
 20
0.3865765014202565
 11
1.720333350237904
 21
0.2579511736405264
 72
     1
 10
1.720333350237904
 20
0.2579511736405264
 11
1.741896183074725
 21
0.2579511736405264
 72
     1
 10
1.741896183074725
 20
0.2579511736405264
 11
1.741896183074725
 21
0.3007013215688856
 72
     1
 10
1.741896183074725
 20
0.3007013215688856
 11
1.841176785433827
 21
0.3007013215688856
 72
     2
 10
1.841176693559081
 20
0.2899201789011263
 40
0.0107811426681508
 50
270.0004882631974
 51
360.0004882673548
 73
     0
 72
     1
 10
1.851957836226841
 20
0.289920087025598
 11
1.851958192477166
 21
0.2579511736405264
 72
     1
 10
1.851958192477166
 20
0.2579511736405264
 11
1.873520856563896
 21
0.2579511736405264
 72
     1
 10
1.873520856563896
 20
0.2579511736405264
 11
1.873520856563896
 21
0.2899199070254552
 97
        0
 92
       16
 93
        6
 72
     2
 10
1.841176693559081
 20
0.3542325296658069
 40
0.0107811426681508
 50
270.0004882631974
 51
360.0004882673548
 73
     0
 72
     1
 10
1.851957836226841
 20
0.3542324377902786
 11
1.851958192477166
 21
0.333044848948566
 72
     2
 10
1.841176871684197
 20
0.333044935198247
 40
0.0107813207933138
 50
0.0004583615308307
 51
90.00045836519477
 73
     0
 72
     1
 10
1.841176785433827
 20
0.3222636144052784
 11
1.741896183074725
 21
0.3222638825303419
 72
     1
 10
1.741896183074725
 20
0.3222638825303419
 11
1.741896183074725
 21
0.3650136723335662
 72
     1
 10
1.741896183074725
 20
0.3650136723335662
 11
1.841176785433827
 21
0.3650136723335662
 97
        0
 75
     0
 76
     1
 98
        1
 10
-7.279586802153931
 20
-0.4081141432880261
  0
HATCH
  5
84B
330
841
100
AcDbEntity
  8
TITLEBLOCK
 62
     0
100
AcDbHatch
 10
0.0
 20
0.0
 30
0.0
210
0.0
220
0.0
230
1.0
  2
SOLID
 70
     1
 71
     0
 91
        2
 92
        1
 93
       10
 72
     1
 10
2.168832611988261
 20
0.3650136723335662
 11
2.168832611988261
 21
0.2795135546021492
 72
     1
 10
2.168832611988261
 20
0.2795135546021492
 11
2.148020079641632
 21
0.2795135546021492
 72
     1
 10
2.148020079641632
 20
0.2795135546021492
 11
2.148020079641632
 21
0.2579511736406499
 72
     1
 10
2.148020079641632
 20
0.2579511736406499
 11
2.314895263659607
 21
0.2579511736406499
 72
     2
 10
2.314895311472477
 20
0.2795136024147182
 40
0.0215624287741214
 50
269.9998729514336
 51
359.9996387859474
 73
     1
 72
     1
 10
2.336457740246171
 20
0.2795134664770916
 11
2.336457740246171
 21
0.3650136723335662
 72
     2
 10
2.314895087410214
 20
0.3650138485844006
 40
0.0215626528366775
 50
359.9995316703829
 51
449.999531674211
 73
     1
 72
     1
 10
2.314895263659607
 20
0.386576501420358
 11
2.148020079641632
 21
0.386576501420358
 72
     1
 10
2.148020079641632
 20
0.386576501420358
 11
2.148020079641632
 21
0.3650136723335662
 72
     1
 10
2.148020079641632
 20
0.3650136723335662
 11
2.168832611988261
 21
0.3650136723335662
 97
        0
 92
       16
 93
        6
 72
     1
 10
2.190395257324933
 20
0.3650136723335662
 11
2.304113856616218
 21
0.3650136723335662
 72
     2
 10
2.304113942866619
 20
0.3542323515405775
 40
0.0107813207933337
 50
269.9995416346447
 51
359.9995416383139
 73
     0
 72
     1
 10
2.314895263659607
 20
0.3542324377902877
 11
2.314895263659607
 21
0.2902949691455452
 72
     2
 10
2.304113807866077
 20
0.2902950103956483
 40
0.0107814557936096
 50
0.0002192149982456
 51
89.99974092762393
 73
     0
 72
     1
 10
2.304113856616218
 20
0.2795135546021492
 11
2.190395257324933
 21
0.2795135546021492
 72
     1
 10
2.190395257324933
 20
0.2795135546021492
 11
2.190395257324933
 21
0.3650136723335662
 97
        0
 75
     0
 76
     1
 98
        1
 10
-7.279586802153931
 20
-0.4081141432880261
  0
HATCH
  5
84C
330
841
100
AcDbEntity
  8
TITLEBLOCK
 62
     0
100
AcDbHatch
 10
0.0
 20
0.0
 30
0.0
210
0.0
220
0.0
230
1.0
  2
SOLID
 70
     1
 71
     0
 91
        2
 92
        1
 93
        8
 72
     1
 10
3.241392303571654
 20
0.3865765014202565
 11
3.157707226761072
 21
0.2579509955155343
 72
     1
 10
3.157707226761072
 20
0.2579509955155343
 11
3.183432299816939
 21
0.2579511736405264
 72
     1
 10
3.183432299816939
 20
0.2579511736405264
 11
3.197460983981823
 21
0.2795133764768478
 72
     1
 10
3.197460983981823
 20
0.2795133764768478
 11
3.30039082622498
 21
0.2795135546020104
 72
     1
 10
3.30039082622498
 20
0.2795135546020104
 11
3.314419679139785
 21
0.2579514417655899
 72
     1
 10
3.314419679139785
 20
0.2579514417655899
 11
3.340144583445731
 21
0.2579511736405264
 72
     1
 10
3.340144583445731
 20
0.2579511736405264
 11
3.256459603774981
 21
0.3865765014202565
 72
     1
 10
3.256459603774981
 20
0.3865765014202565
 11
3.241392303571654
 21
0.3865765014202565
 97
        0
 92
       16
 93
        3
 72
     1
 10
3.248925740352245
 20
0.358616778466603
 11
3.211489480646473
 21
0.3010762055637086
 72
     1
 10
3.211489480646473
 20
0.3010762055637086
 11
3.28636178580994
 21
0.3010763836888712
 72
     1
 10
3.28636178580994
 20
0.3010763836888712
 11
3.248925740352245
 21
0.358616778466603
 97
        0
 75
     0
 76
     1
 98
        1
 10
-7.279586802153931
 20
-0.4081141432880261
  0
HATCH
  5
84D
330
841
100
AcDbEntity
  8
TITLEBLOCK
 62
     0
100
AcDbHatch
 10
0.0
 20
0.0
 30
0.0
210
0.0
220
0.0
230
1.0
  2
SOLID
 70
     1
 71
     0
 91
        1
 92
        1
 93
       13
 72
     1
 10
2.838488736968525
 20
0.3865765014202565
 11
2.806145209588674
 21
0.3865765014202565
 72
     1
 10
2.806145209588674
 20
0.3865765014202565
 11
2.806145209588674
 21
0.2579511736405264
 72
     1
 10
2.806145209588674
 20
0.2579511736405264
 11
2.827707667425368
 21
0.2579511736405264
 72
     1
 10
2.827707667425368
 20
0.2579511736405264
 11
2.827707667425368
 21
0.3640633654626753
 72
     1
 10
2.827707667425368
 20
0.3640633654626753
 11
2.899718420719221
 21
0.2579514417655899
 72
     1
 10
2.899718420719221
 20
0.2579514417655899
 11
2.922570860648686
 21
0.2579511736405264
 72
     1
 10
2.922570860648686
 20
0.2579511736405264
 11
2.994582138942956
 21
0.3640642598382782
 72
     1
 10
2.994582138942956
 20
0.3640642598382782
 11
2.994582138942956
 21
0.2579511736405264
 72
     1
 10
2.994582138942956
 20
0.2579511736405264
 11
3.016144596779479
 21
0.2579511736405264
 72
     1
 10
3.016144596779479
 20
0.2579511736405264
 11
3.016144596779479
 21
0.3865765014202565
 72
     1
 10
3.016144596779479
 20
0.3865765014202565
 11
2.983801425649954
 21
0.3865765014202565
 72
     1
 10
2.983801425649954
 20
0.3865765014202565
 11
2.911144640683954
 21
0.2795135546020104
 72
     1
 10
2.911144640683954
 20
0.2795135546020104
 11
2.838488380718199
 21
0.3865765014202565
 97
        0
 75
     0
 76
     1
 98
        1
 10
-7.279586802153931
 20
-0.4081141432880261
  0
HATCH
  5
84E
330
841
100
AcDbEntity
  8
TITLEBLOCK
 62
     0
100
AcDbHatch
 10
0.0
 20
0.0
 30
0.0
210
0.0
220
0.0
230
1.0
  2
SOLID
 70
     1
 71
     0
 91
        2
 92
        1
 93
        8
 72
     1
 10
2.79358243888161
 20
0.2795134664769192
 11
2.793582795131936
 21
0.3650136723335662
 72
     2
 10
2.772020240733041
 20
0.3650137688961994
 40
0.0215625543991104
 50
359.9997434148459
 51
449.999743415997
 73
     1
 72
     1
 10
2.772020337295241
 20
0.3865763232950938
 11
2.640957676673206
 21
0.3865763232950938
 72
     2
 10
2.640957763860811
 20
0.3650137595211699
 40
0.0215625637741002
 50
90.00023167383188
 51
179.9999925267453
 73
     1
 72
     1
 10
2.61939520008671
 20
0.3650137623336376
 11
2.61939520008671
 21
0.2795135546020104
 72
     2
 10
2.640957628860649
 20
0.2795136024144641
 40
0.0215624287739915
 50
180.0001270474597
 51
270.0001270477355
 73
     1
 72
     1
 10
2.640957676673206
 20
0.2579511736405264
 11
2.772020337295241
 21
0.2579511736405264
 72
     2
 10
2.772020197607671
 20
0.2795134149140743
 40
0.0215622412740004
 50
270.000371181646
 51
360.000137014207
 73
     1
 97
        0
 92
       16
 93
        8
 72
     2
 10
2.651738913091431
 20
0.3542324359149649
 40
0.0107812364186015
 50
89.9999900344766
 51
179.999521702949
 73
     1
 72
     1
 10
2.640957676673206
 20
0.3542325259151993
 11
2.640957676673206
 21
0.2902950591455122
 72
     2
 10
2.651738958091508
 20
0.2902950160204556
 40
0.010781281418388
 50
179.9997708172488
 51
269.9997708181704
 73
     1
 72
     1
 10
2.651738914966625
 20
0.2795137346021532
 11
2.761238742751839
 21
0.2795135546020104
 72
     2
 10
2.761238956501978
 20
0.2902951041442614
 40
0.0107815495443698
 50
269.9988640797126
 51
359.9992825833961
 73
     1
 72
     1
 10
2.772020506045503
 20
0.2902949691454408
 11
2.772020337295241
 21
0.3542324377902786
 72
     2
 10
2.761239007127366
 20
0.3542323421656908
 40
0.0107813301682991
 50
0.0005081826837109
 51
90.00050818719378
 73
     1
 72
     1
 10
2.76123891150193
 20
0.3650136723335662
 11
2.651738914966625
 21
0.3650136723335662
 97
        0
 75
     0
 76
     1
 98
        1
 10
-7.279586802153931
 20
-0.4081141432880261
  0
HATCH
  5
84F
330
841
100
AcDbEntity
  8
TITLEBLOCK
 62
     0
100
AcDbHatch
 10
0.0
 20
0.0
 30
0.0
210
0.0
220
0.0
230
1.0
  2
SOLID
 70
     1
 71
     0
 91
        2
 92
        1
 93
        8
 72
     2
 10
3.162769048174736
 20
0.3650134554401196
 40
0.0215630459811904
 50
270.0005663490367
 51
359.9994236862867
 73
     0
 72
     1
 10
3.184332094154836
 20
0.3650136723335662
 11
3.184332094154836
 21
0.3222638825303419
 72
     2
 10
3.162769397256125
 20
0.3222640184675962
 40
0.0215626968991391
 50
0.0003612085718475
 51
90.00036121084693
 73
     0
 72
     1
 10
3.162769261318015
 20
0.3007013215688856
 11
3.052707420665665
 21
0.3007013215688856
 72
     1
 10
3.052707420665665
 20
0.3007013215688856
 11
3.052707420665665
 21
0.2579511736405264
 72
     1
 10
3.052707420665665
 20
0.2579511736405264
 11
3.031144250328662
 21
0.2579511736405264
 72
     1
 10
3.031144250328662
 20
0.2579511736405264
 11
3.031144250328662
 21
0.3865765014202565
 72
     1
 10
3.031144250328662
 20
0.3865765014202565
 11
3.162769261318015
 21
0.3865765014202565
 97
        0
 92
       16
 93
        6
 72
     2
 10
3.151988118650169
 20
0.3542325296657216
 40
0.0107811426682361
 50
270.0004882627443
 51
360.0004882669015
 73
     0
 72
     1
 10
3.162769261318015
 20
0.3542324377902786
 11
3.162769261318015
 21
0.333044848948566
 72
     2
 10
3.151988118650169
 20
0.333044757073123
 40
0.0107811426682367
 50
359.9995117330984
 51
449.9995117372556
 73
     0
 72
     1
 10
3.15198821052483
 20
0.3222636144052784
 11
3.052707420665665
 21
0.3222638825303419
 72
     1
 10
3.052707420665665
 20
0.3222638825303419
 11
3.052707420665665
 21
0.3650136723335662
 72
     1
 10
3.052707420665665
 20
0.3650136723335662
 11
3.15198821052483
 21
0.3650136723335662
 97
        0
 75
     0
 76
     1
 98
        1
 10
-7.279586802153931
 20
-0.4081141432880261
  0
HATCH
  5
850
330
841
100
AcDbEntity
  8
TITLEBLOCK
 62
     0
100
AcDbHatch
 10
0.0
 20
0.0
 30
0.0
210
0.0
220
0.0
230
1.0
  2
SOLID
 70
     1
 71
     0
 91
        1
 92
        1
 93
        9
 72
     1
 10
3.556847887515953
 20
0.3865763232950938
 11
3.525206566844968
 21
0.3865765014202565
 72
     1
 10
3.525206566844968
 20
0.3865765014202565
 11
3.60348814923547
 21
0.3136817019238036
 72
     1
 10
3.60348814923547
 20
0.3136817019238036
 11
3.603486349234383
 21
0.2579511736405264
 72
     1
 10
3.603486349234383
 20
0.2579511736405264
 11
3.625050607072164
 21
0.2579511736405264
 72
     1
 10
3.625050607072164
 20
0.2579511736405264
 11
3.625050607072164
 21
0.3136813437984982
 72
     1
 10
3.625050607072164
 20
0.3136813437984982
 11
3.703331833212512
 21
0.3865766795454191
 72
     1
 10
3.703331833212512
 20
0.3865766795454191
 11
3.671691225042007
 21
0.3865765014202565
 72
     1
 10
3.671691225042007
 20
0.3865765014202565
 11
3.61426955627898
 21
0.3331056458632473
 72
     1
 10
3.61426955627898
 20
0.3331056458632473
 11
3.556847887515953
 21
0.3865763232950938
 97
        0
 75
     0
 76
     1
 98
        1
 10
-7.279586802153931
 20
-0.4081141432880261
  0
HATCH
  5
851
330
841
100
AcDbEntity
  8
TITLEBLOCK
 62
     0
100
AcDbHatch
 10
0.0
 20
0.0
 30
0.0
210
0.0
220
0.0
230
1.0
  2
SOLID
 70
     1
 71
     0
 91
        1
 92
        1
 93
       10
 72
     1
 10
3.376247484495632
 20
0.3865765014202565
 11
3.345207161752892
 21
0.3865765014202565
 72
     1
 10
3.345207161752892
 20
0.3865765014202565
 11
3.345207161752892
 21
0.2579511736405264
 72
     1
 10
3.345207161752892
 20
0.2579511736405264
 11
3.366769638339558
 21
0.2579511736405264
 72
     1
 10
3.366769638339558
 20
0.2579511736405264
 11
3.366769638339558
 21
0.3659393041881229
 72
     1
 10
3.366769638339558
 20
0.3659393041881229
 11
3.48273627034943
 21
0.2579509955155343
 72
     1
 10
3.48273627034943
 20
0.2579509955155343
 11
3.515082122730785
 21
0.2579511736405264
 72
     1
 10
3.515082122730785
 20
0.2579511736405264
 11
3.515082122730785
 21
0.3865765014202565
 72
     1
 10
3.515082122730785
 20
0.3865765014202565
 11
3.49351767739277
 21
0.3865765014202565
 72
     1
 10
3.49351767739277
 20
0.3865765014202565
 11
3.49351767739277
 21
0.277374671329744
 72
     1
 10
3.49351767739277
 20
0.277374671329744
 11
3.376247484495632
 21
0.3865765014202565
 97
        0
 75
     0
 76
     1
 98
        1
 10
-7.279586802153931
 20
-0.4081141432880261
  0
ENDBLK
  5
853
330
841
100
AcDbEntity
  8
0
100
AcDbBlockEnd
  0
BLOCK
  5
AF5
330
AE5
100
AcDbEntity
  8
0
100
AcDbBlockBegin
  2
TITLE-PAD
 70
     2
 10
0.0
 20
0.0
 30
0.0
  3
TITLE-PAD
  1

  0
LWPOLYLINE
  5
B1D
330
AE5
100
AcDbEntity
  8
CONTINUOUS2
 62
     0
100
AcDbPolyline
 90
        7
 70
     1
 43
0.0
 10
16.40000099999999
 20
0.0
 10
16.40000099999999
 20
0.0
 10
16.40000099999999
 20
0.0
 10
8.002461
 20
0.0
 10
8.002461
 20
0.9120019999999993
 10
16.40000099999999
 20
0.9120019999999993
 10
16.40000099999999
 20
0.0
  0
INSERT
  5
B1E
330
AE5
100
AcDbEntity
  8
TITLEBLOCK
 62
     0
100
AcDbBlockReference
  2
LOGO-PAD
 10
12.245701
 20
0.3040000000000003
 30
0.0
  0
LINE
  5
B1F
330
AE5
100
AcDbEntity
  8
CONTINUOUS2
 62
     0
100
AcDbLine
 10
16.40000099999999
 20
0.3040000000000003
 30
0.0
 11
12.245701
 21
0.3040000000000003
 31
0.0
  0
LINE
  5
B20
330
AE5
100
AcDbEntity
  8
CONTINUOUS2
 62
     0
100
AcDbLine
 10
12.245701
 20
0.9120019999999993
 30
0.0
 11
12.245701
 21
0.0
 31
0.0
  0
TEXT
  5
B21
330
AE5
100
AcDbEntity
  8
TEXT1
  6
CONTINUOUS
 62
     0
100
AcDbText
 10
12.36897712113656
 20
0.0611566731182909
 30
0.0
 40
0.0699999951940822
  1
NO.
  7
ROMANS
 11
12.36897712113656
 21
0.096156670715332
 31
0.0
100
AcDbText
 73
     2
  0
TEXT
  5
B22
330
AE5
100
AcDbEntity
  8
TEXT1
  6
CONTINUOUS
 62
     0
100
AcDbText
 10
12.36897712113656
 20
0.1661566731182908
 30
0.0
 40
0.0699999951940822
  1
DWG#
  7
ROMANS
 11
12.36897712113656
 21
0.2011566707153319
 31
0.0
100
AcDbText
 73
     2
  0
ATTDEF
  5
B23
330
AE5
100
AcDbEntity
  8
TEXT1
 62
     0
100
AcDbText
 10
10.10183834893798
 20
0.7474460884590166
 30
0.0
 40
0.1
  1

  7
ROMANS
 72
     4
 11
10.10183834893798
 21
0.7474460884590166
 31
0.0
100
AcDbAttributeDefinition
  3
DESCRIPTION 1
  2
DESCRIPTION 1
 70
     0
  0
ATTDEF
  5
B24
330
AE5
100
AcDbEntity
  8
TEXT1
 62
     0
100
AcDbText
 10
10.10183834893798
 20
0.6017231711406717
 30
0.0
 40
0.1
  1

  7
ROMANS
 72
     4
 11
10.10183834893798
 21
0.6017231711406717
 31
0.0
100
AcDbAttributeDefinition
  3
DESCRIPTION 2
  2
DESCRIPTION 2
 70
     0
  0
ATTDEF
  5
B25
330
AE5
100
AcDbEntity
  8
TEXT1
 62
     0
100
AcDbText
 10
10.10183834893798
 20
0.4560002538223267
 30
0.0
 40
0.08
  1

  7
ROMANS
 72
     4
 11
10.10183834893798
 21
0.4560002538223267
 31
0.0
100
AcDbAttributeDefinition
  3
DESCRIPTION 3
  2
DESCRIPTION 3
 70
     0
  0
ATTDEF
  5
B26
330
AE5
100
AcDbEntity
  8
TEXT1
 62
     0
100
AcDbText
 10
10.10183834893798
 20
0.3202773365039833
 30
0.0
 40
0.08
  1

  7
ROMANS
 72
     4
 11
10.10183834893798
 21
0.3202773365039833
 31
0.0
100
AcDbAttributeDefinition
  3
DESCRIPTION 4
  2
DESCRIPTION 4
 70
     0
  0
ATTDEF
  5
B27
330
AE5
100
AcDbEntity
  8
TEXT1
 62
     0
100
AcDbText
 10
10.10183834893798
 20
0.1845544191856399
 30
0.0
 40
0.08
  1

  7
ROMANS
 72
     4
 11
10.10183834893798
 21
0.1845544191856399
 31
0.0
100
AcDbAttributeDefinition
  3
DESCRIPTION 5
  2
DESCRIPTION 5
 70
     0
  0
ATTDEF
  5
B28
330
AE5
100
AcDbEntity
  8
TEXT1
 62
     0
100
AcDbText
 10
12.74772367103195
 20
0.096540546036505
 30
0.0
 40
0.12
  1

 41
0.9512024731840066
  7
M_STANDARD
 11
12.74772367103195
 21
0.156540546036505
 31
0.0
100
AcDbAttributeDefinition
  3
DRAWING NUMBER
  2
DWGNO
 70
     0
 74
     2
  0
ATTDEF
  5
B29
330
AE5
100
AcDbEntity
  8
TEXT1
 62
     0
100
AcDbText
 10
16.35506454949325
 20
-0.1507193079929352
 30
0.0
 40
0.08
  1

  7
ROMANS
 72
     2
 11
16.35506454949325
 21
-0.1107193079929352
 31
0.0
100
AcDbAttributeDefinition
  3
REF DWG #
  2
REF
 70
     0
 74
     2
  0
ATTDEF
  5
B2A
330
AE5
100
AcDbEntity
  8
TEXT1
 62
     0
100
AcDbText
 10
0.0266402374038712
 20
-0.1507193079929352
 30
0.0
 40
0.08
  1

  7
ROMANS
 11
0.0266402374038712
 21
-0.1107193079929352
 31
0.0
100
AcDbAttributeDefinition
  3
DATE MODIFIED
  2
DATE
 70
     0
 74
     2
  0
LWPOLYLINE
  5
B2B
330
AE5
100
AcDbEntity
  8
CONTINUOUS3
 62
     0
100
AcDbPolyline
 90
        4
 70
   129
 43
0.0
 10
0.0
 20
0.0
 10
16.40000099999999
 20
0.0
 10
16.40000099999999
 20
10.25
 10
0.0
 20
10.25
  0
ENDBLK
  5
AF6
330
AE5
100
AcDbEntity
  8
0
100
AcDbBlockEnd
  0
BLOCK
  5
D84
330
D52
100
AcDbEntity
  8
0
100
AcDbBlockBegin
  2
OEM-NOTES
 70
     0
 10
0.0
 20
0.0
 30
0.0
  3
OEM-NOTES
  1

  0
LWPOLYLINE
  5
D53
330
D52
100
AcDbEntity
  8
TITLEBLOCK
100
AcDbPolyline
 90
        2
 70
     0
 43
0.0128
 10
8.625
 20
1.599999999999996
 10
0.0
 20
1.6
  0
TEXT
  5
D57
330
D52
100
AcDbEntity
  8
TITLEBLOCK
100
AcDbText
 10
0.3131249999999959
 20
0.7406249999999998
 30
0.0
 40
0.13125
  1
BE USED ONLY IN CONFORMANCE WITH INSTRUCTIONS ISSUED BY SQUARE D COMPANY.
 41
0.9
  7
SIMPLEX
 72
     4
 11
4.3125
 21
0.7999999999999999
 31
0.0
100
AcDbText
  0
TEXT
  5
D58
330
D52
100
AcDbEntity
  8
TITLEBLOCK
100
AcDbText
 10
0.2540625000000007
 20
1.045625000000001
 30
0.0
 40
0.13125
  1
HEREON. THIS INFORMATION REMAINS THE PROPERTY OF SQUARE D COMPANY AND MAY
 41
0.9
  7
SIMPLEX
 72
     4
 11
4.3125
 21
1.105000000000001
 31
0.0
100
AcDbText
  0
TEXT
  5
D59
330
D52
100
AcDbEntity
  8
TITLEBLOCK
100
AcDbText
 10
0.3046875
 20
1.338124999999997
 30
0.0
 40
0.13125
  1
"THE SQUARE D COMPANY HAS PROPRIETARY RIGHTS TO THE INFORMATION CONTAINED
 41
0.9
  7
SIMPLEX
 72
     4
 11
4.3125
 21
1.409999999999997
 31
0.0
100
AcDbText
  0
TEXT
  5
D5A
330
D52
100
AcDbEntity
  8
TITLEBLOCK
100
AcDbText
 10
0.6309374999999977
 20
0.4387499999999984
 30
0.0
 40
0.13125
  1
USER SHOULD VERIFY DRAWINGS ARE TO THE LATEST/CURRENT REVISION PRIOR
 41
0.9
  7
SIMPLEX
 72
     4
 11
4.3125
 21
0.4949999999999984
 31
0.0
100
AcDbText
  0
TEXT
  5
D5B
330
D52
100
AcDbEntity
  8
TITLEBLOCK
100
AcDbText
 10
2.5490625
 20
0.1368749999999972
 30
0.0
 40
0.13125
  1
TO INCORPORATING IN A DESIGN FILE."
 41
0.9
  7
SIMPLEX
 72
     4
 11
4.3125
 21
0.2149999999999972
 31
0.0
100
AcDbText
  0
TEXT
  5
D5C
330
D52
100
AcDbEntity
  8
TITLEBLOCK
100
AcDbText
 10
9.046378855339687
 20
0.2629426489623099
 30
0.0
 40
0.112
  1
UNLESS OTHERWISE SPECIFIED DIMENSIONS ARE IN INCHES
 41
0.8
  7
SIMPLEX
 72
     4
 11
11.06451218867302
 21
0.3189426489623099
 31
0.0
100
AcDbText
  0
LWPOLYLINE
  5
D5D
330
D52
100
AcDbEntity
  8
TITLEBLOCK
100
AcDbPolyline
 90
        2
 70
     0
 43
0.0128
 10
8.625
 20
0.9599999999999964
 10
16.00492200000007
 20
0.9599999999999964
  0
TEXT
  5
D61
330
D52
100
AcDbEntity
  8
TITLEBLOCK
100
AcDbText
 10
8.7837120071254
 20
0.5472199999999967
 30
0.0
 40
0.2433162500000002
  1
%%uDO NOT SCALE DRAWING
  7
SIMPLEX
 72
     1
 11
11.06451218867302
 21
0.5472199999999967
 31
0.0
100
AcDbText
  0
LWPOLYLINE
  5
D62
330
D52
100
AcDbEntity
  8
TITLEBLOCK
100
AcDbPolyline
 90
        2
 70
     0
 43
0.0128
 10
8.625
 20
0.9599999999999964
 10
8.625
 20
0.0000000000000009
  0
LWPOLYLINE
  5
D66
330
D52
100
AcDbEntity
  8
TITLEBLOCK
100
AcDbPolyline
 90
        2
 70
     0
 43
0.0128
 10
8.625
 20
0.0000000000000009
 10
8.625
 20
1.6
  0
LWPOLYLINE
  5
D6A
330
D52
100
AcDbEntity
  8
TITLEBLOCK
100
AcDbPolyline
 90
        2
 70
     0
 43
0.0128
 10
13.49242200000007
 20
1.599999999999995
 10
13.49242200000007
 20
0.0000000000000009
  0
TEXT
  5
D6E
330
D52
100
AcDbEntity
  8
TITLEBLOCK
100
AcDbText
 10
13.77242200000007
 20
0.2099999999999964
 30
0.0
 40
0.1
  1
2 PLACE DECIMALS
  7
SIMPLEX
100
AcDbText
  0
TEXT
  5
D6F
330
D52
100
AcDbEntity
  8
TITLEBLOCK
100
AcDbText
 10
13.62242200000007
 20
0.4474999999999972
 30
0.0
 40
0.1
  1
UNLESS OTHERWISE SPECIFIED
  7
SIMPLEX
100
AcDbText
  0
TEXT
  5
D70
330
D52
100
AcDbEntity
  8
TITLEBLOCK
100
AcDbText
 10
15.57242200000007
 20
0.2099999999999964
 30
0.0
 40
0.1
  1
.01
  7
SIMPLEX
100
AcDbText
  0
LINE
  5
D71
330
D52
100
AcDbEntity
  8
TITLEBLOCK
100
AcDbLine
 10
15.35492200000008
 20
0.2187499999999973
 30
0.0
 11
15.45492200000008
 21
0.2187499999999973
 31
0.0
  0
TEXT
  5
D72
330
D52
100
AcDbEntity
  8
TITLEBLOCK
100
AcDbText
 10
15.35992200000007
 20
0.2474999999999961
 30
0.0
 40
0.1
  1
+
  7
SIMPLEX
100
AcDbText
  0
LWPOLYLINE
  5
D73
330
D52
100
AcDbEntity
  8
TITLEBLOCK
100
AcDbPolyline
 90
        2
 70
     0
 43
0.0128
 10
16.00492200000007
 20
1.599999999999995
 10
13.49242200000007
 20
1.599999999999995
  0
TEXT
  5
D77
330
D52
100
AcDbEntity
  8
TITLEBLOCK
100
AcDbText
 10
13.62242200000007
 20
1.147499999999996
 30
0.0
 40
0.1
  1
PROJECTION
  7
SIMPLEX
100
AcDbText
  0
TEXT
  5
D78
330
D52
100
AcDbEntity
  8
TITLEBLOCK
100
AcDbText
 10
13.55992200000007
 20
1.347499999999997
 30
0.0
 40
0.1
  1
THIRD ANGLE
  7
SIMPLEX
100
AcDbText
  0
LINE
  5
D79
330
D52
100
AcDbEntity
  8
TITLEBLOCK
100
AcDbLine
 10
14.69692486880008
 20
1.300351715199997
 30
0.0
 11
15.91292523520008
 21
1.300351715199997
 31
0.0
  0
TEXT
  5
D7A
330
D52
100
AcDbEntity
  8
TITLEBLOCK
100
AcDbText
 10
14.04742200000008
 20
0.6974999999999972
 30
0.0
 40
0.15
  1
%%uTOLERANCES
  7
SIMPLEX
100
AcDbText
  0
LINE
  5
D7B
330
D52
100
AcDbEntity
  8
TITLEBLOCK
100
AcDbLine
 10
14.95292615040008
 20
1.396354294399999
 30
0.0
 11
14.95292615040008
 21
1.524354553599997
 31
0.0
  0
CIRCLE
  5
D7C
330
D52
100
AcDbEntity
  8
TITLEBLOCK
100
AcDbCircle
 10
14.95292615040008
 20
1.300352668799996
 30
0.0
 40
0.1279999615999998
  0
CIRCLE
  5
D7D
330
D52
100
AcDbEntity
  8
TITLEBLOCK
100
AcDbCircle
 10
14.95292615040008
 20
1.300352668799996
 30
0.0
 40
0.064000004799999
  0
LINE
  5
D7E
330
D52
100
AcDbEntity
  8
TITLEBLOCK
100
AcDbLine
 10
14.95292615040008
 20
1.332351302399996
 30
0.0
 11
14.95292615040008
 21
1.268351172799996
 31
0.0
  0
LINE
  5
D7F
330
D52
100
AcDbEntity
  8
TITLEBLOCK
100
AcDbLine
 10
14.95292615040008
 20
1.204351996799997
 30
0.0
 11
14.95292615040008
 21
1.076351737599998
 31
0.0
  0
LINE
  5
D80
330
D52
100
AcDbEntity
  8
TITLEBLOCK
100
AcDbLine
 10
15.78492230560007
 20
1.172351455999998
 30
0.0
 11
15.33692425760007
 21
1.236351585599996
 31
0.0
  0
LINE
  5
D81
330
D52
100
AcDbEntity
  8
TITLEBLOCK
100
AcDbLine
 10
15.33692425760007
 20
1.364351844799998
 30
0.0
 11
15.78492230560007
 21
1.428351020799996
 31
0.0
  0
LINE
  5
D82
330
D52
100
AcDbEntity
  8
TITLEBLOCK
100
AcDbLine
 10
15.33692425760007
 20
1.236351585599996
 30
0.0
 11
15.33692425760007
 21
1.364351844799998
 31
0.0
  0
LINE
  5
D83
330
D52
100
AcDbEntity
  8
TITLEBLOCK
100
AcDbLine
 10
15.78492230560007
 20
1.428351020799996
 30
0.0
 11
15.78492230560007
 21
1.172351455999998
 31
0.0
  0
ENDBLK
  5
D85
330
D52
100
AcDbEntity
  8
0
100
AcDbBlockEnd
  0
BLOCK
  5
AA83
330
AA81
100
AcDbEntity
  8
0
100
AcDbBlockBegin
  2
SEARROW
 70
     0
 10
0.0
 20
0.0
 30
0.0
  3
SEARROW
  1

  0
LWPOLYLINE
  5
AA82
330
AA81
100
AcDbEntity
  8
0
  6
BYBLOCK
100
AcDbPolyline
 90
        2
 70
     0
 10
0.0
 20
0.0
 40
0.0
 41
0.5000000001500001
 10
-1.000000000300019
 20
0.0
 40
0.5000000001500001
 41
0.5000000001500001
  0
ENDBLK
  5
AA84
330
AA81
100
AcDbEntity
  8
0
100
AcDbBlockEnd
  0
BLOCK
  5
127A0
330
12795
100
AcDbEntity
  8
0
100
AcDbBlockBegin
  2
*D5
 70
     1
 10
0.0
 20
0.0
 30
0.0
  3
*D5
  1

  0
LINE
  5
138A0
330
12795
100
AcDbEntity
  8
DIM
100
AcDbLine
 10
15.85840332254201
 20
10.48854796080876
 30
0.0
 11
14.63965332254201
 21
10.48854796080876
 31
0.0
  0
LINE
  5
138A1
330
12795
100
AcDbEntity
  8
DIM
100
AcDbLine
 10
15.85840332254201
 20
7.788547960808768
 30
0.0
 11
14.63965332254201
 21
7.788547960808768
 31
0.0
  0
LINE
  5
138A2
330
12795
100
AcDbEntity
  8
DIM
100
AcDbLine
 10
14.76465332254201
 20
10.34854796080876
 30
0.0
 11
14.76465332254201
 21
9.537595579856386
 31
0.0
  0
LINE
  5
138A3
330
12795
100
AcDbEntity
  8
DIM
100
AcDbLine
 10
14.76465332254201
 20
7.928547960808768
 30
0.0
 11
14.76465332254201
 21
8.739500341761146
 31
0.0
  0
INSERT
  5
138A4
330
12795
100
AcDbEntity
  8
DIM
100
AcDbBlockReference
  2
SEARROW
 10
14.76465332254201
 20
10.48854796080876
 30
0.0
 41
0.14
 42
0.14
 43
0.14
 50
90.0
  0
INSERT
  5
138A5
330
12795
100
AcDbEntity
  8
DIM
100
AcDbBlockReference
  2
SEARROW
 10
14.76465332254201
 20
7.788547960808768
 30
0.0
 41
0.14
 42
0.14
 43
0.14
 50
270.0
  0
MTEXT
  5
138A6
330
12795
100
AcDbEntity
  8
DIM
100
AcDbMText
 10
14.76465332254201
 20
9.138547960808768
 30
0.0
 40
0.2
 41
0.0
 71
     5
 72
     1
  1
\A1;2.70\P [69]
  7
ROMANS
1001
ACAD
1000
MTEXTBEGIN
1070
    73
1070
     1
1070
    44
1040
1.0
1070
    74
1070
     0
1000
MTEXTEND
1000
MTEXTBEGIN
1070
    73
1070
     1
1070
    44
1040
1.0
1070
    74
1070
     0
1000
MTEXTEND
  0
POINT
  5
138A7
330
12795
100
AcDbEntity
  8
DEFPOINTS
 62
     0
100
AcDbPoint
 10
15.98340332254201
 20
10.48854796080876
 30
0.0
  0
POINT
  5
138A8
330
12795
100
AcDbEntity
  8
DEFPOINTS
 62
     0
100
AcDbPoint
 10
15.98340332254201
 20
7.788547960808768
 30
0.0
  0
POINT
  5
138A9
330
12795
100
AcDbEntity
  8
DEFPOINTS
 62
     0
100
AcDbPoint
 10
14.76465332254201
 20
7.788547960808768
 30
0.0
  0
ENDBLK
  5
127A1
330
12795
100
AcDbEntity
  8
0
100
AcDbBlockEnd
  0
BLOCK
  5
127AE
330
127A3
100
AcDbEntity
  8
0
100
AcDbBlockBegin
  2
*D6
 70
     1
 10
0.0
 20
0.0
 30
0.0
  3
*D6
  1

  0
LINE
  5
138AA
330
127A3
100
AcDbEntity
  8
DIM
100
AcDbLine
 10
21.31215332254201
 20
10.23854796080877
 30
0.0
 11
24.53965332254201
 21
10.23854796080877
 31
0.0
  0
LINE
  5
138AB
330
127A3
100
AcDbEntity
  8
DIM
100
AcDbLine
 10
21.31215332254201
 20
8.03854796080877
 30
0.0
 11
24.53965332254201
 21
8.03854796080877
 31
0.0
  0
LINE
  5
138AC
330
127A3
100
AcDbEntity
  8
DIM
100
AcDbLine
 10
24.41465332254201
 20
10.09854796080877
 30
0.0
 11
24.41465332254201
 21
9.53759557985639
 31
0.0
  0
LINE
  5
138AD
330
127A3
100
AcDbEntity
  8
DIM
100
AcDbLine
 10
24.41465332254201
 20
8.178547960808771
 30
0.0
 11
24.41465332254201
 21
8.73950034176115
 31
0.0
  0
INSERT
  5
138AE
330
127A3
100
AcDbEntity
  8
DIM
100
AcDbBlockReference
  2
SEARROW
 10
24.41465332254201
 20
10.23854796080877
 30
0.0
 41
0.14
 42
0.14
 43
0.14
 50
90.0
  0
INSERT
  5
138AF
330
127A3
100
AcDbEntity
  8
DIM
100
AcDbBlockReference
  2
SEARROW
 10
24.41465332254201
 20
8.03854796080877
 30
0.0
 41
0.14
 42
0.14
 43
0.14
 50
270.0
  0
MTEXT
  5
138B0
330
127A3
100
AcDbEntity
  8
DIM
100
AcDbMText
 10
24.414653322542
 20
9.138547960808773
 30
0.0
 40
0.2
 41
0.0
 71
     5
 72
     1
  1
\A1;1.90...2.20\P[48]...[56]
  7
ROMANS
1001
ACAD
1000
MTEXTBEGIN
1070
    73
1070
     1
1070
    44
1040
1.0
1070
    74
1070
     0
1000
MTEXTEND
1000
MTEXTBEGIN
1070
    73
1070
     1
1070
    44
1040
1.0
1070
    74
1070
     0
1000
MTEXTEND
  0
POINT
  5
138B1
330
127A3
100
AcDbEntity
  8
DEFPOINTS
 62
     0
100
AcDbPoint
 10
21.187153322542
 20
10.23854796080877
 30
0.0
  0
POINT
  5
138B2
330
127A3
100
AcDbEntity
  8
DEFPOINTS
 62
     0
100
AcDbPoint
 10
21.187153322542
 20
8.03854796080877
 30
0.0
  0
POINT
  5
138B3
330
127A3
100
AcDbEntity
  8
DEFPOINTS
 62
     0
100
AcDbPoint
 10
24.41465332254201
 20
8.03854796080877
 30
0.0
  0
ENDBLK
  5
127AF
330
127A3
100
AcDbEntity
  8
0
100
AcDbBlockEnd
  0
BLOCK
  5
127BC
330
127B1
100
AcDbEntity
  8
0
100
AcDbBlockBegin
  2
*D7
 70
     1
 10
0.0
 20
0.0
 30
0.0
  3
*D7
  1

  0
LINE
  5
138B4
330
127B1
100
AcDbEntity
  8
DIM
100
AcDbLine
 10
15.51465332254201
 20
8.497922960808768
 30
0.0
 11
15.51465332254201
 21
6.788547960808767
 31
0.0
  0
LINE
  5
138B5
330
127B1
100
AcDbEntity
  8
DIM
100
AcDbLine
 10
23.274653322542
 20
9.01354796080877
 30
0.0
 11
23.274653322542
 21
6.788547960808767
 31
0.0
  0
LINE
  5
138B6
330
127B1
100
AcDbEntity
  8
DIM
100
AcDbLine
 10
15.65465332254201
 20
6.913547960808767
 30
0.0
 11
18.83846284635153
 21
6.913547960808767
 31
0.0
  0
LINE
  5
138B7
330
127B1
100
AcDbEntity
  8
DIM
100
AcDbLine
 10
23.134653322542
 20
6.913547960808767
 30
0.0
 11
19.95084379873248
 21
6.913547960808767
 31
0.0
  0
INSERT
  5
138B8
330
127B1
100
AcDbEntity
  8
DIM
100
AcDbBlockReference
  2
SEARROW
 10
15.51465332254201
 20
6.913547960808767
 30
0.0
 41
0.14
 42
0.14
 43
0.14
 50
180.0
  0
INSERT
  5
138B9
330
127B1
100
AcDbEntity
  8
DIM
100
AcDbBlockReference
  2
SEARROW
 10
23.274653322542
 20
6.913547960808767
 30
0.0
 41
0.14
 42
0.14
 43
0.14
  0
MTEXT
  5
138BA
330
127B1
100
AcDbEntity
  8
DIM
100
AcDbMText
 10
19.39465332254201
 20
6.913547960808767
 30
0.0
 40
0.2
 41
0.0
 71
     5
 72
     1
  1
\A1;7.76\P [197]
  7
ROMANS
1001
ACAD
1000
MTEXTBEGIN
1070
    73
1070
     1
1070
    44
1040
1.0
1070
    74
1070
     0
1000
MTEXTEND
1000
MTEXTBEGIN
1070
    73
1070
     1
1070
    44
1040
1.0
1070
    74
1070
     0
1000
MTEXTEND
  0
POINT
  5
138BB
330
127B1
100
AcDbEntity
  8
DEFPOINTS
 62
     0
100
AcDbPoint
 10
15.51465332254201
 20
8.622922960808768
 30
0.0
  0
POINT
  5
138BC
330
127B1
100
AcDbEntity
  8
DEFPOINTS
 62
     0
100
AcDbPoint
 10
23.274653322542
 20
9.13854796080877
 30
0.0
  0
POINT
  5
138BD
330
127B1
100
AcDbEntity
  8
DEFPOINTS
 62
     0
100
AcDbPoint
 10
23.274653322542
 20
6.913547960808767
 30
0.0
  0
ENDBLK
  5
127BD
330
127B1
100
AcDbEntity
  8
0
100
AcDbBlockEnd
  0
BLOCK
  5
127D6
330
127CB
100
AcDbEntity
  8
0
100
AcDbBlockBegin
  2
*D8
 70
     1
 10
0.0
 20
0.0
 30
0.0
  3
*D8
  1

  0
LINE
  5
138BE
330
127CB
100
AcDbEntity
  8
DIM
100
AcDbLine
 10
15.51465332254201
 20
8.497922960808768
 30
0.0
 11
15.51465332254201
 21
5.788547960808767
 31
0.0
  0
LINE
  5
138BF
330
127CB
100
AcDbEntity
  8
DIM
100
AcDbLine
 10
23.414653322542
 20
8.497922960808775
 30
0.0
 11
23.414653322542
 21
5.788547960808767
 31
0.0
  0
LINE
  5
138C0
330
127CB
100
AcDbEntity
  8
DIM
100
AcDbLine
 10
15.65465332254201
 20
5.913547960808767
 30
0.0
 11
18.90846284635153
 21
5.913547960808767
 31
0.0
  0
LINE
  5
138C1
330
127CB
100
AcDbEntity
  8
DIM
100
AcDbLine
 10
23.274653322542
 20
5.913547960808767
 30
0.0
 11
20.02084379873248
 21
5.913547960808767
 31
0.0
  0
INSERT
  5
138C2
330
127CB
100
AcDbEntity
  8
DIM
100
AcDbBlockReference
  2
SEARROW
 10
15.51465332254201
 20
5.913547960808767
 30
0.0
 41
0.14
 42
0.14
 43
0.14
 50
180.0
  0
INSERT
  5
138C3
330
127CB
100
AcDbEntity
  8
DIM
100
AcDbBlockReference
  2
SEARROW
 10
23.414653322542
 20
5.913547960808767
 30
0.0
 41
0.14
 42
0.14
 43
0.14
  0
MTEXT
  5
138C4
330
127CB
100
AcDbEntity
  8
DIM
100
AcDbMText
 10
19.464653322542
 20
5.913547960808767
 30
0.0
 40
0.2
 41
0.0
 71
     5
 72
     1
  1
\A1;7.90\P [201]
  7
ROMANS
1001
ACAD
1000
MTEXTBEGIN
1070
    73
1070
     1
1070
    44
1040
1.0
1070
    74
1070
     0
1000
MTEXTEND
1000
MTEXTBEGIN
1070
    73
1070
     1
1070
    44
1040
1.0
1070
    74
1070
     0
1000
MTEXTEND
  0
POINT
  5
138C5
330
127CB
100
AcDbEntity
  8
DEFPOINTS
 62
     0
100
AcDbPoint
 10
15.51465332254201
 20
8.622922960808768
 30
0.0
  0
POINT
  5
138C6
330
127CB
100
AcDbEntity
  8
DEFPOINTS
 62
     0
100
AcDbPoint
 10
23.414653322542
 20
8.622922960808775
 30
0.0
  0
POINT
  5
138C7
330
127CB
100
AcDbEntity
  8
DEFPOINTS
 62
     0
100
AcDbPoint
 10
23.414653322542
 20
5.913547960808767
 30
0.0
  0
ENDBLK
  5
127D7
330
127CB
100
AcDbEntity
  8
0
100
AcDbBlockEnd
  0
BLOCK
  5
12A69
330
12A5E
100
AcDbEntity
  8
0
100
AcDbBlockBegin
  2
*D9
 70
     1
 10
0.0
 20
0.0
 30
0.0
  3
*D9
  1

  0
LINE
  5
138C8
330
12A5E
100
AcDbEntity
  8
DIM
100
AcDbLine
 10
27.84313096336032
 20
7.663547960808767
 30
0.0
 11
27.84313096336032
 21
6.788547960808767
 31
0.0
  0
LINE
  5
138C9
330
12A5E
100
AcDbEntity
  8
DIM
100
AcDbLine
 10
29.41313096336032
 20
7.663547960808767
 30
0.0
 11
29.41313096336032
 21
6.788547960808767
 31
0.0
  0
LINE
  5
138CA
330
12A5E
100
AcDbEntity
  8
DIM
100
AcDbLine
 10
27.98313096336032
 20
6.913547960808767
 30
0.0
 11
29.27313096336032
 21
6.913547960808767
 31
0.0
  0
INSERT
  5
138CB
330
12A5E
100
AcDbEntity
  8
DIM
100
AcDbBlockReference
  2
SEARROW
 10
27.84313096336032
 20
6.913547960808767
 30
0.0
 41
0.14
 42
0.14
 43
0.14
 50
180.0
  0
INSERT
  5
138CC
330
12A5E
100
AcDbEntity
  8
DIM
100
AcDbBlockReference
  2
SEARROW
 10
29.41313096336032
 20
6.913547960808767
 30
0.0
 41
0.14
 42
0.14
 43
0.14
  0
MTEXT
  5
138CD
330
12A5E
100
AcDbEntity
  8
DIM
100
AcDbMText
 10
28.62813096336032
 20
7.093547960808766
 30
0.0
 40
0.2
 41
0.0
 71
     5
 72
     1
  1
\A1;1.57
  7
ROMANS
1001
ACAD
1000
MTEXTBEGIN
1070
    73
1070
     1
1070
    44
1040
1.0
1070
    74
1070
     0
1000
MTEXTEND
1000
MTEXTBEGIN
1070
    73
1070
     1
1070
    44
1040
1.0
1070
    74
1070
     0
1000
MTEXTEND
  0
MTEXT
  5
138CE
330
12A5E
100
AcDbEntity
  8
DIM
100
AcDbMText
 10
28.62813096336032
 20
6.681167008427814
 30
0.0
 40
0.2
 41
0.0
 71
     5
 72
     1
  1
\A1;[40]
  7
ROMANS
1001
ACAD
1000
MTEXTBEGIN
1070
    73
1070
     1
1070
    44
1040
1.0
1070
    74
1070
     0
1000
MTEXTEND
1000
MTEXTBEGIN
1070
    73
1070
     1
1070
    44
1040
1.0
1070
    74
1070
     0
1000
MTEXTEND
  0
POINT
  5
138CF
330
12A5E
100
AcDbEntity
  8
DEFPOINTS
 62
     0
100
AcDbPoint
 10
27.84313096336032
 20
7.788547960808767
 30
0.0
  0
POINT
  5
138D0
330
12A5E
100
AcDbEntity
  8
DEFPOINTS
 62
     0
100
AcDbPoint
 10
29.41313096336032
 20
7.788547960808767
 30
0.0
  0
POINT
  5
138D1
330
12A5E
100
AcDbEntity
  8
DEFPOINTS
 62
     0
100
AcDbPoint
 10
29.41313096336032
 20
6.913547960808767
 30
0.0
  0
ENDBLK
  5
12A6A
330
12A5E
100
AcDbEntity
  8
0
100
AcDbBlockEnd
  0
BLOCK
  5
12A77
330
12A6C
100
AcDbEntity
  8
0
100
AcDbBlockBegin
  2
*D10
 70
     1
 10
0.0
 20
0.0
 30
0.0
  3
*D10
  1

  0
LINE
  5
138D2
330
12A6C
100
AcDbEntity
  8
DIM
100
AcDbLine
 10
31.58313096336032
 20
8.982297960808766
 30
0.0
 11
31.58313096336032
 21
6.788547960808767
 31
0.0
  0
LINE
  5
138D3
330
12A6C
100
AcDbEntity
  8
DIM
100
AcDbLine
 10
29.41313096336032
 20
7.538547960808767
 30
0.0
 11
29.41313096336032
 21
6.788547960808767
 31
0.0
  0
LINE
  5
138D4
330
12A6C
100
AcDbEntity
  8
DIM
100
AcDbLine
 10
31.44313096336032
 20
6.913547960808767
 30
0.0
 11
29.55313096336032
 21
6.913547960808767
 31
0.0
  0
INSERT
  5
138D5
330
12A6C
100
AcDbEntity
  8
DIM
100
AcDbBlockReference
  2
SEARROW
 10
31.58313096336032
 20
6.913547960808767
 30
0.0
 41
0.14
 42
0.14
 43
0.14
  0
INSERT
  5
138D6
330
12A6C
100
AcDbEntity
  8
DIM
100
AcDbBlockReference
  2
SEARROW
 10
29.41313096336032
 20
6.913547960808767
 30
0.0
 41
0.14
 42
0.14
 43
0.14
 50
180.0
  0
MTEXT
  5
138D7
330
12A6C
100
AcDbEntity
  8
DIM
100
AcDbMText
 10
30.49813096336032
 20
7.093547960808766
 30
0.0
 40
0.2
 41
0.0
 71
     5
 72
     1
  1
\A1;2.17
  7
ROMANS
1001
ACAD
1000
MTEXTBEGIN
1070
    73
1070
     1
1070
    44
1040
1.0
1070
    74
1070
     0
1000
MTEXTEND
1000
MTEXTBEGIN
1070
    73
1070
     1
1070
    44
1040
1.0
1070
    74
1070
     0
1000
MTEXTEND
  0
MTEXT
  5
138D8
330
12A6C
100
AcDbEntity
  8
DIM
100
AcDbMText
 10
30.49813096336032
 20
6.681167008427814
 30
0.0
 40
0.2
 41
0.0
 71
     5
 72
     1
  1
\A1;[55]
  7
ROMANS
1001
ACAD
1000
MTEXTBEGIN
1070
    73
1070
     1
1070
    44
1040
1.0
1070
    74
1070
     0
1000
MTEXTEND
1000
MTEXTBEGIN
1070
    73
1070
     1
1070
    44
1040
1.0
1070
    74
1070
     0
1000
MTEXTEND
  0
POINT
  5
138D9
330
12A6C
100
AcDbEntity
  8
DEFPOINTS
 62
     0
100
AcDbPoint
 10
31.58313096336032
 20
9.107297960808766
 30
0.0
  0
POINT
  5
138DA
330
12A6C
100
AcDbEntity
  8
DEFPOINTS
 62
     0
100
AcDbPoint
 10
29.41313096336032
 20
7.663547960808767
 30
0.0
  0
POINT
  5
138DB
330
12A6C
100
AcDbEntity
  8
DEFPOINTS
 62
     0
100
AcDbPoint
 10
29.41313096336032
 20
6.913547960808767
 30
0.0
  0
ENDBLK
  5
12A78
330
12A6C
100
AcDbEntity
  8
0
100
AcDbBlockEnd
  0
BLOCK
  5
12A99
330
12A8E
100
AcDbEntity
  8
0
100
AcDbBlockBegin
  2
*D11
 70
     1
 10
0.0
 20
0.0
 30
0.0
  3
*D11
  1

  0
LINE
  5
138DC
330
12A8E
100
AcDbEntity
  8
DIM
100
AcDbLine
 10
27.71813096336032
 20
7.788547960808767
 30
0.0
 11
26.96813096336032
 21
7.788547960808767
 31
0.0
  0
LINE
  5
138DD
330
12A8E
100
AcDbEntity
  8
DIM
100
AcDbLine
 10
28.12813096336032
 20
12.48854796080879
 30
0.0
 11
26.96813096336032
 21
12.48854796080879
 31
0.0
  0
LINE
  5
138DE
330
12A8E
100
AcDbEntity
  8
DIM
100
AcDbLine
 10
27.09313096336032
 20
7.928547960808766
 30
0.0
 11
27.09313096336032
 21
9.739500341761159
 31
0.0
  0
LINE
  5
138DF
330
12A8E
100
AcDbEntity
  8
DIM
100
AcDbLine
 10
27.09313096336032
 20
12.34854796080879
 30
0.0
 11
27.09313096336032
 21
10.5375955798564
 31
0.0
  0
INSERT
  5
138E0
330
12A8E
100
AcDbEntity
  8
DIM
100
AcDbBlockReference
  2
SEARROW
 10
27.09313096336032
 20
7.788547960808767
 30
0.0
 41
0.14
 42
0.14
 43
0.14
 50
270.0
  0
INSERT
  5
138E1
330
12A8E
100
AcDbEntity
  8
DIM
100
AcDbBlockReference
  2
SEARROW
 10
27.09313096336032
 20
12.48854796080879
 30
0.0
 41
0.14
 42
0.14
 43
0.14
 50
90.0
  0
MTEXT
  5
138E2
330
12A8E
100
AcDbEntity
  8
DIM
100
AcDbMText
 10
27.09313096336032
 20
10.13854796080878
 30
0.0
 40
0.2
 41
0.0
 71
     5
 72
     1
  1
\A1;4.70\P [119]
  7
ROMANS
1001
ACAD
1000
MTEXTBEGIN
1070
    73
1070
     1
1070
    44
1040
1.0
1070
    74
1070
     0
1000
MTEXTEND
1000
MTEXTBEGIN
1070
    73
1070
     1
1070
    44
1040
1.0
1070
    74
1070
     0
1000
MTEXTEND
  0
POINT
  5
138E3
330
12A8E
100
AcDbEntity
  8
DEFPOINTS
 62
     0
100
AcDbPoint
 10
27.84313096336032
 20
7.788547960808767
 30
0.0
  0
POINT
  5
138E4
330
12A8E
100
AcDbEntity
  8
DEFPOINTS
 62
     0
100
AcDbPoint
 10
28.25313096336032
 20
12.48854796080879
 30
0.0
  0
POINT
  5
138E5
330
12A8E
100
AcDbEntity
  8
DEFPOINTS
 62
     0
100
AcDbPoint
 10
27.09313096336032
 20
12.48854796080879
 30
0.0
  0
ENDBLK
  5
12A9A
330
12A8E
100
AcDbEntity
  8
0
100
AcDbBlockEnd
  0
ENDSEC
  0
SECTION
  2
ENTITIES
  0
INSERT
  5
79E
330
1F
100
AcDbEntity
  8
0
100
AcDbBlockReference
  2
NEWLAYERS
 10
-0.0000014740623202
 20
0.1900200015532691
 30
0.0
 41
0.0000000090422425
 42
0.0000000090422425
 43
0.0000000090422425
  0
LWPOLYLINE
  5
BF7
330
1F
100
AcDbEntity
  8
VIEWPORT
100
AcDbPolyline
 90
        6
 70
     1
 43
0.0
 10
32.80000199999999
 20
20.69009155499847
 10
32.80000199999999
 20
2.014095554998469
 10
16.004922
 20
2.014095554998469
 10
16.004922
 20
0.190091554998471
 10
0.0
 20
0.190091554998471
 10
0.0
 20
20.69009155499847
1001
GENIUS_GENOREF_13
1005
0
1005
0
1005
0
1005
0
1005
0
1005
0
1005
0
  0
VIEWPORT
  5
BF8
330
1F
100
AcDbEntity
  8
VIEWPORT
100
AcDbViewport
 10
16.40000099999999
 20
10.44009155499847
 30
0.0
 40
32.80000199999999
 41
20.5
 69
     0
1001
ACAD
1000
MVIEW
1002
{
1070
    16
1010
0.0
1020
0.0
1030
0.0
1010
0.0
1020
0.0
1030
1.0
1040
0.0
1040
41.0
1040
32.79338763516309
1040
20.71142202491305
1040
50.0
1040
0.0
1040
0.0
1070
     0
1070
   100
1070
     1
1070
     2
1070
     0
1070
     0
1070
     0
1070
     0
1040
0.0
1040
0.0
1040
0.0
1040
0.5
1040
0.5
1040
0.5
1040
0.5
1070
     0
1002
{
1002
}
1002
}
1001
GENIUS_GENOREF_13
1005
0
1005
0
1005
0
1005
0
1005
0
1005
0
1005
0
1001
GENIUS_GENSCREG_15
1000
PF
1040
0.0
1000
DF
1040
0.0
1000
MIN
1011
0.0
1021
0.190091554998471
1031
0.0
1000
MAX
1011
32.80000199999999
1021
20.69009155499847
1031
0.0
1000
FLAGS
1070
     2
  0
LINE
  5
107E8
330
1F
100
AcDbEntity
  8
CONTINUOUS1
100
AcDbLine
 10
21.327153322542
 20
10.30104796080876
 30
0.0
 11
21.32715332254201
 21
7.976047960808768
 31
0.0
  0
LINE
  5
107E9
330
1F
100
AcDbEntity
  8
CONTINUOUS1
100
AcDbLine
 10
15.79590332254201
 20
10.30104796080876
 30
0.0
 11
15.79590332254201
 21
7.976047960808768
 31
0.0
  0
LINE
  5
107F4
330
1F
100
AcDbEntity
  8
CENTER1
100
AcDbLine
 10
21.06215332254201
 20
10.42604796080876
 30
0.0
 11
21.06215332254201
 21
10.05104796080876
 31
0.0
  0
LINE
  5
10806
330
1F
100
AcDbEntity
  8
CONTINUOUS1
100
AcDbLine
 10
21.06215332254201
 20
10.42604796080876
 30
0.0
 11
21.06215332254201
 21
10.42604796080876
 31
0.0
  0
LINE
  5
10807
330
1F
100
AcDbEntity
  8
CENTER1
100
AcDbLine
 10
20.93715332254201
 20
10.23854796080877
 30
0.0
 11
21.187153322542
 21
10.23854796080877
 31
0.0
  0
LINE
  5
10808
330
1F
100
AcDbEntity
  8
CONTINUOUS1
100
AcDbLine
 10
21.06215332254201
 20
10.05104796080876
 30
0.0
 11
21.06215332254201
 21
10.05104796080876
 31
0.0
  0
LINE
  5
1080B
330
1F
100
AcDbEntity
  8
CENTER1
100
AcDbLine
 10
20.93715332254201
 20
8.038547960808772
 30
0.0
 11
21.187153322542
 21
8.03854796080877
 31
0.0
  0
LINE
  5
10827
330
1F
100
AcDbEntity
  8
CONTINUOUS1
100
AcDbLine
 10
20.79590332254201
 20
10.39479796080876
 30
0.0
 11
20.79590332254201
 21
9.919797960808768
 31
0.0
  0
LINE
  5
10828
330
1F
100
AcDbEntity
  8
CONTINUOUS1
100
AcDbLine
 10
20.79590332254201
 20
8.357297960808768
 30
0.0
 11
20.79590332254201
 21
7.88229796080877
 31
0.0
  0
LINE
  5
10829
330
1F
100
AcDbEntity
  8
CONTINUOUS1
100
AcDbLine
 10
20.88965332254201
 20
9.826047960808768
 30
0.0
 11
21.23340332254201
 21
9.826047960808768
 31
0.0
  0
LINE
  5
1082A
330
1F
100
AcDbEntity
  8
CONTINUOUS1
100
AcDbLine
 10
20.88965332254201
 20
8.451047960808768
 30
0.0
 11
21.23340332254201
 21
8.45104796080877
 31
0.0
  0
ARC
  5
1082C
330
1F
100
AcDbEntity
  8
CONTINUOUS1
100
AcDbCircle
 10
15.98340332254201
 20
10.30104796080876
 30
0.0
 40
0.1875
100
AcDbArc
 50
90.0
 51
180.0
  0
ARC
  5
1082D
330
1F
100
AcDbEntity
  8
CONTINUOUS1
100
AcDbCircle
 10
15.98340332254201
 20
7.976047960808768
 30
0.0
 40
0.1875
100
AcDbArc
 50
180.0
 51
270.0000000000001
  0
ARC
  5
1082E
330
1F
100
AcDbEntity
  8
CONTINUOUS1
100
AcDbCircle
 10
21.139653322542
 20
10.30104796080876
 30
0.0
 40
0.1875
100
AcDbArc
 50
0.0
 51
90.0
  0
ARC
  5
1082F
330
1F
100
AcDbEntity
  8
CONTINUOUS1
100
AcDbCircle
 10
21.139653322542
 20
7.976047960808768
 30
0.0
 40
0.1875
100
AcDbArc
 50
269.9999999999998
 51
0.0
  0
LINE
  5
10836
330
1F
100
AcDbEntity
  8
CONTINUOUS1
100
AcDbLine
 10
15.98340332254201
 20
10.48854796080876
 30
0.0
 11
21.139653322542
 21
10.48854796080876
 31
0.0
  0
LINE
  5
10837
330
1F
100
AcDbEntity
  8
CONTINUOUS1
100
AcDbLine
 10
15.98340332254201
 20
7.788547960808791
 30
0.0
 11
21.139653322542
 21
7.788547960808768
 31
0.0
  0
ARC
  5
10839
330
1F
100
AcDbEntity
  8
CONTINUOUS1
100
AcDbCircle
 10
20.70215332254201
 20
10.39479796080876
 30
0.0
 40
0.09375
100
AcDbArc
 50
0.0
 51
90.0
  0
ARC
  5
1083A
330
1F
100
AcDbEntity
  8
CONTINUOUS1
100
AcDbCircle
 10
20.70215332254201
 20
7.88229796080877
 30
0.0
 40
0.09375
100
AcDbArc
 50
270.0000000000003
 51
0.0
  0
ARC
  5
1083C
330
1F
100
AcDbEntity
  8
CONTINUOUS1
100
AcDbCircle
 10
20.88965332254201
 20
9.919797960808768
 30
0.0
 40
0.09375
100
AcDbArc
 50
179.9999999999998
 51
270.0
  0
ARC
  5
1083D
330
1F
100
AcDbEntity
  8
CONTINUOUS1
100
AcDbCircle
 10
20.88965332254201
 20
8.357297960808768
 30
0.0
 40
0.09375
100
AcDbArc
 50
90.0
 51
180.0
  0
ARC
  5
10844
330
1F
100
AcDbEntity
  8
CONTINUOUS1
100
AcDbCircle
 10
21.23340332254201
 20
8.54479796080877
 30
0.0
 40
0.09375
100
AcDbArc
 50
270.0
 51
0.0
  0
ARC
  5
10845
330
1F
100
AcDbEntity
  8
CONTINUOUS1
100
AcDbCircle
 10
21.23340332254201
 20
9.732297960808768
 30
0.0
 40
0.09375
100
AcDbArc
 50
0.0
 51
90.0
  0
ARC
  5
10887
330
1F
100
AcDbEntity
  8
CONTINUOUS1
100
AcDbCircle
 10
20.57715332254201
 20
10.26979796080876
 30
0.0
 40
0.140625
100
AcDbArc
 50
130.5516029323692
 51
269.4483970676316
  0
LINE
  5
10888
330
1F
100
AcDbEntity
  8
CONTINUOUS1
100
AcDbLine
 10
20.48543272885703
 20
10.28919886785136
 30
0.0
 11
20.53129302569952
 21
10.27949841433006
 31
0.0
  0
ARC
  5
10889
330
1F
100
AcDbEntity
  8
CONTINUOUS1
100
AcDbCircle
 10
20.57715332254201
 20
10.26979796080876
 30
0.0
 40
0.046875
100
AcDbArc
 50
155.5846914028066
 51
180.5287793655115
  0
ARC
  5
1088A
330
1F
100
AcDbEntity
  8
CONTINUOUS1
100
AcDbCircle
 10
20.57715332254201
 20
10.26979796080876
 30
0.0
 40
0.0625
100
AcDbArc
 50
5.52248781406659
 51
34.47751218592673
  0
ARC
  5
1088B
330
1F
100
AcDbEntity
  8
CONTINUOUS1
100
AcDbCircle
 10
20.57715332254201
 20
10.26979796080876
 30
0.0
 40
0.140625
100
AcDbArc
 50
269.4483970676313
 51
310.5516029323678
  0
ARC
  5
1088C
330
1F
100
AcDbEntity
  8
CONTINUOUS1
100
AcDbCircle
 10
20.66349906348408
 20
10.16888426908453
 30
0.0
 40
0.0078125
100
AcDbArc
 50
204.9999999999994
 51
310.5516029323682
  0
LINE
  5
1088D
330
1F
100
AcDbEntity
  8
CONTINUOUS1
100
AcDbLine
 10
20.62301361938449
 20
10.26009750728746
 30
0.0
 11
20.66887391622698
 21
10.25039705376616
 31
0.0
  0
ARC
  5
1088E
330
1F
100
AcDbEntity
  8
CONTINUOUS1
100
AcDbCircle
 10
20.57715332254201
 20
10.26979796080876
 30
0.0
 40
0.046875
100
AcDbArc
 50
335.5846914028066
 51
0.5287793655046175
  0
LINE
  5
1088F
330
1F
100
AcDbEntity
  8
CONTINUOUS1
100
AcDbLine
 10
20.65641853389785
 20
10.16558256391467
 30
0.0
 11
20.61960894870565
 21
10.24452097410044
 31
0.0
  0
ARC
  5
10890
330
1F
100
AcDbEntity
  8
CONTINUOUS1
100
AcDbCircle
 10
20.57587471819441
 20
10.13699161560202
 30
0.0
 40
0.0078125
100
AcDbArc
 50
269.4483970676319
 51
15.0000000000135
  0
ARC
  5
10891
330
1F
100
AcDbEntity
  8
CONTINUOUS1
100
AcDbCircle
 10
20.62695029730554
 20
10.24719300647017
 30
0.0
 40
0.0078125
100
AcDbArc
 50
155.5846914028111
 51
200.0
  0
LINE
  5
10892
330
1F
100
AcDbEntity
  8
CONTINUOUS1
100
AcDbLine
 10
20.54096844825718
 20
10.23999996594348
 30
0.0
 11
20.52563154554931
 21
10.23441778987199
 31
0.0
  0
ARC
  5
10893
330
1F
100
AcDbEntity
  8
CONTINUOUS1
100
AcDbCircle
 10
20.55353681130664
 20
10.22047268277285
 30
0.0
 40
0.0078125
100
AcDbArc
 50
20.00000000000006
 51
64.41530859718882
  0
ARC
  5
10894
330
1F
100
AcDbEntity
  8
CONTINUOUS1
100
AcDbCircle
 10
20.57715332254201
 20
10.26979796080876
 30
0.0
 40
0.046875
100
AcDbArc
 50
219.4712206344933
 51
244.4153085971934
  0
ARC
  5
10895
330
1F
100
AcDbEntity
  8
CONTINUOUS1
100
AcDbCircle
 10
20.57715332254201
 20
10.26979796080876
 30
0.0
 40
0.0625
100
AcDbArc
 50
185.5224878140717
 51
214.4775121859314
  0
LINE
  5
10896
330
1F
100
AcDbEntity
  8
CONTINUOUS1
100
AcDbLine
 10
20.53028031877825
 20
10.26936536034304
 30
0.0
 11
20.51494341607039
 21
10.26378318427155
 31
0.0
  0
LINE
  5
10897
330
1F
100
AcDbEntity
  8
CONTINUOUS1
100
AcDbLine
 10
20.54825762831787
 20
10.23288855170614
 30
0.0
 11
20.51936193409372
 21
10.19597914260351
 31
0.0
  0
LINE
  5
10898
330
1F
100
AcDbEntity
  8
CONTINUOUS1
100
AcDbLine
 10
20.58342101371229
 20
10.13901363939188
 30
0.0
 11
20.56087815990653
 21
10.22314471514258
 31
0.0
  0
LINE
  5
10899
330
1F
100
AcDbEntity
  8
CONTINUOUS1
100
AcDbLine
 10
20.63936322901363
 20
10.27581273734598
 30
0.0
 11
20.62402632630576
 21
10.27023056127448
 31
0.0
  0
LINE
  5
1089B
330
1F
100
AcDbEntity
  8
CONTINUOUS1
100
AcDbLine
 10
20.53469769637836
 20
10.29507494751709
 30
0.0
 11
20.49788811118616
 21
10.37401335770285
 31
0.0
  0
ARC
  5
1089C
330
1F
100
AcDbEntity
  8
CONTINUOUS1
100
AcDbCircle
 10
20.52735634777847
 20
10.29240291514736
 30
0.0
 40
0.0078125
100
AcDbArc
 50
335.5846914028112
 51
20.00000000001308
  0
LINE
  5
1089D
330
1F
100
AcDbEntity
  8
CONTINUOUS1
100
AcDbLine
 10
20.59342848517748
 20
10.31645120647494
 30
0.0
 11
20.57088563137172
 21
10.40058228222564
 31
0.0
  0
LINE
  5
1089E
330
1F
100
AcDbEntity
  8
CONTINUOUS1
100
AcDbLine
 10
20.60604901676615
 20
10.30670736991138
 30
0.0
 11
20.63494471099029
 21
10.34361677901401
 31
0.0
  0
ARC
  5
1089F
330
1F
100
AcDbEntity
  8
CONTINUOUS1
100
AcDbCircle
 10
20.60076983377737
 20
10.31912323884467
 30
0.0
 40
0.0078125
100
AcDbArc
 50
199.999999999987
 51
244.4153085971887
  0
ARC
  5
108A0
330
1F
100
AcDbEntity
  8
CONTINUOUS1
100
AcDbCircle
 10
20.57715332254201
 20
10.26979796080876
 30
0.0
 40
0.046875
100
AcDbArc
 50
39.47122063448576
 51
64.41530859719347
  0
ARC
  5
108A1
330
1F
100
AcDbEntity
  8
CONTINUOUS1
100
AcDbCircle
 10
20.57715332254201
 20
10.26979796080876
 30
0.0
 40
0.140625
100
AcDbArc
 50
89.44839706763072
 51
130.5516029323692
  0
ARC
  5
108A2
330
1F
100
AcDbEntity
  8
CONTINUOUS1
100
AcDbCircle
 10
20.5784319268896
 20
10.4026043060155
 30
0.0
 40
0.0078125
100
AcDbArc
 50
89.44839706762728
 51
195.0000000000016
  0
ARC
  5
108A3
330
1F
100
AcDbEntity
  8
CONTINUOUS1
100
AcDbCircle
 10
20.49080758159993
 20
10.370711652533
 30
0.0
 40
0.0078125
100
AcDbArc
 50
24.99999999999827
 51
130.5516029323726
  0
LINE
  5
108A4
330
1F
100
AcDbEntity
  8
CONTINUOUS1
100
AcDbLine
 10
20.6286750995347
 20
10.30517813174554
 30
0.0
 11
20.61333819682684
 21
10.29959595567404
 31
0.0
  0
ARC
  5
108A6
330
1F
100
AcDbEntity
  8
CONTINUOUS1
100
AcDbCircle
 10
20.57715332254201
 20
10.26979796080876
 30
0.0
 40
0.140625
100
AcDbArc
 50
310.5516029323678
 51
89.44839706763072
  0
ARC
  5
108C7
330
1F
100
AcDbEntity
  8
CONTINUOUS1
100
AcDbCircle
 10
20.57715332254201
 20
8.038547960808772
 30
0.0
 40
0.140625
100
AcDbArc
 50
270.5516029323692
 51
49.44839706763218
  0
ARC
  5
108C8
330
1F
100
AcDbEntity
  8
CONTINUOUS1
100
AcDbCircle
 10
20.57715332254201
 20
8.038547960808772
 30
0.0
 40
0.0625
100
AcDbArc
 50
325.5224878140732
 51
354.4775121859334
  0
ARC
  5
108C9
330
1F
100
AcDbEntity
  8
CONTINUOUS1
100
AcDbCircle
 10
20.57715332254201
 20
8.038547960808772
 30
0.0
 40
0.046875
100
AcDbArc
 50
179.4712206344884
 51
204.4153085971933
  0
LINE
  5
108CA
330
1F
100
AcDbEntity
  8
CONTINUOUS1
100
AcDbLine
 10
20.48543272885703
 20
8.019147053766172
 30
0.0
 11
20.53129302569952
 21
8.028847507287473
 31
0.0
  0
ARC
  5
108CB
330
1F
100
AcDbEntity
  8
CONTINUOUS1
100
AcDbCircle
 10
20.57715332254201
 20
8.038547960808772
 30
0.0
 40
0.140625
100
AcDbArc
 50
90.55160293236836
 51
229.4483970676306
  0
ARC
  5
108CD
330
1F
100
AcDbEntity
  8
CONTINUOUS1
100
AcDbCircle
 10
20.57715332254201
 20
8.038547960808772
 30
0.0
 40
0.140625
100
AcDbArc
 50
49.44839706763218
 51
90.55160293236863
  0
LINE
  5
108CE
330
1F
100
AcDbEntity
  8
CONTINUOUS1
100
AcDbLine
 10
20.58342101371229
 20
8.169332282225648
 30
0.0
 11
20.56087815990653
 21
8.08520120647495
 31
0.0
  0
LINE
  5
108CF
330
1F
100
AcDbEntity
  8
CONTINUOUS1
100
AcDbLine
 10
20.54825762831787
 20
8.075457369911395
 30
0.0
 11
20.51936193409372
 21
8.112366779014021
 31
0.0
  0
LINE
  5
108D0
330
1F
100
AcDbEntity
  8
CONTINUOUS1
100
AcDbLine
 10
20.53028031877825
 20
8.03898056127449
 30
0.0
 11
20.51494341607039
 21
8.044562737345986
 31
0.0
  0
ARC
  5
108D1
330
1F
100
AcDbEntity
  8
CONTINUOUS1
100
AcDbCircle
 10
20.57715332254201
 20
8.038547960808772
 30
0.0
 40
0.0625
100
AcDbArc
 50
145.5224878140685
 51
174.4775121859282
  0
ARC
  5
108D2
330
1F
100
AcDbEntity
  8
CONTINUOUS1
100
AcDbCircle
 10
20.57715332254201
 20
8.038547960808772
 30
0.0
 40
0.046875
100
AcDbArc
 50
115.5846914028065
 51
140.5287793655066
  0
ARC
  5
108D3
330
1F
100
AcDbEntity
  8
CONTINUOUS1
100
AcDbCircle
 10
20.55353681130664
 20
8.087873238844679
 30
0.0
 40
0.0078125
100
AcDbArc
 50
295.5846914028111
 51
339.9999999999999
  0
LINE
  5
108D4
330
1F
100
AcDbEntity
  8
CONTINUOUS1
100
AcDbLine
 10
20.54096844825718
 20
8.068345955674049
 30
0.0
 11
20.52563154554931
 21
8.073928131745544
 31
0.0
  0
ARC
  5
108D5
330
1F
100
AcDbEntity
  8
CONTINUOUS1
100
AcDbCircle
 10
20.57587471819441
 20
8.17135430601551
 30
0.0
 40
0.0078125
100
AcDbArc
 50
344.9999999999864
 51
90.55160293236808
  0
LINE
  5
108D6
330
1F
100
AcDbEntity
  8
CONTINUOUS1
100
AcDbLine
 10
20.63936322901363
 20
8.032533184271553
 30
0.0
 11
20.62402632630576
 21
8.038115360343056
 31
0.0
  0
ARC
  5
108D7
330
1F
100
AcDbEntity
  8
CONTINUOUS1
100
AcDbCircle
 10
20.62695029730554
 20
8.061152915147362
 30
0.0
 40
0.0078125
100
AcDbArc
 50
159.9999999999999
 51
204.4153085971887
  0
LINE
  5
108D8
330
1F
100
AcDbEntity
  8
CONTINUOUS1
100
AcDbLine
 10
20.65641853389785
 20
8.142763357702856
 30
0.0
 11
20.61960894870565
 21
8.063824947517094
 31
0.0
  0
ARC
  5
108D9
330
1F
100
AcDbEntity
  8
CONTINUOUS1
100
AcDbCircle
 10
20.57715332254201
 20
8.038547960808772
 30
0.0
 40
0.046875
100
AcDbArc
 50
359.4712206344953
 51
24.41530859719332
  0
LINE
  5
108DA
330
1F
100
AcDbEntity
  8
CONTINUOUS1
100
AcDbLine
 10
20.62301361938449
 20
8.048248414330073
 30
0.0
 11
20.66887391622698
 21
8.057948867851372
 31
0.0
  0
ARC
  5
108DB
330
1F
100
AcDbEntity
  8
CONTINUOUS1
100
AcDbCircle
 10
20.66349906348408
 20
8.139461652533006
 30
0.0
 40
0.0078125
100
AcDbArc
 50
49.44839706763178
 51
155.0000000000005
  0
LINE
  5
108DD
330
1F
100
AcDbEntity
  8
CONTINUOUS1
100
AcDbLine
 10
20.59342848517748
 20
7.991894715142588
 30
0.0
 11
20.57088563137172
 21
7.907763639391891
 31
0.0
  0
ARC
  5
108DE
330
1F
100
AcDbEntity
  8
CONTINUOUS1
100
AcDbCircle
 10
20.49080758159993
 20
7.937634269084533
 30
0.0
 40
0.0078125
100
AcDbArc
 50
229.4483970676273
 51
335.0000000000016
  0
ARC
  5
108DF
330
1F
100
AcDbEntity
  8
CONTINUOUS1
100
AcDbCircle
 10
20.5784319268896
 20
7.905741615602028
 30
0.0
 40
0.0078125
100
AcDbArc
 50
164.9999999999983
 51
270.5516029323726
  0
ARC
  5
108E0
330
1F
100
AcDbEntity
  8
CONTINUOUS1
100
AcDbCircle
 10
20.57715332254201
 20
8.038547960808772
 30
0.0
 40
0.140625
100
AcDbArc
 50
229.4483970676306
 51
270.5516029323692
  0
ARC
  5
108E1
330
1F
100
AcDbEntity
  8
CONTINUOUS1
100
AcDbCircle
 10
20.52735634777847
 20
8.015943006470177
 30
0.0
 40
0.0078125
100
AcDbArc
 50
339.9999999999868
 51
24.41530859718873
  0
LINE
  5
108E2
330
1F
100
AcDbEntity
  8
CONTINUOUS1
100
AcDbLine
 10
20.53469769637836
 20
8.013270974100443
 30
0.0
 11
20.49788811118616
 21
7.934332563914685
 31
0.0
  0
LINE
  5
108E3
330
1F
100
AcDbEntity
  8
CONTINUOUS1
100
AcDbLine
 10
20.6286750995347
 20
8.003167789871994
 30
0.0
 11
20.61333819682684
 21
8.008749965943495
 31
0.0
  0
ARC
  5
108E4
330
1F
100
AcDbEntity
  8
CONTINUOUS1
100
AcDbCircle
 10
20.57715332254201
 20
8.038547960808772
 30
0.0
 40
0.046875
100
AcDbArc
 50
295.5846914028064
 51
320.5287793655141
  0
ARC
  5
108E5
330
1F
100
AcDbEntity
  8
CONTINUOUS1
100
AcDbCircle
 10
20.60076983377737
 20
7.989222682772858
 30
0.0
 40
0.0078125
100
AcDbArc
 50
115.5846914028112
 51
160.0000000000129
  0
LINE
  5
108E6
330
1F
100
AcDbEntity
  8
CONTINUOUS1
100
AcDbLine
 10
20.60604901676615
 20
8.00163855170615
 30
0.0
 11
20.63494471099029
 21
7.964729142603527
 31
0.0
  0
LINE
  5
10A03
330
1F
100
AcDbEntity
  8
CONTINUOUS1
100
AcDbLine
 10
16.56441059862598
 20
7.788547960808768
 30
0.0
 11
16.56441059862598
 21
7.663547960808767
 31
0.0
  0
LINE
  5
10A04
330
1F
100
AcDbEntity
  8
CONTINUOUS1
100
AcDbLine
 10
17.56441059862598
 20
7.788547960808767
 30
0.0
 11
17.56441059862598
 21
7.663547960808767
 31
0.0
  0
LINE
  5
10A06
330
1F
100
AcDbEntity
  8
CONTINUOUS1
100
AcDbLine
 10
16.56441059862598
 20
7.663547960808767
 30
0.0
 11
17.56441059862598
 21
7.663547960808767
 31
0.0
  0
LINE
  5
10A21
330
1F
100
AcDbEntity
  8
CONTINUOUS1
100
AcDbLine
 10
21.32715332254201
 20
9.88854796080877
 30
0.0
 11
21.452153322542
 21
9.888547960808766
 31
0.0
  0
LINE
  5
10A22
330
1F
100
AcDbEntity
  8
CONTINUOUS1
100
AcDbLine
 10
21.32715332254201
 20
8.388547960808768
 30
0.0
 11
21.45215332254201
 21
8.38854796080877
 31
0.0
  0
LINE
  5
10A23
330
1F
100
AcDbEntity
  8
CONTINUOUS1
100
AcDbLine
 10
21.452153322542
 20
9.888547960808766
 30
0.0
 11
21.45215332254201
 21
8.38854796080877
 31
0.0
  0
LINE
  5
10A3A
330
1F
100
AcDbEntity
  8
CONTINUOUS1
100
AcDbLine
 10
21.59603332254199
 20
9.816607960808768
 30
0.0
 11
21.59603332254201
 21
8.460487960808766
 31
0.0
  0
LINE
  5
10A3B
330
1F
100
AcDbEntity
  8
CONTINUOUS1
100
AcDbLine
 10
21.73991332254201
 20
9.879107960808768
 30
0.0
 11
21.73991332254201
 21
8.397987960808769
 31
0.0
  0
LINE
  5
10A3C
330
1F
100
AcDbEntity
  8
CONTINUOUS1
100
AcDbLine
 10
21.883793322542
 20
9.879107960808767
 30
0.0
 11
21.88379332254201
 21
8.397987960808773
 31
0.0
  0
ARC
  5
10A40
330
1F
100
AcDbEntity
  8
CONTINUOUS1
100
AcDbCircle
 10
21.524093322542
 20
9.785357960808765
 30
0.0
 40
0.07194
100
AcDbArc
 50
89.99999999999834
 51
180.0000000000004
  0
ARC
  5
10A41
330
1F
100
AcDbEntity
  8
CONTINUOUS1
100
AcDbCircle
 10
21.52409332254201
 20
8.491737960808769
 30
0.0
 40
0.07194
100
AcDbArc
 50
180.0000000000003
 51
270.0000000000008
  0
ARC
  5
10A42
330
1F
100
AcDbEntity
  8
CONTINUOUS1
100
AcDbCircle
 10
21.524093322542
 20
9.785357960808763
 30
0.0
 40
0.07194
100
AcDbArc
 50
0.0000000000002544
 51
89.99999999999833
  0
ARC
  5
10A43
330
1F
100
AcDbEntity
  8
CONTINUOUS1
100
AcDbCircle
 10
21.52409332254201
 20
8.491737960808773
 30
0.0
 40
0.07194
100
AcDbArc
 50
270.0000000000008
 51
0.0000000000002544
  0
ARC
  5
10A48
330
1F
100
AcDbEntity
  8
CONTINUOUS1
100
AcDbCircle
 10
21.667973322542
 20
9.816607960808767
 30
0.0
 40
0.07194
100
AcDbArc
 50
0.0000000000002544
 51
89.99999999999833
  0
LINE
  5
10A49
330
1F
100
AcDbEntity
  8
CONTINUOUS1
100
AcDbLine
 10
21.66797332254201
 20
9.888547960808768
 30
0.0
 11
21.667973322542
 21
9.888547960808766
 31
0.0
  0
ARC
  5
10A4A
330
1F
100
AcDbEntity
  8
CONTINUOUS1
100
AcDbCircle
 10
21.667973322542
 20
9.816607960808768
 30
0.0
 40
0.07194
100
AcDbArc
 50
89.99999999999834
 51
180.0000000000004
  0
ARC
  5
10A4B
330
1F
100
AcDbEntity
  8
CONTINUOUS1
100
AcDbCircle
 10
21.66797332254201
 20
8.460487960808769
 30
0.0
 40
0.07194
100
AcDbArc
 50
270.0000000000008
 51
0.0000000000002544
  0
LINE
  5
10A4C
330
1F
100
AcDbEntity
  8
CONTINUOUS1
100
AcDbLine
 10
21.66797332254201
 20
8.388547960808766
 30
0.0
 11
21.66797332254201
 21
8.38854796080877
 31
0.0
  0
ARC
  5
10A4D
330
1F
100
AcDbEntity
  8
CONTINUOUS1
100
AcDbCircle
 10
21.66797332254201
 20
8.460487960808766
 30
0.0
 40
0.07194
100
AcDbArc
 50
180.0000000000003
 51
270.0000000000008
  0
ARC
  5
10A4E
330
1F
100
AcDbEntity
  8
CONTINUOUS1
100
AcDbCircle
 10
21.811853322542
 20
9.879107960808767
 30
0.0
 40
0.07194
100
AcDbArc
 50
0.0000000000002544
 51
89.99999999999833
  0
ARC
  5
10A50
330
1F
100
AcDbEntity
  8
CONTINUOUS1
100
AcDbCircle
 10
21.811853322542
 20
9.879107960808768
 30
0.0
 40
0.07194
100
AcDbArc
 50
89.99999999999834
 51
180.0000000000004
  0
ARC
  5
10A51
330
1F
100
AcDbEntity
  8
CONTINUOUS1
100
AcDbCircle
 10
21.81185332254201
 20
8.397987960808773
 30
0.0
 40
0.07194
100
AcDbArc
 50
270.0000000000008
 51
0.0000000000002544
  0
LINE
  5
10A52
330
1F
100
AcDbEntity
  8
CONTINUOUS1
100
AcDbLine
 10
21.81185332254202
 20
8.32604796080877
 30
0.0
 11
21.81185332254201
 21
8.326047960808773
 31
0.0
  0
ARC
  5
10A53
330
1F
100
AcDbEntity
  8
CONTINUOUS1
100
AcDbCircle
 10
21.81185332254202
 20
8.397987960808769
 30
0.0
 40
0.07194
100
AcDbArc
 50
180.0000000000003
 51
270.0000000000008
  0
LINE
  5
10FD0
330
1F
100
AcDbEntity
  8
CONTINUOUS1
100
AcDbLine
 10
21.182153322542
 20
10.28354796080876
 30
0.0
 11
21.182153322542
 21
10.19354796080877
 31
0.0
  0
LINE
  5
10FD1
330
1F
100
AcDbEntity
  8
CONTINUOUS1
100
AcDbLine
 10
20.94215332254201
 20
10.28354796080876
 30
0.0
 11
20.94215332254201
 21
10.19354796080877
 31
0.0
  0
LINE
  5
10FD2
330
1F
100
AcDbEntity
  8
CENTER1
100
AcDbLine
 10
21.06215332254201
 20
10.07354796080877
 30
0.0
 11
21.06215332254201
 21
10.07354796080877
 31
0.0
  0
LINE
  5
10FD3
330
1F
100
AcDbEntity
  8
CENTER1
100
AcDbLine
 10
21.06215332254201
 20
10.40354796080876
 30
0.0
 11
21.06215332254201
 21
10.40354796080876
 31
0.0
  0
ARC
  5
10FD4
330
1F
100
AcDbEntity
  8
CONTINUOUS1
100
AcDbCircle
 10
21.06215332254201
 20
10.28354796080876
 30
0.0
 40
0.12
100
AcDbArc
 50
359.9999999999997
 51
90.0
  0
ARC
  5
10FD5
330
1F
100
AcDbEntity
  8
CONTINUOUS1
100
AcDbCircle
 10
21.06215332254201
 20
10.28354796080876
 30
0.0
 40
0.12
100
AcDbArc
 50
90.0
 51
179.9999999999997
  0
ARC
  5
10FD6
330
1F
100
AcDbEntity
  8
CONTINUOUS1
100
AcDbCircle
 10
21.06215332254201
 20
10.19354796080877
 30
0.0
 40
0.12
100
AcDbArc
 50
179.9999999999995
 51
270.0
  0
ARC
  5
10FD7
330
1F
100
AcDbEntity
  8
CONTINUOUS1
100
AcDbCircle
 10
21.06215332254201
 20
10.19354796080877
 30
0.0
 40
0.12
100
AcDbArc
 50
270.0
 51
0.0
  0
ARC
  5
10FE4
330
1F
100
AcDbEntity
  8
CONTINUOUS1
100
AcDbCircle
 10
21.06215332254201
 20
8.08354796080877
 30
0.0
 40
0.12
100
AcDbArc
 50
90.0
 51
179.9999999999997
  0
LINE
  5
10FE5
330
1F
100
AcDbEntity
  8
CONTINUOUS1
100
AcDbLine
 10
20.94215332254201
 20
8.08354796080877
 30
0.0
 11
20.94215332254201
 21
7.993547960808772
 31
0.0
  0
ARC
  5
10FE6
330
1F
100
AcDbEntity
  8
CONTINUOUS1
100
AcDbCircle
 10
21.06215332254201
 20
7.99354796080877
 30
0.0
 40
0.12
100
AcDbArc
 50
179.9999999999995
 51
270.0
  0
ARC
  5
10FE7
330
1F
100
AcDbEntity
  8
CONTINUOUS1
100
AcDbCircle
 10
21.06215332254201
 20
7.99354796080877
 30
0.0
 40
0.12
100
AcDbArc
 50
270.0
 51
0.0
  0
ARC
  5
10FE8
330
1F
100
AcDbEntity
  8
CONTINUOUS1
100
AcDbCircle
 10
21.06215332254201
 20
8.08354796080877
 30
0.0
 40
0.12
100
AcDbArc
 50
359.9999999999997
 51
90.0
  0
LINE
  5
10FE9
330
1F
100
AcDbEntity
  8
CONTINUOUS1
100
AcDbLine
 10
21.182153322542
 20
8.08354796080877
 30
0.0
 11
21.182153322542
 21
7.99354796080877
 31
0.0
  0
LINE
  5
10FEA
330
1F
100
AcDbEntity
  8
CENTER1
100
AcDbLine
 10
21.06215332254201
 20
8.226047960808768
 30
0.0
 11
21.06215332254201
 21
7.851047960808768
 31
0.0
  0
LINE
  5
1175A
102
{ACAD_REACTORS
330
11A40
102
}
330
1F
100
AcDbEntity
  8
CONTINUOUS1
100
AcDbLine
 10
17.50061892979823
 20
8.359656593818449
 30
0.0
 11
17.50061892979823
 21
9.927315521613742
 31
0.0
  0
LINE
  5
1175B
102
{ACAD_REACTORS
330
11A40
102
}
330
1F
100
AcDbEntity
  8
CONTINUOUS1
100
AcDbLine
 10
17.72457020519755
 20
8.359656593818449
 30
0.0
 11
17.72457020519755
 21
9.927315521613742
 31
0.0
  0
LINE
  5
1175C
102
{ACAD_REACTORS
330
11A40
102
}
330
1F
100
AcDbEntity
  8
CONTINUOUS1
100
AcDbLine
 10
17.50061892979823
 20
8.359656593818449
 30
0.0
 11
17.72457020519755
 21
8.359656593818449
 31
0.0
  0
LINE
  5
1175E
102
{ACAD_REACTORS
330
11A40
102
}
330
1F
100
AcDbEntity
  8
CONTINUOUS1
100
AcDbLine
 10
17.50994873993136
 20
8.583607869217779
 30
0.0
 11
17.71524039506442
 21
8.583607869217779
 31
0.0
  0
LINE
  5
1175F
102
{ACAD_REACTORS
330
11A40
102
}
330
1F
100
AcDbEntity
  8
CONTINUOUS1
100
AcDbLine
 10
17.50994873993136
 20
8.583607869217779
 30
0.0
 11
17.50994873993136
 21
9.917984218472101
 31
0.0
  0
LINE
  5
11760
102
{ACAD_REACTORS
330
11A40
102
}
330
1F
100
AcDbEntity
  8
CONTINUOUS1
100
AcDbLine
 10
17.71524039506442
 20
8.583607869217779
 30
0.0
 11
17.71524039506442
 21
9.917984218472101
 31
0.0
  0
LINE
  5
11853
102
{ACAD_REACTORS
330
11A40
102
}
330
1F
100
AcDbEntity
  8
CONTINUOUS1
100
AcDbLine
 10
17.50061892979823
 20
9.927315521613742
 30
0.0
 11
17.72457020519755
 21
9.927315521613742
 31
0.0
  0
LINE
  5
11854
102
{ACAD_REACTORS
330
11A40
102
}
330
1F
100
AcDbEntity
  8
CONTINUOUS1
100
AcDbLine
 10
17.50994873993136
 20
9.917984218472101
 30
0.0
 11
17.71524039506441
 21
9.917984218472101
 31
0.0
  0
TEXT
  5
11855
330
1F
100
AcDbEntity
  8
TEXT1
100
AcDbText
 10
17.66037083958308
 20
8.736632353785283
 30
0.0
 40
0.0955525441703796
  1
Telemecanique
 50
90.0
  7
ROMANS
 72
     1
 11
17.61259456749789
 21
9.250796043844944
 31
0.0
100
AcDbText
 73
     2
  0
CIRCLE
  5
11859
102
{ACAD_REACTORS
330
11A40
102
}
330
1F
100
AcDbEntity
  8
CONTINUOUS1
100
AcDbCircle
 10
17.61259456749789
 20
8.471632231518112
 30
0.0
 40
0.0746504251331091
  0
CIRCLE
  5
1185A
330
1F
100
AcDbEntity
  8
CONTINUOUS1
100
AcDbCircle
 10
17.61259456749789
 20
8.471632231518112
 30
0.0
 40
0.0653191219914705
  0
ARC
  5
11864
330
1F
100
AcDbEntity
  8
CONTINUOUS1
100
AcDbCircle
 10
17.61259456749789
 20
8.471632231518112
 30
0.0
 40
0.0559878188498318
100
AcDbArc
 50
203.5564643091011
 51
228.1896851042211
  0
LINE
  5
11868
330
1F
100
AcDbEntity
  8
CONTINUOUS1
100
AcDbLine
 10
17.56127240021888
 20
8.449256552637988
 30
0.0
 11
17.56127240021888
 21
8.494007910398243
 31
0.0
  0
LINE
  5
11869
330
1F
100
AcDbEntity
  8
CONTINUOUS1
100
AcDbLine
 10
17.57060370336052
 20
8.494960489372211
 30
0.0
 11
17.57060370336052
 21
8.485629186230573
 31
0.0
  0
LINE
  5
1186A
330
1F
100
AcDbEntity
  8
CONTINUOUS1
100
AcDbLine
 10
17.57526935493134
 20
8.448303973664016
 30
0.0
 11
17.57526935493134
 21
8.429901375231393
 31
0.0
  0
LINE
  5
11870
330
1F
100
AcDbEntity
  8
CONTINUOUS1
100
AcDbLine
 10
17.57526935493134
 20
8.466966579947294
 30
0.0
 11
17.58460065807298
 21
8.466966579947294
 31
0.0
  0
LINE
  5
11871
330
1F
100
AcDbEntity
  8
CONTINUOUS1
100
AcDbLine
 10
17.57526935493134
 20
8.476297883088934
 30
0.0
 11
17.58460065807298
 21
8.476297883088934
 31
0.0
  0
LINE
  5
11873
330
1F
100
AcDbEntity
  8
CONTINUOUS1
100
AcDbLine
 10
17.57060370336052
 20
8.485629186230573
 30
0.0
 11
17.57526935493134
 21
8.485629186230573
 31
0.0
  0
LINE
  5
11875
330
1F
100
AcDbEntity
  8
CONTINUOUS1
100
AcDbLine
 10
17.57060370336052
 20
8.457635276805659
 30
0.0
 11
17.57526935493134
 21
8.457635276805659
 31
0.0
  0
LINE
  5
11876
330
1F
100
AcDbEntity
  8
CONTINUOUS1
100
AcDbLine
 10
17.57060370336052
 20
8.494960489372211
 30
0.0
 11
17.57526935493134
 21
8.494960489372211
 31
0.0
  0
LINE
  5
11877
330
1F
100
AcDbEntity
  8
CONTINUOUS1
100
AcDbLine
 10
17.57060370336052
 20
8.448303973664016
 30
0.0
 11
17.57526935493134
 21
8.448303973664016
 31
0.0
  0
LINE
  5
11878
330
1F
100
AcDbEntity
  8
CONTINUOUS1
100
AcDbLine
 10
17.57526935493134
 20
8.457635276805659
 30
0.0
 11
17.57526935493134
 21
8.466966579947294
 31
0.0
  0
LINE
  5
11879
330
1F
100
AcDbEntity
  8
CONTINUOUS1
100
AcDbLine
 10
17.57526935493134
 20
8.494960489372211
 30
0.0
 11
17.57526935493134
 21
8.513363087804837
 31
0.0
  0
LINE
  5
1187A
330
1F
100
AcDbEntity
  8
CONTINUOUS1
100
AcDbLine
 10
17.57060370336052
 20
8.457635276805659
 30
0.0
 11
17.57060370336052
 21
8.448303973664016
 31
0.0
  0
LINE
  5
1187B
330
1F
100
AcDbEntity
  8
CONTINUOUS1
100
AcDbLine
 10
17.57526935493134
 20
8.476297883088934
 30
0.0
 11
17.57526935493134
 21
8.485629186230573
 31
0.0
  0
LINE
  5
1187D
330
1F
100
AcDbEntity
  8
CONTINUOUS1
100
AcDbLine
 10
17.58460065807298
 20
8.423145358091677
 30
0.0
 11
17.58460065807298
 21
8.466966579947294
 31
0.0
  0
LINE
  5
11881
330
1F
100
AcDbEntity
  8
CONTINUOUS1
100
AcDbLine
 10
17.59393196121462
 20
8.435249671995261
 30
0.0
 11
17.59393196121462
 21
8.466966579947294
 31
0.0
  0
LINE
  5
11882
330
1F
100
AcDbEntity
  8
CONTINUOUS1
100
AcDbLine
 10
17.59859761278543
 20
8.514393634497251
 30
0.0
 11
17.59859761278543
 21
8.525842204017081
 31
0.0
  0
ARC
  5
11883
330
1F
100
AcDbEntity
  8
CONTINUOUS1
100
AcDbCircle
 10
17.61726021906871
 20
8.471632231518112
 30
0.0
 40
0.0466565157081932
100
AcDbArc
 50
113.5781784782018
 51
120.0000000000016
  0
LINE
  5
11885
330
1F
100
AcDbEntity
  8
CONTINUOUS1
100
AcDbLine
 10
17.59859761278543
 20
8.423823529580808
 30
0.0
 11
17.59859761278543
 21
8.417422259019147
 31
0.0
  0
LINE
  5
11886
330
1F
100
AcDbEntity
  8
CONTINUOUS1
100
AcDbLine
 10
17.59393196121462
 20
8.466966579947294
 30
0.0
 11
17.60792891592707
 21
8.466966579947294
 31
0.0
  0
LINE
  5
11887
330
1F
100
AcDbEntity
  8
CONTINUOUS1
100
AcDbLine
 10
17.59393196121462
 20
8.476297883088934
 30
0.0
 11
17.60792891592707
 21
8.476297883088934
 31
0.0
  0
ARC
  5
11889
330
1F
100
AcDbEntity
  8
CONTINUOUS1
100
AcDbCircle
 10
17.61726021906871
 20
8.471632231518112
 30
0.0
 40
0.0513221672790125
100
AcDbArc
 50
242.9643082105891
 51
248.676313736502
  0
LINE
  5
1188A
330
1F
100
AcDbEntity
  8
CONTINUOUS1
100
AcDbLine
 10
17.59393196121462
 20
8.425918368853626
 30
0.0
 11
17.63125717378117
 21
8.425918368853626
 31
0.0
  0
LINE
  5
1188B
330
1F
100
AcDbEntity
  8
CONTINUOUS1
100
AcDbLine
 10
17.59393196121462
 20
8.435249671995261
 30
0.0
 11
17.60792891592707
 21
8.435249671995261
 31
0.0
  0
LINE
  5
1188C
330
1F
100
AcDbEntity
  8
CONTINUOUS1
100
AcDbLine
 10
17.66391673477691
 20
8.462300928376475
 30
0.0
 11
17.66391673477691
 21
8.480963534659752
 31
0.0
  0
LINE
  5
1188F
330
1F
100
AcDbEntity
  8
CONTINUOUS1
100
AcDbLine
 10
17.64991978006445
 20
8.464633754161887
 30
0.0
 11
17.64991978006445
 21
8.466966579947294
 31
0.0
  0
LINE
  5
11892
330
1F
100
AcDbEntity
  8
CONTINUOUS1
100
AcDbLine
 10
17.64991978006445
 20
8.464633754161887
 30
0.0
 11
17.65458543163527
 21
8.462300928376475
 31
0.0
  0
LINE
  5
11893
330
1F
100
AcDbEntity
  8
CONTINUOUS1
100
AcDbLine
 10
17.64991978006445
 20
8.478630708874344
 30
0.0
 11
17.65458543163527
 21
8.480963534659752
 31
0.0
  0
LINE
  5
11894
330
1F
100
AcDbEntity
  8
CONTINUOUS1
100
AcDbLine
 10
17.64991978006445
 20
8.478630708874344
 30
0.0
 11
17.64991978006445
 21
8.476297883088934
 31
0.0
  0
LINE
  5
11895
330
1F
100
AcDbEntity
  8
CONTINUOUS1
100
AcDbLine
 10
17.65458543163527
 20
8.462300928376475
 30
0.0
 11
17.66391673477691
 21
8.462300928376475
 31
0.0
  0
LINE
  5
11896
330
1F
100
AcDbEntity
  8
CONTINUOUS1
100
AcDbLine
 10
17.65458543163527
 20
8.480963534659752
 30
0.0
 11
17.66391673477691
 21
8.480963534659752
 31
0.0
  0
LINE
  5
11897
330
1F
100
AcDbEntity
  8
CONTINUOUS1
100
AcDbLine
 10
17.64058847692281
 20
8.423145358091677
 30
0.0
 11
17.64058847692281
 21
8.466966579947294
 31
0.0
  0
LINE
  5
11898
330
1F
100
AcDbEntity
  8
CONTINUOUS1
100
AcDbLine
 10
17.63125717378118
 20
8.435249671995261
 30
0.0
 11
17.63125717378117
 21
8.466966579947294
 31
0.0
  0
LINE
  5
11899
330
1F
100
AcDbEntity
  8
CONTINUOUS1
100
AcDbLine
 10
17.62659152221035
 20
8.423823529580808
 30
0.0
 11
17.62659152221035
 21
8.417422259019147
 31
0.0
  0
ARC
  5
1189A
330
1F
100
AcDbEntity
  8
CONTINUOUS1
100
AcDbCircle
 10
17.60792891592707
 20
8.471632231518112
 30
0.0
 40
0.0513221672790125
100
AcDbArc
 50
291.3236862634979
 51
297.0356917894108
  0
LINE
  5
1189D
330
1F
100
AcDbEntity
  8
CONTINUOUS1
100
AcDbLine
 10
17.61726021906871
 20
8.494960489372209
 30
0.0
 11
17.61726021906871
 21
8.476297883088934
 31
0.0
  0
LINE
  5
1189E
330
1F
100
AcDbEntity
  8
CONTINUOUS1
100
AcDbLine
 10
17.60792891592707
 20
8.494960489372209
 30
0.0
 11
17.60792891592707
 21
8.476297883088934
 31
0.0
  0
ARC
  5
1189F
330
1F
100
AcDbEntity
  8
CONTINUOUS1
100
AcDbCircle
 10
17.60792891592707
 20
8.471632231518112
 30
0.0
 40
0.0466565157081932
100
AcDbArc
 50
59.99999999999826
 51
66.42182152179815
  0
LINE
  5
118A0
330
1F
100
AcDbEntity
  8
CONTINUOUS1
100
AcDbLine
 10
17.62659152221035
 20
8.514393634497251
 30
0.0
 11
17.62659152221035
 21
8.525842204017081
 31
0.0
  0
LINE
  5
118A1
330
1F
100
AcDbEntity
  8
CONTINUOUS1
100
AcDbLine
 10
17.60326326435625
 20
8.49962614094303
 30
0.0
 11
17.60326326435625
 21
8.508957444084668
 31
0.0
  0
LINE
  5
118A2
330
1F
100
AcDbEntity
  8
CONTINUOUS1
100
AcDbLine
 10
17.62192587063953
 20
8.508957444084668
 30
0.0
 11
17.60326326435625
 21
8.508957444084668
 31
0.0
  0
LINE
  5
118A3
330
1F
100
AcDbEntity
  8
CONTINUOUS1
100
AcDbLine
 10
17.60559609014166
 20
8.494960489372209
 30
0.0
 11
17.60326326435625
 21
8.499626140943028
 31
0.0
  0
LINE
  5
118A4
330
1F
100
AcDbEntity
  8
CONTINUOUS1
100
AcDbLine
 10
17.60559609014166
 20
8.494960489372209
 30
0.0
 11
17.60792891592707
 21
8.494960489372209
 31
0.0
  0
LINE
  5
118A5
330
1F
100
AcDbEntity
  8
CONTINUOUS1
100
AcDbLine
 10
17.61959304485412
 20
8.494960489372209
 30
0.0
 11
17.61726021906871
 21
8.494960489372209
 31
0.0
  0
LINE
  5
118A6
330
1F
100
AcDbEntity
  8
CONTINUOUS1
100
AcDbLine
 10
17.61959304485412
 20
8.494960489372209
 30
0.0
 11
17.62192587063953
 21
8.499626140943028
 31
0.0
  0
LINE
  5
118A7
330
1F
100
AcDbEntity
  8
CONTINUOUS1
100
AcDbLine
 10
17.62192587063953
 20
8.499626140943028
 30
0.0
 11
17.62192587063953
 21
8.508957444084668
 31
0.0
  0
LINE
  5
118A9
330
1F
100
AcDbEntity
  8
CONTINUOUS1
100
AcDbLine
 10
17.61726021906871
 20
8.476297883088934
 30
0.0
 11
17.63125717378117
 21
8.476297883088934
 31
0.0
  0
LINE
  5
118AA
330
1F
100
AcDbEntity
  8
CONTINUOUS1
100
AcDbLine
 10
17.61726021906871
 20
8.466966579947294
 30
0.0
 11
17.63125717378117
 21
8.466966579947294
 31
0.0
  0
LINE
  5
118AB
330
1F
100
AcDbEntity
  8
CONTINUOUS1
100
AcDbLine
 10
17.61726021906871
 20
8.435249671995261
 30
0.0
 11
17.63125717378118
 21
8.435249671995261
 31
0.0
  0
LINE
  5
118AC
330
1F
100
AcDbEntity
  8
CONTINUOUS1
100
AcDbLine
 10
17.58460065807298
 20
8.476297883088934
 30
0.0
 11
17.58460065807298
 21
8.52011910494455
 31
0.0
  0
LINE
  5
118AD
330
1F
100
AcDbEntity
  8
CONTINUOUS1
100
AcDbLine
 10
17.59393196121462
 20
8.476297883088934
 30
0.0
 11
17.59393196121462
 21
8.512037959373479
 31
0.0
  0
LINE
  5
118AE
330
1F
100
AcDbEntity
  8
CONTINUOUS1
100
AcDbLine
 10
17.60792891592707
 20
8.466966579947294
 30
0.0
 11
17.60792891592707
 21
8.435249671995261
 31
0.0
  0
LINE
  5
118AF
330
1F
100
AcDbEntity
  8
CONTINUOUS1
100
AcDbLine
 10
17.61726021906871
 20
8.466966579947294
 30
0.0
 11
17.61726021906871
 21
8.435249671995261
 31
0.0
  0
LINE
  5
118B0
330
1F
100
AcDbEntity
  8
CONTINUOUS1
100
AcDbLine
 10
17.63125717378117
 20
8.476297883088934
 30
0.0
 11
17.63125717378117
 21
8.512037959373479
 31
0.0
  0
LINE
  5
118B1
330
1F
100
AcDbEntity
  8
CONTINUOUS1
100
AcDbLine
 10
17.64058847692281
 20
8.476297883088934
 30
0.0
 11
17.64058847692281
 21
8.52011910494455
 31
0.0
  0
LINE
  5
118B2
330
1F
100
AcDbEntity
  8
CONTINUOUS1
100
AcDbLine
 10
17.64058847692281
 20
8.476297883088934
 30
0.0
 11
17.64991978006445
 21
8.476297883088934
 31
0.0
  0
LINE
  5
118B3
330
1F
100
AcDbEntity
  8
CONTINUOUS1
100
AcDbLine
 10
17.64058847692281
 20
8.466966579947294
 30
0.0
 11
17.64991978006445
 21
8.466966579947294
 31
0.0
  0
ARC
  5
118B4
330
1F
100
AcDbEntity
  8
CONTINUOUS1
100
AcDbCircle
 10
17.61259456749789
 20
8.471632231518112
 30
0.0
 40
0.0559878188498318
100
AcDbArc
 50
59.9999999999985
 51
75.52248781407005
  0
ARC
  5
118B5
330
1F
100
AcDbEntity
  8
CONTINUOUS1
100
AcDbCircle
 10
17.61259456749789
 20
8.471632231518112
 30
0.0
 40
0.0559878188498318
100
AcDbArc
 50
284.4775121859289
 51
300.0000000000014
  0
ARC
  5
118B6
330
1F
100
AcDbEntity
  8
CONTINUOUS1
100
AcDbCircle
 10
17.61259456749789
 20
8.471632231518112
 30
0.0
 40
0.0559878188498318
100
AcDbArc
 50
240.0000000000009
 51
255.5224878140689
  0
ARC
  5
118B7
330
1F
100
AcDbEntity
  8
CONTINUOUS1
100
AcDbCircle
 10
17.61259456749789
 20
8.471632231518112
 30
0.0
 40
0.0559878188498318
100
AcDbArc
 50
131.8103148957788
 51
156.4435356908988
  0
ARC
  5
118B8
330
1F
100
AcDbEntity
  8
CONTINUOUS1
100
AcDbCircle
 10
17.61259456749789
 20
8.471632231518112
 30
0.0
 40
0.0559878188498318
100
AcDbArc
 50
104.47751218593
 51
120.0000000000009
  0
HATCH
  5
11A40
330
1F
100
AcDbEntity
  8
CONTINUOUS1
100
AcDbHatch
 10
0.0
 20
0.0
 30
0.0
210
0.0
220
0.0
230
1.0
  2
ANSI37
 70
     0
 71
     1
 91
        3
 92
       16
 93
        1
 72
     2
 10
17.61259456749789
 20
8.471632231518112
 40
0.0746504251331091
 50
0.0
 51
360.0
 73
     1
 97
        1
330
11859
 92
        1
 93
        4
 72
     1
 10
17.50061892979823
 20
8.359656593818449
 11
17.50061892979823
 21
9.927315521613742
 72
     1
 10
17.50061892979823
 20
9.927315521613742
 11
17.72457020519755
 21
9.927315521613742
 72
     1
 10
17.72457020519755
 20
9.927315521613742
 11
17.72457020519755
 21
8.359656593818449
 72
     1
 10
17.72457020519755
 20
8.359656593818449
 11
17.50061892979823
 21
8.359656593818449
 97
        4
330
1175A
330
11853
330
1175B
330
1175C
 92
       16
 93
        4
 72
     1
 10
17.50994873993136
 20
8.583607869217779
 11
17.71524039506442
 21
8.583607869217779
 72
     1
 10
17.71524039506442
 20
8.583607869217779
 11
17.71524039506442
 21
9.917984218472101
 72
     1
 10
17.71524039506441
 20
9.917984218472101
 11
17.50994873993136
 21
9.917984218472101
 72
     1
 10
17.50994873993136
 20
9.917984218472101
 11
17.50994873993136
 21
8.583607869217779
 97
        4
330
1175E
330
11760
330
11854
330
1175F
 75
     0
 76
     1
 52
89.99999999999998
 41
0.0186626062832773
 77
     0
 78
     2
 53
134.9999999999999
 43
25.39859181012448
 44
3.356648344682121
 45
-0.00164955693219
 46
-0.00164955693219
 79
     0
 53
224.9999999999999
 43
25.39859181012448
 44
3.356648344682121
 45
0.00164955693219
 46
-0.00164955693219
 79
     0
 98
        1
 10
25.39859181012448
 20
3.356648344682121
  0
HATCH
  5
11D92
330
1F
100
AcDbEntity
  8
CONTINUOUS1
100
AcDbHatch
 10
0.0
 20
0.0
 30
0.0
210
0.0
220
0.0
230
1.0
  2
ANSI37
 70
     0
 71
     0
 91
        3
 92
        7
 72
     1
 73
     1
 93
        2
 10
17.67791368948936
 20
8.471632231518112
 42
1.0
 10
17.54727544550642
 20
8.471632231518112
 42
1.0
 97
        0
 92
       22
 72
     0
 73
     1
 93
        4
 10
17.63125717378117
 20
8.466966579947305
 10
17.63125717378118
 20
8.435249671995261
 10
17.61726021906871
 20
8.435249671995261
 10
17.61726021906871
 20
8.466966579947294
 97
        0
 92
       22
 72
     0
 73
     1
 93
        4
 10
17.60792891592707
 20
8.466966579947293
 10
17.60792891592707
 20
8.435249671995261
 10
17.59393196121462
 20
8.435249671995261
 10
17.59393196121462
 20
8.466966579947293
 97
        0
 75
     0
 76
     1
 52
89.99999999999998
 41
0.0186626062832773
 77
     0
 78
     2
 53
134.9999999999999
 43
25.39859181012448
 44
3.356648344682121
 45
-0.00164955693219
 46
-0.00164955693219
 79
     0
 53
224.9999999999999
 43
25.39859181012448
 44
3.356648344682121
 45
0.00164955693219
 46
-0.00164955693219
 79
     0
 47
0.0014094584334275
 98
        3
 10
17.65293867909433
 20
8.501417461489658
 10
17.65293867909433
 20
8.501417461489658
 10
17.65293867909433
 20
8.501417461489658
  0
LINE
  5
12400
330
1F
100
AcDbEntity
  8
CONTINUOUS1
100
AcDbLine
 10
22.008793322542
 20
9.826047960808768
 30
0.0
 11
22.00879332254201
 21
8.451047960808768
 31
0.0
  0
LINE
  5
12401
330
1F
100
AcDbEntity
  8
CONTINUOUS1
100
AcDbLine
 10
22.008793322542
 20
9.826047960808768
 30
0.0
 11
21.883793322542
 21
9.826047960808768
 31
0.0
  0
LINE
  5
12402
330
1F
100
AcDbEntity
  8
CONTINUOUS1
100
AcDbLine
 10
22.00879332254201
 20
8.451047960808768
 30
0.0
 11
21.88379332254201
 21
8.451047960808768
 31
0.0
  0
LINE
  5
12404
330
1F
100
AcDbEntity
  8
CONTINUOUS1
100
AcDbLine
 10
15.51465332254201
 20
9.654172960808768
 30
0.0
 11
15.79590332254201
 21
9.654172960808768
 31
0.0
  0
LINE
  5
12405
330
1F
100
AcDbEntity
  8
CONTINUOUS1
100
AcDbLine
 10
15.51465332254201
 20
8.622922960808768
 30
0.0
 11
15.79590332254201
 21
8.622922960808768
 31
0.0
  0
LINE
  5
12407
330
1F
100
AcDbEntity
  8
CONTINUOUS1
100
AcDbLine
 10
15.51465332254201
 20
9.654172960808768
 30
0.0
 11
15.51465332254201
 21
8.622922960808768
 31
0.0
  0
LINE
  5
1240B
330
1F
100
AcDbEntity
  8
CONTINUOUS1
100
AcDbLine
 10
22.008793322542
 20
9.638547960808768
 30
0.0
 11
22.37589283488414
 21
9.638547960808766
 31
0.0
  0
LINE
  5
1240C
330
1F
100
AcDbEntity
  8
CONTINUOUS1
100
AcDbLine
 10
22.00879332254201
 20
8.638547960808768
 30
0.0
 11
22.774653322542
 21
8.638547960808768
 31
0.0
  0
ARC
  5
12410
330
1F
100
AcDbEntity
  8
CONTINUOUS1
100
AcDbCircle
 10
22.774653322542
 20
9.138547960808764
 30
0.0
 40
0.5
100
AcDbArc
 50
0.0000000000004071
 51
89.99999999999939
  0
ARC
  5
12411
330
1F
100
AcDbEntity
  8
CONTINUOUS1
100
AcDbCircle
 10
22.774653322542
 20
9.13854796080877
 30
0.0
 40
0.5
100
AcDbArc
 50
270.0000000000002
 51
359.9999999999997
  0
CIRCLE
  5
12412
330
1F
100
AcDbEntity
  8
CONTINUOUS1
100
AcDbCircle
 10
22.774653322542
 20
9.138547960808768
 30
0.0
 40
0.1875
  0
ARC
  5
12414
330
1F
100
AcDbEntity
  8
CONTINUOUS1
100
AcDbCircle
 10
22.774653322542
 20
9.138547960808768
 30
0.0
 40
0.5
100
AcDbArc
 50
14.07583445141584
 51
15.9241655485834
  0
ARC
  5
12415
330
1F
100
AcDbEntity
  8
CONTINUOUS1
100
AcDbCircle
 10
22.774653322542
 20
9.138547960808768
 30
0.0
 40
0.4375
100
AcDbArc
 50
19.9454297178834
 51
25.05457028211707
  0
LINE
  5
12418
330
1F
100
AcDbEntity
  8
CONTINUOUS1
100
AcDbLine
 10
22.29034133067235
 20
9.161985460808768
 30
0.0
 11
22.32321519087971
 21
9.161985460808768
 31
0.0
  0
LINE
  5
12419
330
1F
100
AcDbEntity
  8
CONTINUOUS1
100
AcDbLine
 10
22.29034133067235
 20
9.115110460808768
 30
0.0
 11
22.32321519087971
 21
9.115110460808768
 31
0.0
  0
LINE
  5
1241A
330
1F
100
AcDbEntity
  8
CONTINUOUS1
100
AcDbLine
 10
23.22609145420431
 20
9.161985460808768
 30
0.0
 11
23.25896531441166
 21
9.161985460808768
 31
0.0
  0
LINE
  5
1241B
330
1F
100
AcDbEntity
  8
CONTINUOUS1
100
AcDbLine
 10
23.22609145420431
 20
9.115110460808768
 30
0.0
 11
23.25896531441166
 21
9.115110460808768
 31
0.0
  0
LINE
  5
1241C
330
1F
100
AcDbEntity
  8
CONTINUOUS1
100
AcDbLine
 10
22.3129099329832
 20
8.990559906987712
 30
0.0
 11
22.3446636435673
 21
8.999068288095418
 31
0.0
  0
LINE
  5
1241D
330
1F
100
AcDbEntity
  8
CONTINUOUS1
100
AcDbLine
 10
22.30077779024401
 20
9.035837680095013
 30
0.0
 11
22.33253150082811
 21
9.044346061202716
 31
0.0
  0
LINE
  5
1241E
330
1F
100
AcDbEntity
  8
CONTINUOUS1
100
AcDbLine
 10
22.36694558422545
 20
8.876094494472742
 30
0.0
 11
22.39541518228547
 21
8.892531424576418
 31
0.0
  0
LINE
  5
1241F
330
1F
100
AcDbEntity
  8
CONTINUOUS1
100
AcDbLine
 10
22.34350808422544
 20
8.916689435275138
 30
0.0
 11
22.37197768228547
 21
8.933126365378814
 31
0.0
  0
LINE
  5
12420
330
1F
100
AcDbEntity
  8
CONTINUOUS1
100
AcDbLine
 10
22.44876584406507
 20
8.779514851963714
 30
0.0
 11
22.47201117354146
 21
8.80276018144011
 31
0.0
  0
LINE
  5
12421
330
1F
100
AcDbEntity
  8
CONTINUOUS1
100
AcDbLine
 10
22.41562021369695
 20
8.812660482331835
 30
0.0
 11
22.43886554317334
 21
8.835905811808235
 31
0.0
  0
LINE
  5
12422
330
1F
100
AcDbEntity
  8
CONTINUOUS1
100
AcDbLine
 10
22.55279479700838
 20
8.707402722492206
 30
0.0
 11
22.56923172711206
 21
8.735872320552228
 31
0.0
  0
LINE
  5
12423
330
1F
100
AcDbEntity
  8
CONTINUOUS1
100
AcDbLine
 10
22.51219985620598
 20
8.730840222492208
 30
0.0
 11
22.52863678630966
 21
8.759309820552232
 31
0.0
  0
LINE
  5
12424
330
1F
100
AcDbEntity
  8
CONTINUOUS1
100
AcDbLine
 10
22.67194304182825
 20
8.664672428510783
 30
0.0
 11
22.68045142293595
 21
8.696426139094876
 31
0.0
  0
LINE
  5
12425
330
1F
100
AcDbEntity
  8
CONTINUOUS1
100
AcDbLine
 10
22.62666526872095
 20
8.676804571249963
 30
0.0
 11
22.63517364982865
 21
8.70855828183406
 31
0.0
  0
LINE
  5
12426
330
1F
100
AcDbEntity
  8
CONTINUOUS1
100
AcDbLine
 10
22.798090822542
 20
8.654235968939117
 30
0.0
 11
22.798090822542
 21
8.68710982914647
 31
0.0
  0
LINE
  5
12427
330
1F
100
AcDbEntity
  8
CONTINUOUS1
100
AcDbLine
 10
22.751215822542
 20
8.654235968939117
 30
0.0
 11
22.751215822542
 21
8.68710982914647
 31
0.0
  0
LINE
  5
12428
330
1F
100
AcDbEntity
  8
CONTINUOUS1
100
AcDbLine
 10
22.92264137636306
 20
8.676804571249963
 30
0.0
 11
22.91413299525536
 21
8.708558281834058
 31
0.0
  0
LINE
  5
12429
330
1F
100
AcDbEntity
  8
CONTINUOUS1
100
AcDbLine
 10
22.87736360325576
 20
8.664672428510781
 30
0.0
 11
22.86885522214806
 21
8.696426139094876
 31
0.0
  0
LINE
  5
1242A
330
1F
100
AcDbEntity
  8
CONTINUOUS1
100
AcDbLine
 10
23.03710678887803
 20
8.730840222492206
 30
0.0
 11
23.02066985877436
 21
8.759309820552232
 31
0.0
  0
LINE
  5
1242B
330
1F
100
AcDbEntity
  8
CONTINUOUS1
100
AcDbLine
 10
22.99651184807564
 20
8.707402722492206
 30
0.0
 11
22.98007491797196
 21
8.735872320552228
 31
0.0
  0
LINE
  5
1242C
330
1F
100
AcDbEntity
  8
CONTINUOUS1
100
AcDbLine
 10
23.13368643138706
 20
8.812660482331835
 30
0.0
 11
23.11044110191067
 21
8.835905811808224
 31
0.0
  0
LINE
  5
1242D
330
1F
100
AcDbEntity
  8
CONTINUOUS1
100
AcDbLine
 10
23.10054080101894
 20
8.779514851963714
 30
0.0
 11
23.07729547154254
 21
8.802760181440106
 31
0.0
  0
LINE
  5
1242E
330
1F
100
AcDbEntity
  8
CONTINUOUS1
100
AcDbLine
 10
23.20579856085857
 20
8.916689435275138
 30
0.0
 11
23.17732896279854
 21
8.933126365378811
 31
0.0
  0
LINE
  5
1242F
330
1F
100
AcDbEntity
  8
CONTINUOUS1
100
AcDbLine
 10
23.18236106085856
 20
8.876094494472742
 30
0.0
 11
23.15389146279855
 21
8.892531424576414
 31
0.0
  0
LINE
  5
12430
330
1F
100
AcDbEntity
  8
CONTINUOUS1
100
AcDbLine
 10
23.24852885483999
 20
9.035837680095021
 30
0.0
 11
23.2167751442559
 21
9.044346061202716
 31
0.0
  0
LINE
  5
12431
330
1F
100
AcDbEntity
  8
CONTINUOUS1
100
AcDbLine
 10
23.23639671210082
 20
8.990559906987716
 30
0.0
 11
23.20464300151672
 21
8.999068288095415
 31
0.0
  0
LINE
  5
12434
330
1F
100
AcDbEntity
  8
CONTINUOUS1
100
AcDbLine
 10
23.23639671210082
 20
9.28653601462982
 30
0.0
 11
23.20464300151672
 21
9.278027633522118
 31
0.0
  0
LINE
  5
12435
330
1F
100
AcDbEntity
  8
CONTINUOUS1
100
AcDbLine
 10
23.24852885483999
 20
9.241258241522519
 30
0.0
 11
23.2167751442559
 21
9.23274986041482
 31
0.0
  0
LINE
  5
12436
330
1F
100
AcDbEntity
  8
CONTINUOUS1
100
AcDbLine
 10
23.18236106085857
 20
9.401001427144787
 30
0.0
 11
23.15389146279855
 21
9.384564497041118
 31
0.0
  0
LINE
  5
12437
330
1F
100
AcDbEntity
  8
CONTINUOUS1
100
AcDbLine
 10
23.20579856085857
 20
9.360406486342395
 30
0.0
 11
23.17732896279854
 21
9.343969556238722
 31
0.0
  0
LINE
  5
12438
330
1F
100
AcDbEntity
  8
CONTINUOUS1
100
AcDbLine
 10
23.10054080101894
 20
9.497581069653822
 30
0.0
 11
23.07729547154254
 21
9.474335740177426
 31
0.0
  0
LINE
  5
12439
330
1F
100
AcDbEntity
  8
CONTINUOUS1
100
AcDbLine
 10
23.13368643138706
 20
9.464435439285704
 30
0.0
 11
23.11044110191066
 21
9.441190109809308
 31
0.0
  0
LINE
  5
1243A
330
1F
100
AcDbEntity
  8
CONTINUOUS1
100
AcDbLine
 10
22.99651184807564
 20
9.569693199125328
 30
0.0
 11
22.98007491797196
 21
9.541223601065304
 31
0.0
  0
LINE
  5
1243B
330
1F
100
AcDbEntity
  8
CONTINUOUS1
100
AcDbLine
 10
23.03710678887803
 20
9.546255699125332
 30
0.0
 11
23.02066985877436
 21
9.517786101065308
 31
0.0
  0
LINE
  5
1243C
330
1F
100
AcDbEntity
  8
CONTINUOUS1
100
AcDbLine
 10
22.87736360325575
 20
9.61242349310676
 30
0.0
 11
22.86885522214805
 21
9.580669782522658
 31
0.0
  0
LINE
  5
1243D
330
1F
100
AcDbEntity
  8
CONTINUOUS1
100
AcDbLine
 10
22.92264137636306
 20
9.60029135036758
 30
0.0
 11
22.91413299525535
 21
9.568537639783478
 31
0.0
  0
LINE
  5
1243E
330
1F
100
AcDbEntity
  8
CONTINUOUS1
100
AcDbLine
 10
22.75121582254201
 20
9.622859952678421
 30
0.0
 11
22.75121582254201
 21
9.589986092471072
 31
0.0
  0
LINE
  5
1243F
330
1F
100
AcDbEntity
  8
CONTINUOUS1
100
AcDbLine
 10
22.79809082254201
 20
9.622859952678421
 30
0.0
 11
22.79809082254201
 21
9.589986092471068
 31
0.0
  0
LINE
  5
12440
330
1F
100
AcDbEntity
  8
CONTINUOUS1
100
AcDbLine
 10
22.62666526872095
 20
9.600291350367577
 30
0.0
 11
22.63517364982865
 21
9.568537639783478
 31
0.0
  0
LINE
  5
12441
330
1F
100
AcDbEntity
  8
CONTINUOUS1
100
AcDbLine
 10
22.67194304182825
 20
9.612423493106756
 30
0.0
 11
22.68045142293595
 21
9.580669782522662
 31
0.0
  0
LINE
  5
12442
330
1F
100
AcDbEntity
  8
CONTINUOUS1
100
AcDbLine
 10
22.51219985620598
 20
9.546255699125328
 30
0.0
 11
22.52863678630966
 21
9.517786101065304
 31
0.0
  0
LINE
  5
12443
330
1F
100
AcDbEntity
  8
CONTINUOUS1
100
AcDbLine
 10
22.55279479700838
 20
9.569693199125325
 30
0.0
 11
22.56923172711205
 21
9.541223601065304
 31
0.0
  0
LINE
  5
12444
330
1F
100
AcDbEntity
  8
CONTINUOUS1
100
AcDbLine
 10
22.41562021369695
 20
9.464435439285704
 30
0.0
 11
22.43886554317334
 21
9.441190109809308
 31
0.0
  0
LINE
  5
12445
330
1F
100
AcDbEntity
  8
CONTINUOUS1
100
AcDbLine
 10
22.44876584406508
 20
9.497581069653822
 30
0.0
 11
22.47201117354147
 21
9.474335740177426
 31
0.0
  0
LINE
  5
12446
330
1F
100
AcDbEntity
  8
CONTINUOUS1
100
AcDbLine
 10
22.34350808422544
 20
9.360406486342395
 30
0.0
 11
22.37197768228547
 21
9.343969556238718
 31
0.0
  0
LINE
  5
12447
330
1F
100
AcDbEntity
  8
CONTINUOUS1
100
AcDbLine
 10
22.36694558422545
 20
9.401001427144791
 30
0.0
 11
22.39541518228547
 21
9.384564497041111
 31
0.0
  0
LINE
  5
12448
330
1F
100
AcDbEntity
  8
CONTINUOUS1
100
AcDbLine
 10
22.30077779024401
 20
9.241258241522519
 30
0.0
 11
22.33253150082811
 21
9.23274986041482
 31
0.0
  0
LINE
  5
12449
330
1F
100
AcDbEntity
  8
CONTINUOUS1
100
AcDbLine
 10
22.31290993298319
 20
9.286536014629824
 30
0.0
 11
22.34466364356729
 21
9.278027633522125
 31
0.0
  0
ARC
  5
1244A
330
1F
100
AcDbEntity
  8
CONTINUOUS1
100
AcDbCircle
 10
22.774653322542
 20
9.138547960808768
 30
0.0
 40
0.5
100
AcDbArc
 50
29.07583445141587
 51
30.92416554858399
  0
ARC
  5
1244B
330
1F
100
AcDbEntity
  8
CONTINUOUS1
100
AcDbCircle
 10
22.774653322542
 20
9.138547960808768
 30
0.0
 40
0.5
100
AcDbArc
 50
44.07583445141582
 51
45.92416554858473
  0
ARC
  5
1244C
330
1F
100
AcDbEntity
  8
CONTINUOUS1
100
AcDbCircle
 10
22.774653322542
 20
9.138547960808768
 30
0.0
 40
0.5
100
AcDbArc
 50
59.07583445141544
 51
60.9241655485834
  0
ARC
  5
1244D
330
1F
100
AcDbEntity
  8
CONTINUOUS1
100
AcDbCircle
 10
22.774653322542
 20
9.138547960808768
 30
0.0
 40
0.5
100
AcDbArc
 50
74.07583445141636
 51
75.9241655485848
  0
ARC
  5
1244E
330
1F
100
AcDbEntity
  8
CONTINUOUS1
100
AcDbCircle
 10
22.774653322542
 20
9.138547960808768
 30
0.0
 40
0.5
100
AcDbArc
 50
89.07583445141558
 51
90.92416554858361
  0
ARC
  5
1244F
330
1F
100
AcDbEntity
  8
CONTINUOUS1
100
AcDbCircle
 10
22.774653322542
 20
9.138547960808768
 30
0.0
 40
0.5
100
AcDbArc
 50
104.0758344514158
 51
105.9241655485843
  0
ARC
  5
12450
330
1F
100
AcDbEntity
  8
CONTINUOUS1
100
AcDbCircle
 10
22.774653322542
 20
9.138547960808768
 30
0.0
 40
0.5
100
AcDbArc
 50
119.0758344514158
 51
120.9241655485836
  0
ARC
  5
12451
330
1F
100
AcDbEntity
  8
CONTINUOUS1
100
AcDbCircle
 10
22.774653322542
 20
9.138547960808768
 30
0.0
 40
0.5
100
AcDbArc
 50
134.0758344514152
 51
135.9241655485841
  0
ARC
  5
12452
330
1F
100
AcDbEntity
  8
CONTINUOUS1
100
AcDbCircle
 10
22.774653322542
 20
9.138547960808768
 30
0.0
 40
0.5
100
AcDbArc
 50
149.0758344514163
 51
150.9241655485846
  0
ARC
  5
12453
330
1F
100
AcDbEntity
  8
CONTINUOUS1
100
AcDbCircle
 10
22.774653322542
 20
9.138547960808768
 30
0.0
 40
0.5
100
AcDbArc
 50
164.0758344514165
 51
165.9241655485841
  0
ARC
  5
12454
330
1F
100
AcDbEntity
  8
CONTINUOUS1
100
AcDbCircle
 10
22.774653322542
 20
9.138547960808768
 30
0.0
 40
0.5
100
AcDbArc
 50
179.0758344514155
 51
180.924165548584
  0
ARC
  5
12455
330
1F
100
AcDbEntity
  8
CONTINUOUS1
100
AcDbCircle
 10
22.774653322542
 20
9.138547960808768
 30
0.0
 40
0.5
100
AcDbArc
 50
194.0758344514162
 51
195.9241655485843
  0
ARC
  5
12456
330
1F
100
AcDbEntity
  8
CONTINUOUS1
100
AcDbCircle
 10
22.774653322542
 20
9.138547960808768
 30
0.0
 40
0.5
100
AcDbArc
 50
209.0758344514164
 51
210.9241655485836
  0
ARC
  5
12457
330
1F
100
AcDbEntity
  8
CONTINUOUS1
100
AcDbCircle
 10
22.774653322542
 20
9.138547960808768
 30
0.0
 40
0.5
100
AcDbArc
 50
224.0758344514158
 51
225.9241655485841
  0
ARC
  5
12458
330
1F
100
AcDbEntity
  8
CONTINUOUS1
100
AcDbCircle
 10
22.774653322542
 20
9.138547960808768
 30
0.0
 40
0.5
100
AcDbArc
 50
239.0758344514164
 51
240.9241655485845
  0
ARC
  5
12459
330
1F
100
AcDbEntity
  8
CONTINUOUS1
100
AcDbCircle
 10
22.774653322542
 20
9.138547960808768
 30
0.0
 40
0.5
100
AcDbArc
 50
254.0758344514157
 51
255.9241655485837
  0
ARC
  5
1245A
330
1F
100
AcDbEntity
  8
CONTINUOUS1
100
AcDbCircle
 10
22.774653322542
 20
9.138547960808768
 30
0.0
 40
0.5
100
AcDbArc
 50
269.0758344514159
 51
270.924165548584
  0
ARC
  5
1245B
330
1F
100
AcDbEntity
  8
CONTINUOUS1
100
AcDbCircle
 10
22.774653322542
 20
9.138547960808768
 30
0.0
 40
0.5
100
AcDbArc
 50
284.0758344514162
 51
285.924165548584
  0
ARC
  5
1245C
330
1F
100
AcDbEntity
  8
CONTINUOUS1
100
AcDbCircle
 10
22.774653322542
 20
9.138547960808768
 30
0.0
 40
0.5
100
AcDbArc
 50
299.0758344514156
 51
300.924165548584
  0
ARC
  5
1245D
330
1F
100
AcDbEntity
  8
CONTINUOUS1
100
AcDbCircle
 10
22.774653322542
 20
9.138547960808768
 30
0.0
 40
0.5
100
AcDbArc
 50
314.0758344514161
 51
315.9241655485841
  0
ARC
  5
1245E
330
1F
100
AcDbEntity
  8
CONTINUOUS1
100
AcDbCircle
 10
22.774653322542
 20
9.138547960808768
 30
0.0
 40
0.5
100
AcDbArc
 50
329.0758344514155
 51
330.9241655485836
  0
ARC
  5
1245F
330
1F
100
AcDbEntity
  8
CONTINUOUS1
100
AcDbCircle
 10
22.774653322542
 20
9.138547960808768
 30
0.0
 40
0.5
100
AcDbArc
 50
344.075834451416
 51
345.9241655485842
  0
ARC
  5
12460
330
1F
100
AcDbEntity
  8
CONTINUOUS1
100
AcDbCircle
 10
22.774653322542
 20
9.138547960808768
 30
0.0
 40
0.5
100
AcDbArc
 50
359.0758344514159
 51
0.9241655485844189
  0
ARC
  5
12461
330
1F
100
AcDbEntity
  8
CONTINUOUS1
100
AcDbCircle
 10
22.774653322542
 20
9.138547960808768
 30
0.0
 40
0.4375
100
AcDbArc
 50
34.94542971788311
 51
40.05457028211614
  0
ARC
  5
12462
330
1F
100
AcDbEntity
  8
CONTINUOUS1
100
AcDbCircle
 10
22.774653322542
 20
9.138547960808768
 30
0.0
 40
0.4375
100
AcDbArc
 50
49.94542971788289
 51
55.0545702821164
  0
ARC
  5
12463
330
1F
100
AcDbEntity
  8
CONTINUOUS1
100
AcDbCircle
 10
22.774653322542
 20
9.138547960808768
 30
0.0
 40
0.4375
100
AcDbArc
 50
64.94542971788238
 51
70.05457028211684
  0
ARC
  5
12464
330
1F
100
AcDbEntity
  8
CONTINUOUS1
100
AcDbCircle
 10
22.774653322542
 20
9.138547960808768
 30
0.0
 40
0.4375
100
AcDbArc
 50
79.94542971788368
 51
85.05457028211647
  0
ARC
  5
12465
330
1F
100
AcDbEntity
  8
CONTINUOUS1
100
AcDbCircle
 10
22.774653322542
 20
9.138547960808768
 30
0.0
 40
0.4375
100
AcDbArc
 50
94.94542971788304
 51
100.054570282117
  0
ARC
  5
12466
330
1F
100
AcDbEntity
  8
CONTINUOUS1
100
AcDbCircle
 10
22.774653322542
 20
9.138547960808768
 30
0.0
 40
0.4375
100
AcDbArc
 50
109.9454297178833
 51
115.054570282117
  0
ARC
  5
12467
330
1F
100
AcDbEntity
  8
CONTINUOUS1
100
AcDbCircle
 10
22.774653322542
 20
9.138547960808768
 30
0.0
 40
0.4375
100
AcDbArc
 50
124.9454297178831
 51
130.0545702821169
  0
ARC
  5
12468
330
1F
100
AcDbEntity
  8
CONTINUOUS1
100
AcDbCircle
 10
22.774653322542
 20
9.138547960808768
 30
0.0
 40
0.4375
100
AcDbArc
 50
139.945429717883
 51
145.0545702821168
  0
ARC
  5
12469
330
1F
100
AcDbEntity
  8
CONTINUOUS1
100
AcDbCircle
 10
22.774653322542
 20
9.138547960808768
 30
0.0
 40
0.4375
100
AcDbArc
 50
154.9454297178834
 51
160.054570282116
  0
ARC
  5
1246A
330
1F
100
AcDbEntity
  8
CONTINUOUS1
100
AcDbCircle
 10
22.774653322542
 20
9.138547960808768
 30
0.0
 40
0.4375
100
AcDbArc
 50
169.9454297178834
 51
175.0545702821164
  0
ARC
  5
1246B
330
1F
100
AcDbEntity
  8
CONTINUOUS1
100
AcDbCircle
 10
22.774653322542
 20
9.138547960808768
 30
0.0
 40
0.4375
100
AcDbArc
 50
184.9454297178835
 51
190.0545702821165
  0
ARC
  5
1246C
330
1F
100
AcDbEntity
  8
CONTINUOUS1
100
AcDbCircle
 10
22.774653322542
 20
9.138547960808768
 30
0.0
 40
0.4375
100
AcDbArc
 50
199.9454297178828
 51
205.054570282117
  0
ARC
  5
1246D
330
1F
100
AcDbEntity
  8
CONTINUOUS1
100
AcDbCircle
 10
22.774653322542
 20
9.138547960808768
 30
0.0
 40
0.4375
100
AcDbArc
 50
214.9454297178837
 51
220.0545702821162
  0
ARC
  5
1246E
330
1F
100
AcDbEntity
  8
CONTINUOUS1
100
AcDbCircle
 10
22.774653322542
 20
9.138547960808768
 30
0.0
 40
0.4375
100
AcDbArc
 50
229.945429717883
 51
235.0545702821162
  0
ARC
  5
1246F
330
1F
100
AcDbEntity
  8
CONTINUOUS1
100
AcDbCircle
 10
22.774653322542
 20
9.138547960808768
 30
0.0
 40
0.4375
100
AcDbArc
 50
244.945429717884
 51
250.0545702821165
  0
ARC
  5
12470
330
1F
100
AcDbEntity
  8
CONTINUOUS1
100
AcDbCircle
 10
22.774653322542
 20
9.138547960808768
 30
0.0
 40
0.4375
100
AcDbArc
 50
259.9454297178829
 51
265.0545702821164
  0
ARC
  5
12471
330
1F
100
AcDbEntity
  8
CONTINUOUS1
100
AcDbCircle
 10
22.774653322542
 20
9.138547960808768
 30
0.0
 40
0.4375
100
AcDbArc
 50
274.945429717883
 51
280.0545702821163
  0
ARC
  5
12472
330
1F
100
AcDbEntity
  8
CONTINUOUS1
100
AcDbCircle
 10
22.774653322542
 20
9.138547960808768
 30
0.0
 40
0.4375
100
AcDbArc
 50
289.945429717883
 51
295.0545702821166
  0
ARC
  5
12473
330
1F
100
AcDbEntity
  8
CONTINUOUS1
100
AcDbCircle
 10
22.774653322542
 20
9.138547960808768
 30
0.0
 40
0.4375
100
AcDbArc
 50
304.9454297178836
 51
310.0545702821158
  0
ARC
  5
12474
330
1F
100
AcDbEntity
  8
CONTINUOUS1
100
AcDbCircle
 10
22.774653322542
 20
9.138547960808768
 30
0.0
 40
0.4375
100
AcDbArc
 50
319.9454297178837
 51
325.0545702821162
  0
ARC
  5
12475
330
1F
100
AcDbEntity
  8
CONTINUOUS1
100
AcDbCircle
 10
22.774653322542
 20
9.138547960808768
 30
0.0
 40
0.4375
100
AcDbArc
 50
334.9454297178834
 51
340.0545702821165
  0
ARC
  5
12476
330
1F
100
AcDbEntity
  8
CONTINUOUS1
100
AcDbCircle
 10
22.774653322542
 20
9.138547960808768
 30
0.0
 40
0.4375
100
AcDbArc
 50
349.9454297178834
 51
355.0545702821164
  0
ARC
  5
12478
330
1F
100
AcDbEntity
  8
CONTINUOUS1
100
AcDbCircle
 10
22.774653322542
 20
9.138547960808768
 30
0.0
 40
0.4375
100
AcDbArc
 50
4.945429717883538
 51
10.05457028211656
  0
LINE
  5
12489
330
1F
100
AcDbEntity
  8
CONTINUOUS1
100
AcDbLine
 10
22.44869037232113
 20
8.923289869884634
 30
0.0
 11
22.43513524421913
 21
8.915463813026047
 31
0.0
  0
LINE
  5
1248A
330
1F
100
AcDbEntity
  8
CONTINUOUS1
100
AcDbLine
 10
22.4533511021384
 20
9.315030786293927
 30
0.0
 11
22.44191280827013
 21
9.357719080162194
 31
0.0
  0
LINE
  5
1248B
330
1F
100
AcDbEntity
  8
CONTINUOUS1
100
AcDbLine
 10
22.39922451440187
 20
9.346280786293931
 30
0.0
 11
22.44191280827013
 21
9.357719080162194
 31
0.0
  0
LINE
  5
1248D
330
1F
100
AcDbEntity
  8
CONTINUOUS1
100
AcDbLine
 10
22.4533511021384
 20
9.315030786293927
 30
0.0
 11
22.43252356419056
 21
9.327055570934671
 31
0.0
  0
ARC
  5
1248E
330
1F
100
AcDbEntity
  8
CONTINUOUS1
100
AcDbCircle
 10
22.774653322542
 20
9.138547960808768
 30
0.0
 40
0.3906249999999996
100
AcDbArc
 50
151.1459919983885
 51
213.4398127675157
  0
ARC
  5
1248F
330
1F
100
AcDbEntity
  8
CONTINUOUS1
100
AcDbCircle
 10
22.774653322542
 20
9.138547960808768
 30
0.0
 40
0.4062499999999996
100
AcDbArc
 50
151.1019098393371
 51
213.3073621796711
  0
LINE
  5
12490
330
1F
100
AcDbEntity
  8
CONTINUOUS1
100
AcDbLine
 10
22.41898931426536
 20
9.334869573772262
 30
0.0
 11
22.39922451440187
 21
9.346280786293931
 31
0.0
  0
ARC
  5
12491
330
1F
100
AcDbEntity
  8
CONTINUOUS1
100
AcDbCircle
 10
22.774653322542
 20
9.138547960808764
 30
0.0
 40
0.4062499999999996
100
AcDbArc
 50
331.1019098393371
 51
33.3073621796711
  0
ARC
  5
12492
330
1F
100
AcDbEntity
  8
CONTINUOUS1
100
AcDbCircle
 10
22.774653322542
 20
9.138547960808764
 30
0.0
 40
0.3906249999999996
100
AcDbArc
 50
331.1459919983885
 51
33.43981276751573
  0
LINE
  5
12493
330
1F
100
AcDbEntity
  8
CONTINUOUS1
100
AcDbLine
 10
23.10061627276287
 20
9.353806051732899
 30
0.0
 11
23.11417140086487
 21
9.361632108591486
 31
0.0
  0
LINE
  5
12494
330
1F
100
AcDbEntity
  8
CONTINUOUS1
100
AcDbLine
 10
23.09595554294561
 20
8.962065135323605
 30
0.0
 11
23.11678308089345
 21
8.950040350682861
 31
0.0
  0
LINE
  5
12495
330
1F
100
AcDbEntity
  8
CONTINUOUS1
100
AcDbLine
 10
23.13031733081865
 20
8.94222634784527
 30
0.0
 11
23.15008213068214
 21
8.930815135323602
 31
0.0
  0
LINE
  5
12496
330
1F
100
AcDbEntity
  8
CONTINUOUS1
100
AcDbLine
 10
23.15008213068214
 20
8.930815135323602
 30
0.0
 11
23.10739383681388
 21
8.919376841455338
 31
0.0
  0
LINE
  5
12497
330
1F
100
AcDbEntity
  8
CONTINUOUS1
100
AcDbLine
 10
23.09595554294561
 20
8.962065135323605
 30
0.0
 11
23.10739383681388
 21
8.919376841455338
 31
0.0
  0
ARC
  5
124A8
330
1F
100
AcDbEntity
  8
CONTINUOUS1
100
AcDbCircle
 10
22.30886588540347
 20
9.005652498023479
 30
0.0
 40
0.015625
100
AcDbArc
 50
195.9241655485836
 51
284.9999999999944
  0
ARC
  5
124A9
330
1F
100
AcDbEntity
  8
CONTINUOUS1
100
AcDbCircle
 10
22.30482183782375
 20
9.020745089059246
 30
0.0
 40
0.015625
100
AcDbArc
 50
105.000000000007
 51
194.0758344514191
  0
ARC
  5
124AA
330
1F
100
AcDbEntity
  8
CONTINUOUS1
100
AcDbCircle
 10
22.29034133067236
 20
9.130735460808768
 30
0.0
 40
0.015625
100
AcDbArc
 50
180.9241655485832
 51
270.0
  0
ARC
  5
124AB
330
1F
100
AcDbEntity
  8
CONTINUOUS1
100
AcDbCircle
 10
22.29034133067236
 20
9.146360460808775
 30
0.0
 40
0.015625
100
AcDbArc
 50
90.0
 51
179.0758344514166
  0
ARC
  5
124AC
330
1F
100
AcDbEntity
  8
CONTINUOUS1
100
AcDbCircle
 10
22.30482183782375
 20
9.25635083255829
 30
0.0
 40
0.015625
100
AcDbArc
 50
165.9241655485808
 51
254.9999999999929
  0
ARC
  5
124AD
330
1F
100
AcDbEntity
  8
CONTINUOUS1
100
AcDbCircle
 10
22.30886588540347
 20
9.271443423594053
 30
0.0
 40
0.015625
100
AcDbArc
 50
75.00000000001228
 51
164.0758344514163
  0
ARC
  5
124AE
330
1F
100
AcDbEntity
  8
CONTINUOUS1
100
AcDbCircle
 10
22.35132058422544
 20
9.373938133276528
 30
0.0
 40
0.015625
100
AcDbArc
 50
150.9241655485868
 51
240.0000000000074
  0
ARC
  5
124AF
330
1F
100
AcDbEntity
  8
CONTINUOUS1
100
AcDbCircle
 10
22.35913308422544
 20
9.387469780210661
 30
0.0
 40
0.015625
100
AcDbArc
 50
59.99999999999147
 51
149.075834451416
  0
ARC
  5
124B0
330
1F
100
AcDbEntity
  8
CONTINUOUS1
100
AcDbCircle
 10
22.42666875715299
 20
9.475483982741746
 30
0.0
 40
0.015625
100
AcDbArc
 50
135.9241655485816
 51
225.0
  0
ARC
  5
124B1
330
1F
100
AcDbEntity
  8
CONTINUOUS1
100
AcDbCircle
 10
22.43771730060903
 20
9.486532526197791
 30
0.0
 40
0.015625
100
AcDbArc
 50
44.9999999999908
 51
134.0758344514183
  0
ARC
  5
124B2
330
1F
100
AcDbEntity
  8
CONTINUOUS1
100
AcDbCircle
 10
22.52573150314012
 20
9.554068199125335
 30
0.0
 40
0.015625
100
AcDbArc
 50
120.9241655485839
 51
210.0000000000085
  0
ARC
  5
124B3
330
1F
100
AcDbEntity
  8
CONTINUOUS1
100
AcDbCircle
 10
22.53926315007424
 20
9.561880699125332
 30
0.0
 40
0.015625
100
AcDbArc
 50
29.99999999998598
 51
119.0758344514131
  0
ARC
  5
124B4
330
1F
100
AcDbEntity
  8
CONTINUOUS1
100
AcDbCircle
 10
22.64175785975672
 20
9.604335397947306
 30
0.0
 40
0.015625
100
AcDbArc
 50
105.9241655485837
 51
194.9999999999978
  0
ARC
  5
124B5
330
1F
100
AcDbEntity
  8
CONTINUOUS1
100
AcDbCircle
 10
22.65685045079249
 20
9.608379445527035
 30
0.0
 40
0.015625
100
AcDbArc
 50
14.99999999999786
 51
104.0758344514191
  0
ARC
  5
124B6
330
1F
100
AcDbEntity
  8
CONTINUOUS1
100
AcDbCircle
 10
22.76684082254201
 20
9.622859952678425
 30
0.0
 40
0.015625
100
AcDbArc
 50
90.9241655485833
 51
180.0
  0
ARC
  5
124B7
330
1F
100
AcDbEntity
  8
CONTINUOUS1
100
AcDbCircle
 10
22.78246582254201
 20
9.622859952678425
 30
0.0
 40
0.015625
100
AcDbArc
 50
0.0
 51
89.07583445141669
  0
ARC
  5
124B8
330
1F
100
AcDbEntity
  8
CONTINUOUS1
100
AcDbCircle
 10
22.35132058422544
 20
8.903157788341005
 30
0.0
 40
0.015625
100
AcDbArc
 50
119.9999999999973
 51
209.0758344514195
  0
ARC
  5
124B9
330
1F
100
AcDbEntity
  8
CONTINUOUS1
100
AcDbCircle
 10
22.35913308422544
 20
8.889626141406878
 30
0.0
 40
0.015625
100
AcDbArc
 50
210.9241655485839
 51
299.9999999999907
  0
ARC
  5
124BA
330
1F
100
AcDbEntity
  8
CONTINUOUS1
100
AcDbCircle
 10
22.42666875715299
 20
8.801611938875794
 30
0.0
 40
0.015625
100
AcDbArc
 50
135.0
 51
224.0758344514183
  0
ARC
  5
124BB
330
1F
100
AcDbEntity
  8
CONTINUOUS1
100
AcDbCircle
 10
22.43771730060903
 20
8.790563395419752
 30
0.0
 40
0.015625
100
AcDbArc
 50
225.9241655485816
 51
315.0
  0
ARC
  5
124BC
330
1F
100
AcDbEntity
  8
CONTINUOUS1
100
AcDbCircle
 10
22.52573150314012
 20
8.723027722492206
 30
0.0
 40
0.015625
100
AcDbArc
 50
150.0000000000083
 51
239.0758344514194
  0
ARC
  5
124BD
330
1F
100
AcDbEntity
  8
CONTINUOUS1
100
AcDbCircle
 10
22.53926315007425
 20
8.715215222492204
 30
0.0
 40
0.015625
100
AcDbArc
 50
240.9241655485836
 51
330.0000000000026
  0
ARC
  5
124BE
330
1F
100
AcDbEntity
  8
CONTINUOUS1
100
AcDbCircle
 10
22.64175785975672
 20
8.672760523670234
 30
0.0
 40
0.015625
100
AcDbArc
 50
164.9999999999959
 51
254.0758344514163
  0
ARC
  5
124BF
330
1F
100
AcDbEntity
  8
CONTINUOUS1
100
AcDbCircle
 10
22.65685045079249
 20
8.668716476090507
 30
0.0
 40
0.015625
100
AcDbArc
 50
255.9241655485808
 51
345.0000000000055
  0
ARC
  5
124C0
330
1F
100
AcDbEntity
  8
CONTINUOUS1
100
AcDbCircle
 10
22.766840822542
 20
8.654235968939115
 30
0.0
 40
0.015625
100
AcDbArc
 50
180.0
 51
269.0758344514167
  0
ARC
  5
124C1
330
1F
100
AcDbEntity
  8
CONTINUOUS1
100
AcDbCircle
 10
22.78246582254201
 20
8.654235968939115
 30
0.0
 40
0.015625
100
AcDbArc
 50
270.9241655485832
 51
0.0
  0
ARC
  5
124C2
330
1F
100
AcDbEntity
  8
CONTINUOUS1
100
AcDbCircle
 10
22.89245619429153
 20
8.668716476090507
 30
0.0
 40
0.015625
100
AcDbArc
 50
194.999999999999
 51
284.0758344514191
  0
ARC
  5
124C3
330
1F
100
AcDbEntity
  8
CONTINUOUS1
100
AcDbCircle
 10
22.90754878532729
 20
8.672760523670234
 30
0.0
 40
0.015625
100
AcDbArc
 50
285.9241655485818
 51
15.00000000000074
  0
ARC
  5
124C4
330
1F
100
AcDbEntity
  8
CONTINUOUS1
100
AcDbCircle
 10
23.01004349500976
 20
8.715215222492206
 30
0.0
 40
0.015625
100
AcDbArc
 50
210.0000000000094
 51
299.0758344514132
  0
ARC
  5
124C5
330
1F
100
AcDbEntity
  8
CONTINUOUS1
100
AcDbCircle
 10
23.0235751419439
 20
8.723027722492206
 30
0.0
 40
0.015625
100
AcDbArc
 50
300.9241655485861
 51
29.99999999998838
  0
ARC
  5
124C6
330
1F
100
AcDbEntity
  8
CONTINUOUS1
100
AcDbCircle
 10
23.11158934447498
 20
8.790563395419756
 30
0.0
 40
0.015625
100
AcDbArc
 50
225.0
 51
314.0758344514139
  0
ARC
  5
124C7
330
1F
100
AcDbEntity
  8
CONTINUOUS1
100
AcDbCircle
 10
23.12263788793102
 20
8.801611938875794
 30
0.0
 40
0.015625
100
AcDbArc
 50
315.9241655485861
 51
45.00000000000919
  0
ARC
  5
124C8
330
1F
100
AcDbEntity
  8
CONTINUOUS1
100
AcDbCircle
 10
23.19017356085856
 20
8.889626141406875
 30
0.0
 40
0.015625
100
AcDbArc
 50
240.0000000000026
 51
329.0758344514082
  0
ARC
  5
124C9
330
1F
100
AcDbEntity
  8
CONTINUOUS1
100
AcDbCircle
 10
23.19798606085857
 20
8.903157788341005
 30
0.0
 40
0.015625
100
AcDbArc
 50
330.9241655485836
 51
59.99999999999707
  0
ARC
  5
124CA
330
1F
100
AcDbEntity
  8
CONTINUOUS1
100
AcDbCircle
 10
23.24044075968054
 20
9.005652498023483
 30
0.0
 40
0.015625
100
AcDbArc
 50
255.0000000000055
 51
344.0758344514163
  0
ARC
  5
124CB
330
1F
100
AcDbEntity
  8
CONTINUOUS1
100
AcDbCircle
 10
23.24448480726027
 20
9.02074508905925
 30
0.0
 40
0.015625
100
AcDbArc
 50
345.9241655485808
 51
75.00000000000892
  0
ARC
  5
124CC
330
1F
100
AcDbEntity
  8
CONTINUOUS1
100
AcDbCircle
 10
23.25896531441166
 20
9.130735460808768
 30
0.0
 40
0.015625
100
AcDbArc
 50
270.0
 51
359.0758344514167
  0
ARC
  5
124CD
330
1F
100
AcDbEntity
  8
CONTINUOUS1
100
AcDbCircle
 10
23.25896531441166
 20
9.146360460808775
 30
0.0
 40
0.015625
100
AcDbArc
 50
0.9241655485832202
 51
90.0
  0
ARC
  5
124CE
330
1F
100
AcDbEntity
  8
CONTINUOUS1
100
AcDbCircle
 10
23.24448480726027
 20
9.25635083255829
 30
0.0
 40
0.015625
100
AcDbArc
 50
284.9999999999944
 51
14.0758344514192
  0
ARC
  5
124CF
330
1F
100
AcDbEntity
  8
CONTINUOUS1
100
AcDbCircle
 10
23.24044075968054
 20
9.271443423594053
 30
0.0
 40
0.015625
100
AcDbArc
 50
15.92416554858188
 51
104.9999999999973
  0
ARC
  5
124D0
330
1F
100
AcDbEntity
  8
CONTINUOUS1
100
AcDbCircle
 10
23.19798606085857
 20
9.373938133276531
 30
0.0
 40
0.015625
100
AcDbArc
 50
299.9999999999973
 51
29.07583445141635
  0
ARC
  5
124D1
330
1F
100
AcDbEntity
  8
CONTINUOUS1
100
AcDbCircle
 10
23.19017356085856
 20
9.387469780210665
 30
0.0
 40
0.015625
100
AcDbArc
 50
30.92416554858063
 51
120.0000000000046
  0
ARC
  5
124D2
330
1F
100
AcDbEntity
  8
CONTINUOUS1
100
AcDbCircle
 10
23.12263788793102
 20
9.475483982741746
 30
0.0
 40
0.015625
100
AcDbArc
 50
315.0000000000046
 51
44.07583445141382
  0
ARC
  5
124D3
330
1F
100
AcDbEntity
  8
CONTINUOUS1
100
AcDbCircle
 10
23.11158934447497
 20
9.486532526197791
 30
0.0
 40
0.015625
100
AcDbArc
 50
45.92416554858162
 51
135.0
  0
ARC
  5
124D4
330
1F
100
AcDbEntity
  8
CONTINUOUS1
100
AcDbCircle
 10
23.0235751419439
 20
9.554068199125332
 30
0.0
 40
0.015625
100
AcDbArc
 50
330.0000000000074
 51
59.075834451416
  0
ARC
  5
124D5
330
1F
100
AcDbEntity
  8
CONTINUOUS1
100
AcDbCircle
 10
23.01004349500977
 20
9.561880699125332
 30
0.0
 40
0.015625
100
AcDbArc
 50
60.92416554858052
 51
150.0000000000027
  0
ARC
  5
124D6
330
1F
100
AcDbEntity
  8
CONTINUOUS1
100
AcDbCircle
 10
22.90754878532729
 20
9.604335397947309
 30
0.0
 40
0.015625
100
AcDbArc
 50
345.0000000000072
 51
74.07583445141636
  0
ARC
  5
124D7
330
1F
100
AcDbEntity
  8
CONTINUOUS1
100
AcDbCircle
 10
22.89245619429152
 20
9.608379445527035
 30
0.0
 40
0.015625
100
AcDbArc
 50
75.92416554858079
 51
164.9999999999895
  0
ARC
  5
124D8
330
1F
100
AcDbEntity
  8
CONTINUOUS1
100
AcDbCircle
 10
23.14607896279854
 20
8.878999777642285
 30
0.0
 40
0.015625
100
AcDbArc
 50
59.99999999999619
 51
145.0545702821183
  0
ARC
  5
124D9
330
1F
100
AcDbEntity
  8
CONTINUOUS1
100
AcDbCircle
 10
23.12148964536671
 20
8.846954355264269
 30
0.0
 40
0.015625
100
AcDbArc
 50
139.9454297178782
 51
225.0000000000138
  0
ARC
  5
124DA
330
1F
100
AcDbEntity
  8
CONTINUOUS1
100
AcDbCircle
 10
23.0662469280865
 20
8.791711637984064
 30
0.0
 40
0.015625
100
AcDbArc
 50
45.00000000000464
 51
130.0545702821167
  0
ARC
  5
124DB
330
1F
100
AcDbEntity
  8
CONTINUOUS1
100
AcDbCircle
 10
23.03420150570848
 20
8.767122320552232
 30
0.0
 40
0.015625
100
AcDbArc
 50
124.9454297178817
 51
209.9999999999972
  0
ARC
  5
124DC
330
1F
100
AcDbEntity
  8
CONTINUOUS1
100
AcDbCircle
 10
22.96654327103782
 20
8.72805982055223
 30
0.0
 40
0.015625
100
AcDbArc
 50
29.99999999999166
 51
115.0545702821143
  0
ARC
  5
124DD
330
1F
100
AcDbEntity
  8
CONTINUOUS1
100
AcDbCircle
 10
22.92922558629112
 20
8.712602329413783
 30
0.0
 40
0.015625
100
AcDbArc
 50
109.9454297178849
 51
195.0000000000024
  0
ARC
  5
124DF
330
1F
100
AcDbEntity
  8
CONTINUOUS1
100
AcDbCircle
 10
22.85376263111229
 20
8.692382091515147
 30
0.0
 40
0.015625
100
AcDbArc
 50
14.9999999999973
 51
100.0545702821128
  0
ARC
  5
124E0
330
1F
100
AcDbEntity
  8
CONTINUOUS1
100
AcDbCircle
 10
22.813715822542
 20
8.687109829146466
 30
0.0
 40
0.015625
100
AcDbArc
 50
94.9454297178846
 51
179.9999999999934
  0
ARC
  5
124E1
330
1F
100
AcDbEntity
  8
CONTINUOUS1
100
AcDbCircle
 10
22.735590822542
 20
8.687109829146466
 30
0.0
 40
0.015625
100
AcDbArc
 50
0.0000000000064748
 51
85.05457028212189
  0
ARC
  5
124E2
330
1F
100
AcDbEntity
  8
CONTINUOUS1
100
AcDbCircle
 10
22.69554401397172
 20
8.692382091515149
 30
0.0
 40
0.015625
100
AcDbArc
 50
79.94542971788598
 51
165.0000000000055
  0
ARC
  5
124E3
330
1F
100
AcDbEntity
  8
CONTINUOUS1
100
AcDbCircle
 10
22.62008105879289
 20
8.712602329413783
 30
0.0
 40
0.015625
100
AcDbArc
 50
345.0000000000055
 51
70.05457028211731
  0
ARC
  5
124E4
330
1F
100
AcDbEntity
  8
CONTINUOUS1
100
AcDbCircle
 10
22.58276337404619
 20
8.728059820552228
 30
0.0
 40
0.015625
100
AcDbArc
 50
64.94542971788284
 51
149.9999999999962
  0
ARC
  5
124E5
330
1F
100
AcDbEntity
  8
CONTINUOUS1
100
AcDbCircle
 10
22.51510513937553
 20
8.767122320552232
 30
0.0
 40
0.015625
100
AcDbArc
 50
330.0000000000092
 51
55.05457028211832
  0
ARC
  5
124E6
330
1F
100
AcDbEntity
  8
CONTINUOUS1
100
AcDbCircle
 10
22.52573150314012
 20
8.723027722492204
 30
0.0
 40
0.015625
100
AcDbArc
 50
149.999999999997
 51
239.0758344514194
  0
ARC
  5
124E7
330
1F
100
AcDbEntity
  8
CONTINUOUS1
100
AcDbCircle
 10
22.48305971699751
 20
8.791711637984072
 30
0.0
 40
0.015625
100
AcDbArc
 50
49.94542971787826
 51
135.0000000000092
  0
ARC
  5
124E8
330
1F
100
AcDbEntity
  8
CONTINUOUS1
100
AcDbCircle
 10
22.4278169997173
 20
8.846954355264269
 30
0.0
 40
0.015625
100
AcDbArc
 50
315.0000000000092
 51
40.05457028212173
  0
ARC
  5
124E9
330
1F
100
AcDbEntity
  8
CONTINUOUS1
100
AcDbCircle
 10
22.40322768228547
 20
8.878999777642285
 30
0.0
 40
0.015625
100
AcDbArc
 50
34.94542971788167
 51
119.999999999986
  0
ARC
  5
124EA
330
1F
100
AcDbEntity
  8
CONTINUOUS1
100
AcDbCircle
 10
22.36416518228547
 20
8.946658012312944
 30
0.0
 40
0.015625
100
AcDbArc
 50
300.0000000000038
 51
25.05457028211715
  0
ARC
  5
124EB
330
1F
100
AcDbEntity
  8
CONTINUOUS1
100
AcDbCircle
 10
22.34870769114702
 20
8.983975697059651
 30
0.0
 40
0.015625
100
AcDbArc
 50
19.94542971788492
 51
104.9999999999944
  0
ARC
  5
124EC
330
1F
100
AcDbEntity
  8
CONTINUOUS1
100
AcDbCircle
 10
22.32848745324839
 20
9.059438652238483
 30
0.0
 40
0.015625
100
AcDbArc
 50
285.0000000000069
 51
10.05457028211512
  0
ARC
  5
124ED
330
1F
100
AcDbEntity
  8
CONTINUOUS1
100
AcDbCircle
 10
22.32321519087971
 20
9.099485460808768
 30
0.0
 40
0.015625
100
AcDbArc
 50
4.945429717876983
 51
90.0
  0
ARC
  5
124EE
330
1F
100
AcDbEntity
  8
CONTINUOUS1
100
AcDbCircle
 10
22.32321519087971
 20
9.177610460808772
 30
0.0
 40
0.015625
100
AcDbArc
 50
270.0
 51
355.054570282123
  0
ARC
  5
124EF
330
1F
100
AcDbEntity
  8
CONTINUOUS1
100
AcDbCircle
 10
22.32848745324839
 20
9.217657269379056
 30
0.0
 40
0.015625
100
AcDbArc
 50
349.9454297178848
 51
75.00000000000555
  0
ARC
  5
124F0
330
1F
100
AcDbEntity
  8
CONTINUOUS1
100
AcDbCircle
 10
22.34870769114702
 20
9.293120224557895
 30
0.0
 40
0.015625
100
AcDbArc
 50
254.9999999999803
 51
340.0545702821195
  0
ARC
  5
124F1
330
1F
100
AcDbEntity
  8
CONTINUOUS1
100
AcDbCircle
 10
22.36416518228547
 20
9.330437909304592
 30
0.0
 40
0.015625
100
AcDbArc
 50
334.9454297178883
 51
59.99999999999619
  0
ARC
  5
124F2
330
1F
100
AcDbEntity
  8
CONTINUOUS1
100
AcDbCircle
 10
22.40322768228547
 20
9.398096143975251
 30
0.0
 40
0.015625
100
AcDbArc
 50
240.0000000000205
 51
325.0545702821108
  0
ARC
  5
124F3
330
1F
100
AcDbEntity
  8
CONTINUOUS1
100
AcDbCircle
 10
22.42781699971731
 20
9.430141566353274
 30
0.0
 40
0.015625
100
AcDbArc
 50
319.9454297178782
 51
45.0
  0
ARC
  5
124F4
330
1F
100
AcDbEntity
  8
CONTINUOUS1
100
AcDbCircle
 10
22.48305971699751
 20
9.485384283633468
 30
0.0
 40
0.015625
100
AcDbArc
 50
225.0000000000091
 51
310.0545702821217
  0
ARC
  5
124F5
330
1F
100
AcDbEntity
  8
CONTINUOUS1
100
AcDbCircle
 10
22.51510513937553
 20
9.509973601065308
 30
0.0
 40
0.015625
100
AcDbArc
 50
304.9454297178891
 51
29.99999999999726
  0
ARC
  5
124F6
330
1F
100
AcDbEntity
  8
CONTINUOUS1
100
AcDbCircle
 10
22.58276337404618
 20
9.549036101065308
 30
0.0
 40
0.015625
100
AcDbArc
 50
210.0000000000038
 51
295.0545702821171
  0
ARC
  5
124F7
330
1F
100
AcDbEntity
  8
CONTINUOUS1
100
AcDbCircle
 10
22.62008105879289
 20
9.564493592203756
 30
0.0
 40
0.015625
100
AcDbArc
 50
289.9454297178849
 51
14.99999999999786
  0
ARC
  5
124F8
330
1F
100
AcDbEntity
  8
CONTINUOUS1
100
AcDbCircle
 10
22.69554401397172
 20
9.584713830102391
 30
0.0
 40
0.015625
100
AcDbArc
 50
194.9999999999944
 51
280.0545702821128
  0
ARC
  5
124F9
330
1F
100
AcDbEntity
  8
CONTINUOUS1
100
AcDbCircle
 10
22.73559082254201
 20
9.589986092471075
 30
0.0
 40
0.015625
100
AcDbArc
 50
274.9454297178781
 51
0.0
  0
ARC
  5
124FA
330
1F
100
AcDbEntity
  8
CONTINUOUS1
100
AcDbCircle
 10
22.813715822542
 20
9.589986092471072
 30
0.0
 40
0.015625
100
AcDbArc
 50
180.0
 51
265.0545702821154
  0
ARC
  5
124FB
330
1F
100
AcDbEntity
  8
CONTINUOUS1
100
AcDbCircle
 10
22.85376263111229
 20
9.584713830102391
 30
0.0
 40
0.015625
100
AcDbArc
 50
259.9454297178848
 51
344.9999999999912
  0
ARC
  5
124FC
330
1F
100
AcDbEntity
  8
CONTINUOUS1
100
AcDbCircle
 10
22.92922558629112
 20
9.564493592203756
 30
0.0
 40
0.015625
100
AcDbArc
 50
165.0000000000072
 51
250.054570282115
  0
ARC
  5
124FD
330
1F
100
AcDbEntity
  8
CONTINUOUS1
100
AcDbCircle
 10
22.96654327103783
 20
9.549036101065308
 30
0.0
 40
0.015625
100
AcDbArc
 50
244.9454297178883
 51
329.9999999999929
  0
ARC
  5
124FE
330
1F
100
AcDbEntity
  8
CONTINUOUS1
100
AcDbCircle
 10
23.03420150570848
 20
9.509973601065308
 30
0.0
 40
0.015625
100
AcDbArc
 50
149.9999999999914
 51
235.0545702821182
  0
ARC
  5
124FF
330
1F
100
AcDbEntity
  8
CONTINUOUS1
100
AcDbCircle
 10
23.06624692808651
 20
9.485384283633468
 30
0.0
 40
0.015625
100
AcDbArc
 50
229.9454297178832
 51
314.9999999999907
  0
ARC
  5
12500
330
1F
100
AcDbEntity
  8
CONTINUOUS1
100
AcDbCircle
 10
23.12148964536671
 20
9.430141566353267
 30
0.0
 40
0.015625
100
AcDbArc
 50
134.9999999999953
 51
220.0545702821118
  0
ARC
  5
12501
330
1F
100
AcDbEntity
  8
CONTINUOUS1
100
AcDbCircle
 10
23.14607896279854
 20
9.398096143975251
 30
0.0
 40
0.015625
100
AcDbArc
 50
214.9454297178817
 51
299.9999999999925
  0
ARC
  5
12502
330
1F
100
AcDbEntity
  8
CONTINUOUS1
100
AcDbCircle
 10
23.18514146279854
 20
9.330437909304595
 30
0.0
 40
0.015625
100
AcDbArc
 50
119.9999999999925
 51
205.0545702821171
  0
ARC
  5
12503
330
1F
100
AcDbEntity
  8
CONTINUOUS1
100
AcDbCircle
 10
23.20059895393699
 20
9.293120224557892
 30
0.0
 40
0.015625
100
AcDbArc
 50
199.9454297178827
 51
284.999999999991
  0
ARC
  5
12504
330
1F
100
AcDbEntity
  8
CONTINUOUS1
100
AcDbCircle
 10
23.22081919183563
 20
9.217657269379056
 30
0.0
 40
0.015625
100
AcDbArc
 50
105.000000000007
 51
190.0545702821128
  0
ARC
  5
12505
330
1F
100
AcDbEntity
  8
CONTINUOUS1
100
AcDbCircle
 10
23.2260914542043
 20
9.099485460808768
 30
0.0
 40
0.015625
100
AcDbArc
 50
89.99999999999351
 51
175.0545702821219
  0
ARC
  5
12506
330
1F
100
AcDbEntity
  8
CONTINUOUS1
100
AcDbCircle
 10
23.22081919183563
 20
9.059438652238483
 30
0.0
 40
0.015625
100
AcDbArc
 50
169.9454297178871
 51
254.9999999999992
  0
ARC
  5
12507
330
1F
100
AcDbEntity
  8
CONTINUOUS1
100
AcDbCircle
 10
23.20059895393699
 20
8.983975697059648
 30
0.0
 40
0.015625
100
AcDbArc
 50
75.00000000000555
 51
160.0545702821173
  0
ARC
  5
12508
330
1F
100
AcDbEntity
  8
CONTINUOUS1
100
AcDbCircle
 10
23.18514146279854
 20
8.946658012312948
 30
0.0
 40
0.015625
100
AcDbArc
 50
154.9454297178828
 51
240.0000000000091
  0
ARC
  5
12509
330
1F
100
AcDbEntity
  8
CONTINUOUS1
100
AcDbCircle
 10
23.2260914542043
 20
9.177610460808772
 30
0.0
 40
0.015625
100
AcDbArc
 50
184.945429717878
 51
270.0000000000065
  0
ARC
  5
1254C
330
1F
100
AcDbEntity
  8
CONTINUOUS1
100
AcDbCircle
 10
16.01470332254201
 20
10.26979796080876
 30
0.0
 40
0.140625
100
AcDbArc
 50
89.44839706763072
 51
130.5516029323692
  0
LINE
  5
1254D
330
1F
100
AcDbEntity
  8
CONTINUOUS1
100
AcDbLine
 10
15.97224769637837
 20
10.29507494751709
 30
0.0
 11
15.93543811118617
 21
10.37401335770285
 31
0.0
  0
LINE
  5
1254E
330
1F
100
AcDbEntity
  8
CONTINUOUS1
100
AcDbLine
 10
15.92298272885703
 20
10.28919886785136
 30
0.0
 11
15.96884302569952
 21
10.27949841433006
 31
0.0
  0
ARC
  5
1254F
330
1F
100
AcDbEntity
  8
CONTINUOUS1
100
AcDbCircle
 10
16.01470332254201
 20
10.26979796080876
 30
0.0
 40
0.140625
100
AcDbArc
 50
130.5516029323692
 51
269.4483970676316
  0
ARC
  5
12550
330
1F
100
AcDbEntity
  8
CONTINUOUS1
100
AcDbCircle
 10
15.92835758159994
 20
10.370711652533
 30
0.0
 40
0.0078125
100
AcDbArc
 50
24.99999999999827
 51
130.5516029323726
  0
ARC
  5
12551
330
1F
100
AcDbEntity
  8
CONTINUOUS1
100
AcDbCircle
 10
16.01470332254201
 20
10.26979796080876
 30
0.0
 40
0.0625
100
AcDbArc
 50
5.52248781406659
 51
34.47751218592673
  0
ARC
  5
12552
330
1F
100
AcDbEntity
  8
CONTINUOUS1
100
AcDbCircle
 10
15.96490634777848
 20
10.29240291514736
 30
0.0
 40
0.0078125
100
AcDbArc
 50
335.5846914028112
 51
20.00000000001308
  0
ARC
  5
12554
330
1F
100
AcDbEntity
  8
CONTINUOUS1
100
AcDbCircle
 10
16.01470332254201
 20
10.26979796080876
 30
0.0
 40
0.140625
100
AcDbArc
 50
310.5516029323678
 51
89.44839706763072
  0
ARC
  5
12555
330
1F
100
AcDbEntity
  8
CONTINUOUS1
100
AcDbCircle
 10
16.01470332254201
 20
10.26979796080876
 30
0.0
 40
0.046875
100
AcDbArc
 50
155.5846914028066
 51
180.5287793655115
  0
ARC
  5
12556
330
1F
100
AcDbEntity
  8
CONTINUOUS1
100
AcDbCircle
 10
16.01470332254201
 20
10.26979796080876
 30
0.0
 40
0.140625
100
AcDbArc
 50
269.4483970676313
 51
310.5516029323678
  0
ARC
  5
12557
330
1F
100
AcDbEntity
  8
CONTINUOUS1
100
AcDbCircle
 10
16.10104906348408
 20
10.16888426908453
 30
0.0
 40
0.0078125
100
AcDbArc
 50
204.9999999999994
 51
310.5516029323682
  0
LINE
  5
12558
330
1F
100
AcDbEntity
  8
CONTINUOUS1
100
AcDbLine
 10
16.0605636193845
 20
10.26009750728746
 30
0.0
 11
16.10642391622698
 21
10.25039705376616
 31
0.0
  0
ARC
  5
12559
330
1F
100
AcDbEntity
  8
CONTINUOUS1
100
AcDbCircle
 10
16.01470332254201
 20
10.26979796080876
 30
0.0
 40
0.046875
100
AcDbArc
 50
335.5846914028066
 51
0.5287793655046175
  0
LINE
  5
1255A
330
1F
100
AcDbEntity
  8
CONTINUOUS1
100
AcDbLine
 10
16.09396853389786
 20
10.16558256391467
 30
0.0
 11
16.05715894870566
 21
10.24452097410044
 31
0.0
  0
ARC
  5
1255B
330
1F
100
AcDbEntity
  8
CONTINUOUS1
100
AcDbCircle
 10
16.01342471819441
 20
10.13699161560202
 30
0.0
 40
0.0078125
100
AcDbArc
 50
269.4483970676319
 51
15.0000000000135
  0
ARC
  5
1255C
330
1F
100
AcDbEntity
  8
CONTINUOUS1
100
AcDbCircle
 10
16.06450029730555
 20
10.24719300647017
 30
0.0
 40
0.0078125
100
AcDbArc
 50
155.5846914028111
 51
200.0
  0
LINE
  5
1255D
330
1F
100
AcDbEntity
  8
CONTINUOUS1
100
AcDbLine
 10
15.97851844825719
 20
10.23999996594348
 30
0.0
 11
15.96318154554932
 21
10.23441778987199
 31
0.0
  0
ARC
  5
1255E
330
1F
100
AcDbEntity
  8
CONTINUOUS1
100
AcDbCircle
 10
15.99108681130665
 20
10.22047268277285
 30
0.0
 40
0.0078125
100
AcDbArc
 50
20.00000000000006
 51
64.41530859718882
  0
ARC
  5
1255F
330
1F
100
AcDbEntity
  8
CONTINUOUS1
100
AcDbCircle
 10
16.01470332254201
 20
10.26979796080876
 30
0.0
 40
0.046875
100
AcDbArc
 50
219.4712206344933
 51
244.4153085971934
  0
ARC
  5
12560
330
1F
100
AcDbEntity
  8
CONTINUOUS1
100
AcDbCircle
 10
16.01470332254201
 20
10.26979796080876
 30
0.0
 40
0.0625
100
AcDbArc
 50
185.5224878140717
 51
214.4775121859314
  0
LINE
  5
12561
330
1F
100
AcDbEntity
  8
CONTINUOUS1
100
AcDbLine
 10
15.96783031877825
 20
10.26936536034304
 30
0.0
 11
15.95249341607039
 21
10.26378318427155
 31
0.0
  0
LINE
  5
12562
330
1F
100
AcDbEntity
  8
CONTINUOUS1
100
AcDbLine
 10
15.98580762831788
 20
10.23288855170614
 30
0.0
 11
15.95691193409373
 21
10.19597914260351
 31
0.0
  0
LINE
  5
12563
330
1F
100
AcDbEntity
  8
CONTINUOUS1
100
AcDbLine
 10
16.0209710137123
 20
10.13901363939188
 30
0.0
 11
15.99842815990653
 21
10.22314471514258
 31
0.0
  0
LINE
  5
12564
330
1F
100
AcDbEntity
  8
CONTINUOUS1
100
AcDbLine
 10
16.07691322901363
 20
10.27581273734598
 30
0.0
 11
16.06157632630576
 21
10.27023056127448
 31
0.0
  0
LINE
  5
12566
330
1F
100
AcDbEntity
  8
CONTINUOUS1
100
AcDbLine
 10
16.03097848517749
 20
10.31645120647494
 30
0.0
 11
16.00843563137172
 21
10.40058228222564
 31
0.0
  0
ARC
  5
12567
330
1F
100
AcDbEntity
  8
CONTINUOUS1
100
AcDbCircle
 10
16.03831983377737
 20
10.31912323884467
 30
0.0
 40
0.0078125
100
AcDbArc
 50
199.999999999987
 51
244.4153085971887
  0
ARC
  5
12568
330
1F
100
AcDbEntity
  8
CONTINUOUS1
100
AcDbCircle
 10
16.0159819268896
 20
10.4026043060155
 30
0.0
 40
0.0078125
100
AcDbArc
 50
89.44839706762728
 51
195.0000000000016
  0
LINE
  5
12569
330
1F
100
AcDbEntity
  8
CONTINUOUS1
100
AcDbLine
 10
16.0662250995347
 20
10.30517813174554
 30
0.0
 11
16.05088819682684
 21
10.29959595567404
 31
0.0
  0
LINE
  5
1256A
330
1F
100
AcDbEntity
  8
CONTINUOUS1
100
AcDbLine
 10
16.04359901676616
 20
10.30670736991138
 30
0.0
 11
16.0724947109903
 21
10.34361677901401
 31
0.0
  0
ARC
  5
1256B
330
1F
100
AcDbEntity
  8
CONTINUOUS1
100
AcDbCircle
 10
16.01470332254201
 20
10.26979796080876
 30
0.0
 40
0.046875
100
AcDbArc
 50
39.47122063448576
 51
64.41530859719347
  0
ARC
  5
1256C
330
1F
100
AcDbEntity
  8
CONTINUOUS1
100
AcDbCircle
 10
16.01470332254201
 20
8.038547960808772
 30
0.0
 40
0.140625
100
AcDbArc
 50
270.5516029323692
 51
49.44839706763218
  0
LINE
  5
1256D
330
1F
100
AcDbEntity
  8
CONTINUOUS1
100
AcDbLine
 10
15.92298272885703
 20
8.019147053766172
 30
0.0
 11
15.96884302569952
 21
8.028847507287473
 31
0.0
  0
ARC
  5
1256E
330
1F
100
AcDbEntity
  8
CONTINUOUS1
100
AcDbCircle
 10
16.01470332254201
 20
8.038547960808772
 30
0.0
 40
0.140625
100
AcDbArc
 50
229.4483970676306
 51
270.5516029323692
  0
LINE
  5
1256F
330
1F
100
AcDbEntity
  8
CONTINUOUS1
100
AcDbLine
 10
15.97224769637837
 20
8.013270974100443
 30
0.0
 11
15.93543811118617
 21
7.934332563914685
 31
0.0
  0
ARC
  5
12570
330
1F
100
AcDbEntity
  8
CONTINUOUS1
100
AcDbCircle
 10
16.01470332254201
 20
8.038547960808772
 30
0.0
 40
0.140625
100
AcDbArc
 50
90.55160293236836
 51
229.4483970676306
  0
ARC
  5
12571
330
1F
100
AcDbEntity
  8
CONTINUOUS1
100
AcDbCircle
 10
15.92835758159994
 20
7.937634269084533
 30
0.0
 40
0.0078125
100
AcDbArc
 50
229.4483970676273
 51
335.0000000000016
  0
ARC
  5
12572
330
1F
100
AcDbEntity
  8
CONTINUOUS1
100
AcDbCircle
 10
16.01470332254201
 20
8.038547960808772
 30
0.0
 40
0.0625
100
AcDbArc
 50
325.5224878140732
 51
354.4775121859334
  0
ARC
  5
12573
330
1F
100
AcDbEntity
  8
CONTINUOUS1
100
AcDbCircle
 10
16.01470332254201
 20
8.038547960808772
 30
0.0
 40
0.046875
100
AcDbArc
 50
179.4712206344884
 51
204.4153085971933
  0
ARC
  5
12575
330
1F
100
AcDbEntity
  8
CONTINUOUS1
100
AcDbCircle
 10
16.01470332254201
 20
8.038547960808772
 30
0.0
 40
0.140625
100
AcDbArc
 50
49.44839706763218
 51
90.55160293236863
  0
LINE
  5
12576
330
1F
100
AcDbEntity
  8
CONTINUOUS1
100
AcDbLine
 10
16.0209710137123
 20
8.169332282225648
 30
0.0
 11
15.99842815990653
 21
8.08520120647495
 31
0.0
  0
LINE
  5
12577
330
1F
100
AcDbEntity
  8
CONTINUOUS1
100
AcDbLine
 10
15.98580762831788
 20
8.075457369911395
 30
0.0
 11
15.95691193409373
 21
8.112366779014021
 31
0.0
  0
LINE
  5
12578
330
1F
100
AcDbEntity
  8
CONTINUOUS1
100
AcDbLine
 10
15.96783031877825
 20
8.03898056127449
 30
0.0
 11
15.95249341607039
 21
8.044562737345986
 31
0.0
  0
ARC
  5
12579
330
1F
100
AcDbEntity
  8
CONTINUOUS1
100
AcDbCircle
 10
16.01470332254201
 20
8.038547960808772
 30
0.0
 40
0.0625
100
AcDbArc
 50
145.5224878140685
 51
174.4775121859282
  0
ARC
  5
1257A
330
1F
100
AcDbEntity
  8
CONTINUOUS1
100
AcDbCircle
 10
16.01470332254201
 20
8.038547960808772
 30
0.0
 40
0.046875
100
AcDbArc
 50
115.5846914028065
 51
140.5287793655066
  0
ARC
  5
1257B
330
1F
100
AcDbEntity
  8
CONTINUOUS1
100
AcDbCircle
 10
15.99108681130665
 20
8.087873238844679
 30
0.0
 40
0.0078125
100
AcDbArc
 50
295.5846914028111
 51
339.9999999999999
  0
LINE
  5
1257C
330
1F
100
AcDbEntity
  8
CONTINUOUS1
100
AcDbLine
 10
15.97851844825719
 20
8.068345955674049
 30
0.0
 11
15.96318154554932
 21
8.073928131745544
 31
0.0
  0
ARC
  5
1257D
330
1F
100
AcDbEntity
  8
CONTINUOUS1
100
AcDbCircle
 10
16.01342471819441
 20
8.17135430601551
 30
0.0
 40
0.0078125
100
AcDbArc
 50
344.9999999999864
 51
90.55160293236808
  0
LINE
  5
1257E
330
1F
100
AcDbEntity
  8
CONTINUOUS1
100
AcDbLine
 10
16.07691322901363
 20
8.032533184271553
 30
0.0
 11
16.06157632630576
 21
8.038115360343056
 31
0.0
  0
ARC
  5
1257F
330
1F
100
AcDbEntity
  8
CONTINUOUS1
100
AcDbCircle
 10
16.06450029730555
 20
8.061152915147362
 30
0.0
 40
0.0078125
100
AcDbArc
 50
159.9999999999999
 51
204.4153085971887
  0
LINE
  5
12580
330
1F
100
AcDbEntity
  8
CONTINUOUS1
100
AcDbLine
 10
16.09396853389786
 20
8.142763357702856
 30
0.0
 11
16.05715894870566
 21
8.063824947517094
 31
0.0
  0
ARC
  5
12581
330
1F
100
AcDbEntity
  8
CONTINUOUS1
100
AcDbCircle
 10
16.01470332254201
 20
8.038547960808772
 30
0.0
 40
0.046875
100
AcDbArc
 50
359.4712206344953
 51
24.41530859719332
  0
LINE
  5
12582
330
1F
100
AcDbEntity
  8
CONTINUOUS1
100
AcDbLine
 10
16.0605636193845
 20
8.048248414330073
 30
0.0
 11
16.10642391622698
 21
8.057948867851372
 31
0.0
  0
ARC
  5
12583
330
1F
100
AcDbEntity
  8
CONTINUOUS1
100
AcDbCircle
 10
16.10104906348408
 20
8.139461652533006
 30
0.0
 40
0.0078125
100
AcDbArc
 50
49.44839706763178
 51
155.0000000000005
  0
LINE
  5
12585
330
1F
100
AcDbEntity
  8
CONTINUOUS1
100
AcDbLine
 10
16.03097848517749
 20
7.991894715142588
 30
0.0
 11
16.00843563137172
 21
7.907763639391891
 31
0.0
  0
ARC
  5
12586
330
1F
100
AcDbEntity
  8
CONTINUOUS1
100
AcDbCircle
 10
16.0159819268896
 20
7.905741615602028
 30
0.0
 40
0.0078125
100
AcDbArc
 50
164.9999999999983
 51
270.5516029323726
  0
ARC
  5
12587
330
1F
100
AcDbEntity
  8
CONTINUOUS1
100
AcDbCircle
 10
15.96490634777848
 20
8.015943006470177
 30
0.0
 40
0.0078125
100
AcDbArc
 50
339.9999999999868
 51
24.41530859718873
  0
LINE
  5
12588
330
1F
100
AcDbEntity
  8
CONTINUOUS1
100
AcDbLine
 10
16.0662250995347
 20
8.003167789871994
 30
0.0
 11
16.05088819682684
 21
8.008749965943495
 31
0.0
  0
ARC
  5
12589
330
1F
100
AcDbEntity
  8
CONTINUOUS1
100
AcDbCircle
 10
16.01470332254201
 20
8.038547960808772
 30
0.0
 40
0.046875
100
AcDbArc
 50
295.5846914028064
 51
320.5287793655141
  0
ARC
  5
1258A
330
1F
100
AcDbEntity
  8
CONTINUOUS1
100
AcDbCircle
 10
16.03831983377737
 20
7.989222682772858
 30
0.0
 40
0.0078125
100
AcDbArc
 50
115.5846914028112
 51
160.0000000000129
  0
LINE
  5
1258B
330
1F
100
AcDbEntity
  8
CONTINUOUS1
100
AcDbLine
 10
16.04359901676616
 20
8.00163855170615
 30
0.0
 11
16.0724947109903
 21
7.964729142603527
 31
0.0
  0
ARC
  5
1258E
330
1F
100
AcDbEntity
  8
CONTINUOUS1
100
AcDbCircle
 10
22.774653322542
 20
9.138547960808768
 30
0.0
 40
0.21875
100
AcDbArc
 50
45.58469140280593
 51
314.4153085971933
  0
LINE
  5
12591
330
1F
100
AcDbEntity
  8
CONTINUOUS1
100
AcDbLine
 10
22.57014531009984
 20
9.193345717588341
 30
0.0
 11
22.71985556576244
 21
9.343055973250928
 31
0.0
  0
LINE
  5
12592
330
1F
100
AcDbEntity
  8
CONTINUOUS1
100
AcDbLine
 10
22.71985556576244
 20
9.343055973250928
 30
0.0
 11
22.92436357820459
 21
9.288258216471357
 31
0.0
  0
LINE
  5
12593
330
1F
100
AcDbEntity
  8
CONTINUOUS1
100
AcDbLine
 10
22.97916133498417
 20
9.083750204029199
 30
0.0
 11
22.92436357820459
 21
9.288258216471357
 31
0.0
  0
LINE
  5
12594
330
1F
100
AcDbEntity
  8
CONTINUOUS1
100
AcDbLine
 10
22.82945107932158
 20
8.934039948366612
 30
0.0
 11
22.97916133498417
 21
9.083750204029199
 31
0.0
  0
LINE
  5
12595
330
1F
100
AcDbEntity
  8
CONTINUOUS1
100
AcDbLine
 10
22.82945107932158
 20
8.934039948366612
 30
0.0
 11
22.62494306687942
 21
8.988837705146183
 31
0.0
  0
LINE
  5
12596
330
1F
100
AcDbEntity
  8
CONTINUOUS1
100
AcDbLine
 10
22.57014531009984
 20
9.193345717588341
 30
0.0
 11
22.62494306687942
 21
8.988837705146183
 31
0.0
  0
ARC
  5
125A2
330
1F
100
AcDbEntity
  8
CONTINUOUS1
100
AcDbCircle
 10
22.774653322542
 20
9.138547960808768
 30
0.0
 40
0.3125
100
AcDbArc
 50
329.9999999999996
 51
355.0284496167405
  0
LINE
  5
125A6
330
1F
100
AcDbEntity
  8
CONTINUOUS1
100
AcDbLine
 10
22.92774643146595
 20
8.98229796080877
 30
0.0
 11
23.04528626122464
 21
8.982297960808768
 31
0.0
  0
LINE
  5
125B4
330
1F
100
AcDbEntity
  8
CONTINUOUS1
100
AcDbLine
 10
22.92774643146596
 20
9.294797960808768
 30
0.0
 11
23.04528626122464
 21
9.294797960808768
 31
0.0
  0
ARC
  5
125B7
330
1F
100
AcDbEntity
  8
CONTINUOUS1
100
AcDbCircle
 10
22.993403322542
 20
9.138547960808768
 30
0.0
 40
0.03125
100
AcDbArc
 50
30.00000000000054
 51
329.9999999999994
  0
ARC
  5
125BC
330
1F
100
AcDbEntity
  8
CONTINUOUS1
100
AcDbCircle
 10
23.0619309329579
 20
9.166993301279234
 30
0.0
 40
0.060510201255204
100
AcDbArc
 50
226.7451171478912
 51
293.415703296817
  0
ARC
  5
125BF
330
1F
100
AcDbEntity
  8
CONTINUOUS1
100
AcDbCircle
 10
22.774653322542
 20
9.138547960808768
 30
0.0
 40
0.3125
100
AcDbArc
 50
4.971550383259443
 51
29.9999999999996
  0
ARC
  5
125C0
330
1F
100
AcDbEntity
  8
CONTINUOUS1
100
AcDbCircle
 10
23.06193093295791
 20
9.110102620338295
 30
0.0
 40
0.0605102012552126
100
AcDbArc
 50
66.58429670318556
 51
133.2548828521089
  0
CIRCLE
  5
125C4
330
1F
100
AcDbEntity
  8
CONTINUOUS1
100
AcDbCircle
 10
23.02318416192618
 20
9.232297960808764
 30
0.0
 40
0.03125
  0
CIRCLE
  5
125C5
330
1F
100
AcDbEntity
  8
CONTINUOUS1
100
AcDbCircle
 10
23.02318416192618
 20
9.044797960808766
 30
0.0
 40
0.03125
  0
CIRCLE
  5
125DB
330
1F
100
AcDbEntity
  8
CONTINUOUS1
100
AcDbCircle
 10
18.56152832254201
 20
9.13854796080877
 30
0.0
 40
0.5625
  0
LINE
  5
125E2
330
1F
100
AcDbEntity
  8
CONTINUOUS1
100
AcDbLine
 10
19.81152832254201
 20
8.013547960808768
 30
0.0
 11
19.811528322542
 21
10.26354796080876
 31
0.0
  0
LINE
  5
125E3
330
1F
100
AcDbEntity
  8
CONTINUOUS1
100
AcDbLine
 10
17.311528322542
 20
8.013547960808768
 30
0.0
 11
17.31152832254201
 21
10.26354796080877
 31
0.0
  0
LINE
  5
125E4
330
1F
100
AcDbEntity
  8
CONTINUOUS1
100
AcDbLine
 10
17.311528322542
 20
8.013547960808768
 30
0.0
 11
19.81152832254201
 21
8.013547960808768
 31
0.0
  0
LINE
  5
125E5
330
1F
100
AcDbEntity
  8
CONTINUOUS1
100
AcDbLine
 10
17.31152832254201
 20
10.26354796080876
 30
0.0
 11
19.81152832254201
 21
10.26354796080876
 31
0.0
  0
LINE
  5
125E6
330
1F
100
AcDbEntity
  8
CONTINUOUS1
100
AcDbLine
 10
17.50061892979823
 20
8.359656593818449
 30
0.0
 11
17.50061892979823
 21
9.63244634233796
 31
0.0
  0
TEXT
  5
125E9
330
1F
100
AcDbEntity
  8
TEXT1
100
AcDbText
 10
17.88194353314896
 20
9.8301018016154
 30
0.0
 40
0.0955525441703796
  1
H7
 50
90.0
  7
ROMANS
 72
     1
 11
17.83416726106376
 21
9.927929406361265
 31
0.0
100
AcDbText
 73
     2
  0
LINE
  5
125EA
330
1F
100
AcDbEntity
  8
CONTINUOUS1
100
AcDbLine
 10
18.56152832254201
 20
8.341672960808772
 30
0.0
 11
18.56152832254201
 21
8.560422960808768
 31
0.0
  0
LINE
  5
125EC
330
1F
100
AcDbEntity
  8
CONTINUOUS1
100
AcDbLine
 10
18.811528322542
 20
9.88854796080877
 30
0.0
 11
18.21777832254201
 21
9.888547960808768
 31
0.0
  0
LINE
  5
125ED
330
1F
100
AcDbEntity
  8
CONTINUOUS1
100
AcDbLine
 10
18.811528322542
 20
9.98229796080877
 30
0.0
 11
18.21777832254201
 21
9.982297960808768
 31
0.0
  0
LINE
  5
125EF
330
1F
100
AcDbEntity
  8
CONTINUOUS1
100
AcDbLine
 10
18.811528322542
 20
9.88854796080877
 30
0.0
 11
18.811528322542
 21
9.982297960808772
 31
0.0
  0
LINE
  5
125F0
330
1F
100
AcDbEntity
  8
CONTINUOUS1
100
AcDbLine
 10
18.21777832254201
 20
9.888547960808768
 30
0.0
 11
18.21777832254201
 21
9.982297960808768
 31
0.0
  0
LINE
  5
125F1
330
1F
100
AcDbEntity
  8
CONTINUOUS1
100
AcDbLine
 10
18.3827305941676
 20
8.294797960808768
 30
0.0
 11
17.92090332254201
 21
8.294797960808772
 31
0.0
  0
LINE
  5
125F2
330
1F
100
AcDbEntity
  8
CONTINUOUS1
100
AcDbLine
 10
18.38273059416759
 20
8.388547960808768
 30
0.0
 11
17.92090332254201
 21
8.388547960808772
 31
0.0
  0
LINE
  5
125F3
330
1F
100
AcDbEntity
  8
CONTINUOUS1
100
AcDbLine
 10
18.38273059416759
 20
8.38854796080877
 30
0.0
 11
18.3827305941676
 21
8.294797960808768
 31
0.0
  0
LINE
  5
125F4
330
1F
100
AcDbEntity
  8
CONTINUOUS1
100
AcDbLine
 10
17.92090332254201
 20
8.388547960808772
 30
0.0
 11
17.92090332254201
 21
8.294797960808772
 31
0.0
  0
TEXT
  5
125F5
330
1F
100
AcDbEntity
  8
TEXT1
100
AcDbText
 10
17.88194348495223
 20
8.575884504467074
 30
0.0
 40
0.0955525441703796
  1
XY2-CH
 50
90.0
  7
ROMANS
 72
     1
 11
17.83416721286704
 21
8.862542136978213
 31
0.0
100
AcDbText
 73
     2
  0
LINE
  5
125F6
330
1F
100
AcDbEntity
  8
CONTINUOUS1
100
AcDbLine
 10
18.4296055941676
 20
8.341672960808772
 30
0.0
 11
18.56152832254201
 21
8.341672960808772
 31
0.0
  0
LINE
  5
125FB
330
1F
100
AcDbEntity
  8
CONTINUOUS1
100
AcDbLine
 10
18.68652832254201
 20
8.341672960808772
 30
0.0
 11
18.96777832254201
 21
8.341672960808772
 31
0.0
  0
LINE
  5
125FD
330
1F
100
AcDbEntity
  8
CONTINUOUS1
100
AcDbLine
 10
18.5206751227048
 20
8.56186821286537
 30
0.0
 11
18.68652832254201
 21
8.341672960808772
 31
0.0
  0
LINE
  5
12609
330
1F
100
AcDbEntity
  8
CONTINUOUS1
100
AcDbLine
 10
18.70766504516353
 20
9.851940957362847
 30
0.0
 11
18.34766504516353
 21
9.851940957362847
 31
0.0
  0
CIRCLE
  5
1260B
330
1F
100
AcDbEntity
  8
TEXT1
100
AcDbCircle
 10
18.68652832254201
 20
8.20104796080877
 30
0.0
 40
0.09375
  0
LEADER
  5
1260E
330
1F
100
AcDbEntity
  8
TEXT1
100
AcDbLeader
  3
SCHNEIDERELECTRIC_DUAL_BEL
 76
     3
 10
18.68652832254201
 20
8.279172960808768
 30
0.0
 10
18.68652832254201
 20
8.201047960808768
 30
0.0
 10
18.68652832254201
 20
8.122922960808768
 30
0.0
211
0.0000000000000001
221
1.0
231
0.0
1001
ACAD
1000
DSTYLE
1002
{
1070
     5
1000
SEARROW
1070
    40
1040
0.5
1070
    77
1070
     0
1070
   147
1040
0.04
1070
   342
1005
AA81
1002
}
  0
CIRCLE
  5
1260F
330
1F
100
AcDbEntity
  8
TEXT1
100
AcDbCircle
 10
19.18652832254201
 20
8.20104796080877
 30
0.0
 40
0.09375
  0
ARC
  5
12610
330
1F
100
AcDbEntity
  8
TEXT1
100
AcDbCircle
 10
19.611528322542
 20
8.20104796080877
 30
0.0
 40
0.09375
100
AcDbArc
 50
119.9999999999999
 51
59.99999999999994
  0
TEXT
  5
12611
330
1F
100
AcDbEntity
  8
TEXT1
100
AcDbText
 10
19.25534033557874
 20
8.203645996891626
 30
0.0
 40
0.08
  1
L
 50
90.0
 41
0.75
  7
ROMANS
 72
     1
 11
19.21534033557874
 21
8.232217425463055
 31
0.0
100
AcDbText
 73
     2
  0
TEXT
  5
12612
330
1F
100
AcDbEntity
  8
TEXT1
100
AcDbText
 10
19.20441437224661
 20
8.138512678090442
 30
0.0
 40
0.08
  1
U
 50
90.0
 41
0.75
  7
ROMANS
 72
     1
 11
19.16441437224661
 21
8.169941249519014
 31
0.0
100
AcDbText
 73
     2
  0
LINE
  5
12616
330
1F
100
AcDbEntity
  8
TEXT1
100
AcDbLine
 10
19.662309572542
 20
8.289003665880626
 30
0.0
 11
19.658403322542
 21
8.282237842413559
 31
0.0
  0
TEXT
  5
12617
330
1F
100
AcDbEntity
  8
TEXT1
100
AcDbText
 10
19.6294143722466
 20
8.141369820947586
 30
0.0
 40
0.08
  1
S
 50
90.0
 41
0.75
  7
ROMANS
 72
     1
 11
19.58941437224661
 21
8.169941249519014
 31
0.0
100
AcDbText
 73
     2
  0
TEXT
  5
12618
330
1F
100
AcDbEntity
  8
TEXT1
100
AcDbText
 10
19.68034033557874
 20
8.20650313974877
 30
0.0
 40
0.08
  1
A
 50
90.0
 41
0.75
  7
ROMANS
 72
     1
 11
19.64034033557874
 21
8.232217425463055
 31
0.0
100
AcDbText
 73
     2
  0
ARC
  5
12619
330
1F
100
AcDbEntity
  8
TEXT1
100
AcDbCircle
 10
19.611528322542
 20
8.20104796080877
 30
0.0
 40
0.1015625
100
AcDbArc
 50
119.9999999999999
 51
59.99999999999994
  0
LINE
  5
1261B
330
1F
100
AcDbEntity
  8
TEXT1
100
AcDbLine
 10
19.564653322542
 20
8.282237842413559
 30
0.0
 11
19.560747072542
 21
8.289003665880626
 31
0.0
  0
TEXT
  5
12621
330
1F
100
AcDbEntity
  8
TEXT1
100
AcDbText
 10
19.62403296450981
 20
8.365732670812967
 30
0.0
 40
0.08
  1
UL Type 12
 50
90.0
 41
0.75
  7
ROMANS
 11
19.5840329645098
 21
8.365732670812967
 31
0.0
100
AcDbText
 73
     2
  0
TEXT
  5
12623
330
1F
100
AcDbEntity
  8
TEXT1
100
AcDbText
 10
19.75403296450981
 20
8.365732670812967
 30
0.0
 40
0.08
  1
CSA Type 4
 50
90.0
 41
0.75
  7
ROMANS
 11
19.71403296450981
 21
8.365732670812967
 31
0.0
100
AcDbText
 73
     2
  0
TEXT
  5
12624
330
1F
100
AcDbEntity
  8
TEXT1
100
AcDbText
 10
19.3090329645098
 20
8.365732670812967
 30
0.0
 40
0.08
  1
Ind. Cont. Eq.
 50
90.0
 41
0.75
  7
ROMANS
 11
19.2690329645098
 21
8.365732670812967
 31
0.0
100
AcDbText
 73
     2
  0
TEXT
  5
12625
330
1F
100
AcDbEntity
  8
TEXT1
100
AcDbText
 10
19.1990329645098
 20
8.365732670812967
 30
0.0
 40
0.08
  1
LISTED 170M
 50
90.0
 41
0.75
  7
ROMANS
 11
19.1590329645098
 21
8.365732670812967
 31
0.0
100
AcDbText
 73
     2
  0
TEXT
  5
12626
330
1F
100
AcDbEntity
  8
TEXT1
100
AcDbText
 10
19.4290329645098
 20
8.365732670812967
 30
0.0
 40
0.08
  1
A300-Q300
 50
90.0
 41
0.75
  7
ROMANS
 11
19.3890329645098
 21
8.365732670812967
 31
0.0
100
AcDbText
 73
     2
  0
ARC
  5
12629
330
1F
100
AcDbEntity
  8
TEXT1
100
AcDbCircle
 10
19.61152832254201
 20
10.20104796080877
 30
0.0
 40
0.1015625
100
AcDbArc
 50
180.0
 51
0.0
  0
ARC
  5
1262A
330
1F
100
AcDbEntity
  8
TEXT1
100
AcDbCircle
 10
19.61152832254201
 20
10.20104796080877
 30
0.0
 40
0.09375
100
AcDbArc
 50
180.0
 51
267.615807570101
  0
LINE
  5
1262D
330
1F
100
AcDbEntity
  8
TEXT1
100
AcDbLine
 10
19.71309082254201
 20
10.20104796080876
 30
0.0
 11
19.70527832254201
 21
10.20104796080876
 31
0.0
  0
LINE
  5
1262E
330
1F
100
AcDbEntity
  8
TEXT1
100
AcDbLine
 10
19.51777832254201
 20
10.20104796080876
 30
0.0
 11
19.50996582254201
 21
10.20104796080876
 31
0.0
  0
ARC
  5
12630
330
1F
100
AcDbEntity
  8
TEXT1
100
AcDbCircle
 10
19.61152832254201
 20
10.04479796080877
 30
0.0
 40
0.09375
100
AcDbArc
 50
180.0
 51
0.0
  0
ARC
  5
12631
330
1F
100
AcDbEntity
  8
TEXT1
100
AcDbCircle
 10
19.61152832254201
 20
10.04479796080877
 30
0.0
 40
0.1015625
100
AcDbArc
 50
180.0
 51
0.0
  0
LINE
  5
12632
330
1F
100
AcDbEntity
  8
TEXT1
100
AcDbLine
 10
19.71309082254201
 20
10.04479796080876
 30
0.0
 11
19.70527832254201
 21
10.04479796080876
 31
0.0
  0
LINE
  5
12633
330
1F
100
AcDbEntity
  8
TEXT1
100
AcDbLine
 10
19.51777832254201
 20
10.04479796080876
 30
0.0
 11
19.50996582254201
 21
10.04479796080876
 31
0.0
  0
LINE
  5
12635
330
1F
100
AcDbEntity
  8
TEXT1
100
AcDbLine
 10
19.61542832254201
 20
10.16979796080876
 30
0.0
 11
19.61542832254201
 21
10.10737911593492
 31
0.0
  0
LINE
  5
12636
330
1F
100
AcDbEntity
  8
TEXT1
100
AcDbLine
 10
19.60762832254201
 20
10.16979796080876
 30
0.0
 11
19.60762832254201
 21
10.10737911593492
 31
0.0
  0
LINE
  5
12638
330
1F
100
AcDbEntity
  8
TEXT1
100
AcDbLine
 10
19.60762832254201
 20
10.16979796080876
 30
0.0
 11
19.61542832254201
 21
10.16979796080876
 31
0.0
  0
ARC
  5
1263D
330
1F
100
AcDbEntity
  8
TEXT1
100
AcDbCircle
 10
19.61152832254201
 20
10.20104796080877
 30
0.0
 40
0.09375
100
AcDbArc
 50
272.3841924298989
 51
0.0
  0
HATCH
  5
12646
330
1F
100
AcDbEntity
  8
TEXT1
100
AcDbHatch
 10
0.0
 20
0.0
 30
0.0
210
0.0
220
0.0
230
1.0
  2
SOLID
 70
     1
 71
     0
 91
        1
 92
        7
 72
     1
 73
     1
 93
        8
 10
19.50996582254201
 20
10.20104796080876
 42
1.0
 10
19.71309082254201
 20
10.20104796080876
 42
0.0
 10
19.70527832254201
 20
10.20104796080876
 42
-0.4020775445212383
 10
19.61542832254201
 20
10.10737911593492
 42
0.0
 10
19.61542832254201
 20
10.16979796080876
 42
0.0
 10
19.60762832254201
 20
10.16979796080876
 42
0.0
 10
19.60762832254201
 20
10.10737911593492
 42
-0.4020775445212383
 10
19.51777832254201
 20
10.20104796080876
 42
0.0
 97
        0
 75
     0
 76
     1
 47
0.000647655649444
 98
        1
 10
19.51464437348876
 20
10.18681839568437
  0
HATCH
  5
1264B
330
1F
100
AcDbEntity
  8
TEXT1
100
AcDbHatch
 10
0.0
 20
0.0
 30
0.0
210
0.0
220
0.0
230
1.0
  2
SOLID
 70
     1
 71
     0
 91
        1
 92
        7
 72
     1
 73
     1
 93
        4
 10
19.50996582254201
 20
10.04479796080876
 42
1.0
 10
19.71309082254201
 20
10.04479796080876
 42
0.0
 10
19.70527832254201
 20
10.04479796080876
 42
-1.0
 10
19.51777832254201
 20
10.04479796080876
 42
0.0
 97
        0
 75
     0
 76
     1
 47
0.000647655649444
 98
        1
 10
19.51529204110964
 20
10.03062232581712
  0
HATCH
  5
12650
330
1F
100
AcDbEntity
  8
TEXT1
100
AcDbHatch
 10
0.0
 20
0.0
 30
0.0
210
0.0
220
0.0
230
1.0
  2
SOLID
 70
     1
 71
     0
 91
        1
 92
        7
 72
     1
 73
     1
 93
        4
 10
19.662309572542
 20
8.289003665880626
 42
0.0
 10
19.658403322542
 20
8.282237842413559
 42
-3.732050807568874
 10
19.564653322542
 20
8.282237842413559
 42
0.0
 10
19.560747072542
 20
8.289003665880626
 42
3.732050807568874
 97
        0
 75
     0
 76
     1
 47
0.0006476557271806
 98
        1
 10
19.70906038009765
 20
8.183126003203147
  0
LINE
  5
12654
330
1F
100
AcDbEntity
  8
CONTINUOUS1
100
AcDbLine
 10
18.34766504516353
 20
9.851940957362847
 30
0.0
 11
18.34766504516353
 21
9.888547960808768
 31
0.0
  0
LINE
  5
12655
330
1F
100
AcDbEntity
  8
CONTINUOUS1
100
AcDbLine
 10
18.70766504516353
 20
9.851940957362847
 30
0.0
 11
18.70766504516353
 21
9.88854796080877
 31
0.0
  0
HATCH
  5
1265A
330
1F
100
AcDbEntity
  8
CONTINUOUS1
100
AcDbHatch
 10
0.0
 20
0.0
 30
0.0
210
0.0
220
0.0
230
1.0
  2
SOLID
 70
     1
 71
     0
 91
        1
 92
        7
 72
     0
 73
     1
 93
        4
 10
18.70766504516353
 20
9.851940957362847
 10
18.70766504516353
 20
9.88854796080877
 10
18.34766504516353
 20
9.88854796080877
 10
18.34766504516353
 20
9.851940957362847
 97
        0
 75
     0
 76
     1
 47
0.0021271158377883
 98
        1
 10
18.474487137947
 20
9.879613208448693
  0
LINE
  5
1265C
102
{ACAD_REACTORS
330
12664
102
}
330
1F
100
AcDbEntity
  8
CONTINUOUS1
100
AcDbLine
 10
18.38965332254201
 20
10.10729796080876
 30
0.0
 11
18.514653322542
 21
9.98229796080877
 31
0.0
  0
LINE
  5
1265D
102
{ACAD_REACTORS
330
12664
102
}
330
1F
100
AcDbEntity
  8
CONTINUOUS1
100
AcDbLine
 10
18.639653322542
 20
10.10729796080876
 30
0.0
 11
18.514653322542
 21
9.982297960808768
 31
0.0
  0
LINE
  5
1265E
102
{ACAD_REACTORS
330
12664
102
}
330
1F
100
AcDbEntity
  8
CONTINUOUS1
100
AcDbLine
 10
18.639653322542
 20
10.10729796080876
 30
0.0
 11
18.389653322542
 21
10.10729796080876
 31
0.0
  0
HATCH
  5
12664
330
1F
100
AcDbEntity
  8
CONTINUOUS1
100
AcDbHatch
 10
0.0
 20
0.0
 30
0.0
210
0.0
220
0.0
230
1.0
  2
SOLID
 70
     1
 71
     1
 91
        1
 92
        7
 72
     0
 73
     1
 93
        3
 10
18.514653322542
 20
9.98229796080877
 10
18.639653322542
 20
10.10729796080876
 10
18.38965332254201
 20
10.10729796080876
 97
        3
330
1265C
330
1265D
330
1265E
 75
     0
 76
     1
 47
0.0021271158377883
 98
        1
 10
18.48512270975096
 20
10.06693254479195
  0
TEXT
  5
12667
330
1F
100
AcDbEntity
  8
TEXT1
100
AcDbText
 10
19.0890329645098
 20
9.490001630583996
 30
0.0
 40
0.08
  1
IEC 947-5-1
 50
90.0
 41
0.75
  7
ROMANS
 72
     2
 11
19.0490329645098
 21
10.09571591629828
 31
0.0
100
AcDbText
 73
     2
  0
TEXT
  5
12668
330
1F
100
AcDbEntity
  8
TEXT1
100
AcDbText
 10
19.75403296450981
 20
9.287607670812967
 30
0.0
 40
0.08
  1
France
 50
90.0
 41
0.75
  7
ROMANS
 11
19.71403296450981
 21
9.287607670812967
 31
0.0
100
AcDbText
 73
     2
  0
TEXT
  5
12669
330
1F
100
AcDbEntity
  8
TEXT1
100
AcDbText
 10
19.62403296450981
 20
9.287607670812967
 30
0.0
 40
0.08
  1
IP 65
 50
90.0
 41
0.75
  7
ROMANS
 11
19.5840329645098
 21
9.287607670812967
 31
0.0
100
AcDbText
 73
     2
  0
TEXT
  5
1266A
330
1F
100
AcDbEntity
  8
TEXT1
100
AcDbText
 10
19.31903296450981
 20
9.275715916298281
 30
0.0
 40
0.08
  1
Ui:400V-Uimp:4kV
 50
90.0
 41
0.75
  7
ROMANS
 72
     2
 11
19.2790329645098
 21
10.09571591629828
 31
0.0
100
AcDbText
 73
     2
  0
TEXT
  5
1266B
330
1F
100
AcDbEntity
  8
TEXT1
100
AcDbText
 10
19.1990329645098
 20
9.395715916298282
 30
0.0
 40
0.08
  1
EN 60947-5-1
 50
90.0
 41
0.75
  7
ROMANS
 72
     2
 11
19.1590329645098
 21
10.09571591629828
 31
0.0
100
AcDbText
 73
     2
  0
TEXT
  5
1266C
330
1F
100
AcDbEntity
  8
TEXT1
100
AcDbText
 10
19.4290329645098
 20
9.361430202012567
 30
0.0
 40
0.08
  1
AC 15 240V 3A
 50
90.0
 41
0.75
  7
ROMANS
 72
     2
 11
19.3890329645098
 21
10.09571591629828
 31
0.0
100
AcDbText
 73
     2
  0
ARC
  5
12672
330
1F
100
AcDbEntity
  8
CONTINUOUS1
100
AcDbCircle
 10
22.774653322542
 20
9.138547960808766
 30
0.0
 40
0.515625
100
AcDbArc
 50
158.848445399825
 51
227.7934426398316
  0
LINE
  5
12679
330
1F
100
AcDbEntity
  8
CONTINUOUS1
100
AcDbLine
 10
22.44876584406508
 20
8.638547960808768
 30
0.0
 11
22.44876584406507
 21
8.710314750761565
 31
0.0
  0
LINE
  5
1267A
330
1F
100
AcDbEntity
  8
CONTINUOUS1
100
AcDbLine
 10
22.44876584406508
 20
9.576047960808768
 30
0.0
 11
22.44876584406508
 21
9.607297960808768
 31
0.0
  0
ARC
  5
1267C
330
1F
100
AcDbEntity
  8
CONTINUOUS1
100
AcDbCircle
 10
22.38626584406508
 20
8.710314750761563
 30
0.0
 40
0.0625
100
AcDbArc
 50
0.0000000000016284
 51
47.79344263983171
  0
ARC
  5
1267E
330
1F
100
AcDbEntity
  8
CONTINUOUS1
100
AcDbCircle
 10
22.41751584406507
 20
9.607297960808766
 30
0.0
 40
0.03125
100
AcDbArc
 50
0.0000000000032569
 51
90.00000000000325
  0
LINE
  5
12681
330
1F
100
AcDbEntity
  8
CONTINUOUS1
100
AcDbLine
 10
22.32501637429765
 20
9.544797960808766
 30
0.0
 11
22.37589283488415
 21
9.544797960808768
 31
0.0
  0
ARC
  5
12682
330
1F
100
AcDbEntity
  8
CONTINUOUS1
100
AcDbCircle
 10
22.41751584406507
 20
9.576047960808768
 30
0.0
 40
0.03125
100
AcDbArc
 50
269.9999999999998
 51
0.0
  0
LINE
  5
12683
330
1F
100
AcDbEntity
  8
CONTINUOUS1
100
AcDbLine
 10
22.29376637429765
 20
9.324604091138386
 30
0.0
 11
22.29376637429765
 21
9.513547960808768
 31
0.0
  0
ARC
  5
12686
330
1F
100
AcDbEntity
  8
CONTINUOUS1
100
AcDbCircle
 10
22.32501637429765
 20
9.513547960808766
 30
0.0
 40
0.03125
100
AcDbArc
 50
90.00000000000108
 51
179.9999999999978
  0
LINE
  5
12689
330
1F
100
AcDbEntity
  8
CONTINUOUS1
100
AcDbLine
 10
22.44876584406508
 20
9.60729796080877
 30
0.0
 11
22.62641628727239
 21
9.60729796080877
 31
0.0
  0
LINE
  5
1268B
330
1F
100
AcDbEntity
  8
CONTINUOUS1
100
AcDbLine
 10
22.40714283488415
 20
9.654172960808764
 30
0.0
 11
22.40714283488415
 21
9.413721143975251
 31
0.0
  0
LINE
  5
1268C
330
1F
100
AcDbEntity
  8
CONTINUOUS1
100
AcDbLine
 10
22.37589283488414
 20
9.654172960808766
 30
0.0
 11
22.37589283488414
 21
9.413721143975251
 31
0.0
  0
LINE
  5
1268D
330
1F
100
AcDbEntity
  8
CONTINUOUS1
100
AcDbLine
 10
22.39151783488414
 20
9.669797960808766
 30
0.0
 11
22.39151783488414
 21
9.669797960808764
 31
0.0
  0
ARC
  5
1268E
330
1F
100
AcDbEntity
  8
CONTINUOUS1
100
AcDbCircle
 10
22.39151783488414
 20
9.654172960808766
 30
0.0
 40
0.015625
100
AcDbArc
 50
89.99999999999987
 51
179.9999999999998
  0
ARC
  5
1268F
330
1F
100
AcDbEntity
  8
CONTINUOUS1
100
AcDbCircle
 10
22.39151783488414
 20
9.654172960808764
 30
0.0
 40
0.015625
100
AcDbArc
 50
359.9999999999998
 51
90.0
  0
ARC
  5
12693
330
1F
100
AcDbEntity
  8
CONTINUOUS1
100
AcDbCircle
 10
22.39151783488415
 20
9.413721143975251
 30
0.0
 40
0.015625
100
AcDbArc
 50
180.0
 51
269.9999999999934
  0
ARC
  5
12696
330
1F
100
AcDbEntity
  8
CONTINUOUS1
100
AcDbCircle
 10
22.39151783488414
 20
9.413721143975251
 30
0.0
 40
0.015625
100
AcDbArc
 50
270.0000000000065
 51
0.0
  0
LINE
  5
12697
330
1F
100
AcDbEntity
  8
CONTINUOUS1
100
AcDbLine
 10
22.40714283488415
 20
9.544797960808768
 30
0.0
 11
22.41751584406507
 21
9.544797960808768
 31
0.0
  0
LINE
  5
12698
330
1F
100
AcDbEntity
  8
CONTINUOUS1
100
AcDbLine
 10
22.40714283488415
 20
9.638547960808766
 30
0.0
 11
22.774653322542
 21
9.638547960808766
 31
0.0
  0
LINE
  5
12715
330
1F
100
AcDbEntity
  8
CONTINUOUS1
100
AcDbLine
 10
16.56441059862598
 20
7.72604796080879
 30
0.0
 11
17.56441059862598
 21
7.726047960808784
 31
0.0
  0
LINE
  5
12716
330
1F
100
AcDbEntity
  8
CONTINUOUS1
100
AcDbLine
 10
16.68941059862599
 20
12.48854796080879
 30
0.0
 11
17.43941059862599
 21
12.48854796080879
 31
0.0
  0
LINE
  5
12719
330
1F
100
AcDbEntity
  8
CONTINUOUS1
100
AcDbLine
 10
16.56441059862599
 20
10.77387356521927
 30
0.0
 11
16.56441059862599
 21
11.48854796080878
 31
0.0
  0
LINE
  5
1271A
330
1F
100
AcDbEntity
  8
CONTINUOUS1
100
AcDbLine
 10
17.56441059862599
 20
10.77387356521926
 30
0.0
 11
17.56441059862599
 21
11.48854796080878
 31
0.0
  0
LINE
  5
1271F
330
1F
100
AcDbEntity
  8
CONTINUOUS1
100
AcDbLine
 10
16.56441059862599
 20
11.48854796080878
 30
0.0
 11
16.56441059862599
 21
11.48854796080879
 31
0.0
  0
LINE
  5
1272B
330
1F
100
AcDbEntity
  8
CONTINUOUS1
100
AcDbLine
 10
17.50191059862599
 20
12.42604796080879
 30
0.0
 11
17.50191059862599
 21
11.55104796080879
 31
0.0
  0
LINE
  5
1272C
330
1F
100
AcDbEntity
  8
CONTINUOUS1
100
AcDbLine
 10
16.62691059862599
 20
12.42604796080879
 30
0.0
 11
16.62691059862599
 21
11.55104796080878
 31
0.0
  0
ARC
  5
1272D
330
1F
100
AcDbEntity
  8
CONTINUOUS1
100
AcDbCircle
 10
16.68941059862599
 20
12.42604796080879
 30
0.0
 40
0.0625
100
AcDbArc
 50
89.99999999999674
 51
180.0
  0
ARC
  5
1272E
330
1F
100
AcDbEntity
  8
CONTINUOUS1
100
AcDbCircle
 10
17.43941059862599
 20
12.42604796080879
 30
0.0
 40
0.0625
100
AcDbArc
 50
0.0
 51
90.0
  0
LINE
  5
12732
330
1F
100
AcDbEntity
  8
CONTINUOUS1
100
AcDbLine
 10
16.56441059862599
 20
11.45729796080878
 30
0.0
 11
17.56441059862599
 21
11.45729796080878
 31
0.0
  0
LINE
  5
12734
330
1F
100
AcDbEntity
  8
CONTINUOUS1
100
AcDbLine
 10
16.59566059862599
 20
10.73854796080879
 30
0.0
 11
17.53316059862599
 21
10.73854796080878
 31
0.0
  0
LINE
  5
12736
330
1F
100
AcDbEntity
  8
CONTINUOUS1
100
AcDbLine
 10
16.59566059862599
 20
10.73854796080879
 30
0.0
 11
16.59566059862599
 21
10.76979796080879
 31
0.0
  0
LINE
  5
12737
330
1F
100
AcDbEntity
  8
CONTINUOUS1
100
AcDbLine
 10
17.53316059862599
 20
10.73854796080878
 30
0.0
 11
17.53316059862599
 21
10.76979796080878
 31
0.0
  0
ARC
  5
1273C
330
1F
100
AcDbEntity
  8
CONTINUOUS1
100
AcDbCircle
 10
16.56441059862599
 20
11.55104796080878
 30
0.0
 40
0.0625
100
AcDbArc
 50
269.9999999999998
 51
0.0
  0
LINE
  5
1273D
330
1F
100
AcDbEntity
  8
CONTINUOUS1
100
AcDbLine
 10
17.56441059862599
 20
11.48854796080879
 30
0.0
 11
17.56441059862599
 21
11.48854796080879
 31
0.0
  0
ARC
  5
1273E
330
1F
100
AcDbEntity
  8
CONTINUOUS1
100
AcDbCircle
 10
17.56441059862599
 20
11.55104796080879
 30
0.0
 40
0.0625
100
AcDbArc
 50
180.0
 51
270.0
  0
LINE
  5
1273F
330
1F
100
AcDbEntity
  8
CONTINUOUS1
100
AcDbLine
 10
16.56441059862599
 20
11.48854796080879
 30
0.0
 11
17.56441059862599
 21
11.48854796080878
 31
0.0
  0
ARC
  5
12742
330
1F
100
AcDbEntity
  8
CONTINUOUS1
100
AcDbCircle
 10
15.98628559862582
 20
10.53542296080876
 30
0.0
 40
0.6423376497218733
100
AcDbArc
 50
355.8150838748827
 51
18.43494882291925
  0
ARC
  5
12743
330
1F
100
AcDbEntity
  8
CONTINUOUS1
100
AcDbCircle
 10
18.14253559862591
 20
10.53542296080876
 30
0.0
 40
0.6423376497216156
100
AcDbArc
 50
161.5650511770765
 51
184.184916125119
  0
LINE
  5
12744
330
1F
100
AcDbEntity
  8
CONTINUOUS1
100
AcDbLine
 10
17.147710598626
 20
10.83229796080878
 30
0.0
 11
17.147710598626
 21
11.45729796080878
 31
0.0
  0
LINE
  5
12745
330
1F
100
AcDbEntity
  8
CONTINUOUS1
100
AcDbLine
 10
16.98111059862599
 20
10.83229796080878
 30
0.0
 11
16.98111059862599
 21
11.45729796080878
 31
0.0
  0
LINE
  5
12746
330
1F
100
AcDbEntity
  8
CONTINUOUS1
100
AcDbLine
 10
17.31371059862599
 20
10.83229796080878
 30
0.0
 11
17.31371059862599
 21
11.45729796080878
 31
0.0
  0
LINE
  5
12747
330
1F
100
AcDbEntity
  8
CONTINUOUS1
100
AcDbLine
 10
17.47971059862599
 20
10.83229796080878
 30
0.0
 11
17.47971059862599
 21
11.45729796080878
 31
0.0
  0
LINE
  5
12748
330
1F
100
AcDbEntity
  8
CONTINUOUS1
100
AcDbLine
 10
16.81511059862599
 20
10.83229796080878
 30
0.0
 11
16.81511059862599
 21
11.45729796080878
 31
0.0
  0
LINE
  5
12749
330
1F
100
AcDbEntity
  8
CONTINUOUS1
100
AcDbLine
 10
16.64911059862599
 20
10.83229796080878
 30
0.0
 11
16.64911059862599
 21
11.45729796080878
 31
0.0
  0
LINE
  5
1274A
330
1F
100
AcDbEntity
  8
CONTINUOUS1
100
AcDbLine
 10
16.71161059862599
 20
10.76979796080878
 30
0.0
 11
16.752610598626
 21
10.76979796080878
 31
0.0
  0
LINE
  5
1274B
330
1F
100
AcDbEntity
  8
CONTINUOUS1
100
AcDbLine
 10
16.877610598626
 20
10.76979796080878
 30
0.0
 11
16.91861059862599
 21
10.76979796080878
 31
0.0
  0
LINE
  5
1274C
330
1F
100
AcDbEntity
  8
CONTINUOUS1
100
AcDbLine
 10
17.04361059862599
 20
10.76979796080878
 30
0.0
 11
17.08521059862599
 21
10.76979796080878
 31
0.0
  0
LINE
  5
1274D
330
1F
100
AcDbEntity
  8
CONTINUOUS1
100
AcDbLine
 10
17.21021059862599
 20
10.76979796080878
 30
0.0
 11
17.25121059862599
 21
10.76979796080878
 31
0.0
  0
LINE
  5
1274E
330
1F
100
AcDbEntity
  8
CONTINUOUS1
100
AcDbLine
 10
17.37621059862599
 20
10.76979796080878
 30
0.0
 11
17.417210598626
 21
10.76979796080878
 31
0.0
  0
ARC
  5
12756
330
1F
100
AcDbEntity
  8
CONTINUOUS1
100
AcDbCircle
 10
17.417210598626
 20
10.83229796080878
 30
0.0
 40
0.0625
100
AcDbArc
 50
270.0000000000016
 51
359.9999999999967
  0
ARC
  5
12757
330
1F
100
AcDbEntity
  8
CONTINUOUS1
100
AcDbCircle
 10
17.376210598626
 20
10.83229796080878
 30
0.0
 40
0.0625
100
AcDbArc
 50
180.0000000000016
 51
269.9999999999983
  0
ARC
  5
12758
330
1F
100
AcDbEntity
  8
CONTINUOUS1
100
AcDbCircle
 10
17.25121059862599
 20
10.83229796080878
 30
0.0
 40
0.0625
100
AcDbArc
 50
270.0000000000016
 51
359.9999999999983
  0
ARC
  5
12759
330
1F
100
AcDbEntity
  8
CONTINUOUS1
100
AcDbCircle
 10
17.21021059862599
 20
10.83229796080879
 30
0.0
 40
0.0625
100
AcDbArc
 50
180.0000000000032
 51
269.9999999999967
  0
ARC
  5
1275A
330
1F
100
AcDbEntity
  8
CONTINUOUS1
100
AcDbCircle
 10
17.08521059862599
 20
10.83229796080878
 30
0.0
 40
0.0625
100
AcDbArc
 50
270.0
 51
0.0000000000016284
  0
ARC
  5
1275B
330
1F
100
AcDbEntity
  8
CONTINUOUS1
100
AcDbCircle
 10
17.04361059862599
 20
10.83229796080878
 30
0.0
 40
0.0625
100
AcDbArc
 50
179.9999999999983
 51
270.0
  0
ARC
  5
1275C
330
1F
100
AcDbEntity
  8
CONTINUOUS1
100
AcDbCircle
 10
16.918610598626
 20
10.83229796080878
 30
0.0
 40
0.0625
100
AcDbArc
 50
269.9999999999983
 51
0.0000000000016284
  0
ARC
  5
1275D
330
1F
100
AcDbEntity
  8
CONTINUOUS1
100
AcDbCircle
 10
16.877610598626
 20
10.83229796080878
 30
0.0
 40
0.0625
100
AcDbArc
 50
180.0
 51
270.0
  0
ARC
  5
1275E
330
1F
100
AcDbEntity
  8
CONTINUOUS1
100
AcDbCircle
 10
16.752610598626
 20
10.83229796080878
 30
0.0
 40
0.0625
100
AcDbArc
 50
269.9999999999983
 51
0.0000000000016284
  0
ARC
  5
1275F
330
1F
100
AcDbEntity
  8
CONTINUOUS1
100
AcDbCircle
 10
16.71161059862599
 20
10.83229796080878
 30
0.0
 40
0.0625
100
AcDbArc
 50
179.9999999999983
 51
270.0
  0
ARC
  5
12761
330
1F
100
AcDbEntity
  8
CONTINUOUS1
100
AcDbCircle
 10
17.542210598626
 20
10.83229796080878
 30
0.0
 40
0.0625
100
AcDbArc
 50
179.9999999999983
 51
270.0000000000065
  0
ARC
  5
12762
330
1F
100
AcDbEntity
  8
CONTINUOUS1
100
AcDbCircle
 10
17.542210598626
 20
10.83229796080878
 30
0.0
 40
0.0625
100
AcDbArc
 50
269.9999999999934
 51
290.8057024130307
  0
ARC
  5
12764
330
1F
100
AcDbEntity
  8
CONTINUOUS1
100
AcDbCircle
 10
16.58661059862599
 20
10.83229796080878
 30
0.0
 40
0.0625
100
AcDbArc
 50
270.0000000000049
 51
0.0000000000016284
  0
ARC
  5
12765
330
1F
100
AcDbEntity
  8
CONTINUOUS1
100
AcDbCircle
 10
16.58661059862601
 20
10.83229796080878
 30
0.0
 40
0.0625
100
AcDbArc
 50
249.1942975869465
 51
269.9999999999951
  0
LINE
  5
12766
330
1F
100
AcDbEntity
  8
CONTINUOUS1
100
AcDbLine
 10
16.59566059862599
 20
10.76979796080879
 30
0.0
 11
17.53316059862599
 21
10.76979796080878
 31
0.0
  0
LINE
  5
1277B
330
1F
100
AcDbEntity
  8
CONTINUOUS1
100
AcDbLine
 10
17.06441059862599
 20
12.42604796080879
 30
0.0
 11
17.06441059862599
 21
11.55104796080878
 31
0.0
  0
LINE
  5
1277F
330
1F
100
AcDbEntity
  8
CONTINUOUS1
100
AcDbLine
 10
17.147710598626
 20
12.42604796080879
 30
0.0
 11
17.147710598626
 21
11.55104796080878
 31
0.0
  0
LINE
  5
12780
330
1F
100
AcDbEntity
  8
CONTINUOUS1
100
AcDbLine
 10
17.23101059862599
 20
12.42604796080879
 30
0.0
 11
17.23101059862599
 21
11.55104796080878
 31
0.0
  0
LINE
  5
12781
330
1F
100
AcDbEntity
  8
CONTINUOUS1
100
AcDbLine
 10
17.31431059862599
 20
12.42604796080879
 30
0.0
 11
17.31431059862599
 21
11.55104796080878
 31
0.0
  0
LINE
  5
12782
330
1F
100
AcDbEntity
  8
CONTINUOUS1
100
AcDbLine
 10
17.39761059862599
 20
12.42604796080879
 30
0.0
 11
17.39761059862599
 21
11.55104796080878
 31
0.0
  0
LINE
  5
12783
330
1F
100
AcDbEntity
  8
CONTINUOUS1
100
AcDbLine
 10
17.48091059862599
 20
12.42604796080879
 30
0.0
 11
17.48091059862599
 21
11.55104796080878
 31
0.0
  0
LINE
  5
12784
330
1F
100
AcDbEntity
  8
CONTINUOUS1
100
AcDbLine
 10
16.98111059862599
 20
12.42604796080879
 30
0.0
 11
16.98111059862599
 21
11.55104796080878
 31
0.0
  0
LINE
  5
12785
330
1F
100
AcDbEntity
  8
CONTINUOUS1
100
AcDbLine
 10
16.89781059862599
 20
12.42604796080879
 30
0.0
 11
16.89781059862599
 21
11.55104796080878
 31
0.0
  0
LINE
  5
12786
330
1F
100
AcDbEntity
  8
CONTINUOUS1
100
AcDbLine
 10
16.814510598626
 20
12.42604796080879
 30
0.0
 11
16.814510598626
 21
11.55104796080878
 31
0.0
  0
LINE
  5
12787
330
1F
100
AcDbEntity
  8
CONTINUOUS1
100
AcDbLine
 10
16.731210598626
 20
12.42604796080879
 30
0.0
 11
16.731210598626
 21
11.55104796080878
 31
0.0
  0
LINE
  5
12788
330
1F
100
AcDbEntity
  8
CONTINUOUS1
100
AcDbLine
 10
16.64791059862599
 20
12.42604796080879
 30
0.0
 11
16.64791059862599
 21
11.55104796080878
 31
0.0
  0
DIMENSION
  5
12793
330
1F
100
AcDbEntity
  8
DIM
100
AcDbDimension
  2
*D5
 10
14.76465332254201
 20
7.788547960808768
 30
0.0
 11
14.76465332254201
 21
9.138547960808768
 31
0.0
 70
    32
  3
SCHNEIDERELECTRIC_DUAL_BEL
100
AcDbAlignedDimension
 13
15.98340332254201
 23
10.48854796080876
 33
0.0
 14
15.98340332254201
 24
7.788547960808768
 34
0.0
 50
90.0
100
AcDbRotatedDimension
1001
ACAD
1000
DSTYLE
1002
{
1070
     3
1000
\P
1070
    40
1040
2.0
1002
}
  0
DIMENSION
  5
127A2
330
1F
100
AcDbEntity
  8
DIM
100
AcDbDimension
  2
*D6
 10
24.41465332254201
 20
8.03854796080877
 30
0.0
 11
24.414653322542
 21
9.138547960808773
 31
0.0
 70
    32
  1
1.90...2.20\P[48]...[56]
  3
SCHNEIDERELECTRIC_DUAL_BEL
100
AcDbAlignedDimension
 13
21.187153322542
 23
10.23854796080877
 33
0.0
 14
21.187153322542
 24
8.03854796080877
 34
0.0
 50
90.0
100
AcDbRotatedDimension
1001
ACAD
1000
DSTYLE
1002
{
1070
     3
1000
\P
1070
    40
1040
2.0
1002
}
  0
DIMENSION
  5
127B0
330
1F
100
AcDbEntity
  8
DIM
100
AcDbDimension
  2
*D7
 10
23.274653322542
 20
6.913547960808767
 30
0.0
 11
19.39465332254201
 21
6.913547960808767
 31
0.0
 70
    32
  3
SCHNEIDERELECTRIC_DUAL_BEL
100
AcDbAlignedDimension
 13
15.51465332254201
 23
8.622922960808768
 33
0.0
 14
23.274653322542
 24
9.13854796080877
 34
0.0
100
AcDbRotatedDimension
1001
ACAD
1000
DSTYLE
1002
{
1070
     3
1000
\P
1070
    40
1040
2.0
1002
}
  0
DIMENSION
  5
127CA
330
1F
100
AcDbEntity
  8
DIM
100
AcDbDimension
  2
*D8
 10
23.414653322542
 20
5.913547960808767
 30
0.0
 11
19.464653322542
 21
5.913547960808767
 31
0.0
 70
    32
  3
SCHNEIDERELECTRIC_DUAL_BEL
100
AcDbAlignedDimension
 13
15.51465332254201
 23
8.622922960808768
 33
0.0
 14
23.414653322542
 24
8.622922960808775
 34
0.0
100
AcDbRotatedDimension
1001
ACAD
1000
DSTYLE
1002
{
1070
     3
1000
\P
1070
    40
1040
2.0
1002
}
  0
ARC
  5
12816
330
1F
100
AcDbEntity
  8
HIDDEN1
100
AcDbCircle
 10
22.91471836319268
 20
9.13854796080877
 30
0.0
 40
0.5
100
AcDbArc
 50
270.0000000000002
 51
359.9999999999997
  0
ARC
  5
12817
330
1F
100
AcDbEntity
  8
HIDDEN1
100
AcDbCircle
 10
22.91471836319268
 20
9.138547960808764
 30
0.0
 40
0.5
100
AcDbArc
 50
0.0000000000004071
 51
89.99999999999939
  0
LINE
  5
12818
330
1F
100
AcDbEntity
  8
HIDDEN1
100
AcDbLine
 10
22.54720787553483
 20
9.638547960808766
 30
0.0
 11
22.91471836319268
 21
9.638547960808766
 31
0.0
  0
LINE
  5
12819
330
1F
100
AcDbEntity
  8
HIDDEN1
100
AcDbLine
 10
22.14885836319269
 20
8.638547960808768
 30
0.0
 11
22.91471836319268
 21
8.638547960808768
 31
0.0
  0
TEXT
  5
1282E
330
1F
100
AcDbEntity
  8
DIM
100
AcDbText
 10
17.10453576921869
 20
6.023740614572403
 30
0.0
 40
0.2
  1
MAX TRAVEL
  7
ROMANS
 72
     2
 11
18.92358338826631
 21
6.123740614572403
 31
0.0
100
AcDbText
 73
     2
  0
LINE
  5
129AA
330
1F
100
AcDbEntity
  8
CONTINUOUS1
100
AcDbLine
 10
27.84313096336032
 20
10.48854796080876
 30
0.0
 11
27.84313096336032
 21
7.788547960808767
 31
0.0
  0
LINE
  5
129AC
330
1F
100
AcDbEntity
  8
CONTINUOUS1
100
AcDbLine
 10
29.41313096336032
 20
7.788547960808767
 30
0.0
 11
27.84313096336032
 21
7.788547960808767
 31
0.0
  0
LINE
  5
129AF
330
1F
100
AcDbEntity
  8
CONTINUOUS1
100
AcDbLine
 10
29.41313096336032
 20
10.48854796080876
 30
0.0
 11
27.84313096336032
 21
10.48854796080876
 31
0.0
  0
LINE
  5
129B1
330
1F
100
AcDbEntity
  8
CONTINUOUS1
100
AcDbLine
 10
29.41313096336032
 20
10.48854796080876
 30
0.0
 11
29.41313096336032
 21
7.788547960808767
 31
0.0
  0
CIRCLE
  5
129B3
330
1F
100
AcDbEntity
  8
CONTINUOUS1
100
AcDbCircle
 10
28.62813096336032
 20
9.138547960808768
 30
0.0
 40
0.515625
  0
ARC
  5
129B4
330
1F
100
AcDbEntity
  8
CONTINUOUS1
100
AcDbCircle
 10
28.62813096336032
 20
9.138547960808768
 30
0.0
 40
0.546875
100
AcDbArc
 50
270.0
 51
90.0
  0
LINE
  5
129B5
330
1F
100
AcDbEntity
  8
CONTINUOUS1
100
AcDbLine
 10
28.62813096336032
 20
8.591672960808768
 30
0.0
 11
27.84313096336032
 21
8.591672960808768
 31
0.0
  0
LINE
  5
129B6
330
1F
100
AcDbEntity
  8
CONTINUOUS1
100
AcDbLine
 10
28.62813096336032
 20
9.685422960808766
 30
0.0
 11
27.84313096336032
 21
9.685422960808768
 31
0.0
  0
LINE
  5
129B8
330
1F
100
AcDbEntity
  8
CONTINUOUS1
100
AcDbLine
 10
29.12813096336032
 20
10.77387356521926
 30
0.0
 11
29.12813096336032
 21
11.48854796080878
 31
0.0
  0
LINE
  5
129B9
330
1F
100
AcDbEntity
  8
CONTINUOUS1
100
AcDbLine
 10
28.37883096336032
 20
10.83229796080878
 30
0.0
 11
28.37883096336032
 21
11.45729796080878
 31
0.0
  0
LINE
  5
129BA
330
1F
100
AcDbEntity
  8
CONTINUOUS1
100
AcDbLine
 10
28.54483096336032
 20
10.83229796080878
 30
0.0
 11
28.54483096336032
 21
11.45729796080878
 31
0.0
  0
LINE
  5
129BB
330
1F
100
AcDbEntity
  8
CONTINUOUS1
100
AcDbLine
 10
28.71143096336032
 20
10.83229796080878
 30
0.0
 11
28.71143096336032
 21
11.45729796080878
 31
0.0
  0
LINE
  5
129BC
330
1F
100
AcDbEntity
  8
CONTINUOUS1
100
AcDbLine
 10
28.87743096336032
 20
10.83229796080878
 30
0.0
 11
28.87743096336032
 21
11.45729796080878
 31
0.0
  0
LINE
  5
129BD
330
1F
100
AcDbEntity
  8
CONTINUOUS1
100
AcDbLine
 10
29.04343096336032
 20
10.83229796080878
 30
0.0
 11
29.04343096336032
 21
11.45729796080878
 31
0.0
  0
LINE
  5
129BE
330
1F
100
AcDbEntity
  8
CONTINUOUS1
100
AcDbLine
 10
28.12813096336032
 20
10.77387356521927
 30
0.0
 11
28.12813096336032
 21
11.48854796080878
 31
0.0
  0
LINE
  5
129BF
330
1F
100
AcDbEntity
  8
CONTINUOUS1
100
AcDbLine
 10
28.21283096336032
 20
10.83229796080878
 30
0.0
 11
28.21283096336032
 21
11.45729796080878
 31
0.0
  0
ARC
  5
129C0
330
1F
100
AcDbEntity
  8
CONTINUOUS1
100
AcDbCircle
 10
28.48233096336032
 20
10.83229796080878
 30
0.0
 40
0.0625
100
AcDbArc
 50
269.9999999999983
 51
0.0000000000016284
  0
LINE
  5
129C1
330
1F
100
AcDbEntity
  8
CONTINUOUS1
100
AcDbLine
 10
28.15938096336033
 20
10.73854796080879
 30
0.0
 11
29.09688096336032
 21
10.73854796080878
 31
0.0
  0
LINE
  5
129C2
330
1F
100
AcDbEntity
  8
CONTINUOUS1
100
AcDbLine
 10
28.15938096336033
 20
10.76979796080879
 30
0.0
 11
29.09688096336032
 21
10.76979796080878
 31
0.0
  0
ARC
  5
129C3
330
1F
100
AcDbEntity
  8
CONTINUOUS1
100
AcDbCircle
 10
27.55000596336015
 20
10.53542296080876
 30
0.0
 40
0.6423376497218733
100
AcDbArc
 50
355.8150838748827
 51
18.43494882291925
  0
ARC
  5
129C4
330
1F
100
AcDbEntity
  8
CONTINUOUS1
100
AcDbCircle
 10
28.15033096336032
 20
10.83229796080878
 30
0.0
 40
0.0625
100
AcDbArc
 50
270.0000000000049
 51
0.0000000000016284
  0
LINE
  5
129C5
330
1F
100
AcDbEntity
  8
CONTINUOUS1
100
AcDbLine
 10
28.15938096336032
 20
10.73854796080879
 30
0.0
 11
28.15938096336032
 21
10.76979796080879
 31
0.0
  0
ARC
  5
129C6
330
1F
100
AcDbEntity
  8
CONTINUOUS1
100
AcDbCircle
 10
28.15033096336033
 20
10.83229796080878
 30
0.0
 40
0.0625
100
AcDbArc
 50
249.1942975869465
 51
269.9999999999951
  0
LINE
  5
129C7
330
1F
100
AcDbEntity
  8
CONTINUOUS1
100
AcDbLine
 10
28.44133096336032
 20
10.76979796080878
 30
0.0
 11
28.48233096336032
 21
10.76979796080878
 31
0.0
  0
ARC
  5
129C8
330
1F
100
AcDbEntity
  8
CONTINUOUS1
100
AcDbCircle
 10
28.44133096336032
 20
10.83229796080878
 30
0.0
 40
0.0625
100
AcDbArc
 50
180.0
 51
270.0
  0
ARC
  5
129C9
330
1F
100
AcDbEntity
  8
CONTINUOUS1
100
AcDbCircle
 10
28.31633096336032
 20
10.83229796080878
 30
0.0
 40
0.0625
100
AcDbArc
 50
269.9999999999983
 51
0.0000000000016284
  0
LINE
  5
129CA
330
1F
100
AcDbEntity
  8
CONTINUOUS1
100
AcDbLine
 10
28.27533096336032
 20
10.76979796080878
 30
0.0
 11
28.31633096336032
 21
10.76979796080878
 31
0.0
  0
ARC
  5
129CB
330
1F
100
AcDbEntity
  8
CONTINUOUS1
100
AcDbCircle
 10
28.27533096336032
 20
10.83229796080878
 30
0.0
 40
0.0625
100
AcDbArc
 50
179.9999999999983
 51
270.0
  0
ARC
  5
129CC
330
1F
100
AcDbEntity
  8
CONTINUOUS1
100
AcDbCircle
 10
29.70625596336023
 20
10.53542296080876
 30
0.0
 40
0.6423376497216156
100
AcDbArc
 50
161.5650511770765
 51
184.184916125119
  0
ARC
  5
129CD
330
1F
100
AcDbEntity
  8
CONTINUOUS1
100
AcDbCircle
 10
28.81493096336032
 20
10.83229796080878
 30
0.0
 40
0.0625
100
AcDbArc
 50
270.0000000000016
 51
359.9999999999983
  0
LINE
  5
129CE
330
1F
100
AcDbEntity
  8
CONTINUOUS1
100
AcDbLine
 10
28.77393096336032
 20
10.76979796080878
 30
0.0
 11
28.81493096336032
 21
10.76979796080878
 31
0.0
  0
ARC
  5
129CF
330
1F
100
AcDbEntity
  8
CONTINUOUS1
100
AcDbCircle
 10
28.77393096336033
 20
10.83229796080879
 30
0.0
 40
0.0625
100
AcDbArc
 50
180.0000000000032
 51
269.9999999999967
  0
ARC
  5
129D0
330
1F
100
AcDbEntity
  8
CONTINUOUS1
100
AcDbCircle
 10
28.64893096336032
 20
10.83229796080878
 30
0.0
 40
0.0625
100
AcDbArc
 50
270.0
 51
0.0000000000016284
  0
LINE
  5
129D1
330
1F
100
AcDbEntity
  8
CONTINUOUS1
100
AcDbLine
 10
28.60733096336032
 20
10.76979796080878
 30
0.0
 11
28.64893096336032
 21
10.76979796080878
 31
0.0
  0
ARC
  5
129D2
330
1F
100
AcDbEntity
  8
CONTINUOUS1
100
AcDbCircle
 10
28.60733096336032
 20
10.83229796080878
 30
0.0
 40
0.0625
100
AcDbArc
 50
179.9999999999983
 51
270.0
  0
LINE
  5
129D3
330
1F
100
AcDbEntity
  8
CONTINUOUS1
100
AcDbLine
 10
29.09688096336032
 20
10.73854796080878
 30
0.0
 11
29.09688096336032
 21
10.76979796080878
 31
0.0
  0
ARC
  5
129D4
330
1F
100
AcDbEntity
  8
CONTINUOUS1
100
AcDbCircle
 10
28.98093096336032
 20
10.83229796080878
 30
0.0
 40
0.0625
100
AcDbArc
 50
270.0000000000016
 51
359.9999999999967
  0
LINE
  5
129D5
330
1F
100
AcDbEntity
  8
CONTINUOUS1
100
AcDbLine
 10
28.93993096336032
 20
10.76979796080878
 30
0.0
 11
28.98093096336032
 21
10.76979796080878
 31
0.0
  0
ARC
  5
129D6
330
1F
100
AcDbEntity
  8
CONTINUOUS1
100
AcDbCircle
 10
29.10593096336032
 20
10.83229796080878
 30
0.0
 40
0.0625
100
AcDbArc
 50
179.9999999999983
 51
270.0000000000065
  0
ARC
  5
129D7
330
1F
100
AcDbEntity
  8
CONTINUOUS1
100
AcDbCircle
 10
29.10593096336033
 20
10.83229796080878
 30
0.0
 40
0.0625
100
AcDbArc
 50
269.9999999999934
 51
290.8057024130307
  0
ARC
  5
129D8
330
1F
100
AcDbEntity
  8
CONTINUOUS1
100
AcDbCircle
 10
28.93993096336032
 20
10.83229796080878
 30
0.0
 40
0.0625
100
AcDbArc
 50
180.0000000000016
 51
269.9999999999983
  0
LINE
  5
129D9
330
1F
100
AcDbEntity
  8
CONTINUOUS1
100
AcDbLine
 10
28.25313096336032
 20
12.48854796080879
 30
0.0
 11
29.00313096336032
 21
12.48854796080879
 31
0.0
  0
LINE
  5
129DA
330
1F
100
AcDbEntity
  8
CONTINUOUS1
100
AcDbLine
 10
28.12813096336032
 20
11.45729796080878
 30
0.0
 11
29.12813096336032
 21
11.45729796080878
 31
0.0
  0
LINE
  5
129DB
330
1F
100
AcDbEntity
  8
CONTINUOUS1
100
AcDbLine
 10
28.12813096336032
 20
11.48854796080879
 30
0.0
 11
29.12813096336032
 21
11.48854796080878
 31
0.0
  0
LINE
  5
129DC
330
1F
100
AcDbEntity
  8
CONTINUOUS1
100
AcDbLine
 10
28.46153096336032
 20
12.42604796080879
 30
0.0
 11
28.46153096336032
 21
11.55104796080878
 31
0.0
  0
LINE
  5
129DD
330
1F
100
AcDbEntity
  8
CONTINUOUS1
100
AcDbLine
 10
28.37823096336032
 20
12.42604796080879
 30
0.0
 11
28.37823096336032
 21
11.55104796080878
 31
0.0
  0
LINE
  5
129DE
330
1F
100
AcDbEntity
  8
CONTINUOUS1
100
AcDbLine
 10
28.29493096336033
 20
12.42604796080879
 30
0.0
 11
28.29493096336033
 21
11.55104796080878
 31
0.0
  0
LINE
  5
129DF
330
1F
100
AcDbEntity
  8
CONTINUOUS1
100
AcDbLine
 10
28.19063096336032
 20
12.42604796080879
 30
0.0
 11
28.19063096336032
 21
11.55104796080878
 31
0.0
  0
LINE
  5
129E0
330
1F
100
AcDbEntity
  8
CONTINUOUS1
100
AcDbLine
 10
28.21163096336032
 20
12.42604796080879
 30
0.0
 11
28.21163096336032
 21
11.55104796080878
 31
0.0
  0
ARC
  5
129E1
330
1F
100
AcDbEntity
  8
CONTINUOUS1
100
AcDbCircle
 10
28.12813096336032
 20
11.55104796080878
 30
0.0
 40
0.0625
100
AcDbArc
 50
269.9999999999998
 51
0.0
  0
LINE
  5
129E2
330
1F
100
AcDbEntity
  8
CONTINUOUS1
100
AcDbLine
 10
28.12813096336032
 20
11.48854796080878
 30
0.0
 11
28.12813096336032
 21
11.48854796080879
 31
0.0
  0
ARC
  5
129E3
330
1F
100
AcDbEntity
  8
CONTINUOUS1
100
AcDbCircle
 10
28.25313096336032
 20
12.42604796080879
 30
0.0
 40
0.0625
100
AcDbArc
 50
89.99999999999674
 51
180.0
  0
LINE
  5
129E4
330
1F
100
AcDbEntity
  8
CONTINUOUS1
100
AcDbLine
 10
29.06563096336032
 20
12.42604796080879
 30
0.0
 11
29.06563096336032
 21
11.55104796080879
 31
0.0
  0
LINE
  5
129E5
330
1F
100
AcDbEntity
  8
CONTINUOUS1
100
AcDbLine
 10
28.62813096336032
 20
12.42604796080879
 30
0.0
 11
28.62813096336032
 21
11.55104796080878
 31
0.0
  0
LINE
  5
129E6
330
1F
100
AcDbEntity
  8
CONTINUOUS1
100
AcDbLine
 10
28.71143096336032
 20
12.42604796080879
 30
0.0
 11
28.71143096336032
 21
11.55104796080878
 31
0.0
  0
LINE
  5
129E7
330
1F
100
AcDbEntity
  8
CONTINUOUS1
100
AcDbLine
 10
28.79473096336032
 20
12.42604796080879
 30
0.0
 11
28.79473096336032
 21
11.55104796080878
 31
0.0
  0
LINE
  5
129E8
330
1F
100
AcDbEntity
  8
CONTINUOUS1
100
AcDbLine
 10
28.87803096336032
 20
12.42604796080879
 30
0.0
 11
28.87803096336032
 21
11.55104796080878
 31
0.0
  0
LINE
  5
129E9
330
1F
100
AcDbEntity
  8
CONTINUOUS1
100
AcDbLine
 10
28.96133096336032
 20
12.42604796080879
 30
0.0
 11
28.96133096336032
 21
11.55104796080878
 31
0.0
  0
LINE
  5
129EA
330
1F
100
AcDbEntity
  8
CONTINUOUS1
100
AcDbLine
 10
29.04463096336032
 20
12.42604796080879
 30
0.0
 11
29.04463096336032
 21
11.55104796080878
 31
0.0
  0
LINE
  5
129EB
330
1F
100
AcDbEntity
  8
CONTINUOUS1
100
AcDbLine
 10
28.54483096336032
 20
12.42604796080879
 30
0.0
 11
28.54483096336032
 21
11.55104796080878
 31
0.0
  0
ARC
  5
129EC
330
1F
100
AcDbEntity
  8
CONTINUOUS1
100
AcDbCircle
 10
29.12813096336032
 20
11.55104796080879
 30
0.0
 40
0.0625
100
AcDbArc
 50
180.0
 51
270.0
  0
LINE
  5
129ED
330
1F
100
AcDbEntity
  8
CONTINUOUS1
100
AcDbLine
 10
29.12813096336032
 20
11.48854796080879
 30
0.0
 11
29.12813096336032
 21
11.48854796080879
 31
0.0
  0
ARC
  5
129EE
330
1F
100
AcDbEntity
  8
CONTINUOUS1
100
AcDbCircle
 10
29.00313096336032
 20
12.42604796080879
 30
0.0
 40
0.0625
100
AcDbArc
 50
0.0
 51
90.0
  0
LINE
  5
129EF
330
1F
100
AcDbEntity
  8
CONTINUOUS1
100
AcDbLine
 10
28.1281309633603
 20
7.663547960808767
 30
0.0
 11
29.1281309633603
 21
7.663547960808767
 31
0.0
  0
LINE
  5
129F0
330
1F
100
AcDbEntity
  8
CONTINUOUS1
100
AcDbLine
 10
28.1281309633603
 20
7.72604796080879
 30
0.0
 11
29.1281309633603
 21
7.726047960808784
 31
0.0
  0
LINE
  5
129F1
330
1F
100
AcDbEntity
  8
CONTINUOUS1
100
AcDbLine
 10
28.1281309633603
 20
7.788547960808768
 30
0.0
 11
28.1281309633603
 21
7.663547960808767
 31
0.0
  0
LINE
  5
129F2
330
1F
100
AcDbEntity
  8
CONTINUOUS1
100
AcDbLine
 10
29.1281309633603
 20
7.788547960808767
 30
0.0
 11
29.1281309633603
 21
7.663547960808767
 31
0.0
  0
LINE
  5
129F6
330
1F
100
AcDbEntity
  8
CONTINUOUS1
100
AcDbLine
 10
28.38782514319145
 20
8.931387771008024
 30
0.0
 11
28.57841251780814
 21
9.121975145624713
 31
0.0
  0
LINE
  5
129F7
330
1F
100
AcDbEntity
  8
CONTINUOUS1
100
AcDbLine
 10
28.42097077355957
 20
8.898242140639904
 30
0.0
 11
28.61155814817626
 21
9.088829515256591
 31
0.0
  0
LINE
  5
129F8
330
1F
100
AcDbEntity
  8
CONTINUOUS1
100
AcDbLine
 10
28.83529115316106
 20
8.898242140639904
 30
0.0
 11
28.64470377854438
 21
9.088829515256591
 31
0.0
  0
LINE
  5
129F9
330
1F
100
AcDbEntity
  8
CONTINUOUS1
100
AcDbLine
 10
28.86843678352918
 20
8.931387771008024
 30
0.0
 11
28.6778494089125
 21
9.121975145624711
 31
0.0
  0
ARC
  5
129FA
330
1F
100
AcDbEntity
  8
CONTINUOUS1
100
AcDbCircle
 10
28.62813096336032
 20
9.138547960808772
 30
0.0
 40
0.33984375
100
AcDbArc
 50
135.0
 51
135.0
  0
ARC
  5
129FB
330
1F
100
AcDbEntity
  8
CONTINUOUS1
100
AcDbCircle
 10
28.62813096336032
 20
9.138547960808772
 30
0.0
 40
0.33984375
100
AcDbArc
 50
45.0
 51
45.0
  0
ARC
  5
129FC
330
1F
100
AcDbEntity
  8
CONTINUOUS1
100
AcDbCircle
 10
28.62813096336032
 20
9.138547960808772
 30
0.0
 40
0.33984375
100
AcDbArc
 50
315.0
 51
315.0
  0
ARC
  5
129FD
330
1F
100
AcDbEntity
  8
CONTINUOUS1
100
AcDbCircle
 10
28.62813096336032
 20
9.138547960808772
 30
0.0
 40
0.33984375
100
AcDbArc
 50
225.0
 51
225.0
  0
LINE
  5
129FE
330
1F
100
AcDbEntity
  8
CONTINUOUS1
100
AcDbLine
 10
28.57841251780814
 20
9.155120775992834
 30
0.0
 11
28.38782514319145
 21
9.345708150609517
 31
0.0
  0
LINE
  5
129FF
330
1F
100
AcDbEntity
  8
CONTINUOUS1
100
AcDbLine
 10
28.64470377854438
 20
9.188266406360952
 30
0.0
 11
28.83529115316107
 21
9.378853780977632
 31
0.0
  0
LINE
  5
12A00
330
1F
100
AcDbEntity
  8
CONTINUOUS1
100
AcDbLine
 10
28.61155814817626
 20
9.188266406360952
 30
0.0
 11
28.42097077355957
 21
9.378853780977637
 31
0.0
  0
LINE
  5
12A01
330
1F
100
AcDbEntity
  8
CONTINUOUS1
100
AcDbLine
 10
28.6778494089125
 20
9.155120775992831
 30
0.0
 11
28.86843678352918
 21
9.345708150609512
 31
0.0
  0
ARC
  5
12A04
330
1F
100
AcDbEntity
  8
CONTINUOUS1
100
AcDbCircle
 10
28.40439795837551
 20
9.362280965793576
 30
0.0
 40
0.0234375
100
AcDbArc
 50
135.0
 51
225.0
  0
ARC
  5
12A05
330
1F
100
AcDbEntity
  8
CONTINUOUS1
100
AcDbCircle
 10
28.40439795837551
 20
9.362280965793576
 30
0.0
 40
0.0234375
100
AcDbArc
 50
45.0
 51
135.0
  0
ARC
  5
12A06
330
1F
100
AcDbEntity
  8
CONTINUOUS1
100
AcDbCircle
 10
28.85186396834512
 20
9.362280965793576
 30
0.0
 40
0.0234375
100
AcDbArc
 50
45.0
 51
135.0000000000065
  0
ARC
  5
12A07
330
1F
100
AcDbEntity
  8
CONTINUOUS1
100
AcDbCircle
 10
28.85186396834512
 20
9.362280965793576
 30
0.0
 40
0.0234375
100
AcDbArc
 50
314.9999999999934
 51
45.0
  0
ARC
  5
12A08
330
1F
100
AcDbEntity
  8
CONTINUOUS1
100
AcDbCircle
 10
28.85186396834512
 20
8.914814955823963
 30
0.0
 40
0.0234375
100
AcDbArc
 50
315.0
 51
45.0
  0
ARC
  5
12A09
330
1F
100
AcDbEntity
  8
CONTINUOUS1
100
AcDbCircle
 10
28.85186396834512
 20
8.914814955823963
 30
0.0
 40
0.0234375
100
AcDbArc
 50
225.0
 51
315.0
  0
ARC
  5
12A0A
330
1F
100
AcDbEntity
  8
CONTINUOUS1
100
AcDbCircle
 10
28.40439795837551
 20
8.914814955823967
 30
0.0
 40
0.0234375
100
AcDbArc
 50
225.0
 51
315.0
  0
ARC
  5
12A0B
330
1F
100
AcDbEntity
  8
CONTINUOUS1
100
AcDbCircle
 10
28.40439795837551
 20
8.914814955823967
 30
0.0
 40
0.0234375
100
AcDbArc
 50
135.0
 51
225.0
  0
ARC
  5
12A0C
330
1F
100
AcDbEntity
  8
CONTINUOUS1
100
AcDbCircle
 10
28.56183970262408
 20
9.138547960808775
 30
0.0
 40
0.0234375
100
AcDbArc
 50
315.0
 51
45.00000000000052
  0
ARC
  5
12A0D
330
1F
100
AcDbEntity
  8
CONTINUOUS1
100
AcDbCircle
 10
28.62813096336032
 20
9.072256700072532
 30
0.0
 40
0.0234375
100
AcDbArc
 50
44.99999999999952
 51
135.0
  0
ARC
  5
12A0E
330
1F
100
AcDbEntity
  8
CONTINUOUS1
100
AcDbCircle
 10
28.69442222409656
 20
9.138547960808772
 30
0.0
 40
0.0234375
100
AcDbArc
 50
135.0
 51
224.9999999999995
  0
ARC
  5
12A0F
330
1F
100
AcDbEntity
  8
CONTINUOUS1
100
AcDbCircle
 10
28.62813096336032
 20
9.204839221545014
 30
0.0
 40
0.0234375
100
AcDbArc
 50
225.0000000000005
 51
315.0
  0
LINE
  5
12A21
330
1F
100
AcDbEntity
  8
CONTINUOUS1
100
AcDbLine
 10
30.16313096336031
 20
8.57604796080877
 30
0.0
 11
30.71313096336032
 21
8.57604796080877
 31
0.0
  0
LINE
  5
12A22
330
1F
100
AcDbEntity
  8
CONTINUOUS1
100
AcDbLine
 10
30.16313096336031
 20
9.70104796080877
 30
0.0
 11
30.71313096336032
 21
9.70104796080877
 31
0.0
  0
LINE
  5
12A23
330
1F
100
AcDbEntity
  8
CONTINUOUS1
100
AcDbLine
 10
30.16313096336031
 20
9.70104796080877
 30
0.0
 11
30.16313096336031
 21
8.57604796080877
 31
0.0
  0
LINE
  5
12A24
330
1F
100
AcDbEntity
  8
CONTINUOUS1
100
AcDbLine
 10
30.16313096336032
 20
8.638547960808772
 30
0.0
 11
29.41313096336032
 21
8.638547960808773
 31
0.0
  0
LINE
  5
12A25
330
1F
100
AcDbEntity
  8
CONTINUOUS1
100
AcDbLine
 10
30.16313096336032
 20
9.638547960808772
 30
0.0
 11
29.41313096336032
 21
9.638547960808772
 31
0.0
  0
LINE
  5
12A26
330
1F
100
AcDbEntity
  8
CONTINUOUS1
100
AcDbLine
 10
30.71313096336032
 20
9.70104796080877
 30
0.0
 11
30.71313096336032
 21
8.57604796080877
 31
0.0
  0
LINE
  5
12A29
330
1F
100
AcDbEntity
  8
CONTINUOUS1
100
AcDbLine
 10
31.58313096336032
 20
9.169797960808766
 30
0.0
 11
31.58313096336032
 21
9.107297960808766
 31
0.0
  0
CIRCLE
  5
12A39
330
1F
100
AcDbEntity
  8
CONTINUOUS1
100
AcDbCircle
 10
31.21063096336032
 20
9.13854796080877
 30
0.0
 40
0.3738085238461021
  0
LINE
  5
12A3C
330
1F
100
AcDbEntity
  8
CONTINUOUS1
100
AcDbLine
 10
30.88724796674485
 20
8.95104796080877
 30
0.0
 11
30.71313096336032
 21
8.95104796080877
 31
0.0
  0
LINE
  5
12A3D
330
1F
100
AcDbEntity
  8
CONTINUOUS1
100
AcDbLine
 10
30.88724796674485
 20
9.32604796080877
 30
0.0
 11
30.71313096336032
 21
9.32604796080877
 31
0.0
  0
CIRCLE
  5
12A41
330
1F
100
AcDbEntity
  8
CONTINUOUS1
100
AcDbCircle
 10
31.48938096336032
 20
9.138547960808764
 30
0.0
 40
0.0625
  0
LINE
  5
12A43
330
1F
100
AcDbEntity
  8
CONTINUOUS1
100
AcDbLine
 10
29.35063096336032
 20
10.48854796080876
 30
0.0
 11
29.35063096336032
 21
7.788547960808767
 31
0.0
  0
LINE
  5
12A44
330
1F
100
AcDbEntity
  8
CONTINUOUS1
100
AcDbLine
 10
29.28813096336032
 20
10.26979796080876
 30
0.0
 11
29.28813096336032
 21
8.038547960808772
 31
0.0
  0
LINE
  5
12A45
330
1F
100
AcDbEntity
  8
CONTINUOUS1
100
AcDbLine
 10
29.28813096336032
 20
10.26979796080876
 30
0.0
 11
29.35063096336032
 21
10.26979796080876
 31
0.0
  0
LINE
  5
12A46
330
1F
100
AcDbEntity
  8
CONTINUOUS1
100
AcDbLine
 10
29.28813096336032
 20
8.038547960808772
 30
0.0
 11
29.35063096336032
 21
8.038547960808772
 31
0.0
  0
LINE
  5
12A47
330
1F
100
AcDbEntity
  8
CONTINUOUS1
100
AcDbLine
 10
29.47563096336032
 20
10.40979796080876
 30
0.0
 11
29.47563096336032
 21
10.30104796080876
 31
0.0
  0
LINE
  5
12A49
330
1F
100
AcDbEntity
  8
CONTINUOUS1
100
AcDbLine
 10
29.47563096336032
 20
10.12979796080876
 30
0.0
 11
29.41313096336032
 21
10.12979796080876
 31
0.0
  0
LINE
  5
12A4A
330
1F
100
AcDbEntity
  8
CONTINUOUS1
100
AcDbLine
 10
29.47563096336032
 20
10.40979796080876
 30
0.0
 11
29.41313096336032
 21
10.40979796080876
 31
0.0
  0
LINE
  5
12A4C
330
1F
100
AcDbEntity
  8
CONTINUOUS1
100
AcDbLine
 10
29.44438096336032
 20
10.30104796080876
 30
0.0
 11
29.44438096336032
 21
10.23854796080876
 31
0.0
  0
LINE
  5
12A4D
330
1F
100
AcDbEntity
  8
CONTINUOUS1
100
AcDbLine
 10
29.47563096336032
 20
10.23854796080876
 30
0.0
 11
29.44438096336032
 21
10.23854796080876
 31
0.0
  0
LINE
  5
12A4E
330
1F
100
AcDbEntity
  8
CONTINUOUS1
100
AcDbLine
 10
29.47563096336032
 20
10.30104796080876
 30
0.0
 11
29.44438096336032
 21
10.30104796080876
 31
0.0
  0
LINE
  5
12A4F
330
1F
100
AcDbEntity
  8
CONTINUOUS1
100
AcDbLine
 10
29.47563096336032
 20
10.23854796080876
 30
0.0
 11
29.47563096336032
 21
10.12979796080876
 31
0.0
  0
LINE
  5
12A50
330
1F
100
AcDbEntity
  8
CONTINUOUS1
100
AcDbLine
 10
29.44438096336032
 20
8.069797960808772
 30
0.0
 11
29.44438096336032
 21
8.007297960808772
 31
0.0
  0
LINE
  5
12A51
330
1F
100
AcDbEntity
  8
CONTINUOUS1
100
AcDbLine
 10
29.47563096336032
 20
8.007297960808772
 30
0.0
 11
29.47563096336032
 21
7.898547960808771
 31
0.0
  0
LINE
  5
12A52
330
1F
100
AcDbEntity
  8
CONTINUOUS1
100
AcDbLine
 10
29.47563096336032
 20
8.007297960808772
 30
0.0
 11
29.44438096336032
 21
8.007297960808772
 31
0.0
  0
LINE
  5
12A53
330
1F
100
AcDbEntity
  8
CONTINUOUS1
100
AcDbLine
 10
29.47563096336032
 20
7.898547960808771
 30
0.0
 11
29.41313096336032
 21
7.898547960808771
 31
0.0
  0
LINE
  5
12A54
330
1F
100
AcDbEntity
  8
CONTINUOUS1
100
AcDbLine
 10
29.47563096336032
 20
8.178547960808772
 30
0.0
 11
29.47563096336032
 21
8.069797960808772
 31
0.0
  0
LINE
  5
12A55
330
1F
100
AcDbEntity
  8
CONTINUOUS1
100
AcDbLine
 10
29.47563096336032
 20
8.069797960808772
 30
0.0
 11
29.44438096336032
 21
8.069797960808772
 31
0.0
  0
LINE
  5
12A56
330
1F
100
AcDbEntity
  8
CONTINUOUS1
100
AcDbLine
 10
29.47563096336032
 20
8.178547960808772
 30
0.0
 11
29.41313096336032
 21
8.178547960808772
 31
0.0
  0
DIMENSION
  5
12A5D
330
1F
100
AcDbEntity
  8
DIM
100
AcDbDimension
  2
*D9
 10
29.41313096336032
 20
6.913547960808767
 30
0.0
 11
28.62813096336032
 21
6.913547960808767
 31
0.0
 70
    32
  3
SCHNEIDERELECTRIC_DUAL_BEL
100
AcDbAlignedDimension
 13
27.84313096336032
 23
7.788547960808767
 33
0.0
 14
29.41313096336032
 24
7.788547960808767
 34
0.0
100
AcDbRotatedDimension
1001
ACAD
1000
DSTYLE
1002
{
1070
    40
1040
2.0
1002
}
  0
DIMENSION
  5
12A6B
330
1F
100
AcDbEntity
  8
DIM
100
AcDbDimension
  2
*D10
 10
29.41313096336032
 20
6.913547960808767
 30
0.0
 11
30.49813096336032
 21
6.913547960808767
 31
0.0
 70
    32
  3
SCHNEIDERELECTRIC_DUAL_BEL
100
AcDbAlignedDimension
 13
31.58313096336032
 23
9.107297960808766
 33
0.0
 14
29.41313096336032
 24
7.663547960808767
 34
0.0
100
AcDbRotatedDimension
1001
ACAD
1000
DSTYLE
1002
{
1070
    40
1040
2.0
1002
}
  0
DIMENSION
  5
12A8D
330
1F
100
AcDbEntity
  8
DIM
100
AcDbDimension
  2
*D11
 10
27.09313096336032
 20
12.48854796080879
 30
0.0
 11
27.09313096336032
 21
10.13854796080878
 31
0.0
 70
    32
  3
SCHNEIDERELECTRIC_DUAL_BEL
100
AcDbAlignedDimension
 13
27.84313096336032
 23
7.788547960808767
 33
0.0
 14
28.25313096336032
 24
12.48854796080879
 34
0.0
 50
90.0
100
AcDbRotatedDimension
1001
ACAD
1000
DSTYLE
1002
{
1070
     3
1000
\P
1070
    40
1040
2.0
1002
}
  0
LINE
  5
12F0F
330
1F
100
AcDbEntity
  8
0
100
AcDbLine
 10
9.600000000000001
 20
20.09009155499847
 30
0.0
 11
0.6000000000000001
 21
20.09009155499847
 31
0.0
  0
LINE
  5
12F10
330
1F
100
AcDbEntity
  8
0
100
AcDbLine
 10
9.600000000000001
 20
19.34009155499847
 30
0.0
 11
0.6000000000000001
 21
19.34009155499847
 31
0.0
  0
LINE
  5
12F11
330
1F
100
AcDbEntity
  8
0
100
AcDbLine
 10
9.600000000000001
 20
18.59009155499847
 30
0.0
 11
0.6000000000000002
 21
18.59009155499847
 31
0.0
  0
LINE
  5
12F12
330
1F
100
AcDbEntity
  8
0
100
AcDbLine
 10
9.600000000000001
 20
17.84009155499847
 30
0.0
 11
0.6000000000000001
 21
17.84009155499847
 31
0.0
  0
TEXT
  5
12F1B
330
1F
100
AcDbEntity
  8
TEXT1
100
AcDbText
 10
1.154600383843932
 20
16.94759155499847
 30
0.0
 40
0.16
  1
BUTTON
  7
ROMANS
 72
     1
 11
1.607933717177266
 21
17.02759155499847
 31
0.0
100
AcDbText
 73
     2
  0
LINE
  5
12F1C
330
1F
100
AcDbEntity
  8
0
100
AcDbLine
 10
2.599999999999999
 20
14.84009155499847
 30
0.0
 11
2.6
 21
20.09009155499847
 31
0.0
  0
LINE
  5
12F1D
330
1F
100
AcDbEntity
  8
0
100
AcDbLine
 10
4.599999999999999
 20
14.84009155499847
 30
0.0
 11
4.599999999999999
 21
20.09009155499847
 31
0.0
  0
LINE
  5
12F1E
330
1F
100
AcDbEntity
  8
0
100
AcDbLine
 10
0.6000000000000004
 20
14.84009155499847
 30
0.0
 11
0.6000000000000001
 21
20.09009155499847
 31
0.0
  0
TEXT
  5
12F20
330
1F
100
AcDbEntity
  8
TEXT1
100
AcDbText
 10
0.7709139435438228
 20
14.46009155499847
 30
0.0
 40
0.16
  1
NORMAL STOP  (MOMENTARY ACTION-NO RESET, NO DIRECT
  7
ROMANS
 11
0.7709139435438228
 21
14.54009155499847
 31
0.0
100
AcDbText
 73
     2
  0
TEXT
  5
12F21
330
1F
100
AcDbEntity
  8
TEXT1
100
AcDbText
 10
0.7050765743201241
 20
16.32914126711552
 30
0.0
 40
0.16
  1
KEY OPERATED
  7
ROMANS
 72
     1
 11
1.607933717177266
 21
16.40914126711552
 31
0.0
100
AcDbText
 73
     2
  0
TEXT
  5
12F34
330
1F
100
AcDbEntity
  8
TEXT1
100
AcDbText
 10
0.8955527647963144
 20
16.02914126711552
 30
0.0
 40
0.16
  1
EMERGENCY
  7
ROMANS
 72
     1
 11
1.607933717177266
 21
16.10914126711552
 31
0.0
100
AcDbText
 73
     2
  0
TEXT
  5
12F35
330
1F
100
AcDbEntity
  8
TEXT1
100
AcDbText
 10
0.9412670505106003
 20
15.42914126711552
 30
0.0
 40
0.16
  1
RONIS KEY
  7
ROMANS
 72
     1
 11
1.607933717177266
 21
15.50914126711552
 31
0.0
100
AcDbText
 73
     2
  0
TEXT
  5
12F36
330
1F
100
AcDbEntity
  8
TEXT1
100
AcDbText
 10
0.8650765743201239
 20
15.72914126711552
 30
0.0
 40
0.16
  1
STOP (USES
  7
ROMANS
 72
     1
 11
1.607933717177266
 21
15.80914126711552
 31
0.0
100
AcDbText
 73
     2
  0
TEXT
  5
12F4B
330
1F
100
AcDbEntity
  8
TEXT1
100
AcDbText
 10
0.9336480028915516
 20
17.44759155499847
 30
0.0
 40
0.16
  1
MUSHROOM
  7
ROMANS
 72
     1
 11
1.607933717177266
 21
17.52759155499847
 31
0.0
100
AcDbText
 73
     2
  0
TEXT
  5
12F4E
330
1F
100
AcDbEntity
  8
TEXT1
100
AcDbText
 10
1.009838479082028
 20
19.03509155499847
 30
0.0
 40
0.16
  1
STANDARD
  7
ROMANS
 72
     1
 11
1.607933717177266
 21
19.11509155499847
 31
0.0
100
AcDbText
 73
     2
  0
TEXT
  5
12F4F
330
1F
100
AcDbEntity
  8
TEXT1
100
AcDbText
 10
1.234600383843933
 20
19.63626565180708
 30
0.0
 40
0.16
  1
RESET
  7
ROMANS
 72
     1
 11
1.607933717177266
 21
19.71626565180708
 31
0.0
100
AcDbText
 73
     2
  0
TEXT
  5
12F50
330
1F
100
AcDbEntity
  8
TEXT1
100
AcDbText
 10
2.903171812415361
 20
17.19164126711552
 30
0.0
 40
0.16
  1
NO. + N.C.
  7
ROMANS
 72
     1
 11
3.607933717177266
 21
17.27164126711552
 31
0.0
100
AcDbText
 73
     2
  0
TEXT
  5
12F57
330
1F
100
AcDbEntity
  8
TEXT1
100
AcDbText
 10
0.8993622886058373
 20
17.19759155499847
 30
0.0
 40
0.16
  1
HEAD PUSH
  7
ROMANS
 72
     1
 11
1.607933717177266
 21
17.27759155499847
 31
0.0
100
AcDbText
 73
     2
  0
TEXT
  5
12F5C
330
1F
100
AcDbEntity
  8
TEXT1
100
AcDbText
 10
0.7507908600344088
 20
18.73509155499847
 30
0.0
 40
0.16
  1
PUSH BUTTON
  7
ROMANS
 72
     1
 11
1.607933717177266
 21
18.81509155499847
 31
0.0
100
AcDbText
 73
     2
  0
TEXT
  5
12F61
330
1F
100
AcDbEntity
  8
TEXT1
100
AcDbText
 10
2.857142857142856
 20
18.88509155499847
 30
0.0
 40
0.16
  1
N.O. + N.C.
  7
ROMANS
 72
     1
 11
3.599999999999999
 21
18.96509155499847
 31
0.0
100
AcDbText
 73
     2
  0
LINE
  5
12F65
330
1F
100
AcDbEntity
  8
0
100
AcDbLine
 10
6.599999999999999
 20
14.84009155499847
 30
0.0
 11
6.599999999999999
 21
20.09009155499847
 31
0.0
  0
LINE
  5
12F67
330
1F
100
AcDbEntity
  8
0
100
AcDbLine
 10
9.600000000000001
 20
14.84009155499847
 30
0.0
 11
9.599999999999999
 21
20.09009155499847
 31
0.0
  0
TEXT
  5
12FA5
330
1F
100
AcDbEntity
  8
TEXT1
100
AcDbText
 10
7.334285714285713
 20
18.13509155499847
 30
0.0
 40
0.16
  1
XY2CH13250
  7
ROMANS
 72
     1
 11
8.099999999999999
 21
18.21509155499847
 31
0.0
100
AcDbText
 73
     2
  0
TEXT
  5
12FA6
330
1F
100
AcDbEntity
  8
TEXT1
100
AcDbText
 10
7.334285714285713
 20
17.19759155499847
 30
0.0
 40
0.16
  1
XY2CH13350
  7
ROMANS
 72
     1
 11
8.099999999999999
 21
17.27759155499847
 31
0.0
100
AcDbText
 73
     2
  0
TEXT
  5
12FAB
330
1F
100
AcDbEntity
  8
TEXT1
100
AcDbText
 10
7.334285714285713
 20
18.88509155499847
 30
0.0
 40
0.16
  1
XY2CH13150
  7
ROMANS
 72
     1
 11
8.099999999999999
 21
18.96509155499847
 31
0.0
100
AcDbText
 73
     2
  0
TEXT
  5
12FAC
330
1F
100
AcDbEntity
  8
TEXT1
100
AcDbText
 10
7.599042645342198
 20
19.48509155499848
 30
0.0
 40
0.16
  1
NUMBER
  7
ROMANS
 72
     1
 11
8.094280740580293
 21
19.56509155499847
 31
0.0
100
AcDbText
 73
     2
  0
TEXT
  5
12FAD
330
1F
100
AcDbEntity
  8
TEXT1
100
AcDbText
 10
7.587614073913626
 20
19.78509155499847
 30
0.0
 40
0.16
  1
CATALOG
  7
ROMANS
 72
     1
 11
8.094280740580293
 21
19.86509155499847
 31
0.0
100
AcDbText
 73
     2
  0
TEXT
  5
12FBA
330
1F
100
AcDbEntity
  8
TEXT1
100
AcDbText
 10
3.08221943146298
 20
19.63626565180708
 30
0.0
 40
0.16
  1
CONTACT
  7
ROMANS
 72
     1
 11
3.607933717177266
 21
19.71626565180708
 31
0.0
100
AcDbText
 73
     2
  0
TEXT
  5
12FBB
330
1F
100
AcDbEntity
  8
TEXT1
100
AcDbText
 10
4.876505145748694
 20
19.63626565180708
 30
0.0
 40
0.16
  1
PILOT LIGHT
  7
ROMANS
 72
     1
 11
5.607933717177266
 21
19.71626565180708
 31
0.0
100
AcDbText
 73
     2
  0
TEXT
  5
12FBC
330
1F
100
AcDbEntity
  8
TEXT1
100
AcDbText
 10
5.428571428571427
 20
18.88509155499847
 30
0.0
 40
0.16
  1
NO
  7
ROMANS
 72
     1
 11
5.599999999999999
 21
18.96509155499847
 31
0.0
100
AcDbText
 73
     2
  0
TEXT
  5
12FBD
330
1F
100
AcDbEntity
  8
TEXT1
100
AcDbText
 10
0.7507908600344088
 20
17.98509155499847
 30
0.0
 40
0.16
  1
PUSH BUTTON
  7
ROMANS
 72
     1
 11
1.607933717177266
 21
18.06509155499847
 31
0.0
100
AcDbText
 73
     2
  0
TEXT
  5
12FBE
330
1F
100
AcDbEntity
  8
TEXT1
100
AcDbText
 10
1.143171812415361
 20
18.28509155499847
 30
0.0
 40
0.16
  1
BOOTED
  7
ROMANS
 72
     1
 11
1.607933717177266
 21
18.36509155499847
 31
0.0
100
AcDbText
 73
     2
  0
TEXT
  5
12FBF
330
1F
100
AcDbEntity
  8
TEXT1
100
AcDbText
 10
2.857142857142856
 20
18.13509155499847
 30
0.0
 40
0.16
  1
N.O. + N.C.
  7
ROMANS
 72
     1
 11
3.599999999999999
 21
18.21509155499847
 31
0.0
100
AcDbText
 73
     2
  0
TEXT
  5
12FC0
330
1F
100
AcDbEntity
  8
TEXT1
100
AcDbText
 10
5.428571428571427
 20
18.13509155499847
 30
0.0
 40
0.16
  1
NO
  7
ROMANS
 72
     1
 11
5.599999999999999
 21
18.21509155499847
 31
0.0
100
AcDbText
 73
     2
  0
HATCH
  5
12FC1
330
1F
100
AcDbEntity
  8
TEXT1
100
AcDbHatch
 10
0.0
 20
0.0
 30
0.0
210
0.0
220
0.0
230
1.0
  2
SOLID
 70
     1
 71
     1
 91
        1
 92
        1
 93
        1
 72
     2
 10
2.24835938242623
 20
18.3680246351767
 40
0.09375
 50
0.0
 51
360.0
 73
     1
 97
        1
330
12FC2
 75
     0
 76
     1
 98
        1
 10
-16.3764645557349
 20
11.13249108346465
  0
CIRCLE
  5
12FC2
102
{ACAD_REACTORS
330
12FC1
102
}
330
1F
100
AcDbEntity
  8
TEXT1
100
AcDbCircle
 10
2.24835938242623
 20
18.3680246351767
 30
0.0
 40
0.09375
  0
TEXT
  5
12FCB
330
1F
100
AcDbEntity
  8
TEXT1
100
AcDbText
 10
5.428571428571427
 20
17.19759155499847
 30
0.0
 40
0.16
  1
NO
  7
ROMANS
 72
     1
 11
5.599999999999999
 21
17.27759155499847
 31
0.0
100
AcDbText
 73
     2
  0
LINE
  5
12FCC
330
1F
100
AcDbEntity
  8
0
100
AcDbLine
 10
9.600000000000001
 20
16.71509155499847
 30
0.0
 11
0.6000000000000001
 21
16.71509155499847
 31
0.0
  0
TEXT
  5
12FCF
330
1F
100
AcDbEntity
  8
TEXT1
100
AcDbText
 10
7.334285714285713
 20
15.69759155499847
 30
0.0
 40
0.16
  1
XY2CH13450
  7
ROMANS
 72
     1
 11
8.099999999999999
 21
15.77759155499847
 31
0.0
100
AcDbText
 73
     2
  0
TEXT
  5
12FD0
330
1F
100
AcDbEntity
  8
TEXT1
100
AcDbText
 10
5.428571428571427
 20
15.69759155499847
 30
0.0
 40
0.16
  1
NO
  7
ROMANS
 72
     1
 11
5.599999999999999
 21
15.77759155499847
 31
0.0
100
AcDbText
 73
     2
  0
TEXT
  5
12FD1
330
1F
100
AcDbEntity
  8
TEXT1
100
AcDbText
 10
2.903171812415361
 20
15.69164126711552
 30
0.0
 40
0.16
  1
NO. + N.C.
  7
ROMANS
 72
     1
 11
3.607933717177266
 21
15.77164126711552
 31
0.0
100
AcDbText
 73
     2
  0
LINE
  5
12FD2
330
1F
100
AcDbEntity
  8
0
100
AcDbLine
 10
9.600000000000001
 20
14.84009155499847
 30
0.0
 11
0.6000000000000006
 21
14.84009155499847
 31
0.0
  0
TEXT
  5
12FD5
330
1F
100
AcDbEntity
  8
TEXT1
100
AcDbText
 10
0.7546003838439334
 20
15.12914126711552
 30
0.0
 40
0.16
  1
NUMBER 421)
  7
ROMANS
 72
     1
 11
1.607933717177266
 21
15.20914126711552
 31
0.0
100
AcDbText
 73
     2
  0
TEXT
  5
1306A
330
1F
100
AcDbEntity
  8
TEXT1
100
AcDbText
 10
0.7709139435438228
 20
13.86009155499847
 30
0.0
 40
0.16
  1
AVAILABLE ONLY WITH SNAP ACTION CONTACTS. NOT FOR USE IN SAFETY CIRCUITS.
  7
ROMANS
 11
0.7709139435438228
 21
13.94009155499847
 31
0.0
100
AcDbText
 73
     2
  0
LINE
  5
13073
330
1F
100
AcDbEntity
  8
0
100
AcDbLine
 10
9.600000000000001
 20
12.14009155499847
 30
0.0
 11
0.6000000000000011
 21
12.14009155499847
 31
0.0
  0
LINE
  5
13074
330
1F
100
AcDbEntity
  8
0
100
AcDbLine
 10
9.600000000000001
 20
12.89009155499847
 30
0.0
 11
0.600000000000001
 21
12.89009155499847
 31
0.0
  0
LINE
  5
13075
330
1F
100
AcDbEntity
  8
0
100
AcDbLine
 10
9.600000000000001
 20
13.64009155499846
 30
0.0
 11
0.600000000000001
 21
13.64009155499847
 31
0.0
  0
TEXT
  5
13076
330
1F
100
AcDbEntity
  8
TEXT1
100
AcDbText
 10
4.876505145748696
 20
13.18626565180708
 30
0.0
 40
0.16
  1
PILOT LIGHT
  7
ROMANS
 72
     1
 11
5.607933717177267
 21
13.26626565180708
 31
0.0
100
AcDbText
 73
     2
  0
LINE
  5
13077
330
1F
100
AcDbEntity
  8
0
100
AcDbLine
 10
4.6
 20
12.14009155499847
 30
0.0
 11
4.6
 21
13.64009155499847
 31
0.0
  0
LINE
  5
13078
330
1F
100
AcDbEntity
  8
0
100
AcDbLine
 10
0.600000000000001
 20
12.14009155499847
 30
0.0
 11
0.600000000000001
 21
13.64009155499847
 31
0.0
  0
LINE
  5
13079
330
1F
100
AcDbEntity
  8
0
100
AcDbLine
 10
2.6
 20
12.14009155499847
 30
0.0
 11
2.6
 21
13.64009155499847
 31
0.0
  0
TEXT
  5
13084
330
1F
100
AcDbEntity
  8
TEXT1
100
AcDbText
 10
1.0212670505106
 20
12.28509155499847
 30
0.0
 40
0.16
  1
REQUIRED
  7
ROMANS
 72
     1
 11
1.607933717177266
 21
12.36509155499847
 31
0.0
100
AcDbText
 73
     2
  0
TEXT
  5
13087
330
1F
100
AcDbEntity
  8
TEXT1
100
AcDbText
 10
2.857142857142857
 20
12.43509155499847
 30
0.0
 40
0.16
  1
N.O. + N.C.
  7
ROMANS
 72
     1
 11
3.6
 21
12.51509155499847
 31
0.0
100
AcDbText
 73
     2
  0
TEXT
  5
13088
330
1F
100
AcDbEntity
  8
TEXT1
100
AcDbText
 10
3.082219431462981
 20
13.18626565180708
 30
0.0
 40
0.16
  1
CONTACT
  7
ROMANS
 72
     1
 11
3.607933717177266
 21
13.26626565180708
 31
0.0
100
AcDbText
 73
     2
  0
TEXT
  5
1308C
330
1F
100
AcDbEntity
  8
TEXT1
100
AcDbText
 10
0.986981336224886
 20
12.58509155499846
 30
0.0
 40
0.16
  1
NO RESET
  7
ROMANS
 72
     1
 11
1.607933717177266
 21
12.66509155499846
 31
0.0
100
AcDbText
 73
     2
  0
TEXT
  5
1308D
330
1F
100
AcDbEntity
  8
TEXT1
100
AcDbText
 10
1.234600383843933
 20
13.18626565180708
 30
0.0
 40
0.16
  1
RESET
  7
ROMANS
 72
     1
 11
1.607933717177267
 21
13.26626565180708
 31
0.0
100
AcDbText
 73
     2
  0
TEXT
  5
13090
330
1F
100
AcDbEntity
  8
TEXT1
100
AcDbText
 10
5.428571428571429
 20
12.43509155499847
 30
0.0
 40
0.16
  1
NO
  7
ROMANS
 72
     1
 11
5.600000000000001
 21
12.51509155499847
 31
0.0
100
AcDbText
 73
     2
  0
LINE
  5
13091
330
1F
100
AcDbEntity
  8
0
100
AcDbLine
 10
9.599999999999999
 20
12.14009155499847
 30
0.0
 11
9.600000000000001
 21
13.64009155499847
 31
0.0
  0
LINE
  5
13092
330
1F
100
AcDbEntity
  8
0
100
AcDbLine
 10
6.600000000000001
 20
12.14009155499847
 30
0.0
 11
6.600000000000001
 21
13.64009155499847
 31
0.0
  0
TEXT
  5
13096
330
1F
100
AcDbEntity
  8
TEXT1
100
AcDbText
 10
7.334285714285715
 20
12.43509155499847
 30
0.0
 40
0.16
  1
XY2CH33010
  7
ROMANS
 72
     1
 11
8.100000000000001
 21
12.51509155499847
 31
0.0
100
AcDbText
 73
     2
  0
TEXT
  5
13097
330
1F
100
AcDbEntity
  8
TEXT1
100
AcDbText
 10
7.599042645342199
 20
13.03509155499847
 30
0.0
 40
0.16
  1
NUMBER
  7
ROMANS
 72
     1
 11
8.094280740580295
 21
13.11509155499847
 31
0.0
100
AcDbText
 73
     2
  0
TEXT
  5
13098
330
1F
100
AcDbEntity
  8
TEXT1
100
AcDbText
 10
7.587614073913628
 20
13.33509155499847
 30
0.0
 40
0.16
  1
CATALOG
  7
ROMANS
 72
     1
 11
8.094280740580295
 21
13.41509155499847
 31
0.0
100
AcDbText
 73
     2
  0
TEXT
  5
13099
330
1F
100
AcDbEntity
  8
TEXT1
100
AcDbText
 10
0.9566872934551469
 20
11.76009155499847
 30
0.0
 40
0.16
  1
BOOTED PUSH BUTTON RECOMMENDED FOR OUTDOORS APPLICATIONS
  7
ROMANS
 11
0.9566872934551469
 21
11.84009155499847
 31
0.0
100
AcDbText
 73
     2
  0
TEXT
  5
1309B
330
1F
100
AcDbEntity
  8
TEXT1
100
AcDbText
 10
0.9566872934551469
 20
11.46009155499846
 30
0.0
 40
0.16
  1
WHERE ICY CONDITIONS ARE LIKELY.
  7
ROMANS
 11
0.9566872934551469
 21
11.54009155499846
 31
0.0
100
AcDbText
 73
     2
  0
HATCH
  5
1309D
330
1F
100
AcDbEntity
  8
TEXT1
100
AcDbHatch
 10
0.0
 20
0.0
 30
0.0
210
0.0
220
0.0
230
1.0
  2
SOLID
 70
     1
 71
     1
 91
        1
 92
        1
 93
        1
 72
     2
 10
0.8106181018119116
 20
11.82087235019825
 40
0.09375
 50
0.0
 51
360.0
 73
     1
 97
        1
330
1309E
 75
     0
 76
     1
 98
        1
 10
-17.81420583634921
 20
4.585338798486201
  0
CIRCLE
  5
1309E
102
{ACAD_REACTORS
330
1309D
102
}
330
1F
100
AcDbEntity
  8
TEXT1
100
AcDbCircle
 10
0.8106181018119116
 20
11.82087235019825
 30
0.0
 40
0.09375
  0
HATCH
  5
13136
330
1F
100
AcDbEntity
  8
TEXT1
100
AcDbHatch
 10
0.0
 20
0.0
 30
0.0
210
0.0
220
0.0
230
1.0
  2
SOLID
 70
     1
 71
     1
 91
        1
 92
        1
 93
        3
 72
     1
 10
0.8106181018119116
 20
11.33384155499846
 11
0.7168681018119117
 21
11.14634155499847
 72
     1
 10
0.7168681018119117
 20
11.14634155499847
 11
0.9043681018119116
 21
11.14634155499847
 72
     1
 10
0.9043681018119116
 20
11.14634155499847
 11
0.8106181018119116
 21
11.33384155499846
 97
        3
330
13138
330
13139
330
13137
 75
     0
 76
     1
 98
        1
 10
-17.28346336532821
 20
3.745049630258529
  0
LINE
  5
13137
102
{ACAD_REACTORS
330
13136
102
}
330
1F
100
AcDbEntity
  8
TEXT1
100
AcDbLine
 10
0.8106181018119116
 20
11.33384155499846
 30
0.0
 11
0.9043681018119116
 21
11.14634155499847
 31
0.0
  0
LINE
  5
13138
102
{ACAD_REACTORS
330
13136
102
}
330
1F
100
AcDbEntity
  8
TEXT1
100
AcDbLine
 10
0.8106181018119116
 20
11.33384155499846
 30
0.0
 11
0.7168681018119117
 21
11.14634155499847
 31
0.0
  0
LINE
  5
13139
102
{ACAD_REACTORS
330
13136
102
}
330
1F
100
AcDbEntity
  8
TEXT1
100
AcDbLine
 10
0.7168681018119117
 20
11.14634155499847
 30
0.0
 11
0.9043681018119116
 21
11.14634155499847
 31
0.0
  0
TEXT
  5
13140
330
1F
100
AcDbEntity
  8
TEXT1
100
AcDbText
 10
0.9566872934551469
 20
11.16009155499846
 30
0.0
 40
0.16
  1
DIRECT OPENING N.C. CONTACTS MEET THE IEC AND EN
  7
ROMANS
 11
0.9566872934551469
 21
11.24009155499846
 31
0.0
100
AcDbText
 73
     2
  0
TEXT
  5
13141
330
1F
100
AcDbEntity
  8
TEXT1
100
AcDbText
 10
0.9566872934551469
 20
10.86009155499846
 30
0.0
 40
0.16
  1
REQUIREMENTS FOR POSITIVE OPENING CONTACTS PER IEC 947-5-1,
  7
ROMANS
 11
0.9566872934551469
 21
10.94009155499846
 31
0.0
100
AcDbText
 73
     2
  0
TEXT
  5
13143
330
1F
100
AcDbEntity
  8
TEXT1
100
AcDbText
 10
0.9566872934551469
 20
10.56009155499846
 30
0.0
 40
0.16
  1
EN 60947-5-1; AND NEMA ICS-5, PART 6 (DIRECT OPENING ACTION).
  7
ROMANS
 11
0.9566872934551469
 21
10.64009155499846
 31
0.0
100
AcDbText
 73
     2
  0
TEXT
  5
13144
330
1F
100
AcDbEntity
  8
TEXT1
100
AcDbText
 10
0.9566872934551469
 20
10.26009155499846
 30
0.0
 40
0.16
  1
NORMAL STOP DEVICES ARE NOT UL/CSA.
  7
ROMANS
 11
0.9566872934551469
 21
10.34009155499846
 31
0.0
100
AcDbText
 73
     2
  0
LINE
  5
13148
330
1F
100
AcDbEntity
  8
TEXT1
100
AcDbLine
 10
0.8262431018119116
 20
10.43384155499847
 30
0.0
 11
0.8262431018119116
 21
10.38696655499847
 31
0.0
  0
LINE
  5
13149
330
1F
100
AcDbEntity
  8
TEXT1
100
AcDbLine
 10
0.7949931018119117
 20
10.43384155499847
 30
0.0
 11
0.7949931018119117
 21
10.38696655499846
 31
0.0
  0
LINE
  5
1314A
330
1F
100
AcDbEntity
  8
TEXT1
100
AcDbLine
 10
0.7949931018119117
 20
10.24634155499847
 30
0.0
 11
0.8262431018119116
 21
10.24634155499847
 31
0.0
  0
LINE
  5
1314F
330
1F
100
AcDbEntity
  8
TEXT1
100
AcDbLine
 10
0.7949931018119117
 20
10.43384155499847
 30
0.0
 11
0.7949931018119117
 21
10.38696655499847
 31
0.0
  0
LINE
  5
13150
330
1F
100
AcDbEntity
  8
TEXT1
100
AcDbLine
 10
0.8762431018119116
 20
10.38696655499847
 30
0.0
 11
0.8262431018119118
 21
10.38696655499847
 31
0.0
  0
LINE
  5
13151
330
1F
100
AcDbEntity
  8
TEXT1
100
AcDbLine
 10
0.8762431018119116
 20
10.35571655499847
 30
0.0
 11
0.8262431018119118
 21
10.35571655499847
 31
0.0
  0
LINE
  5
13159
330
1F
100
AcDbEntity
  8
TEXT1
100
AcDbLine
 10
0.7449931018119117
 20
10.35571655499847
 30
0.0
 11
0.7449931018119117
 21
10.38696655499847
 31
0.0
  0
LINE
  5
1315A
330
1F
100
AcDbEntity
  8
TEXT1
100
AcDbLine
 10
0.7949931018119117
 20
10.43384155499847
 30
0.0
 11
0.8262431018119116
 21
10.43384155499847
 31
0.0
  0
LINE
  5
1315C
330
1F
100
AcDbEntity
  8
TEXT1
100
AcDbLine
 10
0.8762431018119116
 20
10.38696655499847
 30
0.0
 11
0.8762431018119116
 21
10.35571655499847
 31
0.0
  0
LINE
  5
1315F
330
1F
100
AcDbEntity
  8
TEXT1
100
AcDbLine
 10
0.7949931018119117
 20
10.38696655499847
 30
0.0
 11
0.7449931018119117
 21
10.38696655499847
 31
0.0
  0
LINE
  5
13160
330
1F
100
AcDbEntity
  8
TEXT1
100
AcDbLine
 10
0.7949931018119117
 20
10.35571655499847
 30
0.0
 11
0.7449931018119117
 21
10.35571655499847
 31
0.0
  0
LINE
  5
13161
330
1F
100
AcDbEntity
  8
TEXT1
100
AcDbLine
 10
0.8262431018119116
 20
10.35571655499847
 30
0.0
 11
0.8262431018119116
 21
10.24634155499847
 31
0.0
  0
LINE
  5
13162
330
1F
100
AcDbEntity
  8
TEXT1
100
AcDbLine
 10
0.7949931018119117
 20
10.35571655499847
 30
0.0
 11
0.7949931018119117
 21
10.24634155499847
 31
0.0
  0
HATCH
  5
1316F
330
1F
100
AcDbEntity
  8
TEXT1
100
AcDbHatch
 10
0.0
 20
0.0
 30
0.0
210
0.0
220
0.0
230
1.0
  2
SOLID
 70
     1
 71
     0
 91
        1
 92
        7
 72
     0
 73
     1
 93
       12
 10
0.8262431018119114
 20
10.38696655499847
 10
0.8262431018119114
 20
10.43384155499847
 10
0.7949931018119117
 20
10.43384155499847
 10
0.7949931018119117
 20
10.38696655499846
 10
0.7449931018119117
 20
10.38696655499847
 10
0.7449931018119117
 20
10.35571655499847
 10
0.7949931018119116
 20
10.35571655499847
 10
0.7949931018119117
 20
10.24634155499847
 10
0.8262431018119116
 20
10.24634155499847
 10
0.8262431018119116
 20
10.35571655499847
 10
0.8762431018119116
 20
10.35571655499847
 10
0.8762431018119118
 20
10.38696655499847
 97
        0
 75
     0
 76
     1
 47
0.0010530823070092
 98
        1
 10
0.8276113964957403
 20
10.37655997495758
  0
HATCH
  5
131FE
330
1F
100
AcDbEntity
  8
TEXT1
100
AcDbHatch
 10
0.0
 20
0.0
 30
0.0
210
0.0
220
0.0
230
1.0
  2
SOLID
 70
     1
 71
     1
 91
        1
 92
        7
 72
     0
 73
     1
 93
       12
 10
2.670620385151096
 20
14.58058007543481
 10
2.670620385151096
 20
14.62745507543481
 10
2.639370385151096
 20
14.62745507543481
 10
2.639370385151096
 20
14.58058007543481
 10
2.589370385151096
 20
14.58058007543482
 10
2.589370385151096
 20
14.54933007543481
 10
2.639370385151096
 20
14.54933007543481
 10
2.639370385151096
 20
14.43995507543482
 10
2.670620385151096
 20
14.43995507543482
 10
2.670620385151096
 20
14.54933007543481
 10
2.720620385151096
 20
14.54933007543481
 10
2.720620385151096
 20
14.58058007543481
 97
       12
330
13207
330
1320B
330
13204
330
13208
330
13202
330
13205
330
13201
330
131FF
330
13209
330
13200
330
13206
330
13203
 75
     0
 76
     1
 47
0.0010530823070092
 98
        1
 10
2.671988679834925
 20
14.57017349539393
  0
LINE
  5
131FF
102
{ACAD_REACTORS
330
131FE
102
}
330
1F
100
AcDbEntity
  8
TEXT1
100
AcDbLine
 10
2.639370385151096
 20
14.54933007543481
 30
0.0
 11
2.639370385151096
 21
14.43995507543482
 31
0.0
  0
LINE
  5
13200
102
{ACAD_REACTORS
330
131FE
102
}
330
1F
100
AcDbEntity
  8
TEXT1
100
AcDbLine
 10
2.670620385151096
 20
14.54933007543481
 30
0.0
 11
2.670620385151096
 21
14.43995507543482
 31
0.0
  0
LINE
  5
13201
102
{ACAD_REACTORS
330
131FE
102
}
330
1F
100
AcDbEntity
  8
TEXT1
100
AcDbLine
 10
2.639370385151096
 20
14.54933007543481
 30
0.0
 11
2.589370385151096
 21
14.54933007543481
 31
0.0
  0
LINE
  5
13202
102
{ACAD_REACTORS
330
131FE
102
}
330
1F
100
AcDbEntity
  8
TEXT1
100
AcDbLine
 10
2.639370385151096
 20
14.58058007543481
 30
0.0
 11
2.589370385151096
 21
14.58058007543481
 31
0.0
  0
LINE
  5
13203
102
{ACAD_REACTORS
330
131FE
102
}
330
1F
100
AcDbEntity
  8
TEXT1
100
AcDbLine
 10
2.720620385151096
 20
14.58058007543481
 30
0.0
 11
2.720620385151096
 21
14.54933007543481
 31
0.0
  0
LINE
  5
13204
102
{ACAD_REACTORS
330
131FE
102
}
330
1F
100
AcDbEntity
  8
TEXT1
100
AcDbLine
 10
2.639370385151096
 20
14.62745507543481
 30
0.0
 11
2.670620385151096
 21
14.62745507543481
 31
0.0
  0
LINE
  5
13205
102
{ACAD_REACTORS
330
131FE
102
}
330
1F
100
AcDbEntity
  8
TEXT1
100
AcDbLine
 10
2.589370385151096
 20
14.54933007543481
 30
0.0
 11
2.589370385151096
 21
14.58058007543481
 31
0.0
  0
LINE
  5
13206
102
{ACAD_REACTORS
330
131FE
102
}
330
1F
100
AcDbEntity
  8
TEXT1
100
AcDbLine
 10
2.720620385151096
 20
14.54933007543481
 30
0.0
 11
2.670620385151096
 21
14.54933007543481
 31
0.0
  0
LINE
  5
13207
102
{ACAD_REACTORS
330
131FE
102
}
330
1F
100
AcDbEntity
  8
TEXT1
100
AcDbLine
 10
2.720620385151096
 20
14.58058007543481
 30
0.0
 11
2.670620385151096
 21
14.58058007543482
 31
0.0
  0
LINE
  5
13208
102
{ACAD_REACTORS
330
131FE
102
}
330
1F
100
AcDbEntity
  8
TEXT1
100
AcDbLine
 10
2.639370385151096
 20
14.62745507543481
 30
0.0
 11
2.639370385151096
 21
14.58058007543481
 31
0.0
  0
LINE
  5
13209
102
{ACAD_REACTORS
330
131FE
102
}
330
1F
100
AcDbEntity
  8
TEXT1
100
AcDbLine
 10
2.639370385151096
 20
14.43995507543482
 30
0.0
 11
2.670620385151096
 21
14.43995507543482
 31
0.0
  0
LINE
  5
1320A
330
1F
100
AcDbEntity
  8
TEXT1
100
AcDbLine
 10
2.639370385151096
 20
14.62745507543481
 30
0.0
 11
2.639370385151096
 21
14.58058007543481
 31
0.0
  0
LINE
  5
1320B
102
{ACAD_REACTORS
330
131FE
102
}
330
1F
100
AcDbEntity
  8
TEXT1
100
AcDbLine
 10
2.670620385151096
 20
14.62745507543481
 30
0.0
 11
2.670620385151096
 21
14.58058007543482
 31
0.0
  0
TEXT
  5
1329A
330
1F
100
AcDbEntity
  8
TEXT1
100
AcDbText
 10
0.7709139435438228
 20
14.16009155499847
 30
0.0
 40
0.16
  1
[POSITIVE] OPENING CONTACTS)
  7
ROMANS
 11
0.7709139435438228
 21
14.24009155499847
 31
0.0
100
AcDbText
 73
     2
  0
HATCH
  5
1329B
330
1F
100
AcDbEntity
  8
TEXT1
100
AcDbHatch
 10
0.0
 20
0.0
 30
0.0
210
0.0
220
0.0
230
1.0
  2
SOLID
 70
     1
 71
     1
 91
        1
 92
        1
 93
        3
 72
     1
 10
8.402707083718667
 20
14.63600410700514
 11
8.308957083718667
 21
14.44850410700515
 72
     1
 10
8.308957083718667
 20
14.44850410700515
 11
8.496457083718667
 21
14.44850410700515
 72
     1
 10
8.496457083718667
 20
14.44850410700515
 11
8.402707083718667
 21
14.63600410700514
 97
        3
330
1329C
330
1329E
330
1329D
 75
     0
 76
     1
 98
        1
 10
-9.691374383421454
 20
7.047212182265209
  0
LINE
  5
1329C
102
{ACAD_REACTORS
330
1329B
102
}
330
1F
100
AcDbEntity
  8
TEXT1
100
AcDbLine
 10
8.402707083718667
 20
14.63600410700514
 30
0.0
 11
8.308957083718667
 21
14.44850410700515
 31
0.0
  0
LINE
  5
1329D
102
{ACAD_REACTORS
330
1329B
102
}
330
1F
100
AcDbEntity
  8
TEXT1
100
AcDbLine
 10
8.402707083718667
 20
14.63600410700514
 30
0.0
 11
8.496457083718667
 21
14.44850410700515
 31
0.0
  0
LINE
  5
1329E
102
{ACAD_REACTORS
330
1329B
102
}
330
1F
100
AcDbEntity
  8
TEXT1
100
AcDbLine
 10
8.308957083718667
 20
14.44850410700515
 30
0.0
 11
8.496457083718667
 21
14.44850410700515
 31
0.0
  0
LINE
  5
1329F
330
1F
100
AcDbEntity
  8
0
100
AcDbLine
 10
20.37585344105667
 20
20.09009155499847
 30
0.0
 11
11.37585344105667
 21
20.09009155499847
 31
0.0
  0
LINE
  5
132A2
330
1F
100
AcDbEntity
  8
0
100
AcDbLine
 10
28.37585344105667
 20
18.59009155499847
 30
0.0
 11
11.37585344105667
 21
18.59009155499847
 31
0.0
  0
LINE
  5
132A3
330
1F
100
AcDbEntity
  8
0
100
AcDbLine
 10
28.37585344105667
 20
19.34009155499846
 30
0.0
 11
11.37585344105667
 21
19.34009155499847
 31
0.0
  0
TEXT
  5
132A5
330
1F
100
AcDbEntity
  8
TEXT1
100
AcDbText
 10
11.50085344105667
 20
18.21009155499847
 30
0.0
 40
0.16
  1
CORROSION RESISTANT (ONLY AVAILABLE ON DEVICES WITH BOOTED 
  7
ROMANS
 11
11.50085344105667
 21
18.29009155499846
 31
0.0
100
AcDbText
 73
     2
  0
LINE
  5
132A6
330
1F
100
AcDbEntity
  8
0
100
AcDbLine
 10
11.37585344105667
 20
13.19009155499847
 30
0.0
 11
11.37585344105667
 21
19.34009155499847
 31
0.0
  0
TEXT
  5
132AC
330
1F
100
AcDbEntity
  8
TEXT1
100
AcDbText
 10
11.45713867937619
 20
18.88626565180708
 30
0.0
 40
0.16
  1
DESCRIPTION
  7
ROMANS
 11
11.45713867937619
 21
18.96626565180708
 31
0.0
100
AcDbText
 73
     2
  0
LINE
  5
132B4
330
1F
100
AcDbEntity
  8
0
100
AcDbLine
 10
20.37585344105667
 20
19.64009155499847
 30
0.0
 11
11.37585344105667
 21
19.64009155499847
 31
0.0
  0
TEXT
  5
132B7
330
1F
100
AcDbEntity
  8
TEXT1
100
AcDbText
 10
11.73254073451182
 20
19.76946655499846
 30
0.0
 40
0.16
  1
OPTIONS FOR XY2CH
  7
ROMANS
 11
11.73254073451182
 21
19.84946655499846
 31
0.0
100
AcDbText
 73
     2
  0
TEXT
  5
132BE
330
1F
100
AcDbEntity
  8
TEXT1
100
AcDbText
 10
11.50085344105667
 20
17.91009155499847
 30
0.0
 40
0.16
  1
PUSH BUTTON ON EMERGENCY STOP DEVICES AND ALL NORMAL STOP
  7
ROMANS
 11
11.50085344105667
 21
17.99009155499847
 31
0.0
100
AcDbText
 73
     2
  0
TEXT
  5
132BF
330
1F
100
AcDbEntity
  8
TEXT1
100
AcDbText
 10
11.50085344105667
 20
17.61009155499847
 30
0.0
 40
0.16
  1
DEVICES). NOT AVAILABLE ON KEY OPERATED EMERGENCY STOP
  7
ROMANS
 11
11.50085344105667
 21
17.69009155499847
 31
0.0
100
AcDbText
 73
     2
  0
TEXT
  5
132C4
330
1F
100
AcDbEntity
  8
TEXT1
100
AcDbText
 10
11.50085344105667
 20
17.31009155499847
 30
0.0
 40
0.16
  1
RESET NOR MUSHROOM HEAD RESET VERSIONS. ENCLOSURE COLOR
  7
ROMANS
 11
11.50085344105667
 21
17.39009155499847
 31
0.0
100
AcDbText
 73
     2
  0
TEXT
  5
132C5
330
1F
100
AcDbEntity
  8
TEXT1
100
AcDbText
 10
11.50085344105667
 20
17.01009155499847
 30
0.0
 40
0.16
  1
CHANGES FROM BEIGE TO AN OLIVE-BLUE COLOR
  7
ROMANS
 11
11.50085344105667
 21
17.09009155499847
 31
0.0
100
AcDbText
 73
     2
  0
TEXT
  5
132D7
330
1F
100
AcDbEntity
  8
TEXT1
100
AcDbText
 10
11.50085344105667
 20
16.26009155499847
 30
0.0
 40
0.16
  1
SILICONE BELLOWS
  7
ROMANS
 11
11.50085344105667
 21
16.34009155499847
 31
0.0
100
AcDbText
 73
     2
  0
LINE
  5
132EC
330
1F
100
AcDbEntity
  8
0
100
AcDbLine
 10
20.37585344105667
 20
13.19009155499847
 30
0.0
 11
20.37585344105667
 21
19.34009155499847
 31
0.0
  0
LINE
  5
132ED
330
1F
100
AcDbEntity
  8
0
100
AcDbLine
 10
28.37585344105667
 20
16.79009155499848
 30
0.0
 11
11.37585344105667
 21
16.79009155499847
 31
0.0
  0
TEXT
  5
132EE
330
1F
100
AcDbEntity
  8
TEXT1
100
AcDbText
 10
20.4571386793762
 20
18.88626565180708
 30
0.0
 40
0.16
  1
DESIGNATOR
  7
ROMANS
 11
20.4571386793762
 21
18.96626565180708
 31
0.0
100
AcDbText
 73
     2
  0
TEXT
  5
132EF
330
1F
100
AcDbEntity
  8
TEXT1
100
AcDbText
 10
20.50085344105667
 20
18.06009155499847
 30
0.0
 40
0.16
  1
PROVIDES A SILICONE BOOT AND SPECIAL FINISH
  7
ROMANS
 11
20.50085344105667
 21
18.14009155499847
 31
0.0
100
AcDbText
 73
     2
  0
TEXT
  5
132F0
330
1F
100
AcDbEntity
  8
TEXT1
100
AcDbText
 10
20.50085344105667
 20
17.76009155499847
 30
0.0
 40
0.16
  1
1. ADD SUFFIX TK TO THE PART NUMBER
  7
ROMANS
 11
20.50085344105667
 21
17.84009155499846
 31
0.0
100
AcDbText
 73
     2
  0
TEXT
  5
132F1
330
1F
100
AcDbEntity
  8
TEXT1
100
AcDbText
 10
20.50085344105667
 20
17.46009155499847
 30
0.0
 40
0.16
  1
2. CHANGE THE SEVENTH CHARACTER TO 4
  7
ROMANS
 11
20.50085344105667
 21
17.54009155499846
 31
0.0
100
AcDbText
 73
     2
  0
TEXT
  5
132F2
330
1F
100
AcDbEntity
  8
TEXT1
100
AcDbText
 10
20.50085344105667
 20
17.16009155499847
 30
0.0
 40
0.16
  1
EXAMPLE: XY2CH13150 CHANGES TO XY2CH14150TK
  7
ROMANS
 11
20.50085344105667
 21
17.24009155499847
 31
0.0
100
AcDbText
 73
     2
  0
LINE
  5
132F4
330
1F
100
AcDbEntity
  8
0
100
AcDbLine
 10
28.37585344105667
 20
13.19009155499847
 30
0.0
 11
28.37585344105667
 21
19.34009155499847
 31
0.0
  0
LINE
  5
132F5
330
1F
100
AcDbEntity
  8
0
100
AcDbLine
 10
28.37585344105667
 20
15.89009155499847
 30
0.0
 11
11.37585344105667
 21
15.89009155499847
 31
0.0
  0
TEXT
  5
132F6
330
1F
100
AcDbEntity
  8
TEXT1
100
AcDbText
 10
20.50085344105667
 20
16.41009155499847
 30
0.0
 40
0.16
  1
-CHANGE THE 7TH DIGIT TO 4
  7
ROMANS
 11
20.50085344105667
 21
16.49009155499847
 31
0.0
100
AcDbText
 73
     2
  0
TEXT
  5
132F7
330
1F
100
AcDbEntity
  8
TEXT1
100
AcDbText
 10
20.50085344105667
 20
16.11009155499847
 30
0.0
 40
0.16
  1
EX: XY2CH13150 CHANGES TO XY2CH14150
  7
ROMANS
 11
20.50085344105667
 21
16.19009155499847
 31
0.0
100
AcDbText
 73
     2
  0
TEXT
  5
132F8
330
1F
100
AcDbEntity
  8
TEXT1
100
AcDbText
 10
11.50085344105667
 20
15.36009155499847
 30
0.0
 40
0.16
  1
N.C. + N.C. CONTACT 
  7
ROMANS
 11
11.50085344105667
 21
15.44009155499847
 31
0.0
100
AcDbText
 73
     2
  0
TEXT
  5
132F9
330
1F
100
AcDbEntity
  8
TEXT1
100
AcDbText
 10
20.50085344105667
 20
15.51009155499847
 30
0.0
 40
0.16
  1
-CHANGE THE 9TH DIGIT TO 4 (FOR EMERGENCY STOP ONLY)
  7
ROMANS
 11
20.50085344105667
 21
15.59009155499847
 31
0.0
100
AcDbText
 73
     2
  0
TEXT
  5
132FA
330
1F
100
AcDbEntity
  8
TEXT1
100
AcDbText
 10
20.50085344105667
 20
15.21009155499847
 30
0.0
 40
0.16
  1
EX: XY2CH13150 CHANGES TO XY2CH13170
  7
ROMANS
 11
20.50085344105667
 21
15.29009155499847
 31
0.0
100
AcDbText
 73
     2
  0
LINE
  5
132FB
330
1F
100
AcDbEntity
  8
0
100
AcDbLine
 10
28.37585344105667
 20
14.99009155499847
 30
0.0
 11
11.37585344105667
 21
14.99009155499847
 31
0.0
  0
TEXT
  5
132FC
330
1F
100
AcDbEntity
  8
TEXT1
100
AcDbText
 10
20.50085344105667
 20
14.61009155499847
 30
0.0
 40
0.16
  1
-FOR 24V, CHANGE LAST DIGIT TO 3
  7
ROMANS
 11
20.50085344105667
 21
14.69009155499847
 31
0.0
100
AcDbText
 73
     2
  0
TEXT
  5
132FD
330
1F
100
AcDbEntity
  8
TEXT1
100
AcDbText
 10
20.50085344105667
 20
14.31009155499847
 30
0.0
 40
0.16
  1
-FOR 48V, CHANGE LAST DIGIT TO 4
  7
ROMANS
 11
20.50085344105667
 21
14.39009155499847
 31
0.0
100
AcDbText
 73
     2
  0
TEXT
  5
132FE
330
1F
100
AcDbEntity
  8
TEXT1
100
AcDbText
 10
20.50085344105667
 20
14.01009155499847
 30
0.0
 40
0.16
  1
-FOR 120V, CHANGE LAST DIGIT TO 5
  7
ROMANS
 11
20.50085344105667
 21
14.09009155499847
 31
0.0
100
AcDbText
 73
     2
  0
TEXT
  5
132FF
330
1F
100
AcDbEntity
  8
TEXT1
100
AcDbText
 10
20.50085344105667
 20
13.71009155499847
 30
0.0
 40
0.16
  1
-FOR 230V, CHANGE LAST DIGIT TO 7
  7
ROMANS
 11
20.50085344105667
 21
13.79009155499847
 31
0.0
100
AcDbText
 73
     2
  0
TEXT
  5
13300
330
1F
100
AcDbEntity
  8
TEXT1
100
AcDbText
 10
20.50085344105667
 20
13.41009155499847
 30
0.0
 40
0.16
  1
EX: XY2CH13150 CHANGES TO XY2CH13153
  7
ROMANS
 11
20.50085344105667
 21
13.49009155499847
 31
0.0
100
AcDbText
 73
     2
  0
LINE
  5
13301
330
1F
100
AcDbEntity
  8
0
100
AcDbLine
 10
28.37585344105667
 20
13.19009155499847
 30
0.0
 11
11.37585344105667
 21
13.19009155499847
 31
0.0
  0
TEXT
  5
13302
330
1F
100
AcDbEntity
  8
TEXT1
100
AcDbText
 10
11.50085344105667
 20
14.01009155499846
 30
0.0
 40
0.16
  1
PILOT LIGHT (NOT UL/CSA)
  7
ROMANS
 11
11.50085344105667
 21
14.09009155499846
 31
0.0
100
AcDbText
 73
     2
  0
TEXT
  5
13431
330
1F
100
AcDbEntity
  8
TEXT1
100
AcDbText
 10
1.0
 20
4.234095554998464
 30
0.0
 40
0.16
  1
FOR SIGNALING-NOT FOR SAFETY FUNCTIONS.
  7
ROMANS
 11
1.0
 21
4.314095554998464
 31
0.0
100
AcDbText
 73
     2
  0
TEXT
  5
13432
330
1F
100
AcDbEntity
  8
TEXT1
100
AcDbText
 10
0.9999999999999982
 20
5.134095554998464
 30
0.0
 40
0.16
  1
AVAILABLE ONLY WITH SLOW BREAK CONTACTS.
  7
ROMANS
 11
0.9999999999999982
 21
5.214095554998464
 31
0.0
100
AcDbText
 73
     2
  0
TEXT
  5
13433
330
1F
100
AcDbEntity
  8
TEXT1
100
AcDbText
 10
1.0
 20
5.434095554998465
 30
0.0
 40
0.16
  1
EMERGENCY STOP (LATCHING CONTACT-RESET BY PUSH BUTTON-DIRECT  [POSITIVE] OPENING CONTACTS)
  7
ROMANS
 11
1.0
 21
5.514095554998465
 31
0.0
100
AcDbText
 73
     2
  0
TEXT
  5
13434
330
1F
100
AcDbEntity
  8
TEXT1
100
AcDbText
 10
0.9999999999999982
 20
4.834095554998464
 30
0.0
 40
0.16
  1
THE N.O. CONTACTS WILL CLOSE AFTER THE N.C. CONTACTS OPEN. THEY DO NOT CHANGE STATE SIMULTANEOUSLY
  7
ROMANS
 11
0.9999999999999982
 21
4.914095554998464
 31
0.0
100
AcDbText
 73
     2
  0
TEXT
  5
13435
330
1F
100
AcDbEntity
  8
TEXT1
100
AcDbText
 10
1.0
 20
5.734095554998464
 30
0.0
 40
0.16
  1
NOTES:
  7
ROMANS
 11
1.0
 21
5.814095554998464
 31
0.0
100
AcDbText
 73
     2
  0
TEXT
  5
13436
330
1F
100
AcDbEntity
  8
TEXT1
100
AcDbText
 10
1.0
 20
4.534095554998464
 30
0.0
 40
0.16
  1
ONLY THE N.C. CONTACTS SHOULD BE USED IN THE SAFETY CONTROL CIRCUIT. THE N.O. CONTACTS ARE PROVIDED SOLELY
  7
ROMANS
 11
1.0
 21
4.614095554998464
 31
0.0
100
AcDbText
 73
     2
  0
TEXT
  5
1351A
330
1F
100
AcDbEntity
  8
TEXT1
100
AcDbText
 10
1.000000000000001
 20
3.934095554998465
 30
0.0
 40
0.16
  1
TO CONFORM WITH EN418 OF THE EUROPEAN UNION MACHINERY SAFETY DIRECTIVE 89/392/EEC SAFETY CIRCUITS
  7
ROMANS
 11
1.000000000000001
 21
4.014095554998465
 31
0.0
100
AcDbText
 73
     2
  0
TEXT
  5
1351B
330
1F
100
AcDbEntity
  8
TEXT1
100
AcDbText
 10
1.0
 20
3.634095554998465
 30
0.0
 40
0.16
  1
MUST USE EMERGENCY STOP DEVICES WITH 2 N.C. CONTACTS IN CATEGORY 3 OR 4 SAFETY CONTROL SYSTEMS. USING
  7
ROMANS
 11
1.0
 21
3.714095554998465
 31
0.0
100
AcDbText
 73
     2
  0
TEXT
  5
1351C
330
1F
100
AcDbEntity
  8
TEXT1
100
AcDbText
 10
1.0
 20
3.334095554998465
 30
0.0
 40
0.16
  1
DEVICES WITH 1 N.O. AND 1 N.C. CONTACT WILL NOT ALLOW THE SYSTEM TO MEET CATEGORY 3 OR 4 AS IT WOULD NOT
  7
ROMANS
 11
1.0
 21
3.414095554998465
 31
0.0
100
AcDbText
 73
     2
  0
TEXT
  5
1351D
330
1F
100
AcDbEntity
  8
TEXT1
100
AcDbText
 10
1.0
 20
3.034095554998466
 30
0.0
 40
0.16
  1
MEET THE REQUIREMENTS FOR REDUNDANCY. CABLE PULL SWITCHES WITH 1 N.O. AND 1 N.C. CONTACT WOULD BE
  7
ROMANS
 11
1.0
 21
3.114095554998466
 31
0.0
100
AcDbText
 73
     2
  0
TEXT
  5
1351E
330
1F
100
AcDbEntity
  8
TEXT1
100
AcDbText
 10
0.9999999999999982
 20
2.734095554998466
 30
0.0
 40
0.16
  1
SUITABLE FOR CATEGORY B, 1 OR 2 SAFETY CONTROL SYSTEMS. XY2 CABLE PULL SWITCHES ARE IDEAL
  7
ROMANS
 11
0.9999999999999982
 21
2.814095554998466
 31
0.0
100
AcDbText
 73
     2
  0
TEXT
  5
1351F
330
1F
100
AcDbEntity
  8
TEXT1
100
AcDbText
 10
1.0
 20
2.434095554998466
 30
0.0
 40
0.16
  1
CHOICES FOR USE WITH PREVENTA SAFETY RELAYS.
  7
ROMANS
 11
1.0
 21
2.514095554998466
 31
0.0
100
AcDbText
 73
     2
  0
VIEWPORT
  5
32
330
1B
100
AcDbEntity
 67
     1
  8
0
100
AcDbViewport
 10
8.200294961817061
 20
5.301376205667549
 30
0.0
 40
18.78165490496092
 41
11.46453662124818
 68
     1
 69
     1
1001
ACAD
1000
MVIEW
1002
{
1070
    16
1010
0.0
1020
0.0
1030
0.0
1010
0.0
1020
0.0
1030
1.0
1040
0.0
1040
11.46453662124818
1040
8.200294961817061
1040
5.301376205667549
1040
50.0
1040
0.0
1040
0.0
1070
     0
1070
   100
1070
     1
1070
     0
1070
     0
1070
     0
1070
     0
1070
     0
1040
0.0
1040
0.0
1040
0.0
1040
0.5
1040
0.5
1040
0.5
1040
0.5
1070
     0
1002
{
1002
}
1002
}
  0
LWPOLYLINE
  5
175
330
1B
100
AcDbEntity
 67
     1
  8
VIEWPORT
100
AcDbPolyline
 90
        6
 70
     1
 43
0.0
 10
16.40000099999999
 20
10.25
 10
16.40000099999999
 20
0.9120019999999993
 10
8.002461
 20
0.9120019999999993
 10
8.002461
 20
0.0
 10
0.0
 20
0.0
 10
0.0
 20
10.25
1001
GENIUS_GENOREF_13
1005
0
1005
0
1005
0
1005
0
1005
0
1005
0
1005
0
  0
VIEWPORT
  5
177
330
1B
100
AcDbEntity
 67
     1
  8
VIEWPORT
100
AcDbViewport
 10
8.200000499999999
 20
5.125
 30
0.0
 40
16.40000099999999
 41
10.25
 68
     2
 69
     2
1001
ACAD
1000
MVIEW
1002
{
1070
    16
1010
0.0
1020
0.0
1030
0.0
1010
0.0
1020
0.0
1030
1.0
1040
0.0
1040
20.5
1040
16.39962460274913
1040
10.43998746510311
1040
50.0
1040
0.0
1040
0.0
1070
     0
1070
   100
1070
     1
1070
     2
1070
     0
1070
     0
1070
     0
1070
     0
1040
0.0
1040
0.0
1040
0.0
1040
0.5
1040
0.5
1040
0.5
1040
0.5
1070
     0
1002
{
1002
}
1002
}
1001
GENIUS_GENOREF_13
1005
0
1005
0
1005
0
1005
0
1005
0
1005
0
1005
0
1001
GENIUS_GENSCREG_15
1000
PF
1040
0.0
1000
DF
1040
0.0
1000
MIN
1011
0.0
1021
0.0
1031
0.0
1000
MAX
1011
16.40000099999999
1021
10.25
1031
0.0
1000
FLAGS
1070
     2
  0
INSERT
  5
B2C
330
1B
100
AcDbEntity
 67
     1
  8
TITLEBLOCK
100
AcDbBlockReference
 66
     1
  2
TITLE-PAD
 10
0.0
 20
0.0
 30
0.0
  0
ATTRIB
  5
B2D
330
B2C
100
AcDbEntity
 67
     1
  8
TEXT1
 62
     0
100
AcDbText
 10
10.10183834893798
 20
0.7474460884590166
 30
0.0
 40
0.1
  1

  7
ROMANS
 72
     4
 11
10.10183834893798
 21
0.7474460884590166
 31
0.0
100
AcDbAttribute
  2
DESCRIPTION 1
 70
     0
  0
ATTRIB
  5
B2E
330
B2C
100
AcDbEntity
 67
     1
  8
TEXT1
 62
     0
100
AcDbText
 10
9.344695491795132
 20
0.5517231711406716
 30
0.0
 40
0.1
  1
XY2CH CABLE PULL
  7
ROMANS
 72
     4
 11
10.10183834893798
 21
0.6017231711406717
 31
0.0
100
AcDbAttribute
  2
DESCRIPTION 2
 70
     0
  0
ATTRIB
  5
B2F
330
B2C
100
AcDbEntity
 67
     1
  8
TEXT1
 62
     0
100
AcDbText
 10
8.90374311084275
 20
0.4217145395366124
 30
0.0
 40
0.08
  1
FOR UP TO 50' (15m) CABLE LENGTH
  7
ROMANS
 72
     4
 11
10.10183834893798
 21
0.4560002538223267
 31
0.0
100
AcDbAttribute
  2
DESCRIPTION 3
 70
     0
  0
ATTRIB
  5
B30
330
B2C
100
AcDbEntity
 67
     1
  8
TEXT1
 62
     0
100
AcDbText
 10
9.981838348937989
 20
0.3202773365039833
 30
0.0
 40
0.08
  1
   
  7
ROMANS
 72
     4
 11
10.10183834893798
 21
0.3202773365039833
 31
0.0
100
AcDbAttribute
  2
DESCRIPTION 4
 70
     0
  0
ATTRIB
  5
B31
330
B2C
100
AcDbEntity
 67
     1
  8
TEXT1
 62
     0
100
AcDbText
 10
10.10183834893798
 20
0.1845544191856399
 30
0.0
 40
0.08
  1

  7
ROMANS
 72
     4
 11
10.10183834893798
 21
0.1845544191856399
 31
0.0
100
AcDbAttribute
  2
DESCRIPTION 5
 70
     0
  0
ATTRIB
  5
B32
330
B2C
100
AcDbEntity
 67
     1
  8
TEXT1
 62
     0
100
AcDbText
 10
12.74772367103195
 20
0.096540546036505
 30
0.0
 40
0.12
  1
XY2CH_OUTLINE_001
 41
0.9512024731840066
  7
M_STANDARD
 11
12.74772367103195
 21
0.156540546036505
 31
0.0
100
AcDbAttribute
  2
DWGNO
 70
     0
 74
     2
  0
ATTRIB
  5
B33
330
B2C
100
AcDbEntity
 67
     1
  8
TEXT1
 62
     0
100
AcDbText
 10
16.27506454949325
 20
-0.1507193079929352
 30
0.0
 40
0.08
  1
 
  7
ROMANS
 72
     2
 11
16.35506454949325
 21
-0.1107193079929352
 31
0.0
100
AcDbAttribute
  2
REF
 70
     0
 74
     2
  0
ATTRIB
  5
B34
330
B2C
100
AcDbEntity
 67
     1
  8
TEXT1
 62
     0
100
AcDbText
 10
0.0266402374038712
 20
-0.1507193079929352
 30
0.0
 40
0.08
  1
APRIL 2001
  7
ROMANS
 11
0.0266402374038712
 21
-0.1107193079929352
 31
0.0
100
AcDbAttribute
  2
DATE
 70
     0
 74
     2
  0
SEQEND
  5
B35
330
B2C
100
AcDbEntity
 67
     1
  8
0
  0
INSERT
  5
D86
330
1B
100
AcDbEntity
 67
     1
  8
TITLEBLOCK
100
AcDbBlockReference
  2
OEM-NOTES
 10
0.0
 20
0.0
 30
0.0
 41
0.5
 42
0.5
 43
0.5
  0
ENDSEC
  0
SECTION
  2
OBJECTS
  0
DICTIONARY
  5
C
330
0
100
AcDbDictionary
  3
ACAD_GROUP
350
D
  3
ACAD_LAYOUT
350
1A
  3
ACAD_MLINESTYLE
350
17
  3
ACAD_PLOTSETTINGS
350
19
  3
ACAD_PLOTSTYLENAME
350
E
  3
ACADDIM
350
C409
  3
ACDBHEADERROUNDTRIPXREC
350
139D8
  3
ACDBVARIABLEDICTIONARY
350
374
  3
ACMDICTIONARY
350
383
  3
AMG
350
36B
  3
AMGSNAPSETTINGS
350
399
  3
ASE_INDEX_DICTIONARY
350
6A
  3
DWGPROPS
350
CB4
  0
DICTIONARY
  5
73
330
1F
100
AcDbDictionary
280
     1
  3
ACAD_INDEX
360
137C0
  3
ACAD_LAYOUTSELFREF
360
139FA
  0
DICTIONARY
  5
75
330
1B
100
AcDbDictionary
280
     1
  3
ACAD_LAYOUTSELFREF
360
139F9
  0
DICTIONARY
  5
D
102
{ACAD_REACTORS
330
C
102
}
330
C
100
AcDbDictionary
  0
DICTIONARY
  5
1A
102
{ACAD_REACTORS
330
C
102
}
330
C
100
AcDbDictionary
  0
DICTIONARY
  5
17
102
{ACAD_REACTORS
330
C
102
}
330
C
100
AcDbDictionary
  3
STANDARD
350
18
  0
DICTIONARY
  5
19
102
{ACAD_REACTORS
330
C
102
}
330
C
100
AcDbDictionary
  3
A_SIZE_PAPER
350
2FF
  3
B_SIZE_PAPER
350
2FD
  3
D_SIZE_PAPER
350
2FE
  0
ACDBDICTIONARYWDFLT
  5
E
102
{ACAD_REACTORS
330
C
102
}
330
C
100
AcDbDictionary
281
     1
  3
Normal
350
F
100
AcDbDictionaryWithDefault
340
F
  0
XRECORD
  5
C409
102
{ACAD_REACTORS
330
C
102
}
330
C
100
AcDbXrecord
 90
   990106
  3

 60
     0
 61
     0
 62
     1
 63
     3
 64
     0
 65
     0
 66
     0
 67
     3
 68
     1
 69
     0
 70
     0
 71
     0
 72
     0
 40
0.0
170
     0
  0
DICTIONARY
  5
139D8
102
{ACAD_REACTORS
330
C
102
}
330
C
100
AcDbDictionary
  3
CEPSNTYPE
350
139E2
  3
DIMSTYLEDATA
350
139E6
  3
FINGERPRINTGUID
350
139E3
  3
HYPERLINKBASE
350
139DB
  3
INSUNITS
350
139E1
  3
LAYOUTDICT
350
139DD
  3
LWETCUNION
350
139E0
  3
PLOTSETDICT
350
139DE
  3
PLOTSTYLNAMDICT
350
139DF
  3
PSVPSCALE
350
139E5
  3
PUCSBASE
350
139E9
  3
PUCSORGBACK
350
139EF
  3
PUCSORGBOTTOM
350
139EB
  3
PUCSORGFRONT
350
139EE
  3
PUCSORGLEFT
350
139EC
  3
PUCSORGRIGHT
350
139ED
  3
PUCSORGTOP
350
139EA
  3
PUCSORTHOREF
350
139E7
  3
PUCSORTHOVIEW
350
139E8
  3
STYLESHEET
350
139DC
  3
TSTACKALIGN
350
139D9
  3
TSTACKSIZE
350
139DA
  3
UCSBASE
350
139F2
  3
UCSORGBACK
350
139F8
  3
UCSORGBOTTOM
350
139F4
  3
UCSORGFRONT
350
139F7
  3
UCSORGLEFT
350
139F5
  3
UCSORGRIGHT
350
139F6
  3
UCSORGTOP
350
139F3
  3
UCSORTHOREF
350
139F0
  3
UCSORTHOVIEW
350
139F1
  3
VERSIONGUID
350
139E4
  0
DICTIONARY
  5
374
102
{ACAD_REACTORS
330
C
102
}
330
C
100
AcDbDictionary
  3
INDEXCTL
350
375
  3
SORTENTS
350
A907
  0
DICTIONARY
  5
383
102
{ACAD_REACTORS
330
C
102
}
330
C
100
AcDbDictionary
  0
DICTIONARY
  5
36B
102
{ACAD_REACTORS
330
C
102
}
330
C
100
AcDbDictionary
  3
ACMGSETTINGS
350
36C
  0
DICTIONARY
  5
399
102
{ACAD_REACTORS
330
C
102
}
330
C
100
AcDbDictionary
  0
DICTIONARY
  5
6A
102
{ACAD_REACTORS
330
C
102
}
330
C
100
AcDbDictionary
  3
ASEBLOCKHIERARCHYINDEXRECORD
350
6C
1001
DCO15
1040
1379130883.246999
  0
XRECORD
  5
CB4
102
{ACAD_REACTORS
330
C
102
}
330
C
100
AcDbXrecord
  1
DWGPROPS COOKIE
  2

  3

  4

  6

  7

  8
mgp706
  9

300
AmdtFileType=84
301
=
302
=
303
=
304
=
305
=
306
=
307
=
308
=
309
=
 40
0.2107598032407407
 41
2451764.535041909
 42
2451851.591606284
  1

 90
        1
  0
DICTIONARY
  5
137C0
102
{ACAD_REACTORS
330
73
102
}
330
73
100
AcDbDictionary
  3
*A1
350
137C1
  0
XRECORD
  5
139FA
102
{ACAD_REACTORS
330
73
102
}
330
73
100
AcDbXrecord
340
1F
  0
XRECORD
  5
139F9
102
{ACAD_REACTORS
330
75
102
}
330
75
100
AcDbXrecord
340
1B
  0
MLINESTYLE
  5
18
102
{ACAD_REACTORS
330
17
102
}
330
17
100
AcDbMlineStyle
  2
STANDARD
 70
     0
  3

 62
   256
 51
90.0
 52
90.0
 71
     2
 49
0.5
 62
   256
  6
BYLAYER
 49
-0.5
 62
   256
  6
BYLAYER
  0
PLOTSETTINGS
  5
2FF
102
{ACAD_REACTORS
330
19
102
}
330
19
100
AcDbPlotSettings
  1
A Size Paper
  2
none_device
  4
ANSI_A_(8.50_x_11.00_Inches)
  6

 40
6.349999904632568
 41
19.04999923706054
 42
6.350006103515625
 43
19.04998779296875
 44
215.8999938964843
 45
279.3999938964843
 46
19.04999999999999
 47
-9.651999999999999
 48
0.0
 49
0.0
140
0.0
141
0.0
142
1.0
143
1.6
 70
   740
 72
     0
 73
     1
 74
     1
  7
monochrome.ctb
 75
     0
147
0.625
148
0.0034886547032954
149
0.0199946439100934
  0
PLOTSETTINGS
  5
2FD
102
{ACAD_REACTORS
330
19
102
}
330
19
100
AcDbPlotSettings
  1
B Size Paper
  2
none_device
  4
ANSI_B_(11.00_x_17.00_Inches)
  6

 40
6.349999904632568
 41
19.04999923706054
 42
6.350006103515625
 43
19.04998779296875
 44
279.3999938964843
 45
431.7999877929687
 46
1.27
 47
-11.43
 48
0.0
 49
0.0
140
0.0
141
0.0
142
1.0
143
1.0
 70
   756
 72
     0
 73
     1
 74
     1
  7
monochrome.ctb
 75
    16
147
1.0
148
0.0034886547032954
149
0.0199946439100934
  0
PLOTSETTINGS
  5
2FE
102
{ACAD_REACTORS
330
19
102
}
330
19
100
AcDbPlotSettings
  1
D Size Paper
  2
none_device
  4
ANSI_D_(22.00_x_34.00_Inches)
  6

 40
6.349999904632568
 41
19.04999923706054
 42
6.3499755859375
 43
19.04998779296875
 44
558.7999877929687
 45
863.5999755859375
 46
8.889999999999998
 47
-3.809999999999999
 48
0.0
 49
0.0
140
0.0
141
0.0
142
1.0
143
0.5
 70
   740
 72
     0
 73
     1
 74
     1
  7
monochrome.ctb
 75
     0
147
2.0
148
0.0034886547032954
149
0.0199946439100934
  0
ACDBPLACEHOLDER
  5
F
102
{ACAD_REACTORS
330
E
102
}
330
E
100
AcDbPlaceHolder
280
     0
  0
XRECORD
  5
139E2
102
{ACAD_REACTORS
330
139D8
102
}
330
139D8
100
AcDbXrecord
 90
        0
  0
XRECORD
  5
139E6
102
{ACAD_REACTORS
330
139D8
102
}
330
139D8
100
AcDbXrecord
1000
DSTYLE
1002
{
1070
    79
 70
     1
1070
   148
 40
0.1
1070
   341
340
AA81
1070
   342
340
AA81
1070
   371
 70
    -1
1070
   372
 70
    -1
1002
}
  0
XRECORD
  5
139E3
102
{ACAD_REACTORS
330
139D8
102
}
330
139D8
100
AcDbXrecord
  1
{4E694E3A-6C64-11D4-81E3-0004AC4461C9}
  0
XRECORD
  5
139DB
102
{ACAD_REACTORS
330
139D8
102
}
330
139D8
100
AcDbXrecord
  1

  0
XRECORD
  5
139E1
102
{ACAD_REACTORS
330
139D8
102
}
330
139D8
100
AcDbXrecord
 90
        1
  0
XRECORD
  5
139DD
102
{ACAD_REACTORS
330
139D8
102
}
330
139D8
100
AcDbXrecord
340
1A
  0
XRECORD
  5
139E0
102
{ACAD_REACTORS
330
139D8
102
}
330
139D8
100
AcDbXrecord
 90
    10269
  0
XRECORD
  5
139DE
102
{ACAD_REACTORS
330
139D8
102
}
330
139D8
100
AcDbXrecord
340
19
  0
XRECORD
  5
139DF
102
{ACAD_REACTORS
330
139D8
102
}
330
139D8
100
AcDbXrecord
340
E
  0
XRECORD
  5
139E5
102
{ACAD_REACTORS
330
139D8
102
}
330
139D8
100
AcDbXrecord
 40
1.0
  0
XRECORD
  5
139E9
102
{ACAD_REACTORS
330
139D8
102
}
330
139D8
100
AcDbXrecord
340
0
  0
XRECORD
  5
139EF
102
{ACAD_REACTORS
330
139D8
102
}
330
139D8
100
AcDbXrecord
 10
0.0
 20
0.0
 30
0.0
  0
XRECORD
  5
139EB
102
{ACAD_REACTORS
330
139D8
102
}
330
139D8
100
AcDbXrecord
 10
0.0
 20
0.0
 30
0.0
  0
XRECORD
  5
139EE
102
{ACAD_REACTORS
330
139D8
102
}
330
139D8
100
AcDbXrecord
 10
0.0
 20
0.0
 30
0.0
  0
XRECORD
  5
139EC
102
{ACAD_REACTORS
330
139D8
102
}
330
139D8
100
AcDbXrecord
 10
0.0
 20
0.0
 30
0.0
  0
XRECORD
  5
139ED
102
{ACAD_REACTORS
330
139D8
102
}
330
139D8
100
AcDbXrecord
 10
0.0
 20
0.0
 30
0.0
  0
XRECORD
  5
139EA
102
{ACAD_REACTORS
330
139D8
102
}
330
139D8
100
AcDbXrecord
 10
0.0
 20
0.0
 30
0.0
  0
XRECORD
  5
139E7
102
{ACAD_REACTORS
330
139D8
102
}
330
139D8
100
AcDbXrecord
340
0
  0
XRECORD
  5
139E8
102
{ACAD_REACTORS
330
139D8
102
}
330
139D8
100
AcDbXrecord
 70
     0
  0
XRECORD
  5
139DC
102
{ACAD_REACTORS
330
139D8
102
}
330
139D8
100
AcDbXrecord
  1

  0
XRECORD
  5
139D9
102
{ACAD_REACTORS
330
139D8
102
}
330
139D8
100
AcDbXrecord
 90
        1
  0
XRECORD
  5
139DA
102
{ACAD_REACTORS
330
139D8
102
}
330
139D8
100
AcDbXrecord
 90
       70
  0
XRECORD
  5
139F2
102
{ACAD_REACTORS
330
139D8
102
}
330
139D8
100
AcDbXrecord
340
0
  0
XRECORD
  5
139F8
102
{ACAD_REACTORS
330
139D8
102
}
330
139D8
100
AcDbXrecord
 10
0.0
 20
0.0
 30
0.0
  0
XRECORD
  5
139F4
102
{ACAD_REACTORS
330
139D8
102
}
330
139D8
100
AcDbXrecord
 10
0.0
 20
0.0
 30
0.0
  0
XRECORD
  5
139F7
102
{ACAD_REACTORS
330
139D8
102
}
330
139D8
100
AcDbXrecord
 10
0.0
 20
0.0
 30
0.0
  0
XRECORD
  5
139F5
102
{ACAD_REACTORS
330
139D8
102
}
330
139D8
100
AcDbXrecord
 10
0.0
 20
0.0
 30
0.0
  0
XRECORD
  5
139F6
102
{ACAD_REACTORS
330
139D8
102
}
330
139D8
100
AcDbXrecord
 10
0.0
 20
0.0
 30
0.0
  0
XRECORD
  5
139F3
102
{ACAD_REACTORS
330
139D8
102
}
330
139D8
100
AcDbXrecord
 10
0.0
 20
0.0
 30
0.0
  0
XRECORD
  5
139F0
102
{ACAD_REACTORS
330
139D8
102
}
330
139D8
100
AcDbXrecord
340
0
  0
XRECORD
  5
139F1
102
{ACAD_REACTORS
330
139D8
102
}
330
139D8
100
AcDbXrecord
 70
     0
  0
XRECORD
  5
139E4
102
{ACAD_REACTORS
330
139D8
102
}
330
139D8
100
AcDbXrecord
  1
{30ABFB29-38C7-11D5-B1DA-000629309E34}
  0
DICTIONARYVAR
  5
375
102
{ACAD_REACTORS
330
374
102
}
330
374
100
DictionaryVariables
280
     0
  1
1
  0
DICTIONARYVAR
  5
A907
102
{ACAD_REACTORS
330
374
102
}
330
374
100
DictionaryVariables
280
     0
  1
96
  0
DICTIONARY
  5
36C
102
{ACAD_REACTORS
330
36B
102
}
330
36B
100
AcDbDictionary
  3
DWGSETTINGS
350
CA0
  0
XRECORD
  5
6C
102
{ACAD_REACTORS
330
6A
102
}
330
6A
100
AcDbXrecord
  0
LAYER_INDEX
  5
137C1
102
{ACAD_REACTORS
330
137C0
102
}
330
137C0
100
AcDbIndex
 40
2452024.593963264
100
AcDbLayerIndex
  8
0
360
137C2
 90
       31
  8
BLOCKS
360
137C3
 90
        0
  8
CENTER1
360
137C4
 90
        6
  8
CENTER2
360
137C5
 90
        0
  8
CENTER3
360
137C6
 90
        0
  8
CONSTRUCTION
360
137C7
 90
        0
  8
CONTINUOUS1
360
137C8
 90
      705
  8
CONTINUOUS2
360
137C9
 90
        0
  8
CONTINUOUS3
360
137CA
 90
        0
  8
DASHDOT1
360
137CB
 90
        0
  8
DASHDOT2
360
137CC
 90
        0
  8
DASHDOT3
360
137CD
 90
        0
  8
DIM
360
137CE
 90
        8
  8
HIDDEN1
360
137CF
 90
        4
  8
HIDDEN2
360
137D0
 90
        0
  8
HIDDEN3
360
137D1
 90
        0
  8
PHANTOM1
360
137D2
 90
        0
  8
PHANTOM2
360
137D3
 90
        0
  8
PHANTOM3
360
137D4
 90
        0
  8
TEXT1
360
137D5
 90
      164
  8
TEXT2
360
137D6
 90
        0
  8
TEXT3
360
137D7
 90
        0
  8
TITLEBLOCK
360
137D8
 90
        0
  8
VIEWPORT
360
137D9
 90
        2
  8
Defpoints
360
137DA
 90
        0
  0
XRECORD
  5
CA0
102
{ACAD_REACTORS
330
36C
102
}
330
36C
100
AcDbXrecord
  1
VERSION
140
15.0
  1
PRODUCT
  2
AutoCAD Mechanical 2000
  0
IDBUFFER
  5
137C2
330
0
100
AcDbIdBuffer
330
79E
330
12F0F
330
12F10
330
12F11
330
12F12
330
12F1C
330
12F1D
330
12F1E
330
12F65
330
12F67
330
12FCC
330
12FD2
330
13073
330
13074
330
13075
330
13077
330
13078
330
13079
330
13091
330
13092
330
1329F
330
132A2
330
132A3
330
132A6
330
132B4
330
132EC
330
132ED
330
132F4
330
132F5
330
132FB
330
13301
  0
IDBUFFER
  5
137C3
330
0
100
AcDbIdBuffer
  0
IDBUFFER
  5
137C4
330
0
100
AcDbIdBuffer
330
107F4
330
10807
330
1080B
330
10FD2
330
10FD3
330
10FEA
  0
IDBUFFER
  5
137C5
330
0
100
AcDbIdBuffer
  0
IDBUFFER
  5
137C6
330
0
100
AcDbIdBuffer
  0
IDBUFFER
  5
137C7
330
0
100
AcDbIdBuffer
  0
IDBUFFER
  5
137C8
330
0
100
AcDbIdBuffer
330
107E8
330
107E9
330
10806
330
10808
330
10827
330
10828
330
10829
330
1082A
330
1082C
330
1082D
330
1082E
330
1082F
330
10836
330
10837
330
10839
330
1083A
330
1083C
330
1083D
330
10844
330
10845
330
10887
330
10888
330
10889
330
1088A
330
1088B
330
1088C
330
1088D
330
1088E
330
1088F
330
10890
330
10891
330
10892
330
10893
330
10894
330
10895
330
10896
330
10897
330
10898
330
10899
330
1089B
330
1089C
330
1089D
330
1089E
330
1089F
330
108A0
330
108A1
330
108A2
330
108A3
330
108A4
330
108A6
330
108C7
330
108C8
330
108C9
330
108CA
330
108CB
330
108CD
330
108CE
330
108CF
330
108D0
330
108D1
330
108D2
330
108D3
330
108D4
330
108D5
330
108D6
330
108D7
330
108D8
330
108D9
330
108DA
330
108DB
330
108DD
330
108DE
330
108DF
330
108E0
330
108E1
330
108E2
330
108E3
330
108E4
330
108E5
330
108E6
330
10A03
330
10A04
330
10A06
330
10A21
330
10A22
330
10A23
330
10A3A
330
10A3B
330
10A3C
330
10A40
330
10A41
330
10A42
330
10A43
330
10A48
330
10A49
330
10A4A
330
10A4B
330
10A4C
330
10A4D
330
10A4E
330
10A50
330
10A51
330
10A52
330
10A53
330
10FD0
330
10FD1
330
10FD4
330
10FD5
330
10FD6
330
10FD7
330
10FE4
330
10FE5
330
10FE6
330
10FE7
330
10FE8
330
10FE9
330
1175A
330
1175B
330
1175C
330
1175E
330
1175F
330
11760
330
11853
330
11854
330
11859
330
1185A
330
11864
330
11868
330
11869
330
1186A
330
11870
330
11871
330
11873
330
11875
330
11876
330
11877
330
11878
330
11879
330
1187A
330
1187B
330
1187D
330
11881
330
11882
330
11883
330
11885
330
11886
330
11887
330
11889
330
1188A
330
1188B
330
1188C
330
1188F
330
11892
330
11893
330
11894
330
11895
330
11896
330
11897
330
11898
330
11899
330
1189A
330
1189D
330
1189E
330
1189F
330
118A0
330
118A1
330
118A2
330
118A3
330
118A4
330
118A5
330
118A6
330
118A7
330
118A9
330
118AA
330
118AB
330
118AC
330
118AD
330
118AE
330
118AF
330
118B0
330
118B1
330
118B2
330
118B3
330
118B4
330
118B5
330
118B6
330
118B7
330
118B8
330
11A40
330
11D92
330
12400
330
12401
330
12402
330
12404
330
12405
330
12407
330
1240B
330
1240C
330
12410
330
12411
330
12412
330
12414
330
12415
330
12418
330
12419
330
1241A
330
1241B
330
1241C
330
1241D
330
1241E
330
1241F
330
12420
330
12421
330
12422
330
12423
330
12424
330
12425
330
12426
330
12427
330
12428
330
12429
330
1242A
330
1242B
330
1242C
330
1242D
330
1242E
330
1242F
330
12430
330
12431
330
12434
330
12435
330
12436
330
12437
330
12438
330
12439
330
1243A
330
1243B
330
1243C
330
1243D
330
1243E
330
1243F
330
12440
330
12441
330
12442
330
12443
330
12444
330
12445
330
12446
330
12447
330
12448
330
12449
330
1244A
330
1244B
330
1244C
330
1244D
330
1244E
330
1244F
330
12450
330
12451
330
12452
330
12453
330
12454
330
12455
330
12456
330
12457
330
12458
330
12459
330
1245A
330
1245B
330
1245C
330
1245D
330
1245E
330
1245F
330
12460
330
12461
330
12462
330
12463
330
12464
330
12465
330
12466
330
12467
330
12468
330
12469
330
1246A
330
1246B
330
1246C
330
1246D
330
1246E
330
1246F
330
12470
330
12471
330
12472
330
12473
330
12474
330
12475
330
12476
330
12478
330
12489
330
1248A
330
1248B
330
1248D
330
1248E
330
1248F
330
12490
330
12491
330
12492
330
12493
330
12494
330
12495
330
12496
330
12497
330
124A8
330
124A9
330
124AA
330
124AB
330
124AC
330
124AD
330
124AE
330
124AF
330
124B0
330
124B1
330
124B2
330
124B3
330
124B4
330
124B5
330
124B6
330
124B7
330
124B8
330
124B9
330
124BA
330
124BB
330
124BC
330
124BD
330
124BE
330
124BF
330
124C0
330
124C1
330
124C2
330
124C3
330
124C4
330
124C5
330
124C6
330
124C7
330
124C8
330
124C9
330
124CA
330
124CB
330
124CC
330
124CD
330
124CE
330
124CF
330
124D0
330
124D1
330
124D2
330
124D3
330
124D4
330
124D5
330
124D6
330
124D7
330
124D8
330
124D9
330
124DA
330
124DB
330
124DC
330
124DD
330
124DF
330
124E0
330
124E1
330
124E2
330
124E3
330
124E4
330
124E5
330
124E6
330
124E7
330
124E8
330
124E9
330
124EA
330
124EB
330
124EC
330
124ED
330
124EE
330
124EF
330
124F0
330
124F1
330
124F2
330
124F3
330
124F4
330
124F5
330
124F6
330
124F7
330
124F8
330
124F9
330
124FA
330
124FB
330
124FC
330
124FD
330
124FE
330
124FF
330
12500
330
12501
330
12502
330
12503
330
12504
330
12505
330
12506
330
12507
330
12508
330
12509
330
1254C
330
1254D
330
1254E
330
1254F
330
12550
330
12551
330
12552
330
12554
330
12555
330
12556
330
12557
330
12558
330
12559
330
1255A
330
1255B
330
1255C
330
1255D
330
1255E
330
1255F
330
12560
330
12561
330
12562
330
12563
330
12564
330
12566
330
12567
330
12568
330
12569
330
1256A
330
1256B
330
1256C
330
1256D
330
1256E
330
1256F
330
12570
330
12571
330
12572
330
12573
330
12575
330
12576
330
12577
330
12578
330
12579
330
1257A
330
1257B
330
1257C
330
1257D
330
1257E
330
1257F
330
12580
330
12581
330
12582
330
12583
330
12585
330
12586
330
12587
330
12588
330
12589
330
1258A
330
1258B
330
1258E
330
12591
330
12592
330
12593
330
12594
330
12595
330
12596
330
125A2
330
125A6
330
125B4
330
125B7
330
125BC
330
125BF
330
125C0
330
125C4
330
125C5
330
125DB
330
125E2
330
125E3
330
125E4
330
125E5
330
125E6
330
125EA
330
125EC
330
125ED
330
125EF
330
125F0
330
125F1
330
125F2
330
125F3
330
125F4
330
125F6
330
125FB
330
125FD
330
12609
330
12654
330
12655
330
1265A
330
1265C
330
1265D
330
1265E
330
12664
330
12672
330
12679
330
1267A
330
1267C
330
1267E
330
12681
330
12682
330
12683
330
12686
330
12689
330
1268B
330
1268C
330
1268D
330
1268E
330
1268F
330
12693
330
12696
330
12697
330
12698
330
12715
330
12716
330
12719
330
1271A
330
1271F
330
1272B
330
1272C
330
1272D
330
1272E
330
12732
330
12734
330
12736
330
12737
330
1273C
330
1273D
330
1273E
330
1273F
330
12742
330
12743
330
12744
330
12745
330
12746
330
12747
330
12748
330
12749
330
1274A
330
1274B
330
1274C
330
1274D
330
1274E
330
12756
330
12757
330
12758
330
12759
330
1275A
330
1275B
330
1275C
330
1275D
330
1275E
330
1275F
330
12761
330
12762
330
12764
330
12765
330
12766
330
1277B
330
1277F
330
12780
330
12781
330
12782
330
12783
330
12784
330
12785
330
12786
330
12787
330
12788
330
129AA
330
129AC
330
129AF
330
129B1
330
129B3
330
129B4
330
129B5
330
129B6
330
129B8
330
129B9
330
129BA
330
129BB
330
129BC
330
129BD
330
129BE
330
129BF
330
129C0
330
129C1
330
129C2
330
129C3
330
129C4
330
129C5
330
129C6
330
129C7
330
129C8
330
129C9
330
129CA
330
129CB
330
129CC
330
129CD
330
129CE
330
129CF
330
129D0
330
129D1
330
129D2
330
129D3
330
129D4
330
129D5
330
129D6
330
129D7
330
129D8
330
129D9
330
129DA
330
129DB
330
129DC
330
129DD
330
129DE
330
129DF
330
129E0
330
129E1
330
129E2
330
129E3
330
129E4
330
129E5
330
129E6
330
129E7
330
129E8
330
129E9
330
129EA
330
129EB
330
129EC
330
129ED
330
129EE
330
129EF
330
129F0
330
129F1
330
129F2
330
129F6
330
129F7
330
129F8
330
129F9
330
129FA
330
129FB
330
129FC
330
129FD
330
129FE
330
129FF
330
12A00
330
12A01
330
12A04
330
12A05
330
12A06
330
12A07
330
12A08
330
12A09
330
12A0A
330
12A0B
330
12A0C
330
12A0D
330
12A0E
330
12A0F
330
12A21
330
12A22
330
12A23
330
12A24
330
12A25
330
12A26
330
12A29
330
12A39
330
12A3C
330
12A3D
330
12A41
330
12A43
330
12A44
330
12A45
330
12A46
330
12A47
330
12A49
330
12A4A
330
12A4C
330
12A4D
330
12A4E
330
12A4F
330
12A50
330
12A51
330
12A52
330
12A53
330
12A54
330
12A55
330
12A56
  0
IDBUFFER
  5
137C9
330
0
100
AcDbIdBuffer
  0
IDBUFFER
  5
137CA
330
0
100
AcDbIdBuffer
  0
IDBUFFER
  5
137CB
330
0
100
AcDbIdBuffer
  0
IDBUFFER
  5
137CC
330
0
100
AcDbIdBuffer
  0
IDBUFFER
  5
137CD
330
0
100
AcDbIdBuffer
  0
IDBUFFER
  5
137CE
330
0
100
AcDbIdBuffer
330
12793
330
127A2
330
127B0
330
127CA
330
1282E
330
12A5D
330
12A6B
330
12A8D
  0
IDBUFFER
  5
137CF
330
0
100
AcDbIdBuffer
330
12816
330
12817
330
12818
330
12819
  0
IDBUFFER
  5
137D0
330
0
100
AcDbIdBuffer
  0
IDBUFFER
  5
137D1
330
0
100
AcDbIdBuffer
  0
IDBUFFER
  5
137D2
330
0
100
AcDbIdBuffer
  0
IDBUFFER
  5
137D3
330
0
100
AcDbIdBuffer
  0
IDBUFFER
  5
137D4
330
0
100
AcDbIdBuffer
  0
IDBUFFER
  5
137D5
330
0
100
AcDbIdBuffer
330
11855
330
125E9
330
125F5
330
1260B
330
1260E
330
1260F
330
12610
330
12611
330
12612
330
12616
330
12617
330
12618
330
12619
330
1261B
330
12621
330
12623
330
12624
330
12625
330
12626
330
12629
330
1262A
330
1262D
330
1262E
330
12630
330
12631
330
12632
330
12633
330
12635
330
12636
330
12638
330
1263D
330
12646
330
1264B
330
12650
330
12667
330
12668
330
12669
330
1266A
330
1266B
330
1266C
330
12F1B
330
12F20
330
12F21
330
12F34
330
12F35
330
12F36
330
12F4B
330
12F4E
330
12F4F
330
12F50
330
12F57
330
12F5C
330
12F61
330
12FA5
330
12FA6
330
12FAB
330
12FAC
330
12FAD
330
12FBA
330
12FBB
330
12FBC
330
12FBD
330
12FBE
330
12FBF
330
12FC0
330
12FC1
330
12FC2
330
12FCB
330
12FCF
330
12FD0
330
12FD1
330
12FD5
330
1306A
330
13076
330
13084
330
13087
330
13088
330
1308C
330
1308D
330
13090
330
13096
330
13097
330
13098
330
13099
330
1309B
330
1309D
330
1309E
330
13136
330
13137
330
13138
330
13139
330
13140
330
13141
330
13143
330
13144
330
13148
330
13149
330
1314A
330
1314F
330
13150
330
13151
330
13159
330
1315A
330
1315C
330
1315F
330
13160
330
13161
330
13162
330
1316F
330
131FE
330
131FF
330
13200
330
13201
330
13202
330
13203
330
13204
330
13205
330
13206
330
13207
330
13208
330
13209
330
1320A
330
1320B
330
1329A
330
1329B
330
1329C
330
1329D
330
1329E
330
132A5
330
132AC
330
132B7
330
132BE
330
132BF
330
132C4
330
132C5
330
132D7
330
132EE
330
132EF
330
132F0
330
132F1
330
132F2
330
132F6
330
132F7
330
132F8
330
132F9
330
132FA
330
132FC
330
132FD
330
132FE
330
132FF
330
13300
330
13302
330
13431
330
13432
330
13433
330
13434
330
13435
330
13436
330
1351A
330
1351B
330
1351C
330
1351D
330
1351E
330
1351F
  0
IDBUFFER
  5
137D6
330
0
100
AcDbIdBuffer
  0
IDBUFFER
  5
137D7
330
0
100
AcDbIdBuffer
  0
IDBUFFER
  5
137D8
330
0
100
AcDbIdBuffer
  0
IDBUFFER
  5
137D9
330
0
100
AcDbIdBuffer
330
BF7
330
BF8
  0
IDBUFFER
  5
137DA
330
0
100
AcDbIdBuffer
  0
ENDSEC
  0
EOF
