  0
SECTION
  2
HEADER
  9
$ACADVER
  1
AC1009
  9
$INSBASE
 10
402.590624
 20
-1.041018
 30
0.0
  9
$EXTMIN
 10
-184.539113
 20
-1.667221
 30
0.0
  9
$EXTMAX
 10
-68.181894
 20
146.332779
 30
0.0
  9
$LIMMIN
 10
-407.970438
 20
-367.832444
  9
$LIMMAX
 10
429.804077
 20
234.370848
  9
$ORTHOMODE
 70
     1
  9
$REGENMODE
 70
     1
  9
$FILLMODE
 70
     1
  9
$QTEXTMODE
 70
     0
  9
$MIRRTEXT
 70
     1
  9
$DRAGMODE
 70
     2
  9
$LTSCALE
 40
10.0
  9
$OSMODE
 70
    37
  9
$ATTMODE
 70
     1
  9
$TEXTSIZE
 40
6.0
  9
$TRACEWID
 40
1.0
  9
$TEXTSTYLE
  7
ROMANS
  9
$CLAYER
  8
ALPHA
  9
$CELTYPE
  6
BYLAYER
  9
$CECOLOR
 62
   256
  9
$DIMSCALE
 40
1.0
  9
$DIMASZ
 40
5.0
  9
$DIMEXO
 40
2.0
  9
$DIMDLI
 40
0.38
  9
$DIMRND
 40
0.0
  9
$DIMDLE
 40
0.0
  9
$DIMEXE
 40
2.5
  9
$DIMTP
 40
0.0
  9
$DIMTM
 40
0.0
  9
$DIMTXT
 40
2.5
  9
$DIMCEN
 40
0.0
  9
$DIMTSZ
 40
0.0
  9
$DIMTOL
 70
     0
  9
$DIMLIM
 70
     0
  9
$DIMTIH
 70
     1
  9
$DIMTOH
 70
     1
  9
$DIMSE1
 70
     0
  9
$DIMSE2
 70
     0
  9
$DIMTAD
 70
     1
  9
$DIMZIN
 70
    12
  9
$DIMBLK
  1
OPEN30
  9
$DIMASO
 70
     1
  9
$DIMSHO
 70
     1
  9
$DIMPOST
  1

  9
$DIMAPOST
  1

  9
$DIMALT
 70
     0
  9
$DIMALTD
 70
     2
  9
$DIMALTF
 40
25.4
  9
$DIMLFAC
 40
1.0
  9
$DIMTOFL
 70
     0
  9
$DIMTVP
 40
0.0
  9
$DIMTIX
 70
     0
  9
$DIMSOXD
 70
     0
  9
$DIMSAH
 70
     0
  9
$DIMBLK1
  1

  9
$DIMBLK2
  1

  9
$DIMSTYLE
  2
SC_DEFAUT
  9
$DIMCLRD
 70
     0
  9
$DIMCLRE
 70
     0
  9
$DIMCLRT
 70
     0
  9
$DIMTFAC
 40
1.0
  9
$DIMGAP
 40
2.0
  9
$LUNITS
 70
     2
  9
$LUPREC
 70
     1
  9
$SKETCHINC
 40
0.1
  9
$FILLETRAD
 40
0.0
  9
$AUNITS
 70
     0
  9
$AUPREC
 70
     0
  9
$MENU
  1
acad
  9
$ELEVATION
 40
0.0
  9
$PELEVATION
 40
0.0
  9
$THICKNESS
 40
0.0
  9
$LIMCHECK
 70
     0
  9
$BLIPMODE
 70
     0
  9
$CHAMFERA
 40
0.0
  9
$CHAMFERB
 40
0.0
  9
$SKPOLY
 70
     0
  9
$TDCREATE
 40
2450373.687919
  9
$TDUPDATE
 40
2452852.569161
  9
$TDINDWG
 40
1.597488
  9
$TDUSRTIMER
 40
1.597488
  9
$USRTIMER
 70
     1
  9
$ANGBASE
 50
0.0
  9
$ANGDIR
 70
     0
  9
$PDMODE
 70
    32
  9
$PDSIZE
 40
0.0
  9
$PLINEWID
 40
0.0
  9
$COORDS
 70
     1
  9
$SPLFRAME
 70
     0
  9
$SPLINETYPE
 70
     6
  9
$SPLINESEGS
 70
     8
  9
$ATTDIA
 70
     0
  9
$ATTREQ
 70
     1
  9
$HANDLING
 70
     1
  9
$HANDSEED
  5
10F62
  9
$SURFTAB1
 70
     6
  9
$SURFTAB2
 70
     6
  9
$SURFTYPE
 70
     6
  9
$SURFU
 70
     6
  9
$SURFV
 70
     6
  9
$UCSNAME
  2

  9
$UCSORG
 10
0.0
 20
0.0
 30
0.0
  9
$UCSXDIR
 10
1.0
 20
0.0
 30
0.0
  9
$UCSYDIR
 10
0.0
 20
1.0
 30
0.0
  9
$PUCSNAME
  2

  9
$PUCSORG
 10
0.0
 20
0.0
 30
0.0
  9
$PUCSXDIR
 10
1.0
 20
0.0
 30
0.0
  9
$PUCSYDIR
 10
0.0
 20
1.0
 30
0.0
  9
$USERI1
 70
     0
  9
$USERI2
 70
     0
  9
$USERI3
 70
     0
  9
$USERI4
 70
     0
  9
$USERI5
 70
     0
  9
$USERR1
 40
0.0
  9
$USERR2
 40
0.0
  9
$USERR3
 40
0.0
  9
$USERR4
 40
0.0
  9
$USERR5
 40
0.0
  9
$WORLDVIEW
 70
     1
  9
$SHADEDGE
 70
     3
  9
$SHADEDIF
 70
    70
  9
$TILEMODE
 70
     1
  9
$MAXACTVP
 70
    16
  9
$PLIMCHECK
 70
     0
  9
$PEXTMIN
 10
-1.452248
 20
-0.437698
 30
0.0
  9
$PEXTMAX
 10
12.749749
 20
8.310198
 30
0.0
  9
$PLIMMIN
 10
0.0
 20
0.0
  9
$PLIMMAX
 10
12.0
 20
9.0
  9
$UNITMODE
 70
     0
  9
$VISRETAIN
 70
     0
  9
$PLINEGEN
 70
     0
  9
$PSLTSCALE
 70
     0
  0
ENDSEC
  0
SECTION
  2
TABLES
  0
TABLE
  2
VPORT
 70
     2
  0
VPORT
  2
*ACTIVE
 70
     0
 10
0.0
 20
0.0
 11
1.0
 21
1.0
 12
-126.3452
 22
72.343099
 13
0.0
 23
0.0
 14
1.0
 24
1.0
 15
10.0
 25
10.0
 16
0.0
 26
0.0
 36
1.0
 17
0.0
 27
0.0
 37
0.0
 40
149.300111
 41
1.56
 42
50.0
 43
0.0
 44
0.0
 50
0.0
 51
0.0
 71
     0
 72
   100
 73
     1
 74
     0
 75
     0
 76
     0
 77
     0
 78
     0
  0
ENDTAB
  0
TABLE
  2
LTYPE
 70
     3
  0
LTYPE
  2
CONTINUOUS
 70
     0
  3
Solid line
 72
    65
 73
     0
 40
0.0
  0
LTYPE
  2
AXES2
 70
     0
  3
___ _ ___ _ ___ _ ___ _ ___ _ ___ _ ___ _ ___ _
 72
    65
 73
     4
 40
1.125
 49
0.75
 49
-0.125
 49
0.125
 49
-0.125
  0
LTYPE
  2
CACHE2
 70
     0
  3
Caché (x.5) _ _ _ _ _ _ _ _ _ _ _ _ _ _ _ _ _
 72
    65
 73
     2
 40
0.1875
 49
0.125
 49
-0.0625
  0
ENDTAB
  0
TABLE
  2
LAYER
 70
     7
  0
LAYER
  2
0
 70
     0
 62
   255
  6
CONTINUOUS
  0
LAYER
  2
COTATION1
 70
     0
 62
     2
  6
CONTINUOUS
  0
LAYER
  2
AXE
 70
     0
 62
    80
  6
AXES2
  0
LAYER
  2
DEFPOINTS
 70
     0
 62
     7
  6
CONTINUOUS
  0
LAYER
  2
ALPHA
 70
     0
 62
   254
  6
CONTINUOUS
  0
LAYER
  2
ALPHA_FIN
 70
     0
 62
   255
  6
CONTINUOUS
  0
LAYER
  2
POINTILLE_COURT
 70
     0
 62
    41
  6
CACHE2
  0
ENDTAB
  0
TABLE
  2
STYLE
 70
     2
  0
STYLE
  2
ROMANS
 70
     0
 40
0.0
 41
1.0
 50
0.0
 71
     0
 42
6.0
  3
romans
  4

  0
STYLE
  2
STANDARD
 70
     0
 40
0.2
 41
1.0
 50
0.0
 71
     0
 42
0.2
  3
txt
  4

  0
ENDTAB
  0
TABLE
  2
VIEW
 70
     0
  0
ENDTAB
  0
TABLE
  2
UCS
 70
     0
  0
ENDTAB
  0
TABLE
  2
APPID
 70
     1
  0
APPID
  2
ACAD
 70
     0
  0
ENDTAB
  0
TABLE
  2
DIMSTYLE
 70
     1
  0
DIMSTYLE
  2
SC_DEFAUT
 70
     0
  3

  4

  5
OPEN30
  6

  7

 40
1.0
 41
5.0
 42
2.0
 43
0.38
 44
2.5
 45
0.0
 46
0.0
 47
0.0
 48
0.0
140
2.5
141
0.0
142
0.0
143
25.4
144
1.0
145
0.0
146
1.0
147
2.0
 71
     0
 72
     0
 73
     1
 74
     1
 75
     0
 76
     0
 77
     1
 78
    12
170
     0
171
     2
172
     0
173
     0
174
     0
175
     0
176
     0
177
     0
178
     0
  0
ENDTAB
  0
ENDSEC
  0
SECTION
  2
BLOCKS
  0
BLOCK
  8
0
  2
$MODEL_SPACE
 70
     0
 10
0.0
 20
0.0
 30
0.0
  3
$MODEL_SPACE
  1

  0
ENDBLK
  5
10F4D
  8
0
  0
BLOCK
 67
     1
  8
0
  2
$PAPER_SPACE
 70
     0
 10
0.0
 20
0.0
 30
0.0
  3
$PAPER_SPACE
  1

  0
ENDBLK
  5
10F4B
 67
     1
  8
0
  0
BLOCK
  8
0
  2
COTE
 70
     0
 10
0.0
 20
0.0
 30
0.0
  3
COTE
  1

  0
ENDBLK
  5
F
  8
0
  0
BLOCK
  8
0
  2
FOND
 70
     0
 10
0.0
 20
0.0
 30
0.0
  3
FOND
  1

  0
ENDBLK
  5
75
  8
0
  0
BLOCK
  8
0
  2
_OPEN30
 70
     0
 10
0.0
 20
0.0
 30
0.0
  3
_OPEN30
  1

  0
LINE
  5
4B05
  8
COTATION1
 62
     0
 10
-1.0
 20
0.267949
 30
0.0
 11
0.0
 21
0.0
 31
0.0
1001
ACAD
1000
RTLwPs
1070
   158
  0
LINE
  5
4B06
  8
COTATION1
 62
     0
 10
0.0
 20
0.0
 30
0.0
 11
-1.0
 21
-0.267949
 31
0.0
1001
ACAD
1000
RTLwPs
1070
   158
  0
LINE
  5
4B07
  8
COTATION1
 62
     0
 10
0.0
 20
0.0
 30
0.0
 11
-1.0
 21
0.0
 31
0.0
1001
ACAD
1000
RTLwPs
1070
   158
  0
ENDBLK
  5
4B09
  8
0
  0
BLOCK
  8
0
  2
*D3
 70
     1
 10
0.0
 20
0.0
 30
0.0
  3
*D3
  1

  0
LINE
  5
10E9B
  8
COTATION1
 62
     0
 10
-143.802225
 20
126.832779
 30
0.0
 11
-68.181894
 21
126.832779
 31
0.0
1001
ACAD
1000
RTLwPs
1070
   158
  0
LINE
  5
10E9C
  8
COTATION1
 62
     0
 10
-131.413945
 20
44.832779
 30
0.0
 11
-68.181894
 21
44.832779
 31
0.0
1001
ACAD
1000
RTLwPs
1070
   158
  0
LINE
  5
10E9D
  8
COTATION1
 62
     0
 10
-70.681894
 20
121.832779
 30
0.0
 11
-70.681894
 21
89.082779
 31
0.0
1001
ACAD
1000
RTLwPs
1070
   158
  0
LINE
  5
10E9E
  8
COTATION1
 62
     0
 10
-70.681894
 20
49.832779
 30
0.0
 11
-70.681894
 21
82.582779
 31
0.0
1001
ACAD
1000
RTLwPs
1070
   158
  0
INSERT
  5
10E9F
  8
COTATION1
 62
     0
  2
_OPEN30
 10
-70.681894
 20
126.832779
 30
0.0
 41
5.0
 42
5.0
 43
5.0
 50
90.0
1001
ACAD
1000
RTLwPs
1070
   158
  0
INSERT
  5
10EA0
  8
COTATION1
 62
     0
  2
_OPEN30
 10
-70.681894
 20
44.832779
 30
0.0
 41
5.0
 42
5.0
 43
5.0
 50
270.0
1001
ACAD
1000
RTLwPs
1070
   158
  0
TEXT
  5
10EA1
  8
COTATION1
 62
     0
 10
-73.062846
 20
84.582779
 30
0.0
 40
2.5
  1
82
1001
ACAD
1000
MTEXTBEGIN
1070
    73
1070
     1
1070
    44
1040
1.0
1070
    74
1070
     0
1000
MTEXTEND
  0
POINT
  5
10EA2
  8
DEFPOINTS
 62
     0
 10
-145.802225
 20
126.832779
 30
0.0
  0
POINT
  5
10EA3
  8
DEFPOINTS
 62
     0
 10
-133.413945
 20
44.832779
 30
0.0
  0
POINT
  5
10EA4
  8
DEFPOINTS
 62
     0
 10
-70.681894
 20
44.832779
 30
0.0
  0
ENDBLK
  5
FF9B
  8
0
  0
BLOCK
  8
0
  2
*D4
 70
     1
 10
0.0
 20
0.0
 30
0.0
  3
*D4
  1

  0
LINE
  5
10E91
  8
COTATION1
 62
     0
 10
-143.802225
 20
126.832779
 30
0.0
 11
-78.181894
 21
126.832779
 31
0.0
1001
ACAD
1000
RTLwPs
1070
   158
  0
LINE
  5
10E92
  8
COTATION1
 62
     0
 10
-119.681894
 20
66.832779
 30
0.0
 11
-78.181894
 21
66.832779
 31
0.0
1001
ACAD
1000
RTLwPs
1070
   158
  0
LINE
  5
10E93
  8
COTATION1
 62
     0
 10
-80.681894
 20
121.832779
 30
0.0
 11
-80.681894
 21
100.082779
 31
0.0
1001
ACAD
1000
RTLwPs
1070
   158
  0
LINE
  5
10E94
  8
COTATION1
 62
     0
 10
-80.681894
 20
71.832779
 30
0.0
 11
-80.681894
 21
93.582779
 31
0.0
1001
ACAD
1000
RTLwPs
1070
   158
  0
INSERT
  5
10E95
  8
COTATION1
 62
     0
  2
_OPEN30
 10
-80.681894
 20
126.832779
 30
0.0
 41
5.0
 42
5.0
 43
5.0
 50
90.0
1001
ACAD
1000
RTLwPs
1070
   158
  0
INSERT
  5
10E96
  8
COTATION1
 62
     0
  2
_OPEN30
 10
-80.681894
 20
66.832779
 30
0.0
 41
5.0
 42
5.0
 43
5.0
 50
270.0
1001
ACAD
1000
RTLwPs
1070
   158
  0
TEXT
  5
10E97
  8
COTATION1
 62
     0
 10
-83.12237
 20
95.582779
 30
0.0
 40
2.5
  1
60
1001
ACAD
1000
MTEXTBEGIN
1070
    73
1070
     1
1070
    44
1040
1.0
1070
    74
1070
     0
1000
MTEXTEND
  0
POINT
  5
10E98
  8
DEFPOINTS
 62
     0
 10
-145.802225
 20
126.832779
 30
0.0
  0
POINT
  5
10E99
  8
DEFPOINTS
 62
     0
 10
-121.681894
 20
66.832779
 30
0.0
  0
POINT
  5
10E9A
  8
DEFPOINTS
 62
     0
 10
-80.681894
 20
66.832779
 30
0.0
  0
ENDBLK
  5
FFB5
  8
0
  0
BLOCK
  8
0
  2
*D5
 70
     1
 10
0.0
 20
0.0
 30
0.0
  3
*D5
  1

  0
LINE
  5
10D20
  8
COTATION1
 62
     0
 10
-127.302225
 20
106.832779
 30
0.0
 11
-98.181894
 21
106.832779
 31
0.0
1001
ACAD
1000
RTLwPs
1070
   158
  0
LINE
  5
10D21
  8
COTATION1
 62
     0
 10
-119.681894
 20
66.832779
 30
0.0
 11
-98.181894
 21
66.832779
 31
0.0
1001
ACAD
1000
RTLwPs
1070
   158
  0
LINE
  5
10D22
  8
COTATION1
 62
     0
 10
-100.681894
 20
101.832779
 30
0.0
 11
-100.681894
 21
90.082779
 31
0.0
1001
ACAD
1000
RTLwPs
1070
   158
  0
LINE
  5
10D23
  8
COTATION1
 62
     0
 10
-100.681894
 20
71.832779
 30
0.0
 11
-100.681894
 21
83.582779
 31
0.0
1001
ACAD
1000
RTLwPs
1070
   158
  0
INSERT
  5
10D24
  8
COTATION1
 62
     0
  2
_OPEN30
 10
-100.681894
 20
106.832779
 30
0.0
 41
5.0
 42
5.0
 43
5.0
 50
90.0
1001
ACAD
1000
RTLwPs
1070
   158
  0
INSERT
  5
10D25
  8
COTATION1
 62
     0
  2
_OPEN30
 10
-100.681894
 20
66.832779
 30
0.0
 41
5.0
 42
5.0
 43
5.0
 50
270.0
1001
ACAD
1000
RTLwPs
1070
   158
  0
TEXT
  5
10D26
  8
COTATION1
 62
     0
 10
-103.062846
 20
85.582779
 30
0.0
 40
2.5
  1
40
1001
ACAD
1000
MTEXTBEGIN
1070
    73
1070
     1
1070
    44
1040
1.0
1070
    74
1070
     0
1000
MTEXTEND
1000
MTEXTBEGIN
1070
    73
1070
     1
1070
    44
1040
1.0
1070
    74
1070
     0
1000
MTEXTEND
1000
MTEXTBEGIN
1070
    73
1070
     1
1070
    44
1040
1.0
1070
    74
1070
     0
1000
MTEXTEND
  0
POINT
  5
10D27
  8
DEFPOINTS
 62
     0
 10
-129.302225
 20
106.832779
 30
0.0
  0
POINT
  5
10D28
  8
DEFPOINTS
 62
     0
 10
-121.681894
 20
66.832779
 30
0.0
  0
POINT
  5
10D29
  8
DEFPOINTS
 62
     0
 10
-100.681894
 20
66.832779
 30
0.0
  0
ENDBLK
  5
FFC2
  8
0
  0
BLOCK
  8
0
  2
*D6
 70
     1
 10
0.0
 20
0.0
 30
0.0
  3
*D6
  1

  0
LINE
  5
10D56
  8
COTATION1
 62
     0
 10
-155.802225
 20
98.332779
 30
0.0
 11
-155.802225
 21
18.332779
 31
0.0
1001
ACAD
1000
RTLwPs
1070
   158
  0
LINE
  5
10D57
  8
COTATION1
 62
     0
 10
-135.802225
 20
98.332779
 30
0.0
 11
-135.802225
 21
18.332779
 31
0.0
1001
ACAD
1000
RTLwPs
1070
   158
  0
LINE
  5
10D58
  8
COTATION1
 62
     0
 10
-150.802225
 20
20.832779
 30
0.0
 11
-140.802225
 21
20.832779
 31
0.0
1001
ACAD
1000
RTLwPs
1070
   158
  0
INSERT
  5
10D59
  8
COTATION1
 62
     0
  2
_OPEN30
 10
-155.802225
 20
20.832779
 30
0.0
 41
5.0
 42
5.0
 43
5.0
 50
180.0
1001
ACAD
1000
RTLwPs
1070
   158
  0
INSERT
  5
10D5A
  8
COTATION1
 62
     0
  2
_OPEN30
 10
-135.802225
 20
20.832779
 30
0.0
 41
5.0
 42
5.0
 43
5.0
1001
ACAD
1000
RTLwPs
1070
   158
  0
TEXT
  5
10D5B
  8
COTATION1
 62
     0
 10
-148.183177
 20
22.832779
 30
0.0
 40
2.5
  1
20
1001
ACAD
1000
MTEXTBEGIN
1070
    73
1070
     1
1070
    44
1040
1.0
1070
    74
1070
     0
1000
MTEXTEND
1000
MTEXTBEGIN
1070
    73
1070
     1
1070
    44
1040
1.0
1070
    74
1070
     0
1000
MTEXTEND
1000
MTEXTBEGIN
1070
    73
1070
     1
1070
    44
1040
1.0
1070
    74
1070
     0
1000
MTEXTEND
  0
POINT
  5
10D5C
  8
DEFPOINTS
 62
     0
 10
-155.802225
 20
100.332779
 30
0.0
  0
POINT
  5
10D5D
  8
DEFPOINTS
 62
     0
 10
-135.802225
 20
100.332779
 30
0.0
  0
POINT
  5
10D5E
  8
DEFPOINTS
 62
     0
 10
-135.802225
 20
20.832779
 30
0.0
  0
ENDBLK
  5
FFCE
  8
0
  0
BLOCK
  8
0
  2
*D7
 70
     1
 10
0.0
 20
0.0
 30
0.0
  3
*D7
  1

  0
LINE
  5
10D5F
  8
COTATION1
 62
     0
 10
-160.681894
 20
64.832779
 30
0.0
 11
-160.681894
 21
8.332779
 31
0.0
1001
ACAD
1000
RTLwPs
1070
   158
  0
LINE
  5
10D60
  8
COTATION1
 62
     0
 10
-130.681894
 20
55.832779
 30
0.0
 11
-130.681894
 21
8.332779
 31
0.0
1001
ACAD
1000
RTLwPs
1070
   158
  0
LINE
  5
10D61
  8
COTATION1
 62
     0
 10
-155.681894
 20
10.832779
 30
0.0
 11
-135.681894
 21
10.832779
 31
0.0
1001
ACAD
1000
RTLwPs
1070
   158
  0
INSERT
  5
10D62
  8
COTATION1
 62
     0
  2
_OPEN30
 10
-160.681894
 20
10.832779
 30
0.0
 41
5.0
 42
5.0
 43
5.0
 50
180.0
1001
ACAD
1000
RTLwPs
1070
   158
  0
INSERT
  5
10D63
  8
COTATION1
 62
     0
  2
_OPEN30
 10
-130.681894
 20
10.832779
 30
0.0
 41
5.0
 42
5.0
 43
5.0
1001
ACAD
1000
RTLwPs
1070
   158
  0
TEXT
  5
10D64
  8
COTATION1
 62
     0
 10
-148.062846
 20
12.832779
 30
0.0
 40
2.5
  1
30
1001
ACAD
1000
MTEXTBEGIN
1070
    73
1070
     1
1070
    44
1040
1.0
1070
    74
1070
     0
1000
MTEXTEND
1000
MTEXTBEGIN
1070
    73
1070
     1
1070
    44
1040
1.0
1070
    74
1070
     0
1000
MTEXTEND
1000
MTEXTBEGIN
1070
    73
1070
     1
1070
    44
1040
1.0
1070
    74
1070
     0
1000
MTEXTEND
  0
POINT
  5
10D65
  8
DEFPOINTS
 62
     0
 10
-160.681894
 20
66.832779
 30
0.0
  0
POINT
  5
10D66
  8
DEFPOINTS
 62
     0
 10
-130.681894
 20
57.832779
 30
0.0
  0
POINT
  5
10D67
  8
DEFPOINTS
 62
     0
 10
-130.681894
 20
10.832779
 30
0.0
  0
ENDBLK
  5
FFDA
  8
0
  0
BLOCK
  8
0
  2
*D8
 70
     1
 10
0.0
 20
0.0
 30
0.0
  3
*D8
  1

  0
LINE
  5
1036D
  8
COTATION1
 62
     0
 10
-174.090626
 20
116.592548
 30
0.0
 11
-164.590626
 21
116.592548
 31
0.0
1001
ACAD
1000
RTLwPs
1070
   158
  0
LINE
  5
1036E
  8
COTATION1
 62
     0
 10
-164.590626
 20
116.592548
 30
0.0
 11
-160.553251
 21
112.108928
 31
0.0
1001
ACAD
1000
RTLwPs
1070
   158
  0
TEXT
  5
1036F
  8
COTATION1
 62
     0
 10
-174.328721
 20
118.592548
 30
0.0
 40
2.5
  1
%%c4.2
1001
ACAD
1000
MTEXTBEGIN
1070
    73
1070
     1
1070
    44
1040
1.0
1070
    74
1070
     0
1000
MTEXTEND
1000
MTEXTBEGIN
1070
    73
1070
     1
1070
    44
1040
1.0
1070
    74
1070
     0
1000
MTEXTEND
1000
MTEXTBEGIN
1070
    73
1070
     1
1070
    44
1040
1.0
1070
    74
1070
     0
1000
MTEXTEND
1000
MTEXTBEGIN
1070
    73
1070
     1
1070
    44
1040
1.0
1070
    74
1070
     0
1000
MTEXTEND
1000
MTEXTBEGIN
1070
    73
1070
     1
1070
    44
1040
1.0
1070
    74
1070
     0
1000
MTEXTEND
1000
MTEXTBEGIN
1070
    73
1070
     1
1070
    44
1040
1.0
1070
    74
1070
     0
1000
MTEXTEND
  0
INSERT
  5
10370
  8
COTATION1
 62
     0
  2
_OPEN30
 10
-157.207458
 20
108.39333
 30
0.0
 41
5.0
 42
5.0
 43
5.0
 50
312.002156
1001
ACAD
1000
RTLwPs
1070
   158
  0
POINT
  5
10371
  8
DEFPOINTS
 62
     0
 10
-157.207458
 20
108.39333
 30
0.0
  0
POINT
  5
10372
  8
DEFPOINTS
 62
     0
 10
-154.396992
 20
105.272227
 30
0.0
  0
ENDBLK
  5
10363
  8
0
  0
BLOCK
  8
0
  2
*D9
 70
     1
 10
0.0
 20
0.0
 30
0.0
  3
*D9
  1

  0
LINE
  5
10379
  8
COTATION1
 62
     0
 10
-183.827086
 20
93.482114
 30
0.0
 11
-177.898515
 21
93.482114
 31
0.0
1001
ACAD
1000
RTLwPs
1070
   158
  0
LINE
  5
1037A
  8
COTATION1
 62
     0
 10
-177.898515
 20
93.482114
 30
0.0
 11
-163.505338
 21
102.178528
 31
0.0
1001
ACAD
1000
RTLwPs
1070
   158
  0
TEXT
  5
1037B
  8
COTATION1
 62
     0
 10
-184.065182
 20
95.482114
 30
0.0
 40
2.5
  1
%%c8
1001
ACAD
1000
MTEXTBEGIN
1070
    73
1070
     1
1070
    44
1040
1.0
1070
    74
1070
     0
1000
MTEXTEND
1000
MTEXTBEGIN
1070
    73
1070
     1
1070
    44
1040
1.0
1070
    74
1070
     0
1000
MTEXTEND
1000
MTEXTBEGIN
1070
    73
1070
     1
1070
    44
1040
1.0
1070
    74
1070
     0
1000
MTEXTEND
1000
MTEXTBEGIN
1070
    73
1070
     1
1070
    44
1040
1.0
1070
    74
1070
     0
1000
MTEXTEND
1000
MTEXTBEGIN
1070
    73
1070
     1
1070
    44
1040
1.0
1070
    74
1070
     0
1000
MTEXTEND
1000
MTEXTBEGIN
1070
    73
1070
     1
1070
    44
1040
1.0
1070
    74
1070
     0
1000
MTEXTEND
  0
INSERT
  5
1037C
  8
COTATION1
 62
     0
  2
_OPEN30
 10
-159.225831
 20
104.764223
 30
0.0
 41
5.0
 42
5.0
 43
5.0
 50
31.140535
1001
ACAD
1000
RTLwPs
1070
   158
  0
POINT
  5
1037D
  8
DEFPOINTS
 62
     0
 10
-159.225831
 20
104.764223
 30
0.0
  0
POINT
  5
1037E
  8
DEFPOINTS
 62
     0
 10
-152.378619
 20
108.901335
 30
0.0
  0
ENDBLK
  5
1036C
  8
0
  0
BLOCK
  8
0
  2
*D10
 70
     1
 10
0.0
 20
0.0
 30
0.0
  3
*D10
  1

  0
LINE
  5
103D3
  8
COTATION1
 62
     0
 10
-149.302225
 20
128.332779
 30
0.0
 11
-149.302225
 21
144.332779
 31
0.0
1001
ACAD
1000
RTLwPs
1070
   158
  0
LINE
  5
103D4
  8
COTATION1
 62
     0
 10
-142.302225
 20
128.332779
 30
0.0
 11
-142.302225
 21
144.332779
 31
0.0
1001
ACAD
1000
RTLwPs
1070
   158
  0
LINE
  5
103D5
  8
COTATION1
 62
     0
 10
-154.302225
 20
141.832779
 30
0.0
 11
-159.302225
 21
141.832779
 31
0.0
1001
ACAD
1000
RTLwPs
1070
   158
  0
LINE
  5
103D6
  8
COTATION1
 62
     0
 10
-137.302225
 20
141.832779
 30
0.0
 11
-132.302225
 21
141.832779
 31
0.0
1001
ACAD
1000
RTLwPs
1070
   158
  0
INSERT
  5
103D7
  8
COTATION1
 62
     0
  2
_OPEN30
 10
-149.302225
 20
141.832779
 30
0.0
 41
5.0
 42
5.0
 43
5.0
1001
ACAD
1000
RTLwPs
1070
   158
  0
INSERT
  5
103D8
  8
COTATION1
 62
     0
  2
_OPEN30
 10
-142.302225
 20
141.832779
 30
0.0
 41
5.0
 42
5.0
 43
5.0
 50
180.0
1001
ACAD
1000
RTLwPs
1070
   158
  0
TEXT
  5
103D9
  8
COTATION1
 62
     0
 10
-148.004606
 20
143.832779
 30
0.0
 40
2.5
  1
%%c
1001
ACAD
1000
MTEXTBEGIN
1070
    73
1070
     1
1070
    44
1040
1.0
1070
    74
1070
     0
1000
MTEXTEND
1000
MTEXTBEGIN
1070
    73
1070
     1
1070
    44
1040
1.0
1070
    74
1070
     0
1000
MTEXTEND
1000
MTEXTBEGIN
1070
    73
1070
     1
1070
    44
1040
1.0
1070
    74
1070
     0
1000
MTEXTEND
1000
MTEXTBEGIN
1070
    73
1070
     1
1070
    44
1040
1.0
1070
    74
1070
     0
1000
MTEXTEND
1000
MTEXTBEGIN
1070
    73
1070
     1
1070
    44
1040
1.0
1070
    74
1070
     0
1000
MTEXTEND
1000
MTEXTBEGIN
1070
    73
1070
     1
1070
    44
1040
1.0
1070
    74
1070
     0
1000
MTEXTEND
  0
TEXT
  5
10F12
  8
COTATION1
 62
     0
 10
-145.742701
 20
143.832779
 30
0.0
 40
2.5
  1
7
1001
ACAD
1000
R13OBJECT
1002
{
1005
103D9
1002
}
  0
POINT
  5
103DA
  8
DEFPOINTS
 62
     0
 10
-149.302225
 20
126.332779
 30
0.0
  0
POINT
  5
103DB
  8
DEFPOINTS
 62
     0
 10
-142.302225
 20
126.332779
 30
0.0
  0
POINT
  5
103DC
  8
DEFPOINTS
 62
     0
 10
-142.302225
 20
141.832779
 30
0.0
  0
ENDBLK
  5
103C6
  8
0
  0
BLOCK
  8
0
  2
*D11
 70
     1
 10
0.0
 20
0.0
 30
0.0
  3
*D11
  1

  0
LINE
  5
1041F
  8
COTATION1
 62
     0
 10
-147.802225
 20
126.832779
 30
0.0
 11
-184.539113
 21
126.832779
 31
0.0
1001
ACAD
1000
RTLwPs
1070
   158
  0
LINE
  5
10420
  8
COTATION1
 62
     0
 10
-164.302225
 20
106.832779
 30
0.0
 11
-184.539113
 21
106.832779
 31
0.0
1001
ACAD
1000
RTLwPs
1070
   158
  0
LINE
  5
10421
  8
COTATION1
 62
     0
 10
-182.039113
 20
121.832779
 30
0.0
 11
-182.039113
 21
120.082779
 31
0.0
1001
ACAD
1000
RTLwPs
1070
   158
  0
LINE
  5
10422
  8
COTATION1
 62
     0
 10
-182.039113
 20
111.832779
 30
0.0
 11
-182.039113
 21
113.582779
 31
0.0
1001
ACAD
1000
RTLwPs
1070
   158
  0
INSERT
  5
10423
  8
COTATION1
 62
     0
  2
_OPEN30
 10
-182.039113
 20
126.832779
 30
0.0
 41
5.0
 42
5.0
 43
5.0
 50
90.0
1001
ACAD
1000
RTLwPs
1070
   158
  0
INSERT
  5
10424
  8
COTATION1
 62
     0
  2
_OPEN30
 10
-182.039113
 20
106.832779
 30
0.0
 41
5.0
 42
5.0
 43
5.0
 50
270.0
1001
ACAD
1000
RTLwPs
1070
   158
  0
TEXT
  5
10425
  8
COTATION1
 62
     0
 10
-184.420065
 20
115.582779
 30
0.0
 40
2.5
  1
20
1001
ACAD
1000
MTEXTBEGIN
1070
    73
1070
     1
1070
    44
1040
1.0
1070
    74
1070
     0
1000
MTEXTEND
1000
MTEXTBEGIN
1070
    73
1070
     1
1070
    44
1040
1.0
1070
    74
1070
     0
1000
MTEXTEND
1000
MTEXTBEGIN
1070
    73
1070
     1
1070
    44
1040
1.0
1070
    74
1070
     0
1000
MTEXTEND
1000
MTEXTBEGIN
1070
    73
1070
     1
1070
    44
1040
1.0
1070
    74
1070
     0
1000
MTEXTEND
1000
MTEXTBEGIN
1070
    73
1070
     1
1070
    44
1040
1.0
1070
    74
1070
     0
1000
MTEXTEND
1000
MTEXTBEGIN
1070
    73
1070
     1
1070
    44
1040
1.0
1070
    74
1070
     0
1000
MTEXTEND
  0
POINT
  5
10426
  8
DEFPOINTS
 62
     0
 10
-145.802225
 20
126.832779
 30
0.0
  0
POINT
  5
10427
  8
DEFPOINTS
 62
     0
 10
-162.302225
 20
106.832779
 30
0.0
  0
POINT
  5
10428
  8
DEFPOINTS
 62
     0
 10
-182.039113
 20
106.832779
 30
0.0
  0
ENDBLK
  5
103F4
  8
0
  0
BLOCK
  8
0
  2
*D12
 70
     1
 10
0.0
 20
0.0
 30
0.0
  3
*D12
  1

  0
LINE
  5
10D4C
  8
COTATION1
 62
     0
 10
-143.681894
 20
43.832779
 30
0.0
 11
-143.681894
 21
28.332779
 31
0.0
1001
ACAD
1000
RTLwPs
1070
   158
  0
LINE
  5
10D4D
  8
COTATION1
 62
     0
 10
-131.681894
 20
43.832779
 30
0.0
 11
-131.681894
 21
28.332779
 31
0.0
1001
ACAD
1000
RTLwPs
1070
   158
  0
LINE
  5
10D4E
  8
COTATION1
 62
     0
 10
-148.681894
 20
30.832779
 30
0.0
 11
-153.681894
 21
30.832779
 31
0.0
1001
ACAD
1000
RTLwPs
1070
   158
  0
LINE
  5
10D4F
  8
COTATION1
 62
     0
 10
-126.681894
 20
30.832779
 30
0.0
 11
-110.663498
 21
30.832779
 31
0.0
1001
ACAD
1000
RTLwPs
1070
   158
  0
INSERT
  5
10D50
  8
COTATION1
 62
     0
  2
_OPEN30
 10
-143.681894
 20
30.832779
 30
0.0
 41
5.0
 42
5.0
 43
5.0
1001
ACAD
1000
RTLwPs
1070
   158
  0
INSERT
  5
10D51
  8
COTATION1
 62
     0
  2
_OPEN30
 10
-131.681894
 20
30.832779
 30
0.0
 41
5.0
 42
5.0
 43
5.0
 50
180.0
1001
ACAD
1000
RTLwPs
1070
   158
  0
TEXT
  5
10D52
  8
COTATION1
 62
     0
 10
-119.925402
 20
32.832779
 30
0.0
 40
2.5
  1
M12
1001
ACAD
1000
MTEXTBEGIN
1070
    73
1070
     1
1070
    44
1040
1.0
1070
    74
1070
     0
1000
MTEXTEND
1000
MTEXTBEGIN
1070
    73
1070
     1
1070
    44
1040
1.0
1070
    74
1070
     0
1000
MTEXTEND
1000
MTEXTBEGIN
1070
    73
1070
     1
1070
    44
1040
1.0
1070
    74
1070
     0
1000
MTEXTEND
  0
POINT
  5
10D53
  8
DEFPOINTS
 62
     0
 10
-143.681894
 20
45.832779
 30
0.0
  0
POINT
  5
10D54
  8
DEFPOINTS
 62
     0
 10
-131.681894
 20
45.832779
 30
0.0
  0
POINT
  5
10D55
  8
DEFPOINTS
 62
     0
 10
-131.681894
 20
30.832779
 30
0.0
  0
ENDBLK
  5
10CD9
  8
0
  0
BLOCK
  8
0
  2
*D13
 70
     1
 10
0.0
 20
0.0
 30
0.0
  3
*D13
  1

  0
LINE
  5
10DA3
  8
COTATION1
 62
     0
 10
-160.681894
 20
64.832779
 30
0.0
 11
-160.681894
 21
-1.667221
 31
0.0
1001
ACAD
1000
RTLwPs
1070
   158
  0
LINE
  5
10DA4
  8
COTATION1
 62
     0
 10
-108.681894
 20
67.56483
 30
0.0
 11
-108.681894
 21
-1.667221
 31
0.0
1001
ACAD
1000
RTLwPs
1070
   158
  0
LINE
  5
10DA5
  8
COTATION1
 62
     0
 10
-155.681894
 20
0.832779
 30
0.0
 11
-113.681894
 21
0.832779
 31
0.0
1001
ACAD
1000
RTLwPs
1070
   158
  0
INSERT
  5
10DA6
  8
COTATION1
 62
     0
  2
_OPEN30
 10
-160.681894
 20
0.832779
 30
0.0
 41
5.0
 42
5.0
 43
5.0
 50
180.0
1001
ACAD
1000
RTLwPs
1070
   158
  0
INSERT
  5
10DA7
  8
COTATION1
 62
     0
  2
_OPEN30
 10
-108.681894
 20
0.832779
 30
0.0
 41
5.0
 42
5.0
 43
5.0
1001
ACAD
1000
RTLwPs
1070
   158
  0
TEXT
  5
10DA8
  8
COTATION1
 62
     0
 10
-137.062846
 20
2.832779
 30
0.0
 40
2.5
  1
52
1001
ACAD
1000
MTEXTBEGIN
1070
    73
1070
     1
1070
    44
1040
1.0
1070
    74
1070
     0
1000
MTEXTEND
1000
MTEXTBEGIN
1070
    73
1070
     1
1070
    44
1040
1.0
1070
    74
1070
     0
1000
MTEXTEND
1000
MTEXTBEGIN
1070
    73
1070
     1
1070
    44
1040
1.0
1070
    74
1070
     0
1000
MTEXTEND
  0
POINT
  5
10DA9
  8
DEFPOINTS
 62
     0
 10
-160.681894
 20
66.832779
 30
0.0
  0
POINT
  5
10DAA
  8
DEFPOINTS
 62
     0
 10
-108.681894
 20
69.56483
 30
0.0
  0
POINT
  5
10DAB
  8
DEFPOINTS
 62
     0
 10
-108.681894
 20
0.832779
 30
0.0
  0
ENDBLK
  5
10D90
  8
0
  0
BLOCK
  8
0
  2
*D14
 70
     1
 10
0.0
 20
0.0
 30
0.0
  3
*D14
  1

  0
LINE
  5
10EBD
  8
COTATION1
 62
     0
 10
-143.802225
 20
116.832779
 30
0.0
 11
-88.181894
 21
116.832779
 31
0.0
1001
ACAD
1000
RTLwPs
1070
   158
  0
LINE
  5
10EBE
  8
COTATION1
 62
     0
 10
-109.681894
 20
66.832779
 30
0.0
 11
-88.181894
 21
66.832779
 31
0.0
1001
ACAD
1000
RTLwPs
1070
   158
  0
LINE
  5
10EBF
  8
COTATION1
 62
     0
 10
-90.681894
 20
111.832779
 30
0.0
 11
-90.681894
 21
95.082779
 31
0.0
1001
ACAD
1000
RTLwPs
1070
   158
  0
LINE
  5
10EC0
  8
COTATION1
 62
     0
 10
-90.681894
 20
71.832779
 30
0.0
 11
-90.681894
 21
88.582779
 31
0.0
1001
ACAD
1000
RTLwPs
1070
   158
  0
INSERT
  5
10EC1
  8
COTATION1
 62
     0
  2
_OPEN30
 10
-90.681894
 20
116.832779
 30
0.0
 41
5.0
 42
5.0
 43
5.0
 50
90.0
1001
ACAD
1000
RTLwPs
1070
   158
  0
INSERT
  5
10EC2
  8
COTATION1
 62
     0
  2
_OPEN30
 10
-90.681894
 20
66.832779
 30
0.0
 41
5.0
 42
5.0
 43
5.0
 50
270.0
1001
ACAD
1000
RTLwPs
1070
   158
  0
TEXT
  5
10EC3
  8
COTATION1
 62
     0
 10
-93.062846
 20
90.582779
 30
0.0
 40
2.5
  1
50
1001
ACAD
1000
MTEXTBEGIN
1070
    73
1070
     1
1070
    44
1040
1.0
1070
    74
1070
     0
1000
MTEXTEND
  0
POINT
  5
10EC4
  8
DEFPOINTS
 62
     0
 10
-145.802225
 20
116.832779
 30
0.0
  0
POINT
  5
10EC5
  8
DEFPOINTS
 62
     0
 10
-111.681894
 20
66.832779
 30
0.0
  0
POINT
  5
10EC6
  8
DEFPOINTS
 62
     0
 10
-90.681894
 20
66.832779
 30
0.0
  0
ENDBLK
  5
10EB2
  8
0
  0
ENDSEC
  0
SECTION
  2
ENTITIES
  0
INSERT
  5
A
  8
0
  2
COTE
 10
0.0
 20
0.0
 30
0.0
  0
INSERT
  5
17
  8
0
  2
COTE
 10
284.010391
 20
6.373258
 30
0.0
  0
INSERT
  5
72
  8
0
  2
FOND
 10
0.0
 20
0.0
 30
0.0
  0
DIMENSION
  5
FF3F
  8
COTATION1
  2
*D3
 10
-70.681894
 20
44.832779
 30
0.0
 11
-70.681894
 21
85.832779
 31
0.0
 13
-145.802225
 23
126.832779
 33
0.0
 14
-133.413945
 24
44.832779
 34
0.0
 50
90.0
  0
LINE
  5
FF41
  8
AXE
 10
-145.802225
 20
131.832779
 30
0.0
 11
-145.802225
 21
40.832779
 31
0.0
  0
DIMENSION
  5
FF42
  8
COTATION1
  2
*D4
 10
-80.681894
 20
66.832779
 30
0.0
 11
-80.681894
 21
96.832779
 31
0.0
 13
-145.802225
 23
126.832779
 33
0.0
 14
-121.681894
 24
66.832779
 34
0.0
 50
90.0
  0
DIMENSION
  5
FF43
  8
COTATION1
  2
*D5
 10
-100.681894
 20
66.832779
 30
0.0
 11
-100.681894
 21
86.832779
 31
0.0
 13
-129.302225
 23
106.832779
 33
0.0
 14
-121.681894
 24
66.832779
 34
0.0
 50
90.0
  0
LINE
  5
FF44
  8
AXE
 10
-165.681894
 20
91.832779
 30
0.0
 11
-118.181894
 21
91.832779
 31
0.0
  0
DIMENSION
  5
FF48
  8
COTATION1
  2
*D6
 10
-135.802225
 20
20.832779
 30
0.0
 11
-145.802225
 21
24.082779
 31
0.0
 13
-155.802225
 23
100.332779
 33
0.0
 14
-135.802225
 24
100.332779
 34
0.0
  0
LINE
  5
FF49
  8
ALPHA
 10
-130.681894
 20
57.832779
 30
0.0
 11
-130.681894
 21
114.832779
 31
0.0
  0
LINE
  5
FF4A
  8
ALPHA
 10
-160.681894
 20
66.832779
 30
0.0
 11
-160.681894
 21
114.832779
 31
0.0
  0
DIMENSION
  5
FF4B
  8
COTATION1
  2
*D7
 10
-130.681894
 20
10.832779
 30
0.0
 11
-145.681894
 21
14.082779
 31
0.0
 13
-160.681894
 23
66.832779
 33
0.0
 14
-130.681894
 24
57.832779
 34
0.0
  0
LINE
  5
FF4E
  8
ALPHA
 10
-160.681894
 20
66.832779
 30
0.0
 11
-130.681894
 21
66.832779
 31
0.0
  0
TEXT
  5
FF4F
  8
AXE
 10
-153.278415
 20
40.832779
 30
0.0
 40
8.0
  1
Y
 72
     2
 11
-146.802225
 21
40.832779
 31
0.0
  0
LINE
  5
FF56
  8
ALPHA
 10
-153.052225
 20
118.332779
 30
0.0
 11
-145.802225
 21
118.332779
 31
0.0
  0
LINE
  5
FF57
  8
ALPHA
 10
-153.552225
 20
117.832779
 30
0.0
 11
-145.802225
 21
117.832779
 31
0.0
  0
ARC
  5
FF58
  8
ALPHA
 10
-145.681894
 20
59.586399
 30
0.0
 40
57.246507
 50
74.809764
 51
105.190236
  0
LINE
  5
FF68
  8
ALPHA
 10
-153.552225
 20
117.832779
 30
0.0
 11
-153.552225
 21
116.278882
 31
0.0
  0
LINE
  5
FF69
  8
ALPHA
 10
-153.552225
 20
117.832779
 30
0.0
 11
-153.052225
 21
118.332779
 31
0.0
  0
LINE
  5
FF6D
  8
ALPHA
 10
-138.052225
 20
117.832779
 30
0.0
 11
-138.552225
 21
118.332779
 31
0.0
  0
LINE
  5
FF6E
  8
ALPHA
 10
-138.052225
 20
117.832779
 30
0.0
 11
-138.052225
 21
116.278882
 31
0.0
  0
LINE
  5
FF6F
  8
ALPHA
 10
-138.052225
 20
117.832779
 30
0.0
 11
-145.802225
 21
117.832779
 31
0.0
  0
LINE
  5
FF70
  8
ALPHA
 10
-138.552225
 20
118.332779
 30
0.0
 11
-145.802225
 21
118.332779
 31
0.0
  0
TEXT
  5
FF7C
  8
AXE
 10
-124.658084
 20
92.832779
 30
0.0
 40
8.0
  1
X
 72
     2
 11
-118.181894
 21
92.832779
 31
0.0
  0
DIMENSION
  5
10351
  8
COTATION1
  2
*D8
 10
-154.396992
 20
105.272227
 30
0.0
 11
-170.340626
 21
116.592548
 31
0.0
 70
   131
 15
-157.207458
 25
108.39333
 35
0.0
 40
0.0
  0
CIRCLE
  5
10352
  8
ALPHA
 10
-155.802225
 20
106.832779
 30
0.0
 40
4.0
  0
CIRCLE
  5
10353
  8
ALPHA
 10
-155.802225
 20
106.832779
 30
0.0
 40
2.1
  0
LINE
  5
10354
  8
AXE
 10
-162.302225
 20
106.832779
 30
0.0
 11
-149.302225
 21
106.832779
 31
0.0
  0
CIRCLE
  5
10355
  8
ALPHA
 10
-135.802225
 20
106.832779
 30
0.0
 40
4.0
  0
CIRCLE
  5
10356
  8
ALPHA
 10
-135.802225
 20
106.832779
 30
0.0
 40
2.1
  0
LINE
  5
10357
  8
AXE
 10
-135.802225
 20
100.332779
 30
0.0
 11
-135.802225
 21
113.332779
 31
0.0
  0
LINE
  5
10358
  8
AXE
 10
-129.302225
 20
106.832779
 30
0.0
 11
-142.302225
 21
106.832779
 31
0.0
  0
LINE
  5
10359
  8
AXE
 10
-155.802225
 20
100.332779
 30
0.0
 11
-155.802225
 21
113.332779
 31
0.0
  0
DIMENSION
  5
1035A
  8
COTATION1
  2
*D9
 10
-152.378619
 20
108.901335
 30
0.0
 11
-181.862801
 21
93.482114
 31
0.0
 70
   131
 15
-159.225831
 25
104.764223
 35
0.0
 40
0.0
  0
LINE
  5
103B0
  8
ALPHA
 10
-149.302225
 20
126.332779
 30
0.0
 11
-149.302225
 21
120.332779
 31
0.0
  0
LINE
  5
103B1
  8
ALPHA
 10
-142.302225
 20
126.332779
 30
0.0
 11
-142.302225
 21
120.332779
 31
0.0
  0
LINE
  5
103B2
  8
ALPHA
 10
-150.802225
 20
120.332779
 30
0.0
 11
-145.802225
 21
120.332779
 31
0.0
  0
LINE
  5
103B3
  8
ALPHA
 10
-150.802225
 20
120.332779
 30
0.0
 11
-151.73484
 21
118.332779
 31
0.0
  0
LINE
  5
103B4
  8
ALPHA
 10
-140.802225
 20
120.332779
 30
0.0
 11
-145.802225
 21
120.332779
 31
0.0
  0
LINE
  5
103B5
  8
ALPHA
 10
-140.802225
 20
120.332779
 30
0.0
 11
-139.86961
 21
118.332779
 31
0.0
  0
ARC
  5
103B6
  8
ALPHA
 10
-145.802225
 20
114.332779
 30
0.0
 40
12.5
 50
73.739795
 51
106.260205
  0
LINE
  5
103B7
  8
ALPHA
 10
-145.802225
 20
126.332779
 30
0.0
 11
-149.302225
 21
126.332779
 31
0.0
  0
LINE
  5
103B8
  8
ALPHA
 10
-145.802225
 20
126.332779
 30
0.0
 11
-142.302225
 21
126.332779
 31
0.0
  0
DIMENSION
  5
103B9
  8
COTATION1
  2
*D10
 10
-142.302225
 20
141.832779
 30
0.0
 11
-145.802225
 21
141.832779
 31
0.0
 70
   128
  1
%%c<>
 13
-149.302225
 23
126.332779
 33
0.0
 14
-142.302225
 24
126.332779
 34
0.0
  0
DIMENSION
  5
103E7
  8
COTATION1
  2
*D11
 10
-182.039113
 20
106.832779
 30
0.0
 11
-182.039113
 21
116.832779
 31
0.0
 70
   128
 13
-145.802225
 23
126.832779
 33
0.0
 14
-162.302225
 24
106.832779
 34
0.0
 50
90.0
  0
POLYLINE
  5
10602
  8
ALPHA
 66
     1
 10
0.0
 20
0.0
 30
0.0
 70
   128
210
0.0
220
0.0
230
-1.0
  0
VERTEX
  5
10F53
  8
ALPHA
 10
142.356379
 20
111.949789
 30
0.0
  0
VERTEX
  5
10F54
  8
ALPHA
 10
142.945887
 20
109.586374
 30
0.0
  0
VERTEX
  5
10F55
  8
ALPHA
 10
143.720196
 20
107.017873
 30
0.0
  0
VERTEX
  5
10F56
  8
ALPHA
 10
144.175216
 20
105.878918
 30
0.0
  0
VERTEX
  5
10F57
  8
ALPHA
 10
144.674715
 20
104.955335
 30
0.0
  0
VERTEX
  5
10F58
  8
ALPHA
 10
145.218117
 20
104.336006
 30
0.0
  0
VERTEX
  5
10F59
  8
ALPHA
 10
145.80485
 20
104.109812
 30
0.0
  0
VERTEX
  5
10F5A
  8
ALPHA
 10
146.391581
 20
104.336006
 30
0.0
  0
VERTEX
  5
10F5B
  8
ALPHA
 10
146.934976
 20
104.955335
 30
0.0
  0
VERTEX
  5
10F5C
  8
ALPHA
 10
147.434452
 20
105.878918
 30
0.0
  0
VERTEX
  5
10F5D
  8
ALPHA
 10
147.88943
 20
107.017873
 30
0.0
  0
VERTEX
  5
10F5E
  8
ALPHA
 10
148.663567
 20
109.586374
 30
0.0
  0
VERTEX
  5
10F5F
  8
ALPHA
 10
149.252737
 20
111.949789
 30
0.0
  0
SEQEND
  5
10F60
  8
ALPHA
  0
LINE
  5
10603
  8
ALPHA
 10
-136.444467
 20
114.116382
 30
0.0
 11
-155.164065
 21
114.116382
 31
0.0
  0
LINE
  5
10604
  8
ALPHA
 10
-155.164065
 20
111.94979
 30
0.0
 11
-146.29649
 21
111.94979
 31
0.0
  0
LINE
  5
10605
  8
ALPHA
 10
-155.164065
 20
114.116382
 30
0.0
 11
-155.164065
 21
111.94979
 31
0.0
  0
LINE
  5
10606
  8
ALPHA
 10
-145.31146
 20
111.94979
 30
0.0
 11
-136.444467
 21
111.94979
 31
0.0
  0
LINE
  5
10607
  8
ALPHA
 10
-146.29649
 20
111.94979
 30
0.0
 11
-146.29649
 21
112.934817
 31
0.0
  0
LINE
  5
10608
  8
ALPHA
 10
-146.29649
 20
112.934817
 30
0.0
 11
-145.31146
 21
112.934817
 31
0.0
  0
LINE
  5
10609
  8
ALPHA
 10
-145.31146
 20
112.934817
 30
0.0
 11
-145.31146
 21
111.94979
 31
0.0
  0
LINE
  5
1060A
  8
ALPHA
 10
-136.444467
 20
111.94979
 30
0.0
 11
-136.444467
 21
114.116382
 31
0.0
  0
LINE
  5
10C0B
  8
ALPHA
 10
-160.681894
 20
68.832779
 30
0.0
 11
-142.681894
 21
68.832779
 31
0.0
  0
LINE
  5
10C10
  8
ALPHA
 10
-144.681894
 20
66.832779
 30
0.0
 11
-144.681894
 21
57.832779
 31
0.0
  0
LINE
  5
10C12
  8
ALPHA_FIN
 10
-132.755403
 20
56.832779
 30
0.0
 11
-132.755403
 21
45.212988
 31
0.0
  0
LINE
  5
10C13
  8
ALPHA
 10
-131.681894
 20
45.832779
 30
0.0
 11
-131.681894
 21
56.832779
 31
0.0
  0
LINE
  5
10C14
  8
ALPHA_FIN
 10
-142.608385
 20
56.832779
 30
0.0
 11
-142.608385
 21
45.212988
 31
0.0
  0
LINE
  5
10C15
  8
ALPHA
 10
-143.681894
 20
45.832779
 30
0.0
 11
-143.681894
 21
56.832779
 31
0.0
  0
LINE
  5
10C16
  8
ALPHA
 10
-137.681894
 20
44.832779
 30
0.0
 11
-141.949843
 21
44.832779
 31
0.0
  0
LINE
  5
10C17
  8
ALPHA
 10
-137.681894
 20
45.832779
 30
0.0
 11
-143.681894
 21
45.832779
 31
0.0
  0
LINE
  5
10C18
  8
ALPHA
 10
-143.681894
 20
45.832779
 30
0.0
 11
-141.949843
 21
44.832779
 31
0.0
  0
LINE
  5
10C19
  8
ALPHA
 10
-131.681894
 20
45.832779
 30
0.0
 11
-133.413945
 21
44.832779
 31
0.0
  0
LINE
  5
10C1A
  8
ALPHA
 10
-137.681894
 20
44.832779
 30
0.0
 11
-133.413945
 21
44.832779
 31
0.0
  0
LINE
  5
10C1B
  8
ALPHA
 10
-137.681894
 20
45.832779
 30
0.0
 11
-131.681894
 21
45.832779
 31
0.0
  0
LINE
  5
10C1C
  8
ALPHA
 10
-144.681894
 20
57.832779
 30
0.0
 11
-137.681894
 21
57.832779
 31
0.0
  0
LINE
  5
10C1D
  8
ALPHA
 10
-143.681894
 20
56.832779
 30
0.0
 11
-137.681894
 21
56.832779
 31
0.0
  0
LINE
  5
10C1E
  8
ALPHA
 10
-143.681894
 20
56.832779
 30
0.0
 11
-144.681894
 21
57.832779
 31
0.0
  0
LINE
  5
10C1F
  8
ALPHA
 10
-131.681894
 20
56.832779
 30
0.0
 11
-130.681894
 21
57.832779
 31
0.0
  0
LINE
  5
10C20
  8
ALPHA
 10
-130.681894
 20
57.832779
 30
0.0
 11
-137.681894
 21
57.832779
 31
0.0
  0
LINE
  5
10C21
  8
ALPHA
 10
-131.681894
 20
56.832779
 30
0.0
 11
-137.681894
 21
56.832779
 31
0.0
  0
LINE
  5
10C64
  8
POINTILLE_COURT
 10
-121.681894
 20
80.832779
 30
0.0
 11
-130.681894
 21
80.832779
 31
0.0
  0
LINE
  5
10C65
  8
POINTILLE_COURT
 10
-109.681894
 20
67.832779
 30
0.0
 11
-120.681894
 21
67.832779
 31
0.0
  0
LINE
  5
10C66
  8
POINTILLE_COURT
 10
-120.681894
 20
68.906288
 30
0.0
 11
-109.062103
 21
68.906288
 31
0.0
  0
LINE
  5
10C67
  8
POINTILLE_COURT
 10
-109.681894
 20
79.832779
 30
0.0
 11
-120.681894
 21
79.832779
 31
0.0
  0
LINE
  5
10C68
  8
POINTILLE_COURT
 10
-120.681894
 20
78.75927
 30
0.0
 11
-109.062103
 21
78.75927
 31
0.0
  0
LINE
  5
10C69
  8
POINTILLE_COURT
 10
-109.681894
 20
73.832779
 30
0.0
 11
-109.681894
 21
79.832779
 31
0.0
  0
LINE
  5
10C6A
  8
POINTILLE_COURT
 10
-108.681894
 20
73.832779
 30
0.0
 11
-108.681894
 21
78.100728
 31
0.0
  0
LINE
  5
10C6B
  8
POINTILLE_COURT
 10
-109.681894
 20
67.832779
 30
0.0
 11
-108.681894
 21
69.56483
 31
0.0
  0
LINE
  5
10C6C
  8
POINTILLE_COURT
 10
-109.681894
 20
73.832779
 30
0.0
 11
-109.681894
 21
67.832779
 31
0.0
  0
LINE
  5
10C6D
  8
POINTILLE_COURT
 10
-108.681894
 20
73.832779
 30
0.0
 11
-108.681894
 21
69.56483
 31
0.0
  0
LINE
  5
10C6E
  8
POINTILLE_COURT
 10
-109.681894
 20
79.832779
 30
0.0
 11
-108.681894
 21
78.100728
 31
0.0
  0
LINE
  5
10C6F
  8
POINTILLE_COURT
 10
-120.681894
 20
79.832779
 30
0.0
 11
-120.681894
 21
73.832779
 31
0.0
  0
LINE
  5
10C70
  8
POINTILLE_COURT
 10
-121.681894
 20
80.832779
 30
0.0
 11
-121.681894
 21
73.832779
 31
0.0
  0
LINE
  5
10C71
  8
POINTILLE_COURT
 10
-130.681894
 20
66.832779
 30
0.0
 11
-121.681894
 21
66.832779
 31
0.0
  0
LINE
  5
10C72
  8
POINTILLE_COURT
 10
-120.681894
 20
67.832779
 30
0.0
 11
-121.681894
 21
66.832779
 31
0.0
  0
LINE
  5
10C73
  8
POINTILLE_COURT
 10
-121.681894
 20
66.832779
 30
0.0
 11
-121.681894
 21
73.832779
 31
0.0
  0
LINE
  5
10C74
  8
POINTILLE_COURT
 10
-120.681894
 20
67.832779
 30
0.0
 11
-120.681894
 21
73.832779
 31
0.0
  0
LINE
  5
10C75
  8
POINTILLE_COURT
 10
-120.681894
 20
79.832779
 30
0.0
 11
-121.681894
 21
80.832779
 31
0.0
  0
LINE
  5
10C76
  8
ALPHA
 10
-130.681894
 20
80.832779
 30
0.0
 11
-144.681894
 21
66.832779
 31
0.0
  0
DIMENSION
  5
10CCC
  8
COTATION1
  2
*D12
 10
-131.681894
 20
30.832779
 30
0.0
 11
-116.056355
 21
30.832779
 31
0.0
 70
   128
  1
M<>
 13
-143.681894
 23
45.832779
 33
0.0
 14
-131.681894
 24
45.832779
 34
0.0
  0
DIMENSION
  5
10D84
  8
COTATION1
  2
*D13
 10
-108.681894
 20
0.832779
 30
0.0
 11
-134.681894
 21
4.082779
 31
0.0
 13
-160.681894
 23
66.832779
 33
0.0
 14
-108.681894
 24
69.56483
 34
0.0
  0
DIMENSION
  5
10EA5
  8
COTATION1
  2
*D14
 10
-90.681894
 20
66.832779
 30
0.0
 11
-90.681894
 21
91.832779
 31
0.0
 13
-145.802225
 23
116.832779
 33
0.0
 14
-111.681894
 24
66.832779
 34
0.0
 50
90.0
  0
VIEWPORT
  5
494D
 67
     1
  8
0
 10
4.995325
 20
6.556512
 30
0.0
 40
22.70986
 41
13.988421
 68
    -1
 69
     1
1001
ACAD
1000
MVIEW
1002
{
1070
    16
1010
0.0
1020
0.0
1030
0.0
1010
0.0
1020
0.0
1030
1.0
1040
0.0
1040
13.988421
1040
4.995325
1040
6.556512
1040
50.0
1040
0.0
1040
0.0
1070
     0
1070
   100
1070
     1
1070
     1
1070
     0
1070
     0
1070
     0
1070
     0
1040
0.0
1040
0.0
1040
0.0
1040
10.0
1040
10.0
1040
10.0
1040
10.0
1070
     0
1002
{
1002
}
1002
}
  0
ENDSEC
  0
EOF
