  0
SECTION
  2
HEADER
  9
$ACADVER
  1
AC1009
  9
$INSBASE
 10
402.590624
 20
-1.041018
 30
0.0
  9
$EXTMIN
 10
53.180311
 20
3.130355
 30
0.0
  9
$EXTMAX
 10
125.687342
 20
117.656322
 30
0.0
  9
$LIMMIN
 10
-407.970438
 20
-367.832444
  9
$LIMMAX
 10
429.804077
 20
234.370848
  9
$ORTHOMODE
 70
     1
  9
$REGENMODE
 70
     1
  9
$FILLMODE
 70
     1
  9
$QTEXTMODE
 70
     0
  9
$MIRRTEXT
 70
     1
  9
$DRAGMODE
 70
     2
  9
$LTSCALE
 40
10.0
  9
$OSMODE
 70
    35
  9
$ATTMODE
 70
     1
  9
$TEXTSIZE
 40
6.0
  9
$TRACEWID
 40
1.0
  9
$TEXTSTYLE
  7
ROMANS
  9
$CLAYER
  8
COTATION1
  9
$CELTYPE
  6
BYLAYER
  9
$CECOLOR
 62
   256
  9
$DIMSCALE
 40
1.0
  9
$DIMASZ
 40
5.0
  9
$DIMEXO
 40
2.0
  9
$DIMDLI
 40
0.38
  9
$DIMRND
 40
0.0
  9
$DIMDLE
 40
0.0
  9
$DIMEXE
 40
2.5
  9
$DIMTP
 40
0.0
  9
$DIMTM
 40
0.0
  9
$DIMTXT
 40
2.5
  9
$DIMCEN
 40
0.0
  9
$DIMTSZ
 40
0.0
  9
$DIMTOL
 70
     0
  9
$DIMLIM
 70
     0
  9
$DIMTIH
 70
     1
  9
$DIMTOH
 70
     1
  9
$DIMSE1
 70
     0
  9
$DIMSE2
 70
     0
  9
$DIMTAD
 70
     1
  9
$DIMZIN
 70
    12
  9
$DIMBLK
  1
OPEN30
  9
$DIMASO
 70
     1
  9
$DIMSHO
 70
     1
  9
$DIMPOST
  1

  9
$DIMAPOST
  1

  9
$DIMALT
 70
     0
  9
$DIMALTD
 70
     2
  9
$DIMALTF
 40
25.4
  9
$DIMLFAC
 40
1.0
  9
$DIMTOFL
 70
     0
  9
$DIMTVP
 40
0.0
  9
$DIMTIX
 70
     0
  9
$DIMSOXD
 70
     0
  9
$DIMSAH
 70
     0
  9
$DIMBLK1
  1

  9
$DIMBLK2
  1

  9
$DIMSTYLE
  2
SC_DEFAUT
  9
$DIMCLRD
 70
     0
  9
$DIMCLRE
 70
     0
  9
$DIMCLRT
 70
     0
  9
$DIMTFAC
 40
1.0
  9
$DIMGAP
 40
2.0
  9
$LUNITS
 70
     2
  9
$LUPREC
 70
     1
  9
$SKETCHINC
 40
0.1
  9
$FILLETRAD
 40
0.0
  9
$AUNITS
 70
     0
  9
$AUPREC
 70
     0
  9
$MENU
  1
acad
  9
$ELEVATION
 40
0.0
  9
$PELEVATION
 40
0.0
  9
$THICKNESS
 40
0.0
  9
$LIMCHECK
 70
     0
  9
$BLIPMODE
 70
     0
  9
$CHAMFERA
 40
0.0
  9
$CHAMFERB
 40
0.0
  9
$SKPOLY
 70
     0
  9
$TDCREATE
 40
2450373.687919
  9
$TDUPDATE
 40
2453041.69394
  9
$TDINDWG
 40
1.122829
  9
$TDUSRTIMER
 40
1.122829
  9
$USRTIMER
 70
     1
  9
$ANGBASE
 50
0.0
  9
$ANGDIR
 70
     0
  9
$PDMODE
 70
    32
  9
$PDSIZE
 40
0.0
  9
$PLINEWID
 40
0.0
  9
$COORDS
 70
     1
  9
$SPLFRAME
 70
     0
  9
$SPLINETYPE
 70
     6
  9
$SPLINESEGS
 70
     8
  9
$ATTDIA
 70
     0
  9
$ATTREQ
 70
     1
  9
$HANDLING
 70
     1
  9
$HANDSEED
  5
BF6F
  9
$SURFTAB1
 70
     6
  9
$SURFTAB2
 70
     6
  9
$SURFTYPE
 70
     6
  9
$SURFU
 70
     6
  9
$SURFV
 70
     6
  9
$UCSNAME
  2

  9
$UCSORG
 10
0.0
 20
0.0
 30
0.0
  9
$UCSXDIR
 10
1.0
 20
0.0
 30
0.0
  9
$UCSYDIR
 10
0.0
 20
1.0
 30
0.0
  9
$PUCSNAME
  2

  9
$PUCSORG
 10
0.0
 20
0.0
 30
0.0
  9
$PUCSXDIR
 10
1.0
 20
0.0
 30
0.0
  9
$PUCSYDIR
 10
0.0
 20
1.0
 30
0.0
  9
$USERI1
 70
     0
  9
$USERI2
 70
     0
  9
$USERI3
 70
     0
  9
$USERI4
 70
     0
  9
$USERI5
 70
     0
  9
$USERR1
 40
0.0
  9
$USERR2
 40
0.0
  9
$USERR3
 40
0.0
  9
$USERR4
 40
0.0
  9
$USERR5
 40
0.0
  9
$WORLDVIEW
 70
     1
  9
$SHADEDGE
 70
     3
  9
$SHADEDIF
 70
    70
  9
$TILEMODE
 70
     1
  9
$MAXACTVP
 70
    16
  9
$PLIMCHECK
 70
     0
  9
$PEXTMIN
 10
-1.452248
 20
-0.437698
 30
0.0
  9
$PEXTMAX
 10
12.749749
 20
8.310198
 30
0.0
  9
$PLIMMIN
 10
0.0
 20
0.0
  9
$PLIMMAX
 10
12.0
 20
9.0
  9
$UNITMODE
 70
     0
  9
$VISRETAIN
 70
     0
  9
$PLINEGEN
 70
     0
  9
$PSLTSCALE
 70
     0
  0
ENDSEC
  0
SECTION
  2
TABLES
  0
TABLE
  2
VPORT
 70
     2
  0
VPORT
  2
*ACTIVE
 70
     0
 10
0.0
 20
0.0
 11
1.0
 21
1.0
 12
89.439007
 22
60.397538
 13
0.0
 23
0.0
 14
1.0
 24
1.0
 15
10.0
 25
10.0
 16
0.0
 26
0.0
 36
1.0
 17
0.0
 27
0.0
 37
0.0
 40
115.410841
 41
1.466346
 42
50.0
 43
0.0
 44
0.0
 50
0.0
 51
0.0
 71
     0
 72
   100
 73
     1
 74
     0
 75
     0
 76
     0
 77
     0
 78
     0
  0
ENDTAB
  0
TABLE
  2
LTYPE
 70
     2
  0
LTYPE
  2
CONTINUOUS
 70
     0
  3
Solid line
 72
    65
 73
     0
 40
0.0
  0
LTYPE
  2
AXES2
 70
     0
  3
___ _ ___ _ ___ _ ___ _ ___ _ ___ _ ___ _ ___ _
 72
    65
 73
     4
 40
1.125
 49
0.75
 49
-0.125
 49
0.125
 49
-0.125
  0
ENDTAB
  0
TABLE
  2
LAYER
 70
     5
  0
LAYER
  2
0
 70
     0
 62
   255
  6
CONTINUOUS
  0
LAYER
  2
COTATION1
 70
     0
 62
     2
  6
CONTINUOUS
  0
LAYER
  2
AXE
 70
     0
 62
    80
  6
AXES2
  0
LAYER
  2
DEFPOINTS
 70
     0
 62
     7
  6
CONTINUOUS
  0
LAYER
  2
ALPHA
 70
     0
 62
   254
  6
CONTINUOUS
  0
ENDTAB
  0
TABLE
  2
STYLE
 70
     2
  0
STYLE
  2
ROMANS
 70
     0
 40
0.0
 41
1.0
 50
0.0
 71
     0
 42
6.0
  3
romans
  4

  0
STYLE
  2
STANDARD
 70
     0
 40
0.0
 41
1.0
 50
0.0
 71
     0
 42
0.2
  3
txt
  4

  0
ENDTAB
  0
TABLE
  2
VIEW
 70
     0
  0
ENDTAB
  0
TABLE
  2
UCS
 70
     0
  0
ENDTAB
  0
TABLE
  2
APPID
 70
     1
  0
APPID
  2
ACAD
 70
     0
  0
ENDTAB
  0
TABLE
  2
DIMSTYLE
 70
     2
  0
DIMSTYLE
  2
SC_DEFAUT
 70
     0
  3

  4

  5
OPEN30
  6

  7

 40
1.0
 41
5.0
 42
2.0
 43
0.38
 44
2.5
 45
0.0
 46
0.0
 47
0.0
 48
0.0
140
2.5
141
0.0
142
0.0
143
25.4
144
1.0
145
0.0
146
1.0
147
2.0
 71
     0
 72
     0
 73
     1
 74
     1
 75
     0
 76
     0
 77
     1
 78
    12
170
     0
171
     2
172
     0
173
     0
174
     0
175
     0
176
     0
177
     0
178
     0
  0
DIMSTYLE
  2
STANDARD
 70
     0
  3

  4

  5

  6

  7

 40
1.0
 41
0.18
 42
0.0625
 43
0.38
 44
0.18
 45
0.0
 46
0.0
 47
0.0
 48
0.0
140
0.18
141
0.09
142
0.0
143
25.4
144
1.0
145
0.0
146
1.0
147
0.09
 71
     0
 72
     0
 73
     1
 74
     1
 75
     0
 76
     0
 77
     0
 78
     0
170
     0
171
     2
172
     0
173
     0
174
     0
175
     0
176
     0
177
     0
178
     0
  0
ENDTAB
  0
ENDSEC
  0
SECTION
  2
BLOCKS
  0
BLOCK
  8
0
  2
$MODEL_SPACE
 70
     0
 10
0.0
 20
0.0
 30
0.0
  3
$MODEL_SPACE
  1

  0
ENDBLK
  5
BD9D
  8
0
  0
BLOCK
 67
     1
  8
0
  2
$PAPER_SPACE
 70
     0
 10
0.0
 20
0.0
 30
0.0
  3
$PAPER_SPACE
  1

  0
ENDBLK
  5
BD9B
 67
     1
  8
0
  0
BLOCK
  8
0
  2
COTE
 70
     0
 10
0.0
 20
0.0
 30
0.0
  3
COTE
  1

  0
ENDBLK
  5
F
  8
0
  0
BLOCK
  8
0
  2
FOND
 70
     0
 10
0.0
 20
0.0
 30
0.0
  3
FOND
  1

  0
ENDBLK
  5
75
  8
0
  0
BLOCK
  8
0
  2
_OPEN30
 70
     0
 10
0.0
 20
0.0
 30
0.0
  3
_OPEN30
  1

  0
LINE
  5
4B05
  8
COTATION1
 62
     0
 10
-1.0
 20
0.267949
 30
0.0
 11
0.0
 21
0.0
 31
0.0
1001
ACAD
1000
RTLwPs
1070
   158
  0
LINE
  5
4B06
  8
COTATION1
 62
     0
 10
0.0
 20
0.0
 30
0.0
 11
-1.0
 21
-0.267949
 31
0.0
1001
ACAD
1000
RTLwPs
1070
   158
  0
LINE
  5
4B07
  8
COTATION1
 62
     0
 10
0.0
 20
0.0
 30
0.0
 11
-1.0
 21
0.0
 31
0.0
1001
ACAD
1000
RTLwPs
1070
   158
  0
ENDBLK
  5
4B09
  8
0
  0
BLOCK
  8
0
  2
*D3
 70
     1
 10
0.0
 20
0.0
 30
0.0
  3
*D3
  1

  0
LINE
  5
BB24
  8
COTATION1
 62
     0
 10
86.907342
 20
82.159339
 30
0.0
 11
86.907342
 21
102.959536
 31
0.0
1001
ACAD
1000
RTLwPs
1070
   158
  0
LINE
  5
BB25
  8
COTATION1
 62
     0
 10
115.387342
 20
68.959536
 30
0.0
 11
115.387342
 21
102.959536
 31
0.0
1001
ACAD
1000
RTLwPs
1070
   158
  0
LINE
  5
BB26
  8
COTATION1
 62
     0
 10
91.907342
 20
100.459536
 30
0.0
 11
110.387342
 21
100.459536
 31
0.0
1001
ACAD
1000
RTLwPs
1070
   158
  0
INSERT
  5
BB27
  8
COTATION1
 62
     0
  2
_OPEN30
 10
86.907342
 20
100.459536
 30
0.0
 41
5.0
 42
5.0
 43
5.0
 50
180.0
1001
ACAD
1000
RTLwPs
1070
   158
  0
INSERT
  5
BB28
  8
COTATION1
 62
     0
  2
_OPEN30
 10
115.387342
 20
100.459536
 30
0.0
 41
5.0
 42
5.0
 43
5.0
1001
ACAD
1000
RTLwPs
1070
   158
  0
TEXT
  5
BB29
  8
COTATION1
 62
     0
 10
96.980676
 20
102.459536
 30
0.0
 40
2.5
  1
28.5
1001
ACAD
1000
MTEXTBEGIN
1070
    73
1070
     1
1070
    44
1040
1.0
1070
    74
1070
     0
1000
MTEXTEND
  0
POINT
  5
BB2A
  8
DEFPOINTS
 62
     0
 10
86.907342
 20
80.159339
 30
0.0
  0
POINT
  5
BB2B
  8
DEFPOINTS
 62
     0
 10
115.387342
 20
66.959536
 30
0.0
  0
POINT
  5
BB2C
  8
DEFPOINTS
 62
     0
 10
115.387342
 20
100.459536
 30
0.0
  0
ENDBLK
  5
B05F
  8
0
  0
ENDSEC
  0
SECTION
  2
ENTITIES
  0
INSERT
  5
A
  8
0
  2
COTE
 10
0.0
 20
0.0
 30
0.0
  0
INSERT
  5
17
  8
0
  2
COTE
 10
284.010391
 20
6.373258
 30
0.0
  0
INSERT
  5
72
  8
0
  2
FOND
 10
0.0
 20
0.0
 30
0.0
  0
DIMENSION
  5
B053
  8
COTATION1
  2
*D3
 10
115.387342
 20
100.459536
 30
0.0
 11
101.147342
 21
103.709536
 31
0.0
 13
86.907342
 23
80.159339
 33
0.0
 14
115.387342
 24
66.959536
 34
0.0
  0
POLYLINE
  5
B4E5
  8
ALPHA
 66
     1
 10
0.0
 20
0.0
 30
0.0
 70
   128
210
0.0
220
0.0
230
-1.0
  0
VERTEX
  5
BDA3
  8
ALPHA
 10
-115.324604
 20
83.45006
 30
0.0
  0
VERTEX
  5
BDA4
  8
ALPHA
 10
-111.367244
 20
82.999906
 30
0.0
  0
VERTEX
  5
BDA5
  8
ALPHA
 10
-107.387342
 20
82.847162
 30
0.0
  0
SEQEND
  5
BDA6
  8
ALPHA
  0
LINE
  5
B4E8
  8
ALPHA
 10
99.418715
 20
66.959536
 30
0.0
 11
115.355969
 21
66.959536
 31
0.0
  0
ARC
  5
B4EA
  8
ALPHA
 10
113.387342
 20
83.459536
 30
0.0
 40
2.0
 50
14.3899
 51
90.0
  0
LINE
  5
B4EC
  8
ALPHA
 10
115.324596
 20
66.959536
 30
0.0
 11
115.324596
 21
83.956566
 31
0.0
  0
LINE
  5
B4FA
  8
COTATION1
 10
89.418715
 20
117.656322
 30
0.0
 11
89.418715
 21
87.459536
 31
0.0
  0
SOLID
  5
B528
  8
COTATION1
 10
89.418715
 20
112.399824
 30
0.0
 11
89.418715
 21
115.286575
 31
0.0
 12
86.918715
 22
113.843199
 32
0.0
 13
86.918715
 23
113.843199
 33
0.0
  0
LINE
  5
B529
  8
ALPHA
 10
107.387342
 20
84.805924
 30
0.0
 11
89.387342
 21
84.805924
 31
0.0
  0
LINE
  5
B52A
  8
ALPHA
 10
113.387332
 20
85.459536
 30
0.0
 11
89.387342
 21
85.459536
 31
0.0
  0
LINE
  5
B52B
  8
ALPHA
 10
99.387343
 20
67.459536
 30
0.0
 11
89.387342
 21
67.459536
 31
0.0
  0
LINE
  5
B52C
  8
ALPHA
 10
89.387342
 20
71.823827
 30
0.0
 11
105.268428
 21
71.823827
 31
0.0
  0
LINE
  5
B52D
  8
ALPHA
 10
89.387342
 20
72.853984
 30
0.0
 11
107.387342
 21
72.853984
 31
0.0
  0
LINE
  5
B52E
  8
ALPHA
 10
107.387342
 20
82.847162
 30
0.0
 11
89.387342
 21
82.847162
 31
0.0
  0
LINE
  5
B52F
  8
ALPHA
 10
107.387342
 20
84.805924
 30
0.0
 11
107.387342
 21
72.853984
 31
0.0
  0
LINE
  5
B531
  8
ALPHA
 10
105.268428
 20
71.823827
 30
0.0
 11
107.387342
 21
72.853984
 31
0.0
  0
LINE
  5
B545
  8
ALPHA
 10
99.387342
 20
66.959536
 30
0.0
 11
99.387342
 21
67.459536
 31
0.0
  0
POLYLINE
  5
B546
  8
ALPHA
 66
     1
 10
0.0
 20
0.0
 30
0.0
 70
   128
  0
VERTEX
  5
BDA7
  8
ALPHA
 10
105.268465
 20
71.823844
 30
0.0
  0
VERTEX
  5
BDA8
  8
ALPHA
 10
103.674869
 20
70.913929
 30
0.0
  0
VERTEX
  5
BDA9
  8
ALPHA
 10
102.193599
 20
69.828156
 30
0.0
  0
VERTEX
  5
BDAA
  8
ALPHA
 10
99.387342
 20
67.459536
 30
0.0
  0
SEQEND
  5
BDAB
  8
ALPHA
  0
POLYLINE
  5
B547
  8
ALPHA
 66
     1
 10
0.0
 20
0.0
 30
0.0
 70
   128
  0
VERTEX
  5
BDAC
  8
ALPHA
 10
107.387342
 20
84.805924
 30
0.0
  0
VERTEX
  5
BDAD
  8
ALPHA
 10
110.404738
 20
84.972497
 30
0.0
  0
VERTEX
  5
BDAE
  8
ALPHA
 10
113.387342
 20
85.459536
 30
0.0
  0
SEQEND
  5
BDAF
  8
ALPHA
  0
POLYLINE
  5
B548
  8
ALPHA
 66
     1
 10
0.0
 20
0.0
 30
0.0
  0
VERTEX
  5
BDB0
  8
ALPHA
 10
87.145921
 20
74.62107
 30
0.0
  0
VERTEX
  5
BDB1
  8
ALPHA
 10
87.210806
 20
74.60494
 30
0.0
  0
VERTEX
  5
BDB2
  8
ALPHA
 10
87.287342
 20
74.599275
 30
0.0
  0
SEQEND
  5
BDB3
  8
ALPHA
  0
LINE
  5
B549
  8
ALPHA
 10
88.887342
 20
81.959439
 30
0.0
 11
88.887342
 21
70.959632
 31
0.0
  0
LINE
  5
B54A
  8
ALPHA
 10
87.287342
 20
71.493721
 30
0.0
 11
87.287342
 21
81.425349
 31
0.0
  0
LINE
  5
B54B
  8
ALPHA
 10
87.087342
 20
71.693721
 30
0.0
 11
87.087342
 21
75.743993
 31
0.0
  0
LINE
  5
B54C
  8
ALPHA
 10
89.387342
 20
85.459536
 30
0.0
 11
89.387342
 21
67.459536
 31
0.0
  0
LINE
  5
B54D
  8
ALPHA
 10
89.387342
 20
70.959536
 30
0.0
 11
88.887342
 21
70.959536
 31
0.0
  0
POLYLINE
  5
B54E
  8
ALPHA
 66
     1
 10
0.0
 20
0.0
 30
0.0
  0
VERTEX
  5
BDB4
  8
ALPHA
 10
87.145921
 20
73.496592
 30
0.0
  0
VERTEX
  5
BDB5
  8
ALPHA
 10
87.210806
 20
73.470596
 30
0.0
  0
VERTEX
  5
BDB6
  8
ALPHA
 10
87.287342
 20
73.461468
 30
0.0
  0
SEQEND
  5
BDB7
  8
ALPHA
  0
POLYLINE
  5
B54F
  8
ALPHA
 66
     1
 10
0.0
 20
0.0
 30
0.0
  0
VERTEX
  5
BDB8
  8
ALPHA
 10
87.287342
 20
73.37039
 30
0.0
  0
VERTEX
  5
BDB9
  8
ALPHA
 10
87.210806
 20
73.379796
 30
0.0
  0
VERTEX
  5
BDBA
  8
ALPHA
 10
87.145921
 20
73.406582
 30
0.0
  0
VERTEX
  5
BDBB
  8
ALPHA
 10
87.102566
 20
73.446669
 30
0.0
  0
VERTEX
  5
BDBC
  8
ALPHA
 10
87.087342
 20
73.493956
 30
0.0
  0
SEQEND
  5
BDBD
  8
ALPHA
  0
POLYLINE
  5
B550
  8
ALPHA
 66
     1
 10
0.0
 20
0.0
 30
0.0
  0
VERTEX
  5
BDBE
  8
ALPHA
 10
87.115676
 20
74.473622
 30
0.0
  0
VERTEX
  5
BDBF
  8
ALPHA
 10
87.102568
 20
74.483133
 30
0.0
  0
VERTEX
  5
BDC0
  8
ALPHA
 10
87.087342
 20
74.520241
 30
0.0
  0
SEQEND
  5
BDC1
  8
ALPHA
  0
POLYLINE
  5
B551
  8
ALPHA
 66
     1
 10
0.0
 20
0.0
 30
0.0
  0
VERTEX
  5
BDC2
  8
ALPHA
 10
87.287342
 20
74.296433
 30
0.0
  0
VERTEX
  5
BDC3
  8
ALPHA
 10
87.210806
 20
74.304274
 30
0.0
  0
VERTEX
  5
BDC4
  8
ALPHA
 10
87.145921
 20
74.326602
 30
0.0
  0
VERTEX
  5
BDC5
  8
ALPHA
 10
87.102566
 20
74.36002
 30
0.0
  0
VERTEX
  5
BDC6
  8
ALPHA
 10
87.087342
 20
74.399438
 30
0.0
  0
SEQEND
  5
BDC7
  8
ALPHA
  0
POLYLINE
  5
B552
  8
ALPHA
 66
     1
 10
0.0
 20
0.0
 30
0.0
  0
VERTEX
  5
BDC8
  8
ALPHA
 10
87.287342
 20
74.493213
 30
0.0
  0
VERTEX
  5
BDC9
  8
ALPHA
 10
87.210806
 20
74.499201
 30
0.0
  0
VERTEX
  5
BDCA
  8
ALPHA
 10
87.145921
 20
74.51625
 30
0.0
  0
VERTEX
  5
BDCB
  8
ALPHA
 10
87.102566
 20
74.541767
 30
0.0
  0
VERTEX
  5
BDCC
  8
ALPHA
 10
87.087342
 20
74.571866
 30
0.0
  0
SEQEND
  5
BDCD
  8
ALPHA
  0
POLYLINE
  5
B553
  8
ALPHA
 66
     1
 10
0.0
 20
0.0
 30
0.0
  0
VERTEX
  5
BDCE
  8
ALPHA
 10
87.287342
 20
73.188505
 30
0.0
  0
VERTEX
  5
BDCF
  8
ALPHA
 10
87.210807
 20
73.180438
 30
0.0
  0
VERTEX
  5
BDD0
  8
ALPHA
 10
87.145922
 20
73.157464
 30
0.0
  0
VERTEX
  5
BDD1
  8
ALPHA
 10
87.102567
 20
73.12308
 30
0.0
  0
VERTEX
  5
BDD2
  8
ALPHA
 10
87.087342
 20
73.082521
 30
0.0
  0
SEQEND
  5
BDD3
  8
ALPHA
  0
POLYLINE
  5
B554
  8
ALPHA
 66
     1
 10
0.0
 20
0.0
 30
0.0
  0
VERTEX
  5
BDD4
  8
ALPHA
 10
87.287342
 20
73.727661
 30
0.0
  0
VERTEX
  5
BDD5
  8
ALPHA
 10
87.225539
 20
73.720502
 30
0.0
  0
VERTEX
  5
BDD6
  8
ALPHA
 10
87.169785
 20
73.699726
 30
0.0
  0
VERTEX
  5
BDD7
  8
ALPHA
 10
87.125539
 20
73.667366
 30
0.0
  0
SEQEND
  5
BDD8
  8
ALPHA
  0
LINE
  5
B555
  8
ALPHA
 10
87.102566
 20
73.535498
 30
0.0
 11
87.145921
 21
73.496592
 31
0.0
  0
POLYLINE
  5
B556
  8
ALPHA
 66
     1
 10
0.0
 20
0.0
 30
0.0
  0
VERTEX
  5
BDD9
  8
ALPHA
 10
87.287342
 20
74.047157
 30
0.0
  0
VERTEX
  5
BDDA
  8
ALPHA
 10
87.210807
 20
74.036023
 30
0.0
  0
VERTEX
  5
BDDB
  8
ALPHA
 10
87.145922
 20
74.004317
 30
0.0
  0
VERTEX
  5
BDDC
  8
ALPHA
 10
87.102567
 20
73.956863
 30
0.0
  0
VERTEX
  5
BDDD
  8
ALPHA
 10
87.087342
 20
73.900887
 30
0.0
  0
SEQEND
  5
BDDE
  8
ALPHA
  0
LINE
  5
B557
  8
ALPHA
 10
87.087342
 20
73.58139
 30
0.0
 11
87.102566
 21
73.535498
 31
0.0
  0
POLYLINE
  5
B558
  8
ALPHA
 66
     1
 10
0.0
 20
0.0
 30
0.0
  0
VERTEX
  5
BDDF
  8
ALPHA
 10
87.125539
 20
73.667366
 30
0.0
  0
VERTEX
  5
BDE0
  8
ALPHA
 10
87.097131
 20
73.626591
 30
0.0
  0
VERTEX
  5
BDE1
  8
ALPHA
 10
87.087342
 20
73.58139
 30
0.0
  0
SEQEND
  5
BDE2
  8
ALPHA
  0
LINE
  5
B559
  8
ALPHA
 10
87.287342
 20
73.293956
 30
0.0
 11
87.275429
 21
73.294315
 31
0.0
  0
LINE
  5
B55A
  8
ALPHA
 10
87.275429
 20
73.294315
 30
0.0
 11
87.087342
 21
73.493956
 31
0.0
  0
LINE
  5
B55B
  8
ALPHA
 10
87.287342
 20
74.371866
 30
0.0
 11
87.087342
 21
74.571866
 31
0.0
  0
LINE
  5
B55C
  8
ALPHA
 10
88.887342
 20
73.188505
 30
0.0
 11
87.287342
 21
73.188505
 31
0.0
  0
LINE
  5
B55D
  8
ALPHA
 10
87.287342
 20
73.293956
 30
0.0
 11
88.887342
 21
73.293956
 31
0.0
  0
LINE
  5
B55E
  8
ALPHA
 10
87.287342
 20
73.37039
 30
0.0
 11
88.887342
 21
73.37039
 31
0.0
  0
LINE
  5
B55F
  8
ALPHA
 10
88.887342
 20
73.461468
 30
0.0
 11
87.287342
 21
73.461468
 31
0.0
  0
LINE
  5
B560
  8
ALPHA
 10
88.887342
 20
73.727661
 30
0.0
 11
87.287342
 21
73.727661
 31
0.0
  0
LINE
  5
B561
  8
ALPHA
 10
88.887342
 20
74.047157
 30
0.0
 11
87.287342
 21
74.047157
 31
0.0
  0
LINE
  5
B562
  8
ALPHA
 10
88.887342
 20
74.296433
 30
0.0
 11
87.287342
 21
74.296433
 31
0.0
  0
LINE
  5
B563
  8
ALPHA
 10
87.287342
 20
74.371866
 30
0.0
 11
88.887342
 21
74.371866
 31
0.0
  0
LINE
  5
B564
  8
ALPHA
 10
87.287342
 20
74.493213
 30
0.0
 11
88.887342
 21
74.493213
 31
0.0
  0
LINE
  5
B565
  8
ALPHA
 10
88.887342
 20
74.599275
 30
0.0
 11
87.287342
 21
74.599275
 31
0.0
  0
LINE
  5
B566
  8
ALPHA
 10
87.287342
 20
71.495146
 30
0.0
 11
87.210806
 21
71.510261
 31
0.0
  0
LINE
  5
B567
  8
ALPHA
 10
87.287342
 20
71.818476
 30
0.0
 11
87.210806
 21
71.832607
 31
0.0
  0
POLYLINE
  5
B568
  8
ALPHA
 66
     1
 10
0.0
 20
0.0
 30
0.0
  0
VERTEX
  5
BDE3
  8
ALPHA
 10
87.287342
 20
72.458087
 30
0.0
  0
VERTEX
  5
BDE4
  8
ALPHA
 10
87.210806
 20
72.470271
 30
0.0
  0
VERTEX
  5
BDE5
  8
ALPHA
 10
87.145921
 20
72.504967
 30
0.0
  0
VERTEX
  5
BDE6
  8
ALPHA
 10
87.102566
 20
72.556894
 30
0.0
  0
VERTEX
  5
BDE7
  8
ALPHA
 10
87.087342
 20
72.618145
 30
0.0
  0
SEQEND
  5
BDE8
  8
ALPHA
  0
POLYLINE
  5
B569
  8
ALPHA
 66
     1
 10
0.0
 20
0.0
 30
0.0
  0
VERTEX
  5
BDE9
  8
ALPHA
 10
87.287342
 20
71.715086
 30
0.0
  0
VERTEX
  5
BDEA
  8
ALPHA
 10
87.225539
 20
71.714745
 30
0.0
  0
VERTEX
  5
BDEB
  8
ALPHA
 10
87.169785
 20
71.713753
 30
0.0
  0
VERTEX
  5
BDEC
  8
ALPHA
 10
87.125539
 20
71.712209
 30
0.0
  0
VERTEX
  5
BDED
  8
ALPHA
 10
87.097131
 20
71.710263
 30
0.0
  0
VERTEX
  5
BDEE
  8
ALPHA
 10
87.087342
 20
71.708106
 30
0.0
  0
SEQEND
  5
BDEF
  8
ALPHA
  0
POLYLINE
  5
B56A
  8
ALPHA
 66
     1
 10
0.0
 20
0.0
 30
0.0
  0
VERTEX
  5
BDF0
  8
ALPHA
 10
87.287342
 20
72.104768
 30
0.0
  0
VERTEX
  5
BDF1
  8
ALPHA
 10
87.225539
 20
72.101906
 30
0.0
  0
VERTEX
  5
BDF2
  8
ALPHA
 10
87.169785
 20
72.0936
 30
0.0
  0
VERTEX
  5
BDF3
  8
ALPHA
 10
87.125539
 20
72.080664
 30
0.0
  0
VERTEX
  5
BDF4
  8
ALPHA
 10
87.097131
 20
72.064363
 30
0.0
  0
VERTEX
  5
BDF5
  8
ALPHA
 10
87.087342
 20
72.046294
 30
0.0
  0
SEQEND
  5
BDF6
  8
ALPHA
  0
POLYLINE
  5
B56B
  8
ALPHA
 66
     1
 10
0.0
 20
0.0
 30
0.0
  0
VERTEX
  5
BDF7
  8
ALPHA
 10
87.287342
 20
72.79122
 30
0.0
  0
VERTEX
  5
BDF8
  8
ALPHA
 10
87.225539
 20
72.786032
 30
0.0
  0
VERTEX
  5
BDF9
  8
ALPHA
 10
87.169785
 20
72.770979
 30
0.0
  0
VERTEX
  5
BDFA
  8
ALPHA
 10
87.125539
 20
72.747532
 30
0.0
  0
VERTEX
  5
BDFB
  8
ALPHA
 10
87.097131
 20
72.717987
 30
0.0
  0
VERTEX
  5
BDFC
  8
ALPHA
 10
87.087342
 20
72.685236
 30
0.0
  0
SEQEND
  5
BDFD
  8
ALPHA
  0
POLYLINE
  5
B56C
  8
ALPHA
 66
     1
 10
0.0
 20
0.0
 30
0.0
  0
VERTEX
  5
BDFE
  8
ALPHA
 10
87.210806
 20
71.832607
 30
0.0
  0
VERTEX
  5
BDFF
  8
ALPHA
 10
87.145921
 20
71.87285
 30
0.0
  0
VERTEX
  5
BE00
  8
ALPHA
 10
87.102566
 20
71.933076
 30
0.0
  0
VERTEX
  5
BE01
  8
ALPHA
 10
87.087342
 20
72.004119
 30
0.0
  0
SEQEND
  5
BE02
  8
ALPHA
  0
LINE
  5
B56D
  8
ALPHA
 10
87.210806
 20
71.510261
 30
0.0
 11
87.145921
 21
71.553307
 31
0.0
  0
POLYLINE
  5
B56E
  8
ALPHA
 66
     1
 10
0.0
 20
0.0
 30
0.0
  0
VERTEX
  5
BE03
  8
ALPHA
 10
87.11465
 20
72.521958
 30
0.0
  0
VERTEX
  5
BE04
  8
ALPHA
 10
87.102567
 20
72.516672
 30
0.0
  0
VERTEX
  5
BE05
  8
ALPHA
 10
87.087342
 20
72.494294
 30
0.0
  0
SEQEND
  5
BE06
  8
ALPHA
  0
POLYLINE
  5
B56F
  8
ALPHA
 66
     1
 10
0.0
 20
0.0
 30
0.0
  0
VERTEX
  5
BE07
  8
ALPHA
 10
87.102566
 20
72.625054
 30
0.0
  0
VERTEX
  5
BE08
  8
ALPHA
 10
87.145921
 20
72.574034
 30
0.0
  0
VERTEX
  5
BE09
  8
ALPHA
 10
87.210806
 20
72.539944
 30
0.0
  0
VERTEX
  5
BE0A
  8
ALPHA
 10
87.287342
 20
72.527973
 30
0.0
  0
SEQEND
  5
BE0B
  8
ALPHA
  0
LINE
  5
B570
  8
ALPHA
 10
87.145921
 20
71.553307
 30
0.0
 11
87.102566
 21
71.61773
 31
0.0
  0
LINE
  5
B571
  8
ALPHA
 10
87.087342
 20
72.685236
 30
0.0
 11
87.102566
 21
72.625054
 31
0.0
  0
LINE
  5
B572
  8
ALPHA
 10
87.102566
 20
71.61773
 30
0.0
 11
87.087342
 21
71.693721
 31
0.0
  0
POLYLINE
  5
B573
  8
ALPHA
 66
     1
 10
0.0
 20
0.0
 30
0.0
  0
VERTEX
  5
BE0C
  8
ALPHA
 10
87.087342
 20
71.708106
 30
0.0
  0
VERTEX
  5
BE0D
  8
ALPHA
 10
87.102566
 20
71.632344
 30
0.0
  0
VERTEX
  5
BE0E
  8
ALPHA
 10
87.145921
 20
71.568116
 30
0.0
  0
VERTEX
  5
BE0F
  8
ALPHA
 10
87.210806
 20
71.5252
 30
0.0
  0
VERTEX
  5
BE10
  8
ALPHA
 10
87.287342
 20
71.51013
 30
0.0
  0
SEQEND
  5
BE11
  8
ALPHA
  0
POLYLINE
  5
B574
  8
ALPHA
 66
     1
 10
0.0
 20
0.0
 30
0.0
  0
VERTEX
  5
BE12
  8
ALPHA
 10
87.087342
 20
72.046294
 30
0.0
  0
VERTEX
  5
BE13
  8
ALPHA
 10
87.102566
 20
71.975924
 30
0.0
  0
VERTEX
  5
BE14
  8
ALPHA
 10
87.145921
 20
71.916267
 30
0.0
  0
VERTEX
  5
BE15
  8
ALPHA
 10
87.210806
 20
71.876406
 30
0.0
  0
VERTEX
  5
BE16
  8
ALPHA
 10
87.287342
 20
71.862408
 30
0.0
  0
SEQEND
  5
BE17
  8
ALPHA
  0
LINE
  5
B575
  8
ALPHA
 10
87.287342
 20
71.493721
 30
0.0
 11
87.087342
 21
71.693721
 31
0.0
  0
LINE
  5
B576
  8
ALPHA
 10
87.127986
 20
71.572867
 30
0.0
 11
87.144794
 21
71.553449
 31
0.0
  0
LINE
  5
B577
  8
ALPHA
 10
87.173891
 20
71.529015
 30
0.0
 11
87.195733
 21
71.515935
 31
0.0
  0
LINE
  5
B578
  8
ALPHA
 10
87.232931
 20
71.501263
 30
0.0
 11
87.287342
 21
71.493736
 31
0.0
  0
LINE
  5
B579
  8
ALPHA
 10
87.287342
 20
71.804119
 30
0.0
 11
87.225266
 21
71.813996
 31
0.0
  0
LINE
  5
B57A
  8
ALPHA
 10
87.225266
 20
71.813996
 30
0.0
 11
87.087342
 21
72.004119
 31
0.0
  0
LINE
  5
B57B
  8
ALPHA
 10
87.287342
 20
72.418145
 30
0.0
 11
87.281142
 21
72.418243
 31
0.0
  0
LINE
  5
B57C
  8
ALPHA
 10
87.281142
 20
72.418243
 30
0.0
 11
87.225522
 21
72.427939
 31
0.0
  0
LINE
  5
B57D
  8
ALPHA
 10
87.225522
 20
72.427939
 30
0.0
 11
87.087342
 21
72.618145
 31
0.0
  0
LINE
  5
B57E
  8
ALPHA
 10
87.287342
 20
71.493721
 30
0.0
 11
88.887342
 21
71.493721
 31
0.0
  0
LINE
  5
B57F
  8
ALPHA
 10
87.287342
 20
71.495146
 30
0.0
 11
88.887342
 21
71.495146
 31
0.0
  0
LINE
  5
B580
  8
ALPHA
 10
88.887342
 20
71.51013
 30
0.0
 11
87.287342
 21
71.51013
 31
0.0
  0
LINE
  5
B581
  8
ALPHA
 10
88.887342
 20
71.715086
 30
0.0
 11
87.287342
 21
71.715086
 31
0.0
  0
LINE
  5
B582
  8
ALPHA
 10
87.287342
 20
71.804119
 30
0.0
 11
88.887342
 21
71.804119
 31
0.0
  0
LINE
  5
B583
  8
ALPHA
 10
87.287342
 20
71.818476
 30
0.0
 11
88.887342
 21
71.818476
 31
0.0
  0
LINE
  5
B584
  8
ALPHA
 10
88.887342
 20
71.862408
 30
0.0
 11
87.287342
 21
71.862408
 31
0.0
  0
LINE
  5
B585
  8
ALPHA
 10
88.887342
 20
72.104768
 30
0.0
 11
87.287342
 21
72.104768
 31
0.0
  0
LINE
  5
B586
  8
ALPHA
 10
87.287342
 20
72.418145
 30
0.0
 11
88.887342
 21
72.418145
 31
0.0
  0
LINE
  5
B587
  8
ALPHA
 10
87.287342
 20
72.458087
 30
0.0
 11
88.887342
 21
72.458087
 31
0.0
  0
LINE
  5
B588
  8
ALPHA
 10
88.887342
 20
72.527973
 30
0.0
 11
87.287342
 21
72.527973
 31
0.0
  0
LINE
  5
B589
  8
ALPHA
 10
88.887342
 20
72.79122
 30
0.0
 11
87.287342
 21
72.79122
 31
0.0
  0
LINE
  5
B58A
  8
ALPHA
 10
89.387342
 20
81.959536
 30
0.0
 11
88.887342
 21
81.959536
 31
0.0
  0
POLYLINE
  5
B58B
  8
ALPHA
 66
     1
 10
0.0
 20
0.0
 30
0.0
  0
VERTEX
  5
BE18
  8
ALPHA
 10
87.114441
 20
80.397204
 30
0.0
  0
VERTEX
  5
BE19
  8
ALPHA
 10
87.102566
 20
80.4024
 30
0.0
  0
VERTEX
  5
BE1A
  8
ALPHA
 10
87.087342
 20
80.424777
 30
0.0
  0
SEQEND
  5
BE1B
  8
ALPHA
  0
POLYLINE
  5
B58C
  8
ALPHA
 66
     1
 10
0.0
 20
0.0
 30
0.0
  0
VERTEX
  5
BE1C
  8
ALPHA
 10
87.125737
 20
79.251505
 30
0.0
  0
VERTEX
  5
BE1D
  8
ALPHA
 10
87.097183
 20
79.292365
 30
0.0
  0
VERTEX
  5
BE1E
  8
ALPHA
 10
87.087342
 20
79.337681
 30
0.0
  0
SEQEND
  5
BE1F
  8
ALPHA
  0
POLYLINE
  5
B58D
  8
ALPHA
 66
     1
 10
0.0
 20
0.0
 30
0.0
  0
VERTEX
  5
BE20
  8
ALPHA
 10
87.287342
 20
78.871914
 30
0.0
  0
VERTEX
  5
BE21
  8
ALPHA
 10
87.210806
 20
78.883048
 30
0.0
  0
VERTEX
  5
BE22
  8
ALPHA
 10
87.145921
 20
78.914756
 30
0.0
  0
VERTEX
  5
BE23
  8
ALPHA
 10
87.102566
 20
78.962209
 30
0.0
  0
VERTEX
  5
BE24
  8
ALPHA
 10
87.087342
 20
79.018185
 30
0.0
  0
SEQEND
  5
BE25
  8
ALPHA
  0
POLYLINE
  5
B58E
  8
ALPHA
 66
     1
 10
0.0
 20
0.0
 30
0.0
  0
VERTEX
  5
BE26
  8
ALPHA
 10
87.287342
 20
79.19141
 30
0.0
  0
VERTEX
  5
BE27
  8
ALPHA
 10
87.22609
 20
79.198439
 30
0.0
  0
VERTEX
  5
BE28
  8
ALPHA
 10
87.170154
 20
79.21915
 30
0.0
  0
VERTEX
  5
BE29
  8
ALPHA
 10
87.125737
 20
79.251505
 30
0.0
  0
SEQEND
  5
BE2A
  8
ALPHA
  0
POLYLINE
  5
B58F
  8
ALPHA
 66
     1
 10
0.0
 20
0.0
 30
0.0
  0
VERTEX
  5
BE2B
  8
ALPHA
 10
87.287342
 20
79.730566
 30
0.0
  0
VERTEX
  5
BE2C
  8
ALPHA
 10
87.210806
 20
79.738633
 30
0.0
  0
VERTEX
  5
BE2D
  8
ALPHA
 10
87.145921
 20
79.761608
 30
0.0
  0
VERTEX
  5
BE2E
  8
ALPHA
 10
87.102566
 20
79.795991
 30
0.0
  0
VERTEX
  5
BE2F
  8
ALPHA
 10
87.087342
 20
79.83655
 30
0.0
  0
SEQEND
  5
BE30
  8
ALPHA
  0
POLYLINE
  5
B590
  8
ALPHA
 66
     1
 10
0.0
 20
0.0
 30
0.0
  0
VERTEX
  5
BE31
  8
ALPHA
 10
87.287342
 20
80.127851
 30
0.0
  0
VERTEX
  5
BE32
  8
ALPHA
 10
87.22609
 20
80.132944
 30
0.0
  0
VERTEX
  5
BE33
  8
ALPHA
 10
87.170154
 20
80.147951
 30
0.0
  0
VERTEX
  5
BE34
  8
ALPHA
 10
87.125737
 20
80.171395
 30
0.0
  0
VERTEX
  5
BE35
  8
ALPHA
 10
87.097183
 20
80.201001
 30
0.0
  0
VERTEX
  5
BE36
  8
ALPHA
 10
87.087342
 20
80.233835
 30
0.0
  0
SEQEND
  5
BE37
  8
ALPHA
  0
LINE
  5
B591
  8
ALPHA
 10
87.087342
 20
78.960839
 30
0.0
 11
86.907342
 21
78.960839
 31
0.0
  0
POLYLINE
  5
B592
  8
ALPHA
 66
     1
 10
0.0
 20
0.0
 30
0.0
  0
VERTEX
  5
BE38
  8
ALPHA
 10
87.287342
 20
80.814303
 30
0.0
  0
VERTEX
  5
BE39
  8
ALPHA
 10
87.22609
 20
80.817113
 30
0.0
  0
VERTEX
  5
BE3A
  8
ALPHA
 10
87.170154
 20
80.825393
 30
0.0
  0
VERTEX
  5
BE3B
  8
ALPHA
 10
87.125737
 20
80.838327
 30
0.0
  0
VERTEX
  5
BE3C
  8
ALPHA
 10
87.097183
 20
80.854662
 30
0.0
  0
VERTEX
  5
BE3D
  8
ALPHA
 10
87.087342
 20
80.872778
 30
0.0
  0
SEQEND
  5
BE3E
  8
ALPHA
  0
POLYLINE
  5
B593
  8
ALPHA
 66
     1
 10
0.0
 20
0.0
 30
0.0
  0
VERTEX
  5
BE3F
  8
ALPHA
 10
87.287342
 20
81.203985
 30
0.0
  0
VERTEX
  5
BE40
  8
ALPHA
 10
87.22609
 20
81.20432
 30
0.0
  0
VERTEX
  5
BE41
  8
ALPHA
 10
87.170154
 20
81.205309
 30
0.0
  0
VERTEX
  5
BE42
  8
ALPHA
 10
87.125737
 20
81.206853
 30
0.0
  0
VERTEX
  5
BE43
  8
ALPHA
 10
87.097183
 20
81.208802
 30
0.0
  0
VERTEX
  5
BE44
  8
ALPHA
 10
87.087342
 20
81.210965
 30
0.0
  0
SEQEND
  5
BE45
  8
ALPHA
  0
LINE
  5
B594
  8
ALPHA
 10
87.087342
 20
80.060839
 30
0.0
 11
86.907342
 21
80.060839
 31
0.0
  0
LINE
  5
B595
  8
ALPHA
 10
87.087342
 20
80.159536
 30
0.0
 11
86.907342
 21
80.159536
 31
0.0
  0
POLYLINE
  5
B596
  8
ALPHA
 66
     1
 10
0.0
 20
0.0
 30
0.0
  0
VERTEX
  5
BE46
  8
ALPHA
 10
87.287342
 20
79.457603
 30
0.0
  0
VERTEX
  5
BE47
  8
ALPHA
 10
87.210806
 20
79.448475
 30
0.0
  0
VERTEX
  5
BE48
  8
ALPHA
 10
87.145921
 20
79.422479
 30
0.0
  0
SEQEND
  5
BE49
  8
ALPHA
  0
POLYLINE
  5
B597
  8
ALPHA
 66
     1
 10
0.0
 20
0.0
 30
0.0
  0
VERTEX
  5
BE4A
  8
ALPHA
 10
87.287342
 20
80.391098
 30
0.0
  0
VERTEX
  5
BE4B
  8
ALPHA
 10
87.210806
 20
80.379127
 30
0.0
  0
VERTEX
  5
BE4C
  8
ALPHA
 10
87.145921
 20
80.345037
 30
0.0
  0
VERTEX
  5
BE4D
  8
ALPHA
 10
87.102566
 20
80.294017
 30
0.0
  0
SEQEND
  5
BE4E
  8
ALPHA
  0
POLYLINE
  5
B598
  8
ALPHA
 66
     1
 10
0.0
 20
0.0
 30
0.0
  0
VERTEX
  5
BE4F
  8
ALPHA
 10
87.287342
 20
81.056663
 30
0.0
  0
VERTEX
  5
BE50
  8
ALPHA
 10
87.210806
 20
81.042665
 30
0.0
  0
VERTEX
  5
BE51
  8
ALPHA
 10
87.145921
 20
81.002804
 30
0.0
  0
VERTEX
  5
BE52
  8
ALPHA
 10
87.102566
 20
80.943147
 30
0.0
  0
VERTEX
  5
BE53
  8
ALPHA
 10
87.087342
 20
80.872778
 30
0.0
  0
SEQEND
  5
BE54
  8
ALPHA
  0
POLYLINE
  5
B599
  8
ALPHA
 66
     1
 10
0.0
 20
0.0
 30
0.0
  0
VERTEX
  5
BE55
  8
ALPHA
 10
87.287342
 20
81.408941
 30
0.0
  0
VERTEX
  5
BE56
  8
ALPHA
 10
87.210806
 20
81.393871
 30
0.0
  0
VERTEX
  5
BE57
  8
ALPHA
 10
87.145921
 20
81.350955
 30
0.0
  0
VERTEX
  5
BE58
  8
ALPHA
 10
87.102566
 20
81.286727
 30
0.0
  0
SEQEND
  5
BE59
  8
ALPHA
  0
LINE
  5
B59A
  8
ALPHA
 10
87.210806
 20
81.40881
 30
0.0
 11
87.287342
 21
81.423925
 31
0.0
  0
LINE
  5
B59B
  8
ALPHA
 10
87.145921
 20
79.422479
 30
0.0
 11
87.102566
 21
79.383573
 31
0.0
  0
LINE
  5
B59C
  8
ALPHA
 10
87.102566
 20
79.383573
 30
0.0
 11
87.087342
 21
79.337681
 31
0.0
  0
POLYLINE
  5
B59D
  8
ALPHA
 66
     1
 10
0.0
 20
0.0
 30
0.0
  0
VERTEX
  5
BE5A
  8
ALPHA
 10
87.087342
 20
79.425115
 30
0.0
  0
VERTEX
  5
BE5B
  8
ALPHA
 10
87.102566
 20
79.472402
 30
0.0
  0
VERTEX
  5
BE5C
  8
ALPHA
 10
87.145921
 20
79.512489
 30
0.0
  0
VERTEX
  5
BE5D
  8
ALPHA
 10
87.210806
 20
79.539275
 30
0.0
  0
VERTEX
  5
BE5E
  8
ALPHA
 10
87.287342
 20
79.548681
 30
0.0
  0
SEQEND
  5
BE5F
  8
ALPHA
  0
LINE
  5
B59E
  8
ALPHA
 10
87.102566
 20
80.294017
 30
0.0
 11
87.087342
 21
80.233835
 31
0.0
  0
POLYLINE
  5
B59F
  8
ALPHA
 66
     1
 10
0.0
 20
0.0
 30
0.0
  0
VERTEX
  5
BE60
  8
ALPHA
 10
87.087342
 20
80.300926
 30
0.0
  0
VERTEX
  5
BE61
  8
ALPHA
 10
87.102566
 20
80.362177
 30
0.0
  0
VERTEX
  5
BE62
  8
ALPHA
 10
87.145921
 20
80.414104
 30
0.0
  0
VERTEX
  5
BE63
  8
ALPHA
 10
87.210806
 20
80.4488
 30
0.0
  0
VERTEX
  5
BE64
  8
ALPHA
 10
87.287342
 20
80.460984
 30
0.0
  0
SEQEND
  5
BE65
  8
ALPHA
  0
POLYLINE
  5
B5A0
  8
ALPHA
 66
     1
 10
0.0
 20
0.0
 30
0.0
  0
VERTEX
  5
BE66
  8
ALPHA
 10
87.087342
 20
80.914953
 30
0.0
  0
VERTEX
  5
BE67
  8
ALPHA
 10
87.102566
 20
80.985995
 30
0.0
  0
VERTEX
  5
BE68
  8
ALPHA
 10
87.145921
 20
81.046222
 30
0.0
  0
VERTEX
  5
BE69
  8
ALPHA
 10
87.210806
 20
81.086464
 30
0.0
  0
VERTEX
  5
BE6A
  8
ALPHA
 10
87.287342
 20
81.100595
 30
0.0
  0
SEQEND
  5
BE6B
  8
ALPHA
  0
LINE
  5
B5A1
  8
ALPHA
 10
87.102566
 20
81.286727
 30
0.0
 11
87.087342
 21
81.210965
 31
0.0
  0
LINE
  5
B5A2
  8
ALPHA
 10
87.087342
 20
81.22535
 30
0.0
 11
87.102566
 21
81.301341
 31
0.0
  0
LINE
  5
B5A3
  8
ALPHA
 10
87.145921
 20
81.365764
 30
0.0
 11
87.210806
 21
81.40881
 31
0.0
  0
LINE
  5
B5A4
  8
ALPHA
 10
87.102566
 20
81.301341
 30
0.0
 11
87.145921
 21
81.365764
 31
0.0
  0
LINE
  5
B5A5
  8
ALPHA
 10
87.17389
 20
81.390058
 30
0.0
 11
87.144794
 21
81.365622
 31
0.0
  0
LINE
  5
B5A6
  8
ALPHA
 10
87.087342
 20
81.22535
 30
0.0
 11
87.287342
 21
81.425335
 31
0.0
  0
LINE
  5
B5A7
  8
ALPHA
 10
87.087342
 20
80.914953
 30
0.0
 11
87.287342
 21
81.114953
 31
0.0
  0
LINE
  5
B5A8
  8
ALPHA
 10
87.087342
 20
80.300926
 30
0.0
 11
87.225633
 21
80.491168
 31
0.0
  0
LINE
  5
B5A9
  8
ALPHA
 10
87.225633
 20
80.491168
 30
0.0
 11
87.281153
 21
80.500832
 31
0.0
  0
LINE
  5
B5AA
  8
ALPHA
 10
87.281153
 20
80.500832
 30
0.0
 11
87.287342
 21
80.500927
 31
0.0
  0
LINE
  5
B5AB
  8
ALPHA
 10
87.087342
 20
79.425115
 30
0.0
 11
87.287342
 21
79.625095
 31
0.0
  0
LINE
  5
B5AC
  8
ALPHA
 10
87.287342
 20
78.871914
 30
0.0
 11
88.887342
 21
78.871914
 31
0.0
  0
LINE
  5
B5AD
  8
ALPHA
 10
87.287342
 20
79.19141
 30
0.0
 11
88.887342
 21
79.19141
 31
0.0
  0
LINE
  5
B5AE
  8
ALPHA
 10
87.287342
 20
79.457603
 30
0.0
 11
88.887342
 21
79.457603
 31
0.0
  0
LINE
  5
B5AF
  8
ALPHA
 10
88.887342
 20
79.548681
 30
0.0
 11
87.287342
 21
79.548681
 31
0.0
  0
LINE
  5
B5B0
  8
ALPHA
 10
88.887342
 20
79.625115
 30
0.0
 11
87.287342
 21
79.625115
 31
0.0
  0
LINE
  5
B5B1
  8
ALPHA
 10
87.287342
 20
79.730566
 30
0.0
 11
88.887342
 21
79.730566
 31
0.0
  0
LINE
  5
B5B2
  8
ALPHA
 10
87.287342
 20
80.127851
 30
0.0
 11
88.887342
 21
80.127851
 31
0.0
  0
LINE
  5
B5B3
  8
ALPHA
 10
87.287342
 20
80.391098
 30
0.0
 11
88.887342
 21
80.391098
 31
0.0
  0
LINE
  5
B5B4
  8
ALPHA
 10
88.887342
 20
80.460984
 30
0.0
 11
87.287342
 21
80.460984
 31
0.0
  0
LINE
  5
B5B5
  8
ALPHA
 10
88.887342
 20
80.500926
 30
0.0
 11
87.287342
 21
80.500926
 31
0.0
  0
LINE
  5
B5B6
  8
ALPHA
 10
87.287342
 20
80.814303
 30
0.0
 11
88.887342
 21
80.814303
 31
0.0
  0
LINE
  5
B5B7
  8
ALPHA
 10
87.287342
 20
81.056663
 30
0.0
 11
88.887342
 21
81.056663
 31
0.0
  0
LINE
  5
B5B8
  8
ALPHA
 10
88.887342
 20
81.100595
 30
0.0
 11
87.287342
 21
81.100595
 31
0.0
  0
LINE
  5
B5B9
  8
ALPHA
 10
88.887342
 20
81.114953
 30
0.0
 11
87.287342
 21
81.114953
 31
0.0
  0
LINE
  5
B5BA
  8
ALPHA
 10
87.287342
 20
81.203985
 30
0.0
 11
88.887342
 21
81.203985
 31
0.0
  0
LINE
  5
B5BB
  8
ALPHA
 10
87.287342
 20
81.408941
 30
0.0
 11
88.887342
 21
81.408941
 31
0.0
  0
LINE
  5
B5BC
  8
ALPHA
 10
88.887342
 20
81.423925
 30
0.0
 11
87.287342
 21
81.423925
 31
0.0
  0
LINE
  5
B5BD
  8
ALPHA
 10
88.887342
 20
81.42535
 30
0.0
 11
87.287342
 21
81.42535
 31
0.0
  0
POLYLINE
  5
B5BE
  8
ALPHA
 66
     1
 10
0.0
 20
0.0
 30
0.0
  0
VERTEX
  5
BE6C
  8
ALPHA
 10
87.087342
 20
75.887684
 30
0.0
  0
VERTEX
  5
BE6D
  8
ALPHA
 10
87.102566
 20
75.878566
 30
0.0
  0
VERTEX
  5
BE6E
  8
ALPHA
 10
87.145921
 20
75.870836
 30
0.0
  0
VERTEX
  5
BE6F
  8
ALPHA
 10
87.210806
 20
75.865671
 30
0.0
  0
VERTEX
  5
BE70
  8
ALPHA
 10
87.287342
 20
75.863857
 30
0.0
  0
SEQEND
  5
BE71
  8
ALPHA
  0
LINE
  5
B5BF
  8
ALPHA
 10
87.102566
 20
74.64521
 30
0.0
 11
87.145921
 21
74.62107
 31
0.0
  0
POLYLINE
  5
B5C0
  8
ALPHA
 66
     1
 10
0.0
 20
0.0
 30
0.0
  0
VERTEX
  5
BE72
  8
ALPHA
 10
87.287342
 20
76.73113
 30
0.0
  0
VERTEX
  5
BE73
  8
ALPHA
 10
87.210806
 20
76.745964
 30
0.0
  0
VERTEX
  5
BE74
  8
ALPHA
 10
87.145921
 20
76.788207
 30
0.0
  0
VERTEX
  5
BE75
  8
ALPHA
 10
87.102566
 20
76.851429
 30
0.0
  0
VERTEX
  5
BE76
  8
ALPHA
 10
87.087342
 20
76.926004
 30
0.0
  0
SEQEND
  5
BE77
  8
ALPHA
  0
POLYLINE
  5
B5C1
  8
ALPHA
 66
     1
 10
0.0
 20
0.0
 30
0.0
  0
VERTEX
  5
BE78
  8
ALPHA
 10
87.287342
 20
77.848862
 30
0.0
  0
VERTEX
  5
BE79
  8
ALPHA
 10
87.210806
 20
77.862304
 30
0.0
  0
VERTEX
  5
BE7A
  8
ALPHA
 10
87.145921
 20
77.900584
 30
0.0
  0
VERTEX
  5
BE7B
  8
ALPHA
 10
87.102566
 20
77.957874
 30
0.0
  0
VERTEX
  5
BE7C
  8
ALPHA
 10
87.087342
 20
78.025452
 30
0.0
  0
SEQEND
  5
BE7D
  8
ALPHA
  0
POLYLINE
  5
B5C2
  8
ALPHA
 66
     1
 10
0.0
 20
0.0
 30
0.0
  0
VERTEX
  5
BE7E
  8
ALPHA
 10
87.287342
 20
76.836513
 30
0.0
  0
VERTEX
  5
BE7F
  8
ALPHA
 10
87.22609
 20
76.845877
 30
0.0
  0
VERTEX
  5
BE80
  8
ALPHA
 10
87.170154
 20
76.87347
 30
0.0
  0
VERTEX
  5
BE81
  8
ALPHA
 10
87.125737
 20
76.916577
 30
0.0
  0
VERTEX
  5
BE82
  8
ALPHA
 10
87.097183
 20
76.971013
 30
0.0
  0
VERTEX
  5
BE83
  8
ALPHA
 10
87.087342
 20
77.031387
 30
0.0
  0
SEQEND
  5
BE84
  8
ALPHA
  0
POLYLINE
  5
B5C3
  8
ALPHA
 66
     1
 10
0.0
 20
0.0
 30
0.0
  0
VERTEX
  5
BE85
  8
ALPHA
 10
87.287342
 20
75.301923
 30
0.0
  0
VERTEX
  5
BE86
  8
ALPHA
 10
87.210804
 20
75.306119
 30
0.0
  0
VERTEX
  5
BE87
  8
ALPHA
 10
87.145919
 20
75.318069
 30
0.0
  0
VERTEX
  5
BE88
  8
ALPHA
 10
87.102566
 20
75.335953
 30
0.0
  0
VERTEX
  5
BE89
  8
ALPHA
 10
87.087342
 20
75.357047
 30
0.0
  0
SEQEND
  5
BE8A
  8
ALPHA
  0
POLYLINE
  5
B5C4
  8
ALPHA
 66
     1
 10
0.0
 20
0.0
 30
0.0
  0
VERTEX
  5
BE8B
  8
ALPHA
 10
87.287342
 20
75.443399
 30
0.0
  0
VERTEX
  5
BE8C
  8
ALPHA
 10
87.210809
 20
75.447082
 30
0.0
  0
VERTEX
  5
BE8D
  8
ALPHA
 10
87.145925
 20
75.45757
 30
0.0
  0
VERTEX
  5
BE8E
  8
ALPHA
 10
87.102568
 20
75.473268
 30
0.0
  0
VERTEX
  5
BE8F
  8
ALPHA
 10
87.087342
 20
75.491786
 30
0.0
  0
SEQEND
  5
BE90
  8
ALPHA
  0
POLYLINE
  5
B5C5
  8
ALPHA
 66
     1
 10
0.0
 20
0.0
 30
0.0
  0
VERTEX
  5
BE91
  8
ALPHA
 10
87.287342
 20
75.750038
 30
0.0
  0
VERTEX
  5
BE92
  8
ALPHA
 10
87.210806
 20
75.752199
 30
0.0
  0
VERTEX
  5
BE93
  8
ALPHA
 10
87.145921
 20
75.758351
 30
0.0
  0
VERTEX
  5
BE94
  8
ALPHA
 10
87.102566
 20
75.767558
 30
0.0
  0
VERTEX
  5
BE95
  8
ALPHA
 10
87.087342
 20
75.778418
 30
0.0
  0
SEQEND
  5
BE96
  8
ALPHA
  0
POLYLINE
  5
B5C6
  8
ALPHA
 66
     1
 10
0.0
 20
0.0
 30
0.0
  0
VERTEX
  5
BE97
  8
ALPHA
 10
87.287342
 20
78.068796
 30
0.0
  0
VERTEX
  5
BE98
  8
ALPHA
 10
87.22609
 20
78.077281
 30
0.0
  0
VERTEX
  5
BE99
  8
ALPHA
 10
87.170154
 20
78.102285
 30
0.0
  0
VERTEX
  5
BE9A
  8
ALPHA
 10
87.125737
 20
78.141348
 30
0.0
  0
VERTEX
  5
BE9B
  8
ALPHA
 10
87.097183
 20
78.190676
 30
0.0
  0
SEQEND
  5
BE9C
  8
ALPHA
  0
POLYLINE
  5
B5C7
  8
ALPHA
 66
     1
 10
0.0
 20
0.0
 30
0.0
  0
VERTEX
  5
BE9D
  8
ALPHA
 10
87.210805
 20
76.386568
 30
0.0
  0
VERTEX
  5
BE9E
  8
ALPHA
 10
87.145921
 20
76.387324
 30
0.0
  0
VERTEX
  5
BE9F
  8
ALPHA
 10
87.102566
 20
76.388455
 30
0.0
  0
VERTEX
  5
BEA0
  8
ALPHA
 10
87.087342
 20
76.38979
 30
0.0
  0
SEQEND
  5
BEA1
  8
ALPHA
  0
POLYLINE
  5
B5C8
  8
ALPHA
 66
     1
 10
0.0
 20
0.0
 30
0.0
  0
VERTEX
  5
BEA2
  8
ALPHA
 10
87.287342
 20
74.850275
 30
0.0
  0
VERTEX
  5
BEA3
  8
ALPHA
 10
87.225539
 20
74.841632
 30
0.0
  0
VERTEX
  5
BEA4
  8
ALPHA
 10
87.169785
 20
74.81655
 30
0.0
  0
VERTEX
  5
BEA5
  8
ALPHA
 10
87.125539
 20
74.777483
 30
0.0
  0
VERTEX
  5
BEA6
  8
ALPHA
 10
87.097131
 20
74.728255
 30
0.0
  0
SEQEND
  5
BEA7
  8
ALPHA
  0
POLYLINE
  5
B5C9
  8
ALPHA
 66
     1
 10
0.0
 20
0.0
 30
0.0
  0
VERTEX
  5
BEA8
  8
ALPHA
 10
87.287342
 20
77.055214
 30
0.0
  0
VERTEX
  5
BEA9
  8
ALPHA
 10
87.210806
 20
77.053401
 30
0.0
  0
VERTEX
  5
BEAA
  8
ALPHA
 10
87.145921
 20
77.048235
 30
0.0
  0
VERTEX
  5
BEAB
  8
ALPHA
 10
87.102566
 20
77.040505
 30
0.0
  0
VERTEX
  5
BEAC
  8
ALPHA
 10
87.087342
 20
77.031387
 30
0.0
  0
SEQEND
  5
BEAD
  8
ALPHA
  0
POLYLINE
  5
B5CA
  8
ALPHA
 66
     1
 10
0.0
 20
0.0
 30
0.0
  0
VERTEX
  5
BEAE
  8
ALPHA
 10
87.287342
 20
77.475672
 30
0.0
  0
VERTEX
  5
BEAF
  8
ALPHA
 10
87.210805
 20
77.471989
 30
0.0
  0
VERTEX
  5
BEB0
  8
ALPHA
 10
87.14592
 20
77.4615
 30
0.0
  0
VERTEX
  5
BEB1
  8
ALPHA
 10
87.102566
 20
77.445802
 30
0.0
  0
VERTEX
  5
BEB2
  8
ALPHA
 10
87.087342
 20
77.427285
 30
0.0
  0
SEQEND
  5
BEB3
  8
ALPHA
  0
POLYLINE
  5
B5CB
  8
ALPHA
 66
     1
 10
0.0
 20
0.0
 30
0.0
  0
VERTEX
  5
BEB4
  8
ALPHA
 10
87.287342
 20
76.082558
 30
0.0
  0
VERTEX
  5
BEB5
  8
ALPHA
 10
87.225539
 20
76.07302
 30
0.0
  0
VERTEX
  5
BEB6
  8
ALPHA
 10
87.169785
 20
76.04534
 30
0.0
  0
VERTEX
  5
BEB7
  8
ALPHA
 10
87.125539
 20
76.002228
 30
0.0
  0
VERTEX
  5
BEB8
  8
ALPHA
 10
87.097131
 20
75.947903
 30
0.0
  0
VERTEX
  5
BEB9
  8
ALPHA
 10
87.087342
 20
75.887684
 30
0.0
  0
SEQEND
  5
BEBA
  8
ALPHA
  0
POLYLINE
  5
B5CC
  8
ALPHA
 66
     1
 10
0.0
 20
0.0
 30
0.0
  0
VERTEX
  5
BEBB
  8
ALPHA
 10
87.287342
 20
75.070209
 30
0.0
  0
VERTEX
  5
BEBC
  8
ALPHA
 10
87.210807
 20
75.056767
 30
0.0
  0
VERTEX
  5
BEBD
  8
ALPHA
 10
87.145922
 20
75.018488
 30
0.0
  0
VERTEX
  5
BEBE
  8
ALPHA
 10
87.102567
 20
74.961199
 30
0.0
  0
VERTEX
  5
BEBF
  8
ALPHA
 10
87.087342
 20
74.893619
 30
0.0
  0
SEQEND
  5
BEC0
  8
ALPHA
  0
LINE
  5
B5CD
  8
ALPHA
 10
87.087342
 20
74.673686
 30
0.0
 11
87.102566
 21
74.64521
 31
0.0
  0
LINE
  5
B5CE
  8
ALPHA
 10
87.087342
 20
78.759536
 30
0.0
 11
86.907342
 21
78.759536
 31
0.0
  0
POLYLINE
  5
B5CF
  8
ALPHA
 66
     1
 10
0.0
 20
0.0
 30
0.0
  0
VERTEX
  5
BEC1
  8
ALPHA
 10
87.287342
 20
77.617148
 30
0.0
  0
VERTEX
  5
BEC2
  8
ALPHA
 10
87.210809
 20
77.612952
 30
0.0
  0
VERTEX
  5
BEC3
  8
ALPHA
 10
87.145925
 20
77.601004
 30
0.0
  0
VERTEX
  5
BEC4
  8
ALPHA
 10
87.102568
 20
77.58312
 30
0.0
  0
VERTEX
  5
BEC5
  8
ALPHA
 10
87.087342
 20
77.562024
 30
0.0
  0
SEQEND
  5
BEC6
  8
ALPHA
  0
POLYLINE
  5
B5D0
  8
ALPHA
 66
     1
 10
0.0
 20
0.0
 30
0.0
  0
VERTEX
  5
BEC7
  8
ALPHA
 10
87.287342
 20
78.319796
 30
0.0
  0
VERTEX
  5
BEC8
  8
ALPHA
 10
87.210806
 20
78.314131
 30
0.0
  0
VERTEX
  5
BEC9
  8
ALPHA
 10
87.145921
 20
78.298001
 30
0.0
  0
SEQEND
  5
BECA
  8
ALPHA
  0
POLYLINE
  5
B5D1
  8
ALPHA
 66
     1
 10
0.0
 20
0.0
 30
0.0
  0
VERTEX
  5
BECB
  8
ALPHA
 10
87.287342
 20
76.187941
 30
0.0
  0
VERTEX
  5
BECC
  8
ALPHA
 10
87.210808
 20
76.173108
 30
0.0
  0
VERTEX
  5
BECD
  8
ALPHA
 10
87.145923
 20
76.130866
 30
0.0
  0
VERTEX
  5
BECE
  8
ALPHA
 10
87.102567
 20
76.067644
 30
0.0
  0
VERTEX
  5
BECF
  8
ALPHA
 10
87.087342
 20
75.993067
 30
0.0
  0
SEQEND
  5
BED0
  8
ALPHA
  0
POLYLINE
  5
B5D2
  8
ALPHA
 66
     1
 10
0.0
 20
0.0
 30
0.0
  0
VERTEX
  5
BED1
  8
ALPHA
 10
87.287342
 20
78.622638
 30
0.0
  0
VERTEX
  5
BED2
  8
ALPHA
 10
87.210809
 20
78.614798
 30
0.0
  0
VERTEX
  5
BED3
  8
ALPHA
 10
87.145925
 20
78.592471
 30
0.0
  0
VERTEX
  5
BED4
  8
ALPHA
 10
87.102568
 20
78.559054
 30
0.0
  0
VERTEX
  5
BED5
  8
ALPHA
 10
87.087342
 20
78.519633
 30
0.0
  0
SEQEND
  5
BED6
  8
ALPHA
  0
POLYLINE
  5
B5D3
  8
ALPHA
 66
     1
 10
0.0
 20
0.0
 30
0.0
  0
VERTEX
  5
BED7
  8
ALPHA
 10
87.102566
 20
77.151513
 30
0.0
  0
VERTEX
  5
BED8
  8
ALPHA
 10
87.145921
 20
77.16072
 30
0.0
  0
VERTEX
  5
BED9
  8
ALPHA
 10
87.210806
 20
77.166872
 30
0.0
  0
VERTEX
  5
BEDA
  8
ALPHA
 10
87.287342
 20
77.169033
 30
0.0
  0
SEQEND
  5
BEDB
  8
ALPHA
  0
LINE
  5
B5D4
  8
ALPHA
 10
87.097183
 20
78.190676
 30
0.0
 11
87.087342
 21
78.245385
 31
0.0
  0
LINE
  5
B5D5
  8
ALPHA
 10
87.087342
 20
77.140653
 30
0.0
 11
87.102566
 21
77.151513
 31
0.0
  0
LINE
  5
B5D6
  8
ALPHA
 10
87.145921
 20
78.298001
 30
0.0
 11
87.102566
 21
78.273861
 31
0.0
  0
POLYLINE
  5
B5D7
  8
ALPHA
 66
     1
 10
0.0
 20
0.0
 30
0.0
  0
VERTEX
  5
BEDC
  8
ALPHA
 10
87.1159
 20
78.445611
 30
0.0
  0
VERTEX
  5
BEDD
  8
ALPHA
 10
87.102566
 20
78.435936
 30
0.0
  0
VERTEX
  5
BEDE
  8
ALPHA
 10
87.087342
 20
78.39883
 30
0.0
  0
SEQEND
  5
BEDF
  8
ALPHA
  0
LINE
  5
B5D8
  8
ALPHA
 10
87.097131
 20
74.728255
 30
0.0
 11
87.087342
 21
74.673686
 31
0.0
  0
LINE
  5
B5D9
  8
ALPHA
 10
87.102566
 20
78.273861
 30
0.0
 11
87.087342
 21
78.245385
 31
0.0
  0
POLYLINE
  5
B5DA
  8
ALPHA
 66
     1
 10
0.0
 20
0.0
 30
0.0
  0
VERTEX
  5
BEE0
  8
ALPHA
 10
87.087342
 20
78.347205
 30
0.0
  0
VERTEX
  5
BEE1
  8
ALPHA
 10
87.102566
 20
78.377304
 30
0.0
  0
VERTEX
  5
BEE2
  8
ALPHA
 10
87.145921
 20
78.402821
 30
0.0
  0
VERTEX
  5
BEE3
  8
ALPHA
 10
87.210806
 20
78.41987
 30
0.0
  0
VERTEX
  5
BEE4
  8
ALPHA
 10
87.287342
 20
78.425858
 30
0.0
  0
SEQEND
  5
BEE5
  8
ALPHA
  0
LINE
  5
B5DB
  8
ALPHA
 10
87.087342
 20
78.347205
 30
0.0
 11
87.287342
 21
78.547202
 31
0.0
  0
LINE
  5
B5DC
  8
ALPHA
 10
87.087342
 20
77.140653
 30
0.0
 11
87.287342
 21
77.340653
 31
0.0
  0
LINE
  5
B5DD
  8
ALPHA
 10
87.287342
 20
75.578418
 30
0.0
 11
87.087342
 21
75.778418
 31
0.0
  0
LINE
  5
B5DE
  8
ALPHA
 10
88.887342
 20
74.850275
 30
0.0
 11
87.287342
 21
74.850275
 31
0.0
  0
LINE
  5
B5DF
  8
ALPHA
 10
88.887342
 20
75.070209
 30
0.0
 11
87.287342
 21
75.070209
 31
0.0
  0
LINE
  5
B5E0
  8
ALPHA
 10
88.887342
 20
75.301923
 30
0.0
 11
87.287342
 21
75.301923
 31
0.0
  0
LINE
  5
B5E1
  8
ALPHA
 10
87.287342
 20
75.443399
 30
0.0
 11
88.887342
 21
75.443399
 31
0.0
  0
LINE
  5
B5E2
  8
ALPHA
 10
87.287342
 20
75.578418
 30
0.0
 11
88.887342
 21
75.578418
 31
0.0
  0
LINE
  5
B5E3
  8
ALPHA
 10
87.287342
 20
75.750038
 30
0.0
 11
88.887342
 21
75.750038
 31
0.0
  0
LINE
  5
B5E4
  8
ALPHA
 10
88.887342
 20
75.863857
 30
0.0
 11
87.287342
 21
75.863857
 31
0.0
  0
LINE
  5
B5E5
  8
ALPHA
 10
88.887342
 20
76.082558
 30
0.0
 11
87.287342
 21
76.082558
 31
0.0
  0
LINE
  5
B5E6
  8
ALPHA
 10
88.887342
 20
76.187941
 30
0.0
 11
87.287342
 21
76.187941
 31
0.0
  0
LINE
  5
B5E7
  8
ALPHA
 10
88.887342
 20
76.386302
 30
0.0
 11
87.210805
 21
76.386568
 31
0.0
  0
LINE
  5
B5E8
  8
ALPHA
 10
87.287342
 20
76.73113
 30
0.0
 11
88.887342
 21
76.73113
 31
0.0
  0
LINE
  5
B5E9
  8
ALPHA
 10
87.287342
 20
76.836513
 30
0.0
 11
88.887342
 21
76.836513
 31
0.0
  0
POLYLINE
  5
B5EA
  8
ALPHA
 66
     1
 10
0.0
 20
0.0
 30
0.0
  0
VERTEX
  5
BEE6
  8
ALPHA
 10
88.887342
 20
76.532769
 30
0.0
  0
VERTEX
  5
BEE7
  8
ALPHA
 10
87.210809
 20
76.532503
 30
0.0
  0
VERTEX
  5
BEE8
  8
ALPHA
 10
87.145925
 20
76.531748
 30
0.0
  0
VERTEX
  5
BEE9
  8
ALPHA
 10
87.102568
 20
76.530616
 30
0.0
  0
VERTEX
  5
BEEA
  8
ALPHA
 10
87.087342
 20
76.529282
 30
0.0
  0
SEQEND
  5
BEEB
  8
ALPHA
  0
LINE
  5
B5EB
  8
ALPHA
 10
87.287342
 20
77.055214
 30
0.0
 11
88.887342
 21
77.055214
 31
0.0
  0
LINE
  5
B5EC
  8
ALPHA
 10
88.887342
 20
77.169033
 30
0.0
 11
87.287342
 21
77.169033
 31
0.0
  0
LINE
  5
B5ED
  8
ALPHA
 10
88.887342
 20
77.340653
 30
0.0
 11
87.287342
 21
77.340653
 31
0.0
  0
LINE
  5
B5EE
  8
ALPHA
 10
88.887342
 20
77.475672
 30
0.0
 11
87.287342
 21
77.475672
 31
0.0
  0
LINE
  5
B5EF
  8
ALPHA
 10
87.287342
 20
77.617148
 30
0.0
 11
88.887342
 21
77.617148
 31
0.0
  0
LINE
  5
B5F0
  8
ALPHA
 10
87.287342
 20
77.848862
 30
0.0
 11
88.887342
 21
77.848862
 31
0.0
  0
LINE
  5
B5F1
  8
ALPHA
 10
87.287342
 20
78.068796
 30
0.0
 11
88.887342
 21
78.068796
 31
0.0
  0
LINE
  5
B5F2
  8
ALPHA
 10
87.287342
 20
78.319796
 30
0.0
 11
88.887342
 21
78.319796
 31
0.0
  0
LINE
  5
B5F3
  8
ALPHA
 10
88.887342
 20
78.425858
 30
0.0
 11
87.287342
 21
78.425858
 31
0.0
  0
LINE
  5
B5F4
  8
ALPHA
 10
88.887342
 20
78.547205
 30
0.0
 11
87.287342
 21
78.547205
 31
0.0
  0
LINE
  5
B5F5
  8
ALPHA
 10
87.287342
 20
78.622638
 30
0.0
 11
88.887342
 21
78.622638
 31
0.0
  0
LINE
  5
B5F6
  8
ALPHA
 10
87.087342
 20
75.778418
 30
0.0
 11
87.087342
 21
81.22535
 31
0.0
  0
LINE
  5
B5F7
  8
ALPHA
 10
86.907342
 20
80.159339
 30
0.0
 11
86.907342
 21
78.759536
 31
0.0
  0
TEXT
  5
B5FA
  8
COTATION1
 10
54.430311
 20
112.593199
 30
0.0
 40
2.5
  1
PLANE_TO_LINE_UP
 41
0.626087
  7
STANDARD
 72
     5
 11
78.430311
 21
112.593199
 31
0.0
  0
LINE
  5
B655
  8
COTATION1
 10
53.180311
 20
111.343199
 30
0.0
 11
79.680311
 21
111.343199
 31
0.0
  0
LINE
  5
B656
  8
COTATION1
 10
79.680311
 20
116.343199
 30
0.0
 11
53.180311
 21
116.343199
 31
0.0
  0
LINE
  5
B657
  8
COTATION1
 10
86.918715
 20
113.843199
 30
0.0
 11
79.680311
 21
113.843199
 31
0.0
  0
LINE
  5
B658
  8
COTATION1
 10
79.680311
 20
111.343199
 30
0.0
 11
79.680311
 21
116.343199
 31
0.0
  0
LINE
  5
B659
  8
COTATION1
 10
53.180311
 20
116.343199
 30
0.0
 11
53.180311
 21
111.343199
 31
0.0
  0
LINE
  5
B94C
  8
AXE
 10
82.056506
 20
76.459536
 30
0.0
 11
94.015188
 21
76.459536
 31
0.0
  0
LINE
  5
B94D
  8
ALPHA
 10
89.387342
 20
67.459536
 30
0.0
 11
89.387342
 21
85.459536
 31
0.0
  0
LINE
  5
BA74
  8
ALPHA
 10
114.687342
 20
21.959536
 30
0.0
 11
114.687342
 21
64.755418
 31
0.0
  0
LINE
  5
BA75
  8
ALPHA
 10
115.387342
 20
17.259536
 30
0.0
 11
115.387342
 21
66.959536
 31
0.0
  0
LINE
  5
BA76
  8
ALPHA
 10
99.387342
 20
17.259536
 30
0.0
 11
99.387342
 21
66.959536
 31
0.0
  0
LINE
  5
BA77
  8
ALPHA
 10
100.087342
 20
64.755418
 30
0.0
 11
100.087342
 21
21.959571
 31
0.0
  0
LINE
  5
BA7B
  8
ALPHA
 10
100.341964
 20
16.959536
 30
0.0
 11
99.687342
 21
16.959536
 31
0.0
  0
LINE
  5
BA7C
  8
ALPHA
 10
99.687342
 20
16.959536
 30
0.0
 11
99.852351
 21
19.408065
 31
0.0
  0
POLYLINE
  5
BA7D
  8
ALPHA
 66
     1
 10
0.0
 20
0.0
 30
0.0
 70
   128
210
0.0
220
0.0
230
-1.0
  0
VERTEX
  5
BEEC
  8
ALPHA
 10
-99.387342
 20
21.024513
 30
0.0
  0
VERTEX
  5
BEED
  8
ALPHA
 10
-99.58183
 20
21.608645
 30
0.0
  0
VERTEX
  5
BEEE
  8
ALPHA
 10
-100.087342
 20
21.959536
 30
0.0
  0
SEQEND
  5
BEEF
  8
ALPHA
  0
POLYLINE
  5
BA7E
  8
ALPHA
 66
     1
 10
0.0
 20
0.0
 30
0.0
 70
   128
  0
VERTEX
  5
BEF0
  8
ALPHA
 10
99.387342
 20
19.645356
 30
0.0
  0
VERTEX
  5
BEF1
  8
ALPHA
 10
99.582703
 20
19.467035
 30
0.0
  0
VERTEX
  5
BEF2
  8
ALPHA
 10
99.852351
 20
19.408065
 30
0.0
  0
SEQEND
  5
BEF3
  8
ALPHA
  0
LINE
  5
BA7F
  8
ALPHA
 10
99.387342
 20
21.024513
 30
0.0
 11
99.986857
 21
20.897127
 31
0.0
  0
ARC
  5
BA81
  8
ALPHA
 10
99.687342
 20
17.259536
 30
0.0
 40
0.3
 50
180.0
 51
270.0
  0
LINE
  5
BA82
  8
ALPHA
 10
112.037342
 20
21.409536
 30
0.0
 11
112.037342
 21
27.309536
 31
0.0
  0
LINE
  5
BA83
  8
ALPHA
 10
114.287342
 20
27.259536
 30
0.0
 11
114.287342
 21
16.959536
 31
0.0
  0
LINE
  5
BA84
  8
ALPHA
 10
114.432721
 20
16.959536
 30
0.0
 11
114.392404
 21
28.509536
 31
0.0
  0
LINE
  5
BA85
  8
ALPHA
 10
100.487342
 20
27.259536
 30
0.0
 11
100.487342
 21
16.959536
 31
0.0
  0
LINE
  5
BA86
  8
ALPHA
 10
102.737342
 20
27.309536
 30
0.0
 11
102.737342
 21
21.409536
 31
0.0
  0
LINE
  5
BA87
  8
ALPHA
 10
100.341964
 20
16.959536
 30
0.0
 11
100.382281
 21
28.509536
 31
0.0
  0
ARC
  5
BA88
  8
ALPHA
 10
107.387342
 20
17.630355
 30
0.0
 40
3.7
 50
180.0
 51
0.0
  0
POLYLINE
  5
BA89
  8
ALPHA
 66
     1
 10
0.0
 20
0.0
 30
0.0
  0
VERTEX
  5
BEF4
  8
ALPHA
 10
110.577617
 20
23.329067
 30
0.0
  0
VERTEX
  5
BEF5
  8
ALPHA
 10
110.340006
 20
23.600423
 30
0.0
  0
VERTEX
  5
BEF6
  8
ALPHA
 10
109.880016
 20
23.957218
 30
0.0
  0
VERTEX
  5
BEF7
  8
ALPHA
 10
109.335141
 20
24.248172
 30
0.0
  0
VERTEX
  5
BEF8
  8
ALPHA
 10
108.723937
 20
24.463376
 30
0.0
  0
VERTEX
  5
BEF9
  8
ALPHA
 10
108.067216
 20
24.595501
 30
0.0
  0
VERTEX
  5
BEFA
  8
ALPHA
 10
107.387342
 20
24.640048
 30
0.0
  0
SEQEND
  5
BEFB
  8
ALPHA
  0
ARC
  5
BA8A
  8
ALPHA
 10
107.387342
 20
21.459536
 30
0.0
 40
3.7
 50
0.0
 51
180.0
  0
POLYLINE
  5
BA8B
  8
ALPHA
 66
     1
 10
0.0
 20
0.0
 30
0.0
 70
   128
210
0.0
220
0.0
230
-1.0
  0
VERTEX
  5
BEFC
  8
ALPHA
 10
-107.387342
 20
21.901802
 30
0.0
  0
VERTEX
  5
BEFD
  8
ALPHA
 10
-108.097835
 20
21.836168
 30
0.0
  0
VERTEX
  5
BEFE
  8
ALPHA
 10
-108.783409
 20
21.636907
 30
0.0
  0
VERTEX
  5
BEFF
  8
ALPHA
 10
-109.419383
 20
21.313512
 30
0.0
  0
VERTEX
  5
BF00
  8
ALPHA
 10
-109.981703
 20
20.87422
 30
0.0
  0
VERTEX
  5
BF01
  8
ALPHA
 10
-110.447666
 20
20.333846
 30
0.0
  0
VERTEX
  5
BF02
  8
ALPHA
 10
-110.797176
 20
19.711772
 30
0.0
  0
VERTEX
  5
BF03
  8
ALPHA
 10
-111.014122
 20
19.031996
 30
0.0
  0
VERTEX
  5
BF04
  8
ALPHA
 10
-111.087336
 20
18.322526
 30
0.0
  0
SEQEND
  5
BF05
  8
ALPHA
  0
POLYLINE
  5
BA8C
  8
ALPHA
 66
     1
 10
0.0
 20
0.0
 30
0.0
 70
   128
210
0.0
220
0.0
230
-1.0
  0
VERTEX
  5
BF06
  8
ALPHA
 10
-111.087336
 20
18.322526
 30
0.0
  0
VERTEX
  5
BF07
  8
ALPHA
 10
-111.014137
 20
17.613203
 30
0.0
  0
VERTEX
  5
BF08
  8
ALPHA
 10
-110.797194
 20
16.933582
 30
0.0
  0
VERTEX
  5
BF09
  8
ALPHA
 10
-110.447631
 20
16.311709
 30
0.0
  0
VERTEX
  5
BF0A
  8
ALPHA
 10
-109.981577
 20
15.771611
 30
0.0
  0
VERTEX
  5
BF0B
  8
ALPHA
 10
-109.419179
 20
15.332658
 30
0.0
  0
VERTEX
  5
BF0C
  8
ALPHA
 10
-108.783195
 20
15.009609
 30
0.0
  0
VERTEX
  5
BF0D
  8
ALPHA
 10
-108.097697
 20
14.810609
 30
0.0
  0
VERTEX
  5
BF0E
  8
ALPHA
 10
-107.387342
 20
14.745072
 30
0.0
  0
SEQEND
  5
BF0F
  8
ALPHA
  0
ARC
  5
BA8D
  8
ALPHA
 10
107.387342
 20
21.459536
 30
0.0
 40
4.0
 50
0.0
 51
180.0
  0
POLYLINE
  5
BA8E
  8
ALPHA
 66
     1
 10
0.0
 20
0.0
 30
0.0
  0
VERTEX
  5
BF10
  8
ALPHA
 10
107.387342
 20
24.640048
 30
0.0
  0
VERTEX
  5
BF11
  8
ALPHA
 10
106.707469
 20
24.595501
 30
0.0
  0
VERTEX
  5
BF12
  8
ALPHA
 10
106.050748
 20
24.463376
 30
0.0
  0
VERTEX
  5
BF13
  8
ALPHA
 10
105.439543
 20
24.248172
 30
0.0
  0
VERTEX
  5
BF14
  8
ALPHA
 10
104.894668
 20
23.957218
 30
0.0
  0
VERTEX
  5
BF15
  8
ALPHA
 10
104.434679
 20
23.600423
 30
0.0
  0
VERTEX
  5
BF16
  8
ALPHA
 10
104.205211
 20
23.338367
 30
0.0
  0
SEQEND
  5
BF17
  8
ALPHA
  0
LINE
  5
BA8F
  8
ALPHA
 10
103.687342
 20
17.630355
 30
0.0
 11
103.687342
 21
17.286207
 31
0.0
  0
LINE
  5
BA90
  8
ALPHA
 10
103.687342
 20
17.631444
 30
0.0
 11
103.687342
 21
21.409536
 31
0.0
  0
LINE
  5
BA91
  8
ALPHA
 10
103.687342
 20
17.286207
 30
0.0
 11
103.710623
 21
17.259786
 31
0.0
  0
POLYLINE
  5
BA92
  8
ALPHA
 66
     1
 10
0.0
 20
0.0
 30
0.0
 70
   128
210
0.0
220
0.0
230
-1.0
  0
VERTEX
  5
BF18
  8
ALPHA
 10
-103.687348
 20
18.322526
 30
0.0
  0
VERTEX
  5
BF19
  8
ALPHA
 10
-103.760562
 20
19.031996
 30
0.0
  0
VERTEX
  5
BF1A
  8
ALPHA
 10
-103.977509
 20
19.711772
 30
0.0
  0
VERTEX
  5
BF1B
  8
ALPHA
 10
-104.327018
 20
20.333846
 30
0.0
  0
VERTEX
  5
BF1C
  8
ALPHA
 10
-104.792982
 20
20.87422
 30
0.0
  0
VERTEX
  5
BF1D
  8
ALPHA
 10
-105.355302
 20
21.313512
 30
0.0
  0
VERTEX
  5
BF1E
  8
ALPHA
 10
-105.991275
 20
21.636907
 30
0.0
  0
VERTEX
  5
BF1F
  8
ALPHA
 10
-106.67685
 20
21.836168
 30
0.0
  0
VERTEX
  5
BF20
  8
ALPHA
 10
-107.387342
 20
21.901802
 30
0.0
  0
SEQEND
  5
BF21
  8
ALPHA
  0
POLYLINE
  5
BA93
  8
ALPHA
 66
     1
 10
0.0
 20
0.0
 30
0.0
 70
   128
210
0.0
220
0.0
230
-1.0
  0
VERTEX
  5
BF22
  8
ALPHA
 10
-107.387342
 20
14.745072
 30
0.0
  0
VERTEX
  5
BF23
  8
ALPHA
 10
-106.676988
 20
14.810609
 30
0.0
  0
VERTEX
  5
BF24
  8
ALPHA
 10
-105.99149
 20
15.009609
 30
0.0
  0
VERTEX
  5
BF25
  8
ALPHA
 10
-105.355506
 20
15.332658
 30
0.0
  0
VERTEX
  5
BF26
  8
ALPHA
 10
-104.793108
 20
15.771611
 30
0.0
  0
VERTEX
  5
BF27
  8
ALPHA
 10
-104.327053
 20
16.311709
 30
0.0
  0
VERTEX
  5
BF28
  8
ALPHA
 10
-103.977491
 20
16.933582
 30
0.0
  0
VERTEX
  5
BF29
  8
ALPHA
 10
-103.760547
 20
17.613203
 30
0.0
  0
VERTEX
  5
BF2A
  8
ALPHA
 10
-103.687348
 20
18.322526
 30
0.0
  0
SEQEND
  5
BF2B
  8
ALPHA
  0
LINE
  5
BA94
  8
ALPHA
 10
102.887342
 20
21.409536
 30
0.0
 11
102.887342
 21
21.459536
 31
0.0
  0
LINE
  5
BA95
  8
ALPHA
 10
103.387342
 20
21.409536
 30
0.0
 11
103.387342
 21
16.987909
 31
0.0
  0
LINE
  5
BA96
  8
ALPHA
 10
103.387342
 20
16.987909
 30
0.0
 11
103.418715
 21
16.959536
 31
0.0
  0
LINE
  5
BA97
  8
ALPHA
 10
100.347374
 20
18.509536
 30
0.0
 11
100.487342
 21
18.509536
 31
0.0
  0
LINE
  5
BA98
  8
ALPHA
 10
100.359417
 20
21.959536
 30
0.0
 11
100.087342
 21
21.959571
 31
0.0
  0
LINE
  5
BA99
  8
ALPHA
 10
99.852351
 20
19.408065
 30
0.0
 11
99.986857
 21
20.897127
 31
0.0
  0
LINE
  5
BA9A
  8
ALPHA
 10
99.986857
 20
20.897127
 30
0.0
 11
100.087344
 21
21.959571
 31
0.0
  0
LINE
  5
BA9B
  8
ALPHA
 10
100.487342
 20
21.959536
 30
0.0
 11
102.737342
 21
21.959536
 31
0.0
  0
LINE
  5
BA9C
  8
ALPHA
 10
100.487342
 20
16.959536
 30
0.0
 11
103.760933
 21
16.959536
 31
0.0
  0
LINE
  5
BA9D
  8
ALPHA
 10
102.737342
 20
21.409536
 30
0.0
 11
103.687342
 21
21.409536
 31
0.0
  0
LINE
  5
BA9E
  8
ALPHA
 10
102.737342
 20
21.459536
 30
0.0
 11
103.687342
 21
21.459536
 31
0.0
  0
POLYLINE
  5
BA9F
  8
ALPHA
 66
     1
 10
0.0
 20
0.0
 30
0.0
 70
   128
210
0.0
220
0.0
230
-1.0
  0
VERTEX
  5
BF2C
  8
ALPHA
 10
-103.687342
 20
17.286207
 30
0.0
  0
VERTEX
  5
BF2D
  8
ALPHA
 10
-103.599064
 20
17.075077
 30
0.0
  0
VERTEX
  5
BF2E
  8
ALPHA
 10
-103.387342
 20
16.987909
 30
0.0
  0
SEQEND
  5
BF2F
  8
ALPHA
  0
POLYLINE
  5
BAA0
  8
ALPHA
 66
     1
 10
0.0
 20
0.0
 30
0.0
 70
   128
210
0.0
220
0.0
230
-1.0
  0
VERTEX
  5
BF30
  8
ALPHA
 10
-103.715875
 20
17.242467
 30
0.0
  0
VERTEX
  5
BF31
  8
ALPHA
 10
-103.623471
 20
17.041988
 30
0.0
  0
VERTEX
  5
BF32
  8
ALPHA
 10
-103.418715
 20
16.959536
 30
0.0
  0
SEQEND
  5
BF33
  8
ALPHA
  0
LINE
  5
BAA1
  8
ALPHA
 10
115.087342
 20
16.959536
 30
0.0
 11
114.432721
 21
16.959536
 31
0.0
  0
LINE
  5
BAA2
  8
ALPHA
 10
114.287342
 20
18.509536
 30
0.0
 11
114.427311
 21
18.509536
 31
0.0
  0
LINE
  5
BAA3
  8
ALPHA
 10
114.687342
 20
21.959536
 30
0.0
 11
114.415268
 21
21.959536
 31
0.0
  0
ARC
  5
BAA4
  8
ALPHA
 10
115.087342
 20
17.259536
 30
0.0
 40
0.3
 50
270.0
 51
0.0
  0
LINE
  5
BAA5
  8
ALPHA
 10
114.787869
 20
20.896915
 30
0.0
 11
114.922334
 21
19.408065
 31
0.0
  0
LINE
  5
BAA6
  8
ALPHA
 10
115.387342
 20
21.024317
 30
0.0
 11
114.787869
 21
20.896915
 31
0.0
  0
LINE
  5
BAA7
  8
ALPHA
 10
114.922334
 20
19.408065
 30
0.0
 11
115.087342
 21
16.959536
 31
0.0
  0
POLYLINE
  5
BAA8
  8
ALPHA
 66
     1
 10
0.0
 20
0.0
 30
0.0
 70
   128
210
0.0
220
0.0
230
-1.0
  0
VERTEX
  5
BF34
  8
ALPHA
 10
-115.387342
 20
19.645356
 30
0.0
  0
VERTEX
  5
BF35
  8
ALPHA
 10
-115.191989
 20
19.467022
 30
0.0
  0
VERTEX
  5
BF36
  8
ALPHA
 10
-114.922334
 20
19.408065
 30
0.0
  0
SEQEND
  5
BF37
  8
ALPHA
  0
POLYLINE
  5
BAA9
  8
ALPHA
 66
     1
 10
0.0
 20
0.0
 30
0.0
 70
   128
210
0.0
220
0.0
230
-1.0
  0
VERTEX
  5
BF38
  8
ALPHA
 10
-114.687342
 20
21.959536
 30
0.0
  0
VERTEX
  5
BF39
  8
ALPHA
 10
-115.192907
 20
21.608567
 30
0.0
  0
VERTEX
  5
BF3A
  8
ALPHA
 10
-115.387342
 20
21.024317
 30
0.0
  0
SEQEND
  5
BF3B
  8
ALPHA
  0
LINE
  5
BAAA
  8
ALPHA
 10
114.687342
 20
21.959536
 30
0.0
 11
114.787869
 21
20.896915
 31
0.0
  0
LINE
  5
BAAB
  8
ALPHA
 10
111.887342
 20
21.409536
 30
0.0
 11
111.887342
 21
21.459536
 31
0.0
  0
LINE
  5
BAAC
  8
ALPHA
 10
112.037342
 20
21.959536
 30
0.0
 11
114.287342
 21
21.959536
 31
0.0
  0
LINE
  5
BAAD
  8
ALPHA
 10
111.087342
 20
17.630355
 30
0.0
 11
111.087342
 21
17.286207
 31
0.0
  0
LINE
  5
BAAE
  8
ALPHA
 10
111.087342
 20
17.631444
 30
0.0
 11
111.087342
 21
21.409536
 31
0.0
  0
LINE
  5
BAAF
  8
ALPHA
 10
111.387342
 20
21.409536
 30
0.0
 11
111.387342
 21
16.987909
 31
0.0
  0
POLYLINE
  5
BAB0
  8
ALPHA
 66
     1
 10
0.0
 20
0.0
 30
0.0
 70
   128
210
0.0
220
0.0
230
-1.0
  0
VERTEX
  5
BF3C
  8
ALPHA
 10
-111.355969
 20
16.959536
 30
0.0
  0
VERTEX
  5
BF3D
  8
ALPHA
 10
-111.151214
 20
17.041988
 30
0.0
  0
VERTEX
  5
BF3E
  8
ALPHA
 10
-111.05881
 20
17.242467
 30
0.0
  0
SEQEND
  5
BF3F
  8
ALPHA
  0
LINE
  5
BAB1
  8
ALPHA
 10
111.355969
 20
16.959536
 30
0.0
 11
111.387342
 21
16.987909
 31
0.0
  0
POLYLINE
  5
BAB2
  8
ALPHA
 66
     1
 10
0.0
 20
0.0
 30
0.0
 70
   128
  0
VERTEX
  5
BF40
  8
ALPHA
 10
111.087342
 20
17.286207
 30
0.0
  0
VERTEX
  5
BF41
  8
ALPHA
 10
111.175621
 20
17.075077
 30
0.0
  0
VERTEX
  5
BF42
  8
ALPHA
 10
111.387342
 20
16.987909
 30
0.0
  0
SEQEND
  5
BF43
  8
ALPHA
  0
LINE
  5
BAB3
  8
ALPHA
 10
111.064061
 20
17.259786
 30
0.0
 11
111.087342
 21
17.286207
 31
0.0
  0
LINE
  5
BAB4
  8
ALPHA
 10
111.013751
 20
16.959536
 30
0.0
 11
114.287342
 21
16.959536
 31
0.0
  0
LINE
  5
BAB5
  8
ALPHA
 10
111.087342
 20
21.409536
 30
0.0
 11
112.037342
 21
21.409536
 31
0.0
  0
LINE
  5
BAB6
  8
ALPHA
 10
111.087342
 20
21.459536
 30
0.0
 11
112.037342
 21
21.459536
 31
0.0
  0
LINE
  5
BAB7
  8
ALPHA
 10
114.287342
 20
28.409536
 30
0.0
 11
100.487342
 21
28.409536
 31
0.0
  0
LINE
  5
BAB8
  8
ALPHA
 10
114.392404
 20
28.509536
 30
0.0
 11
100.382281
 21
28.509536
 31
0.0
  0
LINE
  5
BAB9
  8
ALPHA
 10
102.037342
 20
28.409536
 30
0.0
 11
102.037342
 21
28.509536
 31
0.0
  0
LINE
  5
BABA
  8
ALPHA
 10
100.487342
 20
27.959536
 30
0.0
 11
100.387342
 21
27.959536
 31
0.0
  0
LINE
  5
BABB
  8
ALPHA
 10
101.287342
 20
27.309536
 30
0.0
 11
101.287342
 21
27.259536
 31
0.0
  0
LINE
  5
BABC
  8
ALPHA
 10
102.737342
 20
27.259536
 30
0.0
 11
100.487342
 21
27.259536
 31
0.0
  0
LINE
  5
BABD
  8
ALPHA
 10
100.487342
 20
27.309536
 30
0.0
 11
102.737342
 21
27.309536
 31
0.0
  0
LINE
  5
BABE
  8
ALPHA
 10
100.487342
 20
28.409536
 30
0.0
 11
100.487342
 21
27.309536
 31
0.0
  0
LINE
  5
BABF
  8
ALPHA
 10
114.387342
 20
27.959536
 30
0.0
 11
114.287342
 21
27.959536
 31
0.0
  0
LINE
  5
BAC0
  8
ALPHA
 10
114.387342
 20
28.509536
 30
0.0
 11
114.387342
 21
27.959536
 31
0.0
  0
LINE
  5
BAC1
  8
ALPHA
 10
112.737342
 20
28.409536
 30
0.0
 11
112.737342
 21
28.509536
 31
0.0
  0
LINE
  5
BAC2
  8
ALPHA
 10
113.487342
 20
27.309536
 30
0.0
 11
113.487342
 21
27.259536
 31
0.0
  0
LINE
  5
BAC3
  8
ALPHA
 10
114.287342
 20
27.259536
 30
0.0
 11
112.037342
 21
27.259536
 31
0.0
  0
LINE
  5
BAC4
  8
ALPHA
 10
112.037342
 20
27.309536
 30
0.0
 11
114.287342
 21
27.309536
 31
0.0
  0
LINE
  5
BAC5
  8
ALPHA
 10
114.287342
 20
27.309536
 30
0.0
 11
114.287342
 21
28.409536
 31
0.0
  0
LINE
  5
BAC6
  8
ALPHA
 10
100.087342
 20
64.755418
 30
0.0
 11
99.535517
 21
64.950031
 31
0.0
  0
LINE
  5
BAC7
  8
ALPHA
 10
100.087342
 20
64.755418
 30
0.0
 11
99.772013
 21
65.241951
 31
0.0
  0
LINE
  5
BAC8
  8
ALPHA
 10
101.595402
 20
66.70891
 30
0.0
 11
99.687342
 21
66.91238
 31
0.0
  0
LINE
  5
BAC9
  8
ALPHA
 10
115.002671
 20
65.241951
 30
0.0
 11
99.772013
 21
65.241951
 31
0.0
  0
LINE
  5
BACA
  8
ALPHA
 10
115.387124
 20
66.959536
 30
0.0
 11
99.38756
 21
66.959536
 31
0.0
  0
LINE
  5
BACC
  8
ALPHA
 10
98.987342
 20
60.899026
 30
0.0
 11
98.987342
 21
65.681555
 31
0.0
  0
LINE
  5
BACD
  8
ALPHA
 10
99.287342
 20
60.899026
 30
0.0
 11
99.287342
 21
65.681555
 31
0.0
  0
POLYLINE
  5
BACE
  8
ALPHA
 66
     1
 10
0.0
 20
0.0
 30
0.0
  0
VERTEX
  5
BF44
  8
ALPHA
 10
98.987342
 20
60.899026
 30
0.0
  0
VERTEX
  5
BF45
  8
ALPHA
 10
99.000992
 20
60.798956
 30
0.0
  0
VERTEX
  5
BF46
  8
ALPHA
 10
99.040894
 20
60.705905
 30
0.0
  0
VERTEX
  5
BF47
  8
ALPHA
 10
99.1045
 20
60.625821
 30
0.0
  0
VERTEX
  5
BF48
  8
ALPHA
 10
99.187408
 20
60.564383
 30
0.0
  0
VERTEX
  5
BF49
  8
ALPHA
 10
99.283742
 20
60.52584
 30
0.0
  0
VERTEX
  5
BF4A
  8
ALPHA
 10
99.387342
 20
60.512656
 30
0.0
  0
SEQEND
  5
BF4B
  8
ALPHA
  0
POLYLINE
  5
BACF
  8
ALPHA
 66
     1
 10
0.0
 20
0.0
 30
0.0
  0
VERTEX
  5
BF4C
  8
ALPHA
 10
99.387342
 20
60.802434
 30
0.0
  0
VERTEX
  5
BF4D
  8
ALPHA
 10
99.356417
 20
60.807169
 30
0.0
  0
VERTEX
  5
BF4E
  8
ALPHA
 10
99.328554
 20
60.820888
 30
0.0
  0
VERTEX
  5
BF4F
  8
ALPHA
 10
99.306448
 20
60.842241
 30
0.0
  0
VERTEX
  5
BF50
  8
ALPHA
 10
99.292244
 20
60.869155
 30
0.0
  0
VERTEX
  5
BF51
  8
ALPHA
 10
99.287342
 20
60.899026
 30
0.0
  0
SEQEND
  5
BF52
  8
ALPHA
  0
LINE
  5
BAD0
  8
ALPHA
 10
99.387301
 20
57.766177
 30
0.0
 11
99.394425
 21
56.959535
 31
0.0
  0
LINE
  5
BAD1
  8
ALPHA
 10
99.387342
 20
57.766149
 30
0.0
 11
99.399757
 21
56.959536
 31
0.0
  0
LINE
  5
BAD2
  8
ALPHA
 10
99.394415
 20
56.959535
 30
0.0
 11
99.387298
 21
56.152896
 31
0.0
  0
LINE
  5
BAD3
  8
ALPHA
 10
99.399757
 20
56.959536
 30
0.0
 11
99.387342
 21
56.152922
 31
0.0
  0
LINE
  5
BAD4
  8
ALPHA
 10
99.687342
 20
65.300009
 30
0.0
 11
99.687342
 21
66.91238
 31
0.0
  0
LINE
  5
BAD5
  8
ALPHA
 10
99.687342
 20
65.300009
 30
0.0
 11
99.772013
 21
65.241951
 31
0.0
  0
POLYLINE
  5
BAD6
  8
ALPHA
 66
     1
 10
0.0
 20
0.0
 30
0.0
 70
   128
210
0.0
220
0.0
230
-1.0
  0
VERTEX
  5
BF53
  8
ALPHA
 10
-99.535517
 20
64.950031
 30
0.0
  0
VERTEX
  5
BF54
  8
ALPHA
 10
-99.608306
 20
65.133977
 30
0.0
  0
VERTEX
  5
BF55
  8
ALPHA
 10
-99.772013
 20
65.241951
 30
0.0
  0
SEQEND
  5
BF56
  8
ALPHA
  0
LINE
  5
BAD7
  8
ALPHA
 10
99.287342
 20
65.125384
 30
0.0
 11
98.987342
 21
65.125384
 31
0.0
  0
LINE
  5
BAD8
  8
ALPHA
 10
99.287342
 20
65.254794
 30
0.0
 11
98.987342
 21
65.254794
 31
0.0
  0
POLYLINE
  5
BAD9
  8
ALPHA
 66
     1
 10
0.0
 20
0.0
 30
0.0
 70
   128
210
0.0
220
0.0
230
-1.0
  0
VERTEX
  5
BF57
  8
ALPHA
 10
-98.987342
 20
65.681555
 30
0.0
  0
VERTEX
  5
BF58
  8
ALPHA
 10
-99.103971
 20
65.965988
 30
0.0
  0
VERTEX
  5
BF59
  8
ALPHA
 10
-99.387342
 20
66.084558
 30
0.0
  0
SEQEND
  5
BF5A
  8
ALPHA
  0
LINE
  5
BADA
  8
ALPHA
 10
99.287342
 20
65.343423
 30
0.0
 11
99.378688
 21
65.447207
 31
0.0
  0
LINE
  5
BADB
  8
ALPHA
 10
99.378688
 20
65.447207
 30
0.0
 11
99.387342
 21
65.447602
 31
0.0
  0
LINE
  5
BADC
  8
ALPHA
 10
99.287342
 20
65.681555
 30
0.0
 11
99.387342
 21
65.782305
 31
0.0
  0
LINE
  5
BADD
  8
ALPHA
 10
99.387342
 20
66.649536
 30
0.0
 11
99.48045
 21
66.854941
 31
0.0
  0
LINE
  5
BADE
  8
ALPHA
 10
99.387342
 20
65.007814
 30
0.0
 11
99.535517
 21
64.950031
 31
0.0
  0
LINE
  5
BADF
  8
ALPHA
 10
99.48045
 20
66.854941
 30
0.0
 11
99.687342
 21
66.91238
 31
0.0
  0
POLYLINE
  5
BAE0
  8
ALPHA
 66
     1
 10
0.0
 20
0.0
 30
0.0
 70
   128
210
0.0
220
0.0
230
-1.0
  0
VERTEX
  5
BF5B
  8
ALPHA
 10
-99.387342
 20
65.007814
 30
0.0
  0
VERTEX
  5
BF5C
  8
ALPHA
 10
-99.476666
 20
65.215835
 30
0.0
  0
VERTEX
  5
BF5D
  8
ALPHA
 10
-99.687342
 20
65.300009
 30
0.0
  0
SEQEND
  5
BF5E
  8
ALPHA
  0
POLYLINE
  5
BAE1
  8
ALPHA
 66
     1
 10
0.0
 20
0.0
 30
0.0
  0
VERTEX
  5
BF5F
  8
ALPHA
 10
99.387342
 20
61.501245
 30
0.0
  0
VERTEX
  5
BF60
  8
ALPHA
 10
99.356417
 20
61.50598
 30
0.0
  0
VERTEX
  5
BF61
  8
ALPHA
 10
99.328554
 20
61.5197
 30
0.0
  0
VERTEX
  5
BF62
  8
ALPHA
 10
99.306448
 20
61.541052
 30
0.0
  0
VERTEX
  5
BF63
  8
ALPHA
 10
99.292244
 20
61.567967
 30
0.0
  0
VERTEX
  5
BF64
  8
ALPHA
 10
99.287342
 20
61.597838
 30
0.0
  0
SEQEND
  5
BF65
  8
ALPHA
  0
LINE
  5
BAE2
  8
ALPHA
 10
115.380258
 20
56.959536
 30
0.0
 11
115.38739
 21
57.766176
 31
0.0
  0
LINE
  5
BAE3
  8
ALPHA
 10
115.374928
 20
56.959536
 30
0.0
 11
115.387342
 21
57.766149
 31
0.0
  0
LINE
  5
BAE4
  8
ALPHA
 10
115.387385
 20
56.152894
 30
0.0
 11
115.38027
 21
56.959536
 31
0.0
  0
LINE
  5
BAE5
  8
ALPHA
 10
115.387342
 20
56.152922
 30
0.0
 11
115.374928
 21
56.959536
 31
0.0
  0
LINE
  5
BAE6
  8
ALPHA
 10
112.007923
 20
66.61228
 30
0.0
 11
107.387342
 21
66.442778
 31
0.0
  0
LINE
  5
BAE7
  8
ALPHA
 10
114.687342
 20
64.755418
 30
0.0
 11
100.087342
 21
64.755418
 31
0.0
  0
LINE
  5
BAE8
  8
ALPHA
 10
102.766761
 20
66.61228
 30
0.0
 11
101.628971
 21
66.70584
 31
0.0
  0
LINE
  5
BAE9
  8
ALPHA
 10
101.628971
 20
66.70584
 30
0.0
 11
101.595402
 21
66.70891
 31
0.0
  0
LINE
  5
BAEA
  8
ALPHA
 10
107.387342
 20
66.442778
 30
0.0
 11
102.766761
 21
66.61228
 31
0.0
  0
LINE
  5
BAEB
  8
ALPHA
 10
115.087342
 20
65.300009
 30
0.0
 11
115.087342
 21
66.91238
 31
0.0
  0
LINE
  5
BAEC
  8
ALPHA
 10
115.387342
 20
65.007814
 30
0.0
 11
115.239168
 21
64.950031
 31
0.0
  0
LINE
  5
BAED
  8
ALPHA
 10
115.387342
 20
66.649536
 30
0.0
 11
115.294235
 21
66.854941
 31
0.0
  0
LINE
  5
BAEE
  8
ALPHA
 10
115.294235
 20
66.854941
 30
0.0
 11
115.087342
 21
66.91238
 31
0.0
  0
LINE
  5
BAEF
  8
ALPHA
 10
115.087342
 20
65.300009
 30
0.0
 11
115.002671
 21
65.241951
 31
0.0
  0
POLYLINE
  5
BAF0
  8
ALPHA
 66
     1
 10
0.0
 20
0.0
 30
0.0
 70
   128
  0
VERTEX
  5
BF66
  8
ALPHA
 10
115.387342
 20
65.007814
 30
0.0
  0
VERTEX
  5
BF67
  8
ALPHA
 10
115.298019
 20
65.215835
 30
0.0
  0
VERTEX
  5
BF68
  8
ALPHA
 10
115.087342
 20
65.300009
 30
0.0
  0
SEQEND
  5
BF69
  8
ALPHA
  0
LINE
  5
BAF1
  8
ALPHA
 10
115.239168
 20
64.950031
 30
0.0
 11
114.687342
 21
64.755418
 31
0.0
  0
LINE
  5
BAF2
  8
ALPHA
 10
115.002671
 20
65.241951
 30
0.0
 11
114.687342
 21
64.755418
 31
0.0
  0
POLYLINE
  5
BAF3
  8
ALPHA
 66
     1
 10
0.0
 20
0.0
 30
0.0
 70
   128
  0
VERTEX
  5
BF6A
  8
ALPHA
 10
115.239168
 20
64.950031
 30
0.0
  0
VERTEX
  5
BF6B
  8
ALPHA
 10
115.166379
 20
65.133977
 30
0.0
  0
VERTEX
  5
BF6C
  8
ALPHA
 10
115.002671
 20
65.241951
 30
0.0
  0
SEQEND
  5
BF6D
  8
ALPHA
  0
LINE
  5
BAF4
  8
ALPHA
 10
113.179201
 20
66.708902
 30
0.0
 11
113.145714
 21
66.70584
 31
0.0
  0
LINE
  5
BAF5
  8
ALPHA
 10
113.145714
 20
66.70584
 30
0.0
 11
112.007923
 21
66.61228
 31
0.0
  0
LINE
  5
BAF6
  8
ALPHA
 10
115.087342
 20
66.91238
 30
0.0
 11
113.179201
 21
66.708902
 31
0.0
  0
LINE
  5
BB0C
  8
AXE
 10
107.387342
 20
3.130355
 30
0.0
 11
107.387342
 21
90.459536
 31
0.0
  0
TEXT
  5
BB0D
  8
AXE
 10
102.339723
 20
3.130355
 30
0.0
 40
5.0
  1
Y
 72
     2
 11
106.387342
 21
3.130355
 31
0.0
  0
LINE
  5
BB17
  8
AXE
 10
94.387342
 20
43.357494
 30
0.0
 11
125.687342
 21
43.357494
 31
0.0
  0
TEXT
  5
BB18
  8
AXE
 10
121.639723
 20
44.357494
 30
0.0
 40
5.0
  1
Z
 72
     2
 11
125.687342
 21
44.357494
 31
0.0
  0
ENDSEC
  0
EOF
