  0
SECTION
  2
HEADER
  9
$ACADVER
  1
AC1009
  9
$INSBASE
 10
-146.27124
 20
-153.796096
 30
0.0
  9
$EXTMIN
 10
1496.015339
 20
85.190673
 30
0.0
  9
$EXTMAX
 10
1581.501795
 20
240.79452
 30
0.0
  9
$LIMMIN
 10
-407.970438
 20
-367.832444
  9
$LIMMAX
 10
429.804077
 20
234.370848
  9
$ORTHOMODE
 70
     1
  9
$REGENMODE
 70
     1
  9
$FILLMODE
 70
     1
  9
$QTEXTMODE
 70
     0
  9
$MIRRTEXT
 70
     1
  9
$DRAGMODE
 70
     2
  9
$LTSCALE
 40
10.0
  9
$OSMODE
 70
    33
  9
$ATTMODE
 70
     1
  9
$TEXTSIZE
 40
6.0
  9
$TRACEWID
 40
1.0
  9
$TEXTSTYLE
  7
ROMANS
  9
$CLAYER
  8
ALPHA
  9
$CELTYPE
  6
BYLAYER
  9
$CECOLOR
 62
   256
  9
$DIMSCALE
 40
1.0
  9
$DIMASZ
 40
3.0
  9
$DIMEXO
 40
1.0
  9
$DIMDLI
 40
0.1
  9
$DIMRND
 40
0.0
  9
$DIMDLE
 40
0.0
  9
$DIMEXE
 40
0.5
  9
$DIMTP
 40
0.0
  9
$DIMTM
 40
0.0
  9
$DIMTXT
 40
3.0
  9
$DIMCEN
 40
0.0
  9
$DIMTSZ
 40
0.0
  9
$DIMTOL
 70
     0
  9
$DIMLIM
 70
     0
  9
$DIMTIH
 70
     0
  9
$DIMTOH
 70
     0
  9
$DIMSE1
 70
     0
  9
$DIMSE2
 70
     0
  9
$DIMTAD
 70
     1
  9
$DIMZIN
 70
    12
  9
$DIMBLK
  1
OPEN30
  9
$DIMASO
 70
     1
  9
$DIMSHO
 70
     1
  9
$DIMPOST
  1

  9
$DIMAPOST
  1

  9
$DIMALT
 70
     0
  9
$DIMALTD
 70
     2
  9
$DIMALTF
 40
25.4
  9
$DIMLFAC
 40
1.0
  9
$DIMTOFL
 70
     0
  9
$DIMTVP
 40
0.0
  9
$DIMTIX
 70
     0
  9
$DIMSOXD
 70
     0
  9
$DIMSAH
 70
     0
  9
$DIMBLK1
  1

  9
$DIMBLK2
  1

  9
$DIMSTYLE
  2
SC_DEFAUT
  9
$DIMCLRD
 70
     0
  9
$DIMCLRE
 70
     0
  9
$DIMCLRT
 70
     0
  9
$DIMTFAC
 40
1.0
  9
$DIMGAP
 40
0.6
  9
$LUNITS
 70
     2
  9
$LUPREC
 70
     1
  9
$SKETCHINC
 40
0.1
  9
$FILLETRAD
 40
0.0
  9
$AUNITS
 70
     0
  9
$AUPREC
 70
     0
  9
$MENU
  1
acad
  9
$ELEVATION
 40
0.0
  9
$PELEVATION
 40
0.0
  9
$THICKNESS
 40
0.0
  9
$LIMCHECK
 70
     0
  9
$BLIPMODE
 70
     0
  9
$CHAMFERA
 40
0.0
  9
$CHAMFERB
 40
0.0
  9
$SKPOLY
 70
     0
  9
$TDCREATE
 40
2450365.355314
  9
$TDUPDATE
 40
2452576.591534
  9
$TDINDWG
 40
0.952219
  9
$TDUSRTIMER
 40
0.952219
  9
$USRTIMER
 70
     1
  9
$ANGBASE
 50
0.0
  9
$ANGDIR
 70
     0
  9
$PDMODE
 70
    32
  9
$PDSIZE
 40
0.0
  9
$PLINEWID
 40
0.0
  9
$COORDS
 70
     2
  9
$SPLFRAME
 70
     0
  9
$SPLINETYPE
 70
     6
  9
$SPLINESEGS
 70
     8
  9
$ATTDIA
 70
     0
  9
$ATTREQ
 70
     1
  9
$HANDLING
 70
     1
  9
$HANDSEED
  5
6456
  9
$SURFTAB1
 70
     6
  9
$SURFTAB2
 70
     6
  9
$SURFTYPE
 70
     6
  9
$SURFU
 70
     6
  9
$SURFV
 70
     6
  9
$UCSNAME
  2

  9
$UCSORG
 10
0.0
 20
0.0
 30
0.0
  9
$UCSXDIR
 10
1.0
 20
0.0
 30
0.0
  9
$UCSYDIR
 10
0.0
 20
1.0
 30
0.0
  9
$PUCSNAME
  2

  9
$PUCSORG
 10
0.0
 20
0.0
 30
0.0
  9
$PUCSXDIR
 10
1.0
 20
0.0
 30
0.0
  9
$PUCSYDIR
 10
0.0
 20
1.0
 30
0.0
  9
$USERI1
 70
     0
  9
$USERI2
 70
     0
  9
$USERI3
 70
     0
  9
$USERI4
 70
     0
  9
$USERI5
 70
     0
  9
$USERR1
 40
0.0
  9
$USERR2
 40
0.0
  9
$USERR3
 40
0.0
  9
$USERR4
 40
0.0
  9
$USERR5
 40
0.0
  9
$WORLDVIEW
 70
     1
  9
$SHADEDGE
 70
     3
  9
$SHADEDIF
 70
    70
  9
$TILEMODE
 70
     1
  9
$MAXACTVP
 70
    16
  9
$PLIMCHECK
 70
     0
  9
$PEXTMIN
 10
1.000000E+020
 20
1.000000E+020
 30
1.000000E+020
  9
$PEXTMAX
 10
-1.000000E+020
 20
-1.000000E+020
 30
-1.000000E+020
  9
$PLIMMIN
 10
0.0
 20
0.0
  9
$PLIMMAX
 10
12.0
 20
9.0
  9
$UNITMODE
 70
     0
  9
$VISRETAIN
 70
     0
  9
$PLINEGEN
 70
     0
  9
$PSLTSCALE
 70
     0
  0
ENDSEC
  0
SECTION
  2
TABLES
  0
TABLE
  2
VPORT
 70
     2
  0
VPORT
  2
*ACTIVE
 70
     0
 10
0.0
 20
0.0
 11
1.0
 21
1.0
 12
1538.759234
 22
162.988786
 13
0.0
 23
0.0
 14
1.0
 24
1.0
 15
10.0
 25
10.0
 16
0.0
 26
0.0
 36
1.0
 17
0.0
 27
0.0
 37
0.0
 40
157.057204
 41
1.63142
 42
50.0
 43
0.0
 44
0.0
 50
0.0
 51
0.0
 71
     0
 72
   100
 73
     1
 74
     0
 75
     0
 76
     0
 77
     0
 78
     0
  0
ENDTAB
  0
TABLE
  2
LTYPE
 70
    25
  0
LTYPE
  2
CONTINUOUS
 70
     0
  3
Solid line
 72
    65
 73
     0
 40
0.0
  0
LTYPE
  2
AXES2
 70
     0
  3
___ _ ___ _ ___ _ ___ _ ___ _ ___ _ ___ _ ___ _
 72
    65
 73
     4
 40
1.125
 49
0.75
 49
-0.125
 49
0.125
 49
-0.125
  0
LTYPE
  2
AXES
 70
     0
  3
____ _ ____ _ ____ _ ____ _ ____ _ ____ _ ____ 
 72
    65
 73
     4
 40
2.0
 49
1.25
 49
-0.25
 49
0.25
 49
-0.25
  0
LTYPE
  2
AXESX2
 70
     0
  3
________  __  ________  __  ________  __  _____
 72
    65
 73
     4
 40
4.0
 49
2.5
 49
-0.5
 49
0.5
 49
-0.5
  0
LTYPE
  2
TIRETPT
 70
     0
  3
__ . __ . __ . __ . __ . __ . __ . __ . __ . __
 72
    65
 73
     4
 40
1.0
 49
0.5
 49
-0.25
 49
0.0
 49
-0.25
  0
LTYPE
  2
TIRETPT2
 70
     0
  3
_._._._._._._._._._._._._._._._._._._._._._._._
 72
    65
 73
     4
 40
0.5
 49
0.25
 49
-0.125
 49
0.0
 49
-0.125
  0
LTYPE
  2
TIRETPTX2
 70
     0
  3
____  .  ____  .  ____  .  ____  .  ____  .  __
 72
    65
 73
     4
 40
2.0
 49
1.0
 49
-0.5
 49
0.0
 49
-0.5
  0
LTYPE
  2
DISCONTINU
 70
     0
  3
__ __ __ __ __ __ __ __ __ __ __ __ __ __ __ __
 72
    65
 73
     2
 40
0.75
 49
0.5
 49
-0.25
  0
LTYPE
  2
DISCONTINU2
 70
     0
  3
_ _ _ _ _ _ _ _ _ _ _ _ _ _ _ _ _ _ _ _ _ _ _ _
 72
    65
 73
     2
 40
0.375
 49
0.25
 49
-0.125
  0
LTYPE
  2
DISCONTINUX2
 70
     0
  3
____  ____  ____  ____  ____  ____  ____  ____ 
 72
    65
 73
     2
 40
1.5
 49
1.0
 49
-0.5
  0
LTYPE
  2
DIVISE
 70
     0
  3
____ . . ____ . . ____ . . ____ . . ____ . . __
 72
    65
 73
     6
 40
1.25
 49
0.5
 49
-0.25
 49
0.0
 49
-0.25
 49
0.0
 49
-0.25
  0
LTYPE
  2
DIVISE2
 70
     0
  3
__..__..__..__..__..__..__..__..__..__..__..__.
 72
    65
 73
     6
 40
0.625
 49
0.25
 49
-0.125
 49
0.0
 49
-0.125
 49
0.0
 49
-0.125
  0
LTYPE
  2
DIVISEX2
 70
     0
  3
________  .  .  ________  .  .  ________  .  . 
 72
    65
 73
     6
 40
2.5
 49
1.0
 49
-0.5
 49
0.0
 49
-0.5
 49
0.0
 49
-0.5
  0
LTYPE
  2
POINTILLE
 70
     0
  3
. . . . . . . . . . . . . . . . . . . . . . . .
 72
    65
 73
     2
 40
0.25
 49
0.0
 49
-0.25
  0
LTYPE
  2
POINTILLE2
 70
     0
  3
...............................................
 72
    65
 73
     2
 40
0.125
 49
0.0
 49
-0.125
  0
LTYPE
  2
POINTILLEX2
 70
     0
  3
.  .  .  .  .  .  .  .  .  .  .  .  .  .  .  . 
 72
    65
 73
     2
 40
0.5
 49
0.0
 49
-0.5
  0
LTYPE
  2
CACHE
 70
     0
  3
__ __ __ __ __ __ __ __ __ __ __ __ __ __ __ __
 72
    65
 73
     2
 40
0.375
 49
0.25
 49
-0.125
  0
LTYPE
  2
CACHE2
 70
     0
  3
_ _ _ _ _ _ _ _ _ _ _ _ _ _ _ _ _ _ _ _ _ _ _ _
 72
    65
 73
     2
 40
0.1875
 49
0.125
 49
-0.0625
  0
LTYPE
  2
CACHEX2
 70
     0
  3
____ ____ ____ ____ ____ ____ ____ ____ ____ __
 72
    65
 73
     2
 40
0.75
 49
0.5
 49
-0.25
  0
LTYPE
  2
FANTOME
 70
     0
  3
______  __  __  ______  __  __  ______  __  __ 
 72
    65
 73
     6
 40
2.5
 49
1.25
 49
-0.25
 49
0.25
 49
-0.25
 49
0.25
 49
-0.25
  0
LTYPE
  2
FANTOME2
 70
     0
  3
___ _ _ ___ _ _ ___ _ _ ___ _ _ ___ _ _ ___ _ _
 72
    65
 73
     6
 40
1.25
 49
0.625
 49
-0.125
 49
0.125
 49
-0.125
 49
0.125
 49
-0.125
  0
LTYPE
  2
FANTOMEX2
 70
     0
  3
____________    ____    ____    ____________   
 72
    65
 73
     6
 40
5.0
 49
2.5
 49
-0.5
 49
0.5
 49
-0.5
 49
0.5
 49
-0.5
  0
LTYPE
  2
0
 70
     0
  3
MEDUSA PEN 0
 72
    65
 73
     0
 40
0.0
  0
LTYPE
  2
AI9-LTYPE1
 70
     0
  3
Illustrator Dash Style No.1
 72
    65
 73
     4
 40
5.64621
 49
4.106333
 49
-0.307975
 49
0.923926
 49
-0.307975
  0
LTYPE
  2
ACAD_ISO04W100
 70
     0
  3
ISO Lang gestrichelt punktiert ____ . ____ . __
 72
    65
 73
     4
 40
30.5
 49
24.0
 49
-3.0
 49
0.5
 49
-3.0
  0
ENDTAB
  0
TABLE
  2
LAYER
 70
    17
  0
LAYER
  2
0
 70
     0
 62
     7
  6
CONTINUOUS
  0
LAYER
  2
TEXTE_MOYEN
 70
     0
 62
   131
  6
CONTINUOUS
  0
LAYER
  2
ALPHA
 70
     0
 62
   254
  6
CONTINUOUS
  0
LAYER
  2
COTATION1
 70
     0
 62
    50
  6
CONTINUOUS
  0
LAYER
  2
AXE
 70
     0
 62
    80
  6
AXES2
  0
LAYER
  2
DEFPOINTS
 70
     0
 62
     7
  6
CONTINUOUS
  0
LAYER
  2
HACHURES1
 70
     0
 62
   130
  6
CONTINUOUS
  0
LAYER
  2
FMULT
 70
     0
 62
   210
  6
CONTINUOUS
  0
LAYER
  2
FDP_CARTOUCHE
 70
     0
 62
   136
  6
CONTINUOUS
  0
LAYER
  2
FDP_TEXTES
 70
     0
 62
   171
  6
CONTINUOUS
  0
LAYER
  2
FDP_LOGO_MG
 70
     0
 62
    30
  6
CONTINUOUS
  0
LAYER
  2
FDP_LOGO_SCH
 70
     0
 62
    90
  6
CONTINUOUS
  0
LAYER
  2
FDP_FDP
 70
     0
 62
   170
  6
CONTINUOUS
  0
LAYER
  2
POINTILLE_COURT2
 70
     0
 62
    41
  6
CACHE2
  0
LAYER
  2
POINTILLE_MOYEN2
 70
     0
 62
   141
  6
CACHE
  0
LAYER
  2
POINTILLE_LONG2
 70
     0
 62
   241
  6
CACHEX2
  0
LAYER
  2
ALPHA_FIN
 70
     0
 62
   255
  6
CONTINUOUS
  0
ENDTAB
  0
TABLE
  2
STYLE
 70
     4
  0
STYLE
  2
ROMANS
 70
     0
 40
0.0
 41
1.0
 50
0.0
 71
     0
 42
6.0
  3
romans
  4

  0
STYLE
  2
STANDARD
 70
     0
 40
0.2
 41
1.0
 50
0.0
 71
     0
 42
0.2
  3
txt
  4

  0
STYLE
  2
CARTOUCHE
 70
     0
 40
0.0
 41
1.0
 50
0.0
 71
     0
 42
0.2
  3
ROMANS.SHX
  4

  0
STYLE
  2
STD
 70
     0
 40
0.0
 41
1.0
 50
0.0
 71
     0
 42
0.0
  3
txt
  4

  0
ENDTAB
  0
TABLE
  2
VIEW
 70
     0
  0
ENDTAB
  0
TABLE
  2
UCS
 70
     0
  0
ENDTAB
  0
TABLE
  2
APPID
 70
     3
  0
APPID
  2
ACAD
 70
     0
  0
APPID
  2
AVE_RENDER
 70
     0
  0
APPID
  2
AVE_MATERIAL
 70
     0
  0
ENDTAB
  0
TABLE
  2
DIMSTYLE
 70
     2
  0
DIMSTYLE
  2
SC_DEFAUT
 70
     0
  3

  4

  5
OPEN30
  6

  7

 40
1.0
 41
3.0
 42
1.0
 43
0.1
 44
0.5
 45
0.0
 46
0.0
 47
0.0
 48
0.0
140
3.0
141
0.0
142
0.0
143
25.4
144
1.0
145
0.0
146
1.0
147
0.6
 71
     0
 72
     0
 73
     0
 74
     0
 75
     0
 76
     0
 77
     1
 78
    12
170
     0
171
     2
172
     0
173
     0
174
     0
175
     0
176
     0
177
     0
178
     0
  0
DIMSTYLE
  2
STANDARD
 70
     0
  3

  4

  5

  6

  7

 40
1.0
 41
0.18
 42
0.0625
 43
0.38
 44
0.18
 45
0.0
 46
0.0
 47
0.0
 48
0.0
140
0.18
141
0.09
142
0.0
143
25.4
144
1.0
145
0.0
146
1.0
147
0.09
 71
     0
 72
     0
 73
     1
 74
     1
 75
     0
 76
     0
 77
     0
 78
     0
170
     0
171
     2
172
     0
173
     0
174
     0
175
     0
176
     0
177
     0
178
     0
  0
ENDTAB
  0
ENDSEC
  0
SECTION
  2
BLOCKS
  0
BLOCK
  8
0
  2
$MODEL_SPACE
 70
     0
 10
0.0
 20
0.0
 30
0.0
  3
$MODEL_SPACE
  1

  0
ENDBLK
  5
6447
  8
0
  0
BLOCK
 67
     1
  8
0
  2
$PAPER_SPACE
 70
     0
 10
0.0
 20
0.0
 30
0.0
  3
$PAPER_SPACE
  1

  0
ENDBLK
  5
6445
 67
     1
  8
0
  0
BLOCK
  8
0
  2
COTE
 70
     0
 10
0.0
 20
0.0
 30
0.0
  3
COTE
  1

  0
ENDBLK
  5
35
  8
0
  0
BLOCK
  8
0
  2
FOND
 70
     0
 10
0.0
 20
0.0
 30
0.0
  3
FOND
  1

  0
ENDBLK
  5
39
  8
0
  0
BLOCK
  8
0
  2
SCH_ISO
 70
     0
 10
0.0
 20
0.0
 30
0.0
  3
SCH_ISO
  1

  0
ENDBLK
  5
24AD
  8
0
  0
BLOCK
  8
0
  2
_OPEN30
 70
     0
 10
0.0
 20
0.0
 30
0.0
  3
_OPEN30
  1

  0
LINE
  5
27E1
  8
COTATION1
 62
     0
 10
-1.0
 20
0.267949
 30
0.0
 11
0.0
 21
0.0
 31
0.0
1001
ACAD
1000
RTLwPs
1070
   158
  0
LINE
  5
27E2
  8
COTATION1
 62
     0
 10
0.0
 20
0.0
 30
0.0
 11
-1.0
 21
-0.267949
 31
0.0
1001
ACAD
1000
RTLwPs
1070
   158
  0
LINE
  5
27E3
  8
COTATION1
 62
     0
 10
0.0
 20
0.0
 30
0.0
 11
-1.0
 21
0.0
 31
0.0
1001
ACAD
1000
RTLwPs
1070
   158
  0
ENDBLK
  5
27E5
  8
0
  0
BLOCK
  8
0
  2
*D4
 70
     1
 10
0.0
 20
0.0
 30
0.0
  3
*D4
  1

  0
LINE
  5
5E18
  8
COTATION1
 62
     0
 10
1526.615339
 20
120.99452
 30
0.0
 11
1499.115339
 21
120.99452
 31
0.0
1001
ACAD
1000
RTLwPs
1070
   158
  0
LINE
  5
5E19
  8
COTATION1
 62
     0
 10
1526.115339
 20
202.19452
 30
0.0
 11
1499.115339
 21
202.19452
 31
0.0
1001
ACAD
1000
RTLwPs
1070
   158
  0
LINE
  5
5E1A
  8
COTATION1
 62
     0
 10
1499.615339
 20
123.99452
 30
0.0
 11
1499.615339
 21
199.19452
 31
0.0
1001
ACAD
1000
RTLwPs
1070
   158
  0
INSERT
  5
5E1B
  8
COTATION1
 62
     0
  2
_OPEN30
 10
1499.615339
 20
120.99452
 30
0.0
 41
3.0
 42
3.0
 43
3.0
 50
270.0
1001
ACAD
1000
RTLwPs
1070
   158
  0
INSERT
  5
5E1C
  8
COTATION1
 62
     0
  2
_OPEN30
 10
1499.615339
 20
202.19452
 30
0.0
 41
3.0
 42
3.0
 43
3.0
 50
90.0
1001
ACAD
1000
RTLwPs
1070
   158
  0
TEXT
  5
5E1D
  8
COTATION1
 62
     0
 10
1499.015339
 20
156.59452
 30
0.0
 40
3.0
  1
81.2
 50
90.0
1001
ACAD
1000
MTEXTBEGIN
1070
    73
1070
     1
1070
    44
1040
1.0
1070
    74
1070
     0
1000
MTEXTEND
1000
MTEXTBEGIN
1070
    73
1070
     1
1070
    44
1040
1.0
1070
    74
1070
     0
1000
MTEXTEND
1000
MTEXTBEGIN
1070
    73
1070
     1
1070
    44
1040
1.0
1070
    74
1070
     0
1000
MTEXTEND
1000
MTEXTBEGIN
1070
    73
1070
     1
1070
    44
1040
1.0
1070
    74
1070
     0
1000
MTEXTEND
  0
POINT
  5
5E1E
  8
DEFPOINTS
 62
     0
 10
1527.615339
 20
120.99452
 30
0.0
  0
POINT
  5
5E1F
  8
DEFPOINTS
 62
     0
 10
1527.115339
 20
202.19452
 30
0.0
  0
POINT
  5
5E20
  8
DEFPOINTS
 62
     0
 10
1499.615339
 20
202.19452
 30
0.0
  0
ENDBLK
  5
5C93
  8
0
  0
BLOCK
  8
0
  2
*D5
 70
     1
 10
0.0
 20
0.0
 30
0.0
  3
*D5
  1

  0
LINE
  5
5E0F
  8
COTATION1
 62
     0
 10
1540.615339
 20
202.19452
 30
0.0
 11
1499.115339
 21
202.19452
 31
0.0
1001
ACAD
1000
RTLwPs
1070
   158
  0
LINE
  5
5E10
  8
COTATION1
 62
     0
 10
1542.615339
 20
217.19452
 30
0.0
 11
1499.115339
 21
217.19452
 31
0.0
1001
ACAD
1000
RTLwPs
1070
   158
  0
LINE
  5
5E11
  8
COTATION1
 62
     0
 10
1499.615339
 20
205.19452
 30
0.0
 11
1499.615339
 21
214.19452
 31
0.0
1001
ACAD
1000
RTLwPs
1070
   158
  0
INSERT
  5
5E12
  8
COTATION1
 62
     0
  2
_OPEN30
 10
1499.615339
 20
202.19452
 30
0.0
 41
3.0
 42
3.0
 43
3.0
 50
270.0
1001
ACAD
1000
RTLwPs
1070
   158
  0
INSERT
  5
5E13
  8
COTATION1
 62
     0
  2
_OPEN30
 10
1499.615339
 20
217.19452
 30
0.0
 41
3.0
 42
3.0
 43
3.0
 50
90.0
1001
ACAD
1000
RTLwPs
1070
   158
  0
TEXT
  5
5E14
  8
COTATION1
 62
     0
 10
1499.015339
 20
206.623092
 30
0.0
 40
3.0
  1
15
 50
90.0
1001
ACAD
1000
MTEXTBEGIN
1070
    73
1070
     1
1070
    44
1040
1.0
1070
    74
1070
     0
1000
MTEXTEND
1000
MTEXTBEGIN
1070
    73
1070
     1
1070
    44
1040
1.0
1070
    74
1070
     0
1000
MTEXTEND
1000
MTEXTBEGIN
1070
    73
1070
     1
1070
    44
1040
1.0
1070
    74
1070
     0
1000
MTEXTEND
1000
MTEXTBEGIN
1070
    73
1070
     1
1070
    44
1040
1.0
1070
    74
1070
     0
1000
MTEXTEND
  0
POINT
  5
5E15
  8
DEFPOINTS
 62
     0
 10
1541.615339
 20
202.19452
 30
0.0
  0
POINT
  5
5E16
  8
DEFPOINTS
 62
     0
 10
1543.615339
 20
217.19452
 30
0.0
  0
POINT
  5
5E17
  8
DEFPOINTS
 62
     0
 10
1499.615339
 20
217.19452
 30
0.0
  0
ENDBLK
  5
5CF1
  8
0
  0
BLOCK
  8
0
  2
*D6
 70
     1
 10
0.0
 20
0.0
 30
0.0
  3
*D6
  1

  0
LINE
  5
5E8D
  8
COTATION1
 62
     0
 10
1554.115339
 20
125.29452
 30
0.0
 11
1571.115339
 21
125.29452
 31
0.0
1001
ACAD
1000
RTLwPs
1070
   158
  0
LINE
  5
5E8E
  8
COTATION1
 62
     0
 10
1553.615339
 20
120.99452
 30
0.0
 11
1571.115339
 21
120.99452
 31
0.0
1001
ACAD
1000
RTLwPs
1070
   158
  0
LINE
  5
5E8F
  8
COTATION1
 62
     0
 10
1570.615339
 20
128.29452
 30
0.0
 11
1570.615339
 21
131.29452
 31
0.0
1001
ACAD
1000
RTLwPs
1070
   158
  0
LINE
  5
5E90
  8
COTATION1
 62
     0
 10
1570.615339
 20
117.99452
 30
0.0
 11
1570.615339
 21
107.508806
 31
0.0
1001
ACAD
1000
RTLwPs
1070
   158
  0
INSERT
  5
5E91
  8
COTATION1
 62
     0
  2
_OPEN30
 10
1570.615339
 20
125.29452
 30
0.0
 41
3.0
 42
3.0
 43
3.0
 50
270.0
1001
ACAD
1000
RTLwPs
1070
   158
  0
INSERT
  5
5E92
  8
COTATION1
 62
     0
  2
_OPEN30
 10
1570.615339
 20
120.99452
 30
0.0
 41
3.0
 42
3.0
 43
3.0
 50
90.0
1001
ACAD
1000
RTLwPs
1070
   158
  0
TEXT
  5
5E93
  8
COTATION1
 62
     0
 10
1570.015339
 20
107.680235
 30
0.0
 40
3.0
  1
4.3
 50
90.0
1001
ACAD
1000
MTEXTBEGIN
1070
    73
1070
     1
1070
    44
1040
1.0
1070
    74
1070
     0
1000
MTEXTEND
1000
MTEXTBEGIN
1070
    73
1070
     1
1070
    44
1040
1.0
1070
    74
1070
     0
1000
MTEXTEND
1000
MTEXTBEGIN
1070
    73
1070
     1
1070
    44
1040
1.0
1070
    74
1070
     0
1000
MTEXTEND
1000
MTEXTBEGIN
1070
    73
1070
     1
1070
    44
1040
1.0
1070
    74
1070
     0
1000
MTEXTEND
  0
POINT
  5
5E94
  8
DEFPOINTS
 62
     0
 10
1553.115339
 20
125.29452
 30
0.0
  0
POINT
  5
5E95
  8
DEFPOINTS
 62
     0
 10
1552.615339
 20
120.99452
 30
0.0
  0
POINT
  5
5E96
  8
DEFPOINTS
 62
     0
 10
1570.615339
 20
120.99452
 30
0.0
  0
ENDBLK
  5
5D11
  8
0
  0
BLOCK
  8
0
  2
*D7
 70
     1
 10
0.0
 20
0.0
 30
0.0
  3
*D7
  1

  0
LINE
  5
5E84
  8
COTATION1
 62
     0
 10
1553.615339
 20
125.29452
 30
0.0
 11
1571.115339
 21
125.29452
 31
0.0
1001
ACAD
1000
RTLwPs
1070
   158
  0
LINE
  5
5E85
  8
COTATION1
 62
     0
 10
1556.615339
 20
139.39452
 30
0.0
 11
1571.115339
 21
139.39452
 31
0.0
1001
ACAD
1000
RTLwPs
1070
   158
  0
LINE
  5
5E86
  8
COTATION1
 62
     0
 10
1570.615339
 20
128.29452
 30
0.0
 11
1570.615339
 21
136.39452
 31
0.0
1001
ACAD
1000
RTLwPs
1070
   158
  0
INSERT
  5
5E87
  8
COTATION1
 62
     0
  2
_OPEN30
 10
1570.615339
 20
125.29452
 30
0.0
 41
3.0
 42
3.0
 43
3.0
 50
270.0
1001
ACAD
1000
RTLwPs
1070
   158
  0
INSERT
  5
5E88
  8
COTATION1
 62
     0
  2
_OPEN30
 10
1570.615339
 20
139.39452
 30
0.0
 41
3.0
 42
3.0
 43
3.0
 50
90.0
1001
ACAD
1000
RTLwPs
1070
   158
  0
TEXT
  5
5E89
  8
COTATION1
 62
     0
 10
1570.015339
 20
127.558806
 30
0.0
 40
3.0
  1
14.1
 50
90.0
1001
ACAD
1000
MTEXTBEGIN
1070
    73
1070
     1
1070
    44
1040
1.0
1070
    74
1070
     0
1000
MTEXTEND
1000
MTEXTBEGIN
1070
    73
1070
     1
1070
    44
1040
1.0
1070
    74
1070
     0
1000
MTEXTEND
1000
MTEXTBEGIN
1070
    73
1070
     1
1070
    44
1040
1.0
1070
    74
1070
     0
1000
MTEXTEND
1000
MTEXTBEGIN
1070
    73
1070
     1
1070
    44
1040
1.0
1070
    74
1070
     0
1000
MTEXTEND
  0
POINT
  5
5E8A
  8
DEFPOINTS
 62
     0
 10
1552.615339
 20
125.29452
 30
0.0
  0
POINT
  5
5E8B
  8
DEFPOINTS
 62
     0
 10
1555.615339
 20
139.39452
 30
0.0
  0
POINT
  5
5E8C
  8
DEFPOINTS
 62
     0
 10
1570.615339
 20
139.39452
 30
0.0
  0
ENDBLK
  5
5D28
  8
0
  0
BLOCK
  8
0
  2
*D8
 70
     1
 10
0.0
 20
0.0
 30
0.0
  3
*D8
  1

  0
LINE
  5
5E7B
  8
COTATION1
 62
     0
 10
1523.615339
 20
139.39452
 30
0.0
 11
1509.115339
 21
139.39452
 31
0.0
1001
ACAD
1000
RTLwPs
1070
   158
  0
LINE
  5
5E7C
  8
COTATION1
 62
     0
 10
1523.115339
 20
166.89452
 30
0.0
 11
1509.115339
 21
166.89452
 31
0.0
1001
ACAD
1000
RTLwPs
1070
   158
  0
LINE
  5
5E7D
  8
COTATION1
 62
     0
 10
1509.615339
 20
142.39452
 30
0.0
 11
1509.615339
 21
163.89452
 31
0.0
1001
ACAD
1000
RTLwPs
1070
   158
  0
INSERT
  5
5E7E
  8
COTATION1
 62
     0
  2
_OPEN30
 10
1509.615339
 20
139.39452
 30
0.0
 41
3.0
 42
3.0
 43
3.0
 50
270.0
1001
ACAD
1000
RTLwPs
1070
   158
  0
INSERT
  5
5E7F
  8
COTATION1
 62
     0
  2
_OPEN30
 10
1509.615339
 20
166.89452
 30
0.0
 41
3.0
 42
3.0
 43
3.0
 50
90.0
1001
ACAD
1000
RTLwPs
1070
   158
  0
TEXT
  5
5E80
  8
COTATION1
 62
     0
 10
1509.015339
 20
148.14452
 30
0.0
 40
3.0
  1
27.5
 50
90.0
1001
ACAD
1000
MTEXTBEGIN
1070
    73
1070
     1
1070
    44
1040
1.0
1070
    74
1070
     0
1000
MTEXTEND
1000
MTEXTBEGIN
1070
    73
1070
     1
1070
    44
1040
1.0
1070
    74
1070
     0
1000
MTEXTEND
1000
MTEXTBEGIN
1070
    73
1070
     1
1070
    44
1040
1.0
1070
    74
1070
     0
1000
MTEXTEND
1000
MTEXTBEGIN
1070
    73
1070
     1
1070
    44
1040
1.0
1070
    74
1070
     0
1000
MTEXTEND
  0
POINT
  5
5E81
  8
DEFPOINTS
 62
     0
 10
1524.615339
 20
139.39452
 30
0.0
  0
POINT
  5
5E82
  8
DEFPOINTS
 62
     0
 10
1524.115339
 20
166.89452
 30
0.0
  0
POINT
  5
5E83
  8
DEFPOINTS
 62
     0
 10
1509.615339
 20
166.89452
 30
0.0
  0
ENDBLK
  5
5D3E
  8
0
  0
BLOCK
  8
0
  2
*D9
 70
     1
 10
0.0
 20
0.0
 30
0.0
  3
*D9
  1

  0
LINE
  5
5E4E
  8
COTATION1
 62
     0
 10
1523.115339
 20
166.89452
 30
0.0
 11
1509.115339
 21
166.89452
 31
0.0
1001
ACAD
1000
RTLwPs
1070
   158
  0
LINE
  5
5E4F
  8
COTATION1
 62
     0
 10
1523.115339
 20
194.89452
 30
0.0
 11
1509.115339
 21
194.89452
 31
0.0
1001
ACAD
1000
RTLwPs
1070
   158
  0
LINE
  5
5E50
  8
COTATION1
 62
     0
 10
1509.615339
 20
169.89452
 30
0.0
 11
1509.615339
 21
191.89452
 31
0.0
1001
ACAD
1000
RTLwPs
1070
   158
  0
INSERT
  5
5E51
  8
COTATION1
 62
     0
  2
_OPEN30
 10
1509.615339
 20
166.89452
 30
0.0
 41
3.0
 42
3.0
 43
3.0
 50
270.0
1001
ACAD
1000
RTLwPs
1070
   158
  0
INSERT
  5
5E52
  8
COTATION1
 62
     0
  2
_OPEN30
 10
1509.615339
 20
194.89452
 30
0.0
 41
3.0
 42
3.0
 43
3.0
 50
90.0
1001
ACAD
1000
RTLwPs
1070
   158
  0
TEXT
  5
5E53
  8
COTATION1
 62
     0
 10
1509.015339
 20
178.037377
 30
0.0
 40
3.0
  1
28
 50
90.0
1001
ACAD
1000
MTEXTBEGIN
1070
    73
1070
     1
1070
    44
1040
1.0
1070
    74
1070
     0
1000
MTEXTEND
1000
MTEXTBEGIN
1070
    73
1070
     1
1070
    44
1040
1.0
1070
    74
1070
     0
1000
MTEXTEND
1000
MTEXTBEGIN
1070
    73
1070
     1
1070
    44
1040
1.0
1070
    74
1070
     0
1000
MTEXTEND
1000
MTEXTBEGIN
1070
    73
1070
     1
1070
    44
1040
1.0
1070
    74
1070
     0
1000
MTEXTEND
  0
POINT
  5
5E54
  8
DEFPOINTS
 62
     0
 10
1524.115339
 20
166.89452
 30
0.0
  0
POINT
  5
5E55
  8
DEFPOINTS
 62
     0
 10
1524.115339
 20
194.89452
 30
0.0
  0
POINT
  5
5E56
  8
DEFPOINTS
 62
     0
 10
1509.615339
 20
194.89452
 30
0.0
  0
ENDBLK
  5
5D54
  8
0
  0
BLOCK
  8
0
  2
*D10
 70
     1
 10
0.0
 20
0.0
 30
0.0
  3
*D10
  1

  0
LINE
  5
5DB5
  8
COTATION1
 62
     0
 10
1527.615339
 20
119.99452
 30
0.0
 11
1527.615339
 21
95.49452
 31
0.0
1001
ACAD
1000
RTLwPs
1070
   158
  0
LINE
  5
5DB6
  8
COTATION1
 62
     0
 10
1552.615339
 20
119.99452
 30
0.0
 11
1552.615339
 21
95.49452
 31
0.0
1001
ACAD
1000
RTLwPs
1070
   158
  0
LINE
  5
5DB7
  8
COTATION1
 62
     0
 10
1530.615339
 20
95.99452
 30
0.0
 11
1549.615339
 21
95.99452
 31
0.0
1001
ACAD
1000
RTLwPs
1070
   158
  0
INSERT
  5
5DB8
  8
COTATION1
 62
     0
  2
_OPEN30
 10
1527.615339
 20
95.99452
 30
0.0
 41
3.0
 42
3.0
 43
3.0
 50
180.0
1001
ACAD
1000
RTLwPs
1070
   158
  0
INSERT
  5
5DB9
  8
COTATION1
 62
     0
  2
_OPEN30
 10
1552.615339
 20
95.99452
 30
0.0
 41
3.0
 42
3.0
 43
3.0
1001
ACAD
1000
RTLwPs
1070
   158
  0
TEXT
  5
5DBA
  8
COTATION1
 62
     0
 10
1536.043911
 20
96.59452
 30
0.0
 40
3.0
  1
%%c
1001
ACAD
1000
MTEXTBEGIN
1070
    73
1070
     1
1070
    44
1040
1.0
1070
    74
1070
     0
1000
MTEXTEND
1000
MTEXTBEGIN
1070
    73
1070
     1
1070
    44
1040
1.0
1070
    74
1070
     0
1000
MTEXTEND
1000
MTEXTBEGIN
1070
    73
1070
     1
1070
    44
1040
1.0
1070
    74
1070
     0
1000
MTEXTEND
1000
MTEXTBEGIN
1070
    73
1070
     1
1070
    44
1040
1.0
1070
    74
1070
     0
1000
MTEXTEND
  0
TEXT
  5
63EA
  8
COTATION1
 62
     0
 10
1538.758196
 20
96.59452
 30
0.0
 40
3.0
  1
25
1001
ACAD
1000
R13OBJECT
1002
{
1005
5DBA
1002
}
  0
POINT
  5
5DBB
  8
DEFPOINTS
 62
     0
 10
1527.615339
 20
120.99452
 30
0.0
  0
POINT
  5
5DBC
  8
DEFPOINTS
 62
     0
 10
1552.615339
 20
120.99452
 30
0.0
  0
POINT
  5
5DBD
  8
DEFPOINTS
 62
     0
 10
1552.615339
 20
95.99452
 30
0.0
  0
ENDBLK
  5
5DAB
  8
0
  0
BLOCK
  8
0
  2
*D11
 70
     1
 10
0.0
 20
0.0
 30
0.0
  3
*D11
  1

  0
LINE
  5
5DCB
  8
COTATION1
 62
     0
 10
1524.615339
 20
126.79452
 30
0.0
 11
1524.615339
 21
85.49452
 31
0.0
1001
ACAD
1000
RTLwPs
1070
   158
  0
LINE
  5
5DCC
  8
COTATION1
 62
     0
 10
1555.615339
 20
126.79452
 30
0.0
 11
1555.615339
 21
85.49452
 31
0.0
1001
ACAD
1000
RTLwPs
1070
   158
  0
LINE
  5
5DCD
  8
COTATION1
 62
     0
 10
1527.615339
 20
85.99452
 30
0.0
 11
1552.615339
 21
85.99452
 31
0.0
1001
ACAD
1000
RTLwPs
1070
   158
  0
INSERT
  5
5DCE
  8
COTATION1
 62
     0
  2
_OPEN30
 10
1524.615339
 20
85.99452
 30
0.0
 41
3.0
 42
3.0
 43
3.0
 50
180.0
1001
ACAD
1000
RTLwPs
1070
   158
  0
INSERT
  5
5DCF
  8
COTATION1
 62
     0
  2
_OPEN30
 10
1555.615339
 20
85.99452
 30
0.0
 41
3.0
 42
3.0
 43
3.0
1001
ACAD
1000
RTLwPs
1070
   158
  0
TEXT
  5
5DD0
  8
COTATION1
 62
     0
 10
1537.686768
 20
86.59452
 30
0.0
 40
3.0
  1
31
1001
ACAD
1000
MTEXTBEGIN
1070
    73
1070
     1
1070
    44
1040
1.0
1070
    74
1070
     0
1000
MTEXTEND
1000
MTEXTBEGIN
1070
    73
1070
     1
1070
    44
1040
1.0
1070
    74
1070
     0
1000
MTEXTEND
1000
MTEXTBEGIN
1070
    73
1070
     1
1070
    44
1040
1.0
1070
    74
1070
     0
1000
MTEXTEND
1000
MTEXTBEGIN
1070
    73
1070
     1
1070
    44
1040
1.0
1070
    74
1070
     0
1000
MTEXTEND
  0
POINT
  5
5DD1
  8
DEFPOINTS
 62
     0
 10
1524.615339
 20
127.79452
 30
0.0
  0
POINT
  5
5DD2
  8
DEFPOINTS
 62
     0
 10
1555.615339
 20
127.79452
 30
0.0
  0
POINT
  5
5DD3
  8
DEFPOINTS
 62
     0
 10
1555.615339
 20
85.99452
 30
0.0
  0
ENDBLK
  5
5DCA
  8
0
  0
BLOCK
  8
0
  2
*D12
 70
     1
 10
0.0
 20
0.0
 30
0.0
  3
*D12
  1

  0
LINE
  5
627F
  8
COTATION1
 62
     0
 10
1548.615339
 20
223.19452
 30
0.0
 11
1548.615339
 21
227.69452
 31
0.0
1001
ACAD
1000
RTLwPs
1070
   158
  0
LINE
  5
6280
  8
COTATION1
 62
     0
 10
1540.115339
 20
223.19452
 30
0.0
 11
1540.115339
 21
227.69452
 31
0.0
1001
ACAD
1000
RTLwPs
1070
   158
  0
LINE
  5
6281
  8
COTATION1
 62
     0
 10
1545.615339
 20
227.19452
 30
0.0
 11
1543.115339
 21
227.19452
 31
0.0
1001
ACAD
1000
RTLwPs
1070
   158
  0
INSERT
  5
6282
  8
COTATION1
 62
     0
  2
_OPEN30
 10
1548.615339
 20
227.19452
 30
0.0
 41
3.0
 42
3.0
 43
3.0
1001
ACAD
1000
RTLwPs
1070
   158
  0
INSERT
  5
6283
  8
COTATION1
 62
     0
  2
_OPEN30
 10
1540.115339
 20
227.19452
 30
0.0
 41
3.0
 42
3.0
 43
3.0
 50
180.0
1001
ACAD
1000
RTLwPs
1070
   158
  0
TEXT
  5
6284
  8
COTATION1
 62
     0
 10
1540.793911
 20
227.79452
 30
0.0
 40
3.0
  1
8.5
1001
ACAD
1000
MTEXTBEGIN
1070
    73
1070
     1
1070
    44
1040
1.0
1070
    74
1070
     0
1000
MTEXTEND
1000
MTEXTBEGIN
1070
    73
1070
     1
1070
    44
1040
1.0
1070
    74
1070
     0
1000
MTEXTEND
1000
MTEXTBEGIN
1070
    73
1070
     1
1070
    44
1040
1.0
1070
    74
1070
     0
1000
MTEXTEND
  0
POINT
  5
6285
  8
DEFPOINTS
 62
     0
 10
1548.615339
 20
222.19452
 30
0.0
  0
POINT
  5
6286
  8
DEFPOINTS
 62
     0
 10
1540.115339
 20
222.19452
 30
0.0
  0
POINT
  5
6287
  8
DEFPOINTS
 62
     0
 10
1540.115339
 20
227.19452
 30
0.0
  0
ENDBLK
  5
5DE4
  8
0
  0
BLOCK
  8
0
  2
*D13
 70
     1
 10
0.0
 20
0.0
 30
0.0
  3
*D13
  1

  0
LINE
  5
6276
  8
COTATION1
 62
     0
 10
1550.615339
 20
201.39452
 30
0.0
 11
1550.615339
 21
237.69452
 31
0.0
1001
ACAD
1000
RTLwPs
1070
   158
  0
LINE
  5
6277
  8
COTATION1
 62
     0
 10
1529.615339
 20
201.39452
 30
0.0
 11
1529.615339
 21
237.69452
 31
0.0
1001
ACAD
1000
RTLwPs
1070
   158
  0
LINE
  5
6278
  8
COTATION1
 62
     0
 10
1547.615339
 20
237.19452
 30
0.0
 11
1532.615339
 21
237.19452
 31
0.0
1001
ACAD
1000
RTLwPs
1070
   158
  0
INSERT
  5
6279
  8
COTATION1
 62
     0
  2
_OPEN30
 10
1550.615339
 20
237.19452
 30
0.0
 41
3.0
 42
3.0
 43
3.0
1001
ACAD
1000
RTLwPs
1070
   158
  0
INSERT
  5
627A
  8
COTATION1
 62
     0
  2
_OPEN30
 10
1529.615339
 20
237.19452
 30
0.0
 41
3.0
 42
3.0
 43
3.0
 50
180.0
1001
ACAD
1000
RTLwPs
1070
   158
  0
TEXT
  5
627B
  8
COTATION1
 62
     0
 10
1537.686768
 20
237.79452
 30
0.0
 40
3.0
  1
21
1001
ACAD
1000
MTEXTBEGIN
1070
    73
1070
     1
1070
    44
1040
1.0
1070
    74
1070
     0
1000
MTEXTEND
1000
MTEXTBEGIN
1070
    73
1070
     1
1070
    44
1040
1.0
1070
    74
1070
     0
1000
MTEXTEND
1000
MTEXTBEGIN
1070
    73
1070
     1
1070
    44
1040
1.0
1070
    74
1070
     0
1000
MTEXTEND
  0
POINT
  5
627C
  8
DEFPOINTS
 62
     0
 10
1550.615339
 20
200.39452
 30
0.0
  0
POINT
  5
627D
  8
DEFPOINTS
 62
     0
 10
1529.615339
 20
200.39452
 30
0.0
  0
POINT
  5
627E
  8
DEFPOINTS
 62
     0
 10
1529.615339
 20
237.19452
 30
0.0
  0
ENDBLK
  5
5DFA
  8
0
  0
ENDSEC
  0
SECTION
  2
ENTITIES
  0
INSERT
  5
32
  8
0
  2
COTE
 10
0.0
 20
0.0
 30
0.0
  0
INSERT
  5
36
  8
0
  2
FOND
 10
0.0
 20
0.0
 30
0.0
  0
INSERT
  5
24AE
  8
ALPHA
  2
SCH_ISO
 10
-66.27012
 20
-238.940658
 30
0.0
  0
LINE
  5
5AF6
  8
AXE
 10
1540.115339
 20
222.19452
 30
0.0
 11
1540.115339
 21
105.99452
 31
0.0
  0
LINE
  5
5AF7
  8
ALPHA
 10
1527.115339
 20
202.19452
 30
0.0
 11
1540.115339
 21
202.19452
 31
0.0
  0
LINE
  5
5AF8
  8
ALPHA
 10
1527.115339
 20
125.29452
 30
0.0
 11
1540.115339
 21
125.29452
 31
0.0
  0
LINE
  5
5AF9
  8
ALPHA
 10
1524.615339
 20
199.69452
 30
0.0
 11
1524.615339
 21
127.79452
 31
0.0
  0
ARC
  5
5AFB
  8
ALPHA
 10
1527.115339
 20
199.69452
 30
0.0
 40
2.5
 50
90.0
 51
180.0
  0
ARC
  5
5AFC
  8
ALPHA
 10
1527.115339
 20
127.79452
 30
0.0
 40
2.5
 50
180.0
 51
270.0
  0
LINE
  5
5AFD
  8
ALPHA
 10
1527.615339
 20
120.99452
 30
0.0
 11
1540.115339
 21
120.99452
 31
0.0
  0
LINE
  5
5AFE
  8
ALPHA
 10
1527.615339
 20
125.29452
 30
0.0
 11
1527.615339
 21
120.99452
 31
0.0
  0
CIRCLE
  5
5B00
  8
ALPHA
 10
1540.115339
 20
139.39452
 30
0.0
 40
12.5
  0
CIRCLE
  5
5B01
  8
ALPHA
 10
1540.115339
 20
139.39452
 30
0.0
 40
10.5
  0
LINE
  5
5B03
  8
AXE
 10
1524.615339
 20
139.39452
 30
0.0
 11
1555.615339
 21
139.39452
 31
0.0
  0
LINE
  5
5B07
  8
AXE
 10
1524.115339
 20
194.89452
 30
0.0
 11
1535.115339
 21
194.89452
 31
0.0
  0
LINE
  5
5B08
  8
ALPHA
 10
1526.615339
 20
202.14401
 30
0.0
 11
1526.615339
 21
125.345031
 31
0.0
  0
LINE
  5
5B09
  8
AXE
 10
1529.615339
 20
200.39452
 30
0.0
 11
1529.615339
 21
189.39452
 31
0.0
  0
LINE
  5
5B44
  8
ALPHA
 10
1555.615339
 20
207.69452
 30
0.0
 11
1555.615339
 21
127.79452
 31
0.0
  0
ARC
  5
5B45
  8
ALPHA
 10
1553.115339
 20
127.79452
 30
0.0
 40
2.5
 50
270.0
 51
0.0
  0
LINE
  5
5B46
  8
ALPHA
 10
1552.615339
 20
120.99452
 30
0.0
 11
1540.115339
 21
120.99452
 31
0.0
  0
LINE
  5
5B47
  8
ALPHA
 10
1553.115339
 20
125.29452
 30
0.0
 11
1540.115339
 21
125.29452
 31
0.0
  0
LINE
  5
5B48
  8
ALPHA
 10
1552.615339
 20
125.29452
 30
0.0
 11
1552.615339
 21
120.99452
 31
0.0
  0
LINE
  5
5B49
  8
ALPHA
 10
1553.115339
 20
202.19452
 30
0.0
 11
1540.115339
 21
202.19452
 31
0.0
  0
ARC
  5
5B4A
  8
ALPHA
 10
1553.115339
 20
199.69452
 30
0.0
 40
2.5
 50
0.0
 51
90.0
  0
LINE
  5
5B4B
  8
ALPHA
 10
1555.615339
 20
207.69452
 30
0.0
 11
1541.615339
 21
207.69452
 31
0.0
  0
LINE
  5
5B4C
  8
AXE
 10
1548.615339
 20
222.19452
 30
0.0
 11
1548.615339
 21
197.19452
 31
0.0
  0
LINE
  5
5B4D
  8
ALPHA
 10
1548.615339
 20
217.19452
 30
0.0
 11
1543.615339
 21
217.19452
 31
0.0
  0
LINE
  5
5B4E
  8
ALPHA
 10
1542.615339
 20
216.19452
 30
0.0
 11
1542.615339
 21
207.69452
 31
0.0
  0
LINE
  5
5B4F
  8
ALPHA_FIN
 10
1543.615339
 20
217.19452
 30
0.0
 11
1543.615339
 21
207.69452
 31
0.0
  0
LINE
  5
5B50
  8
ALPHA
 10
1548.615339
 20
216.19452
 30
0.0
 11
1542.615339
 21
216.19452
 31
0.0
  0
LINE
  5
5B51
  8
ALPHA
 10
1543.615339
 20
217.19452
 30
0.0
 11
1542.615339
 21
216.19452
 31
0.0
  0
LINE
  5
5B52
  8
ALPHA
 10
1541.615339
 20
207.69452
 30
0.0
 11
1541.615339
 21
202.19452
 31
0.0
  0
LINE
  5
5B53
  8
ALPHA
 10
1548.615339
 20
217.19452
 30
0.0
 11
1553.615339
 21
217.19452
 31
0.0
  0
LINE
  5
5B54
  8
ALPHA
 10
1548.615339
 20
216.19452
 30
0.0
 11
1554.615339
 21
216.19452
 31
0.0
  0
LINE
  5
5B55
  8
ALPHA_FIN
 10
1553.615339
 20
217.19452
 30
0.0
 11
1553.615339
 21
207.69452
 31
0.0
  0
LINE
  5
5B56
  8
ALPHA
 10
1554.615339
 20
216.19452
 30
0.0
 11
1554.615339
 21
207.69452
 31
0.0
  0
LINE
  5
5B57
  8
ALPHA
 10
1553.615339
 20
217.19452
 30
0.0
 11
1554.615339
 21
216.19452
 31
0.0
  0
ARC
  5
5BBE
  8
ALPHA_FIN
 10
1529.615339
 20
194.89452
 30
0.0
 40
1.99999
 50
270.0
 51
180.0
  0
CIRCLE
  5
5BC1
  8
ALPHA
 10
1529.615339
 20
194.89452
 30
0.0
 40
2.5
  0
LINE
  5
5C02
  8
AXE
 10
1529.615339
 20
172.39452
 30
0.0
 11
1529.615339
 21
161.39452
 31
0.0
  0
LINE
  5
5C03
  8
AXE
 10
1524.115339
 20
166.89452
 30
0.0
 11
1535.115339
 21
166.89452
 31
0.0
  0
ARC
  5
5C04
  8
ALPHA_FIN
 10
1529.615339
 20
166.89452
 30
0.0
 40
1.99999
 50
270.0
 51
180.0
  0
CIRCLE
  5
5C05
  8
ALPHA
 10
1529.615339
 20
166.89452
 30
0.0
 40
2.5
  0
LINE
  5
5C06
  8
AXE
 10
1550.615339
 20
172.39452
 30
0.0
 11
1550.615339
 21
161.39452
 31
0.0
  0
CIRCLE
  5
5C07
  8
ALPHA
 10
1550.615339
 20
166.89452
 30
0.0
 40
2.5
  0
ARC
  5
5C08
  8
ALPHA_FIN
 10
1550.615339
 20
166.89452
 30
0.0
 40
1.99999
 50
0.0
 51
270.0
  0
LINE
  5
5C09
  8
AXE
 10
1556.115339
 20
166.89452
 30
0.0
 11
1545.115339
 21
166.89452
 31
0.0
  0
LINE
  5
5C0A
  8
AXE
 10
1550.615339
 20
200.39452
 30
0.0
 11
1550.615339
 21
189.39452
 31
0.0
  0
LINE
  5
5C0B
  8
AXE
 10
1556.115339
 20
194.89452
 30
0.0
 11
1545.115339
 21
194.89452
 31
0.0
  0
ARC
  5
5C0C
  8
ALPHA_FIN
 10
1550.615339
 20
194.89452
 30
0.0
 40
1.99999
 50
0.0
 51
270.0
  0
CIRCLE
  5
5C0D
  8
ALPHA
 10
1550.615339
 20
194.89452
 30
0.0
 40
2.5
  0
TEXT
  5
5C0F
  8
AXE
 10
1532.639149
 20
105.99452
 30
0.0
 40
8.0
  1
Y
 72
     2
 11
1539.115339
 21
105.99452
 31
0.0
  0
LINE
  5
5C10
  8
AXE
 10
1571.209473
 20
161.59452
 30
0.0
 11
1519.615339
 21
161.59452
 31
0.0
  0
TEXT
  5
5C11
  8
AXE
 10
1564.733282
 20
162.59452
 30
0.0
 40
8.0
  1
X
 72
     2
 11
1571.209473
 21
162.59452
 31
0.0
  0
DIMENSION
  5
5C87
  8
COTATION1
  2
*D4
 10
1499.615339
 20
202.19452
 30
0.0
 11
1497.515339
 21
161.59452
 31
0.0
 13
1527.615339
 23
120.99452
 33
0.0
 14
1527.115339
 24
202.19452
 34
0.0
 50
90.0
  0
DIMENSION
  5
5CE5
  8
COTATION1
  2
*D5
 10
1499.615339
 20
217.19452
 30
0.0
 11
1497.515339
 21
209.69452
 31
0.0
 13
1541.615339
 23
202.19452
 33
0.0
 14
1543.615339
 24
217.19452
 34
0.0
 50
90.0
  0
DIMENSION
  5
5D04
  8
COTATION1
  2
*D6
 10
1570.615339
 20
120.99452
 30
0.0
 11
1568.515339
 21
111.251663
 31
0.0
 13
1553.115339
 23
125.29452
 33
0.0
 14
1552.615339
 24
120.99452
 34
0.0
 50
90.0
  0
DIMENSION
  5
5D1C
  8
COTATION1
  2
*D7
 10
1570.615339
 20
139.39452
 30
0.0
 11
1568.515339
 21
132.34452
 31
0.0
 13
1552.615339
 23
125.29452
 33
0.0
 14
1555.615339
 24
139.39452
 34
0.0
 50
90.0
  0
DIMENSION
  5
5D32
  8
COTATION1
  2
*D8
 10
1509.615339
 20
166.89452
 30
0.0
 11
1507.515339
 21
153.14452
 31
0.0
 13
1524.615339
 23
139.39452
 33
0.0
 14
1524.115339
 24
166.89452
 34
0.0
 50
90.0
  0
DIMENSION
  5
5D48
  8
COTATION1
  2
*D9
 10
1509.615339
 20
194.89452
 30
0.0
 11
1507.515339
 21
180.89452
 31
0.0
 13
1524.115339
 23
166.89452
 33
0.0
 14
1524.115339
 24
194.89452
 34
0.0
 50
90.0
  0
DIMENSION
  5
5D9F
  8
COTATION1
  2
*D10
 10
1552.615339
 20
95.99452
 30
0.0
 11
1540.115339
 21
98.09452
 31
0.0
  1
%%c<>
 13
1527.615339
 23
120.99452
 33
0.0
 14
1552.615339
 24
120.99452
 34
0.0
  0
DIMENSION
  5
5DBE
  8
COTATION1
  2
*D11
 10
1555.615339
 20
85.99452
 30
0.0
 11
1540.115339
 21
88.09452
 31
0.0
 13
1524.615339
 23
127.79452
 33
0.0
 14
1555.615339
 24
127.79452
 34
0.0
  0
DIMENSION
  5
5DD8
  8
COTATION1
  2
*D12
 10
1540.115339
 20
227.19452
 30
0.0
 11
1544.365339
 21
229.29452
 31
0.0
 13
1548.615339
 23
222.19452
 33
0.0
 14
1540.115339
 24
222.19452
 34
0.0
  0
DIMENSION
  5
5DEE
  8
COTATION1
  2
*D13
 10
1529.615339
 20
237.19452
 30
0.0
 11
1540.115339
 21
239.29452
 31
0.0
 13
1550.615339
 23
200.39452
 33
0.0
 14
1529.615339
 24
200.39452
 34
0.0
  0
SOLID
  5
5F3F
  8
COTATION1
  6
CONTINUOUS
 10
-1556.902968
 20
215.249439
 30
0.0
 11
-1554.056215
 21
214.178926
 31
0.0
 12
-1556.401896
 22
216.114845
 32
0.0
 13
-1556.401896
 23
216.114845
 33
0.0
210
0.0
220
0.0
230
-1.0
1001
ACAD
1000
DSTYLE
1002
{
1070
     5
1000
OPEN30
1070
   342
1005
C8170F03000027E0
1002
}
  0
POLYLINE
  5
63E0
  8
COTATION1
 66
     1
 10
0.0
 20
0.0
 30
0.0
 70
   128
1001
ACAD
1000
R13OBJECT
1002
{
1005
5F3F
1002
}
  0
VERTEX
  5
644D
  8
COTATION1
 10
1556.652432
 20
215.682142
 30
0.0
  0
VERTEX
  5
644E
  8
COTATION1
 10
1563.735483
 20
219.783244
 30
0.0
  0
VERTEX
  5
644F
  8
COTATION1
 10
1579.906911
 20
219.783244
 30
0.0
  0
SEQEND
  5
6450
  8
COTATION1
  0
TEXT
  5
5F40
  8
COTATION1
 10
1566.524884
 20
220.939657
 30
0.0
 40
3.0
  1
M12x1
1001
ACAD
1000
MTEXTBEGIN
1070
    73
1070
     1
1070
    44
1040
1.0
1070
    74
1070
     0
1000
MTEXTEND
1000
MTEXTBEGIN
1070
    73
1070
     1
1070
    44
1040
1.0
1070
    74
1070
     0
1000
MTEXTEND
1000
MTEXTBEGIN
1070
    73
1070
     1
1070
    44
1040
1.0
1070
    74
1070
     0
1000
MTEXTEND
1000
MTEXTBEGIN
1070
    73
1070
     1
1070
    44
1040
1.0
1070
    74
1070
     0
1000
MTEXTEND
1000
MTEXTBEGIN
1070
    73
1070
     1
1070
    44
1040
1.0
1070
    74
1070
     0
1000
MTEXTEND
1000
MTEXTBEGIN
1070
    73
1070
     1
1070
    44
1040
1.0
1070
    74
1070
     0
1000
MTEXTEND
1000
MTEXTBEGIN
1070
    73
1070
     1
1070
    44
1040
1.0
1070
    74
1070
     0
1000
MTEXTEND
1000
MTEXTBEGIN
1070
    73
1070
     1
1070
    44
1040
1.0
1070
    74
1070
     0
1000
MTEXTEND
1000
MTEXTBEGIN
1070
    73
1070
     1
1070
    44
1040
1.0
1070
    74
1070
     0
1000
MTEXTEND
1000
MTEXTBEGIN
1070
    73
1070
     1
1070
    44
1040
1.0
1070
    74
1070
     0
1000
MTEXTEND
1000
MTEXTBEGIN
1070
    73
1070
     1
1070
    44
1040
1.0
1070
    74
1070
     0
1000
MTEXTEND
1000
MTEXTBEGIN
1070
    73
1070
     1
1070
    44
1040
1.0
1070
    74
1070
     0
1000
MTEXTEND
1000
MTEXTBEGIN
1070
    73
1070
     1
1070
    44
1040
1.0
1070
    74
1070
     0
1000
MTEXTEND
1000
MTEXTBEGIN
1070
    73
1070
     1
1070
    44
1040
1.0
1070
    74
1070
     0
1000
MTEXTEND
1000
MTEXTBEGIN
1070
    73
1070
     1
1070
    44
1040
1.0
1070
    74
1070
     0
1000
MTEXTEND
1000
MTEXTBEGIN
1070
    73
1070
     1
1070
    44
1040
1.0
1070
    74
1070
     0
1000
MTEXTEND
1000
MTEXTBEGIN
1070
    73
1070
     1
1070
    44
1040
1.0
1070
    74
1070
     0
1000
MTEXTEND
  0
SOLID
  5
5F41
  8
COTATION1
  6
CONTINUOUS
 10
-1555.528985
 20
197.446261
 30
0.0
 11
-1552.779632
 21
196.145854
 31
0.0
 12
-1554.958618
 22
198.267651
 32
0.0
 13
-1554.958618
 23
198.267651
 33
0.0
210
0.0
220
0.0
230
-1.0
1001
ACAD
1000
DSTYLE
1002
{
1070
     5
1000
OPEN30
1070
   342
1005
64100F03000027E0
1002
}
  0
POLYLINE
  5
63E5
  8
COTATION1
 66
     1
 10
0.0
 20
0.0
 30
0.0
 70
   128
1001
ACAD
1000
R13OBJECT
1002
{
1005
5F41
1002
}
  0
VERTEX
  5
6451
  8
COTATION1
 10
1555.243801
 20
197.856956
 30
0.0
  0
VERTEX
  5
6452
  8
COTATION1
 10
1561.901795
 20
202.480222
 30
0.0
  0
VERTEX
  5
6453
  8
COTATION1
 10
1581.501795
 20
202.480222
 30
0.0
  0
SEQEND
  5
6454
  8
COTATION1
  0
TEXT
  5
5F42
  8
COTATION1
 10
1564.834054
 20
203.636635
 30
0.0
 40
3.0
  1
8xM5x6
1001
ACAD
1000
MTEXTBEGIN
1070
    73
1070
     1
1070
    44
1040
1.0
1070
    74
1070
     0
1000
MTEXTEND
1000
MTEXTBEGIN
1070
    73
1070
     1
1070
    44
1040
1.0
1070
    74
1070
     0
1000
MTEXTEND
1000
MTEXTBEGIN
1070
    73
1070
     1
1070
    44
1040
1.0
1070
    74
1070
     0
1000
MTEXTEND
1000
MTEXTBEGIN
1070
    73
1070
     1
1070
    44
1040
1.0
1070
    74
1070
     0
1000
MTEXTEND
1000
MTEXTBEGIN
1070
    73
1070
     1
1070
    44
1040
1.0
1070
    74
1070
     0
1000
MTEXTEND
1000
MTEXTBEGIN
1070
    73
1070
     1
1070
    44
1040
1.0
1070
    74
1070
     0
1000
MTEXTEND
1000
MTEXTBEGIN
1070
    73
1070
     1
1070
    44
1040
1.0
1070
    74
1070
     0
1000
MTEXTEND
1000
MTEXTBEGIN
1070
    73
1070
     1
1070
    44
1040
1.0
1070
    74
1070
     0
1000
MTEXTEND
1000
MTEXTBEGIN
1070
    73
1070
     1
1070
    44
1040
1.0
1070
    74
1070
     0
1000
MTEXTEND
1000
MTEXTBEGIN
1070
    73
1070
     1
1070
    44
1040
1.0
1070
    74
1070
     0
1000
MTEXTEND
1000
MTEXTBEGIN
1070
    73
1070
     1
1070
    44
1040
1.0
1070
    74
1070
     0
1000
MTEXTEND
1000
MTEXTBEGIN
1070
    73
1070
     1
1070
    44
1040
1.0
1070
    74
1070
     0
1000
MTEXTEND
1000
MTEXTBEGIN
1070
    73
1070
     1
1070
    44
1040
1.0
1070
    74
1070
     0
1000
MTEXTEND
1000
MTEXTBEGIN
1070
    73
1070
     1
1070
    44
1040
1.0
1070
    74
1070
     0
1000
MTEXTEND
1000
MTEXTBEGIN
1070
    73
1070
     1
1070
    44
1040
1.0
1070
    74
1070
     0
1000
MTEXTEND
1000
MTEXTBEGIN
1070
    73
1070
     1
1070
    44
1040
1.0
1070
    74
1070
     0
1000
MTEXTEND
1000
MTEXTBEGIN
1070
    73
1070
     1
1070
    44
1040
1.0
1070
    74
1070
     0
1000
MTEXTEND
  0
ENDSEC
  0
EOF
