  0
SECTION
  2
HEADER
  9
$ACADVER
  1
AC1014
  9
$ACADMAINTVER
 70
     9
  9
$DWGCODEPAGE
  3
ANSI_1252
  9
$INSBASE
 10
0.0
 20
0.0
 30
0.0
  9
$EXTMIN
 10
-0.0000014740623202
 20
0.1900200015532691
 30
0.0
  9
$EXTMAX
 10
65.60000399999999
 20
41.19009155499847
 30
0.0
  9
$LIMMIN
 10
0.0
 20
0.0
  9
$LIMMAX
 10
16.40000099999999
 20
10.25
  9
$ORTHOMODE
 70
     0
  9
$REGENMODE
 70
     1
  9
$FILLMODE
 70
     1
  9
$QTEXTMODE
 70
     0
  9
$MIRRTEXT
 70
     1
  9
$DRAGMODE
 70
     2
  9
$LTSCALE
 40
1.0
  9
$OSMODE
 70
   255
  9
$ATTMODE
 70
     1
  9
$TEXTSIZE
 40
0.16
  9
$TRACEWID
 40
0.05
  9
$TEXTSTYLE
  7
ROMANS
  9
$CLAYER
  8
0
  9
$CELTYPE
  6
BYLAYER
  9
$CECOLOR
 62
   256
  9
$CELTSCALE
 40
1.0
  9
$DELOBJ
 70
     1
  9
$DISPSILH
 70
     0
  9
$DIMSCALE
 40
2.0
  9
$DIMASZ
 40
0.07
  9
$DIMEXO
 40
0.0625
  9
$DIMDLI
 40
0.38
  9
$DIMRND
 40
0.001
  9
$DIMDLE
 40
0.0
  9
$DIMEXE
 40
0.0625
  9
$DIMTP
 40
0.0
  9
$DIMTM
 40
0.0
  9
$DIMTXT
 40
0.1
  9
$DIMCEN
 40
0.09
  9
$DIMTSZ
 40
0.0
  9
$DIMTOL
 70
     0
  9
$DIMLIM
 70
     0
  9
$DIMTIH
 70
     1
  9
$DIMTOH
 70
     1
  9
$DIMSE1
 70
     0
  9
$DIMSE2
 70
     0
  9
$DIMTAD
 70
     0
  9
$DIMZIN
 70
     4
  9
$DIMBLK
  1
SEARROW
  9
$DIMASO
 70
     1
  9
$DIMSHO
 70
     1
  9
$DIMPOST
  1
\X
  9
$DIMAPOST
  1

  9
$DIMALT
 70
     1
  9
$DIMALTD
 70
     0
  9
$DIMALTF
 40
25.4
  9
$DIMLFAC
 40
1.0
  9
$DIMTOFL
 70
     0
  9
$DIMTVP
 40
0.0
  9
$DIMTIX
 70
     0
  9
$DIMSOXD
 70
     0
  9
$DIMSAH
 70
     0
  9
$DIMBLK1
  1

  9
$DIMBLK2
  1

  9
$DIMSTYLE
  2
SCHNEIDERELECTRIC_DUAL_BEL
  9
$DIMCLRD
 70
   256
  9
$DIMCLRE
 70
   256
  9
$DIMCLRT
 70
   256
  9
$DIMTFAC
 40
1.0
  9
$DIMGAP
 40
0.04
  9
$DIMJUST
 70
     0
  9
$DIMSD1
 70
     0
  9
$DIMSD2
 70
     0
  9
$DIMTOLJ
 70
     1
  9
$DIMTZIN
 70
     0
  9
$DIMALTZ
 70
     4
  9
$DIMALTTZ
 70
     0
  9
$DIMFIT
 70
     3
  9
$DIMUPT
 70
     0
  9
$DIMUNIT
 70
     2
  9
$DIMDEC
 70
     2
  9
$DIMTDEC
 70
     2
  9
$DIMALTU
 70
     2
  9
$DIMALTTD
 70
     0
  9
$DIMTXSTY
  7
ROMANS
  9
$DIMAUNIT
 70
     0
  9
$LUNITS
 70
     2
  9
$LUPREC
 70
     4
  9
$SKETCHINC
 40
0.1
  9
$FILLETRAD
 40
0.12
  9
$AUNITS
 70
     0
  9
$AUPREC
 70
     0
  9
$MENU
  1
.
  9
$ELEVATION
 40
0.0
  9
$PELEVATION
 40
0.0
  9
$THICKNESS
 40
0.0
  9
$LIMCHECK
 70
     0
  9
$BLIPMODE
 70
     0
  9
$CHAMFERA
 40
0.015625
  9
$CHAMFERB
 40
0.015625
  9
$CHAMFERC
 40
1.0
  9
$CHAMFERD
 40
0.0
  9
$SKPOLY
 70
     0
  9
$TDCREATE
 40
2451764.576708576
  9
$TDUPDATE
 40
2452062.398574583
  9
$TDINDWG
 40
1.3664776620
  9
$TDUSRTIMER
 40
1.3664774306
  9
$USRTIMER
 70
     1
  9
$ANGBASE
 50
0.0
  9
$ANGDIR
 70
     0
  9
$PDMODE
 70
     0
  9
$PDSIZE
 40
0.0
  9
$PLINEWID
 40
0.0
  9
$COORDS
 70
     2
  9
$SPLFRAME
 70
     0
  9
$SPLINETYPE
 70
     6
  9
$SPLINESEGS
 70
     8
  9
$ATTDIA
 70
     0
  9
$ATTREQ
 70
     1
  9
$HANDLING
 70
 12289
  9
$HANDSEED
  5
133B7
  9
$SURFTAB1
 70
     6
  9
$SURFTAB2
 70
     6
  9
$SURFTYPE
 70
     6
  9
$SURFU
 70
     6
  9
$SURFV
 70
     6
  9
$UCSNAME
  2

  9
$UCSORG
 10
0.0
 20
0.0
 30
0.0
  9
$UCSXDIR
 10
1.0
 20
0.0
 30
0.0
  9
$UCSYDIR
 10
0.0
 20
1.0
 30
0.0
  9
$PUCSNAME
  2

  9
$PUCSORG
 10
0.0
 20
0.0
 30
0.0
  9
$PUCSXDIR
 10
1.0
 20
0.0
 30
0.0
  9
$PUCSYDIR
 10
0.0
 20
1.0
 30
0.0
  9
$USERI1
 70
     0
  9
$USERI2
 70
     0
  9
$USERI3
 70
     0
  9
$USERI4
 70
     0
  9
$USERI5
 70
     0
  9
$USERR1
 40
0.0
  9
$USERR2
 40
0.0
  9
$USERR3
 40
0.0
  9
$USERR4
 40
0.0
  9
$USERR5
 40
0.0
  9
$WORLDVIEW
 70
     1
  9
$SHADEDGE
 70
     3
  9
$SHADEDIF
 70
    70
  9
$TILEMODE
 70
     0
  9
$MAXACTVP
 70
    48
  9
$PINSBASE
 10
0.0
 20
0.0
 30
0.0
  9
$PLIMCHECK
 70
     0
  9
$PEXTMIN
 10
0.0
 20
-0.1507193079929352
 30
0.0
  9
$PEXTMAX
 10
16.40000099999999
 20
10.25
 30
0.0
  9
$PLIMMIN
 10
-0.3018668009882668
 20
-0.4525217414560764
  9
$PLIMMAX
 10
16.69813271841994
 20
10.54747801824803
  9
$UNITMODE
 70
     0
  9
$VISRETAIN
 70
     1
  9
$PLINEGEN
 70
     0
  9
$PSLTSCALE
 70
     1
  9
$TREEDEPTH
 70
  3020
  9
$PICKSTYLE
 70
     1
  9
$CMLSTYLE
  2
STANDARD
  9
$CMLJUST
 70
     0
  9
$CMLSCALE
 40
1.0
  9
$PROXYGRAPHICS
 70
     1
  9
$MEASUREMENT
 70
     0
  0
ENDSEC
  0
SECTION
  2
CLASSES
  0
CLASS
  1
ACDBDICTIONARYWDFLT
  2
AcDbDictionaryWithDefault
  3
AutoCAD 2000
 90
        0
280
     0
281
     0
  0
CLASS
  1
ACDBPLACEHOLDER
  2
AcDbPlaceHolder
  3
AutoCAD 2000
 90
        0
280
     0
281
     0
  0
CLASS
  1
LAYOUT
  2
AcDbLayout
  3
AutoCAD 2000
 90
        0
280
     0
281
     0
  0
CLASS
  1
LONG_TRANSACTION
  2
AcDbLongTransaction
  3
AutoCAD 2000
 90
        0
280
     0
281
     0
  0
CLASS
  1
LWPOLYLINE
  2
AcDbPolyline
  3
AutoCAD 2000
 90
        0
280
     0
281
     1
  0
CLASS
  1
HATCH
  2
AcDbHatch
  3
AutoCAD 2000
 90
        0
280
     0
281
     1
  0
CLASS
  1
XRECORD
  2
AcDbXrecord
  3
AutoCAD 2000
 90
        0
280
     0
281
     0
  0
CLASS
  1
LONG_TRANSACTION
  2
AcDbLongTransaction
  3
AutoCAD 2000
 90
        0
280
     0
281
     0
  0
CLASS
  1
LWPOLYLINE
  2
AcDbPolyline
  3
AutoCAD 2000
 90
        0
280
     0
281
     1
  0
CLASS
  1
HATCH
  2
AcDbHatch
  3
AutoCAD 2000
 90
        0
280
     0
281
     1
  0
CLASS
  1
XRECORD
  2
AcDbXrecord
  3
AutoCAD 2000
 90
        0
280
     0
281
     0
  0
CLASS
  1
LONG_TRANSACTION
  2
AcDbLongTransaction
  3
AutoCAD 2000
 90
        0
280
     0
281
     0
  0
CLASS
  1
LWPOLYLINE
  2
AcDbPolyline
  3
AutoCAD 2000
 90
        0
280
     0
281
     1
  0
CLASS
  1
HATCH
  2
AcDbHatch
  3
AutoCAD 2000
 90
        0
280
     0
281
     1
  0
CLASS
  1
XRECORD
  2
AcDbXrecord
  3
AutoCAD 2000
 90
        0
280
     0
281
     0
  0
CLASS
  1
PLOTSETTINGS
  2
AcDbPlotSettings
  3
AutoCAD 2000
 90
        0
280
     0
281
     0
  0
CLASS
  1
ACME_DOCUMENT
  2
AcMeDbDoc
  3
AcMeServices
 90
        0
280
     0
281
     0
  0
CLASS
  1
AMGSETTINGSOBJ
  2
AmgSettingsObj
  3
"AcadM|Product Description: AutoCAD Mechanical 2000|Company: Autodesk"
 90
        0
280
     0
281
     0
  0
CLASS
  1
ACMESCOPE
  2
AcMeScope
  3
AcMeServices
 90
        0
280
     0
281
     0
  0
CLASS
  1
ACMECOMMANDHISTORY
  2
AcMeCommandHistory
  3
AcMeServices
 90
        0
280
     0
281
     0
  0
CLASS
  1
DICTIONARYVAR
  2
AcDbDictionaryVar
  3
AutoCAD 2000
 90
        0
280
     0
281
     0
  0
CLASS
  1
ACIMSYSVARMAN
  2
AcImSysVarManager
  3
AcMeServices
 90
        0
280
     0
281
     0
  0
CLASS
  1
ACIMREALSYSVAR
  2
AcImRealSysVar
  3
AcMeServices
 90
        0
280
     0
281
     0
  0
CLASS
  1
ACIMINTSYSVAR
  2
AcImIntSysVar
  3
AcMeServices
 90
        0
280
     0
281
     0
  0
CLASS
  1
ACMEDRAWINGMAN
  2
AcMeDrawingMan
  3
AcMeServices
 90
        0
280
     0
281
     0
  0
CLASS
  1
ACMEVIEW
  2
AcMeView
  3
AcMeServices
 90
        0
280
     0
281
     0
  0
CLASS
  1
ACDBENTITYCACHE
  2
AcMeEntityCache
  3
AcMeServices
 90
        0
280
     0
281
     0
  0
CLASS
  1
GSMANAGER
  2
AcMeGSManager
  3
AcMeServices
 90
        0
280
     0
281
     0
  0
CLASS
  1
AmdtInternalReactor
  2
AmdtInternalReactor
  3
AcMeServices
 90
        0
280
     0
281
     0
  0
CLASS
  1
ACMESTATEMGR
  2
AcMeStateMgr
  3
AcMeServices
 90
        0
280
     0
281
     0
  0
CLASS
  1
ACME_DATABASE
  2
AcMeDbDatabase
  3
AcMeServices
 90
        0
280
     0
281
     0
  0
CLASS
  1
ACRFINSADJUSTERMGR
  2
AcRfInsAdjusterMgr
  3
AcMeServices
 90
        0
280
     0
281
     0
  0
CLASS
  1
ACMDATADICTIONARY
  2
AcmDataDictionary
  3
"AcmSymBB|Product Description: AutoCAD Mechanical 2000|Company: Autodesk"
 90
        0
280
     0
281
     0
  0
CLASS
  1
ACMDATAENTRYBLOCK
  2
AcmDataEntryBlock
  3
"AcmSymBB|Product Description: AutoCAD Mechanical 2000|Company: Autodesk"
 90
        0
280
     0
281
     0
  0
CLASS
  1
AMGOBJPROPCFG
  2
AmgObjPropCfg
  3
"AmgLay|Product Description: AutoCAD Mechanical 2000|Company: Autodesk"
 90
        1
280
     0
281
     0
  0
CLASS
  1
ACAMGFILTERDAT
  2
AcAmgFilterDat
  3
"AcadM|Product Description: AutoCAD Mechanical 2000|Company: Autodesk"
 90
        0
280
     0
281
     0
  0
CLASS
  1
LAYER_INDEX
  2
AcDbLayerIndex
  3
AutoCAD 2000
 90
        0
280
     0
281
     0
  0
CLASS
  1
IDBUFFER
  2
AcDbIdBuffer
  3
AutoCAD 2000
 90
        0
280
     0
281
     0
  0
CLASS
  1
LONG_TRANSACTION
  2
AcDbLongTransaction
  3
AutoCAD 2000
 90
        0
280
     0
281
     0
  0
CLASS
  1
LWPOLYLINE
  2
AcDbPolyline
  3
AutoCAD 2000
 90
        0
280
     0
281
     1
  0
CLASS
  1
HATCH
  2
AcDbHatch
  3
AutoCAD 2000
 90
        0
280
     0
281
     1
  0
CLASS
  1
XRECORD
  2
AcDbXrecord
  3
AutoCAD 2000
 90
        0
280
     0
281
     0
  0
CLASS
  1
LONG_TRANSACTION
  2
AcDbLongTransaction
  3
AutoCAD 2000
 90
        0
280
     0
281
     0
  0
CLASS
  1
LWPOLYLINE
  2
AcDbPolyline
  3
AutoCAD 2000
 90
        0
280
     0
281
     1
  0
CLASS
  1
HATCH
  2
AcDbHatch
  3
AutoCAD 2000
 90
        0
280
     0
281
     1
  0
CLASS
  1
XRECORD
  2
AcDbXrecord
  3
AutoCAD 2000
 90
        0
280
     0
281
     0
  0
CLASS
  1
LONG_TRANSACTION
  2
AcDbLongTransaction
  3
AutoCAD 2000
 90
        0
280
     0
281
     0
  0
CLASS
  1
LWPOLYLINE
  2
AcDbPolyline
  3
AutoCAD 2000
 90
        0
280
     0
281
     1
  0
CLASS
  1
HATCH
  2
AcDbHatch
  3
AutoCAD 2000
 90
        0
280
     0
281
     1
  0
CLASS
  1
XRECORD
  2
AcDbXrecord
  3
AutoCAD 2000
 90
        0
280
     0
281
     0
  0
CLASS
  1
LONG_TRANSACTION
  2
AcDbLongTransaction
  3
AutoCAD 2000
 90
        0
280
     0
281
     0
  0
CLASS
  1
LWPOLYLINE
  2
AcDbPolyline
  3
AutoCAD 2000
 90
        0
280
     0
281
     1
  0
CLASS
  1
HATCH
  2
AcDbHatch
  3
AutoCAD 2000
 90
        0
280
     0
281
     1
  0
CLASS
  1
XRECORD
  2
AcDbXrecord
  3
AutoCAD 2000
 90
        0
280
     0
281
     0
  0
CLASS
  1
LONG_TRANSACTION
  2
AcDbLongTransaction
  3
AutoCAD 2000
 90
        0
280
     0
281
     0
  0
CLASS
  1
LWPOLYLINE
  2
AcDbPolyline
  3
AutoCAD 2000
 90
        0
280
     0
281
     1
  0
CLASS
  1
HATCH
  2
AcDbHatch
  3
AutoCAD 2000
 90
        0
280
     0
281
     1
  0
CLASS
  1
XRECORD
  2
AcDbXrecord
  3
AutoCAD 2000
 90
        0
280
     0
281
     0
  0
CLASS
  1
LONG_TRANSACTION
  2
AcDbLongTransaction
  3
AutoCAD 2000
 90
        0
280
     0
281
     0
  0
CLASS
  1
LWPOLYLINE
  2
AcDbPolyline
  3
AutoCAD 2000
 90
        0
280
     0
281
     1
  0
CLASS
  1
HATCH
  2
AcDbHatch
  3
AutoCAD 2000
 90
        0
280
     0
281
     1
  0
CLASS
  1
XRECORD
  2
AcDbXrecord
  3
AutoCAD 2000
 90
        0
280
     0
281
     0
  0
CLASS
  1
LONG_TRANSACTION
  2
AcDbLongTransaction
  3
AutoCAD 2000
 90
        0
280
     0
281
     0
  0
CLASS
  1
LWPOLYLINE
  2
AcDbPolyline
  3
AutoCAD 2000
 90
        0
280
     0
281
     1
  0
CLASS
  1
HATCH
  2
AcDbHatch
  3
AutoCAD 2000
 90
        0
280
     0
281
     1
  0
CLASS
  1
XRECORD
  2
AcDbXrecord
  3
AutoCAD 2000
 90
        0
280
     0
281
     0
  0
CLASS
  1
LONG_TRANSACTION
  2
AcDbLongTransaction
  3
AutoCAD 2000
 90
        0
280
     0
281
     0
  0
CLASS
  1
LWPOLYLINE
  2
AcDbPolyline
  3
AutoCAD 2000
 90
        0
280
     0
281
     1
  0
CLASS
  1
HATCH
  2
AcDbHatch
  3
AutoCAD 2000
 90
        0
280
     0
281
     1
  0
CLASS
  1
XRECORD
  2
AcDbXrecord
  3
AutoCAD 2000
 90
        0
280
     0
281
     0
  0
CLASS
  1
LONG_TRANSACTION
  2
AcDbLongTransaction
  3
AutoCAD 2000
 90
        0
280
     0
281
     0
  0
CLASS
  1
LWPOLYLINE
  2
AcDbPolyline
  3
AutoCAD 2000
 90
        0
280
     0
281
     1
  0
CLASS
  1
HATCH
  2
AcDbHatch
  3
AutoCAD 2000
 90
        0
280
     0
281
     1
  0
CLASS
  1
XRECORD
  2
AcDbXrecord
  3
AutoCAD 2000
 90
        0
280
     0
281
     0
  0
CLASS
  1
LONG_TRANSACTION
  2
AcDbLongTransaction
  3
AutoCAD 2000
 90
        0
280
     0
281
     0
  0
CLASS
  1
LWPOLYLINE
  2
AcDbPolyline
  3
AutoCAD 2000
 90
        0
280
     0
281
     1
  0
CLASS
  1
HATCH
  2
AcDbHatch
  3
AutoCAD 2000
 90
        0
280
     0
281
     1
  0
CLASS
  1
XRECORD
  2
AcDbXrecord
  3
AutoCAD 2000
 90
        0
280
     0
281
     0
  0
CLASS
  1
LONG_TRANSACTION
  2
AcDbLongTransaction
  3
AutoCAD 2000
 90
        0
280
     0
281
     0
  0
CLASS
  1
LWPOLYLINE
  2
AcDbPolyline
  3
AutoCAD 2000
 90
        0
280
     0
281
     1
  0
CLASS
  1
HATCH
  2
AcDbHatch
  3
AutoCAD 2000
 90
        0
280
     0
281
     1
  0
CLASS
  1
XRECORD
  2
AcDbXrecord
  3
AutoCAD 2000
 90
        0
280
     0
281
     0
  0
CLASS
  1
LONG_TRANSACTION
  2
AcDbLongTransaction
  3
AutoCAD 2000
 90
        0
280
     0
281
     0
  0
CLASS
  1
LWPOLYLINE
  2
AcDbPolyline
  3
AutoCAD 2000
 90
        0
280
     0
281
     1
  0
CLASS
  1
HATCH
  2
AcDbHatch
  3
AutoCAD 2000
 90
        0
280
     0
281
     1
  0
CLASS
  1
XRECORD
  2
AcDbXrecord
  3
AutoCAD 2000
 90
        0
280
     0
281
     0
  0
CLASS
  1
LONG_TRANSACTION
  2
AcDbLongTransaction
  3
AutoCAD 2000
 90
        0
280
     0
281
     0
  0
CLASS
  1
LWPOLYLINE
  2
AcDbPolyline
  3
AutoCAD 2000
 90
        0
280
     0
281
     1
  0
CLASS
  1
HATCH
  2
AcDbHatch
  3
AutoCAD 2000
 90
        0
280
     0
281
     1
  0
CLASS
  1
XRECORD
  2
AcDbXrecord
  3
AutoCAD 2000
 90
        0
280
     0
281
     0
  0
CLASS
  1
LONG_TRANSACTION
  2
AcDbLongTransaction
  3
AutoCAD 2000
 90
        0
280
     0
281
     0
  0
CLASS
  1
LWPOLYLINE
  2
AcDbPolyline
  3
AutoCAD 2000
 90
        0
280
     0
281
     1
  0
CLASS
  1
HATCH
  2
AcDbHatch
  3
AutoCAD 2000
 90
        0
280
     0
281
     1
  0
CLASS
  1
XRECORD
  2
AcDbXrecord
  3
AutoCAD 2000
 90
        0
280
     0
281
     0
  0
CLASS
  1
LONG_TRANSACTION
  2
AcDbLongTransaction
  3
AutoCAD 2000
 90
        0
280
     0
281
     0
  0
CLASS
  1
LWPOLYLINE
  2
AcDbPolyline
  3
AutoCAD 2000
 90
        0
280
     0
281
     1
  0
CLASS
  1
HATCH
  2
AcDbHatch
  3
AutoCAD 2000
 90
        0
280
     0
281
     1
  0
CLASS
  1
XRECORD
  2
AcDbXrecord
  3
AutoCAD 2000
 90
        0
280
     0
281
     0
  0
CLASS
  1
LONG_TRANSACTION
  2
AcDbLongTransaction
  3
AutoCAD 2000
 90
        0
280
     0
281
     0
  0
CLASS
  1
LWPOLYLINE
  2
AcDbPolyline
  3
AutoCAD 2000
 90
        0
280
     0
281
     1
  0
CLASS
  1
HATCH
  2
AcDbHatch
  3
AutoCAD 2000
 90
        0
280
     0
281
     1
  0
CLASS
  1
XRECORD
  2
AcDbXrecord
  3
AutoCAD 2000
 90
        0
280
     0
281
     0
  0
CLASS
  1
LONG_TRANSACTION
  2
AcDbLongTransaction
  3
AutoCAD 2000
 90
        0
280
     0
281
     0
  0
CLASS
  1
LWPOLYLINE
  2
AcDbPolyline
  3
AutoCAD 2000
 90
        0
280
     0
281
     1
  0
CLASS
  1
HATCH
  2
AcDbHatch
  3
AutoCAD 2000
 90
        0
280
     0
281
     1
  0
CLASS
  1
XRECORD
  2
AcDbXrecord
  3
AutoCAD 2000
 90
        0
280
     0
281
     0
  0
CLASS
  1
LONG_TRANSACTION
  2
AcDbLongTransaction
  3
AutoCAD 2000
 90
        0
280
     0
281
     0
  0
CLASS
  1
LWPOLYLINE
  2
AcDbPolyline
  3
AutoCAD 2000
 90
        0
280
     0
281
     1
  0
CLASS
  1
HATCH
  2
AcDbHatch
  3
AutoCAD 2000
 90
        0
280
     0
281
     1
  0
CLASS
  1
XRECORD
  2
AcDbXrecord
  3
AutoCAD 2000
 90
        0
280
     0
281
     0
  0
CLASS
  1
LONG_TRANSACTION
  2
AcDbLongTransaction
  3
AutoCAD 2000
 90
        0
280
     0
281
     0
  0
CLASS
  1
LWPOLYLINE
  2
AcDbPolyline
  3
AutoCAD 2000
 90
        0
280
     0
281
     1
  0
CLASS
  1
HATCH
  2
AcDbHatch
  3
AutoCAD 2000
 90
        0
280
     0
281
     1
  0
CLASS
  1
XRECORD
  2
AcDbXrecord
  3
AutoCAD 2000
 90
        0
280
     0
281
     0
  0
CLASS
  1
LONG_TRANSACTION
  2
AcDbLongTransaction
  3
AutoCAD 2000
 90
        0
280
     0
281
     0
  0
CLASS
  1
LWPOLYLINE
  2
AcDbPolyline
  3
AutoCAD 2000
 90
        0
280
     0
281
     1
  0
CLASS
  1
HATCH
  2
AcDbHatch
  3
AutoCAD 2000
 90
        0
280
     0
281
     1
  0
CLASS
  1
XRECORD
  2
AcDbXrecord
  3
AutoCAD 2000
 90
        0
280
     0
281
     0
  0
CLASS
  1
LONG_TRANSACTION
  2
AcDbLongTransaction
  3
AutoCAD 2000
 90
        0
280
     0
281
     0
  0
CLASS
  1
LWPOLYLINE
  2
AcDbPolyline
  3
AutoCAD 2000
 90
        0
280
     0
281
     1
  0
CLASS
  1
HATCH
  2
AcDbHatch
  3
AutoCAD 2000
 90
        0
280
     0
281
     1
  0
CLASS
  1
XRECORD
  2
AcDbXrecord
  3
AutoCAD 2000
 90
        0
280
     0
281
     0
  0
CLASS
  1
LONG_TRANSACTION
  2
AcDbLongTransaction
  3
AutoCAD 2000
 90
        0
280
     0
281
     0
  0
CLASS
  1
LWPOLYLINE
  2
AcDbPolyline
  3
AutoCAD 2000
 90
        0
280
     0
281
     1
  0
CLASS
  1
HATCH
  2
AcDbHatch
  3
AutoCAD 2000
 90
        0
280
     0
281
     1
  0
CLASS
  1
XRECORD
  2
AcDbXrecord
  3
AutoCAD 2000
 90
        0
280
     0
281
     0
  0
CLASS
  1
LONG_TRANSACTION
  2
AcDbLongTransaction
  3
AutoCAD 2000
 90
        0
280
     0
281
     0
  0
CLASS
  1
LWPOLYLINE
  2
AcDbPolyline
  3
AutoCAD 2000
 90
        0
280
     0
281
     1
  0
CLASS
  1
HATCH
  2
AcDbHatch
  3
AutoCAD 2000
 90
        0
280
     0
281
     1
  0
CLASS
  1
XRECORD
  2
AcDbXrecord
  3
AutoCAD 2000
 90
        0
280
     0
281
     0
  0
CLASS
  1
LONG_TRANSACTION
  2
AcDbLongTransaction
  3
AutoCAD 2000
 90
        0
280
     0
281
     0
  0
CLASS
  1
LWPOLYLINE
  2
AcDbPolyline
  3
AutoCAD 2000
 90
        0
280
     0
281
     1
  0
CLASS
  1
HATCH
  2
AcDbHatch
  3
AutoCAD 2000
 90
        0
280
     0
281
     1
  0
CLASS
  1
XRECORD
  2
AcDbXrecord
  3
AutoCAD 2000
 90
        0
280
     0
281
     0
  0
CLASS
  1
LONG_TRANSACTION
  2
AcDbLongTransaction
  3
AutoCAD 2000
 90
        0
280
     0
281
     0
  0
CLASS
  1
LWPOLYLINE
  2
AcDbPolyline
  3
AutoCAD 2000
 90
        0
280
     0
281
     1
  0
CLASS
  1
HATCH
  2
AcDbHatch
  3
AutoCAD 2000
 90
        0
280
     0
281
     1
  0
CLASS
  1
XRECORD
  2
AcDbXrecord
  3
AutoCAD 2000
 90
        0
280
     0
281
     0
  0
CLASS
  1
LONG_TRANSACTION
  2
AcDbLongTransaction
  3
AutoCAD 2000
 90
        0
280
     0
281
     0
  0
CLASS
  1
LWPOLYLINE
  2
AcDbPolyline
  3
AutoCAD 2000
 90
        0
280
     0
281
     1
  0
CLASS
  1
HATCH
  2
AcDbHatch
  3
AutoCAD 2000
 90
        0
280
     0
281
     1
  0
CLASS
  1
XRECORD
  2
AcDbXrecord
  3
AutoCAD 2000
 90
        0
280
     0
281
     0
  0
CLASS
  1
LONG_TRANSACTION
  2
AcDbLongTransaction
  3
AutoCAD 2000
 90
        0
280
     0
281
     0
  0
CLASS
  1
LWPOLYLINE
  2
AcDbPolyline
  3
AutoCAD 2000
 90
        0
280
     0
281
     1
  0
CLASS
  1
HATCH
  2
AcDbHatch
  3
AutoCAD 2000
 90
        0
280
     0
281
     1
  0
CLASS
  1
XRECORD
  2
AcDbXrecord
  3
AutoCAD 2000
 90
        0
280
     0
281
     0
  0
CLASS
  1
LONG_TRANSACTION
  2
AcDbLongTransaction
  3
AutoCAD 2000
 90
        0
280
     0
281
     0
  0
CLASS
  1
LWPOLYLINE
  2
AcDbPolyline
  3
AutoCAD 2000
 90
        0
280
     0
281
     1
  0
CLASS
  1
HATCH
  2
AcDbHatch
  3
AutoCAD 2000
 90
        0
280
     0
281
     1
  0
CLASS
  1
XRECORD
  2
AcDbXrecord
  3
AutoCAD 2000
 90
        0
280
     0
281
     0
  0
CLASS
  1
LONG_TRANSACTION
  2
AcDbLongTransaction
  3
AutoCAD 2000
 90
        0
280
     0
281
     0
  0
CLASS
  1
LWPOLYLINE
  2
AcDbPolyline
  3
AutoCAD 2000
 90
        0
280
     0
281
     1
  0
CLASS
  1
HATCH
  2
AcDbHatch
  3
AutoCAD 2000
 90
        0
280
     0
281
     1
  0
CLASS
  1
XRECORD
  2
AcDbXrecord
  3
AutoCAD 2000
 90
        0
280
     0
281
     0
  0
CLASS
  1
LONG_TRANSACTION
  2
AcDbLongTransaction
  3
AutoCAD 2000
 90
        0
280
     0
281
     0
  0
CLASS
  1
LWPOLYLINE
  2
AcDbPolyline
  3
AutoCAD 2000
 90
        0
280
     0
281
     1
  0
CLASS
  1
HATCH
  2
AcDbHatch
  3
AutoCAD 2000
 90
        0
280
     0
281
     1
  0
CLASS
  1
XRECORD
  2
AcDbXrecord
  3
AutoCAD 2000
 90
        0
280
     0
281
     0
  0
CLASS
  1
LONG_TRANSACTION
  2
AcDbLongTransaction
  3
AutoCAD 2000
 90
        0
280
     0
281
     0
  0
CLASS
  1
LWPOLYLINE
  2
AcDbPolyline
  3
AutoCAD 2000
 90
        0
280
     0
281
     1
  0
CLASS
  1
HATCH
  2
AcDbHatch
  3
AutoCAD 2000
 90
        0
280
     0
281
     1
  0
CLASS
  1
XRECORD
  2
AcDbXrecord
  3
AutoCAD 2000
 90
        0
280
     0
281
     0
  0
CLASS
  1
LONG_TRANSACTION
  2
AcDbLongTransaction
  3
AutoCAD 2000
 90
        0
280
     0
281
     0
  0
CLASS
  1
LWPOLYLINE
  2
AcDbPolyline
  3
AutoCAD 2000
 90
        0
280
     0
281
     1
  0
CLASS
  1
HATCH
  2
AcDbHatch
  3
AutoCAD 2000
 90
        0
280
     0
281
     1
  0
CLASS
  1
XRECORD
  2
AcDbXrecord
  3
AutoCAD 2000
 90
        0
280
     0
281
     0
  0
CLASS
  1
LONG_TRANSACTION
  2
AcDbLongTransaction
  3
AutoCAD 2000
 90
        0
280
     0
281
     0
  0
CLASS
  1
LWPOLYLINE
  2
AcDbPolyline
  3
AutoCAD 2000
 90
        0
280
     0
281
     1
  0
CLASS
  1
HATCH
  2
AcDbHatch
  3
AutoCAD 2000
 90
        0
280
     0
281
     1
  0
CLASS
  1
XRECORD
  2
AcDbXrecord
  3
AutoCAD 2000
 90
        0
280
     0
281
     0
  0
CLASS
  1
LONG_TRANSACTION
  2
AcDbLongTransaction
  3
AutoCAD 2000
 90
        0
280
     0
281
     0
  0
CLASS
  1
LWPOLYLINE
  2
AcDbPolyline
  3
AutoCAD 2000
 90
        0
280
     0
281
     1
  0
CLASS
  1
HATCH
  2
AcDbHatch
  3
AutoCAD 2000
 90
        0
280
     0
281
     1
  0
CLASS
  1
XRECORD
  2
AcDbXrecord
  3
AutoCAD 2000
 90
        0
280
     0
281
     0
  0
CLASS
  1
LONG_TRANSACTION
  2
AcDbLongTransaction
  3
AutoCAD 2000
 90
        0
280
     0
281
     0
  0
CLASS
  1
LWPOLYLINE
  2
AcDbPolyline
  3
AutoCAD 2000
 90
        0
280
     0
281
     1
  0
CLASS
  1
HATCH
  2
AcDbHatch
  3
AutoCAD 2000
 90
        0
280
     0
281
     1
  0
CLASS
  1
XRECORD
  2
AcDbXrecord
  3
AutoCAD 2000
 90
        0
280
     0
281
     0
  0
CLASS
  1
LONG_TRANSACTION
  2
AcDbLongTransaction
  3
AutoCAD 2000
 90
        0
280
     0
281
     0
  0
CLASS
  1
LWPOLYLINE
  2
AcDbPolyline
  3
AutoCAD 2000
 90
        0
280
     0
281
     1
  0
CLASS
  1
HATCH
  2
AcDbHatch
  3
AutoCAD 2000
 90
        0
280
     0
281
     1
  0
CLASS
  1
XRECORD
  2
AcDbXrecord
  3
AutoCAD 2000
 90
        0
280
     0
281
     0
  0
CLASS
  1
LONG_TRANSACTION
  2
AcDbLongTransaction
  3
AutoCAD 2000
 90
        0
280
     0
281
     0
  0
CLASS
  1
LWPOLYLINE
  2
AcDbPolyline
  3
AutoCAD 2000
 90
        0
280
     0
281
     1
  0
CLASS
  1
HATCH
  2
AcDbHatch
  3
AutoCAD 2000
 90
        0
280
     0
281
     1
  0
CLASS
  1
XRECORD
  2
AcDbXrecord
  3
AutoCAD 2000
 90
        0
280
     0
281
     0
  0
CLASS
  1
LONG_TRANSACTION
  2
AcDbLongTransaction
  3
AutoCAD 2000
 90
        0
280
     0
281
     0
  0
CLASS
  1
LWPOLYLINE
  2
AcDbPolyline
  3
AutoCAD 2000
 90
        0
280
     0
281
     1
  0
CLASS
  1
HATCH
  2
AcDbHatch
  3
AutoCAD 2000
 90
        0
280
     0
281
     1
  0
CLASS
  1
XRECORD
  2
AcDbXrecord
  3
AutoCAD 2000
 90
        0
280
     0
281
     0
  0
CLASS
  1
LONG_TRANSACTION
  2
AcDbLongTransaction
  3
AutoCAD 2000
 90
        0
280
     0
281
     0
  0
CLASS
  1
LWPOLYLINE
  2
AcDbPolyline
  3
AutoCAD 2000
 90
        0
280
     0
281
     1
  0
CLASS
  1
HATCH
  2
AcDbHatch
  3
AutoCAD 2000
 90
        0
280
     0
281
     1
  0
CLASS
  1
XRECORD
  2
AcDbXrecord
  3
AutoCAD 2000
 90
        0
280
     0
281
     0
  0
CLASS
  1
LONG_TRANSACTION
  2
AcDbLongTransaction
  3
AutoCAD 2000
 90
        0
280
     0
281
     0
  0
CLASS
  1
LWPOLYLINE
  2
AcDbPolyline
  3
AutoCAD 2000
 90
        0
280
     0
281
     1
  0
CLASS
  1
HATCH
  2
AcDbHatch
  3
AutoCAD 2000
 90
        0
280
     0
281
     1
  0
CLASS
  1
XRECORD
  2
AcDbXrecord
  3
AutoCAD 2000
 90
        0
280
     0
281
     0
  0
CLASS
  1
LONG_TRANSACTION
  2
AcDbLongTransaction
  3
AutoCAD 2000
 90
        0
280
     0
281
     0
  0
CLASS
  1
LWPOLYLINE
  2
AcDbPolyline
  3
AutoCAD 2000
 90
        0
280
     0
281
     1
  0
CLASS
  1
HATCH
  2
AcDbHatch
  3
AutoCAD 2000
 90
        0
280
     0
281
     1
  0
CLASS
  1
XRECORD
  2
AcDbXrecord
  3
AutoCAD 2000
 90
        0
280
     0
281
     0
  0
CLASS
  1
LONG_TRANSACTION
  2
AcDbLongTransaction
  3
AutoCAD 2000
 90
        0
280
     0
281
     0
  0
CLASS
  1
LWPOLYLINE
  2
AcDbPolyline
  3
AutoCAD 2000
 90
        0
280
     0
281
     1
  0
CLASS
  1
HATCH
  2
AcDbHatch
  3
AutoCAD 2000
 90
        0
280
     0
281
     1
  0
CLASS
  1
XRECORD
  2
AcDbXrecord
  3
AutoCAD 2000
 90
        0
280
     0
281
     0
  0
CLASS
  1
LONG_TRANSACTION
  2
AcDbLongTransaction
  3
AutoCAD 2000
 90
        0
280
     0
281
     0
  0
CLASS
  1
LWPOLYLINE
  2
AcDbPolyline
  3
AutoCAD 2000
 90
        0
280
     0
281
     1
  0
CLASS
  1
HATCH
  2
AcDbHatch
  3
AutoCAD 2000
 90
        0
280
     0
281
     1
  0
CLASS
  1
XRECORD
  2
AcDbXrecord
  3
AutoCAD 2000
 90
        0
280
     0
281
     0
  0
ENDSEC
  0
SECTION
  2
TABLES
  0
TABLE
  2
VPORT
  5
8
330
0
100
AcDbSymbolTable
 70
     1
  0
VPORT
  5
1312F
330
8
100
AcDbSymbolTableRecord
100
AcDbViewportTableRecord
  2
*ACTIVE
 70
     0
 10
0.0
 20
0.0
 11
1.0
 21
1.0
 12
32.80000141570575
 22
20.68932251128756
 13
0.0
 23
0.0
 14
0.5
 24
0.5
 15
0.5
 25
0.5
 16
0.0
 26
0.0
 36
1.0
 17
0.0
 27
0.0
 37
0.0
 40
41.40086573248157
 41
1.788368336025848
 42
50.0
 43
0.0
 44
0.0
 50
0.0
 51
0.0
 71
     0
 72
   100
 73
     1
 74
     2
 75
     0
 76
     0
 77
     0
 78
     0
  0
ENDTAB
  0
TABLE
  2
LTYPE
  5
5
330
0
100
AcDbSymbolTable
 70
     6
  0
LTYPE
  5
14
330
5
100
AcDbSymbolTableRecord
100
AcDbLinetypeTableRecord
  2
BYBLOCK
 70
     0
  3

 72
    65
 73
     0
 40
0.0
  0
LTYPE
  5
15
330
5
100
AcDbSymbolTableRecord
100
AcDbLinetypeTableRecord
  2
BYLAYER
 70
     0
  3

 72
    65
 73
     0
 40
0.0
  0
LTYPE
  5
16
330
5
100
AcDbSymbolTableRecord
100
AcDbLinetypeTableRecord
  2
CONTINUOUS
 70
     0
  3
Solid line
 72
    65
 73
     0
 40
0.0
  0
LTYPE
  5
3D
330
5
100
AcDbSymbolTableRecord
100
AcDbLinetypeTableRecord
  2
CENTER2
 70
     0
  3
Center (.5x) ___ _ ___ _ ___ _ ___ _ ___ _ ___
 72
    65
 73
     4
 40
1.125
 49
0.75
 74
     0
 49
-0.125
 74
     0
 49
0.125
 74
     0
 49
-0.125
 74
     0
  0
LTYPE
  5
3E
330
5
100
AcDbSymbolTableRecord
100
AcDbLinetypeTableRecord
  2
DASHDOT2
 70
     0
  3
Dash dot (.5x) _._._._._._._._._._._._._._._.
 72
    65
 73
     4
 40
0.5
 49
0.25
 74
     0
 49
-0.125
 74
     0
 49
0.0
 74
     0
 49
-0.125
 74
     0
  0
LTYPE
  5
3F
330
5
100
AcDbSymbolTableRecord
100
AcDbLinetypeTableRecord
  2
DASHED2
 70
     0
  3
Dashed (.5x) _ _ _ _ _ _ _ _ _ _ _ _ _ _ _ _ _
 72
    65
 73
     2
 40
0.375
 49
0.25
 74
     0
 49
-0.125
 74
     0
  0
LTYPE
  5
40
330
5
100
AcDbSymbolTableRecord
100
AcDbLinetypeTableRecord
  2
HIDDEN2
 70
     0
  3
Hidden (.5x) _ _ _ _ _ _ _ _ _ _ _ _ _ _ _ _ _
 72
    65
 73
     2
 40
0.1875
 49
0.125
 74
     0
 49
-0.0625
 74
     0
  0
LTYPE
  5
41
330
5
100
AcDbSymbolTableRecord
100
AcDbLinetypeTableRecord
  2
PHANTOM2
 70
     0
  3
Phantom (.5x) ___ _ _ ___ _ _ ___ _ _ ___ _ _
 72
    65
 73
     6
 40
1.25
 49
0.625
 74
     0
 49
-0.125
 74
     0
 49
0.125
 74
     0
 49
-0.125
 74
     0
 49
0.125
 74
     0
 49
-0.125
 74
     0
  0
ENDTAB
  0
TABLE
  2
LAYER
  5
2
330
0
100
AcDbSymbolTable
 70
    25
  0
LAYER
  5
10
330
2
100
AcDbSymbolTableRecord
100
AcDbLayerTableRecord
  2
0
 70
     0
 62
     7
  6
CONTINUOUS
  0
LAYER
  5
42
330
2
100
AcDbSymbolTableRecord
100
AcDbLayerTableRecord
  2
BLOCKS
 70
     0
 62
     7
  6
CONTINUOUS
  0
LAYER
  5
43
330
2
100
AcDbSymbolTableRecord
100
AcDbLayerTableRecord
  2
CENTER1
 70
     0
 62
     2
  6
CENTER2
  0
LAYER
  5
44
330
2
100
AcDbSymbolTableRecord
100
AcDbLayerTableRecord
  2
CENTER2
 70
     0
 62
    50
  6
CENTER2
  0
LAYER
  5
45
330
2
100
AcDbSymbolTableRecord
100
AcDbLayerTableRecord
  2
CENTER3
 70
     0
 62
    51
  6
CENTER2
  0
LAYER
  5
46
330
2
100
AcDbSymbolTableRecord
100
AcDbLayerTableRecord
  2
CONSTRUCTION
 70
     0
 62
   241
  6
DASHED2
  0
LAYER
  5
47
330
2
100
AcDbSymbolTableRecord
100
AcDbLayerTableRecord
  2
CONTINUOUS1
 70
     0
 62
     7
  6
CONTINUOUS
  0
LAYER
  5
48
330
2
100
AcDbSymbolTableRecord
100
AcDbLayerTableRecord
  2
CONTINUOUS2
 70
     0
 62
   254
  6
CONTINUOUS
  0
LAYER
  5
49
330
2
100
AcDbSymbolTableRecord
100
AcDbLayerTableRecord
  2
CONTINUOUS3
 70
     0
 62
   253
  6
CONTINUOUS
  0
LAYER
  5
4A
330
2
100
AcDbSymbolTableRecord
100
AcDbLayerTableRecord
  2
DASHDOT1
 70
     0
 62
     1
  6
DASHDOT2
  0
LAYER
  5
4B
330
2
100
AcDbSymbolTableRecord
100
AcDbLayerTableRecord
  2
DASHDOT2
 70
     0
 62
    10
  6
DASHDOT2
  0
LAYER
  5
4C
330
2
100
AcDbSymbolTableRecord
100
AcDbLayerTableRecord
  2
DASHDOT3
 70
     0
 62
    12
  6
DASHDOT2
  0
LAYER
  5
4D
330
2
100
AcDbSymbolTableRecord
100
AcDbLayerTableRecord
  2
DIM
 70
     0
 62
     2
  6
CONTINUOUS
  0
LAYER
  5
4E
330
2
100
AcDbSymbolTableRecord
100
AcDbLayerTableRecord
  2
HIDDEN1
 70
     0
 62
     5
  6
HIDDEN2
  0
LAYER
  5
4F
330
2
100
AcDbSymbolTableRecord
100
AcDbLayerTableRecord
  2
HIDDEN2
 70
     0
 62
   160
  6
HIDDEN2
  0
LAYER
  5
50
330
2
100
AcDbSymbolTableRecord
100
AcDbLayerTableRecord
  2
HIDDEN3
 70
     0
 62
   162
  6
HIDDEN2
  0
LAYER
  5
52
330
2
100
AcDbSymbolTableRecord
100
AcDbLayerTableRecord
  2
PHANTOM1
 70
     0
 62
     6
  6
PHANTOM2
  0
LAYER
  5
53
330
2
100
AcDbSymbolTableRecord
100
AcDbLayerTableRecord
  2
PHANTOM2
 70
     0
 62
   210
  6
PHANTOM2
  0
LAYER
  5
54
330
2
100
AcDbSymbolTableRecord
100
AcDbLayerTableRecord
  2
PHANTOM3
 70
     0
 62
   212
  6
PHANTOM2
  0
LAYER
  5
55
330
2
100
AcDbSymbolTableRecord
100
AcDbLayerTableRecord
  2
TEXT1
 70
     0
 62
     3
  6
CONTINUOUS
  0
LAYER
  5
56
330
2
100
AcDbSymbolTableRecord
100
AcDbLayerTableRecord
  2
TEXT2
 70
     0
 62
    80
  6
CONTINUOUS
  0
LAYER
  5
57
330
2
100
AcDbSymbolTableRecord
100
AcDbLayerTableRecord
  2
TEXT3
 70
     0
 62
    82
  6
CONTINUOUS
  0
LAYER
  5
58
330
2
100
AcDbSymbolTableRecord
100
AcDbLayerTableRecord
  2
TITLEBLOCK
 70
     0
 62
     9
  6
CONTINUOUS
  0
LAYER
  5
59
330
2
100
AcDbSymbolTableRecord
100
AcDbLayerTableRecord
  2
VIEWPORT
 70
     0
 62
     9
  6
CONTINUOUS
  0
LAYER
  5
10A6A
330
2
100
AcDbSymbolTableRecord
100
AcDbLayerTableRecord
  2
DEFPOINTS
 70
     0
 62
     7
  6
CONTINUOUS
  0
ENDTAB
  0
TABLE
  2
STYLE
  5
3
330
0
100
AcDbSymbolTable
 70
     4
  0
STYLE
  5
11
330
3
100
AcDbSymbolTableRecord
100
AcDbTextStyleTableRecord
  2
STANDARD
 70
     0
 40
0.0
 41
1.0
 50
0.0
 71
     0
 42
0.2
  3
txt
  4

  0
STYLE
  5
36
330
3
100
AcDbSymbolTableRecord
100
AcDbTextStyleTableRecord
  2
ROMANS
 70
     0
 40
0.0
 41
1.0
 50
0.0
 71
     0
 42
0.16
  3
romans.shx
  4

  0
STYLE
  5
6CC
330
3
100
AcDbSymbolTableRecord
100
AcDbTextStyleTableRecord
  2
M_STANDARD
 70
     0
 40
0.0
 41
0.8
 50
0.0
 71
     0
 42
0.0
  3
MEDUSA.SHX
  4

  0
STYLE
  5
D51
330
3
100
AcDbSymbolTableRecord
100
AcDbTextStyleTableRecord
  2
SIMPLEX
 70
     0
 40
0.0
 41
1.0
 50
0.0
 71
     0
 42
0.25
  3
SIMPLEX.shx
  4

  0
ENDTAB
  0
TABLE
  2
VIEW
  5
6
330
0
100
AcDbSymbolTable
 70
     0
  0
ENDTAB
  0
TABLE
  2
UCS
  5
7
330
0
100
AcDbSymbolTable
 70
     0
  0
ENDTAB
  0
TABLE
  2
APPID
  5
9
330
0
100
AcDbSymbolTable
 70
    11
  0
APPID
  5
12
330
9
100
AcDbSymbolTableRecord
100
AcDbRegAppTableRecord
  2
ACAD
 70
     0
  0
APPID
  5
6B
330
9
100
AcDbSymbolTableRecord
100
AcDbRegAppTableRecord
  2
DCO15
 70
     0
  0
APPID
  5
370
330
9
100
AcDbSymbolTableRecord
100
AcDbRegAppTableRecord
  2
MCAD_NO_VIS
 70
     0
  0
APPID
  5
371
330
9
100
AcDbSymbolTableRecord
100
AcDbRegAppTableRecord
  2
ACAD_TEMP_GRAPHIC
 70
     0
  0
APPID
  5
387
330
9
100
AcDbSymbolTableRecord
100
AcDbRegAppTableRecord
  2
GENIUS_GENSCREG_15
 70
     0
  0
APPID
  5
389
330
9
100
AcDbSymbolTableRecord
100
AcDbRegAppTableRecord
  2
GENIUS_GENODEF_13
 70
     0
  0
APPID
  5
38A
330
9
100
AcDbSymbolTableRecord
100
AcDbRegAppTableRecord
  2
GENIUS_GENOBJ-N-SDF_13
 70
     0
  0
APPID
  5
38B
330
9
100
AcDbSymbolTableRecord
100
AcDbRegAppTableRecord
  2
GENIUS_GENOENT_13
 70
     0
  0
APPID
  5
38C
330
9
100
AcDbSymbolTableRecord
100
AcDbRegAppTableRecord
  2
GENIUS_GENOREF_13
 70
     0
  0
APPID
  5
38D
330
9
100
AcDbSymbolTableRecord
100
AcDbRegAppTableRecord
  2
GENIUS_GENOLIS_13
 70
     0
  0
APPID
  5
6CE
330
9
100
AcDbSymbolTableRecord
100
AcDbRegAppTableRecord
  2
MED_PRIMTYPE
 70
     0
  0
ENDTAB
  0
TABLE
  2
DIMSTYLE
  5
A
330
0
100
AcDbSymbolTable
 70
     1
  0
DIMSTYLE
105
C2FA
102
{ACAD_REACTORS
330
11573
330
1138C
330
11387
330
1134B
330
110DD
330
110CE
330
110C0
330
110B2
330
10BC7
330
10BAF
330
10B97
330
10B57
330
10AA1
330
10A89
330
10A79
330
10A69
102
}
330
A
100
AcDbSymbolTableRecord
100
AcDbDimStyleTableRecord
  2
SCHNEIDERELECTRIC_DUAL_BEL
 70
     0
  3
\X
  4

  5
SEARROW
  6

  7

 40
0.0
 41
0.07
 42
0.0625
 43
0.38
 44
0.0625
 45
0.001
 46
0.0
 47
0.0
 48
0.0
140
0.1
141
0.09
142
0.0
143
25.4
144
1.0
145
0.0
146
1.0
147
0.04
 71
     0
 72
     0
 73
     1
 74
     1
 75
     0
 76
     0
 77
     0
 78
     4
170
     1
171
     0
172
     0
173
     0
174
     0
175
     0
176
   256
177
   256
178
   256
270
     2
271
     2
272
     2
273
     2
274
     0
340
36
275
     0
280
     0
281
     0
282
     0
283
     1
284
     0
285
     4
286
     0
287
     3
288
     0
  0
ENDTAB
  0
TABLE
  2
BLOCK_RECORD
  5
1
330
0
100
AcDbSymbolTable
 70
    17
  0
BLOCK_RECORD
  5
1F
102
{ACAD_XDICTIONARY
360
73
102
}
330
1
100
AcDbSymbolTableRecord
100
AcDbBlockTableRecord
  2
*MODEL_SPACE
  0
BLOCK_RECORD
  5
1B
102
{ACAD_XDICTIONARY
360
75
102
}
330
1
100
AcDbSymbolTableRecord
100
AcDbBlockTableRecord
  2
*PAPER_SPACE
  0
BLOCK_RECORD
  5
783
330
1
100
AcDbSymbolTableRecord
100
AcDbBlockTableRecord
  2
NEWLAYERS
1001
ACAD
1000
DesignCenter Data
1002
{
1070
     1
1070
     1
1002
}
  0
BLOCK_RECORD
  5
841
330
1
100
AcDbSymbolTableRecord
100
AcDbBlockTableRecord
  2
LOGO-PAD
1001
ACAD
1000
DesignCenter Data
1002
{
1070
     1
1070
     1
1002
}
  0
BLOCK_RECORD
  5
AE5
330
1
100
AcDbSymbolTableRecord
100
AcDbBlockTableRecord
  2
TITLE-PAD
1001
ACAD
1000
DesignCenter Data
1002
{
1070
     1
1070
     1
1002
}
  0
BLOCK_RECORD
  5
D52
330
1
100
AcDbSymbolTableRecord
100
AcDbBlockTableRecord
  2
OEM-NOTES
1001
ACAD
1000
DesignCenter Data
1002
{
1070
     1
1070
     1
1002
}
  0
BLOCK_RECORD
  5
AA81
330
1
100
AcDbSymbolTableRecord
100
AcDbBlockTableRecord
  2
SEARROW
1001
ACAD
1000
DesignCenter Data
1002
{
1070
     1
1070
     1
1002
}
  0
BLOCK_RECORD
  5
10A6B
330
1
100
AcDbSymbolTableRecord
100
AcDbBlockTableRecord
  2
*D5
  0
BLOCK_RECORD
  5
10A7A
330
1
100
AcDbSymbolTableRecord
100
AcDbBlockTableRecord
  2
*D6
  0
BLOCK_RECORD
  5
10A8A
330
1
100
AcDbSymbolTableRecord
100
AcDbBlockTableRecord
  2
*D7
  0
BLOCK_RECORD
  5
10AA2
330
1
100
AcDbSymbolTableRecord
100
AcDbBlockTableRecord
  2
*D8
  0
BLOCK_RECORD
  5
10B58
330
1
100
AcDbSymbolTableRecord
100
AcDbBlockTableRecord
  2
*D9
  0
BLOCK_RECORD
  5
10B98
330
1
100
AcDbSymbolTableRecord
100
AcDbBlockTableRecord
  2
*D10
  0
BLOCK_RECORD
  5
10BB0
330
1
100
AcDbSymbolTableRecord
100
AcDbBlockTableRecord
  2
*D11
  0
BLOCK_RECORD
  5
10BC8
330
1
100
AcDbSymbolTableRecord
100
AcDbBlockTableRecord
  2
*D12
  0
BLOCK_RECORD
  5
110B3
330
1
100
AcDbSymbolTableRecord
100
AcDbBlockTableRecord
  2
*D13
  0
BLOCK_RECORD
  5
110C1
330
1
100
AcDbSymbolTableRecord
100
AcDbBlockTableRecord
  2
*D14
  0
BLOCK_RECORD
  5
110CF
330
1
100
AcDbSymbolTableRecord
100
AcDbBlockTableRecord
  2
*D15
  0
BLOCK_RECORD
  5
110DE
330
1
100
AcDbSymbolTableRecord
100
AcDbBlockTableRecord
  2
*D16
  0
ENDTAB
  0
ENDSEC
  0
SECTION
  2
BLOCKS
  0
BLOCK
  5
20
330
1F
100
AcDbEntity
  8
0
100
AcDbBlockBegin
  2
*MODEL_SPACE
 70
     0
 10
0.0
 20
0.0
 30
0.0
  3
*MODEL_SPACE
  1

  0
ENDBLK
  5
21
330
1F
100
AcDbEntity
  8
0
100
AcDbBlockEnd
  0
BLOCK
  5
1C
330
1B
100
AcDbEntity
 67
     1
  8
0
100
AcDbBlockBegin
  2
*PAPER_SPACE
 70
     0
 10
0.0
 20
0.0
 30
0.0
  3
*PAPER_SPACE
  1

  0
ENDBLK
  5
1D
330
1B
100
AcDbEntity
 67
     1
  8
0
100
AcDbBlockEnd
  0
BLOCK
  5
79C
330
783
100
AcDbEntity
  8
0
100
AcDbBlockBegin
  2
NEWLAYERS
 70
     0
 10
0.0
 20
0.0
 30
0.0
  3
NEWLAYERS
  1

  0
LINE
  5
784
330
783
100
AcDbEntity
  8
PHANTOM1
100
AcDbLine
 10
0.264152010466205
 20
0.3394492053544127
 30
0.0
 11
0.264152010466205
 21
0.1923545555598593
 31
0.0
  0
LINE
  5
785
330
783
100
AcDbEntity
  8
PHANTOM2
100
AcDbLine
 10
0.3018880119612959
 20
0.3394492053544127
 30
0.0
 11
0.3018880119612959
 21
0.1923545555598593
 31
0.0
  0
LINE
  5
786
330
783
100
AcDbEntity
  8
PHANTOM3
100
AcDbLine
 10
0.3396240134565005
 20
0.3394492053544127
 30
0.0
 11
0.3396240134565005
 21
0.1923545555598593
 31
0.0
  0
LINE
  5
787
330
783
100
AcDbEntity
  8
DASHDOT2
100
AcDbLine
 10
0.0
 20
0.3394492053544127
 30
0.0
 11
0.0
 21
0.1923545555598593
 31
0.0
  0
LINE
  5
788
330
783
100
AcDbEntity
  8
DASHDOT3
100
AcDbLine
 10
0.0377360014952046
 20
0.3394492053544127
 30
0.0
 11
0.0377360014952046
 21
0.1923545555598593
 31
0.0
  0
LINE
  5
789
330
783
100
AcDbEntity
  8
DIM
100
AcDbLine
 10
0.0754720029902956
 20
0.3394492053544127
 30
0.0
 11
0.0754720029902956
 21
0.1923545555598593
 31
0.0
  0
LINE
  5
78A
330
783
100
AcDbEntity
  8
HIDDEN1
100
AcDbLine
 10
0.1132080044855002
 20
0.3394492053544127
 30
0.0
 11
0.1132080044855002
 21
0.1923545555598593
 31
0.0
  0
LINE
  5
78B
330
783
100
AcDbEntity
  8
HIDDEN2
100
AcDbLine
 10
0.1509440059807048
 20
0.3394492053544127
 30
0.0
 11
0.1509440059807048
 21
0.1923545555598593
 31
0.0
  0
LINE
  5
78C
330
783
100
AcDbEntity
  8
HIDDEN3
100
AcDbLine
 10
0.1886800074757957
 20
0.3394492053544127
 30
0.0
 11
0.1886800074757957
 21
0.1923545555598593
 31
0.0
  0
LINE
  5
78D
330
783
100
AcDbEntity
  8
TEXT1
100
AcDbLine
 10
0.0
 20
0.1470946497945533
 30
0.0
 11
0.0
 21
0.0
 31
0.0
  0
LINE
  5
78E
330
783
100
AcDbEntity
  8
TEXT2
100
AcDbLine
 10
0.0377360014952046
 20
0.1470946497945533
 30
0.0
 11
0.0377360014952046
 21
0.0
 31
0.0
  0
LINE
  5
78F
330
783
100
AcDbEntity
  8
TEXT3
100
AcDbLine
 10
0.0754720029902956
 20
0.1470946497945533
 30
0.0
 11
0.0754720029902956
 21
0.0
 31
0.0
  0
LINE
  5
790
330
783
100
AcDbEntity
  8
TITLEBLOCK
100
AcDbLine
 10
0.1132080044855002
 20
0.1470946497945533
 30
0.0
 11
0.1132080044855002
 21
0.0
 31
0.0
  0
LINE
  5
791
330
783
100
AcDbEntity
  8
VIEWPORT
100
AcDbLine
 10
0.1509440059807048
 20
0.1470946497945533
 30
0.0
 11
0.1509440059807048
 21
0.0
 31
0.0
  0
LINE
  5
792
330
783
100
AcDbEntity
  8
BLOCKS
100
AcDbLine
 10
0.0377360014952046
 20
0.5318037609142721
 30
0.0
 11
0.0377360014952046
 21
0.3847091111197187
 31
0.0
  0
LINE
  5
793
330
783
100
AcDbEntity
  8
0
100
AcDbLine
 10
0.0
 20
0.5318037609142721
 30
0.0
 11
0.0
 21
0.3847091111197187
 31
0.0
  0
LINE
  5
794
330
783
100
AcDbEntity
  8
CENTER1
100
AcDbLine
 10
0.0754720029902956
 20
0.5318037609142721
 30
0.0
 11
0.0754720029902956
 21
0.3847091111197187
 31
0.0
  0
LINE
  5
795
330
783
100
AcDbEntity
  8
CENTER2
100
AcDbLine
 10
0.1132080044855002
 20
0.5318037609142721
 30
0.0
 11
0.1132080044855002
 21
0.3847091111197187
 31
0.0
  0
LINE
  5
796
330
783
100
AcDbEntity
  8
CENTER3
100
AcDbLine
 10
0.1509440059807048
 20
0.5318037609142721
 30
0.0
 11
0.1509440059807048
 21
0.3847091111197187
 31
0.0
  0
LINE
  5
797
330
783
100
AcDbEntity
  8
CONSTRUCTION
100
AcDbLine
 10
0.1886800074757957
 20
0.5318037609142721
 30
0.0
 11
0.1886800074757957
 21
0.3847091111197187
 31
0.0
  0
LINE
  5
798
330
783
100
AcDbEntity
  8
CONTINUOUS1
100
AcDbLine
 10
0.2264160089710003
 20
0.5318037609142721
 30
0.0
 11
0.2264160089710003
 21
0.3847091111197187
 31
0.0
  0
LINE
  5
799
330
783
100
AcDbEntity
  8
CONTINUOUS2
100
AcDbLine
 10
0.264152010466205
 20
0.5318037609142721
 30
0.0
 11
0.264152010466205
 21
0.3847091111197187
 31
0.0
  0
LINE
  5
79A
330
783
100
AcDbEntity
  8
CONTINUOUS3
100
AcDbLine
 10
0.3018880119612959
 20
0.5318037609142721
 30
0.0
 11
0.3018880119612959
 21
0.3847091111197187
 31
0.0
  0
LINE
  5
79B
330
783
100
AcDbEntity
  8
DASHDOT1
100
AcDbLine
 10
0.3396240134565005
 20
0.5318037609142721
 30
0.0
 11
0.3396240134565005
 21
0.3847091111197187
 31
0.0
  0
ENDBLK
  5
79D
330
783
100
AcDbEntity
  8
0
100
AcDbBlockEnd
  0
BLOCK
  5
852
330
841
100
AcDbEntity
  8
0
100
AcDbBlockBegin
  2
LOGO-PAD
 70
     0
 10
0.0
 20
0.0
 30
0.0
  3
LOGO-PAD
  1

  0
HATCH
  5
842
330
841
100
AcDbEntity
  8
TITLEBLOCK
 62
     0
100
AcDbHatch
 10
0.0
 20
0.0
 30
0.0
210
0.0
220
0.0
230
1.0
  2
SOLID
 70
     1
 71
     0
 91
        2
 92
        1
 93
       11
 72
     2
 10
1.203771209334867
 20
0.3650136751459491
 40
0.021562648149145
 50
90.00000747299615
 51
179.9997683268519
 73
     1
 72
     1
 10
1.182208561185898
 20
0.3650137623336376
 11
1.182208392435807
 21
0.2795138227272444
 72
     2
 10
1.203771079023129
 20
0.2795136821032751
 40
0.0215626865877801
 50
179.9996263378447
 51
269.9998903896797
 73
     1
 72
     1
 10
1.203771037772394
 20
0.2579509955155343
 11
1.330521045577125
 21
0.2579511736405264
 72
     2
 10
1.330521265257171
 20
0.2795136382789064
 40
0.021562464639499
 50
269.9994162661957
 51
311.7040125634689
 73
     1
 72
     1
 10
1.344866398698837
 20
0.2634152834601535
 11
1.352083334663557
 21
0.2579511736405264
 72
     1
 10
1.352083334663557
 20
0.2579511736405264
 11
1.365099386916806
 21
0.2751416404960081
 72
     1
 10
1.365099386916806
 20
0.2751416404960081
 11
1.352083522163621
 21
0.284997066934386
 72
     1
 10
1.352083522163621
 20
0.284997066934386
 11
1.352083690913712
 21
0.3650136723335662
 72
     2
 10
1.330521042764654
 20
0.3650136751460369
 40
0.0215626481490576
 50
359.9999925267666
 51
449.9999925267678
 73
     1
 72
     1
 10
1.330521045577125
 20
0.3865763232950938
 11
1.203771206522485
 21
0.3865763232950938
 97
        0
 92
       16
 93
       10
 72
     2
 10
1.21455271481628
 20
0.3542325202904111
 40
0.0107811520434708
 50
90.00043844291294
 51
179.9999701074038
 73
     1
 72
     1
 10
1.203771562772811
 20
0.3542325259151993
 11
1.203771562772811
 21
0.2902950591455122
 72
     2
 10
1.214552849813946
 20
0.2902948416431456
 40
0.0107812870433294
 50
179.9988441113203
 51
269.9988441346395
 73
     1
 72
     1
 10
1.214552632315967
 20
0.2795135546020104
 11
1.323606134809704
 21
0.2795135546020104
 72
     1
 10
1.323606134809704
 20
0.2795135546020104
 11
1.280867956889135
 21
0.311873265117333
 72
     1
 10
1.280867956889135
 20
0.311873265117333
 11
1.293884009142384
 21
0.3290635557226322
 72
     1
 10
1.293884009142384
 20
0.3290635557226322
 11
1.330521045577125
 21
0.3013240413506308
 72
     1
 10
1.330521045577125
 20
0.3013240413506308
 11
1.330521045577125
 21
0.3542324377902786
 72
     2
 10
1.319739809158772
 20
0.3542324359152127
 40
0.0107812364183532
 50
0.0000099648460607
 51
90.00000996484372
 73
     1
 72
     1
 10
1.319739807283706
 20
0.3650136723335662
 11
1.214552632315967
 21
0.3650136723335662
 97
        0
 75
     0
 76
     1
 98
        1
 10
-7.279586802153931
 20
-0.4081141432880261
  0
HATCH
  5
843
330
841
100
AcDbEntity
  8
TITLEBLOCK
 62
     0
100
AcDbHatch
 10
0.0
 20
0.0
 30
0.0
210
0.0
220
0.0
230
1.0
  2
SOLID
 70
     1
 71
     0
 91
        1
 92
        1
 93
        4
 72
     1
 10
3.703333445713536
 20
0.1990762889281312
 11
1.018147379006204
 21
0.1990762889281312
 72
     1
 10
1.018147379006204
 20
0.1990762889281312
 11
1.018147379006204
 21
0.220706173683743
 72
     1
 10
1.018147379006204
 20
0.220706173683743
 11
3.703333445713536
 21
0.220706173683743
 72
     1
 10
3.703333445713536
 20
0.220706173683743
 11
3.703333445713536
 21
0.1990762889281312
 97
        0
 75
     0
 76
     1
 98
        1
 10
-7.279586802153931
 20
-0.4081141432880261
  0
HATCH
  5
844
330
841
100
AcDbEntity
  8
TITLEBLOCK
 62
     0
100
AcDbHatch
 10
0.0
 20
0.0
 30
0.0
210
0.0
220
0.0
230
1.0
  2
SOLID
 70
     1
 71
     0
 91
        4
 92
        1
 93
        4
 72
     1
 10
0.8306472632318495
 20
0.4814782717956759
 11
0.4556470182475714
 21
0.4814782717956759
 72
     1
 10
0.4556470182475714
 20
0.4814782717956759
 11
0.4556470182475714
 21
0.1064783844396073
 72
     1
 10
0.4556470182475714
 20
0.1064783844396073
 11
0.8306472632318495
 21
0.1064783844396073
 72
     1
 10
0.8306472632318495
 20
0.1064783844396073
 11
0.8306472632318495
 21
0.4814782717956759
 97
        0
 92
        0
 93
       10
 72
     1
 10
0.7368972019857374
 20
0.4177282462416896
 11
0.5193971779121789
 21
0.4177282462416896
 72
     1
 10
0.5193971779121789
 20
0.4177282462416896
 11
0.5193971779121789
 21
0.37460312508514
 72
     1
 10
0.5193971779121789
 20
0.37460312508514
 11
0.5531473465883146
 21
0.37460312508514
 72
     1
 10
0.5531473465883146
 20
0.37460312508514
 11
0.5531473465883146
 21
0.2133535311501431
 72
     1
 10
0.5531473465883146
 20
0.2133535311501431
 11
0.5193971779121789
 21
0.2133535311501431
 72
     1
 10
0.5193971779121789
 20
0.2133535311501431
 11
0.5193971779121789
 21
0.1702282758831428
 72
     1
 10
0.5193971779121789
 20
0.1702282758831428
 11
0.7368972019857374
 21
0.1702282758831428
 72
     1
 10
0.7368972019857374
 20
0.1702282758831428
 11
0.7668970141602749
 21
0.2002283115750982
 72
     1
 10
0.7668970141602749
 20
0.2002283115750982
 11
0.7668970141602749
 21
0.3877281658462506
 72
     1
 10
0.7668970141602749
 20
0.3877281658462506
 11
0.7368972019857374
 21
0.4177282462416896
 97
        0
 92
       16
 93
        4
 72
     1
 10
0.7987720492890098
 20
0.4496031025563197
 11
0.4875220533764768
 21
0.4496031025563197
 72
     1
 10
0.4875220533764768
 20
0.4496031025563197
 11
0.4875220533764768
 21
0.1383533301613751
 72
     1
 10
0.4875220533764768
 20
0.1383533301613751
 11
0.7987720492890098
 21
0.1383533301613751
 72
     1
 10
0.7987720492890098
 20
0.1383533301613751
 11
0.7987720492890098
 21
0.4496031025563197
 97
        0
 92
        0
 93
        4
 72
     1
 10
0.5962724677448641
 20
0.37460312508514
 11
0.5962724677448641
 21
0.2133535311501431
 72
     1
 10
0.5962724677448641
 20
0.2133535311501431
 11
0.7237719824106926
 21
0.2133535311501431
 72
     1
 10
0.7237719824106926
 20
0.2133535311501431
 11
0.7237719824106926
 21
0.37460312508514
 72
     1
 10
0.7237719824106926
 20
0.37460312508514
 11
0.5962724677448641
 21
0.37460312508514
 97
        0
 75
     0
 76
     1
 98
        1
 10
-7.279586802153931
 20
-0.313212194787444
  0
HATCH
  5
845
330
841
100
AcDbEntity
  8
TITLEBLOCK
 62
     0
100
AcDbHatch
 10
0.0
 20
0.0
 30
0.0
210
0.0
220
0.0
230
1.0
  2
SOLID
 70
     1
 71
     0
 91
        1
 92
        1
 93
       26
 72
     1
 10
1.050490193885575
 20
0.3650136723335662
 11
1.138990457951802
 21
0.3650136723335662
 72
     2
 10
1.138990281703138
 20
0.3542326140418093
 40
0.0107810582931976
 50
270.0009366709926
 51
360.0009366862294
 73
     0
 72
     1
 10
1.149771339994895
 20
0.3542324377902786
 11
1.171333797831589
 21
0.3542324377902786
 72
     1
 10
1.171333797831589
 20
0.3542324377902786
 11
1.171333797831589
 21
0.3650136723335662
 72
     2
 10
1.149771243432702
 20
0.365013768896207
 40
0.0215625543991033
 50
359.9997434148255
 51
449.9997434160159
 73
     1
 72
     1
 10
1.149771339994895
 20
0.3865763232950938
 11
1.039708786842066
 21
0.3865763232950938
 72
     2
 10
1.039709408398413
 20
0.3650142939052909
 40
0.0215620293987615
 50
90.00165163282177
 51
180.0014125206716
 73
     1
 72
     1
 10
1.018147379006204
 20
0.3650137623336376
 11
1.018147379006204
 21
0.3334199129435318
 72
     2
 10
1.039709363397143
 20
0.3334193363730153
 40
0.0215619843986475
 50
179.9984679027414
 51
269.9984679437668
 73
     1
 72
     1
 10
1.039708786842066
 20
0.3118573519820755
 11
1.138990457951802
 21
0.311857620107139
 72
     2
 10
1.138990280765661
 20
0.3010765608779043
 40
0.0107810592306907
 50
270.0009416531222
 51
360.0009416684906
 73
     0
 72
     1
 10
1.149771339994895
 20
0.3010763836888712
 11
1.149771508744986
 21
0.2902949691454408
 72
     2
 10
1.138990231076649
 20
0.2902948322713164
 40
0.0107812776692067
 50
359.9992725992319
 51
449.9997907459082
 73
     0
 72
     1
 10
1.138990270451738
 20
0.279513554602181
 11
1.050490193885575
 21
0.2795135546020104
 72
     2
 10
1.05049014888543
 20
0.2902951041454384
 40
0.0107815495435218
 50
89.99976085826782
 51
179.9997608594354
 73
     0
 72
     1
 10
1.039708599342002
 20
0.2902950591455122
 11
1.018147379006204
 21
0.2902950591455122
 72
     1
 10
1.018147379006204
 20
0.2902950591455122
 11
1.018147379006204
 21
0.2795138227272444
 72
     2
 10
1.039709273392517
 20
0.2795130680345569
 40
0.0215618943995203
 50
179.9979945776083
 51
269.9987071039827
 73
     1
 72
     1
 10
1.039708786842066
 20
0.2579511736405264
 11
1.149771339994895
 21
0.2579511736405264
 72
     2
 10
1.149771378432784
 20
0.2795135930396681
 40
0.0215624193991759
 50
269.9998978626289
 51
359.9996636967671
 73
     1
 72
     1
 10
1.171333797831589
 20
0.2795134664769192
 11
1.171333797831589
 21
0.3114825579869829
 72
     2
 10
1.149771333432362
 20
0.3114825645494808
 40
0.0215624643992288
 50
359.9999825621309
 51
449.9999825620359
 73
     1
 72
     1
 10
1.149771339994895
 20
0.3330450289487088
 11
1.050490193885575
 21
0.3330447608234748
 72
     2
 10
1.050490103885701
 20
0.3438262653667981
 40
0.0107815045436989
 50
89.99952171675776
 51
179.9999900368059
 73
     0
 72
     1
 10
1.039708599342002
 20
0.3438262634919964
 11
1.039708786842066
 21
0.3542325259151993
 72
     2
 10
1.050490107634269
 20
0.3542323515402983
 40
0.0107813207936133
 50
180.0009266903443
 51
270.0004583701697
 73
     0
 97
        0
 75
     0
 76
     1
 98
        1
 10
-7.279586802153931
 20
-0.4081141432880261
  0
HATCH
  5
846
330
841
100
AcDbEntity
  8
TITLEBLOCK
 62
     0
100
AcDbHatch
 10
0.0
 20
0.0
 30
0.0
210
0.0
220
0.0
230
1.0
  2
SOLID
 70
     1
 71
     0
 91
        1
 92
        1
 93
       18
 72
     2
 10
2.471082802883087
 20
0.3650137595211706
 40
0.021562563774099
 50
180.0000074732525
 51
269.9997683261728
 73
     0
 72
     1
 10
2.471082715695484
 20
0.3865763232950938
 11
2.586957622645552
 21
0.3865763232950938
 72
     2
 10
2.586957713583391
 20
0.3650135813961111
 40
0.0215627418991744
 50
269.9997583630888
 51
359.999758364108
 73
     0
 72
     1
 10
2.608520455482373
 20
0.3650136723335662
 11
2.608520455482373
 21
0.3542324377902786
 72
     1
 10
2.608520455482373
 20
0.3542324377902786
 11
2.586957622645552
 21
0.3542324377902786
 72
     2
 10
2.576176208103625
 20
0.3542322577916381
 40
0.0107814145434302
 50
0.0009565685814303
 51
90.00095658455173
 73
     1
 72
     1
 10
2.576176028101979
 20
0.3650136723335662
 11
2.481864141488966
 21
0.3650136723335662
 72
     2
 10
2.481864045863444
 20
0.3542323421656055
 40
0.0107813301683848
 50
89.99949181235312
 51
179.9994918168631
 73
     1
 72
     1
 10
2.471082715695484
 20
0.3542324377902786
 11
2.471082715695484
 21
0.2902950591455122
 72
     2
 10
2.481864090863785
 20
0.2902951097704553
 40
0.0107813751684203
 50
180.0002690376259
 51
270.0002690388874
 73
     1
 72
     1
 10
2.481864141488966
 20
0.2795137346021532
 11
2.576176028101979
 21
0.2795135546020104
 72
     2
 10
2.576176073102679
 20
0.2902951041456356
 40
0.010781549543719
 50
269.9997608553225
 51
359.9992825760937
 73
     1
 72
     1
 10
2.586957622645552
 20
0.2902949691454408
 11
2.608520455482373
 21
0.2902950591455122
 72
     1
 10
2.608520455482373
 20
0.2902950591455122
 11
2.608520099232048
 21
0.2795134664769192
 72
     2
 10
2.586957670458414
 20
0.2795136024145366
 40
0.0215624287740632
 50
0.0003612140281018
 51
90.00012704854281
 73
     0
 72
     1
 10
2.586957622645552
 20
0.2579511736405264
 11
2.471082715695484
 21
0.2579511736405264
 72
     2
 10
2.471082667882924
 20
0.2795136024144634
 40
0.02156242877399
 50
89.99987295225965
 51
179.9998729525419
 73
     0
 72
     1
 10
2.449520239108988
 20
0.2795135546020104
 11
2.449520239108988
 21
0.3650137623336376
 97
        0
 75
     0
 76
     1
 98
        1
 10
-7.279586802153931
 20
-0.4081141432880261
  0
HATCH
  5
847
330
841
100
AcDbEntity
  8
TITLEBLOCK
 62
     0
100
AcDbHatch
 10
0.0
 20
0.0
 30
0.0
210
0.0
220
0.0
230
1.0
  2
SOLID
 70
     1
 71
     0
 91
        1
 92
        1
 93
       12
 72
     1
 10
2.026708344139745
 20
0.3865765014202565
 11
1.890208311215626
 21
0.3865765014202565
 72
     1
 10
1.890208311215626
 20
0.3865765014202565
 11
1.890208311215626
 21
0.2579511736405264
 72
     1
 10
1.890208311215626
 20
0.2579511736405264
 11
2.026708344139745
 21
0.2579511736405264
 72
     1
 10
2.026708344139745
 20
0.2579511736405264
 11
2.026708344139745
 21
0.2795135546020104
 72
     1
 10
2.026708344139745
 20
0.2795135546020104
 11
1.911770600302059
 21
0.2795135546020104
 72
     1
 10
1.911770600302059
 20
0.2795135546020104
 11
1.911770600302059
 21
0.3114825579869829
 72
     1
 10
1.911770600302059
 20
0.3114825579869829
 11
2.026708344139745
 21
0.3114825579869829
 72
     1
 10
2.026708344139745
 20
0.3114825579869829
 11
2.026708344139745
 21
0.333044848948566
 72
     1
 10
2.026708344139745
 20
0.333044848948566
 11
1.911770600302059
 21
0.333044848948566
 72
     1
 10
1.911770600302059
 20
0.333044848948566
 11
1.911770600302059
 21
0.3650136723335662
 72
     1
 10
1.911770600302059
 20
0.3650136723335662
 11
2.026708344139745
 21
0.3650136723335662
 72
     1
 10
2.026708344139745
 20
0.3650136723335662
 11
2.026708344139745
 21
0.3865765014202565
 97
        0
 75
     0
 76
     1
 98
        1
 10
-7.279586802153931
 20
-0.4081141432880261
  0
HATCH
  5
848
330
841
100
AcDbEntity
  8
TITLEBLOCK
 62
     0
100
AcDbHatch
 10
0.0
 20
0.0
 30
0.0
210
0.0
220
0.0
230
1.0
  2
SOLID
 70
     1
 71
     0
 91
        2
 92
        1
 93
        8
 72
     1
 10
1.614830743814064
 20
0.3865765014202565
 11
1.531145595393223
 21
0.2579509955155343
 72
     1
 10
1.531145595393223
 20
0.2579509955155343
 11
1.556870855949323
 21
0.2579511736405264
 72
     1
 10
1.556870855949323
 20
0.2579511736405264
 11
1.570898996363819
 21
0.2795135546020104
 72
     1
 10
1.570898996363819
 20
0.2795135546020104
 11
1.673830432358027
 21
0.2795135546020104
 72
     1
 10
1.673830432358027
 20
0.2795135546020104
 11
1.687858760272586
 21
0.2579514417655899
 72
     1
 10
1.687858760272586
 20
0.2579514417655899
 11
1.713583120827973
 21
0.2579514417655899
 72
     1
 10
1.713583120827973
 20
0.2579514417655899
 11
1.629898141157394
 21
0.3865765014202565
 72
     1
 10
1.629898141157394
 20
0.3865765014202565
 11
1.614830743814064
 21
0.3865765014202565
 97
        0
 92
       16
 93
        3
 72
     1
 10
1.622364536235675
 20
0.3586169575295115
 11
1.659801223192726
 21
0.3010763836888712
 72
     1
 10
1.659801223192726
 20
0.3010763836888712
 11
1.584928205528949
 21
0.3010762055637086
 72
     1
 10
1.584928205528949
 20
0.3010762055637086
 11
1.622364348735612
 21
0.3586165994043766
 97
        0
 75
     0
 76
     1
 98
        1
 10
-7.279586802153931
 20
-0.4081141432880261
  0
HATCH
  5
849
330
841
100
AcDbEntity
  8
TITLEBLOCK
 62
     0
100
AcDbHatch
 10
0.0
 20
0.0
 30
0.0
210
0.0
220
0.0
230
1.0
  2
SOLID
 70
     1
 71
     0
 91
        1
 92
        1
 93
       12
 72
     1
 10
1.392021104504447
 20
0.3865765014202565
 11
1.370458815418015
 21
0.3865765014202565
 72
     1
 10
1.370458815418015
 20
0.3865765014202565
 11
1.370458627917951
 21
0.2795138227272444
 72
     2
 10
1.39202114575308
 20
0.2795135133528436
 40
0.0215625178373483
 50
179.999177932392
 51
269.9998903944058
 73
     1
 72
     1
 10
1.392021104504447
 20
0.2579509955155343
 11
1.509583287556818
 21
0.2579511736405264
 72
     2
 10
1.509583335369764
 20
0.2795136024146219
 40
0.0215624287741484
 50
269.9998729512306
 51
359.9996387857453
 73
     1
 72
     1
 10
1.531145764143484
 20
0.2795134664769192
 11
1.531146120393639
 21
0.3865765014202565
 72
     1
 10
1.531146120393639
 20
0.3865765014202565
 11
1.509583287556818
 21
0.3865765014202565
 72
     1
 10
1.509583287556818
 20
0.3865765014202565
 11
1.509583287556818
 21
0.2902950591455122
 72
     2
 10
1.498801916139266
 20
0.290294926019563
 40
0.0107813714183743
 50
359.9992925246018
 51
449.9992925333428
 73
     0
 72
     1
 10
1.49880204926357
 20
0.2795135546020104
 11
1.402802342797695
 21
0.2795135546020104
 72
     2
 10
1.402802382172719
 20
0.2902950197703451
 40
0.0107814651684066
 50
90.00020925010334
 51
180.0002092508632
 73
     0
 72
     1
 10
1.392020917004384
 20
0.2902950591455122
 11
1.392021104504447
 21
0.3865765014202565
 97
        0
 75
     0
 76
     1
 98
        1
 10
-7.279586802153931
 20
-0.4081141432880261
  0
HATCH
  5
84A
330
841
100
AcDbEntity
  8
TITLEBLOCK
 62
     0
100
AcDbHatch
 10
0.0
 20
0.0
 30
0.0
210
0.0
220
0.0
230
1.0
  2
SOLID
 70
     1
 71
     0
 91
        2
 92
        1
 93
       13
 72
     2
 10
1.851958289039648
 20
0.2899198104641797
 40
0.0215625675244637
 50
0.0002565813902296
 51
90.00070498518821
 73
     1
 72
     2
 10
1.851958289040149
 20
0.3330449455099156
 40
0.0215625675245372
 50
269.9992950134807
 51
359.9995092535441
 73
     1
 72
     1
 10
1.873520856563896
 20
0.3330447608234748
 11
1.873520856563896
 21
0.3650136657708798
 72
     2
 10
1.851957894958188
 20
0.3650135398162329
 40
0.0215629616060761
 50
0.0003346789653151
 51
89.99920945081219
 73
     1
 72
     1
 10
1.851958192477166
 20
0.3865765014202565
 11
1.720333350237904
 21
0.3865765014202565
 72
     1
 10
1.720333350237904
 20
0.3865765014202565
 11
1.720333350237904
 21
0.2579511736405264
 72
     1
 10
1.720333350237904
 20
0.2579511736405264
 11
1.741896183074725
 21
0.2579511736405264
 72
     1
 10
1.741896183074725
 20
0.2579511736405264
 11
1.741896183074725
 21
0.3007013215688856
 72
     1
 10
1.741896183074725
 20
0.3007013215688856
 11
1.841176785433827
 21
0.3007013215688856
 72
     2
 10
1.841176693559081
 20
0.2899201789011263
 40
0.0107811426681508
 50
270.0004882631974
 51
360.0004882673548
 73
     0
 72
     1
 10
1.851957836226841
 20
0.289920087025598
 11
1.851958192477166
 21
0.2579511736405264
 72
     1
 10
1.851958192477166
 20
0.2579511736405264
 11
1.873520856563896
 21
0.2579511736405264
 72
     1
 10
1.873520856563896
 20
0.2579511736405264
 11
1.873520856563896
 21
0.2899199070254552
 97
        0
 92
       16
 93
        6
 72
     2
 10
1.841176693559081
 20
0.3542325296658069
 40
0.0107811426681508
 50
270.0004882631974
 51
360.0004882673548
 73
     0
 72
     1
 10
1.851957836226841
 20
0.3542324377902786
 11
1.851958192477166
 21
0.333044848948566
 72
     2
 10
1.841176871684197
 20
0.333044935198247
 40
0.0107813207933138
 50
0.0004583615308307
 51
90.00045836519477
 73
     0
 72
     1
 10
1.841176785433827
 20
0.3222636144052784
 11
1.741896183074725
 21
0.3222638825303419
 72
     1
 10
1.741896183074725
 20
0.3222638825303419
 11
1.741896183074725
 21
0.3650136723335662
 72
     1
 10
1.741896183074725
 20
0.3650136723335662
 11
1.841176785433827
 21
0.3650136723335662
 97
        0
 75
     0
 76
     1
 98
        1
 10
-7.279586802153931
 20
-0.4081141432880261
  0
HATCH
  5
84B
330
841
100
AcDbEntity
  8
TITLEBLOCK
 62
     0
100
AcDbHatch
 10
0.0
 20
0.0
 30
0.0
210
0.0
220
0.0
230
1.0
  2
SOLID
 70
     1
 71
     0
 91
        2
 92
        1
 93
       10
 72
     1
 10
2.168832611988261
 20
0.3650136723335662
 11
2.168832611988261
 21
0.2795135546021492
 72
     1
 10
2.168832611988261
 20
0.2795135546021492
 11
2.148020079641632
 21
0.2795135546021492
 72
     1
 10
2.148020079641632
 20
0.2795135546021492
 11
2.148020079641632
 21
0.2579511736406499
 72
     1
 10
2.148020079641632
 20
0.2579511736406499
 11
2.314895263659607
 21
0.2579511736406499
 72
     2
 10
2.314895311472477
 20
0.2795136024147182
 40
0.0215624287741214
 50
269.9998729514336
 51
359.9996387859474
 73
     1
 72
     1
 10
2.336457740246171
 20
0.2795134664770916
 11
2.336457740246171
 21
0.3650136723335662
 72
     2
 10
2.314895087410214
 20
0.3650138485844006
 40
0.0215626528366775
 50
359.9995316703829
 51
449.999531674211
 73
     1
 72
     1
 10
2.314895263659607
 20
0.386576501420358
 11
2.148020079641632
 21
0.386576501420358
 72
     1
 10
2.148020079641632
 20
0.386576501420358
 11
2.148020079641632
 21
0.3650136723335662
 72
     1
 10
2.148020079641632
 20
0.3650136723335662
 11
2.168832611988261
 21
0.3650136723335662
 97
        0
 92
       16
 93
        6
 72
     1
 10
2.190395257324933
 20
0.3650136723335662
 11
2.304113856616218
 21
0.3650136723335662
 72
     2
 10
2.304113942866619
 20
0.3542323515405775
 40
0.0107813207933337
 50
269.9995416346447
 51
359.9995416383139
 73
     0
 72
     1
 10
2.314895263659607
 20
0.3542324377902877
 11
2.314895263659607
 21
0.2902949691455452
 72
     2
 10
2.304113807866077
 20
0.2902950103956483
 40
0.0107814557936096
 50
0.0002192149982456
 51
89.99974092762393
 73
     0
 72
     1
 10
2.304113856616218
 20
0.2795135546021492
 11
2.190395257324933
 21
0.2795135546021492
 72
     1
 10
2.190395257324933
 20
0.2795135546021492
 11
2.190395257324933
 21
0.3650136723335662
 97
        0
 75
     0
 76
     1
 98
        1
 10
-7.279586802153931
 20
-0.4081141432880261
  0
HATCH
  5
84C
330
841
100
AcDbEntity
  8
TITLEBLOCK
 62
     0
100
AcDbHatch
 10
0.0
 20
0.0
 30
0.0
210
0.0
220
0.0
230
1.0
  2
SOLID
 70
     1
 71
     0
 91
        2
 92
        1
 93
        8
 72
     1
 10
3.241392303571654
 20
0.3865765014202565
 11
3.157707226761072
 21
0.2579509955155343
 72
     1
 10
3.157707226761072
 20
0.2579509955155343
 11
3.183432299816939
 21
0.2579511736405264
 72
     1
 10
3.183432299816939
 20
0.2579511736405264
 11
3.197460983981823
 21
0.2795133764768478
 72
     1
 10
3.197460983981823
 20
0.2795133764768478
 11
3.30039082622498
 21
0.2795135546020104
 72
     1
 10
3.30039082622498
 20
0.2795135546020104
 11
3.314419679139785
 21
0.2579514417655899
 72
     1
 10
3.314419679139785
 20
0.2579514417655899
 11
3.340144583445731
 21
0.2579511736405264
 72
     1
 10
3.340144583445731
 20
0.2579511736405264
 11
3.256459603774981
 21
0.3865765014202565
 72
     1
 10
3.256459603774981
 20
0.3865765014202565
 11
3.241392303571654
 21
0.3865765014202565
 97
        0
 92
       16
 93
        3
 72
     1
 10
3.248925740352245
 20
0.358616778466603
 11
3.211489480646473
 21
0.3010762055637086
 72
     1
 10
3.211489480646473
 20
0.3010762055637086
 11
3.28636178580994
 21
0.3010763836888712
 72
     1
 10
3.28636178580994
 20
0.3010763836888712
 11
3.248925740352245
 21
0.358616778466603
 97
        0
 75
     0
 76
     1
 98
        1
 10
-7.279586802153931
 20
-0.4081141432880261
  0
HATCH
  5
84D
330
841
100
AcDbEntity
  8
TITLEBLOCK
 62
     0
100
AcDbHatch
 10
0.0
 20
0.0
 30
0.0
210
0.0
220
0.0
230
1.0
  2
SOLID
 70
     1
 71
     0
 91
        1
 92
        1
 93
       13
 72
     1
 10
2.838488736968525
 20
0.3865765014202565
 11
2.806145209588674
 21
0.3865765014202565
 72
     1
 10
2.806145209588674
 20
0.3865765014202565
 11
2.806145209588674
 21
0.2579511736405264
 72
     1
 10
2.806145209588674
 20
0.2579511736405264
 11
2.827707667425368
 21
0.2579511736405264
 72
     1
 10
2.827707667425368
 20
0.2579511736405264
 11
2.827707667425368
 21
0.3640633654626753
 72
     1
 10
2.827707667425368
 20
0.3640633654626753
 11
2.899718420719221
 21
0.2579514417655899
 72
     1
 10
2.899718420719221
 20
0.2579514417655899
 11
2.922570860648686
 21
0.2579511736405264
 72
     1
 10
2.922570860648686
 20
0.2579511736405264
 11
2.994582138942956
 21
0.3640642598382782
 72
     1
 10
2.994582138942956
 20
0.3640642598382782
 11
2.994582138942956
 21
0.2579511736405264
 72
     1
 10
2.994582138942956
 20
0.2579511736405264
 11
3.016144596779479
 21
0.2579511736405264
 72
     1
 10
3.016144596779479
 20
0.2579511736405264
 11
3.016144596779479
 21
0.3865765014202565
 72
     1
 10
3.016144596779479
 20
0.3865765014202565
 11
2.983801425649954
 21
0.3865765014202565
 72
     1
 10
2.983801425649954
 20
0.3865765014202565
 11
2.911144640683954
 21
0.2795135546020104
 72
     1
 10
2.911144640683954
 20
0.2795135546020104
 11
2.838488380718199
 21
0.3865765014202565
 97
        0
 75
     0
 76
     1
 98
        1
 10
-7.279586802153931
 20
-0.4081141432880261
  0
HATCH
  5
84E
330
841
100
AcDbEntity
  8
TITLEBLOCK
 62
     0
100
AcDbHatch
 10
0.0
 20
0.0
 30
0.0
210
0.0
220
0.0
230
1.0
  2
SOLID
 70
     1
 71
     0
 91
        2
 92
        1
 93
        8
 72
     1
 10
2.79358243888161
 20
0.2795134664769192
 11
2.793582795131936
 21
0.3650136723335662
 72
     2
 10
2.772020240733041
 20
0.3650137688961994
 40
0.0215625543991104
 50
359.9997434148459
 51
449.999743415997
 73
     1
 72
     1
 10
2.772020337295241
 20
0.3865763232950938
 11
2.640957676673206
 21
0.3865763232950938
 72
     2
 10
2.640957763860811
 20
0.3650137595211699
 40
0.0215625637741002
 50
90.00023167383188
 51
179.9999925267453
 73
     1
 72
     1
 10
2.61939520008671
 20
0.3650137623336376
 11
2.61939520008671
 21
0.2795135546020104
 72
     2
 10
2.640957628860649
 20
0.2795136024144641
 40
0.0215624287739915
 50
180.0001270474597
 51
270.0001270477355
 73
     1
 72
     1
 10
2.640957676673206
 20
0.2579511736405264
 11
2.772020337295241
 21
0.2579511736405264
 72
     2
 10
2.772020197607671
 20
0.2795134149140743
 40
0.0215622412740004
 50
270.000371181646
 51
360.000137014207
 73
     1
 97
        0
 92
       16
 93
        8
 72
     2
 10
2.651738913091431
 20
0.3542324359149649
 40
0.0107812364186015
 50
89.9999900344766
 51
179.999521702949
 73
     1
 72
     1
 10
2.640957676673206
 20
0.3542325259151993
 11
2.640957676673206
 21
0.2902950591455122
 72
     2
 10
2.651738958091508
 20
0.2902950160204556
 40
0.010781281418388
 50
179.9997708172488
 51
269.9997708181704
 73
     1
 72
     1
 10
2.651738914966625
 20
0.2795137346021532
 11
2.761238742751839
 21
0.2795135546020104
 72
     2
 10
2.761238956501978
 20
0.2902951041442614
 40
0.0107815495443698
 50
269.9988640797126
 51
359.9992825833961
 73
     1
 72
     1
 10
2.772020506045503
 20
0.2902949691454408
 11
2.772020337295241
 21
0.3542324377902786
 72
     2
 10
2.761239007127366
 20
0.3542323421656908
 40
0.0107813301682991
 50
0.0005081826837109
 51
90.00050818719378
 73
     1
 72
     1
 10
2.76123891150193
 20
0.3650136723335662
 11
2.651738914966625
 21
0.3650136723335662
 97
        0
 75
     0
 76
     1
 98
        1
 10
-7.279586802153931
 20
-0.4081141432880261
  0
HATCH
  5
84F
330
841
100
AcDbEntity
  8
TITLEBLOCK
 62
     0
100
AcDbHatch
 10
0.0
 20
0.0
 30
0.0
210
0.0
220
0.0
230
1.0
  2
SOLID
 70
     1
 71
     0
 91
        2
 92
        1
 93
        8
 72
     2
 10
3.162769048174736
 20
0.3650134554401196
 40
0.0215630459811904
 50
270.0005663490367
 51
359.9994236862867
 73
     0
 72
     1
 10
3.184332094154836
 20
0.3650136723335662
 11
3.184332094154836
 21
0.3222638825303419
 72
     2
 10
3.162769397256125
 20
0.3222640184675962
 40
0.0215626968991391
 50
0.0003612085718475
 51
90.00036121084693
 73
     0
 72
     1
 10
3.162769261318015
 20
0.3007013215688856
 11
3.052707420665665
 21
0.3007013215688856
 72
     1
 10
3.052707420665665
 20
0.3007013215688856
 11
3.052707420665665
 21
0.2579511736405264
 72
     1
 10
3.052707420665665
 20
0.2579511736405264
 11
3.031144250328662
 21
0.2579511736405264
 72
     1
 10
3.031144250328662
 20
0.2579511736405264
 11
3.031144250328662
 21
0.3865765014202565
 72
     1
 10
3.031144250328662
 20
0.3865765014202565
 11
3.162769261318015
 21
0.3865765014202565
 97
        0
 92
       16
 93
        6
 72
     2
 10
3.151988118650169
 20
0.3542325296657216
 40
0.0107811426682361
 50
270.0004882627443
 51
360.0004882669015
 73
     0
 72
     1
 10
3.162769261318015
 20
0.3542324377902786
 11
3.162769261318015
 21
0.333044848948566
 72
     2
 10
3.151988118650169
 20
0.333044757073123
 40
0.0107811426682367
 50
359.9995117330984
 51
449.9995117372556
 73
     0
 72
     1
 10
3.15198821052483
 20
0.3222636144052784
 11
3.052707420665665
 21
0.3222638825303419
 72
     1
 10
3.052707420665665
 20
0.3222638825303419
 11
3.052707420665665
 21
0.3650136723335662
 72
     1
 10
3.052707420665665
 20
0.3650136723335662
 11
3.15198821052483
 21
0.3650136723335662
 97
        0
 75
     0
 76
     1
 98
        1
 10
-7.279586802153931
 20
-0.4081141432880261
  0
HATCH
  5
850
330
841
100
AcDbEntity
  8
TITLEBLOCK
 62
     0
100
AcDbHatch
 10
0.0
 20
0.0
 30
0.0
210
0.0
220
0.0
230
1.0
  2
SOLID
 70
     1
 71
     0
 91
        1
 92
        1
 93
        9
 72
     1
 10
3.556847887515953
 20
0.3865763232950938
 11
3.525206566844968
 21
0.3865765014202565
 72
     1
 10
3.525206566844968
 20
0.3865765014202565
 11
3.60348814923547
 21
0.3136817019238036
 72
     1
 10
3.60348814923547
 20
0.3136817019238036
 11
3.603486349234383
 21
0.2579511736405264
 72
     1
 10
3.603486349234383
 20
0.2579511736405264
 11
3.625050607072164
 21
0.2579511736405264
 72
     1
 10
3.625050607072164
 20
0.2579511736405264
 11
3.625050607072164
 21
0.3136813437984982
 72
     1
 10
3.625050607072164
 20
0.3136813437984982
 11
3.703331833212512
 21
0.3865766795454191
 72
     1
 10
3.703331833212512
 20
0.3865766795454191
 11
3.671691225042007
 21
0.3865765014202565
 72
     1
 10
3.671691225042007
 20
0.3865765014202565
 11
3.61426955627898
 21
0.3331056458632473
 72
     1
 10
3.61426955627898
 20
0.3331056458632473
 11
3.556847887515953
 21
0.3865763232950938
 97
        0
 75
     0
 76
     1
 98
        1
 10
-7.279586802153931
 20
-0.4081141432880261
  0
HATCH
  5
851
330
841
100
AcDbEntity
  8
TITLEBLOCK
 62
     0
100
AcDbHatch
 10
0.0
 20
0.0
 30
0.0
210
0.0
220
0.0
230
1.0
  2
SOLID
 70
     1
 71
     0
 91
        1
 92
        1
 93
       10
 72
     1
 10
3.376247484495632
 20
0.3865765014202565
 11
3.345207161752892
 21
0.3865765014202565
 72
     1
 10
3.345207161752892
 20
0.3865765014202565
 11
3.345207161752892
 21
0.2579511736405264
 72
     1
 10
3.345207161752892
 20
0.2579511736405264
 11
3.366769638339558
 21
0.2579511736405264
 72
     1
 10
3.366769638339558
 20
0.2579511736405264
 11
3.366769638339558
 21
0.3659393041881229
 72
     1
 10
3.366769638339558
 20
0.3659393041881229
 11
3.48273627034943
 21
0.2579509955155343
 72
     1
 10
3.48273627034943
 20
0.2579509955155343
 11
3.515082122730785
 21
0.2579511736405264
 72
     1
 10
3.515082122730785
 20
0.2579511736405264
 11
3.515082122730785
 21
0.3865765014202565
 72
     1
 10
3.515082122730785
 20
0.3865765014202565
 11
3.49351767739277
 21
0.3865765014202565
 72
     1
 10
3.49351767739277
 20
0.3865765014202565
 11
3.49351767739277
 21
0.277374671329744
 72
     1
 10
3.49351767739277
 20
0.277374671329744
 11
3.376247484495632
 21
0.3865765014202565
 97
        0
 75
     0
 76
     1
 98
        1
 10
-7.279586802153931
 20
-0.4081141432880261
  0
ENDBLK
  5
853
330
841
100
AcDbEntity
  8
0
100
AcDbBlockEnd
  0
BLOCK
  5
AF5
330
AE5
100
AcDbEntity
  8
0
100
AcDbBlockBegin
  2
TITLE-PAD
 70
     2
 10
0.0
 20
0.0
 30
0.0
  3
TITLE-PAD
  1

  0
LWPOLYLINE
  5
B1D
330
AE5
100
AcDbEntity
  8
CONTINUOUS2
 62
     0
100
AcDbPolyline
 90
        7
 70
     1
 43
0.0
 10
16.40000099999999
 20
0.0
 10
16.40000099999999
 20
0.0
 10
16.40000099999999
 20
0.0
 10
8.002461
 20
0.0
 10
8.002461
 20
0.9120019999999993
 10
16.40000099999999
 20
0.9120019999999993
 10
16.40000099999999
 20
0.0
  0
INSERT
  5
B1E
330
AE5
100
AcDbEntity
  8
TITLEBLOCK
 62
     0
100
AcDbBlockReference
  2
LOGO-PAD
 10
12.245701
 20
0.3040000000000003
 30
0.0
  0
LINE
  5
B1F
330
AE5
100
AcDbEntity
  8
CONTINUOUS2
 62
     0
100
AcDbLine
 10
16.40000099999999
 20
0.3040000000000003
 30
0.0
 11
12.245701
 21
0.3040000000000003
 31
0.0
  0
LINE
  5
B20
330
AE5
100
AcDbEntity
  8
CONTINUOUS2
 62
     0
100
AcDbLine
 10
12.245701
 20
0.9120019999999993
 30
0.0
 11
12.245701
 21
0.0
 31
0.0
  0
TEXT
  5
B21
330
AE5
100
AcDbEntity
  8
TEXT1
  6
CONTINUOUS
 62
     0
100
AcDbText
 10
12.36897712113656
 20
0.0611566731182909
 30
0.0
 40
0.0699999951940822
  1
NO.
  7
ROMANS
 11
12.36897712113656
 21
0.096156670715332
 31
0.0
100
AcDbText
 73
     2
  0
TEXT
  5
B22
330
AE5
100
AcDbEntity
  8
TEXT1
  6
CONTINUOUS
 62
     0
100
AcDbText
 10
12.36897712113656
 20
0.1661566731182908
 30
0.0
 40
0.0699999951940822
  1
DWG#
  7
ROMANS
 11
12.36897712113656
 21
0.2011566707153319
 31
0.0
100
AcDbText
 73
     2
  0
ATTDEF
  5
B23
330
AE5
100
AcDbEntity
  8
TEXT1
 62
     0
100
AcDbText
 10
10.10183834893798
 20
0.7474460884590166
 30
0.0
 40
0.1
  1

  7
ROMANS
 72
     4
 11
10.10183834893798
 21
0.7474460884590166
 31
0.0
100
AcDbAttributeDefinition
  3
DESCRIPTION 1
  2
DESCRIPTION 1
 70
     0
  0
ATTDEF
  5
B24
330
AE5
100
AcDbEntity
  8
TEXT1
 62
     0
100
AcDbText
 10
10.10183834893798
 20
0.6017231711406717
 30
0.0
 40
0.1
  1

  7
ROMANS
 72
     4
 11
10.10183834893798
 21
0.6017231711406717
 31
0.0
100
AcDbAttributeDefinition
  3
DESCRIPTION 2
  2
DESCRIPTION 2
 70
     0
  0
ATTDEF
  5
B25
330
AE5
100
AcDbEntity
  8
TEXT1
 62
     0
100
AcDbText
 10
10.10183834893798
 20
0.4560002538223267
 30
0.0
 40
0.08
  1

  7
ROMANS
 72
     4
 11
10.10183834893798
 21
0.4560002538223267
 31
0.0
100
AcDbAttributeDefinition
  3
DESCRIPTION 3
  2
DESCRIPTION 3
 70
     0
  0
ATTDEF
  5
B26
330
AE5
100
AcDbEntity
  8
TEXT1
 62
     0
100
AcDbText
 10
10.10183834893798
 20
0.3202773365039833
 30
0.0
 40
0.08
  1

  7
ROMANS
 72
     4
 11
10.10183834893798
 21
0.3202773365039833
 31
0.0
100
AcDbAttributeDefinition
  3
DESCRIPTION 4
  2
DESCRIPTION 4
 70
     0
  0
ATTDEF
  5
B27
330
AE5
100
AcDbEntity
  8
TEXT1
 62
     0
100
AcDbText
 10
10.10183834893798
 20
0.1845544191856399
 30
0.0
 40
0.08
  1

  7
ROMANS
 72
     4
 11
10.10183834893798
 21
0.1845544191856399
 31
0.0
100
AcDbAttributeDefinition
  3
DESCRIPTION 5
  2
DESCRIPTION 5
 70
     0
  0
ATTDEF
  5
B28
330
AE5
100
AcDbEntity
  8
TEXT1
 62
     0
100
AcDbText
 10
12.74772367103195
 20
0.096540546036505
 30
0.0
 40
0.12
  1

 41
0.9512024731840066
  7
M_STANDARD
 11
12.74772367103195
 21
0.156540546036505
 31
0.0
100
AcDbAttributeDefinition
  3
DRAWING NUMBER
  2
DWGNO
 70
     0
 74
     2
  0
ATTDEF
  5
B29
330
AE5
100
AcDbEntity
  8
TEXT1
 62
     0
100
AcDbText
 10
16.35506454949325
 20
-0.1507193079929352
 30
0.0
 40
0.08
  1

  7
ROMANS
 72
     2
 11
16.35506454949325
 21
-0.1107193079929352
 31
0.0
100
AcDbAttributeDefinition
  3
REF DWG #
  2
REF
 70
     0
 74
     2
  0
ATTDEF
  5
B2A
330
AE5
100
AcDbEntity
  8
TEXT1
 62
     0
100
AcDbText
 10
0.0266402374038712
 20
-0.1507193079929352
 30
0.0
 40
0.08
  1

  7
ROMANS
 11
0.0266402374038712
 21
-0.1107193079929352
 31
0.0
100
AcDbAttributeDefinition
  3
DATE MODIFIED
  2
DATE
 70
     0
 74
     2
  0
LWPOLYLINE
  5
B2B
330
AE5
100
AcDbEntity
  8
CONTINUOUS3
 62
     0
100
AcDbPolyline
 90
        4
 70
   129
 43
0.0
 10
0.0
 20
0.0
 10
16.40000099999999
 20
0.0
 10
16.40000099999999
 20
10.25
 10
0.0
 20
10.25
  0
ENDBLK
  5
AF6
330
AE5
100
AcDbEntity
  8
0
100
AcDbBlockEnd
  0
BLOCK
  5
D84
330
D52
100
AcDbEntity
  8
0
100
AcDbBlockBegin
  2
OEM-NOTES
 70
     0
 10
0.0
 20
0.0
 30
0.0
  3
OEM-NOTES
  1

  0
LWPOLYLINE
  5
D53
330
D52
100
AcDbEntity
  8
TITLEBLOCK
100
AcDbPolyline
 90
        2
 70
     0
 43
0.0128
 10
8.625
 20
1.599999999999996
 10
0.0
 20
1.6
  0
TEXT
  5
D57
330
D52
100
AcDbEntity
  8
TITLEBLOCK
100
AcDbText
 10
0.3131249999999959
 20
0.7406249999999998
 30
0.0
 40
0.13125
  1
BE USED ONLY IN CONFORMANCE WITH INSTRUCTIONS ISSUED BY SQUARE D COMPANY.
 41
0.9
  7
SIMPLEX
 72
     4
 11
4.3125
 21
0.7999999999999999
 31
0.0
100
AcDbText
  0
TEXT
  5
D58
330
D52
100
AcDbEntity
  8
TITLEBLOCK
100
AcDbText
 10
0.2540625000000007
 20
1.045625000000001
 30
0.0
 40
0.13125
  1
HEREON. THIS INFORMATION REMAINS THE PROPERTY OF SQUARE D COMPANY AND MAY
 41
0.9
  7
SIMPLEX
 72
     4
 11
4.3125
 21
1.105000000000001
 31
0.0
100
AcDbText
  0
TEXT
  5
D59
330
D52
100
AcDbEntity
  8
TITLEBLOCK
100
AcDbText
 10
0.3046875
 20
1.338124999999997
 30
0.0
 40
0.13125
  1
"THE SQUARE D COMPANY HAS PROPRIETARY RIGHTS TO THE INFORMATION CONTAINED
 41
0.9
  7
SIMPLEX
 72
     4
 11
4.3125
 21
1.409999999999997
 31
0.0
100
AcDbText
  0
TEXT
  5
D5A
330
D52
100
AcDbEntity
  8
TITLEBLOCK
100
AcDbText
 10
0.6309374999999977
 20
0.4387499999999984
 30
0.0
 40
0.13125
  1
USER SHOULD VERIFY DRAWINGS ARE TO THE LATEST/CURRENT REVISION PRIOR
 41
0.9
  7
SIMPLEX
 72
     4
 11
4.3125
 21
0.4949999999999984
 31
0.0
100
AcDbText
  0
TEXT
  5
D5B
330
D52
100
AcDbEntity
  8
TITLEBLOCK
100
AcDbText
 10
2.5490625
 20
0.1368749999999972
 30
0.0
 40
0.13125
  1
TO INCORPORATING IN A DESIGN FILE."
 41
0.9
  7
SIMPLEX
 72
     4
 11
4.3125
 21
0.2149999999999972
 31
0.0
100
AcDbText
  0
TEXT
  5
D5C
330
D52
100
AcDbEntity
  8
TITLEBLOCK
100
AcDbText
 10
9.046378855339687
 20
0.2629426489623099
 30
0.0
 40
0.112
  1
UNLESS OTHERWISE SPECIFIED DIMENSIONS ARE IN INCHES
 41
0.8
  7
SIMPLEX
 72
     4
 11
11.06451218867302
 21
0.3189426489623099
 31
0.0
100
AcDbText
  0
LWPOLYLINE
  5
D5D
330
D52
100
AcDbEntity
  8
TITLEBLOCK
100
AcDbPolyline
 90
        2
 70
     0
 43
0.0128
 10
8.625
 20
0.9599999999999964
 10
16.00492200000007
 20
0.9599999999999964
  0
TEXT
  5
D61
330
D52
100
AcDbEntity
  8
TITLEBLOCK
100
AcDbText
 10
8.7837120071254
 20
0.5472199999999967
 30
0.0
 40
0.2433162500000002
  1
%%uDO NOT SCALE DRAWING
  7
SIMPLEX
 72
     1
 11
11.06451218867302
 21
0.5472199999999967
 31
0.0
100
AcDbText
  0
LWPOLYLINE
  5
D62
330
D52
100
AcDbEntity
  8
TITLEBLOCK
100
AcDbPolyline
 90
        2
 70
     0
 43
0.0128
 10
8.625
 20
0.9599999999999964
 10
8.625
 20
0.0000000000000009
  0
LWPOLYLINE
  5
D66
330
D52
100
AcDbEntity
  8
TITLEBLOCK
100
AcDbPolyline
 90
        2
 70
     0
 43
0.0128
 10
8.625
 20
0.0000000000000009
 10
8.625
 20
1.6
  0
LWPOLYLINE
  5
D6A
330
D52
100
AcDbEntity
  8
TITLEBLOCK
100
AcDbPolyline
 90
        2
 70
     0
 43
0.0128
 10
13.49242200000007
 20
1.599999999999995
 10
13.49242200000007
 20
0.0000000000000009
  0
TEXT
  5
D6E
330
D52
100
AcDbEntity
  8
TITLEBLOCK
100
AcDbText
 10
13.77242200000007
 20
0.2099999999999964
 30
0.0
 40
0.1
  1
2 PLACE DECIMALS
  7
SIMPLEX
100
AcDbText
  0
TEXT
  5
D6F
330
D52
100
AcDbEntity
  8
TITLEBLOCK
100
AcDbText
 10
13.62242200000007
 20
0.4474999999999972
 30
0.0
 40
0.1
  1
UNLESS OTHERWISE SPECIFIED
  7
SIMPLEX
100
AcDbText
  0
TEXT
  5
D70
330
D52
100
AcDbEntity
  8
TITLEBLOCK
100
AcDbText
 10
15.57242200000007
 20
0.2099999999999964
 30
0.0
 40
0.1
  1
.01
  7
SIMPLEX
100
AcDbText
  0
LINE
  5
D71
330
D52
100
AcDbEntity
  8
TITLEBLOCK
100
AcDbLine
 10
15.35492200000008
 20
0.2187499999999973
 30
0.0
 11
15.45492200000008
 21
0.2187499999999973
 31
0.0
  0
TEXT
  5
D72
330
D52
100
AcDbEntity
  8
TITLEBLOCK
100
AcDbText
 10
15.35992200000007
 20
0.2474999999999961
 30
0.0
 40
0.1
  1
+
  7
SIMPLEX
100
AcDbText
  0
LWPOLYLINE
  5
D73
330
D52
100
AcDbEntity
  8
TITLEBLOCK
100
AcDbPolyline
 90
        2
 70
     0
 43
0.0128
 10
16.00492200000007
 20
1.599999999999995
 10
13.49242200000007
 20
1.599999999999995
  0
TEXT
  5
D77
330
D52
100
AcDbEntity
  8
TITLEBLOCK
100
AcDbText
 10
13.62242200000007
 20
1.147499999999996
 30
0.0
 40
0.1
  1
PROJECTION
  7
SIMPLEX
100
AcDbText
  0
TEXT
  5
D78
330
D52
100
AcDbEntity
  8
TITLEBLOCK
100
AcDbText
 10
13.55992200000007
 20
1.347499999999997
 30
0.0
 40
0.1
  1
THIRD ANGLE
  7
SIMPLEX
100
AcDbText
  0
LINE
  5
D79
330
D52
100
AcDbEntity
  8
TITLEBLOCK
100
AcDbLine
 10
14.69692486880008
 20
1.300351715199997
 30
0.0
 11
15.91292523520008
 21
1.300351715199997
 31
0.0
  0
TEXT
  5
D7A
330
D52
100
AcDbEntity
  8
TITLEBLOCK
100
AcDbText
 10
14.04742200000008
 20
0.6974999999999972
 30
0.0
 40
0.15
  1
%%uTOLERANCES
  7
SIMPLEX
100
AcDbText
  0
LINE
  5
D7B
330
D52
100
AcDbEntity
  8
TITLEBLOCK
100
AcDbLine
 10
14.95292615040008
 20
1.396354294399999
 30
0.0
 11
14.95292615040008
 21
1.524354553599997
 31
0.0
  0
CIRCLE
  5
D7C
330
D52
100
AcDbEntity
  8
TITLEBLOCK
100
AcDbCircle
 10
14.95292615040008
 20
1.300352668799996
 30
0.0
 40
0.1279999615999998
  0
CIRCLE
  5
D7D
330
D52
100
AcDbEntity
  8
TITLEBLOCK
100
AcDbCircle
 10
14.95292615040008
 20
1.300352668799996
 30
0.0
 40
0.064000004799999
  0
LINE
  5
D7E
330
D52
100
AcDbEntity
  8
TITLEBLOCK
100
AcDbLine
 10
14.95292615040008
 20
1.332351302399996
 30
0.0
 11
14.95292615040008
 21
1.268351172799996
 31
0.0
  0
LINE
  5
D7F
330
D52
100
AcDbEntity
  8
TITLEBLOCK
100
AcDbLine
 10
14.95292615040008
 20
1.204351996799997
 30
0.0
 11
14.95292615040008
 21
1.076351737599998
 31
0.0
  0
LINE
  5
D80
330
D52
100
AcDbEntity
  8
TITLEBLOCK
100
AcDbLine
 10
15.78492230560007
 20
1.172351455999998
 30
0.0
 11
15.33692425760007
 21
1.236351585599996
 31
0.0
  0
LINE
  5
D81
330
D52
100
AcDbEntity
  8
TITLEBLOCK
100
AcDbLine
 10
15.33692425760007
 20
1.364351844799998
 30
0.0
 11
15.78492230560007
 21
1.428351020799996
 31
0.0
  0
LINE
  5
D82
330
D52
100
AcDbEntity
  8
TITLEBLOCK
100
AcDbLine
 10
15.33692425760007
 20
1.236351585599996
 30
0.0
 11
15.33692425760007
 21
1.364351844799998
 31
0.0
  0
LINE
  5
D83
330
D52
100
AcDbEntity
  8
TITLEBLOCK
100
AcDbLine
 10
15.78492230560007
 20
1.428351020799996
 30
0.0
 11
15.78492230560007
 21
1.172351455999998
 31
0.0
  0
ENDBLK
  5
D85
330
D52
100
AcDbEntity
  8
0
100
AcDbBlockEnd
  0
BLOCK
  5
AA83
330
AA81
100
AcDbEntity
  8
0
100
AcDbBlockBegin
  2
SEARROW
 70
     0
 10
0.0
 20
0.0
 30
0.0
  3
SEARROW
  1

  0
LWPOLYLINE
  5
AA82
330
AA81
100
AcDbEntity
  8
0
  6
BYBLOCK
100
AcDbPolyline
 90
        2
 70
     0
 10
0.0
 20
0.0
 40
0.0
 41
0.5000000001500001
 10
-1.000000000300019
 20
0.0
 40
0.5000000001500001
 41
0.5000000001500001
  0
ENDBLK
  5
AA84
330
AA81
100
AcDbEntity
  8
0
100
AcDbBlockEnd
  0
BLOCK
  5
10A77
330
10A6B
100
AcDbEntity
  8
0
100
AcDbBlockBegin
  2
*D5
 70
     1
 10
0.0
 20
0.0
 30
0.0
  3
*D5
  1

  0
LINE
  5
13318
330
10A6B
100
AcDbEntity
  8
DIM
100
AcDbLine
 10
41.78989343689083
 20
14.96664735104087
 30
0.0
 11
41.78989343689083
 21
16.68673931791825
 31
0.0
  0
LINE
  5
13319
330
10A6B
100
AcDbEntity
  8
DIM
100
AcDbLine
 10
41.31989343689084
 20
14.40164735104087
 30
0.0
 11
41.31989343689084
 21
16.68673931791825
 31
0.0
  0
LINE
  5
1331A
330
10A6B
100
AcDbEntity
  8
DIM
100
AcDbLine
 10
42.06989343689083
 20
16.43673931791826
 30
0.0
 11
42.34989343689083
 21
16.43673931791826
 31
0.0
  0
LINE
  5
1331B
330
10A6B
100
AcDbEntity
  8
DIM
100
AcDbLine
 10
41.03989343689083
 20
16.43673931791826
 30
0.0
 11
40.75989343689084
 21
16.43673931791826
 31
0.0
  0
INSERT
  5
1331C
330
10A6B
100
AcDbEntity
  8
DIM
100
AcDbBlockReference
  2
SEARROW
 10
41.78989343689083
 20
16.43673931791826
 30
0.0
 41
0.28
 42
0.28
 43
0.28
 50
180.0
  0
INSERT
  5
1331D
330
10A6B
100
AcDbEntity
  8
DIM
100
AcDbBlockReference
  2
SEARROW
 10
41.31989343689084
 20
16.43673931791826
 30
0.0
 41
0.28
 42
0.28
 43
0.28
  0
MTEXT
  5
1331E
330
10A6B
100
AcDbEntity
  8
DIM
100
AcDbMText
 10
39.83798867498608
 20
16.43673931791826
 30
0.0
 40
0.4
 41
0.0
 71
     5
 72
     1
  1
\A1;.47\P [12]
  7
ROMANS
1001
ACAD
1000
MTEXTBEGIN
1070
    73
1070
     1
1070
    44
1040
1.0
1070
    74
1070
     0
1000
MTEXTEND
  0
POINT
  5
1331F
330
10A6B
100
AcDbEntity
  8
DEFPOINTS
 62
     0
100
AcDbPoint
 10
41.78989343689083
 20
14.71664735104087
 30
0.0
  0
POINT
  5
13320
330
10A6B
100
AcDbEntity
  8
DEFPOINTS
 62
     0
100
AcDbPoint
 10
41.31989343689084
 20
14.15164735104087
 30
0.0
  0
POINT
  5
13321
330
10A6B
100
AcDbEntity
  8
DEFPOINTS
 62
     0
100
AcDbPoint
 10
41.31989343689084
 20
16.43673931791826
 30
0.0
  0
ENDBLK
  5
10A78
330
10A6B
100
AcDbEntity
  8
0
100
AcDbBlockEnd
  0
BLOCK
  5
10A85
330
10A7A
100
AcDbEntity
  8
0
100
AcDbBlockBegin
  2
*D6
 70
     1
 10
0.0
 20
0.0
 30
0.0
  3
*D6
  1

  0
LINE
  5
13322
330
10A7A
100
AcDbEntity
  8
DIM
100
AcDbLine
 10
41.78989343689083
 20
14.96664735104087
 30
0.0
 11
41.78989343689083
 21
16.68673931791825
 31
0.0
  0
LINE
  5
13323
330
10A7A
100
AcDbEntity
  8
DIM
100
AcDbLine
 10
46.50989343689083
 20
14.96664735104086
 30
0.0
 11
46.50989343689083
 21
16.68673931791825
 31
0.0
  0
LINE
  5
13324
330
10A7A
100
AcDbEntity
  8
DIM
100
AcDbLine
 10
42.06989343689083
 20
16.43673931791826
 30
0.0
 11
43.17751248455189
 21
16.43673931791826
 31
0.0
  0
LINE
  5
13325
330
10A7A
100
AcDbEntity
  8
DIM
100
AcDbLine
 10
46.22989343689083
 20
16.43673931791826
 30
0.0
 11
45.40227438931379
 21
16.43673931791826
 31
0.0
  0
INSERT
  5
13326
330
10A7A
100
AcDbEntity
  8
DIM
100
AcDbBlockReference
  2
SEARROW
 10
41.78989343689083
 20
16.43673931791826
 30
0.0
 41
0.28
 42
0.28
 43
0.28
 50
180.0
  0
INSERT
  5
13327
330
10A7A
100
AcDbEntity
  8
DIM
100
AcDbBlockReference
  2
SEARROW
 10
46.50989343689083
 20
16.43673931791826
 30
0.0
 41
0.28
 42
0.28
 43
0.28
  0
MTEXT
  5
13328
330
10A7A
100
AcDbEntity
  8
DIM
100
AcDbMText
 10
44.28989343693284
 20
16.43673931791826
 30
0.0
 40
0.4
 41
0.0
 71
     5
 72
     1
  1
\A1;4.72\P [120]
  7
ROMANS
1001
ACAD
1000
MTEXTBEGIN
1070
    73
1070
     1
1070
    44
1040
1.0
1070
    74
1070
     0
1000
MTEXTEND
  0
POINT
  5
13329
330
10A7A
100
AcDbEntity
  8
DEFPOINTS
 62
     0
100
AcDbPoint
 10
41.78989343689083
 20
14.71664735104087
 30
0.0
  0
POINT
  5
1332A
330
10A7A
100
AcDbEntity
  8
DEFPOINTS
 62
     0
100
AcDbPoint
 10
46.50989343689083
 20
14.71664735104087
 30
0.0
  0
POINT
  5
1332B
330
10A7A
100
AcDbEntity
  8
DEFPOINTS
 62
     0
100
AcDbPoint
 10
46.50989343689083
 20
16.43673931791826
 30
0.0
  0
ENDBLK
  5
10A86
330
10A7A
100
AcDbEntity
  8
0
100
AcDbBlockEnd
  0
BLOCK
  5
10A95
330
10A8A
100
AcDbEntity
  8
0
100
AcDbBlockBegin
  2
*D7
 70
     1
 10
0.0
 20
0.0
 30
0.0
  3
*D7
  1

  0
LINE
  5
1332C
330
10A8A
100
AcDbEntity
  8
DIM
100
AcDbLine
 10
41.31989343689084
 20
14.40164735104087
 30
0.0
 11
41.31989343689084
 21
18.47183128479564
 31
0.0
  0
LINE
  5
1332D
330
10A8A
100
AcDbEntity
  8
DIM
100
AcDbLine
 10
49.11989343689083
 20
13.91414735104086
 30
0.0
 11
49.11989343689083
 21
18.47183128479564
 31
0.0
  0
LINE
  5
1332E
330
10A8A
100
AcDbEntity
  8
DIM
100
AcDbLine
 10
41.59989343689083
 20
18.22183128479564
 30
0.0
 11
45.21989343689084
 21
18.22183128479564
 31
0.0
  0
LINE
  5
1332F
330
10A8A
100
AcDbEntity
  8
DIM
100
AcDbLine
 10
48.83989343689083
 20
18.22183128479564
 30
0.0
 11
47.44465534165274
 21
18.22183128479564
 31
0.0
  0
INSERT
  5
13330
330
10A8A
100
AcDbEntity
  8
DIM
100
AcDbBlockReference
  2
SEARROW
 10
41.31989343689084
 20
18.22183128479564
 30
0.0
 41
0.28
 42
0.28
 43
0.28
 50
180.0
  0
INSERT
  5
13331
330
10A8A
100
AcDbEntity
  8
DIM
100
AcDbBlockReference
  2
SEARROW
 10
49.11989343689083
 20
18.22183128479564
 30
0.0
 41
0.28
 42
0.28
 43
0.28
  0
MTEXT
  5
13332
330
10A8A
100
AcDbEntity
  8
DIM
100
AcDbMText
 10
46.33227438927179
 20
18.22183128479564
 30
0.0
 40
0.4
 41
0.0
 71
     5
 72
     1
  1
\A1;7.80\P [198]
  7
ROMANS
1001
ACAD
1000
MTEXTBEGIN
1070
    73
1070
     1
1070
    44
1040
1.0
1070
    74
1070
     0
1000
MTEXTEND
  0
POINT
  5
13333
330
10A8A
100
AcDbEntity
  8
DEFPOINTS
 62
     0
100
AcDbPoint
 10
41.31989343689084
 20
14.15164735104087
 30
0.0
  0
POINT
  5
13334
330
10A8A
100
AcDbEntity
  8
DEFPOINTS
 62
     0
100
AcDbPoint
 10
49.11989343689083
 20
13.66414735104086
 30
0.0
  0
POINT
  5
13335
330
10A8A
100
AcDbEntity
  8
DEFPOINTS
 62
     0
100
AcDbPoint
 10
49.11989343689083
 20
18.22183128479564
 30
0.0
  0
ENDBLK
  5
10A96
330
10A8A
100
AcDbEntity
  8
0
100
AcDbBlockEnd
  0
BLOCK
  5
10AAD
330
10AA2
100
AcDbEntity
  8
0
100
AcDbBlockBegin
  2
*D8
 70
     1
 10
0.0
 20
0.0
 30
0.0
  3
*D8
  1

  0
LINE
  5
13336
330
10AA2
100
AcDbEntity
  8
DIM
100
AcDbLine
 10
41.31989343689084
 20
14.40164735104087
 30
0.0
 11
41.31989343689084
 21
20.28429036495915
 31
0.0
  0
LINE
  5
13337
330
10AA2
100
AcDbEntity
  8
DIM
100
AcDbLine
 10
50.31989343689083
 20
13.91414735104087
 30
0.0
 11
50.31989343689083
 21
20.28429036495915
 31
0.0
  0
LINE
  5
13338
330
10AA2
100
AcDbEntity
  8
DIM
100
AcDbLine
 10
41.59989343689083
 20
20.03429036495915
 30
0.0
 11
44.70751248450988
 21
20.03429036495915
 31
0.0
  0
LINE
  5
13339
330
10AA2
100
AcDbEntity
  8
DIM
100
AcDbLine
 10
50.03989343689084
 20
20.03429036495915
 30
0.0
 11
46.93227438927179
 21
20.03429036495915
 31
0.0
  0
INSERT
  5
1333A
330
10AA2
100
AcDbEntity
  8
DIM
100
AcDbBlockReference
  2
SEARROW
 10
41.31989343689084
 20
20.03429036495915
 30
0.0
 41
0.28
 42
0.28
 43
0.28
 50
180.0
  0
INSERT
  5
1333B
330
10AA2
100
AcDbEntity
  8
DIM
100
AcDbBlockReference
  2
SEARROW
 10
50.31989343689083
 20
20.03429036495915
 30
0.0
 41
0.28
 42
0.28
 43
0.28
  0
MTEXT
  5
1333C
330
10AA2
100
AcDbEntity
  8
DIM
100
AcDbMText
 10
45.81989343689083
 20
20.03429036495915
 30
0.0
 40
0.4
 41
0.0
 71
     5
 72
     1
  1
\A1;9.00\P [229]
  7
ROMANS
1001
ACAD
1000
MTEXTBEGIN
1070
    73
1070
     1
1070
    44
1040
1.0
1070
    74
1070
     0
1000
MTEXTEND
  0
POINT
  5
1333D
330
10AA2
100
AcDbEntity
  8
DEFPOINTS
 62
     0
100
AcDbPoint
 10
41.31989343689084
 20
14.15164735104087
 30
0.0
  0
POINT
  5
1333E
330
10AA2
100
AcDbEntity
  8
DEFPOINTS
 62
     0
100
AcDbPoint
 10
50.31989343689083
 20
13.66414735104087
 30
0.0
  0
POINT
  5
1333F
330
10AA2
100
AcDbEntity
  8
DEFPOINTS
 62
     0
100
AcDbPoint
 10
50.31989343689083
 20
20.03429036495915
 30
0.0
  0
ENDBLK
  5
10AAE
330
10AA2
100
AcDbEntity
  8
0
100
AcDbBlockEnd
  0
BLOCK
  5
10B63
330
10B58
100
AcDbEntity
  8
0
100
AcDbBlockBegin
  2
*D9
 70
     1
 10
0.0
 20
0.0
 30
0.0
  3
*D9
  1

  0
LINE
  5
13340
330
10B58
100
AcDbEntity
  8
DIM
100
AcDbLine
 10
41.41489343689083
 20
14.52914735104086
 30
0.0
 11
38.06989343689084
 21
14.52914735104086
 31
0.0
  0
LINE
  5
13341
330
10B58
100
AcDbEntity
  8
DIM
100
AcDbLine
 10
41.41489343689083
 20
12.79914735104086
 30
0.0
 11
38.06989343689084
 21
12.79914735104086
 31
0.0
  0
LINE
  5
13342
330
10B58
100
AcDbEntity
  8
DIM
100
AcDbLine
 10
38.31989343689084
 20
14.80914735104087
 30
0.0
 11
38.31989343689084
 21
15.08914735104086
 31
0.0
  0
LINE
  5
13343
330
10B58
100
AcDbEntity
  8
DIM
100
AcDbLine
 10
38.31989343689084
 20
12.51914735104087
 30
0.0
 11
38.31989343689084
 21
12.23914735104086
 31
0.0
  0
INSERT
  5
13344
330
10B58
100
AcDbEntity
  8
DIM
100
AcDbBlockReference
  2
SEARROW
 10
38.31989343689084
 20
14.52914735104086
 30
0.0
 41
0.28
 42
0.28
 43
0.28
 50
270.0
  0
INSERT
  5
13345
330
10B58
100
AcDbEntity
  8
DIM
100
AcDbBlockReference
  2
SEARROW
 10
38.31989343689084
 20
12.79914735104086
 30
0.0
 41
0.28
 42
0.28
 43
0.28
 50
90.0
  0
MTEXT
  5
13346
330
10B58
100
AcDbEntity
  8
DIM
100
AcDbMText
 10
38.31989343689084
 20
13.66414735104087
 30
0.0
 40
0.4
 41
0.0
 71
     5
 72
     1
  1
\A1;1.73\P [44]
  7
ROMANS
1001
ACAD
1000
MTEXTBEGIN
1070
    73
1070
     1
1070
    44
1040
1.0
1070
    74
1070
     0
1000
MTEXTEND
  0
POINT
  5
13347
330
10B58
100
AcDbEntity
  8
DEFPOINTS
 62
     0
100
AcDbPoint
 10
41.66489343689083
 20
14.52914735104086
 30
0.0
  0
POINT
  5
13348
330
10B58
100
AcDbEntity
  8
DEFPOINTS
 62
     0
100
AcDbPoint
 10
41.66489343689083
 20
12.79914735104086
 30
0.0
  0
POINT
  5
13349
330
10B58
100
AcDbEntity
  8
DEFPOINTS
 62
     0
100
AcDbPoint
 10
38.31989343689084
 20
12.79914735104086
 30
0.0
  0
ENDBLK
  5
10B64
330
10B58
100
AcDbEntity
  8
0
100
AcDbBlockEnd
  0
BLOCK
  5
10BA3
330
10B98
100
AcDbEntity
  8
0
100
AcDbBlockBegin
  2
*D10
 70
     1
 10
0.0
 20
0.0
 30
0.0
  3
*D10
  1

  0
LINE
  5
1334A
330
10B98
100
AcDbEntity
  8
DIM
100
AcDbLine
 10
41.46239343689083
 20
14.78914735104087
 30
0.0
 11
36.56989343689083
 21
14.78914735104087
 31
0.0
  0
LINE
  5
1334B
330
10B98
100
AcDbEntity
  8
DIM
100
AcDbLine
 10
42.36864343689084
 20
9.189147351040872
 30
0.0
 11
36.56989343689083
 21
9.189147351040872
 31
0.0
  0
LINE
  5
1334C
330
10B98
100
AcDbEntity
  8
DIM
100
AcDbLine
 10
36.81989343689084
 20
14.50914735104087
 30
0.0
 11
36.81989343689084
 21
12.7872425891361
 31
0.0
  0
LINE
  5
1334D
330
10B98
100
AcDbEntity
  8
DIM
100
AcDbLine
 10
36.81989343689084
 20
9.469147351040872
 30
0.0
 11
36.81989343689084
 21
11.19105211294563
 31
0.0
  0
INSERT
  5
1334E
330
10B98
100
AcDbEntity
  8
DIM
100
AcDbBlockReference
  2
SEARROW
 10
36.81989343689084
 20
14.78914735104087
 30
0.0
 41
0.28
 42
0.28
 43
0.28
 50
90.0
  0
INSERT
  5
1334F
330
10B98
100
AcDbEntity
  8
DIM
100
AcDbBlockReference
  2
SEARROW
 10
36.81989343689084
 20
9.189147351040872
 30
0.0
 41
0.28
 42
0.28
 43
0.28
 50
270.0
  0
MTEXT
  5
13350
330
10B98
100
AcDbEntity
  8
DIM
100
AcDbMText
 10
36.81989343689084
 20
11.98914735104087
 30
0.0
 40
0.4
 41
0.0
 71
     5
 72
     1
  1
\A1;5.60\P [142]
  7
ROMANS
1001
ACAD
1000
MTEXTBEGIN
1070
    73
1070
     1
1070
    44
1040
1.0
1070
    74
1070
     0
1000
MTEXTEND
  0
POINT
  5
13351
330
10B98
100
AcDbEntity
  8
DEFPOINTS
 62
     0
100
AcDbPoint
 10
41.71239343689083
 20
14.78914735104087
 30
0.0
  0
POINT
  5
13352
330
10B98
100
AcDbEntity
  8
DEFPOINTS
 62
     0
100
AcDbPoint
 10
42.61864343689083
 20
9.189147351040872
 30
0.0
  0
POINT
  5
13353
330
10B98
100
AcDbEntity
  8
DEFPOINTS
 62
     0
100
AcDbPoint
 10
36.81989343689084
 20
9.189147351040872
 30
0.0
  0
ENDBLK
  5
10BA4
330
10B98
100
AcDbEntity
  8
0
100
AcDbBlockEnd
  0
BLOCK
  5
10BBB
330
10BB0
100
AcDbEntity
  8
0
100
AcDbBlockBegin
  2
*D11
 70
     1
 10
0.0
 20
0.0
 30
0.0
  3
*D11
  1

  0
LINE
  5
13354
330
10BB0
100
AcDbEntity
  8
DIM
100
AcDbLine
 10
41.31989343689084
 20
12.92664735104087
 30
0.0
 11
41.31989343689084
 21
7.282897351040869
 31
0.0
  0
LINE
  5
13355
330
10BB0
100
AcDbEntity
  8
DIM
100
AcDbLine
 10
43.71989343689082
 20
8.782897351040869
 30
0.0
 11
43.71989343689082
 21
7.282897351040869
 31
0.0
  0
LINE
  5
13356
330
10BB0
100
AcDbEntity
  8
DIM
100
AcDbLine
 10
41.03989343689083
 20
7.532897351040869
 30
0.0
 11
40.75989343689083
 21
7.532897351040869
 31
0.0
  0
LINE
  5
13357
330
10BB0
100
AcDbEntity
  8
DIM
100
AcDbLine
 10
43.99989343689083
 20
7.532897351040869
 30
0.0
 11
44.27989343689083
 21
7.532897351040869
 31
0.0
  0
INSERT
  5
13358
330
10BB0
100
AcDbEntity
  8
DIM
100
AcDbBlockReference
  2
SEARROW
 10
41.31989343689084
 20
7.532897351040869
 30
0.0
 41
0.28
 42
0.28
 43
0.28
  0
INSERT
  5
13359
330
10BB0
100
AcDbEntity
  8
DIM
100
AcDbBlockReference
  2
SEARROW
 10
43.71989343689082
 20
7.532897351040869
 30
0.0
 41
0.28
 42
0.28
 43
0.28
 50
180.0
  0
MTEXT
  5
1335A
330
10BB0
100
AcDbEntity
  8
DIM
100
AcDbMText
 10
42.51989343689084
 20
7.532897351040869
 30
0.0
 40
0.4
 41
0.0
 71
     5
 72
     1
  1
\A1;2.40\P [61]
  7
ROMANS
1001
ACAD
1000
MTEXTBEGIN
1070
    73
1070
     1
1070
    44
1040
1.0
1070
    74
1070
     0
1000
MTEXTEND
  0
POINT
  5
1335B
330
10BB0
100
AcDbEntity
  8
DEFPOINTS
 62
     0
100
AcDbPoint
 10
41.31989343689084
 20
13.17664735104087
 30
0.0
  0
POINT
  5
1335C
330
10BB0
100
AcDbEntity
  8
DEFPOINTS
 62
     0
100
AcDbPoint
 10
43.71989343689082
 20
9.032897351040869
 30
0.0
  0
POINT
  5
1335D
330
10BB0
100
AcDbEntity
  8
DEFPOINTS
 62
     0
100
AcDbPoint
 10
43.71989343689082
 20
7.532897351040869
 30
0.0
  0
ENDBLK
  5
10BBC
330
10BB0
100
AcDbEntity
  8
0
100
AcDbBlockEnd
  0
BLOCK
  5
10BD3
330
10BC8
100
AcDbEntity
  8
0
100
AcDbBlockBegin
  2
*D12
 70
     1
 10
0.0
 20
0.0
 30
0.0
  3
*D12
  1

  0
LINE
  5
1335E
330
10BC8
100
AcDbEntity
  8
DIM
100
AcDbLine
 10
42.08739343689083
 20
11.78914735104087
 30
0.0
 11
39.56989343689084
 21
11.78914735104087
 31
0.0
  0
LINE
  5
1335F
330
10BC8
100
AcDbEntity
  8
DIM
100
AcDbLine
 10
42.36864343689084
 20
9.189147351040872
 30
0.0
 11
39.56989343689084
 21
9.189147351040872
 31
0.0
  0
LINE
  5
13360
330
10BC8
100
AcDbEntity
  8
DIM
100
AcDbLine
 10
39.81989343689083
 20
11.50914735104087
 30
0.0
 11
39.81989343689083
 21
11.28724258913611
 31
0.0
  0
LINE
  5
13361
330
10BC8
100
AcDbEntity
  8
DIM
100
AcDbLine
 10
39.81989343689083
 20
9.469147351040872
 30
0.0
 11
39.81989343689083
 21
9.691052112945634
 31
0.0
  0
INSERT
  5
13362
330
10BC8
100
AcDbEntity
  8
DIM
100
AcDbBlockReference
  2
SEARROW
 10
39.81989343689083
 20
11.78914735104087
 30
0.0
 41
0.28
 42
0.28
 43
0.28
 50
90.0
  0
INSERT
  5
13363
330
10BC8
100
AcDbEntity
  8
DIM
100
AcDbBlockReference
  2
SEARROW
 10
39.81989343689083
 20
9.189147351040872
 30
0.0
 41
0.28
 42
0.28
 43
0.28
 50
270.0
  0
MTEXT
  5
13364
330
10BC8
100
AcDbEntity
  8
DIM
100
AcDbMText
 10
39.81989343689083
 20
10.48914735104087
 30
0.0
 40
0.4
 41
0.0
 71
     5
 72
     1
  1
\A1;2.60\P [66]
  7
ROMANS
1001
ACAD
1000
MTEXTBEGIN
1070
    73
1070
     1
1070
    44
1040
1.0
1070
    74
1070
     0
1000
MTEXTEND
  0
POINT
  5
13365
330
10BC8
100
AcDbEntity
  8
DEFPOINTS
 62
     0
100
AcDbPoint
 10
42.33739343689083
 20
11.78914735104087
 30
0.0
  0
POINT
  5
13366
330
10BC8
100
AcDbEntity
  8
DEFPOINTS
 62
     0
100
AcDbPoint
 10
42.61864343689083
 20
9.189147351040872
 30
0.0
  0
POINT
  5
13367
330
10BC8
100
AcDbEntity
  8
DEFPOINTS
 62
     0
100
AcDbPoint
 10
39.81989343689083
 20
9.189147351040872
 30
0.0
  0
ENDBLK
  5
10BD4
330
10BC8
100
AcDbEntity
  8
0
100
AcDbBlockEnd
  0
BLOCK
  5
110BE
330
110B3
100
AcDbEntity
  8
0
100
AcDbBlockBegin
  2
*D13
 70
     1
 10
0.0
 20
0.0
 30
0.0
  3
*D13
  1

  0
LINE
  5
13368
330
110B3
100
AcDbEntity
  8
DIM
100
AcDbLine
 10
58.98523214234663
 20
15.03914735104087
 30
0.0
 11
58.98523214234663
 21
16.68673931791825
 31
0.0
  0
LINE
  5
13369
330
110B3
100
AcDbEntity
  8
DIM
100
AcDbLine
 10
59.78523214234662
 20
15.03914735104087
 30
0.0
 11
59.78523214234662
 21
16.68673931791825
 31
0.0
  0
LINE
  5
1336A
330
110B3
100
AcDbEntity
  8
DIM
100
AcDbLine
 10
60.06523214234663
 20
16.43673931791826
 30
0.0
 11
60.34523214234663
 21
16.43673931791826
 31
0.0
  0
LINE
  5
1336B
330
110B3
100
AcDbEntity
  8
DIM
100
AcDbLine
 10
58.70523214234663
 20
16.43673931791826
 30
0.0
 11
58.42523214234663
 21
16.43673931791826
 31
0.0
  0
INSERT
  5
1336C
330
110B3
100
AcDbEntity
  8
DIM
100
AcDbBlockReference
  2
SEARROW
 10
59.78523214234662
 20
16.43673931791826
 30
0.0
 41
0.28
 42
0.28
 43
0.28
 50
180.0
  0
INSERT
  5
1336D
330
110B3
100
AcDbEntity
  8
DIM
100
AcDbBlockReference
  2
SEARROW
 10
58.98523214234663
 20
16.43673931791826
 30
0.0
 41
0.28
 42
0.28
 43
0.28
  0
MTEXT
  5
1336E
330
110B3
100
AcDbEntity
  8
DIM
100
AcDbMText
 10
57.50332738044186
 20
16.43673931791826
 30
0.0
 40
0.4
 41
0.0
 71
     5
 72
     1
  1
\A1;.80\P [20]
  7
ROMANS
1001
ACAD
1000
MTEXTBEGIN
1070
    73
1070
     1
1070
    44
1040
1.0
1070
    74
1070
     0
1000
MTEXTEND
  0
POINT
  5
1336F
330
110B3
100
AcDbEntity
  8
DEFPOINTS
 62
     0
100
AcDbPoint
 10
58.98523214234663
 20
14.78914735104087
 30
0.0
  0
POINT
  5
13370
330
110B3
100
AcDbEntity
  8
DEFPOINTS
 62
     0
100
AcDbPoint
 10
59.78523214234662
 20
14.78914735104087
 30
0.0
  0
POINT
  5
13371
330
110B3
100
AcDbEntity
  8
DEFPOINTS
 62
     0
100
AcDbPoint
 10
59.78523214234662
 20
16.43673931791826
 30
0.0
  0
ENDBLK
  5
110BF
330
110B3
100
AcDbEntity
  8
0
100
AcDbBlockEnd
  0
BLOCK
  5
110CC
330
110C1
100
AcDbEntity
  8
0
100
AcDbBlockBegin
  2
*D14
 70
     1
 10
0.0
 20
0.0
 30
0.0
  3
*D14
  1

  0
LINE
  5
13372
330
110C1
100
AcDbEntity
  8
DIM
100
AcDbLine
 10
58.98523214234663
 20
15.03914735104087
 30
0.0
 11
58.98523214234663
 21
18.47183128479564
 31
0.0
  0
LINE
  5
13373
330
110C1
100
AcDbEntity
  8
DIM
100
AcDbLine
 10
60.98523214234663
 20
15.03914735104087
 30
0.0
 11
60.98523214234663
 21
18.47183128479564
 31
0.0
  0
LINE
  5
13374
330
110C1
100
AcDbEntity
  8
DIM
100
AcDbLine
 10
58.70523214234663
 20
18.22183128479564
 30
0.0
 11
58.42523214234663
 21
18.22183128479564
 31
0.0
  0
LINE
  5
13375
330
110C1
100
AcDbEntity
  8
DIM
100
AcDbLine
 10
61.26523214234663
 20
18.22183128479564
 30
0.0
 11
61.54523214234663
 21
18.22183128479564
 31
0.0
  0
INSERT
  5
13376
330
110C1
100
AcDbEntity
  8
DIM
100
AcDbBlockReference
  2
SEARROW
 10
58.98523214234663
 20
18.22183128479564
 30
0.0
 41
0.28
 42
0.28
 43
0.28
  0
INSERT
  5
13377
330
110C1
100
AcDbEntity
  8
DIM
100
AcDbBlockReference
  2
SEARROW
 10
60.98523214234663
 20
18.22183128479564
 30
0.0
 41
0.28
 42
0.28
 43
0.28
 50
180.0
  0
MTEXT
  5
13378
330
110C1
100
AcDbEntity
  8
DIM
100
AcDbMText
 10
59.98523214234663
 20
18.22183128479564
 30
0.0
 40
0.4
 41
0.0
 71
     5
 72
     1
  1
\A1;2.00\P [51]
  7
ROMANS
1001
ACAD
1000
MTEXTBEGIN
1070
    73
1070
     1
1070
    44
1040
1.0
1070
    74
1070
     0
1000
MTEXTEND
  0
POINT
  5
13379
330
110C1
100
AcDbEntity
  8
DEFPOINTS
 62
     0
100
AcDbPoint
 10
58.98523214234663
 20
14.78914735104087
 30
0.0
  0
POINT
  5
1337A
330
110C1
100
AcDbEntity
  8
DEFPOINTS
 62
     0
100
AcDbPoint
 10
60.98523214234663
 20
14.78914735104087
 30
0.0
  0
POINT
  5
1337B
330
110C1
100
AcDbEntity
  8
DEFPOINTS
 62
     0
100
AcDbPoint
 10
60.98523214234663
 20
18.22183128479564
 30
0.0
  0
ENDBLK
  5
110CD
330
110C1
100
AcDbEntity
  8
0
100
AcDbBlockEnd
  0
BLOCK
  5
110DA
330
110CF
100
AcDbEntity
  8
0
100
AcDbBlockBegin
  2
*D15
 70
     1
 10
0.0
 20
0.0
 30
0.0
  3
*D15
  1

  0
LINE
  5
1337C
330
110CF
100
AcDbEntity
  8
DIM
100
AcDbLine
 10
58.98523214234663
 20
15.03914735104087
 30
0.0
 11
58.98523214234663
 21
20.28429036495915
 31
0.0
  0
LINE
  5
1337D
330
110CF
100
AcDbEntity
  8
DIM
100
AcDbLine
 10
63.08523214234663
 20
12.07039735104087
 30
0.0
 11
63.08523214234663
 21
20.28429036495915
 31
0.0
  0
LINE
  5
1337E
330
110CF
100
AcDbEntity
  8
DIM
100
AcDbLine
 10
59.26523214234663
 20
20.03429036495915
 30
0.0
 11
59.92285118996568
 21
20.03429036495915
 31
0.0
  0
LINE
  5
1337F
330
110CF
100
AcDbEntity
  8
DIM
100
AcDbLine
 10
62.80523214234662
 20
20.03429036495915
 30
0.0
 11
62.14761309472758
 21
20.03429036495915
 31
0.0
  0
INSERT
  5
13380
330
110CF
100
AcDbEntity
  8
DIM
100
AcDbBlockReference
  2
SEARROW
 10
58.98523214234663
 20
20.03429036495915
 30
0.0
 41
0.28
 42
0.28
 43
0.28
 50
180.0
  0
INSERT
  5
13381
330
110CF
100
AcDbEntity
  8
DIM
100
AcDbBlockReference
  2
SEARROW
 10
63.08523214234663
 20
20.03429036495915
 30
0.0
 41
0.28
 42
0.28
 43
0.28
  0
MTEXT
  5
13382
330
110CF
100
AcDbEntity
  8
DIM
100
AcDbMText
 10
61.03523214234662
 20
20.03429036495915
 30
0.0
 40
0.4
 41
0.0
 71
     5
 72
     1
  1
\A1;4.10\P [104]
  7
ROMANS
1001
ACAD
1000
MTEXTBEGIN
1070
    73
1070
     1
1070
    44
1040
1.0
1070
    74
1070
     0
1000
MTEXTEND
  0
POINT
  5
13383
330
110CF
100
AcDbEntity
  8
DEFPOINTS
 62
     0
100
AcDbPoint
 10
58.98523214234663
 20
14.78914735104087
 30
0.0
  0
POINT
  5
13384
330
110CF
100
AcDbEntity
  8
DEFPOINTS
 62
     0
100
AcDbPoint
 10
63.08523214234663
 20
11.82039735104087
 30
0.0
  0
POINT
  5
13385
330
110CF
100
AcDbEntity
  8
DEFPOINTS
 62
     0
100
AcDbPoint
 10
63.08523214234663
 20
20.03429036495915
 30
0.0
  0
ENDBLK
  5
110DB
330
110CF
100
AcDbEntity
  8
0
100
AcDbBlockEnd
  0
BLOCK
  5
110E9
330
110DE
100
AcDbEntity
  8
0
100
AcDbBlockBegin
  2
*D16
 70
     1
 10
0.0
 20
0.0
 30
0.0
  3
*D16
  1

  0
LINE
  5
13386
330
110DE
100
AcDbEntity
  8
DIM
100
AcDbLine
 10
59.88523214234664
 20
11.53914735104087
 30
0.0
 11
59.88523214234664
 21
7.282897351040869
 31
0.0
  0
LINE
  5
13387
330
110DE
100
AcDbEntity
  8
DIM
100
AcDbLine
 10
58.98523214234663
 20
8.939147351040869
 30
0.0
 11
58.98523214234663
 21
7.282897351040869
 31
0.0
  0
LINE
  5
13388
330
110DE
100
AcDbEntity
  8
DIM
100
AcDbLine
 10
59.26523214234663
 20
7.532897351040869
 30
0.0
 11
59.60523214234664
 21
7.532897351040869
 31
0.0
  0
LINE
  5
13389
330
110DE
100
AcDbEntity
  8
DIM
100
AcDbLine
 10
59.88523214234664
 20
7.532897351040869
 30
0.0
 11
60.16523214234664
 21
7.532897351040869
 31
0.0
  0
INSERT
  5
1338A
330
110DE
100
AcDbEntity
  8
DIM
100
AcDbBlockReference
  2
SEARROW
 10
58.98523214234663
 20
7.532897351040869
 30
0.0
 41
0.28
 42
0.28
 43
0.28
 50
180.0
  0
INSERT
  5
1338B
330
110DE
100
AcDbEntity
  8
DIM
100
AcDbBlockReference
  2
SEARROW
 10
59.88523214234664
 20
7.532897351040869
 30
0.0
 41
0.28
 42
0.28
 43
0.28
  0
MTEXT
  5
1338C
330
110DE
100
AcDbEntity
  8
DIM
100
AcDbMText
 10
61.0871369042514
 20
7.532897351040869
 30
0.0
 40
0.4
 41
0.0
 71
     5
 72
     1
  1
\A1;.90\P [23]
  7
ROMANS
1001
ACAD
1000
MTEXTBEGIN
1070
    73
1070
     1
1070
    44
1040
1.0
1070
    74
1070
     0
1000
MTEXTEND
  0
POINT
  5
1338D
330
110DE
100
AcDbEntity
  8
DEFPOINTS
 62
     0
100
AcDbPoint
 10
59.88523214234664
 20
11.78914735104087
 30
0.0
  0
POINT
  5
1338E
330
110DE
100
AcDbEntity
  8
DEFPOINTS
 62
     0
100
AcDbPoint
 10
58.98523214234663
 20
9.189147351040869
 30
0.0
  0
POINT
  5
1338F
330
110DE
100
AcDbEntity
  8
DEFPOINTS
 62
     0
100
AcDbPoint
 10
58.98523214234663
 20
7.532897351040869
 30
0.0
  0
ENDBLK
  5
110EA
330
110DE
100
AcDbEntity
  8
0
100
AcDbBlockEnd
  0
ENDSEC
  0
SECTION
  2
ENTITIES
  0
INSERT
  5
79E
330
1F
100
AcDbEntity
  8
0
100
AcDbBlockReference
  2
NEWLAYERS
 10
-0.0000014740623202
 20
0.1900200015532691
 30
0.0
 41
0.0000000090422425
 42
0.0000000090422425
 43
0.0000000090422425
  0
LWPOLYLINE
  5
BF7
330
1F
100
AcDbEntity
  8
VIEWPORT
100
AcDbPolyline
 90
        6
 70
     1
 43
0.0
 10
65.60000399999999
 20
41.19009155499847
 10
65.60000399999999
 20
3.838099554998468
 10
32.009844
 20
3.838099554998468
 10
32.009844
 20
0.190091554998471
 10
0.0
 20
0.190091554998471
 10
0.0
 20
41.19009155499847
1001
GENIUS_GENOREF_13
1005
0
1005
0
1005
0
1005
0
1005
0
1005
0
1005
0
  0
VIEWPORT
  5
BF8
330
1F
100
AcDbEntity
  8
VIEWPORT
100
AcDbViewport
 10
32.80000199999999
 20
20.69009155499847
 30
0.0
 40
65.60000399999999
 41
41.0
 69
     0
1001
ACAD
1000
MVIEW
1002
{
1070
    16
1010
0.0
1020
0.0
1030
0.0
1010
0.0
1020
0.0
1030
1.0
1040
0.0
1040
41.0
1040
32.79338763516309
1040
20.71142202491306
1040
50.0
1040
0.0
1040
0.0
1070
     0
1070
   100
1070
     1
1070
     2
1070
     0
1070
     0
1070
     0
1070
     0
1040
0.0
1040
0.0
1040
0.0
1040
0.5
1040
0.5
1040
0.5
1040
0.5
1070
     0
1002
{
1002
}
1002
}
1001
GENIUS_GENOREF_13
1005
0
1005
0
1005
0
1005
0
1005
0
1005
0
1005
0
1001
GENIUS_GENSCREG_15
1000
PF
1040
0.0
1000
DF
1040
0.0
1000
MIN
1011
0.0
1021
0.190091554998471
1031
0.0
1000
MAX
1011
65.60000399999999
1021
41.19009155499847
1031
0.0
1000
FLAGS
1070
     2
  0
LINE
  5
107DA
330
1F
100
AcDbEntity
  8
CONTINUOUS1
100
AcDbLine
 10
41.71239343689083
 20
14.78914735104087
 30
0.0
 11
42.14989343689083
 21
14.78914735104087
 31
0.0
  0
LINE
  5
107DC
330
1F
100
AcDbEntity
  8
CONTINUOUS1
100
AcDbLine
 10
45.68114343689083
 20
9.189147351040869
 30
0.0
 11
42.61864343689083
 21
9.189147351040872
 31
0.0
  0
LINE
  5
107DE
330
1F
100
AcDbEntity
  8
CONTINUOUS1
100
AcDbLine
 10
58.98523214234663
 20
14.78914735104087
 30
0.0
 11
58.98523214234663
 21
9.189147351040869
 31
0.0
  0
LINE
  5
107DF
330
1F
100
AcDbEntity
  8
CONTINUOUS1
100
AcDbLine
 10
60.98523214234663
 20
14.78914735104087
 30
0.0
 11
60.98523214234663
 21
9.189147351040869
 31
0.0
  0
LINE
  5
107E0
330
1F
100
AcDbEntity
  8
CONTINUOUS1
100
AcDbLine
 10
63.08523214234663
 20
11.82039735104087
 30
0.0
 11
63.08523214234663
 21
11.75789735104087
 31
0.0
  0
LINE
  5
107E1
330
1F
100
AcDbEntity
  8
CONTINUOUS1
100
AcDbLine
 10
58.98523214234663
 20
14.78914735104087
 30
0.0
 11
60.98523214234663
 21
14.78914735104087
 31
0.0
  0
LINE
  5
107E2
330
1F
100
AcDbEntity
  8
CONTINUOUS1
100
AcDbLine
 10
58.98523214234663
 20
9.189147351040869
 30
0.0
 11
60.98523214234663
 21
9.189147351040869
 31
0.0
  0
LINE
  5
107E8
330
1F
100
AcDbEntity
  8
CONTINUOUS1
100
AcDbLine
 10
46.77489343689083
 20
14.60164735104087
 30
0.0
 11
46.77489343689083
 21
12.69539735104087
 31
0.0
  0
LINE
  5
107E9
330
1F
100
AcDbEntity
  8
CONTINUOUS1
100
AcDbLine
 10
41.52489343689083
 20
14.60164735104087
 30
0.0
 11
41.52489343689083
 21
12.69539735104087
 31
0.0
  0
LINE
  5
107EA
330
1F
100
AcDbEntity
  8
CONTINUOUS1
100
AcDbLine
 10
41.71239343689083
 20
12.50789735104087
 30
0.0
 11
42.14989343689083
 21
12.50789735104087
 31
0.0
  0
LINE
  5
107EB
330
1F
100
AcDbEntity
  8
CONTINUOUS1
100
AcDbLine
 10
42.52489343689084
 20
12.41414735104087
 30
0.0
 11
42.52489343689084
 21
9.282897351040872
 31
0.0
  0
LINE
  5
107EC
330
1F
100
AcDbEntity
  8
CONTINUOUS1
100
AcDbLine
 10
45.77489343689083
 20
12.41414735104087
 30
0.0
 11
45.77489343689083
 21
12.28914735104087
 31
0.0
  0
LINE
  5
107ED
330
1F
100
AcDbEntity
  8
CONTINUOUS1
100
AcDbLine
 10
45.86864343689083
 20
12.50789735104087
 30
0.0
 11
46.14989343689083
 21
12.50789735104087
 31
0.0
  0
LINE
  5
107EF
330
1F
100
AcDbEntity
  8
CENTER1
100
AcDbLine
 10
41.66489343689083
 20
14.52914735104087
 30
0.0
 11
41.91489343689084
 21
14.52914735104087
 31
0.0
  0
LINE
  5
107F0
330
1F
100
AcDbEntity
  8
CENTER1
100
AcDbLine
 10
41.66489343689083
 20
12.79914735104086
 30
0.0
 11
41.91489343689084
 21
12.79914735104086
 31
0.0
  0
LINE
  5
107F2
330
1F
100
AcDbEntity
  8
CONTINUOUS1
100
AcDbLine
 10
41.31989343689084
 20
14.15164735104087
 30
0.0
 11
41.31989343689084
 21
13.17664735104087
 31
0.0
  0
LINE
  5
107F3
330
1F
100
AcDbEntity
  8
CENTER1
100
AcDbLine
 10
41.78989343689083
 20
14.71664735104087
 30
0.0
 11
41.78989343689083
 21
14.34164735104087
 31
0.0
  0
LINE
  5
107F4
330
1F
100
AcDbEntity
  8
CENTER1
100
AcDbLine
 10
46.50989343689083
 20
14.71664735104087
 30
0.0
 11
46.50989343689083
 21
14.34164735104086
 31
0.0
  0
LINE
  5
107F5
330
1F
100
AcDbEntity
  8
CONTINUOUS1
100
AcDbLine
 10
41.31989343689084
 20
14.15164735104087
 30
0.0
 11
41.41364343689083
 21
14.15164735104087
 31
0.0
  0
LINE
  5
107F6
330
1F
100
AcDbEntity
  8
CONTINUOUS1
100
AcDbLine
 10
41.31989343689084
 20
13.17664735104087
 30
0.0
 11
41.41364343689083
 21
13.17664735104087
 31
0.0
  0
LINE
  5
107F8
330
1F
100
AcDbEntity
  8
CONTINUOUS1
100
AcDbLine
 10
41.41364343689083
 20
14.08914735104087
 30
0.0
 11
41.52489343689083
 21
14.08914735104087
 31
0.0
  0
LINE
  5
107F9
330
1F
100
AcDbEntity
  8
CONTINUOUS1
100
AcDbLine
 10
41.41364343689083
 20
13.23914735104087
 30
0.0
 11
41.52489343689083
 21
13.23914735104087
 31
0.0
  0
LINE
  5
10802
330
1F
100
AcDbEntity
  8
CONTINUOUS1
100
AcDbLine
 10
41.78989343689083
 20
14.71664735104087
 30
0.0
 11
41.78989343689083
 21
14.71664735104087
 31
0.0
  0
LINE
  5
10803
330
1F
100
AcDbEntity
  8
CONTINUOUS1
100
AcDbLine
 10
41.78989343689083
 20
14.34164735104087
 30
0.0
 11
41.78989343689083
 21
14.34164735104087
 31
0.0
  0
LINE
  5
10804
330
1F
100
AcDbEntity
  8
CONTINUOUS1
100
AcDbLine
 10
41.78989343689083
 20
12.98664735104086
 30
0.0
 11
41.78989343689083
 21
12.98664735104086
 31
0.0
  0
LINE
  5
10805
330
1F
100
AcDbEntity
  8
CONTINUOUS1
100
AcDbLine
 10
41.78989343689083
 20
12.61164735104086
 30
0.0
 11
41.78989343689083
 21
12.61164735104086
 31
0.0
  0
LINE
  5
10806
330
1F
100
AcDbEntity
  8
CONTINUOUS1
100
AcDbLine
 10
46.50989343689083
 20
14.71664735104087
 30
0.0
 11
46.50989343689083
 21
14.71664735104087
 31
0.0
  0
LINE
  5
10807
330
1F
100
AcDbEntity
  8
CENTER1
100
AcDbLine
 10
46.38489343689083
 20
14.52914735104087
 30
0.0
 11
46.63489343689083
 21
14.52914735104087
 31
0.0
  0
LINE
  5
10808
330
1F
100
AcDbEntity
  8
CONTINUOUS1
100
AcDbLine
 10
46.50989343689083
 20
14.34164735104087
 30
0.0
 11
46.50989343689083
 21
14.34164735104087
 31
0.0
  0
LINE
  5
1080B
330
1F
100
AcDbEntity
  8
CENTER1
100
AcDbLine
 10
46.38489343689083
 20
12.79914735104086
 30
0.0
 11
46.63489343689083
 21
12.79914735104086
 31
0.0
  0
LINE
  5
1080D
330
1F
100
AcDbEntity
  8
CENTER1
100
AcDbLine
 10
41.78989343689083
 20
12.98664735104086
 30
0.0
 11
41.78989343689083
 21
12.61164735104086
 31
0.0
  0
LINE
  5
10824
330
1F
100
AcDbEntity
  8
CONTINUOUS1
100
AcDbLine
 10
41.61864343689083
 20
14.21102235104087
 30
0.0
 11
41.96239343689083
 21
14.21102235104087
 31
0.0
  0
LINE
  5
10825
330
1F
100
AcDbEntity
  8
CONTINUOUS1
100
AcDbLine
 10
41.61864343689083
 20
13.11727235104087
 30
0.0
 11
41.96239343689083
 21
13.11727235104087
 31
0.0
  0
LINE
  5
10826
330
1F
100
AcDbEntity
  8
CONTINUOUS1
100
AcDbLine
 10
42.05614343689084
 20
14.69539735104087
 30
0.0
 11
42.05614343689084
 21
14.30477235104087
 31
0.0
  0
LINE
  5
10827
330
1F
100
AcDbEntity
  8
CONTINUOUS1
100
AcDbLine
 10
46.24364343689083
 20
14.69539735104087
 30
0.0
 11
46.24364343689083
 21
14.30477235104087
 31
0.0
  0
LINE
  5
10828
330
1F
100
AcDbEntity
  8
CONTINUOUS1
100
AcDbLine
 10
46.24364343689083
 20
13.02352235104087
 30
0.0
 11
46.24364343689083
 21
12.60164735104087
 31
0.0
  0
LINE
  5
10829
330
1F
100
AcDbEntity
  8
CONTINUOUS1
100
AcDbLine
 10
46.33739343689083
 20
14.21102235104087
 30
0.0
 11
46.68114343689083
 21
14.21102235104087
 31
0.0
  0
LINE
  5
1082A
330
1F
100
AcDbEntity
  8
CONTINUOUS1
100
AcDbLine
 10
46.33739343689083
 20
13.11727235104087
 30
0.0
 11
46.68114343689083
 21
13.11727235104087
 31
0.0
  0
LINE
  5
1082B
330
1F
100
AcDbEntity
  8
CONTINUOUS1
100
AcDbLine
 10
42.05614343689084
 20
13.02352235104087
 30
0.0
 11
42.05614343689084
 21
12.60164735104087
 31
0.0
  0
ARC
  5
1082C
330
1F
100
AcDbEntity
  8
CONTINUOUS1
100
AcDbCircle
 10
41.71239343689083
 20
14.60164735104087
 30
0.0
 40
0.1875
100
AcDbArc
 50
90.0
 51
180.0
  0
ARC
  5
1082D
330
1F
100
AcDbEntity
  8
CONTINUOUS1
100
AcDbCircle
 10
41.71239343689083
 20
12.69539735104087
 30
0.0
 40
0.1875
100
AcDbArc
 50
180.0
 51
270.0000000000001
  0
ARC
  5
1082E
330
1F
100
AcDbEntity
  8
CONTINUOUS1
100
AcDbCircle
 10
46.58739343689084
 20
14.60164735104087
 30
0.0
 40
0.1875
100
AcDbArc
 50
0.0
 51
90.0
  0
ARC
  5
1082F
330
1F
100
AcDbEntity
  8
CONTINUOUS1
100
AcDbCircle
 10
46.58739343689084
 20
12.69539735104087
 30
0.0
 40
0.1875
100
AcDbArc
 50
269.9999999999998
 51
359.9999999999999
  0
LINE
  5
10830
330
1F
100
AcDbEntity
  8
CONTINUOUS1
100
AcDbLine
 10
42.14989343689083
 20
14.78914735104087
 30
0.0
 11
46.14989343689083
 21
14.78914735104087
 31
0.0
  0
LINE
  5
10834
330
1F
100
AcDbEntity
  8
CONTINUOUS1
100
AcDbLine
 10
42.14989343689083
 20
12.50789735104087
 30
0.0
 11
42.43114343689083
 21
12.50789735104087
 31
0.0
  0
LINE
  5
10836
330
1F
100
AcDbEntity
  8
CONTINUOUS1
100
AcDbLine
 10
46.14989343689083
 20
14.78914735104087
 30
0.0
 11
46.58739343689084
 21
14.78914735104087
 31
0.0
  0
LINE
  5
10837
330
1F
100
AcDbEntity
  8
CONTINUOUS1
100
AcDbLine
 10
46.14989343689083
 20
12.50789735104087
 30
0.0
 11
46.58739343689084
 21
12.50789735104087
 31
0.0
  0
ARC
  5
10838
330
1F
100
AcDbEntity
  8
CONTINUOUS1
100
AcDbCircle
 10
42.14989343689083
 20
14.69539735104087
 30
0.0
 40
0.09375
100
AcDbArc
 50
90.0
 51
180.0
  0
ARC
  5
10839
330
1F
100
AcDbEntity
  8
CONTINUOUS1
100
AcDbCircle
 10
46.14989343689083
 20
14.69539735104087
 30
0.0
 40
0.09375
100
AcDbArc
 50
0.0
 51
90.0
  0
ARC
  5
1083A
330
1F
100
AcDbEntity
  8
CONTINUOUS1
100
AcDbCircle
 10
46.14989343689083
 20
12.60164735104087
 30
0.0
 40
0.09375
100
AcDbArc
 50
270.0000000000003
 51
0.0
  0
ARC
  5
1083B
330
1F
100
AcDbEntity
  8
CONTINUOUS1
100
AcDbCircle
 10
42.14989343689083
 20
12.60164735104087
 30
0.0
 40
0.09375
100
AcDbArc
 50
180.0
 51
270.0000000000002
  0
ARC
  5
1083C
330
1F
100
AcDbEntity
  8
CONTINUOUS1
100
AcDbCircle
 10
46.33739343689083
 20
14.30477235104087
 30
0.0
 40
0.09375
100
AcDbArc
 50
179.9999999999998
 51
270.0
  0
ARC
  5
1083D
330
1F
100
AcDbEntity
  8
CONTINUOUS1
100
AcDbCircle
 10
46.33739343689083
 20
13.02352235104087
 30
0.0
 40
0.09375
100
AcDbArc
 50
90.0
 51
180.0
  0
ARC
  5
1083E
330
1F
100
AcDbEntity
  8
CONTINUOUS1
100
AcDbCircle
 10
41.96239343689083
 20
13.02352235104087
 30
0.0
 40
0.09375
100
AcDbArc
 50
0.0
 51
90.0
  0
ARC
  5
1083F
330
1F
100
AcDbEntity
  8
CONTINUOUS1
100
AcDbCircle
 10
41.96239343689083
 20
14.30477235104087
 30
0.0
 40
0.09375
100
AcDbArc
 50
270.0
 51
0.0
  0
ARC
  5
10840
330
1F
100
AcDbEntity
  8
CONTINUOUS1
100
AcDbCircle
 10
41.61864343689083
 20
14.11727235104087
 30
0.0
 40
0.09375
100
AcDbArc
 50
90.0
 51
180.0
  0
ARC
  5
10841
330
1F
100
AcDbEntity
  8
CONTINUOUS1
100
AcDbCircle
 10
41.61864343689083
 20
13.21102235104087
 30
0.0
 40
0.09375
100
AcDbArc
 50
180.0
 51
270.0
  0
ARC
  5
10842
330
1F
100
AcDbEntity
  8
CONTINUOUS1
100
AcDbCircle
 10
42.43114343689083
 20
12.41414735104087
 30
0.0
 40
0.09375
100
AcDbArc
 50
0.0
 51
90.0000000000003
  0
ARC
  5
10843
330
1F
100
AcDbEntity
  8
CONTINUOUS1
100
AcDbCircle
 10
45.86864343689083
 20
12.41414735104087
 30
0.0
 40
0.09375
100
AcDbArc
 50
90.0
 51
180.0
  0
ARC
  5
10844
330
1F
100
AcDbEntity
  8
CONTINUOUS1
100
AcDbCircle
 10
46.68114343689083
 20
13.21102235104087
 30
0.0
 40
0.09375
100
AcDbArc
 50
270.0
 51
0.0
  0
ARC
  5
10845
330
1F
100
AcDbEntity
  8
CONTINUOUS1
100
AcDbCircle
 10
46.68114343689083
 20
14.11727235104087
 30
0.0
 40
0.09375
100
AcDbArc
 50
0.0
 51
90.0
  0
LINE
  5
10849
330
1F
100
AcDbEntity
  8
CONTINUOUS1
100
AcDbLine
 10
41.41364343689083
 20
14.15164735104087
 30
0.0
 11
41.41364343689083
 21
13.17664735104087
 31
0.0
  0
ARC
  5
1084A
330
1F
100
AcDbEntity
  8
CONTINUOUS1
100
AcDbCircle
 10
42.61864343689083
 20
9.282897351040872
 30
0.0
 40
0.09375
100
AcDbArc
 50
180.0
 51
270.0
  0
ARC
  5
1084B
330
1F
100
AcDbEntity
  8
CONTINUOUS1
100
AcDbCircle
 10
45.68114343689083
 20
9.282897351040869
 30
0.0
 40
0.09375
100
AcDbArc
 50
270.0
 51
0.0
  0
LINE
  5
1084C
330
1F
100
AcDbEntity
  8
CONTINUOUS1
100
AcDbLine
 10
41.68114343689083
 20
13.92977235104087
 30
0.0
 11
41.68114343689083
 21
13.39852235104087
 31
0.0
  0
LINE
  5
1084D
330
1F
100
AcDbEntity
  8
CONTINUOUS1
100
AcDbLine
 10
46.61864343689083
 20
13.92977235104087
 30
0.0
 11
46.61864343689083
 21
13.39852235104087
 31
0.0
  0
LINE
  5
1084E
330
1F
100
AcDbEntity
  8
CONTINUOUS1
100
AcDbLine
 10
41.68114343689083
 20
13.39852235104087
 30
0.0
 11
46.61864343689083
 21
13.39852235104087
 31
0.0
  0
LINE
  5
1084F
330
1F
100
AcDbEntity
  8
CONTINUOUS1
100
AcDbLine
 10
41.68114343689083
 20
13.92977235104087
 30
0.0
 11
46.61864343689083
 21
13.92977235104087
 31
0.0
  0
ARC
  5
10854
330
1F
100
AcDbEntity
  8
CONTINUOUS1
100
AcDbCircle
 10
42.27489343689083
 20
14.57039735104087
 30
0.0
 40
0.140625
100
AcDbArc
 50
90.55160293236928
 51
229.4483970676322
  0
LINE
  5
10855
330
1F
100
AcDbEntity
  8
CONTINUOUS1
100
AcDbLine
 10
42.26862574572055
 20
14.43961302962399
 30
0.0
 11
42.29116859952632
 21
14.52374410537469
 31
0.0
  0
LINE
  5
10856
330
1F
100
AcDbEntity
  8
CONTINUOUS1
100
AcDbLine
 10
42.19562822553498
 20
14.46618195414678
 30
0.0
 11
42.23243781072719
 21
14.54512036433254
 31
0.0
  0
LINE
  5
10859
330
1F
100
AcDbEntity
  8
CONTINUOUS1
100
AcDbLine
 10
42.21268353041921
 20
14.57641212757808
 30
0.0
 11
42.22802043312708
 21
14.57082995150658
 31
0.0
  0
LINE
  5
1085A
330
1F
100
AcDbEntity
  8
CONTINUOUS1
100
AcDbLine
 10
42.22337165989815
 20
14.60577752197764
 30
0.0
 11
42.238708562606
 21
14.60019534590614
 31
0.0
  0
LINE
  5
1085F
330
1F
100
AcDbEntity
  8
CONTINUOUS1
100
AcDbLine
 10
42.31734906305447
 20
14.59567433774919
 30
0.0
 11
42.35415864824668
 21
14.67461274793495
 31
0.0
  0
LINE
  5
10860
330
1F
100
AcDbEntity
  8
CONTINUOUS1
100
AcDbLine
 10
42.25861827425535
 20
14.61705059670705
 30
0.0
 11
42.28116112806112
 21
14.70118167245774
 31
0.0
  0
ARC
  5
10865
330
1F
100
AcDbEntity
  8
CONTINUOUS1
100
AcDbCircle
 10
42.27489343689083
 20
14.57039735104087
 30
0.0
 40
0.140625
100
AcDbArc
 50
49.44839706763071
 51
90.55160293236928
  0
ARC
  5
10866
330
1F
100
AcDbEntity
  8
CONTINUOUS1
100
AcDbCircle
 10
42.27489343689083
 20
14.57039735104087
 30
0.0
 40
0.140625
100
AcDbArc
 50
229.4483970676322
 51
270.5516029323687
  0
ARC
  5
10867
330
1F
100
AcDbEntity
  8
CONTINUOUS1
100
AcDbCircle
 10
42.27489343689083
 20
14.57039735104087
 30
0.0
 40
0.140625
100
AcDbArc
 50
270.5516029323683
 51
49.44839706763071
  0
ARC
  5
1086D
330
1F
100
AcDbEntity
  8
CONTINUOUS1
100
AcDbCircle
 10
42.27489343689083
 20
14.57039735104087
 30
0.0
 40
0.046875
100
AcDbArc
 50
115.5846914028065
 51
140.5287793655142
  0
ARC
  5
1086E
330
1F
100
AcDbEntity
  8
CONTINUOUS1
100
AcDbCircle
 10
42.27489343689083
 20
14.57039735104087
 30
0.0
 40
0.046875
100
AcDbArc
 50
295.5846914028066
 51
320.5287793655067
  0
ARC
  5
10870
330
1F
100
AcDbEntity
  8
CONTINUOUS1
100
AcDbCircle
 10
42.29850994812619
 20
14.52107207300496
 30
0.0
 40
0.0078125
100
AcDbArc
 50
115.5846914028111
 51
159.9999999999999
  0
ARC
  5
10871
330
1F
100
AcDbEntity
  8
CONTINUOUS1
100
AcDbCircle
 10
42.32469041165437
 20
14.59300230537946
 30
0.0
 40
0.0078125
100
AcDbArc
 50
159.9999999999869
 51
204.4153085971887
  0
ARC
  5
10872
330
1F
100
AcDbEntity
  8
CONTINUOUS1
100
AcDbCircle
 10
42.25127692565547
 20
14.61972262907678
 30
0.0
 40
0.0078125
100
AcDbArc
 50
295.5846914028112
 51
340.000000000013
  0
ARC
  5
10873
330
1F
100
AcDbEntity
  8
CONTINUOUS1
100
AcDbCircle
 10
42.2250964621273
 20
14.54779239670228
 30
0.0
 40
0.0078125
100
AcDbArc
 50
339.9999999999999
 51
24.4153085971888
  0
ARC
  5
10875
330
1F
100
AcDbEntity
  8
CONTINUOUS1
100
AcDbCircle
 10
42.18854769594877
 20
14.46948365931663
 30
0.0
 40
0.0078125
100
AcDbArc
 50
229.4483970676318
 51
335.0000000000005
  0
ARC
  5
10876
330
1F
100
AcDbEntity
  8
CONTINUOUS1
100
AcDbCircle
 10
42.27617204123844
 20
14.43759100583413
 30
0.0
 40
0.0078125
100
AcDbArc
 50
164.9999999999865
 51
270.5516029323681
  0
ARC
  5
10877
330
1F
100
AcDbEntity
  8
CONTINUOUS1
100
AcDbCircle
 10
42.36123917783291
 20
14.6713110427651
 30
0.0
 40
0.0078125
100
AcDbArc
 50
49.44839706762734
 51
155.0000000000017
  0
ARC
  5
10878
330
1F
100
AcDbEntity
  8
CONTINUOUS1
100
AcDbCircle
 10
42.27361483254324
 20
14.70320369624761
 30
0.0
 40
0.0078125
100
AcDbArc
 50
344.9999999999983
 51
90.55160293237273
  0
ARC
  5
10879
330
1F
100
AcDbEntity
  8
CONTINUOUS1
100
AcDbCircle
 10
42.27489343689083
 20
14.57039735104087
 30
0.0
 40
0.0625
100
AcDbArc
 50
325.5224878140685
 51
354.4775121859282
  0
ARC
  5
1087A
330
1F
100
AcDbEntity
  8
CONTINUOUS1
100
AcDbCircle
 10
42.27489343689083
 20
14.57039735104087
 30
0.0
 40
0.0625
100
AcDbArc
 50
145.5224878140732
 51
174.4775121859334
  0
ARC
  5
1087B
330
1F
100
AcDbEntity
  8
CONTINUOUS1
100
AcDbCircle
 10
42.27489343689083
 20
14.57039735104087
 30
0.0
 40
0.046875
100
AcDbArc
 50
179.4712206344953
 51
204.4153085971933
  0
ARC
  5
1087C
330
1F
100
AcDbEntity
  8
CONTINUOUS1
100
AcDbCircle
 10
42.27489343689083
 20
14.57039735104087
 30
0.0
 40
0.046875
100
AcDbArc
 50
359.4712206344885
 51
24.41530859719335
  0
LINE
  5
1087D
330
1F
100
AcDbEntity
  8
CONTINUOUS1
100
AcDbLine
 10
42.31107831117566
 20
14.54059935617559
 30
0.0
 11
42.32641521388353
 21
14.53501718010409
 31
0.0
  0
LINE
  5
1087E
330
1F
100
AcDbEntity
  8
CONTINUOUS1
100
AcDbLine
 10
42.3217664406546
 20
14.56996475057515
 30
0.0
 11
42.33710334336246
 21
14.56438257450365
 31
0.0
  0
LINE
  5
10881
330
1F
100
AcDbEntity
  8
CONTINUOUS1
100
AcDbLine
 10
42.36661403057581
 20
14.58979825808347
 30
0.0
 11
42.32075373373333
 21
14.58009780456216
 31
0.0
  0
LINE
  5
10882
330
1F
100
AcDbEntity
  8
CONTINUOUS1
100
AcDbLine
 10
42.30378913111496
 20
14.53348794193824
 30
0.0
 11
42.33268482533911
 21
14.49657853283562
 31
0.0
  0
LINE
  5
10884
330
1F
100
AcDbEntity
  8
CONTINUOUS1
100
AcDbLine
 10
42.22903314004834
 20
14.56069689751956
 30
0.0
 11
42.18317284320586
 21
14.55099644399826
 31
0.0
  0
LINE
  5
10885
330
1F
100
AcDbEntity
  8
CONTINUOUS1
100
AcDbLine
 10
42.24599774266668
 20
14.60730676014349
 30
0.0
 11
42.21710204844254
 21
14.64421616924611
 31
0.0
  0
ARC
  5
10887
330
1F
100
AcDbEntity
  8
CONTINUOUS1
100
AcDbCircle
 10
46.02489343689083
 20
14.57039735104087
 30
0.0
 40
0.140625
100
AcDbArc
 50
130.5516029323692
 51
269.4483970676316
  0
LINE
  5
10888
330
1F
100
AcDbEntity
  8
CONTINUOUS1
100
AcDbLine
 10
45.93317284320586
 20
14.58979825808347
 30
0.0
 11
45.97903314004835
 21
14.58009780456216
 31
0.0
  0
ARC
  5
10889
330
1F
100
AcDbEntity
  8
CONTINUOUS1
100
AcDbCircle
 10
46.02489343689083
 20
14.57039735104087
 30
0.0
 40
0.046875
100
AcDbArc
 50
155.5846914028066
 51
180.5287793655115
  0
ARC
  5
1088A
330
1F
100
AcDbEntity
  8
CONTINUOUS1
100
AcDbCircle
 10
46.02489343689083
 20
14.57039735104087
 30
0.0
 40
0.0625
100
AcDbArc
 50
5.52248781406659
 51
34.47751218592673
  0
ARC
  5
1088B
330
1F
100
AcDbEntity
  8
CONTINUOUS1
100
AcDbCircle
 10
46.02489343689083
 20
14.57039735104087
 30
0.0
 40
0.140625
100
AcDbArc
 50
269.4483970676313
 51
310.5516029323678
  0
ARC
  5
1088C
330
1F
100
AcDbEntity
  8
CONTINUOUS1
100
AcDbCircle
 10
46.11123917783291
 20
14.46948365931663
 30
0.0
 40
0.0078125
100
AcDbArc
 50
204.9999999999994
 51
310.5516029323682
  0
LINE
  5
1088D
330
1F
100
AcDbEntity
  8
CONTINUOUS1
100
AcDbLine
 10
46.07075373373333
 20
14.56069689751956
 30
0.0
 11
46.11661403057581
 21
14.55099644399826
 31
0.0
  0
ARC
  5
1088E
330
1F
100
AcDbEntity
  8
CONTINUOUS1
100
AcDbCircle
 10
46.02489343689083
 20
14.57039735104087
 30
0.0
 40
0.046875
100
AcDbArc
 50
335.5846914028066
 51
0.5287793655046175
  0
LINE
  5
1088F
330
1F
100
AcDbEntity
  8
CONTINUOUS1
100
AcDbLine
 10
46.10415864824668
 20
14.46618195414678
 30
0.0
 11
46.06734906305447
 21
14.54512036433254
 31
0.0
  0
ARC
  5
10890
330
1F
100
AcDbEntity
  8
CONTINUOUS1
100
AcDbCircle
 10
46.02361483254324
 20
14.43759100583413
 30
0.0
 40
0.0078125
100
AcDbArc
 50
269.4483970676319
 51
15.0000000000135
  0
ARC
  5
10891
330
1F
100
AcDbEntity
  8
CONTINUOUS1
100
AcDbCircle
 10
46.07469041165437
 20
14.54779239670228
 30
0.0
 40
0.0078125
100
AcDbArc
 50
155.5846914028111
 51
200.0
  0
LINE
  5
10892
330
1F
100
AcDbEntity
  8
CONTINUOUS1
100
AcDbLine
 10
45.988708562606
 20
14.54059935617559
 30
0.0
 11
45.97337165989815
 21
14.53501718010409
 31
0.0
  0
ARC
  5
10893
330
1F
100
AcDbEntity
  8
CONTINUOUS1
100
AcDbCircle
 10
46.00127692565547
 20
14.52107207300496
 30
0.0
 40
0.0078125
100
AcDbArc
 50
20.00000000000006
 51
64.41530859718882
  0
ARC
  5
10894
330
1F
100
AcDbEntity
  8
CONTINUOUS1
100
AcDbCircle
 10
46.02489343689083
 20
14.57039735104087
 30
0.0
 40
0.046875
100
AcDbArc
 50
219.4712206344933
 51
244.4153085971934
  0
ARC
  5
10895
330
1F
100
AcDbEntity
  8
CONTINUOUS1
100
AcDbCircle
 10
46.02489343689083
 20
14.57039735104087
 30
0.0
 40
0.0625
100
AcDbArc
 50
185.5224878140717
 51
214.4775121859314
  0
LINE
  5
10896
330
1F
100
AcDbEntity
  8
CONTINUOUS1
100
AcDbLine
 10
45.97802043312708
 20
14.56996475057515
 30
0.0
 11
45.96268353041921
 21
14.56438257450365
 31
0.0
  0
LINE
  5
10897
330
1F
100
AcDbEntity
  8
CONTINUOUS1
100
AcDbLine
 10
45.9959977426667
 20
14.53348794193824
 30
0.0
 11
45.96710204844256
 21
14.49657853283562
 31
0.0
  0
LINE
  5
10898
330
1F
100
AcDbEntity
  8
CONTINUOUS1
100
AcDbLine
 10
46.03116112806112
 20
14.43961302962399
 30
0.0
 11
46.00861827425537
 21
14.52374410537469
 31
0.0
  0
LINE
  5
10899
330
1F
100
AcDbEntity
  8
CONTINUOUS1
100
AcDbLine
 10
46.08710334336246
 20
14.57641212757808
 30
0.0
 11
46.07176644065458
 21
14.57082995150658
 31
0.0
  0
LINE
  5
1089B
330
1F
100
AcDbEntity
  8
CONTINUOUS1
100
AcDbLine
 10
45.98243781072719
 20
14.59567433774919
 30
0.0
 11
45.94562822553498
 21
14.67461274793495
 31
0.0
  0
ARC
  5
1089C
330
1F
100
AcDbEntity
  8
CONTINUOUS1
100
AcDbCircle
 10
45.9750964621273
 20
14.59300230537946
 30
0.0
 40
0.0078125
100
AcDbArc
 50
335.5846914028112
 51
20.00000000001308
  0
LINE
  5
1089D
330
1F
100
AcDbEntity
  8
CONTINUOUS1
100
AcDbLine
 10
46.04116859952632
 20
14.61705059670705
 30
0.0
 11
46.01862574572055
 21
14.70118167245774
 31
0.0
  0
LINE
  5
1089E
330
1F
100
AcDbEntity
  8
CONTINUOUS1
100
AcDbLine
 10
46.05378913111498
 20
14.60730676014349
 30
0.0
 11
46.08268482533913
 21
14.64421616924611
 31
0.0
  0
ARC
  5
1089F
330
1F
100
AcDbEntity
  8
CONTINUOUS1
100
AcDbCircle
 10
46.04850994812619
 20
14.61972262907678
 30
0.0
 40
0.0078125
100
AcDbArc
 50
199.999999999987
 51
244.4153085971887
  0
ARC
  5
108A0
330
1F
100
AcDbEntity
  8
CONTINUOUS1
100
AcDbCircle
 10
46.02489343689083
 20
14.57039735104087
 30
0.0
 40
0.046875
100
AcDbArc
 50
39.47122063448576
 51
64.41530859719347
  0
ARC
  5
108A1
330
1F
100
AcDbEntity
  8
CONTINUOUS1
100
AcDbCircle
 10
46.02489343689083
 20
14.57039735104087
 30
0.0
 40
0.140625
100
AcDbArc
 50
89.44839706763072
 51
130.5516029323692
  0
ARC
  5
108A2
330
1F
100
AcDbEntity
  8
CONTINUOUS1
100
AcDbCircle
 10
46.02617204123842
 20
14.70320369624761
 30
0.0
 40
0.0078125
100
AcDbArc
 50
89.44839706762728
 51
195.0000000000016
  0
ARC
  5
108A3
330
1F
100
AcDbEntity
  8
CONTINUOUS1
100
AcDbCircle
 10
45.93854769594877
 20
14.6713110427651
 30
0.0
 40
0.0078125
100
AcDbArc
 50
24.99999999999827
 51
130.5516029323726
  0
LINE
  5
108A4
330
1F
100
AcDbEntity
  8
CONTINUOUS1
100
AcDbLine
 10
46.07641521388353
 20
14.60577752197764
 30
0.0
 11
46.06107831117566
 21
14.60019534590614
 31
0.0
  0
ARC
  5
108A6
330
1F
100
AcDbEntity
  8
CONTINUOUS1
100
AcDbCircle
 10
46.02489343689083
 20
14.57039735104087
 30
0.0
 40
0.140625
100
AcDbArc
 50
310.5516029323678
 51
89.44839706763072
  0
ARC
  5
108A7
330
1F
100
AcDbEntity
  8
CONTINUOUS1
100
AcDbCircle
 10
42.27489343689083
 20
12.75789735104087
 30
0.0
 40
0.140625
100
AcDbArc
 50
310.5516029323692
 51
89.44839706763158
  0
ARC
  5
108A8
330
1F
100
AcDbEntity
  8
CONTINUOUS1
100
AcDbCircle
 10
42.27489343689083
 20
12.75789735104087
 30
0.0
 40
0.140625
100
AcDbArc
 50
130.5516029323677
 51
269.4483970676307
  0
LINE
  5
108A9
330
1F
100
AcDbEntity
  8
CONTINUOUS1
100
AcDbLine
 10
42.36661403057581
 20
12.73849644399827
 30
0.0
 11
42.32075373373333
 21
12.74819689751957
 31
0.0
  0
ARC
  5
108AA
330
1F
100
AcDbEntity
  8
CONTINUOUS1
100
AcDbCircle
 10
42.27489343689083
 20
12.75789735104087
 30
0.0
 40
0.046875
100
AcDbArc
 50
335.5846914028065
 51
0.5287793655114533
  0
ARC
  5
108AB
330
1F
100
AcDbEntity
  8
CONTINUOUS1
100
AcDbCircle
 10
42.27489343689083
 20
12.75789735104087
 30
0.0
 40
0.0625
100
AcDbArc
 50
185.5224878140665
 51
214.4775121859267
  0
ARC
  5
108AC
330
1F
100
AcDbEntity
  8
CONTINUOUS1
100
AcDbCircle
 10
42.27489343689083
 20
12.75789735104087
 30
0.0
 40
0.140625
100
AcDbArc
 50
89.44839706763128
 51
130.5516029323677
  0
ARC
  5
108AD
330
1F
100
AcDbEntity
  8
CONTINUOUS1
100
AcDbCircle
 10
42.18854769594877
 20
12.85881104276511
 30
0.0
 40
0.0078125
100
AcDbArc
 50
24.99999999999937
 51
130.5516029323681
  0
LINE
  5
108AE
330
1F
100
AcDbEntity
  8
CONTINUOUS1
100
AcDbLine
 10
42.22903314004834
 20
12.76759780456217
 30
0.0
 11
42.18317284320586
 21
12.77729825808348
 31
0.0
  0
ARC
  5
108AF
330
1F
100
AcDbEntity
  8
CONTINUOUS1
100
AcDbCircle
 10
42.27489343689083
 20
12.75789735104087
 30
0.0
 40
0.046875
100
AcDbArc
 50
155.5846914028066
 51
180.5287793655045
  0
LINE
  5
108B0
330
1F
100
AcDbEntity
  8
CONTINUOUS1
100
AcDbLine
 10
42.19562822553498
 20
12.86211274793496
 30
0.0
 11
42.23243781072719
 21
12.78317433774919
 31
0.0
  0
ARC
  5
108B1
330
1F
100
AcDbEntity
  8
CONTINUOUS1
100
AcDbCircle
 10
42.27617204123844
 20
12.89070369624761
 30
0.0
 40
0.0078125
100
AcDbArc
 50
89.44839706763188
 51
195.0000000000134
  0
ARC
  5
108B2
330
1F
100
AcDbEntity
  8
CONTINUOUS1
100
AcDbCircle
 10
42.2250964621273
 20
12.78050230537946
 30
0.0
 40
0.0078125
100
AcDbArc
 50
335.5846914028111
 51
20.0
  0
LINE
  5
108B3
330
1F
100
AcDbEntity
  8
CONTINUOUS1
100
AcDbLine
 10
42.31107831117566
 20
12.78769534590615
 30
0.0
 11
42.32641521388353
 21
12.79327752197764
 31
0.0
  0
ARC
  5
108B4
330
1F
100
AcDbEntity
  8
CONTINUOUS1
100
AcDbCircle
 10
42.29850994812619
 20
12.80722262907678
 30
0.0
 40
0.0078125
100
AcDbArc
 50
200.0
 51
244.4153085971888
  0
ARC
  5
108B5
330
1F
100
AcDbEntity
  8
CONTINUOUS1
100
AcDbCircle
 10
42.27489343689083
 20
12.75789735104087
 30
0.0
 40
0.046875
100
AcDbArc
 50
39.47122063449328
 51
64.41530859719332
  0
ARC
  5
108B6
330
1F
100
AcDbEntity
  8
CONTINUOUS1
100
AcDbCircle
 10
42.27489343689083
 20
12.75789735104087
 30
0.0
 40
0.0625
100
AcDbArc
 50
5.522487814071695
 51
34.47751218593142
  0
LINE
  5
108B7
330
1F
100
AcDbEntity
  8
CONTINUOUS1
100
AcDbLine
 10
42.3217664406546
 20
12.75832995150659
 30
0.0
 11
42.33710334336246
 21
12.76391212757809
 31
0.0
  0
LINE
  5
108B8
330
1F
100
AcDbEntity
  8
CONTINUOUS1
100
AcDbLine
 10
42.30378913111496
 20
12.79480676014349
 30
0.0
 11
42.33268482533911
 21
12.83171616924612
 31
0.0
  0
LINE
  5
108B9
330
1F
100
AcDbEntity
  8
CONTINUOUS1
100
AcDbLine
 10
42.26862574572055
 20
12.88868167245775
 30
0.0
 11
42.29116859952632
 21
12.80455059670705
 31
0.0
  0
LINE
  5
108BA
330
1F
100
AcDbEntity
  8
CONTINUOUS1
100
AcDbLine
 10
42.21268353041921
 20
12.75188257450365
 30
0.0
 11
42.22802043312708
 21
12.75746475057516
 31
0.0
  0
LINE
  5
108BC
330
1F
100
AcDbEntity
  8
CONTINUOUS1
100
AcDbLine
 10
42.31734906305447
 20
12.73262036433254
 30
0.0
 11
42.35415864824668
 21
12.65368195414678
 31
0.0
  0
ARC
  5
108BD
330
1F
100
AcDbEntity
  8
CONTINUOUS1
100
AcDbCircle
 10
42.32469041165437
 20
12.73529239670228
 30
0.0
 40
0.0078125
100
AcDbArc
 50
155.5846914028111
 51
200.000000000013
  0
LINE
  5
108BE
330
1F
100
AcDbEntity
  8
CONTINUOUS1
100
AcDbLine
 10
42.25861827425535
 20
12.71124410537469
 30
0.0
 11
42.28116112806112
 21
12.62711302962399
 31
0.0
  0
LINE
  5
108BF
330
1F
100
AcDbEntity
  8
CONTINUOUS1
100
AcDbLine
 10
42.24599774266668
 20
12.72098794193825
 30
0.0
 11
42.21710204844254
 21
12.68407853283563
 31
0.0
  0
ARC
  5
108C0
330
1F
100
AcDbEntity
  8
CONTINUOUS1
100
AcDbCircle
 10
42.25127692565547
 20
12.70857207300496
 30
0.0
 40
0.0078125
100
AcDbArc
 50
19.99999999998697
 51
64.41530859718873
  0
ARC
  5
108C1
330
1F
100
AcDbEntity
  8
CONTINUOUS1
100
AcDbCircle
 10
42.27489343689083
 20
12.75789735104087
 30
0.0
 40
0.046875
100
AcDbArc
 50
219.4712206344856
 51
244.4153085971934
  0
ARC
  5
108C2
330
1F
100
AcDbEntity
  8
CONTINUOUS1
100
AcDbCircle
 10
42.27489343689083
 20
12.75789735104087
 30
0.0
 40
0.140625
100
AcDbArc
 50
269.4483970676307
 51
310.5516029323692
  0
ARC
  5
108C3
330
1F
100
AcDbEntity
  8
CONTINUOUS1
100
AcDbCircle
 10
42.27361483254324
 20
12.62509100583413
 30
0.0
 40
0.0078125
100
AcDbArc
 50
269.4483970676272
 51
15.00000000000163
  0
ARC
  5
108C4
330
1F
100
AcDbEntity
  8
CONTINUOUS1
100
AcDbCircle
 10
42.36123917783291
 20
12.65698365931663
 30
0.0
 40
0.0078125
100
AcDbArc
 50
204.9999999999982
 51
310.5516029323726
  0
LINE
  5
108C5
330
1F
100
AcDbEntity
  8
CONTINUOUS1
100
AcDbLine
 10
42.22337165989815
 20
12.7225171801041
 30
0.0
 11
42.238708562606
 21
12.7280993561756
 31
0.0
  0
ARC
  5
108C7
330
1F
100
AcDbEntity
  8
CONTINUOUS1
100
AcDbCircle
 10
46.02489343689083
 20
12.75789735104087
 30
0.0
 40
0.140625
100
AcDbArc
 50
270.5516029323692
 51
49.44839706763218
  0
ARC
  5
108C8
330
1F
100
AcDbEntity
  8
CONTINUOUS1
100
AcDbCircle
 10
46.02489343689083
 20
12.75789735104087
 30
0.0
 40
0.0625
100
AcDbArc
 50
325.5224878140732
 51
354.4775121859334
  0
ARC
  5
108C9
330
1F
100
AcDbEntity
  8
CONTINUOUS1
100
AcDbCircle
 10
46.02489343689083
 20
12.75789735104087
 30
0.0
 40
0.046875
100
AcDbArc
 50
179.4712206344884
 51
204.4153085971933
  0
LINE
  5
108CA
330
1F
100
AcDbEntity
  8
CONTINUOUS1
100
AcDbLine
 10
45.93317284320586
 20
12.73849644399827
 30
0.0
 11
45.97903314004835
 21
12.74819689751957
 31
0.0
  0
ARC
  5
108CB
330
1F
100
AcDbEntity
  8
CONTINUOUS1
100
AcDbCircle
 10
46.02489343689083
 20
12.75789735104087
 30
0.0
 40
0.140625
100
AcDbArc
 50
90.55160293236836
 51
229.4483970676306
  0
ARC
  5
108CD
330
1F
100
AcDbEntity
  8
CONTINUOUS1
100
AcDbCircle
 10
46.02489343689083
 20
12.75789735104087
 30
0.0
 40
0.140625
100
AcDbArc
 50
49.44839706763218
 51
90.55160293236863
  0
LINE
  5
108CE
330
1F
100
AcDbEntity
  8
CONTINUOUS1
100
AcDbLine
 10
46.03116112806112
 20
12.88868167245775
 30
0.0
 11
46.00861827425537
 21
12.80455059670705
 31
0.0
  0
LINE
  5
108CF
330
1F
100
AcDbEntity
  8
CONTINUOUS1
100
AcDbLine
 10
45.9959977426667
 20
12.79480676014349
 30
0.0
 11
45.96710204844256
 21
12.83171616924612
 31
0.0
  0
LINE
  5
108D0
330
1F
100
AcDbEntity
  8
CONTINUOUS1
100
AcDbLine
 10
45.97802043312708
 20
12.75832995150659
 30
0.0
 11
45.96268353041921
 21
12.76391212757808
 31
0.0
  0
ARC
  5
108D1
330
1F
100
AcDbEntity
  8
CONTINUOUS1
100
AcDbCircle
 10
46.02489343689083
 20
12.75789735104087
 30
0.0
 40
0.0625
100
AcDbArc
 50
145.5224878140685
 51
174.4775121859282
  0
ARC
  5
108D2
330
1F
100
AcDbEntity
  8
CONTINUOUS1
100
AcDbCircle
 10
46.02489343689083
 20
12.75789735104087
 30
0.0
 40
0.046875
100
AcDbArc
 50
115.5846914028065
 51
140.5287793655066
  0
ARC
  5
108D3
330
1F
100
AcDbEntity
  8
CONTINUOUS1
100
AcDbCircle
 10
46.00127692565547
 20
12.80722262907677
 30
0.0
 40
0.0078125
100
AcDbArc
 50
295.5846914028111
 51
339.9999999999999
  0
LINE
  5
108D4
330
1F
100
AcDbEntity
  8
CONTINUOUS1
100
AcDbLine
 10
45.988708562606
 20
12.78769534590615
 30
0.0
 11
45.97337165989815
 21
12.79327752197764
 31
0.0
  0
ARC
  5
108D5
330
1F
100
AcDbEntity
  8
CONTINUOUS1
100
AcDbCircle
 10
46.02361483254324
 20
12.89070369624761
 30
0.0
 40
0.0078125
100
AcDbArc
 50
344.9999999999864
 51
90.55160293236808
  0
LINE
  5
108D6
330
1F
100
AcDbEntity
  8
CONTINUOUS1
100
AcDbLine
 10
46.08710334336246
 20
12.75188257450365
 30
0.0
 11
46.07176644065458
 21
12.75746475057515
 31
0.0
  0
ARC
  5
108D7
330
1F
100
AcDbEntity
  8
CONTINUOUS1
100
AcDbCircle
 10
46.07469041165437
 20
12.78050230537946
 30
0.0
 40
0.0078125
100
AcDbArc
 50
159.9999999999999
 51
204.4153085971887
  0
LINE
  5
108D8
330
1F
100
AcDbEntity
  8
CONTINUOUS1
100
AcDbLine
 10
46.10415864824668
 20
12.86211274793495
 30
0.0
 11
46.06734906305447
 21
12.78317433774919
 31
0.0
  0
ARC
  5
108D9
330
1F
100
AcDbEntity
  8
CONTINUOUS1
100
AcDbCircle
 10
46.02489343689083
 20
12.75789735104087
 30
0.0
 40
0.046875
100
AcDbArc
 50
359.4712206344953
 51
24.41530859719332
  0
LINE
  5
108DA
330
1F
100
AcDbEntity
  8
CONTINUOUS1
100
AcDbLine
 10
46.07075373373333
 20
12.76759780456217
 30
0.0
 11
46.11661403057581
 21
12.77729825808347
 31
0.0
  0
ARC
  5
108DB
330
1F
100
AcDbEntity
  8
CONTINUOUS1
100
AcDbCircle
 10
46.11123917783291
 20
12.8588110427651
 30
0.0
 40
0.0078125
100
AcDbArc
 50
49.44839706763178
 51
155.0000000000005
  0
LINE
  5
108DD
330
1F
100
AcDbEntity
  8
CONTINUOUS1
100
AcDbLine
 10
46.04116859952632
 20
12.71124410537469
 30
0.0
 11
46.01862574572055
 21
12.62711302962399
 31
0.0
  0
ARC
  5
108DE
330
1F
100
AcDbEntity
  8
CONTINUOUS1
100
AcDbCircle
 10
45.93854769594877
 20
12.65698365931663
 30
0.0
 40
0.0078125
100
AcDbArc
 50
229.4483970676273
 51
335.0000000000016
  0
ARC
  5
108DF
330
1F
100
AcDbEntity
  8
CONTINUOUS1
100
AcDbCircle
 10
46.02617204123842
 20
12.62509100583413
 30
0.0
 40
0.0078125
100
AcDbArc
 50
164.9999999999983
 51
270.5516029323726
  0
ARC
  5
108E0
330
1F
100
AcDbEntity
  8
CONTINUOUS1
100
AcDbCircle
 10
46.02489343689083
 20
12.75789735104087
 30
0.0
 40
0.140625
100
AcDbArc
 50
229.4483970676306
 51
270.5516029323692
  0
ARC
  5
108E1
330
1F
100
AcDbEntity
  8
CONTINUOUS1
100
AcDbCircle
 10
45.9750964621273
 20
12.73529239670228
 30
0.0
 40
0.0078125
100
AcDbArc
 50
339.9999999999868
 51
24.41530859718873
  0
LINE
  5
108E2
330
1F
100
AcDbEntity
  8
CONTINUOUS1
100
AcDbLine
 10
45.98243781072719
 20
12.73262036433254
 30
0.0
 11
45.94562822553498
 21
12.65368195414678
 31
0.0
  0
LINE
  5
108E3
330
1F
100
AcDbEntity
  8
CONTINUOUS1
100
AcDbLine
 10
46.07641521388353
 20
12.72251718010409
 30
0.0
 11
46.06107831117566
 21
12.72809935617559
 31
0.0
  0
ARC
  5
108E4
330
1F
100
AcDbEntity
  8
CONTINUOUS1
100
AcDbCircle
 10
46.02489343689083
 20
12.75789735104087
 30
0.0
 40
0.046875
100
AcDbArc
 50
295.5846914028064
 51
320.5287793655141
  0
ARC
  5
108E5
330
1F
100
AcDbEntity
  8
CONTINUOUS1
100
AcDbCircle
 10
46.04850994812619
 20
12.70857207300496
 30
0.0
 40
0.0078125
100
AcDbArc
 50
115.5846914028112
 51
160.0000000000129
  0
LINE
  5
108E6
330
1F
100
AcDbEntity
  8
CONTINUOUS1
100
AcDbLine
 10
46.05378913111498
 20
12.72098794193825
 30
0.0
 11
46.08268482533913
 21
12.68407853283563
 31
0.0
  0
LINE
  5
109A2
330
1F
100
AcDbEntity
  8
CONTINUOUS1
100
AcDbLine
 10
45.57241859952632
 20
9.392494105374691
 30
0.0
 11
45.54987574572054
 21
9.308363029623993
 31
0.0
  0
ARC
  5
109A4
330
1F
100
AcDbEntity
  8
CONTINUOUS1
100
AcDbCircle
 10
45.55614343689083
 20
9.439147351040872
 30
0.0
 40
0.140625
100
AcDbArc
 50
49.44839706763215
 51
90.55160293236863
  0
ARC
  5
109A6
330
1F
100
AcDbEntity
  8
CONTINUOUS1
100
AcDbCircle
 10
45.55614343689083
 20
9.439147351040872
 30
0.0
 40
0.140625
100
AcDbArc
 50
270.5516029323692
 51
49.44839706763215
  0
LINE
  5
109A7
330
1F
100
AcDbEntity
  8
CONTINUOUS1
100
AcDbLine
 10
45.51368781072719
 20
9.413870364332542
 30
0.0
 11
45.47687822553498
 21
9.334931954146785
 31
0.0
  0
ARC
  5
109A8
330
1F
100
AcDbEntity
  8
CONTINUOUS1
100
AcDbCircle
 10
45.5063464621273
 20
9.416542396702279
 30
0.0
 40
0.0078125
100
AcDbArc
 50
339.9999999999868
 51
24.41530859718875
  0
ARC
  5
109A9
330
1F
100
AcDbEntity
  8
CONTINUOUS1
100
AcDbCircle
 10
45.55614343689083
 20
9.439147351040872
 30
0.0
 40
0.140625
100
AcDbArc
 50
229.4483970676306
 51
270.5516029323692
  0
ARC
  5
109AA
330
1F
100
AcDbEntity
  8
CONTINUOUS1
100
AcDbCircle
 10
45.55742204123842
 20
9.306341005834131
 30
0.0
 40
0.0078125
100
AcDbArc
 50
164.9999999999982
 51
270.5516029323727
  0
ARC
  5
109AB
330
1F
100
AcDbEntity
  8
CONTINUOUS1
100
AcDbCircle
 10
45.46979769594877
 20
9.338233659316632
 30
0.0
 40
0.0078125
100
AcDbArc
 50
229.4483970676273
 51
335.0000000000016
  0
ARC
  5
109AC
330
1F
100
AcDbEntity
  8
CONTINUOUS1
100
AcDbCircle
 10
45.55486483254324
 20
9.571953696247611
 30
0.0
 40
0.0078125
100
AcDbArc
 50
344.9999999999864
 51
90.55160293236802
  0
LINE
  5
109AD
330
1F
100
AcDbEntity
  8
CONTINUOUS1
100
AcDbLine
 10
45.519958562606
 20
9.468945345906149
 30
0.0
 11
45.50462165989815
 21
9.474527521977645
 31
0.0
  0
ARC
  5
109AE
330
1F
100
AcDbEntity
  8
CONTINUOUS1
100
AcDbCircle
 10
45.53252692565547
 20
9.488472629076778
 30
0.0
 40
0.0078125
100
AcDbArc
 50
295.5846914028111
 51
339.9999999999998
  0
ARC
  5
109AF
330
1F
100
AcDbEntity
  8
CONTINUOUS1
100
AcDbCircle
 10
45.55614343689083
 20
9.439147351040872
 30
0.0
 40
0.046875
100
AcDbArc
 50
115.5846914028065
 51
140.5287793655066
  0
ARC
  5
109B0
330
1F
100
AcDbEntity
  8
CONTINUOUS1
100
AcDbCircle
 10
45.55614343689083
 20
9.439147351040872
 30
0.0
 40
0.0625
100
AcDbArc
 50
145.5224878140685
 51
174.4775121859282
  0
LINE
  5
109B1
330
1F
100
AcDbEntity
  8
CONTINUOUS1
100
AcDbLine
 10
45.50927043312708
 20
9.439579951506591
 30
0.0
 11
45.49393353041921
 21
9.445162127578086
 31
0.0
  0
LINE
  5
109B2
330
1F
100
AcDbEntity
  8
CONTINUOUS1
100
AcDbLine
 10
45.5272477426667
 20
9.476056760143496
 30
0.0
 11
45.49835204844256
 21
9.512966169246123
 31
0.0
  0
LINE
  5
109B3
330
1F
100
AcDbEntity
  8
CONTINUOUS1
100
AcDbLine
 10
45.56241112806111
 20
9.569931672457748
 30
0.0
 11
45.53986827425535
 21
9.485800596707051
 31
0.0
  0
ARC
  5
109B4
330
1F
100
AcDbEntity
  8
CONTINUOUS1
100
AcDbCircle
 10
45.55614343689083
 20
9.439147351040872
 30
0.0
 40
0.140625
100
AcDbArc
 50
90.55160293236832
 51
229.4483970676306
  0
LINE
  5
109B5
330
1F
100
AcDbEntity
  8
CONTINUOUS1
100
AcDbLine
 10
45.46442284320585
 20
9.419746443998274
 30
0.0
 11
45.51028314004834
 21
9.429446897519571
 31
0.0
  0
ARC
  5
109B6
330
1F
100
AcDbEntity
  8
CONTINUOUS1
100
AcDbCircle
 10
45.55614343689083
 20
9.439147351040872
 30
0.0
 40
0.046875
100
AcDbArc
 50
179.4712206344884
 51
204.4153085971933
  0
LINE
  5
109B7
330
1F
100
AcDbEntity
  8
CONTINUOUS1
100
AcDbLine
 10
45.58503913111498
 20
9.402237941938249
 30
0.0
 11
45.61393482533913
 21
9.365328532835629
 31
0.0
  0
ARC
  5
109B8
330
1F
100
AcDbEntity
  8
CONTINUOUS1
100
AcDbCircle
 10
45.57975994812619
 20
9.38982207300496
 30
0.0
 40
0.0078125
100
AcDbArc
 50
115.5846914028112
 51
160.0000000000129
  0
ARC
  5
109B9
330
1F
100
AcDbEntity
  8
CONTINUOUS1
100
AcDbCircle
 10
45.55614343689083
 20
9.439147351040872
 30
0.0
 40
0.046875
100
AcDbArc
 50
295.5846914028064
 51
320.5287793655141
  0
LINE
  5
109BA
330
1F
100
AcDbEntity
  8
CONTINUOUS1
100
AcDbLine
 10
45.60766521388353
 20
9.403767180104093
 30
0.0
 11
45.59232831117566
 21
9.409349356175596
 31
0.0
  0
ARC
  5
109BB
330
1F
100
AcDbEntity
  8
CONTINUOUS1
100
AcDbCircle
 10
45.6424891778329
 20
9.540061042765106
 30
0.0
 40
0.0078125
100
AcDbArc
 50
49.4483970676318
 51
155.0000000000005
  0
LINE
  5
109BC
330
1F
100
AcDbEntity
  8
CONTINUOUS1
100
AcDbLine
 10
45.60200373373333
 20
9.448847804562173
 30
0.0
 11
45.64786403057581
 21
9.458548258083471
 31
0.0
  0
ARC
  5
109BD
330
1F
100
AcDbEntity
  8
CONTINUOUS1
100
AcDbCircle
 10
45.55614343689083
 20
9.439147351040872
 30
0.0
 40
0.046875
100
AcDbArc
 50
359.4712206344953
 51
24.41530859719331
  0
LINE
  5
109BE
330
1F
100
AcDbEntity
  8
CONTINUOUS1
100
AcDbLine
 10
45.63540864824668
 20
9.543362747934956
 30
0.0
 11
45.59859906305447
 21
9.464424337749196
 31
0.0
  0
ARC
  5
109BF
330
1F
100
AcDbEntity
  8
CONTINUOUS1
100
AcDbCircle
 10
45.60594041165437
 20
9.461752305379462
 30
0.0
 40
0.0078125
100
AcDbArc
 50
159.9999999999999
 51
204.4153085971887
  0
LINE
  5
109C0
330
1F
100
AcDbEntity
  8
CONTINUOUS1
100
AcDbLine
 10
45.61835334336246
 20
9.433132574503655
 30
0.0
 11
45.60301644065458
 21
9.438714750575154
 31
0.0
  0
ARC
  5
109C1
330
1F
100
AcDbEntity
  8
CONTINUOUS1
100
AcDbCircle
 10
45.55614343689083
 20
9.439147351040872
 30
0.0
 40
0.0625
100
AcDbArc
 50
325.5224878140732
 51
354.4775121859334
  0
ARC
  5
109C2
330
1F
100
AcDbEntity
  8
CONTINUOUS1
100
AcDbCircle
 10
42.74364343689083
 20
9.439147351040872
 30
0.0
 40
0.140625
100
AcDbArc
 50
310.5516029323692
 51
89.44839706763168
  0
LINE
  5
109C3
330
1F
100
AcDbEntity
  8
CONTINUOUS1
100
AcDbLine
 10
42.78609906305447
 20
9.413870364332542
 30
0.0
 11
42.82290864824668
 21
9.334931954146785
 31
0.0
  0
ARC
  5
109C4
330
1F
100
AcDbEntity
  8
CONTINUOUS1
100
AcDbCircle
 10
42.74364343689083
 20
9.439147351040872
 30
0.0
 40
0.140625
100
AcDbArc
 50
130.5516029323678
 51
269.4483970676307
  0
LINE
  5
109C5
330
1F
100
AcDbEntity
  8
CONTINUOUS1
100
AcDbLine
 10
42.72736827425537
 20
9.392494105374691
 30
0.0
 11
42.74991112806112
 21
9.308363029623993
 31
0.0
  0
ARC
  5
109C6
330
1F
100
AcDbEntity
  8
CONTINUOUS1
100
AcDbCircle
 10
42.82998917783291
 20
9.338233659316632
 30
0.0
 40
0.0078125
100
AcDbArc
 50
204.9999999999984
 51
310.5516029323727
  0
ARC
  5
109C7
330
1F
100
AcDbEntity
  8
CONTINUOUS1
100
AcDbCircle
 10
42.74236483254324
 20
9.306341005834131
 30
0.0
 40
0.0078125
100
AcDbArc
 50
269.4483970676273
 51
15.00000000000174
  0
ARC
  5
109C8
330
1F
100
AcDbEntity
  8
CONTINUOUS1
100
AcDbCircle
 10
42.74364343689083
 20
9.439147351040872
 30
0.0
 40
0.140625
100
AcDbArc
 50
269.4483970676307
 51
310.5516029323692
  0
ARC
  5
109C9
330
1F
100
AcDbEntity
  8
CONTINUOUS1
100
AcDbCircle
 10
42.74364343689083
 20
9.439147351040872
 30
0.0
 40
0.0625
100
AcDbArc
 50
185.5224878140666
 51
214.4775121859268
  0
LINE
  5
109CA
330
1F
100
AcDbEntity
  8
CONTINUOUS1
100
AcDbLine
 10
42.68143353041921
 20
9.433132574503655
 30
0.0
 11
42.69677043312708
 21
9.438714750575154
 31
0.0
  0
ARC
  5
109CB
330
1F
100
AcDbEntity
  8
CONTINUOUS1
100
AcDbCircle
 10
42.6938464621273
 20
9.461752305379462
 30
0.0
 40
0.0078125
100
AcDbArc
 50
335.5846914028112
 51
20.00000000000003
  0
LINE
  5
109CC
330
1F
100
AcDbEntity
  8
CONTINUOUS1
100
AcDbLine
 10
42.66437822553498
 20
9.543362747934956
 30
0.0
 11
42.70118781072719
 21
9.464424337749196
 31
0.0
  0
ARC
  5
109CD
330
1F
100
AcDbEntity
  8
CONTINUOUS1
100
AcDbCircle
 10
42.74364343689083
 20
9.439147351040872
 30
0.0
 40
0.046875
100
AcDbArc
 50
155.5846914028066
 51
180.5287793655046
  0
LINE
  5
109CE
330
1F
100
AcDbEntity
  8
CONTINUOUS1
100
AcDbLine
 10
42.69778314004835
 20
9.448847804562173
 30
0.0
 11
42.65192284320586
 21
9.458548258083471
 31
0.0
  0
ARC
  5
109CF
330
1F
100
AcDbEntity
  8
CONTINUOUS1
100
AcDbCircle
 10
42.65729769594877
 20
9.540061042765106
 30
0.0
 40
0.0078125
100
AcDbArc
 50
24.99999999999947
 51
130.5516029323682
  0
LINE
  5
109D0
330
1F
100
AcDbEntity
  8
CONTINUOUS1
100
AcDbLine
 10
42.69212165989815
 20
9.403767180104093
 30
0.0
 11
42.707458562606
 21
9.409349356175596
 31
0.0
  0
ARC
  5
109D1
330
1F
100
AcDbEntity
  8
CONTINUOUS1
100
AcDbCircle
 10
42.74364343689083
 20
9.439147351040872
 30
0.0
 40
0.046875
100
AcDbArc
 50
219.4712206344858
 51
244.4153085971934
  0
ARC
  5
109D2
330
1F
100
AcDbEntity
  8
CONTINUOUS1
100
AcDbCircle
 10
42.72002692565547
 20
9.38982207300496
 30
0.0
 40
0.0078125
100
AcDbArc
 50
19.99999999998706
 51
64.4153085971888
  0
LINE
  5
109D3
330
1F
100
AcDbEntity
  8
CONTINUOUS1
100
AcDbLine
 10
42.71474774266668
 20
9.402237941938249
 30
0.0
 11
42.68585204844254
 21
9.365328532835629
 31
0.0
  0
ARC
  5
109D4
330
1F
100
AcDbEntity
  8
CONTINUOUS1
100
AcDbCircle
 10
42.74364343689083
 20
9.439147351040872
 30
0.0
 40
0.046875
100
AcDbArc
 50
335.5846914028067
 51
0.5287793655115892
  0
LINE
  5
109D5
330
1F
100
AcDbEntity
  8
CONTINUOUS1
100
AcDbLine
 10
42.83536403057581
 20
9.419746443998274
 30
0.0
 11
42.78950373373333
 21
9.429446897519571
 31
0.0
  0
LINE
  5
109D6
330
1F
100
AcDbEntity
  8
CONTINUOUS1
100
AcDbLine
 10
42.73737574572055
 20
9.569931672457748
 30
0.0
 11
42.75991859952632
 21
9.485800596707051
 31
0.0
  0
LINE
  5
109D7
330
1F
100
AcDbEntity
  8
CONTINUOUS1
100
AcDbLine
 10
42.77253913111498
 20
9.476056760143496
 30
0.0
 11
42.80143482533911
 21
9.512966169246123
 31
0.0
  0
LINE
  5
109D8
330
1F
100
AcDbEntity
  8
CONTINUOUS1
100
AcDbLine
 10
42.7905164406546
 20
9.439579951506591
 30
0.0
 11
42.80585334336246
 21
9.445162127578086
 31
0.0
  0
ARC
  5
109D9
330
1F
100
AcDbEntity
  8
CONTINUOUS1
100
AcDbCircle
 10
42.74364343689083
 20
9.439147351040872
 30
0.0
 40
0.0625
100
AcDbArc
 50
5.522487814071754
 51
34.47751218593146
  0
ARC
  5
109DA
330
1F
100
AcDbEntity
  8
CONTINUOUS1
100
AcDbCircle
 10
42.74364343689083
 20
9.439147351040872
 30
0.0
 40
0.046875
100
AcDbArc
 50
39.47122063449334
 51
64.41530859719346
  0
ARC
  5
109DB
330
1F
100
AcDbEntity
  8
CONTINUOUS1
100
AcDbCircle
 10
42.76725994812621
 20
9.488472629076778
 30
0.0
 40
0.0078125
100
AcDbArc
 50
200.0000000000002
 51
244.4153085971889
  0
LINE
  5
109DC
330
1F
100
AcDbEntity
  8
CONTINUOUS1
100
AcDbLine
 10
42.77982831117566
 20
9.468945345906149
 30
0.0
 11
42.79516521388353
 21
9.474527521977645
 31
0.0
  0
ARC
  5
109DD
330
1F
100
AcDbEntity
  8
CONTINUOUS1
100
AcDbCircle
 10
42.74492204123844
 20
9.571953696247611
 30
0.0
 40
0.0078125
100
AcDbArc
 50
89.44839706763199
 51
195.0000000000135
  0
ARC
  5
109DE
330
1F
100
AcDbEntity
  8
CONTINUOUS1
100
AcDbCircle
 10
42.79344041165437
 20
9.416542396702279
 30
0.0
 40
0.0078125
100
AcDbArc
 50
155.5846914028112
 51
200.0000000000131
  0
ARC
  5
109E0
330
1F
100
AcDbEntity
  8
CONTINUOUS1
100
AcDbCircle
 10
42.74364343689083
 20
9.439147351040872
 30
0.0
 40
0.140625
100
AcDbArc
 50
89.44839706763138
 51
130.5516029323678
  0
LINE
  5
109E9
330
1F
100
AcDbEntity
  8
CONTINUOUS1
100
AcDbLine
 10
42.39989343689083
 20
12.28914735104087
 30
0.0
 11
42.39989343689083
 21
11.28914735104087
 31
0.0
  0
LINE
  5
109EA
330
1F
100
AcDbEntity
  8
CONTINUOUS1
100
AcDbLine
 10
45.89989343689083
 20
12.28914735104087
 30
0.0
 11
45.89989343689083
 21
11.28914735104087
 31
0.0
  0
LINE
  5
109EF
330
1F
100
AcDbEntity
  8
CONTINUOUS1
100
AcDbLine
 10
45.89989343689083
 20
12.28914735104087
 30
0.0
 11
45.77489343689083
 21
12.28914735104087
 31
0.0
  0
LINE
  5
109F0
330
1F
100
AcDbEntity
  8
CONTINUOUS1
100
AcDbLine
 10
45.89989343689083
 20
11.28914735104087
 30
0.0
 11
45.77489343689083
 21
11.28914735104087
 31
0.0
  0
LINE
  5
109F1
330
1F
100
AcDbEntity
  8
CONTINUOUS1
100
AcDbLine
 10
42.52489343689084
 20
11.28914735104087
 30
0.0
 11
42.39989343689083
 21
11.28914735104087
 31
0.0
  0
LINE
  5
109F2
330
1F
100
AcDbEntity
  8
CONTINUOUS1
100
AcDbLine
 10
42.52489343689084
 20
12.28914735104087
 30
0.0
 11
42.39989343689083
 21
12.28914735104087
 31
0.0
  0
CIRCLE
  5
109F7
330
1F
100
AcDbEntity
  8
CONTINUOUS1
100
AcDbCircle
 10
44.14989343689083
 20
11.78914735104087
 30
0.0
 40
0.5625
  0
CIRCLE
  5
109FA
330
1F
100
AcDbEntity
  8
HIDDEN1
100
AcDbCircle
 10
44.14989343689083
 20
10.28914735104087
 30
0.0
 40
0.5625
  0
LINE
  5
10A02
330
1F
100
AcDbEntity
  8
CONTINUOUS1
100
AcDbLine
 10
45.77489343689083
 20
12.28914735104087
 30
0.0
 11
45.77489343689083
 21
9.282897351040869
 31
0.0
  0
LINE
  5
10A03
330
1F
100
AcDbEntity
  8
CONTINUOUS1
100
AcDbLine
 10
43.21989343689082
 20
9.189147351040872
 30
0.0
 11
43.21989343689082
 21
9.064147351040869
 31
0.0
  0
LINE
  5
10A04
330
1F
100
AcDbEntity
  8
CONTINUOUS1
100
AcDbLine
 10
44.21989343689083
 20
9.189147351040869
 30
0.0
 11
44.21989343689083
 21
9.064147351040869
 31
0.0
  0
LINE
  5
10A06
330
1F
100
AcDbEntity
  8
CONTINUOUS1
100
AcDbLine
 10
43.21989343689082
 20
9.064147351040869
 30
0.0
 11
44.21989343689083
 21
9.064147351040869
 31
0.0
  0
LINE
  5
10A09
330
1F
100
AcDbEntity
  8
CONTINUOUS1
100
AcDbLine
 10
43.21989343689082
 20
9.189147351040872
 30
0.0
 11
44.21989343689083
 21
9.189147351040872
 31
0.0
  0
LINE
  5
10A0F
330
1F
100
AcDbEntity
  8
CONTINUOUS1
100
AcDbLine
 10
42.33739343689083
 20
12.19539735104087
 30
0.0
 11
42.33739343689083
 21
11.38289735104087
 31
0.0
  0
LINE
  5
10A18
330
1F
100
AcDbEntity
  8
CONTINUOUS1
100
AcDbLine
 10
45.96239343689084
 20
12.19539735104087
 30
0.0
 11
45.96239343689084
 21
11.38289735104087
 31
0.0
  0
LINE
  5
10A19
330
1F
100
AcDbEntity
  8
CONTINUOUS1
100
AcDbLine
 10
43.28239343689083
 20
9.064147351040869
 30
0.0
 11
43.28239343689084
 21
9.032897351040869
 31
0.0
  0
LINE
  5
10A1A
330
1F
100
AcDbEntity
  8
CONTINUOUS1
100
AcDbLine
 10
44.15739343689082
 20
9.064147351040869
 30
0.0
 11
44.15739343689082
 21
9.032897351040869
 31
0.0
  0
LINE
  5
10A1B
330
1F
100
AcDbEntity
  8
CONTINUOUS1
100
AcDbLine
 10
43.28239343689083
 20
9.032897351040869
 30
0.0
 11
44.15739343689082
 21
9.032897351040869
 31
0.0
  0
LINE
  5
10A21
330
1F
100
AcDbEntity
  8
CONTINUOUS1
100
AcDbLine
 10
46.77489343689083
 20
14.22664735104087
 30
0.0
 11
46.89989343689084
 21
14.22664735104087
 31
0.0
  0
LINE
  5
10A22
330
1F
100
AcDbEntity
  8
CONTINUOUS1
100
AcDbLine
 10
46.77489343689083
 20
13.10164735104087
 30
0.0
 11
46.89989343689084
 21
13.10164735104087
 31
0.0
  0
LINE
  5
10A23
330
1F
100
AcDbEntity
  8
CONTINUOUS1
100
AcDbLine
 10
46.89989343689084
 20
14.40470735104087
 30
0.0
 11
46.89989343689084
 21
12.92358735104087
 31
0.0
  0
ARC
  5
10A2A
330
1F
100
AcDbEntity
  8
CONTINUOUS1
100
AcDbCircle
 10
48.55739343689084
 20
13.66414735104087
 30
0.0
 40
0.5625
100
AcDbArc
 50
213.0557311508538
 51
146.9442688491457
  0
CIRCLE
  5
10A2B
330
1F
100
AcDbEntity
  8
CONTINUOUS1
100
AcDbCircle
 10
48.55739343689084
 20
13.66414735104087
 30
0.0
 40
0.3125
  0
LINE
  5
10A2C
330
1F
100
AcDbEntity
  8
CONTINUOUS1
100
AcDbLine
 10
47.61924343689083
 20
13.91414735104087
 30
0.0
 11
47.98117190831002
 21
13.91414735104087
 31
0.0
  0
LINE
  5
10A2D
330
1F
100
AcDbEntity
  8
CONTINUOUS1
100
AcDbLine
 10
47.61924343689083
 20
13.41414735104087
 30
0.0
 11
47.98117190831002
 21
13.41414735104087
 31
0.0
  0
LINE
  5
10A31
330
1F
100
AcDbEntity
  8
CONTINUOUS1
100
AcDbLine
 10
48.2709824559561
 20
13.78914735104087
 30
0.0
 11
48.03351598239531
 21
13.92563480588328
 31
0.0
  0
LINE
  5
10A32
330
1F
100
AcDbEntity
  8
CONTINUOUS1
100
AcDbLine
 10
48.2709824559561
 20
13.53914735104087
 30
0.0
 11
48.03351598239531
 21
13.40265989619846
 31
0.0
  0
ARC
  5
10A38
330
1F
100
AcDbEntity
  8
CONTINUOUS1
100
AcDbCircle
 10
47.98117190831002
 20
14.03914735104087
 30
0.0
 40
0.125
100
AcDbArc
 50
270.0
 51
326.944268849146
  0
ARC
  5
10A39
330
1F
100
AcDbEntity
  8
CONTINUOUS1
100
AcDbCircle
 10
47.98117190831002
 20
13.28914735104087
 30
0.0
 40
0.125
100
AcDbArc
 50
33.05573115085391
 51
90.0
  0
LINE
  5
10A3A
330
1F
100
AcDbEntity
  8
CONTINUOUS1
100
AcDbLine
 10
47.04377343689083
 20
14.40470735104087
 30
0.0
 11
47.04377343689084
 21
12.92358735104087
 31
0.0
  0
LINE
  5
10A3B
330
1F
100
AcDbEntity
  8
CONTINUOUS1
100
AcDbLine
 10
47.18765343689082
 20
14.40470735104087
 30
0.0
 11
47.18765343689084
 21
12.92358735104087
 31
0.0
  0
LINE
  5
10A3C
330
1F
100
AcDbEntity
  8
CONTINUOUS1
100
AcDbLine
 10
47.33153343689082
 20
14.40470735104087
 30
0.0
 11
47.33153343689084
 21
12.92358735104087
 31
0.0
  0
LINE
  5
10A3E
330
1F
100
AcDbEntity
  8
CONTINUOUS1
100
AcDbLine
 10
46.97183343689083
 20
14.47664735104087
 30
0.0
 11
46.97183343689083
 21
14.47664735104087
 31
0.0
  0
LINE
  5
10A3F
330
1F
100
AcDbEntity
  8
CONTINUOUS1
100
AcDbLine
 10
46.97183343689085
 20
12.85164735104087
 30
0.0
 11
46.97183343689085
 21
12.85164735104087
 31
0.0
  0
ARC
  5
10A40
330
1F
100
AcDbEntity
  8
CONTINUOUS1
100
AcDbCircle
 10
46.97183343689083
 20
14.40470735104087
 30
0.0
 40
0.07194
100
AcDbArc
 50
89.99999999999834
 51
180.0000000000004
  0
ARC
  5
10A41
330
1F
100
AcDbEntity
  8
CONTINUOUS1
100
AcDbCircle
 10
46.97183343689085
 20
12.92358735104087
 30
0.0
 40
0.07194
100
AcDbArc
 50
180.0000000000003
 51
270.0000000000008
  0
ARC
  5
10A42
330
1F
100
AcDbEntity
  8
CONTINUOUS1
100
AcDbCircle
 10
46.97183343689083
 20
14.40470735104087
 30
0.0
 40
0.07194
100
AcDbArc
 50
0.0000000000002544
 51
89.99999999999833
  0
ARC
  5
10A43
330
1F
100
AcDbEntity
  8
CONTINUOUS1
100
AcDbCircle
 10
46.97183343689085
 20
12.92358735104087
 30
0.0
 40
0.07194
100
AcDbArc
 50
270.0000000000008
 51
0.0000000000002544
  0
ARC
  5
10A48
330
1F
100
AcDbEntity
  8
CONTINUOUS1
100
AcDbCircle
 10
47.11571343689082
 20
14.40470735104087
 30
0.0
 40
0.07194
100
AcDbArc
 50
0.0000000000002544
 51
89.99999999999833
  0
LINE
  5
10A49
330
1F
100
AcDbEntity
  8
CONTINUOUS1
100
AcDbLine
 10
47.11571343689082
 20
14.47664735104087
 30
0.0
 11
47.11571343689082
 21
14.47664735104087
 31
0.0
  0
ARC
  5
10A4A
330
1F
100
AcDbEntity
  8
CONTINUOUS1
100
AcDbCircle
 10
47.11571343689082
 20
14.40470735104087
 30
0.0
 40
0.07194
100
AcDbArc
 50
89.99999999999834
 51
180.0000000000004
  0
ARC
  5
10A4B
330
1F
100
AcDbEntity
  8
CONTINUOUS1
100
AcDbCircle
 10
47.11571343689084
 20
12.92358735104087
 30
0.0
 40
0.07194
100
AcDbArc
 50
270.0000000000008
 51
0.0000000000002544
  0
LINE
  5
10A4C
330
1F
100
AcDbEntity
  8
CONTINUOUS1
100
AcDbLine
 10
47.11571343689084
 20
12.85164735104087
 30
0.0
 11
47.11571343689084
 21
12.85164735104087
 31
0.0
  0
ARC
  5
10A4D
330
1F
100
AcDbEntity
  8
CONTINUOUS1
100
AcDbCircle
 10
47.11571343689084
 20
12.92358735104087
 30
0.0
 40
0.07194
100
AcDbArc
 50
180.0000000000003
 51
270.0000000000008
  0
ARC
  5
10A4E
330
1F
100
AcDbEntity
  8
CONTINUOUS1
100
AcDbCircle
 10
47.25959343689083
 20
14.40470735104087
 30
0.0
 40
0.07194
100
AcDbArc
 50
0.0000000000002544
 51
89.99999999999833
  0
LINE
  5
10A4F
330
1F
100
AcDbEntity
  8
CONTINUOUS1
100
AcDbLine
 10
47.25959343689083
 20
14.47664735104087
 30
0.0
 11
47.25959343689083
 21
14.47664735104087
 31
0.0
  0
ARC
  5
10A50
330
1F
100
AcDbEntity
  8
CONTINUOUS1
100
AcDbCircle
 10
47.25959343689083
 20
14.40470735104087
 30
0.0
 40
0.07194
100
AcDbArc
 50
89.99999999999834
 51
180.0000000000004
  0
ARC
  5
10A51
330
1F
100
AcDbEntity
  8
CONTINUOUS1
100
AcDbCircle
 10
47.25959343689083
 20
12.92358735104087
 30
0.0
 40
0.07194
100
AcDbArc
 50
270.0000000000008
 51
0.0000000000002544
  0
LINE
  5
10A52
330
1F
100
AcDbEntity
  8
CONTINUOUS1
100
AcDbLine
 10
47.25959343689083
 20
12.85164735104087
 30
0.0
 11
47.25959343689083
 21
12.85164735104087
 31
0.0
  0
ARC
  5
10A53
330
1F
100
AcDbEntity
  8
CONTINUOUS1
100
AcDbCircle
 10
47.25959343689083
 20
12.92358735104087
 30
0.0
 40
0.07194
100
AcDbArc
 50
180.0000000000003
 51
270.0000000000008
  0
DIMENSION
  5
10A69
330
1F
100
AcDbEntity
  8
DIM
100
AcDbDimension
  2
*D5
 10
41.31989343689084
 20
16.43673931791826
 30
0.0
 11
39.83798867498608
 21
16.43673931791826
 31
0.0
 70
   160
  3
SCHNEIDERELECTRIC_DUAL_BEL
100
AcDbAlignedDimension
 13
41.78989343689083
 23
14.71664735104087
 33
0.0
 14
41.31989343689084
 24
14.15164735104087
 34
0.0
100
AcDbRotatedDimension
1001
ACAD
1000
DSTYLE
1002
{
1070
    40
1040
4.0
1002
}
  0
DIMENSION
  5
10A79
330
1F
100
AcDbEntity
  8
DIM
100
AcDbDimension
  2
*D6
 10
46.50989343689083
 20
16.43673931791826
 30
0.0
 11
44.28989343693284
 21
16.43673931791826
 31
0.0
 70
   160
  3
SCHNEIDERELECTRIC_DUAL_BEL
100
AcDbAlignedDimension
 13
41.78989343689083
 23
14.71664735104087
 33
0.0
 14
46.50989343689083
 24
14.71664735104087
 34
0.0
100
AcDbRotatedDimension
1001
ACAD
1000
DSTYLE
1002
{
1070
    40
1040
4.0
1002
}
  0
DIMENSION
  5
10A89
330
1F
100
AcDbEntity
  8
DIM
100
AcDbDimension
  2
*D7
 10
49.11989343689083
 20
18.22183128479564
 30
0.0
 11
46.33227438927179
 21
18.22183128479564
 31
0.0
 70
   160
  3
SCHNEIDERELECTRIC_DUAL_BEL
100
AcDbAlignedDimension
 13
41.31989343689084
 23
14.15164735104087
 33
0.0
 14
49.11989343689083
 24
13.66414735104086
 34
0.0
100
AcDbRotatedDimension
1001
ACAD
1000
DSTYLE
1002
{
1070
    40
1040
4.0
1002
}
  0
ARC
  5
10A99
330
1F
100
AcDbEntity
  8
HIDDEN1
100
AcDbCircle
 10
49.75739343689084
 20
13.66414735104087
 30
0.0
 40
0.5625
100
AcDbArc
 50
213.0557311508538
 51
146.9442688491457
  0
ARC
  5
10A9A
330
1F
100
AcDbEntity
  8
HIDDEN1
100
AcDbCircle
 10
49.18117190831003
 20
13.28914735104087
 30
0.0
 40
0.125
100
AcDbArc
 50
33.05573115085391
 51
90.0
  0
CIRCLE
  5
10A9B
330
1F
100
AcDbEntity
  8
HIDDEN1
100
AcDbCircle
 10
49.75739343689084
 20
13.66414735104087
 30
0.0
 40
0.3125
  0
LINE
  5
10A9C
330
1F
100
AcDbEntity
  8
HIDDEN1
100
AcDbLine
 10
49.47098245595609
 20
13.53914735104087
 30
0.0
 11
49.23351598239531
 21
13.40265989619846
 31
0.0
  0
ARC
  5
10A9D
330
1F
100
AcDbEntity
  8
HIDDEN1
100
AcDbCircle
 10
49.18117190831003
 20
14.03914735104087
 30
0.0
 40
0.125
100
AcDbArc
 50
270.0
 51
326.944268849146
  0
LINE
  5
10A9E
330
1F
100
AcDbEntity
  8
HIDDEN1
100
AcDbLine
 10
49.47098245595609
 20
13.78914735104087
 30
0.0
 11
49.23351598239531
 21
13.92563480588328
 31
0.0
  0
LINE
  5
10A9F
330
1F
100
AcDbEntity
  8
HIDDEN1
100
AcDbLine
 10
49.0612845461595
 20
13.91414735104087
 30
0.0
 11
49.18117190831003
 21
13.91414735104087
 31
0.0
  0
LINE
  5
10AA0
330
1F
100
AcDbEntity
  8
HIDDEN1
100
AcDbLine
 10
49.0612845461595
 20
13.41414735104087
 30
0.0
 11
49.18117190831003
 21
13.41414735104087
 31
0.0
  0
DIMENSION
  5
10AA1
330
1F
100
AcDbEntity
  8
DIM
100
AcDbDimension
  2
*D8
 10
50.31989343689083
 20
20.03429036495915
 30
0.0
 11
45.81989343689083
 21
20.03429036495915
 31
0.0
 70
   160
  3
SCHNEIDERELECTRIC_DUAL_BEL
100
AcDbAlignedDimension
 13
41.31989343689084
 23
14.15164735104087
 33
0.0
 14
50.31989343689083
 24
13.66414735104087
 34
0.0
100
AcDbRotatedDimension
1001
ACAD
1000
DSTYLE
1002
{
1070
    40
1040
4.0
1002
}
  0
TEXT
  5
10AFF
330
1F
100
AcDbEntity
  8
DIM
100
AcDbText
 10
41.75079043669897
 20
20.48923165412644
 30
0.0
 40
0.32
  1
MAX TRAVEL
  7
ROMANS
 72
     1
 11
43.23650472241325
 21
20.64923165412644
 31
0.0
100
AcDbText
 73
     2
  0
DIMENSION
  5
10B57
330
1F
100
AcDbEntity
  8
DIM
100
AcDbDimension
  2
*D9
 10
38.31989343689084
 20
12.79914735104086
 30
0.0
 11
38.31989343689084
 21
13.66414735104087
 31
0.0
 70
    32
  3
SCHNEIDERELECTRIC_DUAL_BEL
100
AcDbAlignedDimension
 13
41.66489343689083
 23
14.52914735104086
 33
0.0
 14
41.66489343689083
 24
12.79914735104086
 34
0.0
 50
90.0
100
AcDbRotatedDimension
1001
ACAD
1000
DSTYLE
1002
{
1070
     3
1000
\P
1070
    40
1040
4.0
1002
}
  0
DIMENSION
  5
10B97
330
1F
100
AcDbEntity
  8
DIM
100
AcDbDimension
  2
*D10
 10
36.81989343689084
 20
9.189147351040872
 30
0.0
 11
36.81989343689084
 21
11.98914735104087
 31
0.0
 70
    32
  3
SCHNEIDERELECTRIC_DUAL_BEL
100
AcDbAlignedDimension
 13
41.71239343689083
 23
14.78914735104087
 33
0.0
 14
42.61864343689083
 24
9.189147351040872
 34
0.0
 50
90.0
100
AcDbRotatedDimension
1001
ACAD
1000
DSTYLE
1002
{
1070
     3
1000
\P
1070
    40
1040
4.0
1002
}
  0
DIMENSION
  5
10BAF
330
1F
100
AcDbEntity
  8
DIM
100
AcDbDimension
  2
*D11
 10
43.71989343689082
 20
7.532897351040869
 30
0.0
 11
42.51989343689084
 21
7.532897351040869
 31
0.0
 70
   160
  3
SCHNEIDERELECTRIC_DUAL_BEL
100
AcDbAlignedDimension
 13
41.31989343689084
 23
13.17664735104087
 33
0.0
 14
43.71989343689082
 24
9.032897351040869
 34
0.0
100
AcDbRotatedDimension
1001
ACAD
1000
DSTYLE
1002
{
1070
    40
1040
4.0
1002
}
  0
DIMENSION
  5
10BC7
330
1F
100
AcDbEntity
  8
DIM
100
AcDbDimension
  2
*D12
 10
39.81989343689083
 20
9.189147351040872
 30
0.0
 11
39.81989343689083
 21
10.48914735104087
 31
0.0
 70
    32
  3
SCHNEIDERELECTRIC_DUAL_BEL
100
AcDbAlignedDimension
 13
42.33739343689083
 23
11.78914735104087
 33
0.0
 14
42.61864343689083
 24
9.189147351040872
 34
0.0
 50
90.0
100
AcDbRotatedDimension
1001
ACAD
1000
DSTYLE
1002
{
1070
     3
1000
\P
1070
    40
1040
4.0
1002
}
  0
LINE
  5
10CD7
330
1F
100
AcDbEntity
  8
CONTINUOUS1
100
AcDbLine
 10
60.92273214234663
 20
14.57039735104087
 30
0.0
 11
60.98523214234663
 21
14.57039735104087
 31
0.0
  0
LINE
  5
10CD8
330
1F
100
AcDbEntity
  8
CONTINUOUS1
100
AcDbLine
 10
60.92273214234663
 20
12.75789735104087
 30
0.0
 11
60.98523214234663
 21
12.75789735104087
 31
0.0
  0
LINE
  5
10CDE
330
1F
100
AcDbEntity
  8
CONTINUOUS1
100
AcDbLine
 10
58.98523214234663
 20
12.50789735104087
 30
0.0
 11
60.98523214234663
 21
12.50789735104087
 31
0.0
  0
LINE
  5
10CDF
330
1F
100
AcDbEntity
  8
CONTINUOUS1
100
AcDbLine
 10
60.98523214234663
 20
13.11727235104087
 30
0.0
 11
59.78523214234662
 21
13.11727235104087
 31
0.0
  0
LINE
  5
10CE0
330
1F
100
AcDbEntity
  8
CONTINUOUS1
100
AcDbLine
 10
60.98523214234663
 20
14.21102235104087
 30
0.0
 11
59.78523214234662
 21
14.21102235104087
 31
0.0
  0
CIRCLE
  5
10CE1
330
1F
100
AcDbEntity
  8
CONTINUOUS1
100
AcDbCircle
 10
59.78523214234662
 20
13.66414735104087
 30
0.0
 40
0.4874999999999972
  0
CIRCLE
  5
10CE2
330
1F
100
AcDbEntity
  8
CONTINUOUS1
100
AcDbCircle
 10
59.78523214234662
 20
13.66414735104087
 30
0.0
 40
0.4249999999999972
  0
LINE
  5
10CEF
330
1F
100
AcDbEntity
  8
CONTINUOUS1
100
AcDbLine
 10
59.84773214234663
 20
13.91414735104087
 30
0.0
 11
59.72273214234663
 21
13.91414735104087
 31
0.0
  0
LINE
  5
10CF1
330
1F
100
AcDbEntity
  8
CONTINUOUS1
100
AcDbLine
 10
59.50622579140052
 20
13.78914735104087
 30
0.0
 11
59.50622579140052
 21
13.53914735104087
 31
0.0
  0
LINE
  5
10CF3
330
1F
100
AcDbEntity
  8
CONTINUOUS1
100
AcDbLine
 10
59.72273214234663
 20
13.41414735104087
 30
0.0
 11
59.84773214234663
 21
13.41414735104087
 31
0.0
  0
LINE
  5
10CF7
330
1F
100
AcDbEntity
  8
CONTINUOUS1
100
AcDbLine
 10
59.84773214234663
 20
13.91414735104087
 30
0.0
 11
59.84773214234663
 21
13.91414735104087
 31
0.0
  0
LINE
  5
10CF8
330
1F
100
AcDbEntity
  8
CONTINUOUS1
100
AcDbLine
 10
59.78523214234662
 20
14.78914735104087
 30
0.0
 11
59.78523214234662
 21
14.15164735104086
 31
0.0
  0
LINE
  5
10CFA
330
1F
100
AcDbEntity
  8
CONTINUOUS1
100
AcDbLine
 10
60.92273214234663
 20
14.57039735104087
 30
0.0
 11
60.92273214234663
 21
12.75789735104087
 31
0.0
  0
LINE
  5
10D07
330
1F
100
AcDbEntity
  8
CONTINUOUS1
100
AcDbLine
 10
61.04773214234663
 20
14.71039735104087
 30
0.0
 11
60.98523214234663
 21
14.71039735104087
 31
0.0
  0
LINE
  5
10D08
330
1F
100
AcDbEntity
  8
CONTINUOUS1
100
AcDbLine
 10
61.04773214234663
 20
14.43039735104087
 30
0.0
 11
60.98523214234663
 21
14.43039735104087
 31
0.0
  0
LINE
  5
10D09
330
1F
100
AcDbEntity
  8
CONTINUOUS1
100
AcDbLine
 10
61.04773214234663
 20
12.89789735104087
 30
0.0
 11
60.98523214234663
 21
12.89789735104087
 31
0.0
  0
LINE
  5
10D0A
330
1F
100
AcDbEntity
  8
CONTINUOUS1
100
AcDbLine
 10
61.04773214234663
 20
12.61789735104087
 30
0.0
 11
60.98523214234663
 21
12.61789735104087
 31
0.0
  0
LINE
  5
10D0B
330
1F
100
AcDbEntity
  8
CONTINUOUS1
100
AcDbLine
 10
61.04773214234663
 20
14.71039735104087
 30
0.0
 11
61.04773214234663
 21
14.60164735104087
 31
0.0
  0
LINE
  5
10D0C
330
1F
100
AcDbEntity
  8
CONTINUOUS1
100
AcDbLine
 10
61.04773214234663
 20
12.89789735104087
 30
0.0
 11
61.04773214234663
 21
12.78914735104087
 31
0.0
  0
LINE
  5
10D0D
330
1F
100
AcDbEntity
  8
CONTINUOUS1
100
AcDbLine
 10
60.92273214234663
 20
12.50789735104087
 30
0.0
 11
60.92273214234663
 21
9.439147351040872
 31
0.0
  0
LINE
  5
10D0E
330
1F
100
AcDbEntity
  8
CONTINUOUS1
100
AcDbLine
 10
60.92273214234663
 20
9.439147351040872
 30
0.0
 11
60.98523214234663
 21
9.439147351040872
 31
0.0
  0
LINE
  5
10D0F
330
1F
100
AcDbEntity
  8
CONTINUOUS1
100
AcDbLine
 10
61.04773214234663
 20
9.299147351040872
 30
0.0
 11
60.98523214234663
 21
9.299147351040875
 31
0.0
  0
LINE
  5
10D10
330
1F
100
AcDbEntity
  8
CONTINUOUS1
100
AcDbLine
 10
61.04773214234663
 20
9.579147351040873
 30
0.0
 11
60.98523214234663
 21
9.579147351040873
 31
0.0
  0
LINE
  5
10D11
330
1F
100
AcDbEntity
  8
CONTINUOUS1
100
AcDbLine
 10
61.04773214234663
 20
9.579147351040873
 30
0.0
 11
61.04773214234663
 21
9.470397351040872
 31
0.0
  0
LINE
  5
10D12
330
1F
100
AcDbEntity
  8
CONTINUOUS1
100
AcDbLine
 10
59.48523214234663
 20
9.189147351040869
 30
0.0
 11
60.48523214234663
 21
9.189147351040869
 31
0.0
  0
LINE
  5
10D13
330
1F
100
AcDbEntity
  8
CONTINUOUS1
100
AcDbLine
 10
59.48523214234663
 20
9.064147351040869
 30
0.0
 11
60.48523214234663
 21
9.064147351040869
 31
0.0
  0
LINE
  5
10D14
330
1F
100
AcDbEntity
  8
CONTINUOUS1
100
AcDbLine
 10
59.54773214234663
 20
9.032897351040869
 30
0.0
 11
60.42273214234663
 21
9.032897351040869
 31
0.0
  0
LINE
  5
10D15
330
1F
100
AcDbEntity
  8
CONTINUOUS1
100
AcDbLine
 10
59.48523214234663
 20
9.189147351040869
 30
0.0
 11
59.48523214234663
 21
9.064147351040869
 31
0.0
  0
LINE
  5
10D16
330
1F
100
AcDbEntity
  8
CONTINUOUS1
100
AcDbLine
 10
59.54773214234663
 20
9.064147351040869
 30
0.0
 11
59.54773214234663
 21
9.032897351040869
 31
0.0
  0
LINE
  5
10D17
330
1F
100
AcDbEntity
  8
CONTINUOUS1
100
AcDbLine
 10
60.42273214234663
 20
9.064147351040869
 30
0.0
 11
60.42273214234663
 21
9.032897351040869
 31
0.0
  0
LINE
  5
10D18
330
1F
100
AcDbEntity
  8
CONTINUOUS1
100
AcDbLine
 10
60.48523214234663
 20
9.189147351040869
 30
0.0
 11
60.48523214234663
 21
9.064147351040869
 31
0.0
  0
LINE
  5
10D19
330
1F
100
AcDbEntity
  8
CONTINUOUS1
100
AcDbLine
 10
61.01648214234663
 20
14.60164735104087
 30
0.0
 11
61.01648214234663
 21
14.53914735104087
 31
0.0
  0
LINE
  5
10D1A
330
1F
100
AcDbEntity
  8
CONTINUOUS1
100
AcDbLine
 10
61.01648214234663
 20
14.60164735104087
 30
0.0
 11
61.04773214234663
 21
14.60164735104087
 31
0.0
  0
LINE
  5
10D1B
330
1F
100
AcDbEntity
  8
CONTINUOUS1
100
AcDbLine
 10
61.01648214234663
 20
14.53914735104087
 30
0.0
 11
61.04773214234663
 21
14.53914735104087
 31
0.0
  0
LINE
  5
10D1C
330
1F
100
AcDbEntity
  8
CONTINUOUS1
100
AcDbLine
 10
61.04773214234663
 20
14.53914735104087
 30
0.0
 11
61.04773214234663
 21
14.43039735104087
 31
0.0
  0
LINE
  5
10D1D
330
1F
100
AcDbEntity
  8
CONTINUOUS1
100
AcDbLine
 10
61.01648214234663
 20
12.78914735104087
 30
0.0
 11
61.01648214234663
 21
12.72664735104087
 31
0.0
  0
LINE
  5
10D1E
330
1F
100
AcDbEntity
  8
CONTINUOUS1
100
AcDbLine
 10
61.01648214234663
 20
12.72664735104087
 30
0.0
 11
61.04773214234663
 21
12.72664735104087
 31
0.0
  0
LINE
  5
10D1F
330
1F
100
AcDbEntity
  8
CONTINUOUS1
100
AcDbLine
 10
61.01648214234663
 20
12.78914735104087
 30
0.0
 11
61.04773214234663
 21
12.78914735104087
 31
0.0
  0
LINE
  5
10D20
330
1F
100
AcDbEntity
  8
CONTINUOUS1
100
AcDbLine
 10
61.04773214234663
 20
12.72664735104087
 30
0.0
 11
61.04773214234663
 21
12.61789735104087
 31
0.0
  0
LINE
  5
10D21
330
1F
100
AcDbEntity
  8
CONTINUOUS1
100
AcDbLine
 10
61.01648214234663
 20
9.470397351040872
 30
0.0
 11
61.04773214234663
 21
9.470397351040872
 31
0.0
  0
LINE
  5
10D22
330
1F
100
AcDbEntity
  8
CONTINUOUS1
100
AcDbLine
 10
61.01648214234663
 20
9.407897351040872
 30
0.0
 11
61.04773214234663
 21
9.407897351040872
 31
0.0
  0
LINE
  5
10D23
330
1F
100
AcDbEntity
  8
CONTINUOUS1
100
AcDbLine
 10
61.01648214234663
 20
9.470397351040876
 30
0.0
 11
61.01648214234663
 21
9.407897351040872
 31
0.0
  0
LINE
  5
10D24
330
1F
100
AcDbEntity
  8
CONTINUOUS1
100
AcDbLine
 10
61.04773214234663
 20
9.407897351040872
 30
0.0
 11
61.04773214234663
 21
9.299147351040872
 31
0.0
  0
LINE
  5
10E19
330
1F
100
AcDbEntity
  8
CONTINUOUS1
100
AcDbLine
 10
42.39989343689083
 20
12.19539735104087
 30
0.0
 11
42.33739343689083
 21
12.19539735104087
 31
0.0
  0
LINE
  5
10E1A
330
1F
100
AcDbEntity
  8
CONTINUOUS1
100
AcDbLine
 10
42.39989343689083
 20
11.38289735104087
 30
0.0
 11
42.33739343689083
 21
11.38289735104087
 31
0.0
  0
LINE
  5
10E1B
330
1F
100
AcDbEntity
  8
CONTINUOUS1
100
AcDbLine
 10
45.96239343689084
 20
11.38289735104087
 30
0.0
 11
45.89989343689083
 21
11.38289735104087
 31
0.0
  0
LINE
  5
10E1C
330
1F
100
AcDbEntity
  8
CONTINUOUS1
100
AcDbLine
 10
45.96239343689084
 20
12.19539735104087
 30
0.0
 11
45.89989343689083
 21
12.19539735104087
 31
0.0
  0
CIRCLE
  5
10E1F
330
1F
100
AcDbEntity
  8
CONTINUOUS1
100
AcDbCircle
 10
59.88523214234664
 20
11.78914735104087
 30
0.0
 40
0.5
  0
LINE
  5
10EE4
330
1F
100
AcDbEntity
  8
CONTINUOUS1
100
AcDbLine
 10
62.28523214234662
 20
12.35164735104087
 30
0.0
 11
62.28523214234662
 21
11.22664735104087
 31
0.0
  0
LINE
  5
10EE7
330
1F
100
AcDbEntity
  8
CONTINUOUS1
100
AcDbLine
 10
61.78523214234663
 20
12.35164735104087
 30
0.0
 11
62.28523214234662
 21
12.35164735104087
 31
0.0
  0
LINE
  5
10EE8
330
1F
100
AcDbEntity
  8
CONTINUOUS1
100
AcDbLine
 10
61.78523214234663
 20
11.22664735104087
 30
0.0
 11
62.28523214234662
 21
11.22664735104087
 31
0.0
  0
LINE
  5
10EE9
330
1F
100
AcDbEntity
  8
CONTINUOUS1
100
AcDbLine
 10
62.28523214234662
 20
11.82039735104087
 30
0.0
 11
63.08523214234663
 21
11.82039735104087
 31
0.0
  0
LINE
  5
10EEA
330
1F
100
AcDbEntity
  8
CONTINUOUS1
100
AcDbLine
 10
62.28523214234662
 20
11.75789735104087
 30
0.0
 11
63.08523214234663
 21
11.75789735104087
 31
0.0
  0
LINE
  5
10EEB
330
1F
100
AcDbEntity
  8
CONTINUOUS1
100
AcDbLine
 10
61.78523214234663
 20
12.35164735104087
 30
0.0
 11
61.78523214234663
 21
11.22664735104087
 31
0.0
  0
LINE
  5
10EEC
330
1F
100
AcDbEntity
  8
CONTINUOUS1
100
AcDbLine
 10
61.78523214234663
 20
11.28914735104087
 30
0.0
 11
60.98523214234663
 21
11.28914735104087
 31
0.0
  0
LINE
  5
10EED
330
1F
100
AcDbEntity
  8
CONTINUOUS1
100
AcDbLine
 10
61.78523214234663
 20
12.28914735104087
 30
0.0
 11
60.98523214234663
 21
12.28914735104087
 31
0.0
  0
LINE
  5
10EEE
330
1F
100
AcDbEntity
  8
CONTINUOUS1
100
AcDbLine
 10
43.74989343689084
 20
11.75789735104087
 30
0.0
 11
44.54989343689084
 21
11.75789735104087
 31
0.0
  0
LINE
  5
10EEF
330
1F
100
AcDbEntity
  8
CONTINUOUS1
100
AcDbLine
 10
43.74989343689084
 20
11.82039735104087
 30
0.0
 11
44.54989343689084
 21
11.82039735104087
 31
0.0
  0
LINE
  5
10EF0
330
1F
100
AcDbEntity
  8
CONTINUOUS1
100
AcDbLine
 10
44.54989343689084
 20
11.82039735104087
 30
0.0
 11
44.54989343689084
 21
11.75789735104087
 31
0.0
  0
LINE
  5
10EF5
330
1F
100
AcDbEntity
  8
CONTINUOUS1
100
AcDbLine
 10
43.74989343689082
 20
11.82039735104087
 30
0.0
 11
43.74989343689082
 21
11.75789735104087
 31
0.0
  0
LINE
  5
10F9A
330
1F
100
AcDbEntity
  8
CONTINUOUS1
100
AcDbLine
 10
59.50622579140052
 20
13.78914735104087
 30
0.0
 11
59.72273214234663
 21
13.91414735104087
 31
0.0
  0
LINE
  5
10F9B
330
1F
100
AcDbEntity
  8
CONTINUOUS1
100
AcDbLine
 10
60.06423849329275
 20
13.78914735104087
 30
0.0
 11
60.06423849329275
 21
13.53914735104087
 31
0.0
  0
LINE
  5
10F9C
330
1F
100
AcDbEntity
  8
CONTINUOUS1
100
AcDbLine
 10
60.06423849329275
 20
13.78914735104087
 30
0.0
 11
59.84773214234663
 21
13.91414735104087
 31
0.0
  0
LINE
  5
10F9D
330
1F
100
AcDbEntity
  8
CONTINUOUS1
100
AcDbLine
 10
60.06423849329275
 20
13.53914735104087
 30
0.0
 11
59.84773214234663
 21
13.41414735104087
 31
0.0
  0
LINE
  5
10F9E
330
1F
100
AcDbEntity
  8
CONTINUOUS1
100
AcDbLine
 10
59.50622579140052
 20
13.53914735104087
 30
0.0
 11
59.72273214234663
 21
13.41414735104087
 31
0.0
  0
LINE
  5
10F9F
330
1F
100
AcDbEntity
  8
CONTINUOUS1
100
AcDbLine
 10
59.85398214234663
 20
11.57039735104087
 30
0.0
 11
59.85398214234663
 21
11.72664735104086
 31
0.0
  0
LINE
  5
10FA0
330
1F
100
AcDbEntity
  8
CONTINUOUS1
100
AcDbLine
 10
59.91648214234664
 20
11.57039735104087
 30
0.0
 11
59.91648214234664
 21
11.72664735104087
 31
0.0
  0
LINE
  5
10FA1
330
1F
100
AcDbEntity
  8
CONTINUOUS1
100
AcDbLine
 10
59.66648214234663
 20
11.82039735104087
 30
0.0
 11
59.82273214234663
 21
11.82039735104087
 31
0.0
  0
LINE
  5
10FA2
330
1F
100
AcDbEntity
  8
CONTINUOUS1
100
AcDbLine
 10
59.66648214234663
 20
11.75789735104087
 30
0.0
 11
59.82273214234663
 21
11.75789735104086
 31
0.0
  0
ARC
  5
10FA3
330
1F
100
AcDbEntity
  8
CONTINUOUS1
100
AcDbCircle
 10
59.88523214234664
 20
11.78914735104087
 30
0.0
 40
0.25
100
AcDbArc
 50
359.9999999999992
 51
0.0
  0
ARC
  5
10FA4
330
1F
100
AcDbEntity
  8
CONTINUOUS1
100
AcDbCircle
 10
59.88523214234664
 20
11.78914735104087
 30
0.0
 40
0.25
100
AcDbArc
 50
90.00000000000081
 51
90.00000000000081
  0
ARC
  5
10FA5
330
1F
100
AcDbEntity
  8
CONTINUOUS1
100
AcDbCircle
 10
59.88523214234664
 20
11.78914735104087
 30
0.0
 40
0.25
100
AcDbArc
 50
180.0000000000004
 51
180.0000000000007
  0
ARC
  5
10FA6
330
1F
100
AcDbEntity
  8
CONTINUOUS1
100
AcDbCircle
 10
59.88523214234664
 20
11.78914735104087
 30
0.0
 40
0.25
100
AcDbArc
 50
270.0
 51
270.0
  0
LINE
  5
10FA7
330
1F
100
AcDbEntity
  8
CONTINUOUS1
100
AcDbLine
 10
59.94773214234664
 20
11.82039735104087
 30
0.0
 11
60.10398214234664
 21
11.82039735104087
 31
0.0
  0
LINE
  5
10FA8
330
1F
100
AcDbEntity
  8
CONTINUOUS1
100
AcDbLine
 10
59.91648214234664
 20
11.85164735104087
 30
0.0
 11
59.91648214234662
 21
12.00789735104087
 31
0.0
  0
LINE
  5
10FA9
330
1F
100
AcDbEntity
  8
CONTINUOUS1
100
AcDbLine
 10
59.94773214234664
 20
11.75789735104087
 30
0.0
 11
60.10398214234664
 21
11.75789735104087
 31
0.0
  0
LINE
  5
10FAA
330
1F
100
AcDbEntity
  8
CONTINUOUS1
100
AcDbLine
 10
59.85398214234663
 20
11.85164735104087
 30
0.0
 11
59.85398214234663
 21
12.00789735104087
 31
0.0
  0
ARC
  5
10FAC
330
1F
100
AcDbEntity
  8
CONTINUOUS1
100
AcDbCircle
 10
59.82273214234663
 20
11.72664735104086
 30
0.0
 40
0.03125
100
AcDbArc
 50
0.0
 51
89.99999999999955
  0
ARC
  5
10FAD
330
1F
100
AcDbEntity
  8
CONTINUOUS1
100
AcDbCircle
 10
59.82273214234663
 20
11.85164735104087
 30
0.0
 40
0.03125
100
AcDbArc
 50
270.0
 51
0.0
  0
ARC
  5
10FAE
330
1F
100
AcDbEntity
  8
CONTINUOUS1
100
AcDbCircle
 10
59.94773214234664
 20
11.85164735104087
 30
0.0
 40
0.03125
100
AcDbArc
 50
180.0000000000009
 51
270.0
  0
ARC
  5
10FAF
330
1F
100
AcDbEntity
  8
CONTINUOUS1
100
AcDbCircle
 10
59.94773214234664
 20
11.72664735104087
 30
0.0
 40
0.03125
100
AcDbArc
 50
90.00000000000094
 51
180.0
  0
ARC
  5
10FB1
330
1F
100
AcDbEntity
  8
CONTINUOUS1
100
AcDbCircle
 10
59.88523214234662
 20
12.00789735104087
 30
0.0
 40
0.03125
100
AcDbArc
 50
0.0
 51
90.0
  0
ARC
  5
10FB2
330
1F
100
AcDbEntity
  8
CONTINUOUS1
100
AcDbCircle
 10
59.88523214234662
 20
12.00789735104087
 30
0.0
 40
0.03125
100
AcDbArc
 50
90.0
 51
180.0
  0
ARC
  5
10FB3
330
1F
100
AcDbEntity
  8
CONTINUOUS1
100
AcDbCircle
 10
59.66648214234663
 20
11.78914735104087
 30
0.0
 40
0.03125
100
AcDbArc
 50
90.0
 51
180.0
  0
ARC
  5
10FB4
330
1F
100
AcDbEntity
  8
CONTINUOUS1
100
AcDbCircle
 10
59.66648214234663
 20
11.78914735104086
 30
0.0
 40
0.03125
100
AcDbArc
 50
180.0
 51
270.0
  0
ARC
  5
10FB5
330
1F
100
AcDbEntity
  8
CONTINUOUS1
100
AcDbCircle
 10
59.88523214234664
 20
11.57039735104087
 30
0.0
 40
0.03125
100
AcDbArc
 50
180.0
 51
270.0
  0
ARC
  5
10FB6
330
1F
100
AcDbEntity
  8
CONTINUOUS1
100
AcDbCircle
 10
59.88523214234664
 20
11.57039735104087
 30
0.0
 40
0.03125
100
AcDbArc
 50
270.0
 51
0.0
  0
ARC
  5
10FB7
330
1F
100
AcDbEntity
  8
CONTINUOUS1
100
AcDbCircle
 10
60.10398214234664
 20
11.78914735104086
 30
0.0
 40
0.03125
100
AcDbArc
 50
270.0
 51
0.0
  0
ARC
  5
10FB8
330
1F
100
AcDbEntity
  8
CONTINUOUS1
100
AcDbCircle
 10
60.10398214234664
 20
11.78914735104087
 30
0.0
 40
0.03125
100
AcDbArc
 50
0.0
 51
90.0
  0
ARC
  5
10FB9
330
1F
100
AcDbEntity
  8
CONTINUOUS1
100
AcDbCircle
 10
47.40347343689083
 20
14.40470735104087
 30
0.0
 40
0.07194
100
AcDbArc
 50
0.0000000000002544
 51
89.99999999999833
  0
LINE
  5
10FBA
330
1F
100
AcDbEntity
  8
CONTINUOUS1
100
AcDbLine
 10
47.47541343689083
 20
14.40470735104087
 30
0.0
 11
47.47541343689085
 21
12.92358735104087
 31
0.0
  0
ARC
  5
10FBB
330
1F
100
AcDbEntity
  8
CONTINUOUS1
100
AcDbCircle
 10
47.40347343689083
 20
14.40470735104087
 30
0.0
 40
0.07194
100
AcDbArc
 50
89.99999999999834
 51
180.0000000000004
  0
ARC
  5
10FBC
330
1F
100
AcDbEntity
  8
CONTINUOUS1
100
AcDbCircle
 10
47.40347343689083
 20
12.92358735104087
 30
0.0
 40
0.07194
100
AcDbArc
 50
270.0000000000008
 51
0.0000000000002544
  0
ARC
  5
10FBD
330
1F
100
AcDbEntity
  8
CONTINUOUS1
100
AcDbCircle
 10
47.40347343689085
 20
12.92358735104087
 30
0.0
 40
0.07194
100
AcDbArc
 50
180.0000000000003
 51
270.0000000000008
  0
LINE
  5
10FC0
330
1F
100
AcDbEntity
  8
CONTINUOUS1
100
AcDbLine
 10
47.61924343689083
 20
13.97664735104087
 30
0.0
 11
47.61924343689083
 21
13.82039735104086
 31
0.0
  0
LINE
  5
10FC1
330
1F
100
AcDbEntity
  8
CONTINUOUS1
100
AcDbLine
 10
47.47541343689083
 20
13.97664735104087
 30
0.0
 11
47.61924343689083
 21
13.97664735104087
 31
0.0
  0
LINE
  5
10FC2
330
1F
100
AcDbEntity
  8
CONTINUOUS1
100
AcDbLine
 10
47.47541343689083
 20
13.35164735104087
 30
0.0
 11
47.61924343689083
 21
13.35164735104087
 31
0.0
  0
LINE
  5
10FC7
330
1F
100
AcDbEntity
  8
CONTINUOUS1
100
AcDbLine
 10
47.58799343689083
 20
13.85164735104086
 30
0.0
 11
47.47541343689083
 21
13.85164735104087
 31
0.0
  0
LINE
  5
10FC9
330
1F
100
AcDbEntity
  8
CONTINUOUS1
100
AcDbLine
 10
47.58799343689084
 20
13.47664735104087
 30
0.0
 11
47.47541343689083
 21
13.47664735104087
 31
0.0
  0
LINE
  5
10FCA
330
1F
100
AcDbEntity
  8
CONTINUOUS1
100
AcDbLine
 10
47.61924343689083
 20
13.82039735104086
 30
0.0
 11
47.61924343689083
 21
13.44539735104087
 31
0.0
  0
LINE
  5
10FCB
330
1F
100
AcDbEntity
  8
CONTINUOUS1
100
AcDbLine
 10
47.61924343689083
 20
13.44539735104087
 30
0.0
 11
47.61924343689083
 21
13.35164735104087
 31
0.0
  0
ARC
  5
10FCC
330
1F
100
AcDbEntity
  8
CONTINUOUS1
100
AcDbCircle
 10
47.58799343689084
 20
13.88289735104087
 30
0.0
 40
0.03125
100
AcDbArc
 50
270.0
 51
359.9999999999992
  0
ARC
  5
10FCD
330
1F
100
AcDbEntity
  8
CONTINUOUS1
100
AcDbCircle
 10
47.58799343689083
 20
13.82039735104086
 30
0.0
 40
0.03125
100
AcDbArc
 50
0.0000000000006107
 51
89.99999999999909
  0
ARC
  5
10FCE
330
1F
100
AcDbEntity
  8
CONTINUOUS1
100
AcDbCircle
 10
47.58799343689084
 20
13.50789735104087
 30
0.0
 40
0.03125
100
AcDbArc
 50
270.0
 51
0.0000000000008906
  0
ARC
  5
10FCF
330
1F
100
AcDbEntity
  8
CONTINUOUS1
100
AcDbCircle
 10
47.58799343689084
 20
13.44539735104087
 30
0.0
 40
0.03125
100
AcDbArc
 50
0.0
 51
90.0000000000009
  0
LINE
  5
10FD0
330
1F
100
AcDbEntity
  8
CONTINUOUS1
100
AcDbLine
 10
46.62989343689083
 20
14.57414735104087
 30
0.0
 11
46.62989343689083
 21
14.48414735104087
 31
0.0
  0
LINE
  5
10FD1
330
1F
100
AcDbEntity
  8
CONTINUOUS1
100
AcDbLine
 10
46.38989343689084
 20
14.57414735104087
 30
0.0
 11
46.38989343689084
 21
14.48414735104087
 31
0.0
  0
LINE
  5
10FD2
330
1F
100
AcDbEntity
  8
CENTER1
100
AcDbLine
 10
46.50989343689083
 20
14.36414735104087
 30
0.0
 11
46.50989343689083
 21
14.36414735104087
 31
0.0
  0
LINE
  5
10FD3
330
1F
100
AcDbEntity
  8
CENTER1
100
AcDbLine
 10
46.50989343689083
 20
14.69414735104087
 30
0.0
 11
46.50989343689083
 21
14.69414735104087
 31
0.0
  0
ARC
  5
10FD4
330
1F
100
AcDbEntity
  8
CONTINUOUS1
100
AcDbCircle
 10
46.50989343689083
 20
14.57414735104087
 30
0.0
 40
0.12
100
AcDbArc
 50
359.9999999999997
 51
90.0
  0
ARC
  5
10FD5
330
1F
100
AcDbEntity
  8
CONTINUOUS1
100
AcDbCircle
 10
46.50989343689083
 20
14.57414735104087
 30
0.0
 40
0.12
100
AcDbArc
 50
90.0
 51
179.9999999999997
  0
ARC
  5
10FD6
330
1F
100
AcDbEntity
  8
CONTINUOUS1
100
AcDbCircle
 10
46.50989343689083
 20
14.48414735104087
 30
0.0
 40
0.12
100
AcDbArc
 50
179.9999999999995
 51
270.0
  0
ARC
  5
10FD7
330
1F
100
AcDbEntity
  8
CONTINUOUS1
100
AcDbCircle
 10
46.50989343689083
 20
14.48414735104087
 30
0.0
 40
0.12
100
AcDbArc
 50
270.0
 51
0.0
  0
ARC
  5
10FD8
330
1F
100
AcDbEntity
  8
CONTINUOUS1
100
AcDbCircle
 10
41.78989343689083
 20
14.57414735104086
 30
0.0
 40
0.12
100
AcDbArc
 50
90.0
 51
179.9999999999997
  0
LINE
  5
10FD9
330
1F
100
AcDbEntity
  8
CONTINUOUS1
100
AcDbLine
 10
41.66989343689084
 20
14.57414735104086
 30
0.0
 11
41.66989343689084
 21
14.48414735104087
 31
0.0
  0
ARC
  5
10FDA
330
1F
100
AcDbEntity
  8
CONTINUOUS1
100
AcDbCircle
 10
41.78989343689083
 20
14.48414735104087
 30
0.0
 40
0.12
100
AcDbArc
 50
179.9999999999995
 51
270.0
  0
ARC
  5
10FDB
330
1F
100
AcDbEntity
  8
CONTINUOUS1
100
AcDbCircle
 10
41.78989343689083
 20
14.48414735104087
 30
0.0
 40
0.12
100
AcDbArc
 50
270.0
 51
0.0
  0
ARC
  5
10FDC
330
1F
100
AcDbEntity
  8
CONTINUOUS1
100
AcDbCircle
 10
41.78989343689083
 20
14.57414735104086
 30
0.0
 40
0.12
100
AcDbArc
 50
359.9999999999997
 51
90.0
  0
LINE
  5
10FDD
330
1F
100
AcDbEntity
  8
CONTINUOUS1
100
AcDbLine
 10
41.90989343689084
 20
14.57414735104086
 30
0.0
 11
41.90989343689084
 21
14.48414735104087
 31
0.0
  0
ARC
  5
10FDE
330
1F
100
AcDbEntity
  8
CONTINUOUS1
100
AcDbCircle
 10
41.78989343689083
 20
12.84414735104087
 30
0.0
 40
0.12
100
AcDbArc
 50
90.0
 51
179.9999999999997
  0
LINE
  5
10FDF
330
1F
100
AcDbEntity
  8
CONTINUOUS1
100
AcDbLine
 10
41.66989343689084
 20
12.84414735104087
 30
0.0
 11
41.66989343689084
 21
12.75414735104087
 31
0.0
  0
ARC
  5
10FE0
330
1F
100
AcDbEntity
  8
CONTINUOUS1
100
AcDbCircle
 10
41.78989343689083
 20
12.75414735104086
 30
0.0
 40
0.12
100
AcDbArc
 50
179.9999999999995
 51
270.0
  0
ARC
  5
10FE1
330
1F
100
AcDbEntity
  8
CONTINUOUS1
100
AcDbCircle
 10
41.78989343689083
 20
12.75414735104086
 30
0.0
 40
0.12
100
AcDbArc
 50
270.0
 51
0.0
  0
ARC
  5
10FE2
330
1F
100
AcDbEntity
  8
CONTINUOUS1
100
AcDbCircle
 10
41.78989343689083
 20
12.84414735104087
 30
0.0
 40
0.12
100
AcDbArc
 50
359.9999999999997
 51
90.0
  0
LINE
  5
10FE3
330
1F
100
AcDbEntity
  8
CONTINUOUS1
100
AcDbLine
 10
41.90989343689084
 20
12.84414735104087
 30
0.0
 11
41.90989343689084
 21
12.75414735104086
 31
0.0
  0
ARC
  5
10FE4
330
1F
100
AcDbEntity
  8
CONTINUOUS1
100
AcDbCircle
 10
46.50989343689083
 20
12.84414735104087
 30
0.0
 40
0.12
100
AcDbArc
 50
90.0
 51
179.9999999999997
  0
LINE
  5
10FE5
330
1F
100
AcDbEntity
  8
CONTINUOUS1
100
AcDbLine
 10
46.38989343689084
 20
12.84414735104087
 30
0.0
 11
46.38989343689084
 21
12.75414735104087
 31
0.0
  0
ARC
  5
10FE6
330
1F
100
AcDbEntity
  8
CONTINUOUS1
100
AcDbCircle
 10
46.50989343689083
 20
12.75414735104086
 30
0.0
 40
0.12
100
AcDbArc
 50
179.9999999999995
 51
270.0
  0
ARC
  5
10FE7
330
1F
100
AcDbEntity
  8
CONTINUOUS1
100
AcDbCircle
 10
46.50989343689083
 20
12.75414735104086
 30
0.0
 40
0.12
100
AcDbArc
 50
270.0
 51
0.0
  0
ARC
  5
10FE8
330
1F
100
AcDbEntity
  8
CONTINUOUS1
100
AcDbCircle
 10
46.50989343689083
 20
12.84414735104087
 30
0.0
 40
0.12
100
AcDbArc
 50
359.9999999999997
 51
90.0
  0
LINE
  5
10FE9
330
1F
100
AcDbEntity
  8
CONTINUOUS1
100
AcDbLine
 10
46.62989343689083
 20
12.84414735104087
 30
0.0
 11
46.62989343689083
 21
12.75414735104086
 31
0.0
  0
LINE
  5
10FEA
330
1F
100
AcDbEntity
  8
CENTER1
100
AcDbLine
 10
46.50989343689083
 20
12.98664735104086
 30
0.0
 11
46.50989343689083
 21
12.61164735104086
 31
0.0
  0
LINE
  5
1108D
330
1F
100
AcDbEntity
  8
CONTINUOUS1
100
AcDbLine
 10
59.78523214234662
 20
13.17664735104087
 30
0.0
 11
59.78523214234662
 21
12.50789735104087
 31
0.0
  0
DIMENSION
  5
110B2
330
1F
100
AcDbEntity
  8
DIM
100
AcDbDimension
  2
*D13
 10
59.78523214234662
 20
16.43673931791826
 30
0.0
 11
57.50332738044186
 21
16.43673931791826
 31
0.0
 70
   160
  3
SCHNEIDERELECTRIC_DUAL_BEL
100
AcDbAlignedDimension
 13
58.98523214234663
 23
14.78914735104087
 33
0.0
 14
59.78523214234662
 24
14.78914735104087
 34
0.0
100
AcDbRotatedDimension
1001
ACAD
1000
DSTYLE
1002
{
1070
    40
1040
4.0
1002
}
  0
DIMENSION
  5
110C0
330
1F
100
AcDbEntity
  8
DIM
100
AcDbDimension
  2
*D14
 10
60.98523214234663
 20
18.22183128479564
 30
0.0
 11
59.98523214234663
 21
18.22183128479564
 31
0.0
 70
   160
  3
SCHNEIDERELECTRIC_DUAL_BEL
100
AcDbAlignedDimension
 13
58.98523214234663
 23
14.78914735104087
 33
0.0
 14
60.98523214234663
 24
14.78914735104087
 34
0.0
100
AcDbRotatedDimension
1001
ACAD
1000
DSTYLE
1002
{
1070
    40
1040
4.0
1002
}
  0
DIMENSION
  5
110CE
330
1F
100
AcDbEntity
  8
DIM
100
AcDbDimension
  2
*D15
 10
63.08523214234663
 20
20.03429036495915
 30
0.0
 11
61.03523214234662
 21
20.03429036495915
 31
0.0
 70
   160
  3
SCHNEIDERELECTRIC_DUAL_BEL
100
AcDbAlignedDimension
 13
58.98523214234663
 23
14.78914735104087
 33
0.0
 14
63.08523214234663
 24
11.82039735104087
 34
0.0
100
AcDbRotatedDimension
1001
ACAD
1000
DSTYLE
1002
{
1070
    40
1040
4.0
1002
}
  0
DIMENSION
  5
110DD
330
1F
100
AcDbEntity
  8
DIM
100
AcDbDimension
  2
*D16
 10
58.98523214234663
 20
7.532897351040869
 30
0.0
 11
61.0871369042514
 21
7.532897351040869
 31
0.0
 70
   160
  3
SCHNEIDERELECTRIC_DUAL_BEL
100
AcDbAlignedDimension
 13
59.88523214234664
 23
11.78914735104087
 33
0.0
 14
58.98523214234663
 24
9.189147351040869
 34
0.0
100
AcDbRotatedDimension
1001
ACAD
1000
DSTYLE
1002
{
1070
    40
1040
4.0
1002
}
  0
LINE
  5
11256
330
1F
100
AcDbEntity
  8
HIDDEN1
100
AcDbLine
 10
44.54764100130828
 20
10.6868949154583
 30
0.0
 11
43.75214587247341
 21
9.891399786623438
 31
0.0
  0
LINE
  5
11257
330
1F
100
AcDbEntity
  8
HIDDEN1
100
AcDbLine
 10
44.54764100130828
 20
9.891399786623438
 30
0.0
 11
43.75214587247341
 21
10.6868949154583
 31
0.0
  0
TEXT
  5
1134A
330
1F
100
AcDbEntity
  8
TEXT1
100
AcDbText
 10
46.11974052723117
 20
7.878281626230182
 30
0.0
 40
0.4
  1
1/2" NPT CABLE ENTRY
  7
ROMANS
 11
46.11974052723117
 21
8.078281626230182
 31
0.0
100
AcDbText
 73
     2
  0
LEADER
  5
1134B
330
1F
100
AcDbEntity
  8
TEXT1
100
AcDbLeader
  3
SCHNEIDERELECTRIC_DUAL_BEL
 76
     3
 10
44.15739343689082
 20
9.032897351040869
 30
0.0
 10
45.28421435857677
 20
8.078281626230182
 30
0.0
 10
46.13704857776872
 20
8.078281626230182
 30
0.0
1001
ACAD
1000
DSTYLE
1002
{
1070
     5
1000
SEARROW
1070
    40
1040
4.0
1070
   342
1005
AA81
1002
}
  0
TEXT
  5
11386
330
1F
100
AcDbEntity
  8
TEXT1
100
AcDbText
 10
47.92474052723117
 20
9.406442003912026
 30
0.0
 40
0.4
  1
1/2" NPT CABLE ENTRY
  7
ROMANS
 11
47.92474052723117
 21
9.606442003912025
 31
0.0
100
AcDbText
 73
     2
  0
LEADER
  5
11387
330
1F
100
AcDbEntity
  8
TEXT1
100
AcDbLeader
  3
SCHNEIDERELECTRIC_DUAL_BEL
 76
     3
 10
45.96239343689084
 20
11.5928385502002
 30
0.0
 10
47.08921435857678
 20
9.606442003912025
 30
0.0
 10
47.9010652831472
 20
9.606442003912025
 30
0.0
1001
ACAD
1000
DSTYLE
1002
{
1070
     5
1000
SEARROW
1070
    40
1040
4.0
1070
   342
1005
AA81
1002
}
  0
LEADER
  5
1138C
330
1F
100
AcDbEntity
  8
TEXT1
100
AcDbLeader
  3
SCHNEIDERELECTRIC_DUAL_BEL
 76
     3
 10
42.33739343689083
 20
11.44086405478849
 30
0.0
 10
37.30640272801577
 20
16.65777253278417
 30
0.0
 10
36.27838889564334
 20
16.65777253278417
 30
0.0
211
-1.0
221
-0.0000000000000007
231
0.0
1001
ACAD
1000
DSTYLE
1002
{
1070
     5
1000
SEARROW
1070
    40
1040
4.0
1070
   342
1005
AA81
1002
}
  0
TEXT
  5
1138D
330
1F
100
AcDbEntity
  8
TEXT1
100
AcDbText
 10
28.52017397886424
 20
16.45777253278416
 30
0.0
 40
0.4
  1
1/2" NPT CABLE ENTRY
  7
ROMANS
 72
     2
 11
35.92969778838805
 21
16.65777253278417
 31
0.0
100
AcDbText
 73
     2
  0
TEXT
  5
11572
330
1F
100
AcDbEntity
  8
TEXT1
100
AcDbText
 10
51.74971205072606
 20
18.77008396873024
 30
0.0
 40
0.4
  1
(4) MTG HOLES
  7
ROMANS
 11
51.74971205072606
 21
18.97008396873024
 31
0.0
100
AcDbText
 73
     2
  0
LEADER
  5
11573
330
1F
100
AcDbEntity
  8
TEXT1
100
AcDbLeader
  3
SCHNEIDERELECTRIC_DUAL_BEL
 76
     3
 10
46.59474625063322
 20
14.65900016478325
 30
0.0
 10
50.91418588207165
 20
18.97008396873024
 30
0.0
 10
51.59392757706365
 20
18.97008396873024
 30
0.0
1001
ACAD
1000
DSTYLE
1002
{
1070
     5
1000
SEARROW
1070
    40
1040
4.0
1070
   342
1005
AA81
1002
}
  0
TEXT
  5
11574
330
1F
100
AcDbEntity
  8
TEXT1
100
AcDbText
 10
51.74971205072606
 20
18.17008396873025
 30
0.0
 40
0.4
  1
.24 X .33
  7
ROMANS
 11
51.74971205072606
 21
18.37008396873025
 31
0.0
100
AcDbText
 73
     2
  0
TEXT
  5
11575
330
1F
100
AcDbEntity
  8
TEXT1
100
AcDbText
 10
52.18499343313283
 20
17.57008396873024
 30
0.0
 40
0.4
  1
6    9
  7
ROMANS
 11
52.18499343313283
 21
17.77008396873024
 31
0.0
100
AcDbText
 73
     2
  0
LINE
  5
1175A
102
{ACAD_REACTORS
330
11A40
102
}
330
1F
100
AcDbEntity
  8
CONTINUOUS1
100
AcDbLine
 10
42.05614343689084
 20
13.85164735104087
 30
0.0
 11
44.68114343689083
 21
13.85164735104087
 31
0.0
  0
LINE
  5
1175B
102
{ACAD_REACTORS
330
11A40
102
}
330
1F
100
AcDbEntity
  8
CONTINUOUS1
100
AcDbLine
 10
42.05614343689084
 20
13.47664735104087
 30
0.0
 11
44.68114343689083
 21
13.47664735104087
 31
0.0
  0
LINE
  5
1175C
102
{ACAD_REACTORS
330
11A40
102
}
330
1F
100
AcDbEntity
  8
CONTINUOUS1
100
AcDbLine
 10
42.05614343689084
 20
13.85164735104087
 30
0.0
 11
42.05614343689084
 21
13.47664735104087
 31
0.0
  0
LINE
  5
1175D
330
1F
100
AcDbEntity
  8
CONTINUOUS1
100
AcDbLine
 10
41.68114343689083
 20
13.92977235104087
 30
0.0
 11
41.68114343689083
 21
13.39852235104087
 31
0.0
  0
LINE
  5
1175E
102
{ACAD_REACTORS
330
11A40
102
}
330
1F
100
AcDbEntity
  8
CONTINUOUS1
100
AcDbLine
 10
42.43114343689083
 20
13.83602485104087
 30
0.0
 11
42.43114343689083
 21
13.49226985104087
 31
0.0
  0
LINE
  5
1175F
102
{ACAD_REACTORS
330
11A40
102
}
330
1F
100
AcDbEntity
  8
CONTINUOUS1
100
AcDbLine
 10
42.43114343689083
 20
13.83602485104087
 30
0.0
 11
44.66551843689083
 21
13.83602485104087
 31
0.0
  0
LINE
  5
11760
102
{ACAD_REACTORS
330
11A40
102
}
330
1F
100
AcDbEntity
  8
CONTINUOUS1
100
AcDbLine
 10
42.43114343689083
 20
13.49226985104087
 30
0.0
 11
44.66551843689083
 21
13.49226985104087
 31
0.0
  0
LINE
  5
11853
102
{ACAD_REACTORS
330
11A40
102
}
330
1F
100
AcDbEntity
  8
CONTINUOUS1
100
AcDbLine
 10
44.68114343689083
 20
13.85164735104087
 30
0.0
 11
44.68114343689083
 21
13.47664735104087
 31
0.0
  0
LINE
  5
11854
102
{ACAD_REACTORS
330
11A40
102
}
330
1F
100
AcDbEntity
  8
CONTINUOUS1
100
AcDbLine
 10
44.66551843689083
 20
13.83602485104088
 30
0.0
 11
44.66551843689083
 21
13.49226985104088
 31
0.0
  0
TEXT
  5
11855
330
1F
100
AcDbEntity
  8
TEXT1
100
AcDbText
 10
42.68737855593845
 20
13.58414735104087
 30
0.0
 40
0.16
  1
Telemecanique
  7
ROMANS
 72
     1
 11
43.54833093689083
 21
13.66414735104087
 31
0.0
100
AcDbText
 73
     2
  0
CIRCLE
  5
11859
102
{ACAD_REACTORS
330
11A40
102
}
330
1F
100
AcDbEntity
  8
CONTINUOUS1
100
AcDbCircle
 10
42.24364343689083
 20
13.66414735104087
 30
0.0
 40
0.125
  0
CIRCLE
  5
1185A
330
1F
100
AcDbEntity
  8
CONTINUOUS1
100
AcDbCircle
 10
42.24364343689083
 20
13.66414735104087
 30
0.0
 40
0.109375
  0
ARC
  5
11864
330
1F
100
AcDbEntity
  8
CONTINUOUS1
100
AcDbCircle
 10
42.24364343689083
 20
13.66414735104087
 30
0.0
 40
0.09375
100
AcDbArc
 50
113.5564643091011
 51
138.1896851042211
  0
LINE
  5
11868
330
1F
100
AcDbEntity
  8
CONTINUOUS1
100
AcDbLine
 10
42.20617600311496
 20
13.75008485104087
 30
0.0
 11
42.28111087066671
 21
13.75008485104087
 31
0.0
  0
LINE
  5
11869
330
1F
100
AcDbEntity
  8
CONTINUOUS1
100
AcDbLine
 10
42.28270593689083
 20
13.73445985104087
 30
0.0
 11
42.26708093689083
 21
13.73445985104087
 31
0.0
  0
LINE
  5
1186A
330
1F
100
AcDbEntity
  8
CONTINUOUS1
100
AcDbLine
 10
42.20458093689083
 20
13.72664735104087
 30
0.0
 11
42.17376631259397
 21
13.72664735104087
 31
0.0
  0
LINE
  5
11870
330
1F
100
AcDbEntity
  8
CONTINUOUS1
100
AcDbLine
 10
42.23583093689083
 20
13.72664735104087
 30
0.0
 11
42.23583093689083
 21
13.71102235104087
 31
0.0
  0
LINE
  5
11871
330
1F
100
AcDbEntity
  8
CONTINUOUS1
100
AcDbLine
 10
42.25145593689084
 20
13.72664735104087
 30
0.0
 11
42.25145593689084
 21
13.71102235104087
 31
0.0
  0
LINE
  5
11873
330
1F
100
AcDbEntity
  8
CONTINUOUS1
100
AcDbLine
 10
42.26708093689083
 20
13.73445985104087
 30
0.0
 11
42.26708093689083
 21
13.72664735104087
 31
0.0
  0
LINE
  5
11875
330
1F
100
AcDbEntity
  8
CONTINUOUS1
100
AcDbLine
 10
42.22020593689083
 20
13.73445985104087
 30
0.0
 11
42.22020593689083
 21
13.72664735104087
 31
0.0
  0
LINE
  5
11876
330
1F
100
AcDbEntity
  8
CONTINUOUS1
100
AcDbLine
 10
42.28270593689083
 20
13.73445985104087
 30
0.0
 11
42.28270593689083
 21
13.72664735104087
 31
0.0
  0
LINE
  5
11877
330
1F
100
AcDbEntity
  8
CONTINUOUS1
100
AcDbLine
 10
42.20458093689083
 20
13.73445985104087
 30
0.0
 11
42.20458093689083
 21
13.72664735104087
 31
0.0
  0
LINE
  5
11878
330
1F
100
AcDbEntity
  8
CONTINUOUS1
100
AcDbLine
 10
42.22020593689083
 20
13.72664735104087
 30
0.0
 11
42.23583093689083
 21
13.72664735104087
 31
0.0
  0
LINE
  5
11879
330
1F
100
AcDbEntity
  8
CONTINUOUS1
100
AcDbLine
 10
42.28270593689083
 20
13.72664735104087
 30
0.0
 11
42.3135205611877
 21
13.72664735104087
 31
0.0
  0
LINE
  5
1187A
330
1F
100
AcDbEntity
  8
CONTINUOUS1
100
AcDbLine
 10
42.22020593689083
 20
13.73445985104087
 30
0.0
 11
42.20458093689083
 21
13.73445985104087
 31
0.0
  0
LINE
  5
1187B
330
1F
100
AcDbEntity
  8
CONTINUOUS1
100
AcDbLine
 10
42.25145593689084
 20
13.72664735104087
 30
0.0
 11
42.26708093689083
 21
13.72664735104087
 31
0.0
  0
LINE
  5
1187D
330
1F
100
AcDbEntity
  8
CONTINUOUS1
100
AcDbLine
 10
42.16245355528605
 20
13.71102235104087
 30
0.0
 11
42.23583093689083
 21
13.71102235104087
 31
0.0
  0
LINE
  5
11881
330
1F
100
AcDbEntity
  8
CONTINUOUS1
100
AcDbLine
 10
42.18272188242886
 20
13.69539735104087
 30
0.0
 11
42.23583093689083
 21
13.69539735104087
 31
0.0
  0
LINE
  5
11882
330
1F
100
AcDbEntity
  8
CONTINUOUS1
100
AcDbLine
 10
42.31524618212453
 20
13.68758485104087
 30
0.0
 11
42.33441648406757
 21
13.68758485104087
 31
0.0
  0
ARC
  5
11883
330
1F
100
AcDbEntity
  8
CONTINUOUS1
100
AcDbCircle
 10
42.24364343689083
 20
13.65633485104087
 30
0.0
 40
0.078125
100
AcDbArc
 50
23.57817847820185
 51
30.00000000000166
  0
LINE
  5
11885
330
1F
100
AcDbEntity
  8
CONTINUOUS1
100
AcDbLine
 10
42.16358913403178
 20
13.68758485104087
 30
0.0
 11
42.1528703897141
 21
13.68758485104087
 31
0.0
  0
LINE
  5
11886
330
1F
100
AcDbEntity
  8
CONTINUOUS1
100
AcDbLine
 10
42.23583093689083
 20
13.69539735104087
 30
0.0
 11
42.23583093689083
 21
13.67195985104087
 31
0.0
  0
LINE
  5
11887
330
1F
100
AcDbEntity
  8
CONTINUOUS1
100
AcDbLine
 10
42.25145593689084
 20
13.69539735104087
 30
0.0
 11
42.25145593689084
 21
13.67195985104087
 31
0.0
  0
ARC
  5
11889
330
1F
100
AcDbEntity
  8
CONTINUOUS1
100
AcDbCircle
 10
42.24364343689083
 20
13.65633485104087
 30
0.0
 40
0.0859375
100
AcDbArc
 50
152.9643082105891
 51
158.676313736502
  0
LINE
  5
1188A
330
1F
100
AcDbEntity
  8
CONTINUOUS1
100
AcDbLine
 10
42.16709688242886
 20
13.69539735104087
 30
0.0
 11
42.16709688242886
 21
13.63289735104087
 31
0.0
  0
LINE
  5
1188B
330
1F
100
AcDbEntity
  8
CONTINUOUS1
100
AcDbLine
 10
42.18272188242886
 20
13.69539735104087
 30
0.0
 11
42.18272188242886
 21
13.67195985104087
 31
0.0
  0
LINE
  5
1188C
330
1F
100
AcDbEntity
  8
CONTINUOUS1
100
AcDbLine
 10
42.22801843689083
 20
13.57820985104087
 30
0.0
 11
42.25926843689083
 21
13.57820985104087
 31
0.0
  0
LINE
  5
1188F
330
1F
100
AcDbEntity
  8
CONTINUOUS1
100
AcDbLine
 10
42.23192468689084
 20
13.60164735104087
 30
0.0
 11
42.23583093689083
 21
13.60164735104087
 31
0.0
  0
LINE
  5
11892
330
1F
100
AcDbEntity
  8
CONTINUOUS1
100
AcDbLine
 10
42.23192468689084
 20
13.60164735104087
 30
0.0
 11
42.22801843689083
 21
13.59383485104087
 31
0.0
  0
LINE
  5
11893
330
1F
100
AcDbEntity
  8
CONTINUOUS1
100
AcDbLine
 10
42.25536218689083
 20
13.60164735104087
 30
0.0
 11
42.25926843689083
 21
13.59383485104087
 31
0.0
  0
LINE
  5
11894
330
1F
100
AcDbEntity
  8
CONTINUOUS1
100
AcDbLine
 10
42.25536218689083
 20
13.60164735104087
 30
0.0
 11
42.25145593689084
 21
13.60164735104087
 31
0.0
  0
LINE
  5
11895
330
1F
100
AcDbEntity
  8
CONTINUOUS1
100
AcDbLine
 10
42.22801843689083
 20
13.59383485104087
 30
0.0
 11
42.22801843689083
 21
13.57820985104087
 31
0.0
  0
LINE
  5
11896
330
1F
100
AcDbEntity
  8
CONTINUOUS1
100
AcDbLine
 10
42.25926843689083
 20
13.59383485104087
 30
0.0
 11
42.25926843689083
 21
13.57820985104087
 31
0.0
  0
LINE
  5
11897
330
1F
100
AcDbEntity
  8
CONTINUOUS1
100
AcDbLine
 10
42.16245355528605
 20
13.61727235104087
 30
0.0
 11
42.23583093689083
 21
13.61727235104087
 31
0.0
  0
LINE
  5
11898
330
1F
100
AcDbEntity
  8
CONTINUOUS1
100
AcDbLine
 10
42.18272188242886
 20
13.63289735104087
 30
0.0
 11
42.23583093689083
 21
13.63289735104087
 31
0.0
  0
LINE
  5
11899
330
1F
100
AcDbEntity
  8
CONTINUOUS1
100
AcDbLine
 10
42.16358913403178
 20
13.64070985104087
 30
0.0
 11
42.1528703897141
 21
13.64070985104087
 31
0.0
  0
ARC
  5
1189A
330
1F
100
AcDbEntity
  8
CONTINUOUS1
100
AcDbCircle
 10
42.24364343689083
 20
13.67195985104087
 30
0.0
 40
0.0859375
100
AcDbArc
 50
201.3236862634979
 51
207.0356917894109
  0
LINE
  5
1189D
330
1F
100
AcDbEntity
  8
CONTINUOUS1
100
AcDbLine
 10
42.28270593689083
 20
13.65633485104087
 30
0.0
 11
42.25145593689084
 21
13.65633485104087
 31
0.0
  0
LINE
  5
1189E
330
1F
100
AcDbEntity
  8
CONTINUOUS1
100
AcDbLine
 10
42.28270593689083
 20
13.67195985104087
 30
0.0
 11
42.25145593689084
 21
13.67195985104087
 31
0.0
  0
ARC
  5
1189F
330
1F
100
AcDbEntity
  8
CONTINUOUS1
100
AcDbCircle
 10
42.24364343689083
 20
13.67195985104087
 30
0.0
 40
0.078125
100
AcDbArc
 50
329.9999999999982
 51
336.4218215217981
  0
LINE
  5
118A0
330
1F
100
AcDbEntity
  8
CONTINUOUS1
100
AcDbLine
 10
42.31524618212453
 20
13.64070985104087
 30
0.0
 11
42.33441648406757
 21
13.64070985104087
 31
0.0
  0
LINE
  5
118A1
330
1F
100
AcDbEntity
  8
CONTINUOUS1
100
AcDbLine
 10
42.29051843689084
 20
13.67977235104087
 30
0.0
 11
42.30614343689083
 21
13.67977235104087
 31
0.0
  0
LINE
  5
118A2
330
1F
100
AcDbEntity
  8
CONTINUOUS1
100
AcDbLine
 10
42.30614343689083
 20
13.64852235104087
 30
0.0
 11
42.30614343689083
 21
13.67977235104087
 31
0.0
  0
LINE
  5
118A3
330
1F
100
AcDbEntity
  8
CONTINUOUS1
100
AcDbLine
 10
42.28270593689083
 20
13.67586610104087
 30
0.0
 11
42.29051843689084
 21
13.67977235104087
 31
0.0
  0
LINE
  5
118A4
330
1F
100
AcDbEntity
  8
CONTINUOUS1
100
AcDbLine
 10
42.28270593689083
 20
13.67586610104087
 30
0.0
 11
42.28270593689083
 21
13.67195985104087
 31
0.0
  0
LINE
  5
118A5
330
1F
100
AcDbEntity
  8
CONTINUOUS1
100
AcDbLine
 10
42.28270593689083
 20
13.65242860104087
 30
0.0
 11
42.28270593689083
 21
13.65633485104087
 31
0.0
  0
LINE
  5
118A6
330
1F
100
AcDbEntity
  8
CONTINUOUS1
100
AcDbLine
 10
42.28270593689083
 20
13.65242860104087
 30
0.0
 11
42.29051843689084
 21
13.64852235104087
 31
0.0
  0
LINE
  5
118A7
330
1F
100
AcDbEntity
  8
CONTINUOUS1
100
AcDbLine
 10
42.29051843689084
 20
13.64852235104087
 30
0.0
 11
42.30614343689083
 21
13.64852235104087
 31
0.0
  0
LINE
  5
118A9
330
1F
100
AcDbEntity
  8
CONTINUOUS1
100
AcDbLine
 10
42.25145593689084
 20
13.65633485104087
 30
0.0
 11
42.25145593689084
 21
13.63289735104087
 31
0.0
  0
LINE
  5
118AA
330
1F
100
AcDbEntity
  8
CONTINUOUS1
100
AcDbLine
 10
42.23583093689083
 20
13.65633485104087
 30
0.0
 11
42.23583093689083
 21
13.63289735104087
 31
0.0
  0
LINE
  5
118AB
330
1F
100
AcDbEntity
  8
CONTINUOUS1
100
AcDbLine
 10
42.18272188242886
 20
13.65633485104087
 30
0.0
 11
42.18272188242886
 21
13.63289735104087
 31
0.0
  0
LINE
  5
118AC
330
1F
100
AcDbEntity
  8
CONTINUOUS1
100
AcDbLine
 10
42.25145593689084
 20
13.71102235104087
 30
0.0
 11
42.32483331849562
 21
13.71102235104087
 31
0.0
  0
LINE
  5
118AD
330
1F
100
AcDbEntity
  8
CONTINUOUS1
100
AcDbLine
 10
42.25145593689084
 20
13.69539735104087
 30
0.0
 11
42.31130167156149
 21
13.69539735104087
 31
0.0
  0
LINE
  5
118AE
330
1F
100
AcDbEntity
  8
CONTINUOUS1
100
AcDbLine
 10
42.23583093689083
 20
13.67195985104087
 30
0.0
 11
42.18272188242886
 21
13.67195985104087
 31
0.0
  0
LINE
  5
118AF
330
1F
100
AcDbEntity
  8
CONTINUOUS1
100
AcDbLine
 10
42.23583093689083
 20
13.65633485104087
 30
0.0
 11
42.18272188242886
 21
13.65633485104087
 31
0.0
  0
LINE
  5
118B0
330
1F
100
AcDbEntity
  8
CONTINUOUS1
100
AcDbLine
 10
42.25145593689084
 20
13.63289735104087
 30
0.0
 11
42.31130167156149
 21
13.63289735104087
 31
0.0
  0
LINE
  5
118B1
330
1F
100
AcDbEntity
  8
CONTINUOUS1
100
AcDbLine
 10
42.25145593689084
 20
13.61727235104087
 30
0.0
 11
42.32483331849562
 21
13.61727235104087
 31
0.0
  0
LINE
  5
118B2
330
1F
100
AcDbEntity
  8
CONTINUOUS1
100
AcDbLine
 10
42.25145593689084
 20
13.61727235104087
 30
0.0
 11
42.25145593689084
 21
13.60164735104087
 31
0.0
  0
LINE
  5
118B3
330
1F
100
AcDbEntity
  8
CONTINUOUS1
100
AcDbLine
 10
42.23583093689083
 20
13.61727235104087
 30
0.0
 11
42.23583093689083
 21
13.60164735104087
 31
0.0
  0
ARC
  5
118B4
330
1F
100
AcDbEntity
  8
CONTINUOUS1
100
AcDbCircle
 10
42.24364343689083
 20
13.66414735104087
 30
0.0
 40
0.09375
100
AcDbArc
 50
329.9999999999985
 51
345.52248781407
  0
ARC
  5
118B5
330
1F
100
AcDbEntity
  8
CONTINUOUS1
100
AcDbCircle
 10
42.24364343689083
 20
13.66414735104087
 30
0.0
 40
0.09375
100
AcDbArc
 50
194.4775121859289
 51
210.0000000000014
  0
ARC
  5
118B6
330
1F
100
AcDbEntity
  8
CONTINUOUS1
100
AcDbCircle
 10
42.24364343689083
 20
13.66414735104087
 30
0.0
 40
0.09375
100
AcDbArc
 50
150.0000000000009
 51
165.5224878140689
  0
ARC
  5
118B7
330
1F
100
AcDbEntity
  8
CONTINUOUS1
100
AcDbCircle
 10
42.24364343689083
 20
13.66414735104087
 30
0.0
 40
0.09375
100
AcDbArc
 50
41.81031489577882
 51
66.44353569089886
  0
ARC
  5
118B8
330
1F
100
AcDbEntity
  8
CONTINUOUS1
100
AcDbCircle
 10
42.24364343689083
 20
13.66414735104087
 30
0.0
 40
0.09375
100
AcDbArc
 50
14.47751218593
 51
30.00000000000094
  0
HATCH
  5
11A40
330
1F
100
AcDbEntity
  8
CONTINUOUS1
100
AcDbHatch
 10
0.0
 20
0.0
 30
0.0
210
0.0
220
0.0
230
1.0
  2
ANSI37
 70
     0
 71
     1
 91
        3
 92
       16
 93
        1
 72
     2
 10
42.24364343689083
 20
13.66414735104087
 40
0.125
 50
0.0
 51
360.0
 73
     1
 97
        1
330
11859
 92
        1
 93
        4
 72
     1
 10
42.05614343689084
 20
13.85164735104087
 11
44.68114343689083
 21
13.85164735104087
 72
     1
 10
44.68114343689083
 20
13.85164735104087
 11
44.68114343689083
 21
13.47664735104087
 72
     1
 10
44.68114343689083
 20
13.47664735104087
 11
42.05614343689084
 21
13.47664735104087
 72
     1
 10
42.05614343689084
 20
13.47664735104087
 11
42.05614343689084
 21
13.85164735104087
 97
        4
330
1175A
330
11853
330
1175B
330
1175C
 92
       16
 93
        4
 72
     1
 10
42.43114343689083
 20
13.83602485104087
 11
42.43114343689083
 21
13.49226985104087
 72
     1
 10
42.43114343689083
 20
13.49226985104087
 11
44.66551843689083
 21
13.49226985104087
 72
     1
 10
44.66551843689083
 20
13.49226985104088
 11
44.66551843689083
 21
13.83602485104088
 72
     1
 10
44.66551843689083
 20
13.83602485104087
 11
42.43114343689083
 21
13.83602485104087
 97
        4
330
1175E
330
11760
330
11854
330
1175F
 75
     0
 76
     1
 52
0.0
 41
0.03125
 77
     0
 78
     2
 53
45.0
 43
33.67874933596061
 44
0.6267178442038422
 45
-0.00276213586401
 46
0.00276213586401
 79
     0
 53
135.0
 43
33.67874933596061
 44
0.6267178442038422
 45
-0.00276213586401
 46
-0.00276213586401
 79
     0
 98
        1
 10
33.67874933596061
 20
0.6267178442038422
  0
HATCH
  5
11D92
330
1F
100
AcDbEntity
  8
CONTINUOUS1
100
AcDbHatch
 10
0.0
 20
0.0
 30
0.0
210
0.0
220
0.0
230
1.0
  2
ANSI37
 70
     0
 71
     0
 91
        4
 92
        7
 72
     1
 73
     1
 93
        2
 10
42.35301843689083
 20
13.66414735104087
 42
1.0
 10
42.13426843689084
 20
13.66414735104087
 42
1.0
 97
        0
 92
       22
 72
     1
 73
     1
 93
       54
 10
42.25145593689084
 20
13.61727235104087
 42
0.0
 10
42.25145593689084
 20
13.60164735104087
 42
0.0
 10
42.25536218689083
 20
13.60164735104087
 42
0.0
 10
42.25926843689083
 20
13.59383485104087
 42
0.0
 10
42.25926843689083
 20
13.57820985104087
 42
0.0
 10
42.22801843689083
 20
13.57820985104087
 42
0.0
 10
42.22801843689083
 20
13.59383485104087
 42
0.0
 10
42.23192468689084
 20
13.60164735104087
 42
0.0
 10
42.23583093689083
 20
13.60164735104087
 42
0.0
 10
42.23583093689083
 20
13.61727235104087
 42
0.0
 10
42.16245355528605
 20
13.61727235104087
 42
-0.0678333859424994
 10
42.1528703897141
 20
13.64070985104087
 42
0.0
 10
42.16358913403178
 20
13.64070985104087
 42
0.0249284876711786
 10
42.16709688242886
 20
13.63289735104087
 42
0.0
 10
42.16709688242886
 20
13.69539735104087
 42
0.0249284876711786
 10
42.16358913403178
 20
13.68758485104087
 42
0.0
 10
42.1528703897141
 20
13.68758485104087
 42
-0.0678333859424884
 10
42.16245355528605
 20
13.71102235104087
 42
0.0
 10
42.23583093689083
 20
13.71102235104087
 42
0.0
 10
42.23583093689083
 20
13.72664735104087
 42
0.0
 10
42.22020593689083
 20
13.72664735104087
 42
0.0
 10
42.22020593689083
 20
13.73445985104087
 42
0.0
 10
42.20458093689083
 20
13.73445985104087
 42
0.0
 10
42.20458093689083
 20
13.72664735104087
 42
0.0
 10
42.17376631259397
 20
13.72664735104087
 42
-0.1078985227710422
 10
42.20617600311494
 20
13.75008485104087
 42
0.0
 10
42.28111087066672
 20
13.75008485104087
 42
-0.1078985227710421
 10
42.3135205611877
 20
13.72664735104087
 42
0.0
 10
42.28270593689083
 20
13.72664735104087
 42
0.0
 10
42.28270593689083
 20
13.73445985104087
 42
0.0
 10
42.26708093689083
 20
13.73445985104087
 42
0.0
 10
42.26708093689083
 20
13.72664735104087
 42
0.0
 10
42.25145593689084
 20
13.72664735104087
 42
0.0
 10
42.25145593689084
 20
13.71102235104087
 42
0.0
 10
42.32483331849562
 20
13.71102235104087
 42
-0.0678333859424924
 10
42.33441648406757
 20
13.68758485104087
 42
0.0
 10
42.31524618212453
 20
13.68758485104087
 42
0.0280278180898316
 10
42.31130167156149
 20
13.69539735104087
 42
0.0
 10
42.25145593689084
 20
13.69539735104087
 42
0.0
 10
42.25145593689084
 20
13.67195985104087
 42
0.0
 10
42.28270593689083
 20
13.67195985104087
 42
0.0
 10
42.28270593689083
 20
13.67586610104087
 42
0.0
 10
42.29051843689084
 20
13.67977235104087
 42
0.0
 10
42.30614343689083
 20
13.67977235104087
 42
0.0
 10
42.30614343689083
 20
13.64852235104087
 42
0.0
 10
42.29051843689084
 20
13.64852235104087
 42
0.0
 10
42.28270593689083
 20
13.65242860104087
 42
0.0
 10
42.28270593689083
 20
13.65633485104087
 42
0.0
 10
42.25145593689084
 20
13.65633485104087
 42
0.0
 10
42.25145593689084
 20
13.63289735104087
 42
0.0
 10
42.31130167156149
 20
13.63289735104087
 42
0.0280278180898189
 10
42.31524618212453
 20
13.64070985104087
 42
0.0
 10
42.33441648406757
 20
13.64070985104087
 42
-0.0678333859425011
 10
42.32483331849562
 20
13.61727235104087
 42
0.0
 97
        0
 92
        6
 72
     0
 73
     1
 93
        4
 10
42.23583093689083
 20
13.63289735104087
 10
42.18272188242886
 20
13.63289735104087
 10
42.18272188242886
 20
13.65633485104087
 10
42.23583093689083
 20
13.65633485104087
 97
        0
 92
        6
 72
     0
 73
     1
 93
        4
 10
42.23583093689083
 20
13.67195985104087
 10
42.18272188242886
 20
13.67195985104087
 10
42.18272188242886
 20
13.69539735104087
 10
42.23583093689083
 20
13.69539735104087
 97
        0
 75
     0
 76
     1
 52
0.0
 41
0.03125
 77
     0
 78
     2
 53
45.0
 43
33.67874933596061
 44
0.6267178442038422
 45
-0.00276213586401
 46
0.00276213586401
 79
     0
 53
135.0
 43
33.67874933596061
 44
0.6267178442038422
 45
-0.00276213586401
 46
-0.00276213586401
 79
     0
 47
0.0014094584334275
 98
        4
 10
42.29351795186921
 20
13.596592291032
 10
42.29351795186921
 20
13.596592291032
 10
42.29351795186921
 20
13.596592291032
 10
42.29351795186921
 20
13.596592291032
  0
HATCH
  5
124B9
330
1F
100
AcDbEntity
  8
TEXT1
100
AcDbHatch
 10
0.0
 20
0.0
 30
0.0
210
0.0
220
0.0
230
1.0
  2
SOLID
 70
     1
 71
     1
 91
        1
 92
        1
 93
        3
 72
     1
 10
16.66465722135841
 20
24.71080923665501
 11
16.47715722135841
 21
24.33580923665501
 72
     1
 10
16.47715722135841
 20
24.33580923665501
 11
16.85215722135841
 21
24.33580923665501
 72
     1
 10
16.85215722135841
 20
24.33580923665501
 11
16.66465722135841
 21
24.71080923665501
 97
        3
330
1251D
330
1251C
330
1251E
 75
     0
 76
     1
 98
        1
 10
-19.52350571292182
 20
9.533225387175129
  0
HATCH
  5
124BA
330
1F
100
AcDbEntity
  8
TEXT1
100
AcDbHatch
 10
0.0
 20
0.0
 30
0.0
210
0.0
220
0.0
230
1.0
  2
SOLID
 70
     1
 71
     0
 91
        1
 92
        7
 72
     0
 73
     1
 93
       12
 10
5.200483824223272
 20
24.56602996459888
 10
5.200483824223272
 20
24.65977996459889
 10
5.137983824223272
 20
24.65977996459889
 10
5.137983824223272
 20
24.56602996459888
 10
5.037983824223271
 20
24.56602996459889
 10
5.037983824223271
 20
24.50352996459889
 10
5.137983824223272
 20
24.50352996459889
 10
5.137983824223272
 20
24.28477996459889
 10
5.200483824223272
 20
24.28477996459889
 10
5.200483824223272
 20
24.50352996459889
 10
5.300483824223274
 20
24.50352996459889
 10
5.300483824223274
 20
24.56602996459888
 97
        0
 75
     0
 76
     1
 47
0.0010530823070092
 98
        1
 10
5.20322041359093
 20
24.54521680451711
  0
HATCH
  5
124BB
330
1F
100
AcDbEntity
  8
TEXT1
100
AcDbHatch
 10
0.0
 20
0.0
 30
0.0
210
0.0
220
0.0
230
1.0
  2
SOLID
 70
     1
 71
     0
 91
        1
 92
        7
 72
     0
 73
     1
 93
       12
 10
24.29187460836426
 20
23.9031846150899
 10
24.29187460836426
 20
23.9969346150899
 10
24.22937460836426
 20
23.9969346150899
 10
24.22937460836426
 20
23.9031846150899
 10
24.12937460836426
 20
23.9031846150899
 10
24.12937460836426
 20
23.8406846150899
 10
24.22937460836426
 20
23.8406846150899
 10
24.22937460836426
 20
23.6219346150899
 10
24.29187460836426
 20
23.6219346150899
 10
24.29187460836426
 20
23.8406846150899
 10
24.39187460836426
 20
23.8406846150899
 10
24.39187460836426
 20
23.9031846150899
 97
        0
 75
     0
 76
     1
 47
0.0010530823070092
 98
        1
 10
24.29461119773192
 20
23.88237145500813
  0
HATCH
  5
124BC
330
1F
100
AcDbEntity
  8
TEXT1
100
AcDbHatch
 10
0.0
 20
0.0
 30
0.0
210
0.0
220
0.0
230
1.0
  2
SOLID
 70
     1
 71
     1
 91
        1
 92
        1
 93
        3
 72
     1
 10
1.24854010497323
 20
27.97227996459889
 11
1.10791510497323
 21
27.69102996459889
 72
     1
 10
1.10791510497323
 20
27.69102996459889
 11
1.38916510497323
 21
27.69102996459889
 72
     1
 10
1.38916510497323
 20
27.69102996459889
 11
1.24854010497323
 21
27.97227996459889
 97
        3
330
124E0
330
124EC
330
124E1
 75
     0
 76
     1
 98
        1
 10
-25.89258209573695
 20
16.58909207748898
  0
HATCH
  5
124BD
330
1F
100
AcDbEntity
  8
TEXT1
100
AcDbHatch
 10
0.0
 20
0.0
 30
0.0
210
0.0
220
0.0
230
1.0
  2
SOLID
 70
     1
 71
     1
 91
        1
 92
        1
 93
        1
 72
     2
 10
1.24854010497323
 20
29.64009155499846
 40
0.140625
 50
0.0
 51
360.0
 73
     1
 97
        1
330
124ED
 75
     0
 76
     1
 98
        1
 10
-26.68869580226846
 20
18.78679122743038
  0
LINE
  5
124BF
330
1F
100
AcDbEntity
  8
TEXT1
100
AcDbLine
 10
24.29187460836426
 20
23.8406846150899
 30
0.0
 11
24.29187460836426
 21
23.6219346150899
 31
0.0
  0
LINE
  5
124C0
330
1F
100
AcDbEntity
  8
TEXT1
100
AcDbLine
 10
24.22937460836426
 20
23.8406846150899
 30
0.0
 11
24.22937460836426
 21
23.6219346150899
 31
0.0
  0
LINE
  5
124C2
330
1F
100
AcDbEntity
  8
TEXT1
100
AcDbLine
 10
24.22937460836426
 20
23.6219346150899
 30
0.0
 11
24.29187460836426
 21
23.6219346150899
 31
0.0
  0
TEXT
  5
124C3
330
1F
100
AcDbEntity
  8
TEXT1
100
AcDbText
 10
1.401070941008725
 20
24.34352996459889
 30
0.0
 40
0.32
  1
NORMAL STOP  (MOMENTARY ACTION-NO RESET, NO DIRECT
  7
ROMANS
 11
1.401070941008725
 21
24.50352996459889
 31
0.0
100
AcDbText
 73
     2
  0
TEXT
  5
124C4
330
1F
100
AcDbEntity
  8
TEXT1
100
AcDbText
 10
1.401070941008725
 20
23.14352996459888
 30
0.0
 40
0.32
  1
AVAILABLE ONLY WITH SNAP ACTION CONTACTS. NOT FOR USE IN SAFETY CIRCUITS.
  7
ROMANS
 11
1.401070941008725
 21
23.30352996459888
 31
0.0
100
AcDbText
 73
     2
  0
TEXT
  5
124C9
330
1F
100
AcDbEntity
  8
TEXT1
100
AcDbText
 10
1.5406784882597
 20
29.51852996459889
 30
0.0
 40
0.32
  1
RECOMMENDED FOR OUTDOORS APPLICATIONS WHERE ICY CONDITIONS ARE LIKELY
  7
ROMANS
 11
1.5406784882597
 21
29.67852996459889
 31
0.0
100
AcDbText
 73
     2
  0
TEXT
  5
124CA
330
1F
100
AcDbEntity
  8
TEXT1
100
AcDbText
 10
1.5406784882597
 20
27.71852996459889
 30
0.0
 40
0.32
  1
DIRECT OPENING N.C. CONTACTS MEET THE IEC AND EN REQUIREMENTS FOR
  7
ROMANS
 11
1.5406784882597
 21
27.87852996459889
 31
0.0
100
AcDbText
 73
     2
  0
TEXT
  5
124CB
330
1F
100
AcDbEntity
  8
TEXT1
100
AcDbText
 10
1.5406784882597
 20
26.51852996459889
 30
0.0
 40
0.32
  1

  7
ROMANS
 11
1.5406784882597
 21
26.67852996459889
 31
0.0
100
AcDbText
 73
     2
  0
LINE
  5
124D1
330
1F
100
AcDbEntity
  8
0
100
AcDbLine
 10
21.62354010497322
 20
38.64009155499849
 30
0.0
 11
1.248540104973223
 21
38.64009155499849
 31
0.0
  0
LINE
  5
124D5
330
1F
100
AcDbEntity
  8
0
100
AcDbLine
 10
1.248540104973223
 20
30.24009155499847
 30
0.0
 11
1.248540104973223
 21
39.39009155499848
 31
0.0
  0
TEXT
  5
124D9
330
1F
100
AcDbEntity
  8
TEXT1
100
AcDbText
 10
1.5406784882597
 20
28.91852996459889
 30
0.0
 40
0.32
  1
BULB NOT INCLUDED, SEE SPARE PARTS LIST.
  7
ROMANS
 11
1.5406784882597
 21
29.07852996459889
 31
0.0
100
AcDbText
 73
     2
  0
LINE
  5
124E0
102
{ACAD_REACTORS
330
124BC
102
}
330
1F
100
AcDbEntity
  8
TEXT1
100
AcDbLine
 10
1.24854010497323
 20
27.97227996459889
 30
0.0
 11
1.10791510497323
 21
27.69102996459889
 31
0.0
  0
LINE
  5
124E1
102
{ACAD_REACTORS
330
124BC
102
}
330
1F
100
AcDbEntity
  8
TEXT1
100
AcDbLine
 10
1.24854010497323
 20
27.97227996459889
 30
0.0
 11
1.38916510497323
 21
27.69102996459889
 31
0.0
  0
LINE
  5
124E2
330
1F
100
AcDbEntity
  8
TEXT1
100
AcDbLine
 10
24.29187460836426
 20
23.9969346150899
 30
0.0
 11
24.29187460836426
 21
23.9031846150899
 31
0.0
  0
LINE
  5
124E3
330
1F
100
AcDbEntity
  8
TEXT1
100
AcDbLine
 10
24.22937460836426
 20
23.9969346150899
 30
0.0
 11
24.22937460836426
 21
23.9031846150899
 31
0.0
  0
LINE
  5
124E4
330
1F
100
AcDbEntity
  8
TEXT1
100
AcDbLine
 10
24.22937460836426
 20
23.9969346150899
 30
0.0
 11
24.22937460836426
 21
23.9031846150899
 31
0.0
  0
LINE
  5
124E5
330
1F
100
AcDbEntity
  8
TEXT1
100
AcDbLine
 10
24.39187460836426
 20
23.9031846150899
 30
0.0
 11
24.29187460836426
 21
23.9031846150899
 31
0.0
  0
LINE
  5
124E6
330
1F
100
AcDbEntity
  8
TEXT1
100
AcDbLine
 10
24.39187460836426
 20
23.8406846150899
 30
0.0
 11
24.29187460836426
 21
23.8406846150899
 31
0.0
  0
LINE
  5
124E7
330
1F
100
AcDbEntity
  8
TEXT1
100
AcDbLine
 10
24.12937460836426
 20
23.8406846150899
 30
0.0
 11
24.12937460836426
 21
23.9031846150899
 31
0.0
  0
LINE
  5
124E8
330
1F
100
AcDbEntity
  8
TEXT1
100
AcDbLine
 10
24.22937460836426
 20
23.9969346150899
 30
0.0
 11
24.29187460836426
 21
23.9969346150899
 31
0.0
  0
LINE
  5
124E9
330
1F
100
AcDbEntity
  8
TEXT1
100
AcDbLine
 10
24.39187460836426
 20
23.9031846150899
 30
0.0
 11
24.39187460836426
 21
23.8406846150899
 31
0.0
  0
LINE
  5
124EA
330
1F
100
AcDbEntity
  8
TEXT1
100
AcDbLine
 10
24.22937460836426
 20
23.9031846150899
 30
0.0
 11
24.12937460836426
 21
23.9031846150899
 31
0.0
  0
LINE
  5
124EB
330
1F
100
AcDbEntity
  8
TEXT1
100
AcDbLine
 10
24.22937460836426
 20
23.8406846150899
 30
0.0
 11
24.12937460836426
 21
23.8406846150899
 31
0.0
  0
LINE
  5
124EC
102
{ACAD_REACTORS
330
124BC
102
}
330
1F
100
AcDbEntity
  8
TEXT1
100
AcDbLine
 10
1.10791510497323
 20
27.69102996459889
 30
0.0
 11
1.38916510497323
 21
27.69102996459889
 31
0.0
  0
CIRCLE
  5
124ED
102
{ACAD_REACTORS
330
124BD
102
}
330
1F
100
AcDbEntity
  8
TEXT1
100
AcDbCircle
 10
1.24854010497323
 20
29.64009155499846
 30
0.0
 40
0.140625
  0
LINE
  5
124F6
330
1F
100
AcDbEntity
  8
TEXT1
100
AcDbLine
 10
5.137983824223272
 20
24.56602996459888
 30
0.0
 11
5.037983824223271
 21
24.56602996459888
 31
0.0
  0
LINE
  5
124F7
330
1F
100
AcDbEntity
  8
TEXT1
100
AcDbLine
 10
5.137983824223272
 20
24.50352996459889
 30
0.0
 11
5.037983824223271
 21
24.50352996459889
 31
0.0
  0
LINE
  5
124F8
330
1F
100
AcDbEntity
  8
TEXT1
100
AcDbLine
 10
5.037983824223271
 20
24.50352996459889
 30
0.0
 11
5.037983824223271
 21
24.56602996459888
 31
0.0
  0
LINE
  5
124F9
330
1F
100
AcDbEntity
  8
TEXT1
100
AcDbLine
 10
5.200483824223272
 20
24.65977996459889
 30
0.0
 11
5.200483824223272
 21
24.56602996459889
 31
0.0
  0
LINE
  5
124FA
330
1F
100
AcDbEntity
  8
TEXT1
100
AcDbLine
 10
5.137983824223272
 20
24.65977996459889
 30
0.0
 11
5.137983824223272
 21
24.56602996459888
 31
0.0
  0
LINE
  5
124FB
330
1F
100
AcDbEntity
  8
TEXT1
100
AcDbLine
 10
5.137983824223272
 20
24.28477996459889
 30
0.0
 11
5.200483824223272
 21
24.28477996459889
 31
0.0
  0
LINE
  5
124FC
330
1F
100
AcDbEntity
  8
TEXT1
100
AcDbLine
 10
5.137983824223272
 20
24.65977996459889
 30
0.0
 11
5.137983824223272
 21
24.56602996459888
 31
0.0
  0
LINE
  5
124FD
330
1F
100
AcDbEntity
  8
TEXT1
100
AcDbLine
 10
5.300483824223274
 20
24.56602996459888
 30
0.0
 11
5.200483824223272
 21
24.56602996459889
 31
0.0
  0
LINE
  5
124FE
330
1F
100
AcDbEntity
  8
TEXT1
100
AcDbLine
 10
5.300483824223274
 20
24.50352996459889
 30
0.0
 11
5.200483824223272
 21
24.50352996459889
 31
0.0
  0
LINE
  5
124FF
330
1F
100
AcDbEntity
  8
TEXT1
100
AcDbLine
 10
5.137983824223272
 20
24.65977996459889
 30
0.0
 11
5.200483824223272
 21
24.65977996459889
 31
0.0
  0
LINE
  5
12500
330
1F
100
AcDbEntity
  8
TEXT1
100
AcDbLine
 10
5.300483824223274
 20
24.56602996459888
 30
0.0
 11
5.300483824223274
 21
24.50352996459889
 31
0.0
  0
LINE
  5
12501
330
1F
100
AcDbEntity
  8
TEXT1
100
AcDbLine
 10
5.200483824223272
 20
24.50352996459889
 30
0.0
 11
5.200483824223272
 21
24.28477996459889
 31
0.0
  0
LINE
  5
12502
330
1F
100
AcDbEntity
  8
TEXT1
100
AcDbLine
 10
5.137983824223272
 20
24.50352996459889
 30
0.0
 11
5.137983824223272
 21
24.28477996459889
 31
0.0
  0
TEXT
  5
1250F
330
1F
100
AcDbEntity
  8
TEXT1
100
AcDbText
 10
1.553465767299634
 20
38.18009155499849
 30
0.0
 40
0.32
  1
RIGHT CABLE MOUNT
  7
ROMANS
 11
1.553465767299634
 21
38.34009155499849
 31
0.0
100
AcDbText
 73
     2
  0
TEXT
  5
12510
330
1F
100
AcDbEntity
  8
TEXT1
100
AcDbText
 10
1.553465767299634
 20
38.85509155499849
 30
0.0
 40
0.32
  1
RESET
  7
ROMANS
 11
1.553465767299634
 21
39.01509155499849
 31
0.0
100
AcDbText
 73
     2
  0
LINE
  5
1251C
102
{ACAD_REACTORS
330
124B9
102
}
330
1F
100
AcDbEntity
  8
TEXT1
100
AcDbLine
 10
16.47715722135841
 20
24.33580923665501
 30
0.0
 11
16.85215722135841
 21
24.33580923665501
 31
0.0
  0
LINE
  5
1251D
102
{ACAD_REACTORS
330
124B9
102
}
330
1F
100
AcDbEntity
  8
TEXT1
100
AcDbLine
 10
16.66465722135841
 20
24.71080923665501
 30
0.0
 11
16.47715722135841
 21
24.33580923665501
 31
0.0
  0
LINE
  5
1251E
102
{ACAD_REACTORS
330
124B9
102
}
330
1F
100
AcDbEntity
  8
TEXT1
100
AcDbLine
 10
16.66465722135841
 20
24.71080923665501
 30
0.0
 11
16.85215722135841
 21
24.33580923665501
 31
0.0
  0
TEXT
  5
12526
330
1F
100
AcDbEntity
  8
TEXT1
100
AcDbText
 10
24.48140244950279
 20
36.38009155499847
 30
0.0
 40
0.32
  1
PUSH BUTTON ON EMERGENCY STOP DEVICES AND ALL NORMAL STOP
  7
ROMANS
 11
24.48140244950279
 21
36.54009155499847
 31
0.0
100
AcDbText
 73
     2
  0
TEXT
  5
12527
330
1F
100
AcDbEntity
  8
TEXT1
100
AcDbText
 10
24.48140244950279
 20
35.18009155499846
 30
0.0
 40
0.32
  1
RESET NOR MUSHROOM HEAD RESET VERSIONS. ENCLOSURE COLOR
  7
ROMANS
 11
24.48140244950279
 21
35.34009155499846
 31
0.0
100
AcDbText
 73
     2
  0
TEXT
  5
12528
330
1F
100
AcDbEntity
  8
TEXT1
100
AcDbText
 10
24.48140244950279
 20
34.58009155499847
 30
0.0
 40
0.32
  1
CHANGES FROM BEIGE TO AN OLIVE-BLUE COLOR
  7
ROMANS
 11
24.48140244950279
 21
34.74009155499847
 31
0.0
100
AcDbText
 73
     2
  0
TEXT
  5
12529
330
1F
100
AcDbEntity
  8
TEXT1
100
AcDbText
 10
24.48140244950279
 20
35.78009155499847
 30
0.0
 40
0.32
  1
DEVICES). NOT AVAILABLE ON KEY OPERATED EMERGENCY STOP
  7
ROMANS
 11
24.48140244950279
 21
35.94009155499847
 31
0.0
100
AcDbText
 73
     2
  0
TEXT
  5
1252A
330
1F
100
AcDbEntity
  8
TEXT1
100
AcDbText
 10
24.48140244950279
 20
36.98009155499846
 30
0.0
 40
0.32
  1
CORROSION RESISTANT (ONLY AVAILABLE ON DEVICES WITH BOOTED 
  7
ROMANS
 11
24.48140244950279
 21
37.14009155499846
 31
0.0
100
AcDbText
 73
     2
  0
LINE
  5
1252C
330
1F
100
AcDbEntity
  8
0
100
AcDbLine
 10
58.73140244950281
 20
38.64009155499848
 30
0.0
 11
24.2314024495028
 21
38.64009155499847
 31
0.0
  0
LINE
  5
1252D
330
1F
100
AcDbEntity
  8
0
100
AcDbLine
 10
58.7314024495028
 20
32.64009155499849
 30
0.0
 11
24.23140244950279
 21
32.64009155499847
 31
0.0
  0
LINE
  5
1252E
330
1F
100
AcDbEntity
  8
0
100
AcDbLine
 10
58.7314024495028
 20
29.64009155499848
 30
0.0
 11
24.23140244950279
 21
29.64009155499847
 31
0.0
  0
LINE
  5
12531
330
1F
100
AcDbEntity
  8
0
100
AcDbLine
 10
24.23140244950279
 20
24.24009155499847
 30
0.0
 11
24.2314024495028
 21
39.39009155499848
 31
0.0
  0
TEXT
  5
12532
330
1F
100
AcDbEntity
  8
TEXT1
100
AcDbText
 10
24.48140244950279
 20
28.58009155499846
 30
0.0
 40
0.32
  1
N.C. + N.C. CONTACT 
  7
ROMANS
 11
24.48140244950279
 21
28.74009155499846
 31
0.0
100
AcDbText
 73
     2
  0
TEXT
  5
12534
330
1F
100
AcDbEntity
  8
TEXT1
100
AcDbText
 10
24.48140244950279
 20
31.88009155499846
 30
0.0
 40
0.32
  1
LOW TEMPERATURE
  7
ROMANS
 11
24.48140244950279
 21
32.04009155499846
 31
0.0
100
AcDbText
 73
     2
  0
TEXT
  5
12535
330
1F
100
AcDbEntity
  8
TEXT1
100
AcDbText
 10
24.94477703641309
 20
39.60509155499848
 30
0.0
 40
0.32
  1
OPTIONS FOR XY2CE
  7
ROMANS
 11
24.94477703641309
 21
39.76509155499847
 31
0.0
100
AcDbText
 73
     2
  0
TEXT
  5
12536
330
1F
100
AcDbEntity
  8
TEXT1
100
AcDbText
 10
24.39397292614184
 20
38.85509155499848
 30
0.0
 40
0.32
  1
DESCRIPTION
  7
ROMANS
 11
24.39397292614184
 21
39.01509155499848
 31
0.0
100
AcDbText
 73
     2
  0
TEXT
  5
12537
330
1F
100
AcDbEntity
  8
TEXT1
100
AcDbText
 10
42.45268323724715
 20
35.4773165761308
 30
0.0
 40
0.32
  1
EXAMPLE: XY2CE1A250 CHANGES TO XY2C1C250TK
  7
ROMANS
 11
42.45268323724715
 21
35.6373165761308
 31
0.0
100
AcDbText
 73
     2
  0
TEXT
  5
12538
330
1F
100
AcDbEntity
  8
TEXT1
100
AcDbText
 10
42.48140244950279
 20
28.88009155499847
 30
0.0
 40
0.32
  1
-CHANGE THE 9TH DIGIT TO 7 (FOR EMERGENCY STOP ONLY)
  7
ROMANS
 11
42.48140244950279
 21
29.04009155499847
 31
0.0
100
AcDbText
 73
     2
  0
LINE
  5
12539
330
1F
100
AcDbEntity
  8
0
100
AcDbLine
 10
42.23140244950279
 20
24.24009155499847
 30
0.0
 11
42.23140244950281
 21
39.39009155499848
 31
0.0
  0
TEXT
  5
1253A
330
1F
100
AcDbEntity
  8
TEXT1
100
AcDbText
 10
42.48140244950279
 20
31.88009155499848
 30
0.0
 40
0.32
  1
NON PILOT LIGHT VERSION
  7
ROMANS
 11
42.48140244950279
 21
32.04009155499848
 31
0.0
100
AcDbText
 73
     2
  0
TEXT
  5
1253B
330
1F
100
AcDbEntity
  8
TEXT1
100
AcDbText
 10
42.48140244950279
 20
31.28009155499848
 30
0.0
 40
0.32
  1
CHANGE THE A TO C EX:XY2CE1A150 CHANGES TO XY2CE1C150
  7
ROMANS
 11
42.48140244950279
 21
31.44009155499848
 31
0.0
100
AcDbText
 73
     2
  0
TEXT
  5
1253C
330
1F
100
AcDbEntity
  8
TEXT1
100
AcDbText
 10
42.48140244950279
 20
28.28009155499847
 30
0.0
 40
0.32
  1
EX: XY2CE1A150 CHANGES TO XY2CE1A170
  7
ROMANS
 11
42.48140244950279
 21
28.44009155499847
 31
0.0
100
AcDbText
 73
     2
  0
TEXT
  5
12542
330
1F
100
AcDbEntity
  8
TEXT1
100
AcDbText
 10
42.39397292614184
 20
38.85509155499848
 30
0.0
 40
0.32
  1
DESIGNATOR
  7
ROMANS
 11
42.39397292614184
 21
39.01509155499848
 31
0.0
100
AcDbText
 73
     2
  0
TEXT
  5
12543
330
1F
100
AcDbEntity
  8
TEXT1
100
AcDbText
 10
42.45268323724715
 20
37.8773165761308
 30
0.0
 40
0.32
  1
PROVIDES A SILICONE BOOT AND SPECIAL FINISH
  7
ROMANS
 11
42.45268323724715
 21
38.03731657613079
 31
0.0
100
AcDbText
 73
     2
  0
TEXT
  5
12544
330
1F
100
AcDbEntity
  8
TEXT1
100
AcDbText
 10
42.45268323724715
 20
36.07731657613079
 30
0.0
 40
0.32
  1
2. CHANGE A TO C
  7
ROMANS
 11
42.45268323724715
 21
36.23731657613079
 31
0.0
100
AcDbText
 73
     2
  0
TEXT
  5
12545
330
1F
100
AcDbEntity
  8
TEXT1
100
AcDbText
 10
42.45268323724715
 20
36.6773165761308
 30
0.0
 40
0.32
  1
1. ADD SUFFIX TK TO THE PART NUMBER
  7
ROMANS
 11
42.45268323724715
 21
36.8373165761308
 31
0.0
100
AcDbText
 73
     2
  0
LINE
  5
12546
330
1F
100
AcDbEntity
  8
0
100
AcDbLine
 10
58.73140244950281
 20
24.24009155499848
 30
0.0
 11
58.7314024495028
 21
39.39009155499849
 31
0.0
  0
TEXT
  5
12547
330
1F
100
AcDbEntity
  8
TEXT1
100
AcDbText
 10
1.111164706237644
 20
5.248374219993874
 30
0.0
 40
0.3200000000000001
  1
CHOICES FOR USE WITH PREVENTA SAFETY RELAYS.
  7
ROMANS
 11
1.111164706237644
 21
5.408374219993874
 31
0.0
100
AcDbText
 73
     2
  0
TEXT
  5
12548
330
1F
100
AcDbEntity
  8
TEXT1
100
AcDbText
 10
1.111164706237641
 20
5.848374219993874
 30
0.0
 40
0.3200000000000001
  1
SUITABLE FOR CATEGORY B, 1 OR 2 SAFETY CONTROL SYSTEMS. XY2 CABLE PULL SWITCHES ARE IDEAL
  7
ROMANS
 11
1.111164706237641
 21
6.008374219993874
 31
0.0
100
AcDbText
 73
     2
  0
TEXT
  5
12549
330
1F
100
AcDbEntity
  8
TEXT1
100
AcDbText
 10
1.111164706237644
 20
6.448374219993874
 30
0.0
 40
0.3200000000000001
  1
MEET THE REQUIREMENTS FOR REDUNDANCY. CABLE PULL SWITCHES WITH 1 N.O. AND 1 N.C. CONTACT WOULD BE
  7
ROMANS
 11
1.111164706237644
 21
6.608374219993874
 31
0.0
100
AcDbText
 73
     2
  0
TEXT
  5
1254A
330
1F
100
AcDbEntity
  8
TEXT1
100
AcDbText
 10
1.111164706237644
 20
7.048374219993873
 30
0.0
 40
0.3200000000000001
  1
DEVICES WITH 1 N.O. AND 1 N.C. CONTACT WILL NOT ALLOW THE SYSTEM TO MEET CATEGORY 3 OR 4 AS IT WOULD NOT
  7
ROMANS
 11
1.111164706237644
 21
7.208374219993873
 31
0.0
100
AcDbText
 73
     2
  0
TEXT
  5
1254B
330
1F
100
AcDbEntity
  8
TEXT1
100
AcDbText
 10
1.111164706237644
 20
7.648374219993873
 30
0.0
 40
0.3200000000000001
  1
MUST USE EMERGENCY STOP DEVICES WITH 2 N.C. CONTACTS IN CATEGORY 3 OR 4 SAFETY CONTROL SYSTEMS. USING
  7
ROMANS
 11
1.111164706237644
 21
7.808374219993873
 31
0.0
100
AcDbText
 73
     2
  0
TEXT
  5
1254C
330
1F
100
AcDbEntity
  8
TEXT1
100
AcDbText
 10
1.111164706237648
 20
8.248374219993872
 30
0.0
 40
0.3200000000000001
  1
TO CONFORM WITH EN418 OF THE EUROPEAN UNION MACHINERY SAFETY DIRECTIVE 89/392/EEC SAFETY CIRCUITS
  7
ROMANS
 11
1.111164706237648
 21
8.408374219993872
 31
0.0
100
AcDbText
 73
     2
  0
TEXT
  5
1254D
330
1F
100
AcDbEntity
  8
TEXT1
100
AcDbText
 10
1.111164706237644
 20
8.848374219993871
 30
0.0
 40
0.3200000000000001
  1
FOR SIGNALING-NOT FOR SAFETY FUNCTIONS.
  7
ROMANS
 11
1.111164706237644
 21
9.008374219993871
 31
0.0
100
AcDbText
 73
     2
  0
TEXT
  5
1254E
330
1F
100
AcDbEntity
  8
TEXT1
100
AcDbText
 10
1.111164706237644
 20
9.448374219993871
 30
0.0
 40
0.3200000000000001
  1
ONLY THE N.C. CONTACTS SHOULD BE USED IN THE SAFETY CONTROL CIRCUIT. THE N.O. CONTACTS ARE PROVIDED SOLELY
  7
ROMANS
 11
1.111164706237644
 21
9.608374219993871
 31
0.0
100
AcDbText
 73
     2
  0
TEXT
  5
1254F
330
1F
100
AcDbEntity
  8
TEXT1
100
AcDbText
 10
1.111164706237641
 20
10.04837421999387
 30
0.0
 40
0.3200000000000001
  1
THE N.O. CONTACTS WILL CLOSE AFTER THE N.C. CONTACTS OPEN. THEY DO NOT CHANGE STATE SIMULTANEOUSLY
  7
ROMANS
 11
1.111164706237641
 21
10.20837421999387
 31
0.0
100
AcDbText
 73
     2
  0
TEXT
  5
12550
330
1F
100
AcDbEntity
  8
TEXT1
100
AcDbText
 10
1.111164706237641
 20
10.64837421999387
 30
0.0
 40
0.3200000000000001
  1
AVAILABLE ONLY WITH SLOW BREAK CONTACTS.
  7
ROMANS
 11
1.111164706237641
 21
10.80837421999387
 31
0.0
100
AcDbText
 73
     2
  0
TEXT
  5
12551
330
1F
100
AcDbEntity
  8
TEXT1
100
AcDbText
 10
1.111164706237644
 20
11.24837421999387
 30
0.0
 40
0.3200000000000001
  1
EMERGENCY STOP (LATCHING CONTACT-RESET BY PUSH BUTTON-DIRECT  [POSITIVE] OPENING CONTACTS)
  7
ROMANS
 11
1.111164706237644
 21
11.40837421999387
 31
0.0
100
AcDbText
 73
     2
  0
TEXT
  5
12552
330
1F
100
AcDbEntity
  8
TEXT1
100
AcDbText
 10
1.111164706237644
 20
11.84837421999387
 30
0.0
 40
0.3200000000000001
  1
NOTES:
  7
ROMANS
 11
1.111164706237644
 21
12.00837421999387
 31
0.0
100
AcDbText
 73
     2
  0
TEXT
  5
12553
330
1F
100
AcDbEntity
  8
TEXT1
100
AcDbText
 10
1.553465767299634
 20
39.60509155499849
 30
0.0
 40
0.32
  1
PILOT LIGHT ONLY AVAILABLE ON 2 N.O. - 2 N.C. DEVICES
  7
ROMANS
 11
1.553465767299634
 21
39.76509155499849
 31
0.0
100
AcDbText
 73
     2
  0
LINE
  5
1255A
330
1F
100
AcDbEntity
  8
0
100
AcDbLine
 10
21.62354010497322
 20
38.0400915549985
 30
0.0
 11
1.248540104973223
 21
38.04009155499848
 31
0.0
  0
TEXT
  5
1255C
330
1F
100
AcDbEntity
  8
TEXT1
100
AcDbText
 10
1.553465767299634
 20
37.58009155499848
 30
0.0
 40
0.32
  1
STANDARD PUSH BUTTON
  7
ROMANS
 11
1.553465767299634
 21
37.74009155499848
 31
0.0
100
AcDbText
 73
     2
  0
LINE
  5
1255D
330
1F
100
AcDbEntity
  8
0
100
AcDbLine
 10
21.62354010497322
 20
37.44009155499849
 30
0.0
 11
1.248540104973223
 21
37.44009155499849
 31
0.0
  0
TEXT
  5
1255E
330
1F
100
AcDbEntity
  8
TEXT1
100
AcDbText
 10
1.553465767299634
 20
36.98009155499849
 30
0.0
 40
0.32
  1
BOOTED PUSH BUTTON
  7
ROMANS
 11
1.553465767299634
 21
37.14009155499849
 31
0.0
100
AcDbText
 73
     2
  0
LINE
  5
1255F
330
1F
100
AcDbEntity
  8
0
100
AcDbLine
 10
21.62354010497322
 20
36.84009155499849
 30
0.0
 11
1.248540104973226
 21
36.84009155499848
 31
0.0
  0
TEXT
  5
12560
330
1F
100
AcDbEntity
  8
TEXT1
100
AcDbText
 10
1.553465767299634
 20
36.38009155499848
 30
0.0
 40
0.32
  1
STANDARD PUSH BUTTON
  7
ROMANS
 11
1.553465767299634
 21
36.54009155499848
 31
0.0
100
AcDbText
 73
     2
  0
LINE
  5
12561
330
1F
100
AcDbEntity
  8
0
100
AcDbLine
 10
21.62354010497322
 20
36.24009155499848
 30
0.0
 11
1.248540104973226
 21
36.24009155499848
 31
0.0
  0
TEXT
  5
12562
330
1F
100
AcDbEntity
  8
TEXT1
100
AcDbText
 10
1.553465767299638
 20
35.78009155499849
 30
0.0
 40
0.32
  1
STANDARD PUSH BUTTON
  7
ROMANS
 11
1.553465767299638
 21
35.94009155499849
 31
0.0
100
AcDbText
 73
     2
  0
LINE
  5
12563
330
1F
100
AcDbEntity
  8
0
100
AcDbLine
 10
21.62354010497322
 20
35.64009155499849
 30
0.0
 11
1.248540104973226
 21
35.64009155499848
 31
0.0
  0
LINE
  5
12565
330
1F
100
AcDbEntity
  8
0
100
AcDbLine
 10
21.62354010497322
 20
35.04009155499848
 30
0.0
 11
1.24854010497323
 21
35.04009155499848
 31
0.0
  0
LINE
  5
12567
330
1F
100
AcDbEntity
  8
0
100
AcDbLine
 10
21.62354010497322
 20
34.44009155499848
 30
0.0
 11
1.24854010497323
 21
34.44009155499847
 31
0.0
  0
LINE
  5
12569
330
1F
100
AcDbEntity
  8
0
100
AcDbLine
 10
21.62354010497322
 20
33.84009155499848
 30
0.0
 11
1.248540104973223
 21
33.84009155499848
 31
0.0
  0
TEXT
  5
1256A
330
1F
100
AcDbEntity
  8
TEXT1
100
AcDbText
 10
1.553465767299634
 20
33.98009155499848
 30
0.0
 40
0.32
  1
LEFT CABLE MOUNT
  7
ROMANS
 11
1.553465767299634
 21
34.14009155499847
 31
0.0
100
AcDbText
 73
     2
  0
LINE
  5
1256B
330
1F
100
AcDbEntity
  8
0
100
AcDbLine
 10
21.62354010497322
 20
33.24009155499848
 30
0.0
 11
1.248540104973223
 21
33.24009155499847
 31
0.0
  0
TEXT
  5
1256C
330
1F
100
AcDbEntity
  8
TEXT1
100
AcDbText
 10
1.553465767299634
 20
35.18009155499848
 30
0.0
 40
0.32
  1
BOOTED PUSH BUTTON
  7
ROMANS
 11
1.553465767299634
 21
35.34009155499848
 31
0.0
100
AcDbText
 73
     2
  0
TEXT
  5
1256D
330
1F
100
AcDbEntity
  8
TEXT1
100
AcDbText
 10
1.553465767299634
 20
34.58009155499849
 30
0.0
 40
0.32
  1
BOOTED PUSH BUTTON
  7
ROMANS
 11
1.553465767299634
 21
34.74009155499848
 31
0.0
100
AcDbText
 73
     2
  0
HATCH
  5
1256E
330
1F
100
AcDbEntity
  8
TEXT1
100
AcDbHatch
 10
0.0
 20
0.0
 30
0.0
210
0.0
220
0.0
230
1.0
  2
SOLID
 70
     1
 71
     1
 91
        1
 92
        1
 93
        1
 72
     2
 10
7.574894193391912
 20
37.12055667044433
 40
0.140625
 50
0.0
 51
360.0
 73
     1
 97
        1
330
1256F
 75
     0
 76
     1
 98
        1
 10
-20.36234171384978
 20
26.26725634287625
  0
CIRCLE
  5
1256F
102
{ACAD_REACTORS
330
1256E
102
}
330
1F
100
AcDbEntity
  8
TEXT1
100
AcDbCircle
 10
7.574894193391912
 20
37.12055667044433
 30
0.0
 40
0.140625
  0
CIRCLE
  5
12570
102
{ACAD_REACTORS
330
12571
102
}
330
1F
100
AcDbEntity
  8
TEXT1
100
AcDbCircle
 10
7.574894193391912
 20
35.32055667044433
 30
0.0
 40
0.140625
  0
HATCH
  5
12571
330
1F
100
AcDbEntity
  8
TEXT1
100
AcDbHatch
 10
0.0
 20
0.0
 30
0.0
210
0.0
220
0.0
230
1.0
  2
SOLID
 70
     1
 71
     1
 91
        1
 92
        1
 93
        1
 72
     2
 10
7.574894193391912
 20
35.32055667044433
 40
0.140625
 50
0.0
 51
360.0
 73
     1
 97
        1
330
12570
 75
     0
 76
     1
 98
        1
 10
-20.36234171384978
 20
24.46725634287624
  0
CIRCLE
  5
12572
102
{ACAD_REACTORS
330
12573
102
}
330
1F
100
AcDbEntity
  8
TEXT1
100
AcDbCircle
 10
7.574894193391912
 20
34.72055667044432
 30
0.0
 40
0.140625
  0
HATCH
  5
12573
330
1F
100
AcDbEntity
  8
TEXT1
100
AcDbHatch
 10
0.0
 20
0.0
 30
0.0
210
0.0
220
0.0
230
1.0
  2
SOLID
 70
     1
 71
     1
 91
        1
 92
        1
 93
        1
 72
     2
 10
7.574894193391912
 20
34.72055667044432
 40
0.140625
 50
0.0
 51
360.0
 73
     1
 97
        1
330
12572
 75
     0
 76
     1
 98
        1
 10
-20.36234171384978
 20
23.86725634287624
  0
LINE
  5
12574
330
1F
100
AcDbEntity
  8
0
100
AcDbLine
 10
8.248540104973223
 20
30.24009155499847
 30
0.0
 11
8.248540104973223
 21
33.84009155499848
 31
0.0
  0
LINE
  5
12575
330
1F
100
AcDbEntity
  8
0
100
AcDbLine
 10
8.248540104973223
 20
34.44009155499848
 30
0.0
 11
8.248540104973223
 21
39.39009155499849
 31
0.0
  0
TEXT
  5
12576
330
1F
100
AcDbEntity
  8
TEXT1
100
AcDbText
 10
8.553465767299634
 20
38.85509155499849
 30
0.0
 40
0.32
  1
CONTACT
  7
ROMANS
 11
8.553465767299634
 21
39.01509155499849
 31
0.0
100
AcDbText
 73
     2
  0
TEXT
  5
12577
330
1F
100
AcDbEntity
  8
TEXT1
100
AcDbText
 10
8.553465767299634
 20
37.58009155499848
 30
0.0
 40
0.32
  1
N.O. + N.C.
  7
ROMANS
 11
8.553465767299634
 21
37.74009155499848
 31
0.0
100
AcDbText
 73
     2
  0
TEXT
  5
12578
330
1F
100
AcDbEntity
  8
TEXT1
100
AcDbText
 10
8.553465767299634
 20
36.98009155499849
 30
0.0
 40
0.32
  1
N.O. + N.C.
  7
ROMANS
 11
8.553465767299634
 21
37.14009155499849
 31
0.0
100
AcDbText
 73
     2
  0
TEXT
  5
12579
330
1F
100
AcDbEntity
  8
TEXT1
100
AcDbText
 10
8.553465767299634
 20
36.38009155499848
 30
0.0
 40
0.32
  1
2 N.O. + 2 N.C.
  7
ROMANS
 11
8.553465767299634
 21
36.54009155499848
 31
0.0
100
AcDbText
 73
     2
  0
TEXT
  5
1257D
330
1F
100
AcDbEntity
  8
TEXT1
100
AcDbText
 10
8.553465767299634
 20
35.78009155499849
 30
0.0
 40
0.32
  1
2 N.O. + 2 N.C.
  7
ROMANS
 11
8.553465767299634
 21
35.94009155499849
 31
0.0
100
AcDbText
 73
     2
  0
TEXT
  5
1257E
330
1F
100
AcDbEntity
  8
TEXT1
100
AcDbText
 10
8.553465767299634
 20
35.18009155499848
 30
0.0
 40
0.32
  1
2 N.O. + 2 N.C.
  7
ROMANS
 11
8.553465767299634
 21
35.34009155499848
 31
0.0
100
AcDbText
 73
     2
  0
TEXT
  5
1257F
330
1F
100
AcDbEntity
  8
TEXT1
100
AcDbText
 10
8.553465767299634
 20
34.58009155499849
 30
0.0
 40
0.32
  1
2 N.O. + 2 N.C.
  7
ROMANS
 11
8.553465767299634
 21
34.74009155499848
 31
0.0
100
AcDbText
 73
     2
  0
LINE
  5
12582
330
1F
100
AcDbEntity
  8
0
100
AcDbLine
 10
13.24854010497322
 20
34.44009155499848
 30
0.0
 11
13.24854010497322
 21
39.39009155499849
 31
0.0
  0
LINE
  5
12583
330
1F
100
AcDbEntity
  8
0
100
AcDbLine
 10
13.24854010497322
 20
30.24009155499847
 30
0.0
 11
13.24854010497322
 21
33.84009155499848
 31
0.0
  0
TEXT
  5
12584
330
1F
100
AcDbEntity
  8
TEXT1
100
AcDbText
 10
13.55346576729963
 20
37.5800915549985
 30
0.0
 40
0.32
  1
NO
  7
ROMANS
 11
13.55346576729963
 21
37.7400915549985
 31
0.0
100
AcDbText
 73
     2
  0
TEXT
  5
12585
330
1F
100
AcDbEntity
  8
TEXT1
100
AcDbText
 10
13.55346576729963
 20
38.85509155499849
 30
0.0
 40
0.32
  1
PILOT LIGHT
  7
ROMANS
 11
13.55346576729963
 21
39.01509155499849
 31
0.0
100
AcDbText
 73
     2
  0
TEXT
  5
12586
330
1F
100
AcDbEntity
  8
TEXT1
100
AcDbText
 10
13.55346576729963
 20
36.98009155499849
 30
0.0
 40
0.32
  1
NO
  7
ROMANS
 11
13.55346576729963
 21
37.14009155499849
 31
0.0
100
AcDbText
 73
     2
  0
TEXT
  5
12587
330
1F
100
AcDbEntity
  8
TEXT1
100
AcDbText
 10
13.55346576729963
 20
36.3800915549985
 30
0.0
 40
0.32
  1
NO
  7
ROMANS
 11
13.55346576729963
 21
36.54009155499849
 31
0.0
100
AcDbText
 73
     2
  0
TEXT
  5
12588
330
1F
100
AcDbEntity
  8
TEXT1
100
AcDbText
 10
13.55346576729963
 20
35.78009155499849
 30
0.0
 40
0.32
  1
YES
  7
ROMANS
 11
13.55346576729963
 21
35.94009155499849
 31
0.0
100
AcDbText
 73
     2
  0
TEXT
  5
12589
330
1F
100
AcDbEntity
  8
TEXT1
100
AcDbText
 10
13.55346576729963
 20
34.58009155499849
 30
0.0
 40
0.32
  1
YES
  7
ROMANS
 11
13.55346576729963
 21
34.74009155499848
 31
0.0
100
AcDbText
 73
     2
  0
TEXT
  5
1258A
330
1F
100
AcDbEntity
  8
TEXT1
100
AcDbText
 10
13.55346576729963
 20
35.1800915549985
 30
0.0
 40
0.32
  1
NO
  7
ROMANS
 11
13.55346576729963
 21
35.34009155499849
 31
0.0
100
AcDbText
 73
     2
  0
LINE
  5
1258E
330
1F
100
AcDbEntity
  8
0
100
AcDbLine
 10
16.74854010497322
 20
34.44009155499848
 30
0.0
 11
16.74854010497322
 21
39.39009155499849
 31
0.0
  0
LINE
  5
1258F
330
1F
100
AcDbEntity
  8
0
100
AcDbLine
 10
16.74854010497322
 20
30.24009155499847
 30
0.0
 11
16.74854010497322
 21
33.84009155499848
 31
0.0
  0
TEXT
  5
12590
330
1F
100
AcDbEntity
  8
TEXT1
100
AcDbText
 10
17.05346576729963
 20
38.85509155499849
 30
0.0
 40
0.32
  1
CATALOG NUMBER
  7
ROMANS
 11
17.05346576729963
 21
39.01509155499849
 31
0.0
100
AcDbText
 73
     2
  0
TEXT
  5
12591
330
1F
100
AcDbEntity
  8
TEXT1
100
AcDbText
 10
17.05346576729963
 20
37.5800915549985
 30
0.0
 40
0.32
  1
XY2CE1A150
  7
ROMANS
 11
17.05346576729963
 21
37.7400915549985
 31
0.0
100
AcDbText
 73
     2
  0
LINE
  5
12595
330
1F
100
AcDbEntity
  8
0
100
AcDbLine
 10
21.62354010497322
 20
39.39009155499849
 30
0.0
 11
21.62354010497322
 21
30.24009155499847
 31
0.0
  0
TEXT
  5
12596
330
1F
100
AcDbEntity
  8
TEXT1
100
AcDbText
 10
17.05346576729963
 20
36.98009155499849
 30
0.0
 40
0.32
  1
XY2CE1A250
  7
ROMANS
 11
17.05346576729963
 21
37.14009155499849
 31
0.0
100
AcDbText
 73
     2
  0
TEXT
  5
12597
330
1F
100
AcDbEntity
  8
TEXT1
100
AcDbText
 10
17.05346576729963
 20
36.3800915549985
 30
0.0
 40
0.32
  1
XY2CE1A190
  7
ROMANS
 11
17.05346576729963
 21
36.54009155499849
 31
0.0
100
AcDbText
 73
     2
  0
TEXT
  5
12598
330
1F
100
AcDbEntity
  8
TEXT1
100
AcDbText
 10
17.05346576729963
 20
35.78009155499849
 30
0.0
 40
0.32
  1
XY2CE1A196
  7
ROMANS
 11
17.05346576729963
 21
35.94009155499849
 31
0.0
100
AcDbText
 73
     2
  0
TEXT
  5
12599
330
1F
100
AcDbEntity
  8
TEXT1
100
AcDbText
 10
17.05346576729963
 20
35.1800915549985
 30
0.0
 40
0.32
  1
XY2CE1A290
  7
ROMANS
 11
17.05346576729963
 21
35.34009155499849
 31
0.0
100
AcDbText
 73
     2
  0
TEXT
  5
1259A
330
1F
100
AcDbEntity
  8
TEXT1
100
AcDbText
 10
17.05346576729963
 20
34.58009155499849
 30
0.0
 40
0.32
  1
XY2CE1A296
  7
ROMANS
 11
17.05346576729963
 21
34.74009155499848
 31
0.0
100
AcDbText
 73
     2
  0
LINE
  5
1259C
102
{ACAD_REACTORS
330
125A4
102
}
330
1F
100
AcDbEntity
  8
TEXT1
100
AcDbLine
 10
14.55497968391563
 20
35.79848637619423
 30
0.0
 11
14.83622968391563
 21
35.79848637619423
 31
0.0
  0
LINE
  5
1259D
102
{ACAD_REACTORS
330
125A4
102
}
330
1F
100
AcDbEntity
  8
TEXT1
100
AcDbLine
 10
14.83636304381917
 20
36.07973637619423
 30
0.0
 11
14.83622968391563
 21
35.79848637619423
 31
0.0
  0
LINE
  5
1259E
102
{ACAD_REACTORS
330
125A4
102
}
330
1F
100
AcDbEntity
  8
TEXT1
100
AcDbLine
 10
14.55443164047522
 20
36.07973637619423
 30
0.0
 11
14.55497968391563
 21
35.79848637619423
 31
0.0
  0
LINE
  5
1259F
102
{ACAD_REACTORS
330
125A4
102
}
330
1F
100
AcDbEntity
  8
TEXT1
100
AcDbLine
 10
14.55511304381917
 20
36.07973637619423
 30
0.0
 11
14.83636304381917
 21
36.07973637619423
 31
0.0
  0
HATCH
  5
125A4
330
1F
100
AcDbEntity
  8
TEXT1
100
AcDbHatch
 10
0.0
 20
0.0
 30
0.0
210
0.0
220
0.0
230
1.0
  2
SOLID
 70
     1
 71
     1
 91
        1
 92
        7
 72
     0
 73
     1
 93
        4
 10
14.83636304381917
 20
36.07973637619422
 10
14.55443164047522
 20
36.07973637619422
 10
14.55497968391563
 20
35.79848637619423
 10
14.83622968391563
 20
35.79848637619423
 97
        4
330
1259F
330
1259E
330
1259C
330
1259D
 75
     0
 76
     1
 47
0.0038593276217312
 98
        1
 10
14.72822504159813
 20
35.9115413294725
  0
HATCH
  5
125A5
330
1F
100
AcDbEntity
  8
TEXT1
100
AcDbHatch
 10
0.0
 20
0.0
 30
0.0
210
0.0
220
0.0
230
1.0
  2
SOLID
 70
     1
 71
     1
 91
        1
 92
        7
 72
     0
 73
     1
 93
        4
 10
14.83636304381917
 20
34.87973637619423
 10
14.55443164047523
 20
34.87973637619423
 10
14.55497968391563
 20
34.59848637619422
 10
14.83622968391563
 20
34.59848637619423
 97
        4
330
125A6
330
125A8
330
125A7
330
125A9
 75
     0
 76
     1
 47
0.0038593276217312
 98
        1
 10
14.72822504159813
 20
34.71154132947249
  0
LINE
  5
125A6
102
{ACAD_REACTORS
330
125A5
102
}
330
1F
100
AcDbEntity
  8
TEXT1
100
AcDbLine
 10
14.55511304381917
 20
34.87973637619423
 30
0.0
 11
14.83636304381917
 21
34.87973637619423
 31
0.0
  0
LINE
  5
125A7
102
{ACAD_REACTORS
330
125A5
102
}
330
1F
100
AcDbEntity
  8
TEXT1
100
AcDbLine
 10
14.55497968391563
 20
34.59848637619423
 30
0.0
 11
14.83622968391563
 21
34.59848637619423
 31
0.0
  0
LINE
  5
125A8
102
{ACAD_REACTORS
330
125A5
102
}
330
1F
100
AcDbEntity
  8
TEXT1
100
AcDbLine
 10
14.55443164047522
 20
34.87973637619423
 30
0.0
 11
14.55497968391563
 21
34.59848637619423
 31
0.0
  0
LINE
  5
125A9
102
{ACAD_REACTORS
330
125A5
102
}
330
1F
100
AcDbEntity
  8
TEXT1
100
AcDbLine
 10
14.83636304381917
 20
34.87973637619423
 30
0.0
 11
14.83622968391563
 21
34.59848637619423
 31
0.0
  0
TEXT
  5
125AA
330
1F
100
AcDbEntity
  8
TEXT1
100
AcDbText
 10
1.553465767299634
 20
33.38009155499849
 30
0.0
 40
0.32
  1
STANDARD PUSH BUTTON
  7
ROMANS
 11
1.553465767299634
 21
33.54009155499848
 31
0.0
100
AcDbText
 73
     2
  0
TEXT
  5
125AB
330
1F
100
AcDbEntity
  8
TEXT1
100
AcDbText
 10
1.553465767299634
 20
32.78009155499848
 30
0.0
 40
0.32
  1
BOOTED PUSH BUTTON
  7
ROMANS
 11
1.553465767299634
 21
32.94009155499847
 31
0.0
100
AcDbText
 73
     2
  0
TEXT
  5
125AC
330
1F
100
AcDbEntity
  8
TEXT1
100
AcDbText
 10
1.553465767299634
 20
32.18009155499848
 30
0.0
 40
0.32
  1
STANDARD PUSH BUTTON
  7
ROMANS
 11
1.553465767299634
 21
32.34009155499847
 31
0.0
100
AcDbText
 73
     2
  0
TEXT
  5
125AD
330
1F
100
AcDbEntity
  8
TEXT1
100
AcDbText
 10
1.553465767299638
 20
31.58009155499847
 30
0.0
 40
0.32
  1
STANDARD PUSH BUTTON
  7
ROMANS
 11
1.553465767299638
 21
31.74009155499847
 31
0.0
100
AcDbText
 73
     2
  0
TEXT
  5
125AE
330
1F
100
AcDbEntity
  8
TEXT1
100
AcDbText
 10
1.553465767299634
 20
30.98009155499847
 30
0.0
 40
0.32
  1
BOOTED PUSH BUTTON
  7
ROMANS
 11
1.553465767299634
 21
31.14009155499847
 31
0.0
100
AcDbText
 73
     2
  0
TEXT
  5
125AF
330
1F
100
AcDbEntity
  8
TEXT1
100
AcDbText
 10
1.553465767299634
 20
30.38009155499846
 30
0.0
 40
0.32
  1
BOOTED PUSH BUTTON
  7
ROMANS
 11
1.553465767299634
 21
30.54009155499846
 31
0.0
100
AcDbText
 73
     2
  0
HATCH
  5
125B0
330
1F
100
AcDbEntity
  8
TEXT1
100
AcDbHatch
 10
0.0
 20
0.0
 30
0.0
210
0.0
220
0.0
230
1.0
  2
SOLID
 70
     1
 71
     1
 91
        1
 92
        1
 93
        1
 72
     2
 10
7.574894193391912
 20
30.52055667044431
 40
0.140625
 50
0.0
 51
360.0
 73
     1
 97
        1
330
125B1
 75
     0
 76
     1
 98
        1
 10
-20.36234171384978
 20
19.66725634287623
  0
CIRCLE
  5
125B1
102
{ACAD_REACTORS
330
125B0
102
}
330
1F
100
AcDbEntity
  8
TEXT1
100
AcDbCircle
 10
7.574894193391912
 20
30.52055667044431
 30
0.0
 40
0.140625
  0
HATCH
  5
125B2
330
1F
100
AcDbEntity
  8
TEXT1
100
AcDbHatch
 10
0.0
 20
0.0
 30
0.0
210
0.0
220
0.0
230
1.0
  2
SOLID
 70
     1
 71
     1
 91
        1
 92
        1
 93
        1
 72
     2
 10
7.574894193391912
 20
31.12055667044431
 40
0.140625
 50
0.0
 51
360.0
 73
     1
 97
        1
330
125B3
 75
     0
 76
     1
 98
        1
 10
-20.36234171384978
 20
20.26725634287623
  0
CIRCLE
  5
125B3
102
{ACAD_REACTORS
330
125B2
102
}
330
1F
100
AcDbEntity
  8
TEXT1
100
AcDbCircle
 10
7.574894193391912
 20
31.12055667044431
 30
0.0
 40
0.140625
  0
CIRCLE
  5
125B4
102
{ACAD_REACTORS
330
125B5
102
}
330
1F
100
AcDbEntity
  8
TEXT1
100
AcDbCircle
 10
7.574894193391912
 20
32.92055667044432
 30
0.0
 40
0.140625
  0
HATCH
  5
125B5
330
1F
100
AcDbEntity
  8
TEXT1
100
AcDbHatch
 10
0.0
 20
0.0
 30
0.0
210
0.0
220
0.0
230
1.0
  2
SOLID
 70
     1
 71
     1
 91
        1
 92
        1
 93
        1
 72
     2
 10
7.574894193391912
 20
32.92055667044432
 40
0.140625
 50
0.0
 51
360.0
 73
     1
 97
        1
330
125B4
 75
     0
 76
     1
 98
        1
 10
-20.36234171384978
 20
22.06725634287624
  0
TEXT
  5
125B6
330
1F
100
AcDbEntity
  8
TEXT1
100
AcDbText
 10
8.553465767299634
 20
33.38009155499849
 30
0.0
 40
0.32
  1
N.O. + N.C.
  7
ROMANS
 11
8.553465767299634
 21
33.54009155499848
 31
0.0
100
AcDbText
 73
     2
  0
TEXT
  5
125B7
330
1F
100
AcDbEntity
  8
TEXT1
100
AcDbText
 10
8.553465767299634
 20
32.78009155499848
 30
0.0
 40
0.32
  1
N.O. + N.C.
  7
ROMANS
 11
8.553465767299634
 21
32.94009155499847
 31
0.0
100
AcDbText
 73
     2
  0
TEXT
  5
125B8
330
1F
100
AcDbEntity
  8
TEXT1
100
AcDbText
 10
8.553465767299634
 20
32.18009155499848
 30
0.0
 40
0.32
  1
2 N.O. + 2 N.C.
  7
ROMANS
 11
8.553465767299634
 21
32.34009155499847
 31
0.0
100
AcDbText
 73
     2
  0
TEXT
  5
125B9
330
1F
100
AcDbEntity
  8
TEXT1
100
AcDbText
 10
8.553465767299634
 20
31.58009155499847
 30
0.0
 40
0.32
  1
2 N.O. + 2 N.C.
  7
ROMANS
 11
8.553465767299634
 21
31.74009155499847
 31
0.0
100
AcDbText
 73
     2
  0
TEXT
  5
125BA
330
1F
100
AcDbEntity
  8
TEXT1
100
AcDbText
 10
8.553465767299634
 20
30.98009155499847
 30
0.0
 40
0.32
  1
2 N.O. + 2 N.C.
  7
ROMANS
 11
8.553465767299634
 21
31.14009155499847
 31
0.0
100
AcDbText
 73
     2
  0
TEXT
  5
125BB
330
1F
100
AcDbEntity
  8
TEXT1
100
AcDbText
 10
8.553465767299634
 20
30.38009155499847
 30
0.0
 40
0.32
  1
2 N.O. + 2 N.C.
  7
ROMANS
 11
8.553465767299634
 21
30.54009155499847
 31
0.0
100
AcDbText
 73
     2
  0
LINE
  5
125BC
102
{ACAD_REACTORS
330
125BE
102
}
330
1F
100
AcDbEntity
  8
TEXT1
100
AcDbLine
 10
14.55497968391563
 20
30.39848637619422
 30
0.0
 11
14.83622968391563
 21
30.39848637619422
 31
0.0
  0
LINE
  5
125BD
102
{ACAD_REACTORS
330
125BE
102
}
330
1F
100
AcDbEntity
  8
TEXT1
100
AcDbLine
 10
14.55511304381917
 20
30.67973637619422
 30
0.0
 11
14.83636304381917
 21
30.67973637619422
 31
0.0
  0
HATCH
  5
125BE
330
1F
100
AcDbEntity
  8
TEXT1
100
AcDbHatch
 10
0.0
 20
0.0
 30
0.0
210
0.0
220
0.0
230
1.0
  2
SOLID
 70
     1
 71
     1
 91
        1
 92
        7
 72
     0
 73
     1
 93
        4
 10
14.83636304381917
 20
30.67973637619422
 10
14.55443164047522
 20
30.67973637619422
 10
14.55497968391563
 20
30.39848637619422
 10
14.83622968391563
 20
30.39848637619422
 97
        4
330
125BD
330
125BF
330
125BC
330
125C1
 75
     0
 76
     1
 47
0.0038593276217312
 98
        1
 10
14.72822504159813
 20
30.51154132947248
  0
LINE
  5
125BF
102
{ACAD_REACTORS
330
125BE
102
}
330
1F
100
AcDbEntity
  8
TEXT1
100
AcDbLine
 10
14.55443164047522
 20
30.67973637619422
 30
0.0
 11
14.55497968391563
 21
30.39848637619422
 31
0.0
  0
TEXT
  5
125C0
330
1F
100
AcDbEntity
  8
TEXT1
100
AcDbText
 10
13.55346576729963
 20
30.38009155499847
 30
0.0
 40
0.32
  1
YES
  7
ROMANS
 11
13.55346576729963
 21
30.54009155499847
 31
0.0
100
AcDbText
 73
     2
  0
LINE
  5
125C1
102
{ACAD_REACTORS
330
125BE
102
}
330
1F
100
AcDbEntity
  8
TEXT1
100
AcDbLine
 10
14.83636304381917
 20
30.67973637619422
 30
0.0
 11
14.83622968391563
 21
30.39848637619422
 31
0.0
  0
HATCH
  5
125C2
330
1F
100
AcDbEntity
  8
TEXT1
100
AcDbHatch
 10
0.0
 20
0.0
 30
0.0
210
0.0
220
0.0
230
1.0
  2
SOLID
 70
     1
 71
     1
 91
        1
 92
        7
 72
     0
 73
     1
 93
        4
 10
14.83636304381917
 20
31.87973637619422
 10
14.55443164047522
 20
31.87973637619422
 10
14.55497968391563
 20
31.59848637619422
 10
14.83622968391563
 20
31.59848637619422
 97
        4
330
125C3
330
125C5
330
125C4
330
125C9
 75
     0
 76
     1
 47
0.0038593276217312
 98
        1
 10
14.72822504159813
 20
31.71154132947249
  0
LINE
  5
125C3
102
{ACAD_REACTORS
330
125C2
102
}
330
1F
100
AcDbEntity
  8
TEXT1
100
AcDbLine
 10
14.55511304381917
 20
31.87973637619422
 30
0.0
 11
14.83636304381917
 21
31.87973637619422
 31
0.0
  0
LINE
  5
125C4
102
{ACAD_REACTORS
330
125C2
102
}
330
1F
100
AcDbEntity
  8
TEXT1
100
AcDbLine
 10
14.55497968391563
 20
31.59848637619422
 30
0.0
 11
14.83622968391563
 21
31.59848637619422
 31
0.0
  0
LINE
  5
125C5
102
{ACAD_REACTORS
330
125C2
102
}
330
1F
100
AcDbEntity
  8
TEXT1
100
AcDbLine
 10
14.55443164047522
 20
31.87973637619422
 30
0.0
 11
14.55497968391563
 21
31.59848637619422
 31
0.0
  0
TEXT
  5
125C6
330
1F
100
AcDbEntity
  8
TEXT1
100
AcDbText
 10
13.55346576729963
 20
30.98009155499847
 30
0.0
 40
0.32
  1
NO
  7
ROMANS
 11
13.55346576729963
 21
31.14009155499847
 31
0.0
100
AcDbText
 73
     2
  0
TEXT
  5
125C7
330
1F
100
AcDbEntity
  8
TEXT1
100
AcDbText
 10
13.55346576729963
 20
31.58009155499847
 30
0.0
 40
0.32
  1
YES
  7
ROMANS
 11
13.55346576729963
 21
31.74009155499847
 31
0.0
100
AcDbText
 73
     2
  0
TEXT
  5
125C8
330
1F
100
AcDbEntity
  8
TEXT1
100
AcDbText
 10
13.55346576729963
 20
32.18009155499848
 30
0.0
 40
0.32
  1
NO
  7
ROMANS
 11
13.55346576729963
 21
32.34009155499848
 31
0.0
100
AcDbText
 73
     2
  0
LINE
  5
125C9
102
{ACAD_REACTORS
330
125C2
102
}
330
1F
100
AcDbEntity
  8
TEXT1
100
AcDbLine
 10
14.83636304381917
 20
31.87973637619422
 30
0.0
 11
14.83622968391563
 21
31.59848637619422
 31
0.0
  0
TEXT
  5
125CA
330
1F
100
AcDbEntity
  8
TEXT1
100
AcDbText
 10
13.55346576729963
 20
32.78009155499849
 30
0.0
 40
0.32
  1
NO
  7
ROMANS
 11
13.55346576729963
 21
32.94009155499848
 31
0.0
100
AcDbText
 73
     2
  0
TEXT
  5
125CB
330
1F
100
AcDbEntity
  8
TEXT1
100
AcDbText
 10
13.55346576729963
 20
33.38009155499849
 30
0.0
 40
0.32
  1
NO
  7
ROMANS
 11
13.55346576729963
 21
33.54009155499848
 31
0.0
100
AcDbText
 73
     2
  0
TEXT
  5
125CC
330
1F
100
AcDbEntity
  8
TEXT1
100
AcDbText
 10
17.05346576729963
 20
33.38009155499849
 30
0.0
 40
0.32
  1
XY2CE2A150
  7
ROMANS
 11
17.05346576729963
 21
33.54009155499848
 31
0.0
100
AcDbText
 73
     2
  0
TEXT
  5
125CD
330
1F
100
AcDbEntity
  8
TEXT1
100
AcDbText
 10
17.05346576729963
 20
32.78009155499849
 30
0.0
 40
0.32
  1
XY2CE2A250
  7
ROMANS
 11
17.05346576729963
 21
32.94009155499848
 31
0.0
100
AcDbText
 73
     2
  0
TEXT
  5
125CE
330
1F
100
AcDbEntity
  8
TEXT1
100
AcDbText
 10
17.05346576729963
 20
32.18009155499848
 30
0.0
 40
0.32
  1
XY2CE2A190
  7
ROMANS
 11
17.05346576729963
 21
32.34009155499848
 31
0.0
100
AcDbText
 73
     2
  0
TEXT
  5
125CF
330
1F
100
AcDbEntity
  8
TEXT1
100
AcDbText
 10
17.05346576729963
 20
31.58009155499847
 30
0.0
 40
0.32
  1
XY2CE2A196
  7
ROMANS
 11
17.05346576729963
 21
31.74009155499847
 31
0.0
100
AcDbText
 73
     2
  0
TEXT
  5
125D0
330
1F
100
AcDbEntity
  8
TEXT1
100
AcDbText
 10
17.05346576729963
 20
30.98009155499847
 30
0.0
 40
0.32
  1
XY2CE2A290
  7
ROMANS
 11
17.05346576729963
 21
31.14009155499847
 31
0.0
100
AcDbText
 73
     2
  0
TEXT
  5
125D1
330
1F
100
AcDbEntity
  8
TEXT1
100
AcDbText
 10
17.05346576729963
 20
30.38009155499847
 30
0.0
 40
0.32
  1
XY2CE2A296
  7
ROMANS
 11
17.05346576729963
 21
30.54009155499847
 31
0.0
100
AcDbText
 73
     2
  0
LINE
  5
125D2
330
1F
100
AcDbEntity
  8
0
100
AcDbLine
 10
21.62354010497322
 20
32.64009155499847
 30
0.0
 11
1.248540104973226
 21
32.64009155499847
 31
0.0
  0
LINE
  5
125D3
330
1F
100
AcDbEntity
  8
0
100
AcDbLine
 10
21.62354010497322
 20
32.04009155499847
 30
0.0
 11
1.248540104973226
 21
32.04009155499846
 31
0.0
  0
LINE
  5
125D4
330
1F
100
AcDbEntity
  8
0
100
AcDbLine
 10
21.62354010497322
 20
31.44009155499847
 30
0.0
 11
1.248540104973226
 21
31.44009155499846
 31
0.0
  0
LINE
  5
125D5
330
1F
100
AcDbEntity
  8
0
100
AcDbLine
 10
21.62354010497322
 20
30.84009155499847
 30
0.0
 11
1.24854010497323
 21
30.84009155499846
 31
0.0
  0
LINE
  5
125D6
330
1F
100
AcDbEntity
  8
0
100
AcDbLine
 10
21.62354010497322
 20
30.24009155499847
 30
0.0
 11
1.24854010497323
 21
30.24009155499846
 31
0.0
  0
HATCH
  5
125D7
330
1F
100
AcDbEntity
  8
TEXT1
100
AcDbHatch
 10
0.0
 20
0.0
 30
0.0
210
0.0
220
0.0
230
1.0
  2
SOLID
 70
     1
 71
     1
 91
        1
 92
        7
 72
     0
 73
     1
 93
        4
 10
1.409273106532268
 20
29.23380745879735
 10
1.127341703188321
 20
29.23380745879735
 10
1.127889746628724
 20
28.95255745879735
 10
1.409139746628724
 20
28.95255745879735
 97
        4
330
125D8
330
125DA
330
125D9
330
125DB
 75
     0
 76
     1
 47
0.0038593276217312
 98
        1
 10
1.301135104311228
 20
29.06561241207562
  0
LINE
  5
125D8
102
{ACAD_REACTORS
330
125D7
102
}
330
1F
100
AcDbEntity
  8
TEXT1
100
AcDbLine
 10
1.128023106532268
 20
29.23380745879735
 30
0.0
 11
1.409273106532268
 21
29.23380745879735
 31
0.0
  0
LINE
  5
125D9
102
{ACAD_REACTORS
330
125D7
102
}
330
1F
100
AcDbEntity
  8
TEXT1
100
AcDbLine
 10
1.127889746628724
 20
28.95255745879735
 30
0.0
 11
1.409139746628724
 21
28.95255745879735
 31
0.0
  0
LINE
  5
125DA
102
{ACAD_REACTORS
330
125D7
102
}
330
1F
100
AcDbEntity
  8
TEXT1
100
AcDbLine
 10
1.127341703188321
 20
29.23380745879735
 30
0.0
 11
1.127889746628724
 21
28.95255745879735
 31
0.0
  0
LINE
  5
125DB
102
{ACAD_REACTORS
330
125D7
102
}
330
1F
100
AcDbEntity
  8
TEXT1
100
AcDbLine
 10
1.409273106532268
 20
29.23380745879735
 30
0.0
 11
1.409139746628724
 21
28.95255745879735
 31
0.0
  0
HATCH
  5
125DC
330
1F
100
AcDbEntity
  8
TEXT1
100
AcDbHatch
 10
0.0
 20
0.0
 30
0.0
210
0.0
220
0.0
230
1.0
  2
SOLID
 70
     1
 71
     0
 91
        1
 92
        7
 72
     0
 73
     1
 93
       12
 10
4.320711126783386
 20
28.58602912161131
 10
4.320711126783386
 20
28.67977912161132
 10
4.258211126783386
 20
28.67977912161132
 10
4.258211126783386
 20
28.58602912161131
 10
4.158211126783385
 20
28.58602912161132
 10
4.158211126783385
 20
28.52352912161132
 10
4.258211126783386
 20
28.52352912161132
 10
4.258211126783386
 20
28.30477912161132
 10
4.320711126783386
 20
28.30477912161132
 10
4.320711126783386
 20
28.52352912161132
 10
4.420711126783388
 20
28.52352912161132
 10
4.420711126783388
 20
28.58602912161131
 97
        0
 75
     0
 76
     1
 47
0.0010530823070092
 98
        1
 10
4.323447716151044
 20
28.56521596152954
  0
LINE
  5
125DD
330
1F
100
AcDbEntity
  8
TEXT1
100
AcDbLine
 10
4.320711126783386
 20
28.52352912161132
 30
0.0
 11
4.320711126783386
 21
28.30477912161132
 31
0.0
  0
LINE
  5
125DE
330
1F
100
AcDbEntity
  8
TEXT1
100
AcDbLine
 10
4.258211126783386
 20
28.52352912161132
 30
0.0
 11
4.258211126783386
 21
28.30477912161132
 31
0.0
  0
LINE
  5
125DF
330
1F
100
AcDbEntity
  8
TEXT1
100
AcDbLine
 10
4.258211126783386
 20
28.30477912161132
 30
0.0
 11
4.320711126783386
 21
28.30477912161132
 31
0.0
  0
LINE
  5
125E0
330
1F
100
AcDbEntity
  8
TEXT1
100
AcDbLine
 10
4.320711126783386
 20
28.67977912161132
 30
0.0
 11
4.320711126783386
 21
28.58602912161132
 31
0.0
  0
LINE
  5
125E1
330
1F
100
AcDbEntity
  8
TEXT1
100
AcDbLine
 10
4.258211126783386
 20
28.67977912161132
 30
0.0
 11
4.258211126783386
 21
28.58602912161131
 31
0.0
  0
LINE
  5
125E2
330
1F
100
AcDbEntity
  8
TEXT1
100
AcDbLine
 10
4.258211126783386
 20
28.67977912161132
 30
0.0
 11
4.258211126783386
 21
28.58602912161131
 31
0.0
  0
LINE
  5
125E3
330
1F
100
AcDbEntity
  8
TEXT1
100
AcDbLine
 10
4.420711126783388
 20
28.58602912161131
 30
0.0
 11
4.320711126783386
 21
28.58602912161132
 31
0.0
  0
LINE
  5
125E4
330
1F
100
AcDbEntity
  8
TEXT1
100
AcDbLine
 10
4.420711126783388
 20
28.52352912161132
 30
0.0
 11
4.320711126783386
 21
28.52352912161132
 31
0.0
  0
LINE
  5
125E5
330
1F
100
AcDbEntity
  8
TEXT1
100
AcDbLine
 10
4.158211126783385
 20
28.52352912161132
 30
0.0
 11
4.158211126783385
 21
28.58602912161131
 31
0.0
  0
LINE
  5
125E6
330
1F
100
AcDbEntity
  8
TEXT1
100
AcDbLine
 10
4.258211126783386
 20
28.67977912161132
 30
0.0
 11
4.320711126783386
 21
28.67977912161132
 31
0.0
  0
LINE
  5
125E7
330
1F
100
AcDbEntity
  8
TEXT1
100
AcDbLine
 10
4.420711126783388
 20
28.58602912161131
 30
0.0
 11
4.420711126783388
 21
28.52352912161132
 31
0.0
  0
LINE
  5
125E8
330
1F
100
AcDbEntity
  8
TEXT1
100
AcDbLine
 10
4.258211126783386
 20
28.58602912161131
 30
0.0
 11
4.158211126783385
 21
28.58602912161131
 31
0.0
  0
LINE
  5
125E9
330
1F
100
AcDbEntity
  8
TEXT1
100
AcDbLine
 10
4.258211126783386
 20
28.52352912161132
 30
0.0
 11
4.158211126783385
 21
28.52352912161132
 31
0.0
  0
LINE
  5
125EC
330
1F
100
AcDbEntity
  8
0
100
AcDbLine
 10
21.62354010497322
 20
22.92852996459889
 30
0.0
 11
1.248540104973233
 21
22.92852996459888
 31
0.0
  0
LINE
  5
125FB
330
1F
100
AcDbEntity
  8
0
100
AcDbLine
 10
21.59558107119905
 20
20.96551932587206
 30
0.0
 11
1.220581071199063
 21
20.96551932587205
 31
0.0
  0
LINE
  5
125FC
330
1F
100
AcDbEntity
  8
0
100
AcDbLine
 10
21.59558107119905
 20
20.36551932587206
 30
0.0
 11
8.220581071199056
 21
20.36551932587205
 31
0.0
  0
LINE
  5
125FD
330
1F
100
AcDbEntity
  8
0
100
AcDbLine
 10
21.59558107119905
 20
19.76551932587206
 30
0.0
 11
8.220581071199056
 21
19.76551932587205
 31
0.0
  0
LINE
  5
125FE
330
1F
100
AcDbEntity
  8
0
100
AcDbLine
 10
21.59558107119905
 20
19.16551932587205
 30
0.0
 11
1.220581071199063
 21
19.16551932587205
 31
0.0
  0
LINE
  5
125FF
330
1F
100
AcDbEntity
  8
0
100
AcDbLine
 10
21.59558107119905
 20
18.56551932587205
 30
0.0
 11
8.22058107119906
 21
18.56551932587205
 31
0.0
  0
LINE
  5
12600
330
1F
100
AcDbEntity
  8
0
100
AcDbLine
 10
21.59558107119905
 20
17.96551932587205
 30
0.0
 11
8.22058107119906
 21
17.96551932587205
 31
0.0
  0
LINE
  5
12601
330
1F
100
AcDbEntity
  8
0
100
AcDbLine
 10
21.59558107119905
 20
17.36551932587205
 30
0.0
 11
1.220581071199063
 21
17.36551932587204
 31
0.0
  0
TEXT
  5
12607
330
1F
100
AcDbEntity
  8
TEXT1
100
AcDbText
 10
1.525506733525471
 20
18.10551932587205
 30
0.0
 40
0.32
  1
LEFT CABLE MOUNT
  7
ROMANS
 11
1.525506733525471
 21
18.26551932587205
 31
0.0
100
AcDbText
 73
     2
  0
TEXT
  5
1260C
330
1F
100
AcDbEntity
  8
TEXT1
100
AcDbText
 10
1.525506733525471
 20
19.90551932587204
 30
0.0
 40
0.32
  1
RIGHT CABLE MOUNT
  7
ROMANS
 11
1.525506733525471
 21
20.06551932587205
 31
0.0
100
AcDbText
 73
     2
  0
LINE
  5
1260D
330
1F
100
AcDbEntity
  8
0
100
AcDbLine
 10
1.220581071199063
 20
17.36551932587204
 30
0.0
 11
1.220581071199063
 21
21.71551932587205
 31
0.0
  0
LINE
  5
1260F
330
1F
100
AcDbEntity
  8
0
100
AcDbLine
 10
13.22058107119906
 20
17.36551932587205
 30
0.0
 11
13.22058107119906
 21
21.71551932587205
 31
0.0
  0
LINE
  5
12610
330
1F
100
AcDbEntity
  8
0
100
AcDbLine
 10
8.22058107119906
 20
17.36551932587205
 30
0.0
 11
8.22058107119906
 21
21.71551932587205
 31
0.0
  0
TEXT
  5
12622
330
1F
100
AcDbEntity
  8
TEXT1
100
AcDbText
 10
8.525506733525467
 20
17.50551932587205
 30
0.0
 40
0.32
  1
2 N.O. + 2 N.C.
  7
ROMANS
 11
8.525506733525467
 21
17.66551932587205
 31
0.0
100
AcDbText
 73
     2
  0
TEXT
  5
12623
330
1F
100
AcDbEntity
  8
TEXT1
100
AcDbText
 10
8.525506733525467
 20
19.30551932587205
 30
0.0
 40
0.32
  1
2 N.O. + 2 N.C.
  7
ROMANS
 11
8.525506733525467
 21
19.46551932587205
 31
0.0
100
AcDbText
 73
     2
  0
TEXT
  5
12624
330
1F
100
AcDbEntity
  8
TEXT1
100
AcDbText
 10
8.525506733525467
 20
19.90551932587205
 30
0.0
 40
0.32
  1
2 N.O. + 2 N.C.
  7
ROMANS
 11
8.525506733525467
 21
20.06551932587205
 31
0.0
100
AcDbText
 73
     2
  0
TEXT
  5
12625
330
1F
100
AcDbEntity
  8
TEXT1
100
AcDbText
 10
8.525506733525471
 20
21.18051932587206
 30
0.0
 40
0.32
  1
CONTACT
  7
ROMANS
 11
8.525506733525471
 21
21.34051932587206
 31
0.0
100
AcDbText
 73
     2
  0
TEXT
  5
1262A
330
1F
100
AcDbEntity
  8
TEXT1
100
AcDbText
 10
8.525506733525467
 20
20.50551932587205
 30
0.0
 40
0.32
  1
N.O. + N.C.
  7
ROMANS
 11
8.525506733525467
 21
20.66551932587205
 31
0.0
100
AcDbText
 73
     2
  0
LINE
  5
1262C
330
1F
100
AcDbEntity
  8
0
100
AcDbLine
 10
21.59558107119905
 20
21.71551932587206
 30
0.0
 11
21.59558107119905
 21
17.36551932587205
 31
0.0
  0
LINE
  5
1262D
330
1F
100
AcDbEntity
  8
0
100
AcDbLine
 10
16.72058107119906
 20
17.36551932587205
 30
0.0
 11
16.72058107119905
 21
21.71551932587205
 31
0.0
  0
TEXT
  5
1264C
330
1F
100
AcDbEntity
  8
TEXT1
100
AcDbText
 10
17.02550673352547
 20
17.50551932587205
 30
0.0
 40
0.32
  1
XY2CE4A026
  7
ROMANS
 11
17.02550673352547
 21
17.66551932587205
 31
0.0
100
AcDbText
 73
     2
  0
TEXT
  5
1264D
330
1F
100
AcDbEntity
  8
TEXT1
100
AcDbText
 10
17.02550673352547
 20
18.10551932587205
 30
0.0
 40
0.32
  1
XY2CE4A020
  7
ROMANS
 11
17.02550673352547
 21
18.26551932587205
 31
0.0
100
AcDbText
 73
     2
  0
TEXT
  5
1264E
330
1F
100
AcDbEntity
  8
TEXT1
100
AcDbText
 10
17.02550673352547
 20
18.70551932587206
 30
0.0
 40
0.32
  1
XY2CE4A010
  7
ROMANS
 11
17.02550673352547
 21
18.86551932587206
 31
0.0
100
AcDbText
 73
     2
  0
TEXT
  5
1264F
330
1F
100
AcDbEntity
  8
TEXT1
100
AcDbText
 10
17.02550673352547
 20
19.30551932587206
 30
0.0
 40
0.32
  1
XY2CE3A026
  7
ROMANS
 11
17.02550673352547
 21
19.46551932587206
 31
0.0
100
AcDbText
 73
     2
  0
TEXT
  5
12650
330
1F
100
AcDbEntity
  8
TEXT1
100
AcDbText
 10
17.02550673352547
 20
21.18051932587206
 30
0.0
 40
0.32
  1
CATALOG NUMBER
  7
ROMANS
 11
17.02550673352547
 21
21.34051932587206
 31
0.0
100
AcDbText
 73
     2
  0
TEXT
  5
12651
330
1F
100
AcDbEntity
  8
TEXT1
100
AcDbText
 10
17.02550673352547
 20
20.50551932587206
 30
0.0
 40
0.32
  1
XY2CE3A010
  7
ROMANS
 11
17.02550673352547
 21
20.66551932587206
 31
0.0
100
AcDbText
 73
     2
  0
LINE
  5
12652
102
{ACAD_REACTORS
330
12654
102
}
330
1F
100
AcDbEntity
  8
TEXT1
100
AcDbLine
 10
14.52715401004501
 20
17.8051641470678
 30
0.0
 11
14.80840401004501
 21
17.8051641470678
 31
0.0
  0
LINE
  5
12653
102
{ACAD_REACTORS
330
12654
102
}
330
1F
100
AcDbEntity
  8
TEXT1
100
AcDbLine
 10
14.52702065014146
 20
17.5239141470678
 30
0.0
 11
14.80827065014146
 21
17.5239141470678
 31
0.0
  0
HATCH
  5
12654
330
1F
100
AcDbEntity
  8
TEXT1
100
AcDbHatch
 10
0.0
 20
0.0
 30
0.0
210
0.0
220
0.0
230
1.0
  2
SOLID
 70
     1
 71
     1
 91
        1
 92
        7
 72
     0
 73
     1
 93
        4
 10
14.808404010045
 20
17.8051641470678
 10
14.52647260670106
 20
17.8051641470678
 10
14.52702065014146
 20
17.5239141470678
 10
14.80827065014146
 20
17.5239141470678
 97
        4
330
12652
330
12655
330
12653
330
12659
 75
     0
 76
     1
 47
0.0038593276217312
 98
        1
 10
14.70026600782397
 20
17.63696910034606
  0
LINE
  5
12655
102
{ACAD_REACTORS
330
12654
102
}
330
1F
100
AcDbEntity
  8
TEXT1
100
AcDbLine
 10
14.52647260670106
 20
17.8051641470678
 30
0.0
 11
14.52702065014146
 21
17.5239141470678
 31
0.0
  0
TEXT
  5
12657
330
1F
100
AcDbEntity
  8
TEXT1
100
AcDbText
 10
13.52550673352546
 20
17.50551932587205
 30
0.0
 40
0.32
  1
YES
  7
ROMANS
 11
13.52550673352546
 21
17.66551932587205
 31
0.0
100
AcDbText
 73
     2
  0
TEXT
  5
12658
330
1F
100
AcDbEntity
  8
TEXT1
100
AcDbText
 10
13.52550673352546
 20
18.70551932587206
 30
0.0
 40
0.32
  1
NO
  7
ROMANS
 11
13.52550673352546
 21
18.86551932587206
 31
0.0
100
AcDbText
 73
     2
  0
LINE
  5
12659
102
{ACAD_REACTORS
330
12654
102
}
330
1F
100
AcDbEntity
  8
TEXT1
100
AcDbLine
 10
14.80840401004501
 20
17.8051641470678
 30
0.0
 11
14.80827065014146
 21
17.5239141470678
 31
0.0
  0
TEXT
  5
1265B
330
1F
100
AcDbEntity
  8
TEXT1
100
AcDbText
 10
13.52550673352546
 20
19.90551932587206
 30
0.0
 40
0.32
  1
NO
  7
ROMANS
 11
13.52550673352546
 21
20.06551932587206
 31
0.0
100
AcDbText
 73
     2
  0
TEXT
  5
1265C
330
1F
100
AcDbEntity
  8
TEXT1
100
AcDbText
 10
13.52550673352546
 20
21.18051932587206
 30
0.0
 40
0.32
  1
PILOT LIGHT
  7
ROMANS
 11
13.52550673352546
 21
21.34051932587206
 31
0.0
100
AcDbText
 73
     2
  0
TEXT
  5
1265D
330
1F
100
AcDbEntity
  8
TEXT1
100
AcDbText
 10
1.525506733525471
 20
22.15551932587206
 30
0.0
 40
0.32
  1
PILOT LIGHT ONLY AVAILABLE ON 2 N.O.-2 N.C. DEVICES
  7
ROMANS
 11
1.525506733525471
 21
22.31551932587206
 31
0.0
100
AcDbText
 73
     2
  0
TEXT
  5
1265E
330
1F
100
AcDbEntity
  8
TEXT1
100
AcDbText
 10
13.52550673352546
 20
20.50551932587206
 30
0.0
 40
0.32
  1
NO
  7
ROMANS
 11
13.52550673352546
 21
20.66551932587206
 31
0.0
100
AcDbText
 73
     2
  0
TEXT
  5
1265F
330
1F
100
AcDbEntity
  8
TEXT1
100
AcDbText
 10
13.52550673352546
 20
19.30551932587206
 30
0.0
 40
0.32
  1
YES
  7
ROMANS
 11
13.52550673352546
 21
19.46551932587206
 31
0.0
100
AcDbText
 73
     2
  0
HATCH
  5
12660
330
1F
100
AcDbEntity
  8
TEXT1
100
AcDbHatch
 10
0.0
 20
0.0
 30
0.0
210
0.0
220
0.0
230
1.0
  2
SOLID
 70
     1
 71
     1
 91
        1
 92
        7
 72
     0
 73
     1
 93
        4
 10
14.80840401004501
 20
19.6051641470678
 10
14.52647260670106
 20
19.6051641470678
 10
14.52702065014146
 20
19.3239141470678
 10
14.80827065014146
 20
19.3239141470678
 97
        4
330
12662
330
12663
330
12661
330
12664
 75
     0
 76
     1
 47
0.0038593276217312
 98
        1
 10
14.70026600782397
 20
19.43696910034607
  0
LINE
  5
12661
102
{ACAD_REACTORS
330
12660
102
}
330
1F
100
AcDbEntity
  8
TEXT1
100
AcDbLine
 10
14.52702065014146
 20
19.3239141470678
 30
0.0
 11
14.80827065014146
 21
19.3239141470678
 31
0.0
  0
LINE
  5
12662
102
{ACAD_REACTORS
330
12660
102
}
330
1F
100
AcDbEntity
  8
TEXT1
100
AcDbLine
 10
14.52715401004501
 20
19.6051641470678
 30
0.0
 11
14.80840401004501
 21
19.6051641470678
 31
0.0
  0
LINE
  5
12663
102
{ACAD_REACTORS
330
12660
102
}
330
1F
100
AcDbEntity
  8
TEXT1
100
AcDbLine
 10
14.52647260670106
 20
19.6051641470678
 30
0.0
 11
14.52702065014146
 21
19.3239141470678
 31
0.0
  0
LINE
  5
12664
102
{ACAD_REACTORS
330
12660
102
}
330
1F
100
AcDbEntity
  8
TEXT1
100
AcDbLine
 10
14.80840401004501
 20
19.6051641470678
 30
0.0
 11
14.80827065014146
 21
19.3239141470678
 31
0.0
  0
TEXT
  5
12665
330
1F
100
AcDbEntity
  8
TEXT1
100
AcDbText
 10
13.52550673352546
 20
18.10551932587205
 30
0.0
 40
0.32
  1
NO
  7
ROMANS
 11
13.52550673352546
 21
18.26551932587205
 31
0.0
100
AcDbText
 73
     2
  0
TEXT
  5
12666
330
1F
100
AcDbEntity
  8
TEXT1
100
AcDbText
 10
8.525506733525467
 20
18.70551932587205
 30
0.0
 40
0.32
  1
N.O. + N.C.
  7
ROMANS
 11
8.525506733525467
 21
18.86551932587205
 31
0.0
100
AcDbText
 73
     2
  0
TEXT
  5
12667
330
1F
100
AcDbEntity
  8
TEXT1
100
AcDbText
 10
8.525506733525467
 20
18.10551932587205
 30
0.0
 40
0.32
  1
2 N.O. + 2 N.C.
  7
ROMANS
 11
8.525506733525467
 21
18.26551932587205
 31
0.0
100
AcDbText
 73
     2
  0
TEXT
  5
1266A
330
1F
100
AcDbEntity
  8
TEXT1
100
AcDbText
 10
17.02550673352547
 20
19.90551932587205
 30
0.0
 40
0.32
  1
XY2CE3A020
  7
ROMANS
 11
17.02550673352547
 21
20.06551932587206
 31
0.0
100
AcDbText
 73
     2
  0
HATCH
  5
1275D
330
1F
100
AcDbEntity
  8
TEXT1
100
AcDbHatch
 10
0.0
 20
0.0
 30
0.0
210
0.0
220
0.0
230
1.0
  2
SOLID
 70
     1
 71
     0
 91
        1
 92
        7
 72
     0
 73
     1
 93
       12
 10
4.342519832437091
 20
15.62801932587205
 10
4.342519832437091
 20
15.72176932587205
 10
4.280019832437091
 20
15.72176932587205
 10
4.280019832437091
 20
15.62801932587204
 10
4.180019832437089
 20
15.62801932587205
 10
4.180019832437089
 20
15.56551932587205
 10
4.280019832437091
 20
15.56551932587205
 10
4.280019832437091
 20
15.34676932587204
 10
4.342519832437091
 20
15.34676932587204
 10
4.342519832437091
 20
15.56551932587205
 10
4.442519832437092
 20
15.56551932587205
 10
4.442519832437092
 20
15.62801932587205
 97
        0
 75
     0
 76
     1
 47
0.0010530823070092
 98
        1
 10
4.345256421804748
 20
15.60720616579027
  0
HATCH
  5
1275E
330
1F
100
AcDbEntity
  8
TEXT1
100
AcDbHatch
 10
0.0
 20
0.0
 30
0.0
210
0.0
220
0.0
230
1.0
  2
SOLID
 70
     1
 71
     1
 91
        1
 92
        7
 72
     0
 73
     1
 93
        4
 10
1.409273106532264
 20
16.32079682007051
 10
1.127341703188317
 20
16.32079682007051
 10
1.127889746628721
 20
16.03954682007051
 10
1.409139746628721
 20
16.03954682007051
 97
        4
330
1276C
330
1276A
330
1276B
330
12769
 75
     0
 76
     1
 47
0.0038593276217312
 98
        1
 10
1.301135104311225
 20
16.15260177334877
  0
HATCH
  5
1275F
330
1F
100
AcDbEntity
  8
TEXT1
100
AcDbHatch
 10
0.0
 20
0.0
 30
0.0
210
0.0
220
0.0
230
1.0
  2
SOLID
 70
     1
 71
     1
 91
        1
 92
        1
 93
        1
 72
     2
 10
1.248540104973226
 20
16.72708091627161
 40
0.140625
 50
0.0
 51
360.0
 73
     1
 97
        1
330
12768
 75
     0
 76
     1
 98
        1
 10
-26.68869580226846
 20
5.873780588703539
  0
HATCH
  5
12760
330
1F
100
AcDbEntity
  8
TEXT1
100
AcDbHatch
 10
0.0
 20
0.0
 30
0.0
210
0.0
220
0.0
230
1.0
  2
SOLID
 70
     1
 71
     1
 91
        1
 92
        1
 93
        3
 72
     1
 10
1.248540104973226
 20
15.05926932587205
 11
1.107915104973226
 21
14.77801932587205
 72
     1
 10
1.107915104973226
 20
14.77801932587205
 11
1.389165104973226
 21
14.77801932587205
 72
     1
 10
1.389165104973226
 20
14.77801932587205
 11
1.248540104973226
 21
15.05926932587205
 97
        3
330
12765
330
12767
330
12766
 75
     0
 76
     1
 98
        1
 10
-25.89258209573696
 20
3.676081438762146
  0
TEXT
  5
12761
330
1F
100
AcDbEntity
  8
TEXT1
100
AcDbText
 10
1.540678488259697
 20
13.60551932587205
 30
0.0
 40
0.32
  1
ICS-5, PART 6 (DIRECT OPENING ACTION)
  7
ROMANS
 11
1.540678488259697
 21
13.76551932587205
 31
0.0
100
AcDbText
 73
     2
  0
TEXT
  5
12762
330
1F
100
AcDbEntity
  8
TEXT1
100
AcDbText
 10
1.540678488259697
 20
14.80551932587205
 30
0.0
 40
0.32
  1
DIRECT OPENING N.C. CONTACTS MEET THE IEC AND EN REQUIREMENTS
  7
ROMANS
 11
1.540678488259697
 21
14.96551932587205
 31
0.0
100
AcDbText
 73
     2
  0
TEXT
  5
12763
330
1F
100
AcDbEntity
  8
TEXT1
100
AcDbText
 10
1.540678488259697
 20
16.00551932587204
 30
0.0
 40
0.32
  1
BULB NOT INCLUDED, SEE SPARE PARTS LIST. 
  7
ROMANS
 11
1.540678488259697
 21
16.16551932587204
 31
0.0
100
AcDbText
 73
     2
  0
TEXT
  5
12764
330
1F
100
AcDbEntity
  8
TEXT1
100
AcDbText
 10
1.540678488259697
 20
16.60551932587204
 30
0.0
 40
0.32
  1
RECOMMENDED FOR OUTDOORS APPLICATIONS WHERE ICY CONDITIONS ARE LIKELY
  7
ROMANS
 11
1.540678488259697
 21
16.76551932587204
 31
0.0
100
AcDbText
 73
     2
  0
LINE
  5
12765
102
{ACAD_REACTORS
330
12760
102
}
330
1F
100
AcDbEntity
  8
TEXT1
100
AcDbLine
 10
1.248540104973226
 20
15.05926932587205
 30
0.0
 11
1.107915104973226
 21
14.77801932587205
 31
0.0
  0
LINE
  5
12766
102
{ACAD_REACTORS
330
12760
102
}
330
1F
100
AcDbEntity
  8
TEXT1
100
AcDbLine
 10
1.248540104973226
 20
15.05926932587205
 30
0.0
 11
1.389165104973226
 21
14.77801932587205
 31
0.0
  0
LINE
  5
12767
102
{ACAD_REACTORS
330
12760
102
}
330
1F
100
AcDbEntity
  8
TEXT1
100
AcDbLine
 10
1.107915104973226
 20
14.77801932587205
 30
0.0
 11
1.389165104973226
 21
14.77801932587205
 31
0.0
  0
CIRCLE
  5
12768
102
{ACAD_REACTORS
330
1275F
102
}
330
1F
100
AcDbEntity
  8
TEXT1
100
AcDbCircle
 10
1.248540104973226
 20
16.72708091627161
 30
0.0
 40
0.140625
  0
LINE
  5
12769
102
{ACAD_REACTORS
330
1275E
102
}
330
1F
100
AcDbEntity
  8
TEXT1
100
AcDbLine
 10
1.409273106532264
 20
16.32079682007051
 30
0.0
 11
1.409139746628721
 21
16.03954682007051
 31
0.0
  0
LINE
  5
1276A
102
{ACAD_REACTORS
330
1275E
102
}
330
1F
100
AcDbEntity
  8
TEXT1
100
AcDbLine
 10
1.127341703188317
 20
16.32079682007051
 30
0.0
 11
1.127889746628721
 21
16.03954682007051
 31
0.0
  0
LINE
  5
1276B
102
{ACAD_REACTORS
330
1275E
102
}
330
1F
100
AcDbEntity
  8
TEXT1
100
AcDbLine
 10
1.127889746628721
 20
16.03954682007051
 30
0.0
 11
1.409139746628721
 21
16.03954682007051
 31
0.0
  0
LINE
  5
1276C
102
{ACAD_REACTORS
330
1275E
102
}
330
1F
100
AcDbEntity
  8
TEXT1
100
AcDbLine
 10
1.128023106532264
 20
16.32079682007051
 30
0.0
 11
1.409273106532264
 21
16.32079682007051
 31
0.0
  0
LINE
  5
1276D
330
1F
100
AcDbEntity
  8
TEXT1
100
AcDbLine
 10
4.342519832437091
 20
15.56551932587205
 30
0.0
 11
4.342519832437091
 21
15.34676932587204
 31
0.0
  0
LINE
  5
1276E
330
1F
100
AcDbEntity
  8
TEXT1
100
AcDbLine
 10
4.280019832437091
 20
15.56551932587205
 30
0.0
 11
4.280019832437091
 21
15.34676932587204
 31
0.0
  0
LINE
  5
1276F
330
1F
100
AcDbEntity
  8
TEXT1
100
AcDbLine
 10
4.280019832437091
 20
15.34676932587204
 30
0.0
 11
4.342519832437091
 21
15.34676932587204
 31
0.0
  0
LINE
  5
12770
330
1F
100
AcDbEntity
  8
TEXT1
100
AcDbLine
 10
4.342519832437091
 20
15.72176932587205
 30
0.0
 11
4.342519832437091
 21
15.62801932587205
 31
0.0
  0
LINE
  5
12771
330
1F
100
AcDbEntity
  8
TEXT1
100
AcDbLine
 10
4.280019832437091
 20
15.72176932587205
 30
0.0
 11
4.280019832437091
 21
15.62801932587204
 31
0.0
  0
LINE
  5
12772
330
1F
100
AcDbEntity
  8
TEXT1
100
AcDbLine
 10
4.280019832437091
 20
15.72176932587205
 30
0.0
 11
4.280019832437091
 21
15.62801932587205
 31
0.0
  0
LINE
  5
12773
330
1F
100
AcDbEntity
  8
TEXT1
100
AcDbLine
 10
4.442519832437092
 20
15.62801932587205
 30
0.0
 11
4.342519832437091
 21
15.62801932587205
 31
0.0
  0
LINE
  5
12774
330
1F
100
AcDbEntity
  8
TEXT1
100
AcDbLine
 10
4.442519832437092
 20
15.56551932587205
 30
0.0
 11
4.342519832437091
 21
15.56551932587205
 31
0.0
  0
LINE
  5
12775
330
1F
100
AcDbEntity
  8
TEXT1
100
AcDbLine
 10
4.180019832437089
 20
15.56551932587205
 30
0.0
 11
4.180019832437089
 21
15.62801932587205
 31
0.0
  0
LINE
  5
12776
330
1F
100
AcDbEntity
  8
TEXT1
100
AcDbLine
 10
4.280019832437091
 20
15.72176932587205
 30
0.0
 11
4.342519832437091
 21
15.72176932587205
 31
0.0
  0
LINE
  5
12777
330
1F
100
AcDbEntity
  8
TEXT1
100
AcDbLine
 10
4.442519832437092
 20
15.62801932587205
 30
0.0
 11
4.442519832437092
 21
15.56551932587205
 31
0.0
  0
LINE
  5
12778
330
1F
100
AcDbEntity
  8
TEXT1
100
AcDbLine
 10
4.280019832437091
 20
15.62801932587205
 30
0.0
 11
4.180019832437089
 21
15.62801932587205
 31
0.0
  0
LINE
  5
12779
330
1F
100
AcDbEntity
  8
TEXT1
100
AcDbLine
 10
4.280019832437091
 20
15.56551932587205
 30
0.0
 11
4.180019832437089
 21
15.56551932587205
 31
0.0
  0
TEXT
  5
127F5
330
1F
100
AcDbEntity
  8
TEXT1
100
AcDbText
 10
24.48140244950279
 20
31.28009155499847
 30
0.0
 40
0.32
  1
-40%%DF (-40%%dC)
  7
ROMANS
 11
24.48140244950279
 21
31.44009155499847
 31
0.0
100
AcDbText
 73
     2
  0
TEXT
  5
127F6
330
1F
100
AcDbEntity
  8
TEXT1
100
AcDbText
 10
24.41976031572705
 20
30.68326641532724
 30
0.0
 40
0.32
  1
THE MINIMUM TEMPERATURES LISTED ARE BASED ON THE ABSENCE 
  7
ROMANS
 11
24.41976031572705
 21
30.84326641532724
 31
0.0
100
AcDbText
 73
     2
  0
TEXT
  5
127F7
330
1F
100
AcDbEntity
  8
TEXT1
100
AcDbText
 10
24.41976031572705
 20
30.08326641532724
 30
0.0
 40
0.32
  1
OF FREEZING MOISTURE OR WATER.
  7
ROMANS
 11
24.41976031572705
 21
30.24326641532724
 31
0.0
100
AcDbText
 73
     2
  0
TEXT
  5
127F8
330
1F
100
AcDbEntity
  8
TEXT1
100
AcDbText
 10
42.48140244950279
 20
30.68009155499847
 30
0.0
 40
0.32
  1
PILOT LIGHT VERSION
  7
ROMANS
 11
42.48140244950279
 21
30.84009155499847
 31
0.0
100
AcDbText
 73
     2
  0
TEXT
  5
127F9
330
1F
100
AcDbEntity
  8
TEXT1
100
AcDbText
 10
42.48140244950279
 20
30.08009155499847
 30
0.0
 40
0.32
  1
CHANGE THE A TO E EX:XY2CE1A196 CHANGES TO XY2CE1E196
  7
ROMANS
 11
42.48140244950279
 21
30.24009155499847
 31
0.0
100
AcDbText
 73
     2
  0
LINE
  5
127FB
330
1F
100
AcDbEntity
  8
0
100
AcDbLine
 10
58.7314024495028
 20
27.84009155499848
 30
0.0
 11
24.23140244950279
 21
27.84009155499846
 31
0.0
  0
LINE
  5
12800
330
1F
100
AcDbEntity
  8
0
100
AcDbLine
 10
58.7314024495028
 20
26.04009155499848
 30
0.0
 11
24.23140244950279
 21
26.04009155499847
 31
0.0
  0
TEXT
  5
12801
330
1F
100
AcDbEntity
  8
TEXT1
100
AcDbText
 10
24.48140244950279
 20
26.78009155499847
 30
0.0
 40
0.32
  1
MUSHROOM HEAD RESET
  7
ROMANS
 11
24.48140244950279
 21
26.94009155499847
 31
0.0
100
AcDbText
 73
     2
  0
TEXT
  5
12802
330
1F
100
AcDbEntity
  8
TEXT1
100
AcDbText
 10
42.48140244950279
 20
27.08009155499847
 30
0.0
 40
0.32
  1
-CHANGE THE 8TH DIGIT TO 3
  7
ROMANS
 11
42.48140244950279
 21
27.24009155499847
 31
0.0
100
AcDbText
 73
     2
  0
TEXT
  5
12803
330
1F
100
AcDbEntity
  8
TEXT1
100
AcDbText
 10
42.48140244950279
 20
26.48009155499847
 30
0.0
 40
0.32
  1
EX: XY2CE1A150 CHANGES TO XY2CE1A350
  7
ROMANS
 11
42.48140244950279
 21
26.64009155499847
 31
0.0
100
AcDbText
 73
     2
  0
TEXT
  5
12804
330
1F
100
AcDbEntity
  8
TEXT1
100
AcDbText
 10
42.48140244950279
 20
25.28009155499847
 30
0.0
 40
0.32
  1
-CHANGE THE 8TH DIGIT TO 4
  7
ROMANS
 11
42.48140244950279
 21
25.44009155499847
 31
0.0
100
AcDbText
 73
     2
  0
TEXT
  5
12805
330
1F
100
AcDbEntity
  8
TEXT1
100
AcDbText
 10
42.48140244950279
 20
24.68009155499847
 30
0.0
 40
0.32
  1
EX: XY2CE1A150 CHANGES TO XY2CE1A450
  7
ROMANS
 11
42.48140244950279
 21
24.84009155499847
 31
0.0
100
AcDbText
 73
     2
  0
LINE
  5
12806
330
1F
100
AcDbEntity
  8
0
100
AcDbLine
 10
58.7314024495028
 20
24.24009155499847
 30
0.0
 11
24.23140244950279
 21
24.24009155499847
 31
0.0
  0
TEXT
  5
12807
330
1F
100
AcDbEntity
  8
TEXT1
100
AcDbText
 10
24.48140244950279
 20
24.68009155499846
 30
0.0
 40
0.32
  1
(USES RONIS KEY NO. 421)
  7
ROMANS
 11
24.48140244950279
 21
24.84009155499846
 31
0.0
100
AcDbText
 73
     2
  0
TEXT
  5
12808
330
1F
100
AcDbEntity
  8
TEXT1
100
AcDbText
 10
24.48140244950279
 20
25.28009155499846
 30
0.0
 40
0.32
  1
KEY OPERATED EMERGENCY STOP RESET
  7
ROMANS
 11
24.48140244950279
 21
25.44009155499846
 31
0.0
100
AcDbText
 73
     2
  0
TEXT
  5
1280A
330
1F
100
AcDbEntity
  8
TEXT1
100
AcDbText
 10
42.45268323724714
 20
33.07731657613081
 30
0.0
 40
0.32
  1
EXAMPLE: XY2CE1A296 CHANGES TO XY2CE1E296TK
  7
ROMANS
 11
42.45268323724714
 21
33.2373165761308
 31
0.0
100
AcDbText
 73
     2
  0
TEXT
  5
1280C
330
1F
100
AcDbEntity
  8
TEXT1
100
AcDbText
 10
42.45268323724715
 20
37.2773165761308
 30
0.0
 40
0.32
  1
-FOR NON-PILOT LIGHTDEVICES:
  7
ROMANS
 11
42.45268323724715
 21
37.43731657613079
 31
0.0
100
AcDbText
 73
     2
  0
TEXT
  5
1280D
330
1F
100
AcDbEntity
  8
TEXT1
100
AcDbText
 10
42.45268323724714
 20
34.8773165761308
 30
0.0
 40
0.32
  1
-FOR PILOT LIGHT DEVICES:
  7
ROMANS
 11
42.45268323724714
 21
35.0373165761308
 31
0.0
100
AcDbText
 73
     2
  0
TEXT
  5
1280E
330
1F
100
AcDbEntity
  8
TEXT1
100
AcDbText
 10
42.45268323724714
 20
34.2773165761308
 30
0.0
 40
0.32
  1
1. ADD SUFFIX TK TO THE PART NUMBER
  7
ROMANS
 11
42.45268323724714
 21
34.4373165761308
 31
0.0
100
AcDbText
 73
     2
  0
TEXT
  5
1280F
330
1F
100
AcDbEntity
  8
TEXT1
100
AcDbText
 10
42.45268323724714
 20
33.67731657613079
 30
0.0
 40
0.32
  1
2. CHANGE A TO E
  7
ROMANS
 11
42.45268323724714
 21
33.83731657613079
 31
0.0
100
AcDbText
 73
     2
  0
TEXT
  5
12904
330
1F
100
AcDbEntity
  8
TEXT1
100
AcDbText
 10
24.48140244950279
 20
23.70509155499846
 30
0.0
 40
0.32
  1
THESE DEVICES OR COMPONENTS ARE NOT UL/CSA LISTED
  7
ROMANS
 11
24.48140244950279
 21
23.86509155499846
 31
0.0
100
AcDbText
 73
     2
  0
TEXT
  5
12CCC
330
1F
100
AcDbEntity
  8
TEXT1
100
AcDbText
 10
1.540678488259697
 20
14.20551932587205
 30
0.0
 40
0.32
  1
FOR POSITIVE OPENING CONTACTS PER IEC 947-5-1, EN 60947-5-1; AND NEMA
  7
ROMANS
 11
1.540678488259697
 21
14.36551932587205
 31
0.0
100
AcDbText
 73
     2
  0
TEXT
  5
12CD0
330
1F
100
AcDbEntity
  8
TEXT1
100
AcDbText
 10
1.540678488259697
 20
15.40551932587205
 30
0.0
 40
0.32
  1
FOR 220V  CHANGE LAST DIGIT TO 7, BULB INCLUDED
  7
ROMANS
 11
1.540678488259697
 21
15.56551932587205
 31
0.0
100
AcDbText
 73
     2
  0
TEXT
  5
12D54
330
1F
100
AcDbEntity
  8
TEXT1
100
AcDbText
 10
1.5406784882597
 20
26.48660780716535
 30
0.0
 40
0.32
  1
PART 6 (DIRECT OPENING ACTION)
  7
ROMANS
 11
1.5406784882597
 21
26.64660780716535
 31
0.0
100
AcDbText
 73
     2
  0
LINE
  5
12D55
330
1F
100
AcDbEntity
  8
0
100
AcDbLine
 10
21.59558107119905
 20
21.71551932587206
 30
0.0
 11
1.22058107119906
 21
21.71551932587205
 31
0.0
  0
TEXT
  5
12D57
330
1F
100
AcDbEntity
  8
TEXT1
100
AcDbText
 10
1.401070941008725
 20
23.74352996459888
 30
0.0
 40
0.32
  1
[POSITIVE] OPENING CONTACT)
  7
ROMANS
 11
1.401070941008725
 21
23.90352996459888
 31
0.0
100
AcDbText
 73
     2
  0
TEXT
  5
12D58
330
1F
100
AcDbEntity
  8
TEXT1
100
AcDbText
 10
1.5406784882597
 20
27.11852996459889
 30
0.0
 40
0.32
  1
POSITIVE OPENING CONTACTS PER IEC 947-5-1, EN 60947-5-1; AND NEMA ICS-5,
  7
ROMANS
 11
1.5406784882597
 21
27.27852996459889
 31
0.0
100
AcDbText
 73
     2
  0
TEXT
  5
12D59
330
1F
100
AcDbEntity
  8
TEXT1
100
AcDbText
 10
1.5406784882597
 20
28.31852996459889
 30
0.0
 40
0.32
  1
FOR 220V  CHANGE LAST DIGIT TO 7, BULB INCLUDED
  7
ROMANS
 11
1.5406784882597
 21
28.47852996459889
 31
0.0
100
AcDbText
 73
     2
  0
LINE
  5
12EC8
330
1F
100
AcDbEntity
  8
0
100
AcDbLine
 10
21.62354010497322
 20
39.39009155499849
 30
0.0
 11
1.248540104973223
 21
39.39009155499849
 31
0.0
  0
LINE
  5
12ECA
330
1F
100
AcDbEntity
  8
0
100
AcDbLine
 10
58.73140244950281
 20
39.39009155499848
 30
0.0
 11
24.2314024495028
 21
39.39009155499848
 31
0.0
  0
LINE
  5
12FC0
330
1F
100
AcDbEntity
  8
0
100
AcDbLine
 10
21.62354010497322
 20
24.87852996459889
 30
0.0
 11
1.248540104973232
 21
24.87852996459888
 31
0.0
  0
LINE
  5
12FC2
330
1F
100
AcDbEntity
  8
0
100
AcDbLine
 10
58.7314024495028
 20
23.49009155499847
 30
0.0
 11
24.23140244950279
 21
23.49009155499846
 31
0.0
  0
VIEWPORT
  5
32
330
1B
100
AcDbEntity
 67
     1
  8
0
100
AcDbViewport
 10
8.19813295871584
 20
5.459518447530211
 30
0.0
 40
18.67335969917398
 41
11.91231567016271
 68
     1
 69
     1
1001
ACAD
1000
MVIEW
1002
{
1070
    16
1010
0.0
1020
0.0
1030
0.0
1010
0.0
1020
0.0
1030
1.0
1040
0.0
1040
11.91231567016271
1040
8.19813295871584
1040
5.459518447530211
1040
50.0
1040
0.0
1040
0.0
1070
     0
1070
   100
1070
     1
1070
     0
1070
     0
1070
     0
1070
     0
1070
     0
1040
0.0
1040
0.0
1040
0.0
1040
0.5
1040
0.5
1040
0.5
1040
0.5
1070
     0
1002
{
1002
}
1002
}
  0
LWPOLYLINE
  5
175
330
1B
100
AcDbEntity
 67
     1
  8
VIEWPORT
100
AcDbPolyline
 90
        6
 70
     1
 43
0.0
 10
16.40000099999999
 20
10.25
 10
16.40000099999999
 20
0.9120019999999993
 10
8.002461
 20
0.9120019999999993
 10
8.002461
 20
0.0
 10
0.0
 20
0.0
 10
0.0
 20
10.25
1001
GENIUS_GENOREF_13
1005
0
1005
0
1005
0
1005
0
1005
0
1005
0
1005
0
  0
VIEWPORT
  5
177
330
1B
100
AcDbEntity
 67
     1
  8
VIEWPORT
100
AcDbViewport
 10
8.200000499999999
 20
5.125
 30
0.0
 40
16.40000099999999
 41
10.25
 68
     2
 69
     2
1001
ACAD
1000
MVIEW
1002
{
1070
    16
1010
0.0
1020
0.0
1030
0.0
1010
0.0
1020
0.0
1030
1.0
1040
0.0
1040
41.0
1040
32.80015279127107
1040
20.68971469730547
1040
50.0
1040
0.0
1040
0.0
1070
     0
1070
   100
1070
     1
1070
     2
1070
     0
1070
     0
1070
     0
1070
     0
1040
0.0
1040
0.0
1040
0.0
1040
0.5
1040
0.5
1040
0.5
1040
0.5
1070
     0
1002
{
1002
}
1002
}
1001
GENIUS_GENOREF_13
1005
0
1005
0
1005
0
1005
0
1005
0
1005
0
1005
0
1001
GENIUS_GENSCREG_15
1000
PF
1040
0.0
1000
DF
1040
0.0
1000
MIN
1011
0.0
1021
0.0
1031
0.0
1000
MAX
1011
16.40000099999999
1021
10.25
1031
0.0
1000
FLAGS
1070
     2
  0
INSERT
  5
B2C
330
1B
100
AcDbEntity
 67
     1
  8
TITLEBLOCK
100
AcDbBlockReference
 66
     1
  2
TITLE-PAD
 10
0.0
 20
0.0
 30
0.0
  0
ATTRIB
  5
B2D
330
B2C
100
AcDbEntity
 67
     1
  8
TEXT1
 62
     0
100
AcDbText
 10
10.10183834893798
 20
0.7474460884590166
 30
0.0
 40
0.1
  1

  7
ROMANS
 72
     4
 11
10.10183834893798
 21
0.7474460884590166
 31
0.0
100
AcDbAttribute
  2
DESCRIPTION 1
 70
     0
  0
ATTRIB
  5
B2E
330
B2C
100
AcDbEntity
 67
     1
  8
TEXT1
 62
     0
100
AcDbText
 10
9.351838348937988
 20
0.5517231711406716
 30
0.0
 40
0.1
  1
XY2CE CABLE PULL
  7
ROMANS
 72
     4
 11
10.10183834893798
 21
0.6017231711406717
 31
0.0
100
AcDbAttribute
  2
DESCRIPTION 2
 70
     0
  0
ATTRIB
  5
B2F
330
B2C
100
AcDbEntity
 67
     1
  8
TEXT1
 62
     0
100
AcDbText
 10
8.865647872747512
 20
0.4217145395366124
 30
0.0
 40
0.08
  1
FOR UP TO 165' (50m) CABLE LENGTH
  7
ROMANS
 72
     4
 11
10.10183834893798
 21
0.4560002538223267
 31
0.0
100
AcDbAttribute
  2
DESCRIPTION 3
 70
     0
  0
ATTRIB
  5
B30
330
B2C
100
AcDbEntity
 67
     1
  8
TEXT1
 62
     0
100
AcDbText
 10
9.981838348937989
 20
0.3202773365039833
 30
0.0
 40
0.08
  1
   
  7
ROMANS
 72
     4
 11
10.10183834893798
 21
0.3202773365039833
 31
0.0
100
AcDbAttribute
  2
DESCRIPTION 4
 70
     0
  0
ATTRIB
  5
B31
330
B2C
100
AcDbEntity
 67
     1
  8
TEXT1
 62
     0
100
AcDbText
 10
10.10183834893798
 20
0.1845544191856399
 30
0.0
 40
0.08
  1

  7
ROMANS
 72
     4
 11
10.10183834893798
 21
0.1845544191856399
 31
0.0
100
AcDbAttribute
  2
DESCRIPTION 5
 70
     0
  0
ATTRIB
  5
B32
330
B2C
100
AcDbEntity
 67
     1
  8
TEXT1
 62
     0
100
AcDbText
 10
12.74772367103195
 20
0.096540546036505
 30
0.0
 40
0.12
  1
XY2CE_OUTLINE_001
 41
0.9512024731840066
  7
M_STANDARD
 11
12.74772367103195
 21
0.156540546036505
 31
0.0
100
AcDbAttribute
  2
DWGNO
 70
     0
 74
     2
  0
ATTRIB
  5
B33
330
B2C
100
AcDbEntity
 67
     1
  8
TEXT1
 62
     0
100
AcDbText
 10
16.27506454949325
 20
-0.1507193079929352
 30
0.0
 40
0.08
  1
 
  7
ROMANS
 72
     2
 11
16.35506454949325
 21
-0.1107193079929352
 31
0.0
100
AcDbAttribute
  2
REF
 70
     0
 74
     2
  0
ATTRIB
  5
B34
330
B2C
100
AcDbEntity
 67
     1
  8
TEXT1
 62
     0
100
AcDbText
 10
0.0266402374038712
 20
-0.1507193079929352
 30
0.0
 40
0.08
  1
MAY 2001
  7
ROMANS
 11
0.0266402374038712
 21
-0.1107193079929352
 31
0.0
100
AcDbAttribute
  2
DATE
 70
     0
 74
     2
  0
SEQEND
  5
B35
330
B2C
100
AcDbEntity
 67
     1
  8
0
  0
INSERT
  5
D86
330
1B
100
AcDbEntity
 67
     1
  8
TITLEBLOCK
100
AcDbBlockReference
  2
OEM-NOTES
 10
0.0
 20
0.0
 30
0.0
 41
0.5
 42
0.5
 43
0.5
  0
ENDSEC
  0
SECTION
  2
OBJECTS
  0
DICTIONARY
  5
C
330
0
100
AcDbDictionary
  3
ACAD_GROUP
350
D
  3
ACAD_LAYOUT
350
1A
  3
ACAD_MLINESTYLE
350
17
  3
ACAD_PLOTSETTINGS
350
19
  3
ACAD_PLOTSTYLENAME
350
E
  3
ACADDIM
350
C409
  3
ACDBVARIABLEDICTIONARY
350
374
  3
ACMDICTIONARY
350
383
  3
AMG
350
36B
  3
AMGSNAPSETTINGS
350
399
  3
ASE_INDEX_DICTIONARY
350
6A
  3
DWGPROPS
350
CB4
  3
ACDBHEADERROUNDTRIPXREC
350
13394
  0
DICTIONARY
  5
73
330
1F
100
AcDbDictionary
280
     1
  3
ACAD_INDEX
360
1108F
  3
ACAD_LAYOUTSELFREF
360
133B6
  0
DICTIONARY
  5
75
330
1B
100
AcDbDictionary
280
     1
  3
ACAD_LAYOUTSELFREF
360
133B5
  0
DICTIONARY
  5
D
102
{ACAD_REACTORS
330
C
102
}
330
C
100
AcDbDictionary
  0
DICTIONARY
  5
1A
102
{ACAD_REACTORS
330
C
102
}
330
C
100
AcDbDictionary
  0
DICTIONARY
  5
17
102
{ACAD_REACTORS
330
C
102
}
330
C
100
AcDbDictionary
  3
STANDARD
350
18
  0
DICTIONARY
  5
19
102
{ACAD_REACTORS
330
C
102
}
330
C
100
AcDbDictionary
  3
A_SIZE_PAPER
350
2FF
  3
B_SIZE_PAPER
350
2FD
  3
D_SIZE_PAPER
350
2FE
  0
ACDBDICTIONARYWDFLT
  5
E
102
{ACAD_REACTORS
330
C
102
}
330
C
100
AcDbDictionary
281
     1
  3
Normal
350
F
100
AcDbDictionaryWithDefault
340
F
  0
XRECORD
  5
C409
102
{ACAD_REACTORS
330
C
102
}
330
C
100
AcDbXrecord
 90
   990106
  3

 60
     0
 61
     0
 62
     1
 63
     3
 64
     0
 65
     0
 66
     0
 67
     3
 68
     1
 69
     0
 70
     0
 71
     0
 72
     0
 40
0.0
170
     0
  0
DICTIONARY
  5
374
102
{ACAD_REACTORS
330
C
102
}
330
C
100
AcDbDictionary
  3
INDEXCTL
350
375
  3
SORTENTS
350
A907
  0
DICTIONARY
  5
383
102
{ACAD_REACTORS
330
C
102
}
330
C
100
AcDbDictionary
  0
DICTIONARY
  5
36B
102
{ACAD_REACTORS
330
C
102
}
330
C
100
AcDbDictionary
  3
ACMGSETTINGS
350
36C
  0
DICTIONARY
  5
399
102
{ACAD_REACTORS
330
C
102
}
330
C
100
AcDbDictionary
  0
DICTIONARY
  5
6A
102
{ACAD_REACTORS
330
C
102
}
330
C
100
AcDbDictionary
  3
ASEBLOCKHIERARCHYINDEXRECORD
350
6C
1001
DCO15
1040
1379130883.246999
  0
XRECORD
  5
CB4
102
{ACAD_REACTORS
330
C
102
}
330
C
100
AcDbXrecord
  1
DWGPROPS COOKIE
  2

  3

  4

  6

  7

  8
mgp706
  9

300
AmdtFileType=84
301
=
302
=
303
=
304
=
305
=
306
=
307
=
308
=
309
=
 40
0.2107598032407407
 41
2451764.535041909
 42
2451851.591606284
  1

 90
        1
  0
DICTIONARY
  5
13394
102
{ACAD_REACTORS
330
C
102
}
330
C
100
AcDbDictionary
  3
TSTACKALIGN
350
13395
  3
TSTACKSIZE
350
13396
  3
HYPERLINKBASE
350
13397
  3
STYLESHEET
350
13398
  3
LAYOUTDICT
350
13399
  3
PLOTSETDICT
350
1339A
  3
PLOTSTYLNAMDICT
350
1339B
  3
LWETCUNION
350
1339C
  3
INSUNITS
350
1339D
  3
CEPSNTYPE
350
1339E
  3
FINGERPRINTGUID
350
1339F
  3
VERSIONGUID
350
133A0
  3
PSVPSCALE
350
133A1
  3
DIMSTYLEDATA
350
133A2
  3
PUCSORTHOREF
350
133A3
  3
PUCSORTHOVIEW
350
133A4
  3
PUCSBASE
350
133A5
  3
PUCSORGTOP
350
133A6
  3
PUCSORGBOTTOM
350
133A7
  3
PUCSORGLEFT
350
133A8
  3
PUCSORGRIGHT
350
133A9
  3
PUCSORGFRONT
350
133AA
  3
PUCSORGBACK
350
133AB
  3
UCSORTHOREF
350
133AC
  3
UCSORTHOVIEW
350
133AD
  3
UCSBASE
350
133AE
  3
UCSORGTOP
350
133AF
  3
UCSORGBOTTOM
350
133B0
  3
UCSORGLEFT
350
133B1
  3
UCSORGRIGHT
350
133B2
  3
UCSORGFRONT
350
133B3
  3
UCSORGBACK
350
133B4
  0
DICTIONARY
  5
1108F
102
{ACAD_REACTORS
330
73
102
}
330
73
100
AcDbDictionary
  3
*A1
350
11090
  0
XRECORD
  5
133B6
102
{ACAD_REACTORS
330
73
102
}
330
73
100
AcDbXrecord
340
1F
  0
XRECORD
  5
133B5
102
{ACAD_REACTORS
330
75
102
}
330
75
100
AcDbXrecord
340
1B
  0
MLINESTYLE
  5
18
102
{ACAD_REACTORS
330
17
102
}
330
17
100
AcDbMlineStyle
  2
STANDARD
 70
     0
  3

 62
   256
 51
90.0
 52
90.0
 71
     2
 49
0.5
 62
   256
  6
BYLAYER
 49
-0.5
 62
   256
  6
BYLAYER
  0
PLOTSETTINGS
  5
2FF
102
{ACAD_REACTORS
330
19
102
}
330
19
100
AcDbPlotSettings
  1
A Size Paper
  2
none_device
  4
ANSI_A_(8.50_x_11.00_Inches)
  6

 40
6.349999904632568
 41
19.04999923706054
 42
6.350006103515625
 43
19.04998779296875
 44
215.8999938964843
 45
279.3999938964843
 46
19.04999999999999
 47
-9.651999999999999
 48
0.0
 49
0.0
140
0.0
141
0.0
142
1.0
143
1.6
 70
   740
 72
     0
 73
     1
 74
     1
  7
monochrome.ctb
 75
     0
147
0.625
148
0.0034886547032954
149
0.0199946439100934
  0
PLOTSETTINGS
  5
2FD
102
{ACAD_REACTORS
330
19
102
}
330
19
100
AcDbPlotSettings
  1
B Size Paper
  2
none_device
  4
ANSI_B_(11.00_x_17.00_Inches)
  6

 40
6.349999904632568
 41
19.04999923706054
 42
6.350006103515625
 43
19.04998779296875
 44
279.3999938964843
 45
431.7999877929687
 46
1.27
 47
-11.43
 48
0.0
 49
0.0
140
0.0
141
0.0
142
1.0
143
1.0
 70
   756
 72
     0
 73
     1
 74
     1
  7
monochrome.ctb
 75
    16
147
1.0
148
0.0034886547032954
149
0.0199946439100934
  0
PLOTSETTINGS
  5
2FE
102
{ACAD_REACTORS
330
19
102
}
330
19
100
AcDbPlotSettings
  1
D Size Paper
  2
none_device
  4
ANSI_D_(22.00_x_34.00_Inches)
  6

 40
6.349999904632568
 41
19.04999923706054
 42
6.3499755859375
 43
19.04998779296875
 44
558.7999877929687
 45
863.5999755859375
 46
8.889999999999998
 47
-3.809999999999999
 48
0.0
 49
0.0
140
0.0
141
0.0
142
1.0
143
0.5
 70
   740
 72
     0
 73
     1
 74
     1
  7
monochrome.ctb
 75
     0
147
2.0
148
0.0034886547032954
149
0.0199946439100934
  0
ACDBPLACEHOLDER
  5
F
102
{ACAD_REACTORS
330
E
102
}
330
E
100
AcDbPlaceHolder
280
     0
  0
DICTIONARYVAR
  5
375
102
{ACAD_REACTORS
330
374
102
}
330
374
100
DictionaryVariables
280
     0
  1
1
  0
DICTIONARYVAR
  5
A907
102
{ACAD_REACTORS
330
374
102
}
330
374
100
DictionaryVariables
280
     0
  1
96
  0
DICTIONARY
  5
36C
102
{ACAD_REACTORS
330
36B
102
}
330
36B
100
AcDbDictionary
  3
DWGSETTINGS
350
CA0
  0
XRECORD
  5
6C
102
{ACAD_REACTORS
330
6A
102
}
330
6A
100
AcDbXrecord
  0
XRECORD
  5
13395
102
{ACAD_REACTORS
330
13394
102
}
330
13394
100
AcDbXrecord
 90
        1
  0
XRECORD
  5
13396
102
{ACAD_REACTORS
330
13394
102
}
330
13394
100
AcDbXrecord
 90
       70
  0
XRECORD
  5
13397
102
{ACAD_REACTORS
330
13394
102
}
330
13394
100
AcDbXrecord
  1

  0
XRECORD
  5
13398
102
{ACAD_REACTORS
330
13394
102
}
330
13394
100
AcDbXrecord
  1

  0
XRECORD
  5
13399
102
{ACAD_REACTORS
330
13394
102
}
330
13394
100
AcDbXrecord
340
1A
  0
XRECORD
  5
1339A
102
{ACAD_REACTORS
330
13394
102
}
330
13394
100
AcDbXrecord
340
19
  0
XRECORD
  5
1339B
102
{ACAD_REACTORS
330
13394
102
}
330
13394
100
AcDbXrecord
340
E
  0
XRECORD
  5
1339C
102
{ACAD_REACTORS
330
13394
102
}
330
13394
100
AcDbXrecord
 90
    10269
  0
XRECORD
  5
1339D
102
{ACAD_REACTORS
330
13394
102
}
330
13394
100
AcDbXrecord
 90
        1
  0
XRECORD
  5
1339E
102
{ACAD_REACTORS
330
13394
102
}
330
13394
100
AcDbXrecord
 90
        0
  0
XRECORD
  5
1339F
102
{ACAD_REACTORS
330
13394
102
}
330
13394
100
AcDbXrecord
  1
{4E694E3A-6C64-11D4-81E3-0004AC4461C9}
  0
XRECORD
  5
133A0
102
{ACAD_REACTORS
330
13394
102
}
330
13394
100
AcDbXrecord
  1
{695246FD-49F9-11D5-B1E9-00062962DB88}
  0
XRECORD
  5
133A1
102
{ACAD_REACTORS
330
13394
102
}
330
13394
100
AcDbXrecord
 40
0.25
  0
XRECORD
  5
133A2
102
{ACAD_REACTORS
330
13394
102
}
330
13394
100
AcDbXrecord
1000
DSTYLE
1002
{
1070
    79
 70
     1
1070
   148
 40
0.1
1070
   341
340
AA81
1070
   342
340
AA81
1070
   371
 70
    -1
1070
   372
 70
    -1
1002
}
  0
XRECORD
  5
133A3
102
{ACAD_REACTORS
330
13394
102
}
330
13394
100
AcDbXrecord
340
0
  0
XRECORD
  5
133A4
102
{ACAD_REACTORS
330
13394
102
}
330
13394
100
AcDbXrecord
 70
     0
  0
XRECORD
  5
133A5
102
{ACAD_REACTORS
330
13394
102
}
330
13394
100
AcDbXrecord
340
0
  0
XRECORD
  5
133A6
102
{ACAD_REACTORS
330
13394
102
}
330
13394
100
AcDbXrecord
 10
0.0
 20
0.0
 30
0.0
  0
XRECORD
  5
133A7
102
{ACAD_REACTORS
330
13394
102
}
330
13394
100
AcDbXrecord
 10
0.0
 20
0.0
 30
0.0
  0
XRECORD
  5
133A8
102
{ACAD_REACTORS
330
13394
102
}
330
13394
100
AcDbXrecord
 10
0.0
 20
0.0
 30
0.0
  0
XRECORD
  5
133A9
102
{ACAD_REACTORS
330
13394
102
}
330
13394
100
AcDbXrecord
 10
0.0
 20
0.0
 30
0.0
  0
XRECORD
  5
133AA
102
{ACAD_REACTORS
330
13394
102
}
330
13394
100
AcDbXrecord
 10
0.0
 20
0.0
 30
0.0
  0
XRECORD
  5
133AB
102
{ACAD_REACTORS
330
13394
102
}
330
13394
100
AcDbXrecord
 10
0.0
 20
0.0
 30
0.0
  0
XRECORD
  5
133AC
102
{ACAD_REACTORS
330
13394
102
}
330
13394
100
AcDbXrecord
340
0
  0
XRECORD
  5
133AD
102
{ACAD_REACTORS
330
13394
102
}
330
13394
100
AcDbXrecord
 70
     0
  0
XRECORD
  5
133AE
102
{ACAD_REACTORS
330
13394
102
}
330
13394
100
AcDbXrecord
340
0
  0
XRECORD
  5
133AF
102
{ACAD_REACTORS
330
13394
102
}
330
13394
100
AcDbXrecord
 10
0.0
 20
0.0
 30
0.0
  0
XRECORD
  5
133B0
102
{ACAD_REACTORS
330
13394
102
}
330
13394
100
AcDbXrecord
 10
0.0
 20
0.0
 30
0.0
  0
XRECORD
  5
133B1
102
{ACAD_REACTORS
330
13394
102
}
330
13394
100
AcDbXrecord
 10
0.0
 20
0.0
 30
0.0
  0
XRECORD
  5
133B2
102
{ACAD_REACTORS
330
13394
102
}
330
13394
100
AcDbXrecord
 10
0.0
 20
0.0
 30
0.0
  0
XRECORD
  5
133B3
102
{ACAD_REACTORS
330
13394
102
}
330
13394
100
AcDbXrecord
 10
0.0
 20
0.0
 30
0.0
  0
XRECORD
  5
133B4
102
{ACAD_REACTORS
330
13394
102
}
330
13394
100
AcDbXrecord
 10
0.0
 20
0.0
 30
0.0
  0
LAYER_INDEX
  5
11090
102
{ACAD_REACTORS
330
1108F
102
}
330
1108F
100
AcDbIndex
 40
2452062.398574583
100
AcDbLayerIndex
  8
0
360
11091
 90
       51
  8
BLOCKS
360
11092
 90
        0
  8
CENTER1
360
11093
 90
       10
  8
CENTER2
360
11094
 90
        0
  8
CENTER3
360
11095
 90
        0
  8
CONSTRUCTION
360
11096
 90
        0
  8
CONTINUOUS1
360
11097
 90
      495
  8
CONTINUOUS2
360
11098
 90
        0
  8
CONTINUOUS3
360
11099
 90
        0
  8
DASHDOT1
360
1109A
 90
        0
  8
DASHDOT2
360
1109B
 90
        0
  8
DASHDOT3
360
1109C
 90
        0
  8
DIM
360
1109D
 90
       13
  8
HIDDEN1
360
1109E
 90
       11
  8
HIDDEN2
360
1109F
 90
        0
  8
HIDDEN3
360
110A0
 90
        0
  8
PHANTOM1
360
110A1
 90
        0
  8
PHANTOM2
360
110A2
 90
        0
  8
PHANTOM3
360
110A3
 90
        0
  8
TEXT1
360
110A4
 90
      278
  8
TEXT2
360
110A5
 90
        0
  8
TEXT3
360
110A6
 90
        0
  8
TITLEBLOCK
360
110A7
 90
        0
  8
VIEWPORT
360
110A8
 90
        2
  8
Defpoints
360
110A9
 90
        0
  0
XRECORD
  5
CA0
102
{ACAD_REACTORS
330
36C
102
}
330
36C
100
AcDbXrecord
  1
VERSION
140
15.0
  1
PRODUCT
  2
AutoCAD Mechanical 2000
  0
IDBUFFER
  5
11091
330
0
100
AcDbIdBuffer
330
79E
330
124D1
330
124D5
330
1252C
330
1252D
330
1252E
330
12531
330
12539
330
12546
330
1255A
330
1255D
330
1255F
330
12561
330
12563
330
12565
330
12567
330
12569
330
1256B
330
12574
330
12575
330
12582
330
12583
330
1258E
330
1258F
330
12595
330
125D2
330
125D3
330
125D4
330
125D5
330
125D6
330
125EC
330
125FB
330
125FC
330
125FD
330
125FE
330
125FF
330
12600
330
12601
330
1260D
330
1260F
330
12610
330
1262C
330
1262D
330
127FB
330
12800
330
12806
330
12D55
330
12EC8
330
12ECA
330
12FC0
330
12FC2
  0
IDBUFFER
  5
11092
330
0
100
AcDbIdBuffer
  0
IDBUFFER
  5
11093
330
0
100
AcDbIdBuffer
330
107EF
330
107F0
330
107F3
330
107F4
330
10807
330
1080B
330
1080D
330
10FD2
330
10FD3
330
10FEA
  0
IDBUFFER
  5
11094
330
0
100
AcDbIdBuffer
  0
IDBUFFER
  5
11095
330
0
100
AcDbIdBuffer
  0
IDBUFFER
  5
11096
330
0
100
AcDbIdBuffer
  0
IDBUFFER
  5
11097
330
0
100
AcDbIdBuffer
330
107DA
330
107DC
330
107DE
330
107DF
330
107E0
330
107E1
330
107E2
330
107E8
330
107E9
330
107EA
330
107EB
330
107EC
330
107ED
330
107F2
330
107F5
330
107F6
330
107F8
330
107F9
330
10802
330
10803
330
10804
330
10805
330
10806
330
10808
330
10824
330
10825
330
10826
330
10827
330
10828
330
10829
330
1082A
330
1082B
330
1082C
330
1082D
330
1082E
330
1082F
330
10830
330
10834
330
10836
330
10837
330
10838
330
10839
330
1083A
330
1083B
330
1083C
330
1083D
330
1083E
330
1083F
330
10840
330
10841
330
10842
330
10843
330
10844
330
10845
330
10849
330
1084A
330
1084B
330
1084C
330
1084D
330
1084E
330
1084F
330
10854
330
10855
330
10856
330
10859
330
1085A
330
1085F
330
10860
330
10865
330
10866
330
10867
330
1086D
330
1086E
330
10870
330
10871
330
10872
330
10873
330
10875
330
10876
330
10877
330
10878
330
10879
330
1087A
330
1087B
330
1087C
330
1087D
330
1087E
330
10881
330
10882
330
10884
330
10885
330
10887
330
10888
330
10889
330
1088A
330
1088B
330
1088C
330
1088D
330
1088E
330
1088F
330
10890
330
10891
330
10892
330
10893
330
10894
330
10895
330
10896
330
10897
330
10898
330
10899
330
1089B
330
1089C
330
1089D
330
1089E
330
1089F
330
108A0
330
108A1
330
108A2
330
108A3
330
108A4
330
108A6
330
108A7
330
108A8
330
108A9
330
108AA
330
108AB
330
108AC
330
108AD
330
108AE
330
108AF
330
108B0
330
108B1
330
108B2
330
108B3
330
108B4
330
108B5
330
108B6
330
108B7
330
108B8
330
108B9
330
108BA
330
108BC
330
108BD
330
108BE
330
108BF
330
108C0
330
108C1
330
108C2
330
108C3
330
108C4
330
108C5
330
108C7
330
108C8
330
108C9
330
108CA
330
108CB
330
108CD
330
108CE
330
108CF
330
108D0
330
108D1
330
108D2
330
108D3
330
108D4
330
108D5
330
108D6
330
108D7
330
108D8
330
108D9
330
108DA
330
108DB
330
108DD
330
108DE
330
108DF
330
108E0
330
108E1
330
108E2
330
108E3
330
108E4
330
108E5
330
108E6
330
109A2
330
109A4
330
109A6
330
109A7
330
109A8
330
109A9
330
109AA
330
109AB
330
109AC
330
109AD
330
109AE
330
109AF
330
109B0
330
109B1
330
109B2
330
109B3
330
109B4
330
109B5
330
109B6
330
109B7
330
109B8
330
109B9
330
109BA
330
109BB
330
109BC
330
109BD
330
109BE
330
109BF
330
109C0
330
109C1
330
109C2
330
109C3
330
109C4
330
109C5
330
109C6
330
109C7
330
109C8
330
109C9
330
109CA
330
109CB
330
109CC
330
109CD
330
109CE
330
109CF
330
109D0
330
109D1
330
109D2
330
109D3
330
109D4
330
109D5
330
109D6
330
109D7
330
109D8
330
109D9
330
109DA
330
109DB
330
109DC
330
109DD
330
109DE
330
109E0
330
109E9
330
109EA
330
109EF
330
109F0
330
109F1
330
109F2
330
109F7
330
10A02
330
10A03
330
10A04
330
10A06
330
10A09
330
10A0F
330
10A18
330
10A19
330
10A1A
330
10A1B
330
10A21
330
10A22
330
10A23
330
10A2A
330
10A2B
330
10A2C
330
10A2D
330
10A31
330
10A32
330
10A38
330
10A39
330
10A3A
330
10A3B
330
10A3C
330
10A3E
330
10A3F
330
10A40
330
10A41
330
10A42
330
10A43
330
10A48
330
10A49
330
10A4A
330
10A4B
330
10A4C
330
10A4D
330
10A4E
330
10A4F
330
10A50
330
10A51
330
10A52
330
10A53
330
10CD7
330
10CD8
330
10CDE
330
10CDF
330
10CE0
330
10CE1
330
10CE2
330
10CEF
330
10CF1
330
10CF3
330
10CF7
330
10CF8
330
10CFA
330
10D07
330
10D08
330
10D09
330
10D0A
330
10D0B
330
10D0C
330
10D0D
330
10D0E
330
10D0F
330
10D10
330
10D11
330
10D12
330
10D13
330
10D14
330
10D15
330
10D16
330
10D17
330
10D18
330
10D19
330
10D1A
330
10D1B
330
10D1C
330
10D1D
330
10D1E
330
10D1F
330
10D20
330
10D21
330
10D22
330
10D23
330
10D24
330
10E19
330
10E1A
330
10E1B
330
10E1C
330
10E1F
330
10EE4
330
10EE7
330
10EE8
330
10EE9
330
10EEA
330
10EEB
330
10EEC
330
10EED
330
10EEE
330
10EEF
330
10EF0
330
10EF5
330
10F9A
330
10F9B
330
10F9C
330
10F9D
330
10F9E
330
10F9F
330
10FA0
330
10FA1
330
10FA2
330
10FA3
330
10FA4
330
10FA5
330
10FA6
330
10FA7
330
10FA8
330
10FA9
330
10FAA
330
10FAC
330
10FAD
330
10FAE
330
10FAF
330
10FB1
330
10FB2
330
10FB3
330
10FB4
330
10FB5
330
10FB6
330
10FB7
330
10FB8
330
10FB9
330
10FBA
330
10FBB
330
10FBC
330
10FBD
330
10FC0
330
10FC1
330
10FC2
330
10FC7
330
10FC9
330
10FCA
330
10FCB
330
10FCC
330
10FCD
330
10FCE
330
10FCF
330
10FD0
330
10FD1
330
10FD4
330
10FD5
330
10FD6
330
10FD7
330
10FD8
330
10FD9
330
10FDA
330
10FDB
330
10FDC
330
10FDD
330
10FDE
330
10FDF
330
10FE0
330
10FE1
330
10FE2
330
10FE3
330
10FE4
330
10FE5
330
10FE6
330
10FE7
330
10FE8
330
10FE9
330
1108D
330
1175A
330
1175B
330
1175C
330
1175D
330
1175E
330
1175F
330
11760
330
11853
330
11854
330
11859
330
1185A
330
11864
330
11868
330
11869
330
1186A
330
11870
330
11871
330
11873
330
11875
330
11876
330
11877
330
11878
330
11879
330
1187A
330
1187B
330
1187D
330
11881
330
11882
330
11883
330
11885
330
11886
330
11887
330
11889
330
1188A
330
1188B
330
1188C
330
1188F
330
11892
330
11893
330
11894
330
11895
330
11896
330
11897
330
11898
330
11899
330
1189A
330
1189D
330
1189E
330
1189F
330
118A0
330
118A1
330
118A2
330
118A3
330
118A4
330
118A5
330
118A6
330
118A7
330
118A9
330
118AA
330
118AB
330
118AC
330
118AD
330
118AE
330
118AF
330
118B0
330
118B1
330
118B2
330
118B3
330
118B4
330
118B5
330
118B6
330
118B7
330
118B8
330
11A40
330
11D92
  0
IDBUFFER
  5
11098
330
0
100
AcDbIdBuffer
  0
IDBUFFER
  5
11099
330
0
100
AcDbIdBuffer
  0
IDBUFFER
  5
1109A
330
0
100
AcDbIdBuffer
  0
IDBUFFER
  5
1109B
330
0
100
AcDbIdBuffer
  0
IDBUFFER
  5
1109C
330
0
100
AcDbIdBuffer
  0
IDBUFFER
  5
1109D
330
0
100
AcDbIdBuffer
330
10A69
330
10A79
330
10A89
330
10AA1
330
10AFF
330
10B57
330
10B97
330
10BAF
330
10BC7
330
110B2
330
110C0
330
110CE
330
110DD
  0
IDBUFFER
  5
1109E
330
0
100
AcDbIdBuffer
330
109FA
330
10A99
330
10A9A
330
10A9B
330
10A9C
330
10A9D
330
10A9E
330
10A9F
330
10AA0
330
11256
330
11257
  0
IDBUFFER
  5
1109F
330
0
100
AcDbIdBuffer
  0
IDBUFFER
  5
110A0
330
0
100
AcDbIdBuffer
  0
IDBUFFER
  5
110A1
330
0
100
AcDbIdBuffer
  0
IDBUFFER
  5
110A2
330
0
100
AcDbIdBuffer
  0
IDBUFFER
  5
110A3
330
0
100
AcDbIdBuffer
  0
IDBUFFER
  5
110A4
330
0
100
AcDbIdBuffer
330
1134A
330
1134B
330
11386
330
11387
330
1138C
330
1138D
330
11572
330
11573
330
11574
330
11575
330
11855
330
124B9
330
124BA
330
124BB
330
124BC
330
124BD
330
124BF
330
124C0
330
124C2
330
124C3
330
124C4
330
124C9
330
124CA
330
124CB
330
124D9
330
124E0
330
124E1
330
124E2
330
124E3
330
124E4
330
124E5
330
124E6
330
124E7
330
124E8
330
124E9
330
124EA
330
124EB
330
124EC
330
124ED
330
124F6
330
124F7
330
124F8
330
124F9
330
124FA
330
124FB
330
124FC
330
124FD
330
124FE
330
124FF
330
12500
330
12501
330
12502
330
1250F
330
12510
330
1251C
330
1251D
330
1251E
330
12526
330
12527
330
12528
330
12529
330
1252A
330
12532
330
12534
330
12535
330
12536
330
12537
330
12538
330
1253A
330
1253B
330
1253C
330
12542
330
12543
330
12544
330
12545
330
12547
330
12548
330
12549
330
1254A
330
1254B
330
1254C
330
1254D
330
1254E
330
1254F
330
12550
330
12551
330
12552
330
12553
330
1255C
330
1255E
330
12560
330
12562
330
1256A
330
1256C
330
1256D
330
1256E
330
1256F
330
12570
330
12571
330
12572
330
12573
330
12576
330
12577
330
12578
330
12579
330
1257D
330
1257E
330
1257F
330
12584
330
12585
330
12586
330
12587
330
12588
330
12589
330
1258A
330
12590
330
12591
330
12596
330
12597
330
12598
330
12599
330
1259A
330
1259C
330
1259D
330
1259E
330
1259F
330
125A4
330
125A5
330
125A6
330
125A7
330
125A8
330
125A9
330
125AA
330
125AB
330
125AC
330
125AD
330
125AE
330
125AF
330
125B0
330
125B1
330
125B2
330
125B3
330
125B4
330
125B5
330
125B6
330
125B7
330
125B8
330
125B9
330
125BA
330
125BB
330
125BC
330
125BD
330
125BE
330
125BF
330
125C0
330
125C1
330
125C2
330
125C3
330
125C4
330
125C5
330
125C6
330
125C7
330
125C8
330
125C9
330
125CA
330
125CB
330
125CC
330
125CD
330
125CE
330
125CF
330
125D0
330
125D1
330
125D7
330
125D8
330
125D9
330
125DA
330
125DB
330
125DC
330
125DD
330
125DE
330
125DF
330
125E0
330
125E1
330
125E2
330
125E3
330
125E4
330
125E5
330
125E6
330
125E7
330
125E8
330
125E9
330
12607
330
1260C
330
12622
330
12623
330
12624
330
12625
330
1262A
330
1264C
330
1264D
330
1264E
330
1264F
330
12650
330
12651
330
12652
330
12653
330
12654
330
12655
330
12657
330
12658
330
12659
330
1265B
330
1265C
330
1265D
330
1265E
330
1265F
330
12660
330
12661
330
12662
330
12663
330
12664
330
12665
330
12666
330
12667
330
1266A
330
1275D
330
1275E
330
1275F
330
12760
330
12761
330
12762
330
12763
330
12764
330
12765
330
12766
330
12767
330
12768
330
12769
330
1276A
330
1276B
330
1276C
330
1276D
330
1276E
330
1276F
330
12770
330
12771
330
12772
330
12773
330
12774
330
12775
330
12776
330
12777
330
12778
330
12779
330
127F5
330
127F6
330
127F7
330
127F8
330
127F9
330
12801
330
12802
330
12803
330
12804
330
12805
330
12807
330
12808
330
1280A
330
1280C
330
1280D
330
1280E
330
1280F
330
12904
330
12CCC
330
12CD0
330
12D54
330
12D57
330
12D58
330
12D59
  0
IDBUFFER
  5
110A5
330
0
100
AcDbIdBuffer
  0
IDBUFFER
  5
110A6
330
0
100
AcDbIdBuffer
  0
IDBUFFER
  5
110A7
330
0
100
AcDbIdBuffer
  0
IDBUFFER
  5
110A8
330
0
100
AcDbIdBuffer
330
BF7
330
BF8
  0
IDBUFFER
  5
110A9
330
0
100
AcDbIdBuffer
  0
ENDSEC
  0
EOF
