  0
SECTION
  2
HEADER
  9
$ACADVER
  1
AC1009
  9
$INSBASE
 10
402.590624
 20
-1.041018
 30
0.0
  9
$EXTMIN
 10
141.872707
 20
14.429664
 30
0.0
  9
$EXTMAX
 10
175.852707
 20
59.408844
 30
0.0
  9
$LIMMIN
 10
-407.970438
 20
-367.832444
  9
$LIMMAX
 10
429.804077
 20
234.370848
  9
$ORTHOMODE
 70
     1
  9
$REGENMODE
 70
     1
  9
$FILLMODE
 70
     1
  9
$QTEXTMODE
 70
     0
  9
$MIRRTEXT
 70
     1
  9
$DRAGMODE
 70
     2
  9
$LTSCALE
 40
10.0
  9
$OSMODE
 70
    32
  9
$ATTMODE
 70
     1
  9
$TEXTSIZE
 40
6.0
  9
$TRACEWID
 40
1.0
  9
$TEXTSTYLE
  7
ROMANS
  9
$CLAYER
  8
ALPHA
  9
$CELTYPE
  6
BYLAYER
  9
$CECOLOR
 62
   256
  9
$DIMSCALE
 40
1.0
  9
$DIMASZ
 40
5.0
  9
$DIMEXO
 40
2.0
  9
$DIMDLI
 40
0.38
  9
$DIMRND
 40
0.0
  9
$DIMDLE
 40
0.0
  9
$DIMEXE
 40
2.5
  9
$DIMTP
 40
0.0
  9
$DIMTM
 40
0.0
  9
$DIMTXT
 40
2.5
  9
$DIMCEN
 40
0.0
  9
$DIMTSZ
 40
0.0
  9
$DIMTOL
 70
     0
  9
$DIMLIM
 70
     0
  9
$DIMTIH
 70
     1
  9
$DIMTOH
 70
     1
  9
$DIMSE1
 70
     0
  9
$DIMSE2
 70
     0
  9
$DIMTAD
 70
     1
  9
$DIMZIN
 70
    12
  9
$DIMBLK
  1
OPEN30
  9
$DIMASO
 70
     1
  9
$DIMSHO
 70
     1
  9
$DIMPOST
  1

  9
$DIMAPOST
  1

  9
$DIMALT
 70
     0
  9
$DIMALTD
 70
     2
  9
$DIMALTF
 40
25.4
  9
$DIMLFAC
 40
1.0
  9
$DIMTOFL
 70
     0
  9
$DIMTVP
 40
0.0
  9
$DIMTIX
 70
     0
  9
$DIMSOXD
 70
     0
  9
$DIMSAH
 70
     0
  9
$DIMBLK1
  1

  9
$DIMBLK2
  1

  9
$DIMSTYLE
  2
SC_DEFAUT
  9
$DIMCLRD
 70
     0
  9
$DIMCLRE
 70
     0
  9
$DIMCLRT
 70
     0
  9
$DIMTFAC
 40
1.0
  9
$DIMGAP
 40
2.0
  9
$LUNITS
 70
     2
  9
$LUPREC
 70
     1
  9
$SKETCHINC
 40
0.1
  9
$FILLETRAD
 40
0.0
  9
$AUNITS
 70
     0
  9
$AUPREC
 70
     0
  9
$MENU
  1
acad
  9
$ELEVATION
 40
0.0
  9
$PELEVATION
 40
0.0
  9
$THICKNESS
 40
0.0
  9
$LIMCHECK
 70
     0
  9
$BLIPMODE
 70
     0
  9
$CHAMFERA
 40
0.0
  9
$CHAMFERB
 40
0.0
  9
$SKPOLY
 70
     0
  9
$TDCREATE
 40
2450373.687919
  9
$TDUPDATE
 40
2453028.640939
  9
$TDINDWG
 40
1.036416
  9
$TDUSRTIMER
 40
1.036416
  9
$USRTIMER
 70
     1
  9
$ANGBASE
 50
0.0
  9
$ANGDIR
 70
     0
  9
$PDMODE
 70
    32
  9
$PDSIZE
 40
0.0
  9
$PLINEWID
 40
0.0
  9
$COORDS
 70
     1
  9
$SPLFRAME
 70
     0
  9
$SPLINETYPE
 70
     6
  9
$SPLINESEGS
 70
     8
  9
$ATTDIA
 70
     0
  9
$ATTREQ
 70
     1
  9
$HANDLING
 70
     1
  9
$HANDSEED
  5
972B
  9
$SURFTAB1
 70
     6
  9
$SURFTAB2
 70
     6
  9
$SURFTYPE
 70
     6
  9
$SURFU
 70
     6
  9
$SURFV
 70
     6
  9
$UCSNAME
  2

  9
$UCSORG
 10
0.0
 20
0.0
 30
0.0
  9
$UCSXDIR
 10
1.0
 20
0.0
 30
0.0
  9
$UCSYDIR
 10
0.0
 20
1.0
 30
0.0
  9
$PUCSNAME
  2

  9
$PUCSORG
 10
0.0
 20
0.0
 30
0.0
  9
$PUCSXDIR
 10
1.0
 20
0.0
 30
0.0
  9
$PUCSYDIR
 10
0.0
 20
1.0
 30
0.0
  9
$USERI1
 70
     0
  9
$USERI2
 70
     0
  9
$USERI3
 70
     0
  9
$USERI4
 70
     0
  9
$USERI5
 70
     0
  9
$USERR1
 40
0.0
  9
$USERR2
 40
0.0
  9
$USERR3
 40
0.0
  9
$USERR4
 40
0.0
  9
$USERR5
 40
0.0
  9
$WORLDVIEW
 70
     1
  9
$SHADEDGE
 70
     3
  9
$SHADEDIF
 70
    70
  9
$TILEMODE
 70
     1
  9
$MAXACTVP
 70
    16
  9
$PLIMCHECK
 70
     0
  9
$PEXTMIN
 10
-1.452248
 20
-0.437698
 30
0.0
  9
$PEXTMAX
 10
12.749749
 20
8.310198
 30
0.0
  9
$PLIMMIN
 10
0.0
 20
0.0
  9
$PLIMMAX
 10
12.0
 20
9.0
  9
$UNITMODE
 70
     0
  9
$VISRETAIN
 70
     0
  9
$PLINEGEN
 70
     0
  9
$PSLTSCALE
 70
     0
  0
ENDSEC
  0
SECTION
  2
TABLES
  0
TABLE
  2
VPORT
 70
     2
  0
VPORT
  2
*ACTIVE
 70
     0
 10
0.0
 20
0.0
 11
1.0
 21
1.0
 12
158.853003
 22
36.919917
 13
0.0
 23
0.0
 14
1.0
 24
1.0
 15
10.0
 25
10.0
 16
0.0
 26
0.0
 36
1.0
 17
0.0
 27
0.0
 37
0.0
 40
45.349889
 41
1.466346
 42
50.0
 43
0.0
 44
0.0
 50
0.0
 51
0.0
 71
     0
 72
   100
 73
     1
 74
     0
 75
     0
 76
     0
 77
     0
 78
     0
  0
ENDTAB
  0
TABLE
  2
LTYPE
 70
     2
  0
LTYPE
  2
CONTINUOUS
 70
     0
  3
Solid line
 72
    65
 73
     0
 40
0.0
  0
LTYPE
  2
AXES2
 70
     0
  3
___ _ ___ _ ___ _ ___ _ ___ _ ___ _ ___ _ ___ _
 72
    65
 73
     4
 40
1.125
 49
0.75
 49
-0.125
 49
0.125
 49
-0.125
  0
ENDTAB
  0
TABLE
  2
LAYER
 70
     5
  0
LAYER
  2
0
 70
     0
 62
   255
  6
CONTINUOUS
  0
LAYER
  2
COTATION1
 70
     0
 62
     2
  6
CONTINUOUS
  0
LAYER
  2
AXE
 70
     0
 62
    80
  6
AXES2
  0
LAYER
  2
DEFPOINTS
 70
     0
 62
     7
  6
CONTINUOUS
  0
LAYER
  2
ALPHA
 70
     0
 62
   254
  6
CONTINUOUS
  0
ENDTAB
  0
TABLE
  2
STYLE
 70
     2
  0
STYLE
  2
ROMANS
 70
     0
 40
0.0
 41
1.0
 50
0.0
 71
     0
 42
6.0
  3
romans
  4

  0
STYLE
  2
STANDARD
 70
     0
 40
0.0
 41
1.0
 50
0.0
 71
     0
 42
0.2
  3
txt
  4

  0
ENDTAB
  0
TABLE
  2
VIEW
 70
     0
  0
ENDTAB
  0
TABLE
  2
UCS
 70
     0
  0
ENDTAB
  0
TABLE
  2
APPID
 70
     1
  0
APPID
  2
ACAD
 70
     0
  0
ENDTAB
  0
TABLE
  2
DIMSTYLE
 70
     2
  0
DIMSTYLE
  2
SC_DEFAUT
 70
     0
  3

  4

  5
OPEN30
  6

  7

 40
1.0
 41
5.0
 42
2.0
 43
0.38
 44
2.5
 45
0.0
 46
0.0
 47
0.0
 48
0.0
140
2.5
141
0.0
142
0.0
143
25.4
144
1.0
145
0.0
146
1.0
147
2.0
 71
     0
 72
     0
 73
     1
 74
     1
 75
     0
 76
     0
 77
     1
 78
    12
170
     0
171
     2
172
     0
173
     0
174
     0
175
     0
176
     0
177
     0
178
     0
  0
DIMSTYLE
  2
STANDARD
 70
     0
  3

  4

  5

  6

  7

 40
1.0
 41
0.18
 42
0.0625
 43
0.38
 44
0.18
 45
0.0
 46
0.0
 47
0.0
 48
0.0
140
0.18
141
0.09
142
0.0
143
25.4
144
1.0
145
0.0
146
1.0
147
0.09
 71
     0
 72
     0
 73
     1
 74
     1
 75
     0
 76
     0
 77
     0
 78
     0
170
     0
171
     2
172
     0
173
     0
174
     0
175
     0
176
     0
177
     0
178
     0
  0
ENDTAB
  0
ENDSEC
  0
SECTION
  2
BLOCKS
  0
BLOCK
  8
0
  2
$MODEL_SPACE
 70
     0
 10
0.0
 20
0.0
 30
0.0
  3
$MODEL_SPACE
  1

  0
ENDBLK
  5
96CA
  8
0
  0
BLOCK
 67
     1
  8
0
  2
$PAPER_SPACE
 70
     0
 10
0.0
 20
0.0
 30
0.0
  3
$PAPER_SPACE
  1

  0
ENDBLK
  5
96C8
 67
     1
  8
0
  0
BLOCK
  8
0
  2
COTE
 70
     0
 10
0.0
 20
0.0
 30
0.0
  3
COTE
  1

  0
ENDBLK
  5
F
  8
0
  0
BLOCK
  8
0
  2
FOND
 70
     0
 10
0.0
 20
0.0
 30
0.0
  3
FOND
  1

  0
ENDBLK
  5
75
  8
0
  0
BLOCK
  8
0
  2
_OPEN30
 70
     0
 10
0.0
 20
0.0
 30
0.0
  3
_OPEN30
  1

  0
LINE
  5
4B05
  8
COTATION1
 62
     0
 10
-1.0
 20
0.267949
 30
0.0
 11
0.0
 21
0.0
 31
0.0
1001
ACAD
1000
RTLwPs
1070
   158
  0
LINE
  5
4B06
  8
COTATION1
 62
     0
 10
0.0
 20
0.0
 30
0.0
 11
-1.0
 21
-0.267949
 31
0.0
1001
ACAD
1000
RTLwPs
1070
   158
  0
LINE
  5
4B07
  8
COTATION1
 62
     0
 10
0.0
 20
0.0
 30
0.0
 11
-1.0
 21
0.0
 31
0.0
1001
ACAD
1000
RTLwPs
1070
   158
  0
ENDBLK
  5
4B09
  8
0
  0
BLOCK
  8
0
  2
*D3
 70
     1
 10
0.0
 20
0.0
 30
0.0
  3
*D3
  1

  0
LINE
  5
9363
  8
COTATION1
 62
     0
 10
151.872707
 20
40.908844
 30
0.0
 11
151.872707
 21
57.408844
 31
0.0
1001
ACAD
1000
RTLwPs
1070
   158
  0
LINE
  5
9364
  8
COTATION1
 62
     0
 10
165.672707
 20
40.908844
 30
0.0
 11
165.672707
 21
57.408844
 31
0.0
1001
ACAD
1000
RTLwPs
1070
   158
  0
LINE
  5
9365
  8
COTATION1
 62
     0
 10
146.872707
 20
54.908844
 30
0.0
 11
141.872707
 21
54.908844
 31
0.0
1001
ACAD
1000
RTLwPs
1070
   158
  0
LINE
  5
9366
  8
COTATION1
 62
     0
 10
170.672707
 20
54.908844
 30
0.0
 11
175.672707
 21
54.908844
 31
0.0
1001
ACAD
1000
RTLwPs
1070
   158
  0
INSERT
  5
9367
  8
COTATION1
 62
     0
  2
_OPEN30
 10
151.872707
 20
54.908844
 30
0.0
 41
5.0
 42
5.0
 43
5.0
1001
ACAD
1000
RTLwPs
1070
   158
  0
INSERT
  5
9368
  8
COTATION1
 62
     0
  2
_OPEN30
 10
165.672707
 20
54.908844
 30
0.0
 41
5.0
 42
5.0
 43
5.0
 50
180.0
1001
ACAD
1000
RTLwPs
1070
   158
  0
TEXT
  5
9369
  8
COTATION1
 62
     0
 10
154.427469
 20
56.908844
 30
0.0
 40
2.5
  1
13.8
1001
ACAD
1000
MTEXTBEGIN
1070
    73
1070
     1
1070
    44
1040
1.0
1070
    74
1070
     0
1000
MTEXTEND
  0
POINT
  5
936A
  8
DEFPOINTS
 62
     0
 10
151.872707
 20
38.908844
 30
0.0
  0
POINT
  5
936B
  8
DEFPOINTS
 62
     0
 10
165.672707
 20
38.908844
 30
0.0
  0
POINT
  5
936C
  8
DEFPOINTS
 62
     0
 10
165.672707
 20
54.908844
 30
0.0
  0
ENDBLK
  5
9350
  8
0
  0
ENDSEC
  0
SECTION
  2
ENTITIES
  0
INSERT
  5
A
  8
0
  2
COTE
 10
0.0
 20
0.0
 30
0.0
  0
INSERT
  5
17
  8
0
  2
COTE
 10
284.010391
 20
6.373258
 30
0.0
  0
INSERT
  5
72
  8
0
  2
FOND
 10
0.0
 20
0.0
 30
0.0
  0
LINE
  5
9233
  8
ALPHA
 10
152.297707
 20
39.208844
 30
0.0
 11
165.247707
 21
39.208844
 31
0.0
  0
LINE
  5
9234
  8
ALPHA
 10
152.097707
 20
39.093374
 30
0.0
 11
157.576385
 21
39.093374
 31
0.0
  0
LINE
  5
9235
  8
ALPHA
 10
152.097707
 20
39.058844
 30
0.0
 11
157.379148
 21
39.058844
 31
0.0
  0
LINE
  5
9236
  8
ALPHA
 10
156.797607
 20
38.908844
 30
0.0
 11
151.872707
 21
38.908844
 31
0.0
  0
LINE
  5
9237
  8
ALPHA
 10
151.872707
 20
37.808844
 30
0.0
 11
154.122707
 21
37.808844
 31
0.0
  0
LINE
  5
9238
  8
ALPHA
 10
154.122707
 20
37.758844
 30
0.0
 11
151.872707
 21
37.758844
 31
0.0
  0
LINE
  5
9239
  8
ALPHA
 10
151.872707
 20
32.458844
 30
0.0
 11
154.122707
 21
32.458844
 31
0.0
  0
LINE
  5
923A
  8
ALPHA
 10
151.872707
 20
27.458844
 30
0.0
 11
155.140351
 21
27.458844
 31
0.0
  0
LINE
  5
923B
  8
ALPHA
 10
151.872707
 20
37.758844
 30
0.0
 11
151.872707
 21
27.458844
 31
0.0
  0
ARC
  5
923C
  8
ALPHA
 10
151.947707
 20
39.058844
 30
0.0
 40
0.15
 50
270.0
 51
0.0
  0
LINE
  5
923D
  8
ALPHA
 10
152.097707
 20
39.058844
 30
0.0
 11
152.097707
 21
39.093374
 31
0.0
  0
LINE
  5
923E
  8
ALPHA
 10
152.297707
 20
39.208844
 30
0.0
 11
152.097707
 21
39.093374
 31
0.0
  0
LINE
  5
923F
  8
ALPHA
 10
151.872707
 20
38.908844
 30
0.0
 11
151.872707
 21
37.808844
 31
0.0
  0
LINE
  5
9240
  8
ALPHA
 10
165.672707
 20
37.758844
 30
0.0
 11
165.672707
 21
27.458844
 31
0.0
  0
LINE
  5
9241
  8
ALPHA
 10
163.422707
 20
31.908844
 30
0.0
 11
163.422707
 21
37.808844
 31
0.0
  0
LINE
  5
9242
  8
ALPHA
 10
162.472707
 20
28.132078
 30
0.0
 11
162.472707
 21
37.328316
 31
0.0
  0
LINE
  5
9243
  8
ALPHA
 10
155.072707
 20
28.132078
 30
0.0
 11
155.072707
 21
37.328316
 31
0.0
  0
LINE
  5
9244
  8
ALPHA
 10
154.122707
 20
37.808844
 30
0.0
 11
154.122707
 21
31.908844
 31
0.0
  0
ARC
  5
9247
  8
ALPHA
 10
158.772707
 20
28.129664
 30
0.0
 40
3.7
 50
180.0
 51
0.0
  0
POLYLINE
  5
9248
  8
ALPHA
 66
     1
 10
0.0
 20
0.0
 30
0.0
  0
VERTEX
  5
96D0
  8
ALPHA
 10
158.772707
 20
26.997426
 30
0.0
  0
VERTEX
  5
96D1
  8
ALPHA
 10
159.452581
 20
27.051774
 30
0.0
  0
VERTEX
  5
96D2
  8
ALPHA
 10
160.109302
 20
27.21297
 30
0.0
  0
VERTEX
  5
96D3
  8
ALPHA
 10
160.720506
 20
27.475523
 30
0.0
  0
VERTEX
  5
96D4
  8
ALPHA
 10
161.265381
 20
27.830493
 30
0.0
  0
VERTEX
  5
96D5
  8
ALPHA
 10
161.725371
 20
28.265792
 30
0.0
  0
VERTEX
  5
96D6
  8
ALPHA
 10
162.084812
 20
28.766596
 30
0.0
  0
VERTEX
  5
96D7
  8
ALPHA
 10
162.331462
 20
29.31585
 30
0.0
  0
VERTEX
  5
96D8
  8
ALPHA
 10
162.456924
 20
29.894851
 30
0.0
  0
VERTEX
  5
96D9
  8
ALPHA
 10
162.472707
 20
30.189366
 30
0.0
  0
SEQEND
  5
96DA
  8
ALPHA
  0
POLYLINE
  5
9249
  8
ALPHA
 66
     1
 10
0.0
 20
0.0
 30
0.0
  0
VERTEX
  5
96DB
  8
ALPHA
 10
155.072707
 20
30.189366
 30
0.0
  0
VERTEX
  5
96DC
  8
ALPHA
 10
155.088491
 20
29.894851
 30
0.0
  0
VERTEX
  5
96DD
  8
ALPHA
 10
155.213953
 20
29.31585
 30
0.0
  0
VERTEX
  5
96DE
  8
ALPHA
 10
155.460603
 20
28.766596
 30
0.0
  0
VERTEX
  5
96DF
  8
ALPHA
 10
155.820044
 20
28.265792
 30
0.0
  0
VERTEX
  5
96E0
  8
ALPHA
 10
156.280034
 20
27.830493
 30
0.0
  0
VERTEX
  5
96E1
  8
ALPHA
 10
156.824908
 20
27.475523
 30
0.0
  0
VERTEX
  5
96E2
  8
ALPHA
 10
157.436113
 20
27.21297
 30
0.0
  0
VERTEX
  5
96E3
  8
ALPHA
 10
158.092834
 20
27.051774
 30
0.0
  0
VERTEX
  5
96E4
  8
ALPHA
 10
158.772707
 20
26.997426
 30
0.0
  0
SEQEND
  5
96E5
  8
ALPHA
  0
LINE
  5
924A
  8
ALPHA
 10
155.072707
 20
28.129664
 30
0.0
 11
155.072707
 21
27.785516
 31
0.0
  0
LINE
  5
924B
  8
ALPHA
 10
154.772707
 20
31.908844
 30
0.0
 11
154.772707
 21
27.487218
 31
0.0
  0
LINE
  5
924C
  8
ALPHA
 10
155.072707
 20
27.785516
 30
0.0
 11
155.101727
 21
27.758844
 31
0.0
  0
POLYLINE
  5
924D
  8
ALPHA
 66
     1
 10
0.0
 20
0.0
 30
0.0
 70
   128
210
0.0
220
0.0
230
-1.0
  0
VERTEX
  5
96E6
  8
ALPHA
 10
-155.101727
 20
27.758844
 30
0.0
  0
VERTEX
  5
96E7
  8
ALPHA
 10
-155.014866
 20
27.54724
 30
0.0
  0
VERTEX
  5
96E8
  8
ALPHA
 10
-154.80408
 20
27.458844
 30
0.0
  0
SEQEND
  5
96E9
  8
ALPHA
  0
LINE
  5
924E
  8
ALPHA
 10
154.772707
 20
27.487218
 30
0.0
 11
154.80408
 21
27.458844
 31
0.0
  0
POLYLINE
  5
924F
  8
ALPHA
 66
     1
 10
0.0
 20
0.0
 30
0.0
 70
   128
210
0.0
220
0.0
230
-1.0
  0
VERTEX
  5
96EA
  8
ALPHA
 10
-155.072707
 20
27.785516
 30
0.0
  0
VERTEX
  5
96EB
  8
ALPHA
 10
-154.984429
 20
27.574386
 30
0.0
  0
VERTEX
  5
96EC
  8
ALPHA
 10
-154.772707
 20
27.487218
 30
0.0
  0
SEQEND
  5
96ED
  8
ALPHA
  0
LINE
  5
9250
  8
ALPHA
 10
154.122707
 20
31.958844
 30
0.0
 11
155.072707
 21
31.958844
 31
0.0
  0
LINE
  5
9251
  8
ALPHA
 10
154.122707
 20
31.908844
 30
0.0
 11
155.072707
 21
31.908844
 31
0.0
  0
LINE
  5
9252
  8
ALPHA
 10
154.272707
 20
31.908844
 30
0.0
 11
154.272707
 21
31.958844
 31
0.0
  0
ARC
  5
9253
  8
ALPHA
 10
158.772707
 20
31.958844
 30
0.0
 40
4.0
 50
157.715096
 51
180.0
  0
LINE
  5
9254
  8
ALPHA
 10
163.422707
 20
32.458844
 30
0.0
 11
165.672707
 21
32.458844
 31
0.0
  0
LINE
  5
9255
  8
ALPHA
 10
162.405064
 20
27.458844
 30
0.0
 11
165.672707
 21
27.458844
 31
0.0
  0
LINE
  5
9256
  8
ALPHA
 10
162.772707
 20
31.908844
 30
0.0
 11
162.772707
 21
27.487218
 31
0.0
  0
LINE
  5
9257
  8
ALPHA
 10
162.472707
 20
28.129664
 30
0.0
 11
162.472707
 21
27.785516
 31
0.0
  0
LINE
  5
9258
  8
ALPHA
 10
162.443687
 20
27.758844
 30
0.0
 11
162.472707
 21
27.785516
 31
0.0
  0
POLYLINE
  5
9259
  8
ALPHA
 66
     1
 10
0.0
 20
0.0
 30
0.0
 70
   128
  0
VERTEX
  5
96EE
  8
ALPHA
 10
162.472707
 20
27.785516
 30
0.0
  0
VERTEX
  5
96EF
  8
ALPHA
 10
162.560986
 20
27.574386
 30
0.0
  0
VERTEX
  5
96F0
  8
ALPHA
 10
162.772707
 20
27.487218
 30
0.0
  0
SEQEND
  5
96F1
  8
ALPHA
  0
LINE
  5
925A
  8
ALPHA
 10
162.741334
 20
27.458844
 30
0.0
 11
162.772707
 21
27.487218
 31
0.0
  0
POLYLINE
  5
925B
  8
ALPHA
 66
     1
 10
0.0
 20
0.0
 30
0.0
 70
   128
210
0.0
220
0.0
230
-1.0
  0
VERTEX
  5
96F2
  8
ALPHA
 10
-162.741334
 20
27.458844
 30
0.0
  0
VERTEX
  5
96F3
  8
ALPHA
 10
-162.530549
 20
27.54724
 30
0.0
  0
VERTEX
  5
96F4
  8
ALPHA
 10
-162.443687
 20
27.758844
 30
0.0
  0
SEQEND
  5
96F5
  8
ALPHA
  0
ARC
  5
925C
  8
ALPHA
 10
158.772707
 20
31.958844
 30
0.0
 40
4.0
 50
0.0
 51
22.170917
  0
LINE
  5
925D
  8
ALPHA
 10
162.472707
 20
31.958844
 30
0.0
 11
163.422707
 21
31.958844
 31
0.0
  0
LINE
  5
925E
  8
ALPHA
 10
162.472707
 20
31.908844
 30
0.0
 11
163.422707
 21
31.908844
 31
0.0
  0
LINE
  5
925F
  8
ALPHA
 10
163.272707
 20
31.908844
 30
0.0
 11
163.272707
 21
31.958844
 31
0.0
  0
LINE
  5
929E
  8
ALPHA
 10
153.572707
 20
44.908844
 30
0.0
 11
163.972707
 21
44.908844
 31
0.0
  0
LINE
  5
929F
  8
ALPHA
 10
162.979994
 20
44.561331
 30
0.0
 11
154.565421
 21
44.561331
 31
0.0
  0
LINE
  5
92A0
  8
ALPHA
 10
153.047707
 20
39.258844
 30
0.0
 11
164.497707
 21
39.258844
 31
0.0
  0
LINE
  5
92A1
  8
ALPHA
 10
159.96903
 20
39.093374
 30
0.0
 11
165.447707
 21
39.093374
 31
0.0
  0
LINE
  5
92A2
  8
ALPHA
 10
160.166267
 20
39.058844
 30
0.0
 11
165.447707
 21
39.058844
 31
0.0
  0
POLYLINE
  5
92A3
  8
ALPHA
 66
     1
 10
0.0
 20
0.0
 30
0.0
  0
VERTEX
  5
96F6
  8
ALPHA
 10
162.472607
 20
37.328316
 30
0.0
  0
VERTEX
  5
96F7
  8
ALPHA
 10
162.456924
 20
37.500971
 30
0.0
  0
VERTEX
  5
96F8
  8
ALPHA
 10
162.331462
 20
37.840403
 30
0.0
  0
VERTEX
  5
96F9
  8
ALPHA
 10
162.084812
 20
38.162397
 30
0.0
  0
VERTEX
  5
96FA
  8
ALPHA
 10
161.725371
 20
38.455986
 30
0.0
  0
VERTEX
  5
96FB
  8
ALPHA
 10
161.265381
 20
38.711175
 30
0.0
  0
VERTEX
  5
96FC
  8
ALPHA
 10
160.720506
 20
38.919271
 30
0.0
  0
VERTEX
  5
96FD
  8
ALPHA
 10
160.109302
 20
39.07319
 30
0.0
  0
VERTEX
  5
96FE
  8
ALPHA
 10
159.452581
 20
39.167689
 30
0.0
  0
VERTEX
  5
96FF
  8
ALPHA
 10
158.772707
 20
39.19955
 30
0.0
  0
SEQEND
  5
9700
  8
ALPHA
  0
POLYLINE
  5
92A4
  8
ALPHA
 66
     1
 10
0.0
 20
0.0
 30
0.0
  0
VERTEX
  5
9701
  8
ALPHA
 10
158.772707
 20
35.457081
 30
0.0
  0
VERTEX
  5
9702
  8
ALPHA
 10
159.452581
 20
35.488943
 30
0.0
  0
VERTEX
  5
9703
  8
ALPHA
 10
160.109302
 20
35.583442
 30
0.0
  0
VERTEX
  5
9704
  8
ALPHA
 10
160.720506
 20
35.73736
 30
0.0
  0
VERTEX
  5
9705
  8
ALPHA
 10
161.265381
 20
35.945457
 30
0.0
  0
VERTEX
  5
9706
  8
ALPHA
 10
161.725371
 20
36.200645
 30
0.0
  0
VERTEX
  5
9707
  8
ALPHA
 10
162.084812
 20
36.494235
 30
0.0
  0
VERTEX
  5
9708
  8
ALPHA
 10
162.331462
 20
36.816228
 30
0.0
  0
VERTEX
  5
9709
  8
ALPHA
 10
162.456924
 20
37.15566
 30
0.0
  0
VERTEX
  5
970A
  8
ALPHA
 10
162.472607
 20
37.328316
 30
0.0
  0
SEQEND
  5
970B
  8
ALPHA
  0
POLYLINE
  5
92A5
  8
ALPHA
 66
     1
 10
0.0
 20
0.0
 30
0.0
  0
VERTEX
  5
970C
  8
ALPHA
 10
158.772707
 20
39.19955
 30
0.0
  0
VERTEX
  5
970D
  8
ALPHA
 10
158.092834
 20
39.167689
 30
0.0
  0
VERTEX
  5
970E
  8
ALPHA
 10
157.436113
 20
39.07319
 30
0.0
  0
VERTEX
  5
970F
  8
ALPHA
 10
156.824908
 20
38.919271
 30
0.0
  0
VERTEX
  5
9710
  8
ALPHA
 10
156.280034
 20
38.711175
 30
0.0
  0
VERTEX
  5
9711
  8
ALPHA
 10
155.820044
 20
38.455986
 30
0.0
  0
VERTEX
  5
9712
  8
ALPHA
 10
155.460603
 20
38.162397
 30
0.0
  0
VERTEX
  5
9713
  8
ALPHA
 10
155.213953
 20
37.840403
 30
0.0
  0
VERTEX
  5
9714
  8
ALPHA
 10
155.088491
 20
37.500971
 30
0.0
  0
VERTEX
  5
9715
  8
ALPHA
 10
155.072808
 20
37.328316
 30
0.0
  0
SEQEND
  5
9716
  8
ALPHA
  0
POLYLINE
  5
92A6
  8
ALPHA
 66
     1
 10
0.0
 20
0.0
 30
0.0
  0
VERTEX
  5
9717
  8
ALPHA
 10
155.072808
 20
37.328316
 30
0.0
  0
VERTEX
  5
9718
  8
ALPHA
 10
155.088491
 20
37.15566
 30
0.0
  0
VERTEX
  5
9719
  8
ALPHA
 10
155.213953
 20
36.816228
 30
0.0
  0
VERTEX
  5
971A
  8
ALPHA
 10
155.460603
 20
36.494235
 30
0.0
  0
VERTEX
  5
971B
  8
ALPHA
 10
155.820044
 20
36.200645
 30
0.0
  0
VERTEX
  5
971C
  8
ALPHA
 10
156.280034
 20
35.945457
 30
0.0
  0
VERTEX
  5
971D
  8
ALPHA
 10
156.824908
 20
35.73736
 30
0.0
  0
VERTEX
  5
971E
  8
ALPHA
 10
157.436113
 20
35.583442
 30
0.0
  0
VERTEX
  5
971F
  8
ALPHA
 10
158.092834
 20
35.488943
 30
0.0
  0
VERTEX
  5
9720
  8
ALPHA
 10
158.772707
 20
35.457081
 30
0.0
  0
SEQEND
  5
9721
  8
ALPHA
  0
LINE
  5
92A7
  8
ALPHA
 10
154.807637
 20
39.258844
 30
0.0
 11
154.807637
 21
44.561331
 31
0.0
  0
LINE
  5
92A8
  8
ALPHA
 10
154.272707
 20
39.258844
 30
0.0
 11
154.272707
 21
43.958844
 31
0.0
  0
LINE
  5
92A9
  8
ALPHA
 10
153.622707
 20
43.458844
 30
0.0
 11
153.622707
 21
39.258844
 31
0.0
  0
LINE
  5
92AA
  8
ALPHA
 10
153.322707
 20
43.958844
 30
0.0
 11
153.322707
 21
39.408844
 31
0.0
  0
LINE
  5
92AB
  8
ALPHA
 10
152.897707
 20
39.208844
 30
0.0
 11
152.897707
 21
39.889229
 31
0.0
  0
ARC
  5
92AC
  8
ALPHA
 10
153.172707
 20
39.408844
 30
0.0
 40
0.15
 50
270.0
 51
0.0
  0
LINE
  5
92AD
  8
ALPHA
 10
154.272707
 20
39.408844
 30
0.0
 11
153.322707
 21
39.408844
 31
0.0
  0
LINE
  5
92AE
  8
ALPHA
 10
153.547707
 20
38.908844
 30
0.0
 11
153.547707
 21
39.258844
 31
0.0
  0
LINE
  5
92AF
  8
ALPHA
 10
152.672707
 20
37.808844
 30
0.0
 11
152.672707
 21
37.758844
 31
0.0
  0
LINE
  5
92B0
  8
ALPHA
 10
153.047707
 20
39.258844
 30
0.0
 11
153.01884
 21
39.208844
 31
0.0
  0
LINE
  5
92B1
  8
ALPHA
 10
153.572707
 20
44.708844
 30
0.0
 11
155.391716
 21
44.708844
 31
0.0
  0
LINE
  5
92B2
  8
ALPHA
 10
153.322707
 20
43.917102
 30
0.0
 11
153.622707
 21
43.458844
 31
0.0
  0
LINE
  5
92B3
  8
ALPHA
 10
153.322707
 20
43.958844
 30
0.0
 11
154.565421
 21
43.958844
 31
0.0
  0
LINE
  5
92B4
  8
ALPHA
 10
153.622707
 20
43.458844
 30
0.0
 11
154.272707
 21
43.458844
 31
0.0
  0
LINE
  5
92B5
  8
ALPHA
 10
153.322707
 20
40.408844
 30
0.0
 11
153.197707
 21
40.408844
 31
0.0
  0
LINE
  5
92B6
  8
ALPHA
 10
154.565421
 20
43.958844
 30
0.0
 11
154.565421
 21
44.561331
 31
0.0
  0
LINE
  5
92B7
  8
ALPHA
 10
153.572707
 20
43.958844
 30
0.0
 11
153.572707
 21
44.908844
 31
0.0
  0
LINE
  5
92B8
  8
ALPHA
 10
153.197707
 20
40.408844
 30
0.0
 11
152.897707
 21
39.889229
 31
0.0
  0
POLYLINE
  5
92B9
  8
ALPHA
 66
     1
 10
0.0
 20
0.0
 30
0.0
 70
   128
210
0.0
220
0.0
230
-1.0
  0
VERTEX
  5
9722
  8
ALPHA
 10
-155.289481
 20
44.907282
 30
0.0
  0
VERTEX
  5
9723
  8
ALPHA
 10
-155.368817
 20
44.824127
 30
0.0
  0
VERTEX
  5
9724
  8
ALPHA
 10
-155.391716
 20
44.708844
 30
0.0
  0
SEQEND
  5
9725
  8
ALPHA
  0
LINE
  5
92BA
  8
ALPHA
 10
155.276087
 20
44.908844
 30
0.0
 11
155.289481
 21
44.907282
 31
0.0
  0
LINE
  5
92BB
  8
ALPHA
 10
156.622707
 20
44.561331
 30
0.0
 11
156.622707
 21
44.908844
 31
0.0
  0
LINE
  5
92BC
  8
ALPHA
 10
156.122707
 20
44.561331
 30
0.0
 11
156.122707
 21
44.908844
 31
0.0
  0
LINE
  5
92BD
  8
ALPHA
 10
155.391716
 20
44.708844
 30
0.0
 11
155.391716
 21
44.561331
 31
0.0
  0
LINE
  5
92BE
  8
ALPHA
 10
165.672707
 20
38.908844
 30
0.0
 11
160.747808
 21
38.908844
 31
0.0
  0
LINE
  5
92BF
  8
ALPHA
 10
163.422707
 20
37.808844
 30
0.0
 11
165.672707
 21
37.808844
 31
0.0
  0
LINE
  5
92C0
  8
ALPHA
 10
165.672707
 20
37.758844
 30
0.0
 11
163.422707
 21
37.758844
 31
0.0
  0
LINE
  5
92C1
  8
ALPHA
 10
164.647707
 20
39.208844
 30
0.0
 11
164.647707
 21
39.889229
 31
0.0
  0
LINE
  5
92C2
  8
ALPHA
 10
164.222707
 20
39.408844
 30
0.0
 11
164.222707
 21
43.958844
 31
0.0
  0
LINE
  5
92C3
  8
ALPHA
 10
163.922707
 20
39.258844
 30
0.0
 11
163.922707
 21
43.458844
 31
0.0
  0
LINE
  5
92C4
  8
ALPHA
 10
163.272707
 20
39.258844
 30
0.0
 11
163.272707
 21
43.958844
 31
0.0
  0
LINE
  5
92C5
  8
ALPHA
 10
162.737778
 20
39.258844
 30
0.0
 11
162.737778
 21
44.561331
 31
0.0
  0
ARC
  5
92C6
  8
ALPHA
 10
164.372707
 20
39.408844
 30
0.0
 40
0.15
 50
180.0
 51
270.0
  0
LINE
  5
92C7
  8
ALPHA
 10
164.497707
 20
39.258844
 30
0.0
 11
164.526575
 21
39.208844
 31
0.0
  0
LINE
  5
92C8
  8
ALPHA
 10
164.222707
 20
39.408844
 30
0.0
 11
163.272707
 21
39.408844
 31
0.0
  0
LINE
  5
92C9
  8
ALPHA
 10
163.997707
 20
38.908844
 30
0.0
 11
163.997707
 21
39.258844
 31
0.0
  0
LINE
  5
92CA
  8
ALPHA
 10
162.16731
 20
44.708844
 30
0.0
 11
163.972707
 21
44.708844
 31
0.0
  0
POLYLINE
  5
92CB
  8
ALPHA
 66
     1
 10
0.0
 20
0.0
 30
0.0
 70
   128
  0
VERTEX
  5
9726
  8
ALPHA
 10
162.279943
 20
44.908844
 30
0.0
  0
VERTEX
  5
9727
  8
ALPHA
 10
162.192221
 20
44.829143
 30
0.0
  0
VERTEX
  5
9728
  8
ALPHA
 10
162.16731
 20
44.708844
 30
0.0
  0
SEQEND
  5
9729
  8
ALPHA
  0
LINE
  5
92CC
  8
ALPHA
 10
162.16731
 20
44.561331
 30
0.0
 11
162.16731
 21
44.708844
 31
0.0
  0
LINE
  5
92CD
  8
ALPHA
 10
161.422707
 20
44.561331
 30
0.0
 11
161.422707
 21
44.908844
 31
0.0
  0
LINE
  5
92CE
  8
ALPHA
 10
160.922707
 20
44.561331
 30
0.0
 11
160.922707
 21
44.908844
 31
0.0
  0
LINE
  5
92CF
  8
ALPHA
 10
163.922707
 20
43.458844
 30
0.0
 11
164.222707
 21
43.917102
 31
0.0
  0
LINE
  5
92D0
  8
ALPHA
 10
162.979994
 20
43.958844
 30
0.0
 11
164.222707
 21
43.958844
 31
0.0
  0
LINE
  5
92D1
  8
ALPHA
 10
163.272707
 20
43.458844
 30
0.0
 11
163.922707
 21
43.458844
 31
0.0
  0
LINE
  5
92D2
  8
ALPHA
 10
164.347707
 20
40.408844
 30
0.0
 11
164.647707
 21
39.889229
 31
0.0
  0
LINE
  5
92D3
  8
ALPHA
 10
164.222707
 20
40.408844
 30
0.0
 11
164.347707
 21
40.408844
 31
0.0
  0
LINE
  5
92D4
  8
ALPHA
 10
163.972707
 20
44.908844
 30
0.0
 11
163.972707
 21
43.958844
 31
0.0
  0
LINE
  5
92D5
  8
ALPHA
 10
162.979994
 20
43.958844
 30
0.0
 11
162.979994
 21
44.561331
 31
0.0
  0
ARC
  5
92D6
  8
ALPHA
 10
165.597707
 20
39.058844
 30
0.0
 40
0.15
 50
180.0
 51
270.0
  0
LINE
  5
92D7
  8
ALPHA
 10
165.247707
 20
39.208844
 30
0.0
 11
165.447707
 21
39.093374
 31
0.0
  0
LINE
  5
92D8
  8
ALPHA
 10
165.672707
 20
37.808844
 30
0.0
 11
165.672707
 21
38.908844
 31
0.0
  0
LINE
  5
92D9
  8
ALPHA
 10
165.447707
 20
39.058844
 30
0.0
 11
165.447707
 21
39.093374
 31
0.0
  0
LINE
  5
92DA
  8
ALPHA
 10
164.872707
 20
37.808844
 30
0.0
 11
164.872707
 21
37.758844
 31
0.0
  0
LINE
  5
9341
  8
AXE
 10
158.772707
 20
14.429664
 30
0.0
 11
158.772707
 21
49.908844
 31
0.0
  0
TEXT
  5
9342
  8
AXE
 10
153.725088
 20
14.429664
 30
0.0
 40
5.0
  1
Y
 72
     2
 11
157.772707
 21
14.429664
 31
0.0
  0
DIMENSION
  5
9344
  8
COTATION1
  2
*D3
 10
165.672707
 20
54.908844
 30
0.0
 11
158.772707
 21
58.158844
 31
0.0
 13
151.872707
 23
38.908844
 33
0.0
 14
165.672707
 24
38.908844
 34
0.0
  0
LINE
  5
936D
  8
AXE
 10
146.872707
 20
35.608844
 30
0.0
 11
175.852707
 21
35.608844
 31
0.0
  0
TEXT
  5
936E
  8
AXE
 10
171.805088
 20
36.608844
 30
0.0
 40
5.0
  1
Z
 72
     2
 11
175.852707
 21
36.608844
 31
0.0
  0
VIEWPORT
  5
494D
 67
     1
  8
0
 10
4.995325
 20
6.556512
 30
0.0
 40
22.70986
 41
13.988421
 68
    -1
 69
     1
1001
ACAD
1000
MVIEW
1002
{
1070
    16
1010
0.0
1020
0.0
1030
0.0
1010
0.0
1020
0.0
1030
1.0
1040
0.0
1040
13.988421
1040
4.995325
1040
6.556512
1040
50.0
1040
0.0
1040
0.0
1070
     0
1070
   100
1070
     1
1070
     1
1070
     0
1070
     0
1070
     0
1070
     0
1040
0.0
1040
0.0
1040
0.0
1040
10.0
1040
10.0
1040
10.0
1040
10.0
1070
     0
1002
{
1002
}
1002
}
  0
ENDSEC
  0
EOF
