  0
SECTION
  2
HEADER
  9
$ACADVER
  1
AC1009
  9
$INSBASE
 10
-146.27124
 20
-153.796096
 30
0.0
  9
$EXTMIN
 10
615.977703
 20
-79.704769
 30
0.0
  9
$EXTMAX
 10
652.866748
 20
-13.065913
 30
0.0
  9
$LIMMIN
 10
-407.970438
 20
-367.832444
  9
$LIMMAX
 10
429.804077
 20
234.370848
  9
$ORTHOMODE
 70
     0
  9
$REGENMODE
 70
     1
  9
$FILLMODE
 70
     1
  9
$QTEXTMODE
 70
     0
  9
$MIRRTEXT
 70
     1
  9
$DRAGMODE
 70
     2
  9
$LTSCALE
 40
10.0
  9
$OSMODE
 70
   165
  9
$ATTMODE
 70
     1
  9
$TEXTSIZE
 40
6.0
  9
$TRACEWID
 40
1.0
  9
$TEXTSTYLE
  7
ROMANS
  9
$CLAYER
  8
COTATION1
  9
$CELTYPE
  6
BYLAYER
  9
$CECOLOR
 62
   256
  9
$DIMSCALE
 40
1.0
  9
$DIMASZ
 40
2.0
  9
$DIMEXO
 40
0.3
  9
$DIMDLI
 40
0.1
  9
$DIMRND
 40
0.0
  9
$DIMDLE
 40
0.0
  9
$DIMEXE
 40
0.5
  9
$DIMTP
 40
0.0
  9
$DIMTM
 40
0.0
  9
$DIMTXT
 40
2.0
  9
$DIMCEN
 40
0.0
  9
$DIMTSZ
 40
0.0
  9
$DIMTOL
 70
     0
  9
$DIMLIM
 70
     0
  9
$DIMTIH
 70
     0
  9
$DIMTOH
 70
     0
  9
$DIMSE1
 70
     0
  9
$DIMSE2
 70
     0
  9
$DIMTAD
 70
     1
  9
$DIMZIN
 70
    12
  9
$DIMBLK
  1
OPEN30
  9
$DIMASO
 70
     1
  9
$DIMSHO
 70
     1
  9
$DIMPOST
  1

  9
$DIMAPOST
  1

  9
$DIMALT
 70
     0
  9
$DIMALTD
 70
     2
  9
$DIMALTF
 40
25.4
  9
$DIMLFAC
 40
1.0
  9
$DIMTOFL
 70
     0
  9
$DIMTVP
 40
0.0
  9
$DIMTIX
 70
     0
  9
$DIMSOXD
 70
     0
  9
$DIMSAH
 70
     0
  9
$DIMBLK1
  1

  9
$DIMBLK2
  1

  9
$DIMSTYLE
  2
SC_DEFAUT
  9
$DIMCLRD
 70
     0
  9
$DIMCLRE
 70
     0
  9
$DIMCLRT
 70
     0
  9
$DIMTFAC
 40
1.0
  9
$DIMGAP
 40
0.6
  9
$LUNITS
 70
     2
  9
$LUPREC
 70
     1
  9
$SKETCHINC
 40
0.1
  9
$FILLETRAD
 40
0.0
  9
$AUNITS
 70
     0
  9
$AUPREC
 70
     0
  9
$MENU
  1
acad
  9
$ELEVATION
 40
0.0
  9
$PELEVATION
 40
0.0
  9
$THICKNESS
 40
0.0
  9
$LIMCHECK
 70
     0
  9
$BLIPMODE
 70
     0
  9
$CHAMFERA
 40
0.0
  9
$CHAMFERB
 40
0.0
  9
$SKPOLY
 70
     0
  9
$TDCREATE
 40
2450365.355314
  9
$TDUPDATE
 40
2452587.483629
  9
$TDINDWG
 40
0.506521
  9
$TDUSRTIMER
 40
0.506521
  9
$USRTIMER
 70
     1
  9
$ANGBASE
 50
0.0
  9
$ANGDIR
 70
     0
  9
$PDMODE
 70
    32
  9
$PDSIZE
 40
0.0
  9
$PLINEWID
 40
0.0
  9
$COORDS
 70
     2
  9
$SPLFRAME
 70
     0
  9
$SPLINETYPE
 70
     6
  9
$SPLINESEGS
 70
     8
  9
$ATTDIA
 70
     0
  9
$ATTREQ
 70
     1
  9
$HANDLING
 70
     1
  9
$HANDSEED
  5
374A
  9
$SURFTAB1
 70
     6
  9
$SURFTAB2
 70
     6
  9
$SURFTYPE
 70
     6
  9
$SURFU
 70
     6
  9
$SURFV
 70
     6
  9
$UCSNAME
  2

  9
$UCSORG
 10
0.0
 20
0.0
 30
0.0
  9
$UCSXDIR
 10
1.0
 20
0.0
 30
0.0
  9
$UCSYDIR
 10
0.0
 20
1.0
 30
0.0
  9
$PUCSNAME
  2

  9
$PUCSORG
 10
0.0
 20
0.0
 30
0.0
  9
$PUCSXDIR
 10
1.0
 20
0.0
 30
0.0
  9
$PUCSYDIR
 10
0.0
 20
1.0
 30
0.0
  9
$USERI1
 70
     0
  9
$USERI2
 70
     0
  9
$USERI3
 70
     0
  9
$USERI4
 70
     0
  9
$USERI5
 70
     0
  9
$USERR1
 40
0.0
  9
$USERR2
 40
0.0
  9
$USERR3
 40
0.0
  9
$USERR4
 40
0.0
  9
$USERR5
 40
0.0
  9
$WORLDVIEW
 70
     1
  9
$SHADEDGE
 70
     3
  9
$SHADEDIF
 70
    70
  9
$TILEMODE
 70
     1
  9
$MAXACTVP
 70
    16
  9
$PLIMCHECK
 70
     0
  9
$PEXTMIN
 10
1.000000E+020
 20
1.000000E+020
 30
1.000000E+020
  9
$PEXTMAX
 10
-1.000000E+020
 20
-1.000000E+020
 30
-1.000000E+020
  9
$PLIMMIN
 10
0.0
 20
0.0
  9
$PLIMMAX
 10
12.0
 20
9.0
  9
$UNITMODE
 70
     0
  9
$VISRETAIN
 70
     0
  9
$PLINEGEN
 70
     0
  9
$PSLTSCALE
 70
     0
  0
ENDSEC
  0
SECTION
  2
TABLES
  0
TABLE
  2
VPORT
 70
     2
  0
VPORT
  2
*ACTIVE
 70
     0
 10
0.0
 20
0.0
 11
1.0
 21
1.0
 12
634.405374
 22
-46.377399
 13
0.0
 23
0.0
 14
1.0
 24
1.0
 15
10.0
 25
10.0
 16
0.0
 26
0.0
 36
1.0
 17
0.0
 27
0.0
 37
0.0
 40
67.315085
 41
1.63142
 42
50.0
 43
0.0
 44
0.0
 50
0.0
 51
0.0
 71
     0
 72
   100
 73
     1
 74
     0
 75
     0
 76
     0
 77
     0
 78
     0
  0
ENDTAB
  0
TABLE
  2
LTYPE
 70
    25
  0
LTYPE
  2
CONTINUOUS
 70
     0
  3
Solid line
 72
    65
 73
     0
 40
0.0
  0
LTYPE
  2
AXES2
 70
     0
  3
___ _ ___ _ ___ _ ___ _ ___ _ ___ _ ___ _ ___ _
 72
    65
 73
     4
 40
1.125
 49
0.75
 49
-0.125
 49
0.125
 49
-0.125
  0
LTYPE
  2
ACAD_ISO04W100
 70
     0
  3
ISO Lang gestrichelt punktiert ____ . ____ . __
 72
    65
 73
     4
 40
30.5
 49
24.0
 49
-3.0
 49
0.5
 49
-3.0
  0
LTYPE
  2
AXES
 70
     0
  3
____ _ ____ _ ____ _ ____ _ ____ _ ____ _ ____ 
 72
    65
 73
     4
 40
2.0
 49
1.25
 49
-0.25
 49
0.25
 49
-0.25
  0
LTYPE
  2
AXESX2
 70
     0
  3
________  __  ________  __  ________  __  _____
 72
    65
 73
     4
 40
4.0
 49
2.5
 49
-0.5
 49
0.5
 49
-0.5
  0
LTYPE
  2
TIRETPT
 70
     0
  3
__ . __ . __ . __ . __ . __ . __ . __ . __ . __
 72
    65
 73
     4
 40
1.0
 49
0.5
 49
-0.25
 49
0.0
 49
-0.25
  0
LTYPE
  2
TIRETPT2
 70
     0
  3
_._._._._._._._._._._._._._._._._._._._._._._._
 72
    65
 73
     4
 40
0.5
 49
0.25
 49
-0.125
 49
0.0
 49
-0.125
  0
LTYPE
  2
TIRETPTX2
 70
     0
  3
____  .  ____  .  ____  .  ____  .  ____  .  __
 72
    65
 73
     4
 40
2.0
 49
1.0
 49
-0.5
 49
0.0
 49
-0.5
  0
LTYPE
  2
DISCONTINU
 70
     0
  3
__ __ __ __ __ __ __ __ __ __ __ __ __ __ __ __
 72
    65
 73
     2
 40
0.75
 49
0.5
 49
-0.25
  0
LTYPE
  2
DISCONTINU2
 70
     0
  3
_ _ _ _ _ _ _ _ _ _ _ _ _ _ _ _ _ _ _ _ _ _ _ _
 72
    65
 73
     2
 40
0.375
 49
0.25
 49
-0.125
  0
LTYPE
  2
DISCONTINUX2
 70
     0
  3
____  ____  ____  ____  ____  ____  ____  ____ 
 72
    65
 73
     2
 40
1.5
 49
1.0
 49
-0.5
  0
LTYPE
  2
DIVISE
 70
     0
  3
____ . . ____ . . ____ . . ____ . . ____ . . __
 72
    65
 73
     6
 40
1.25
 49
0.5
 49
-0.25
 49
0.0
 49
-0.25
 49
0.0
 49
-0.25
  0
LTYPE
  2
DIVISE2
 70
     0
  3
__..__..__..__..__..__..__..__..__..__..__..__.
 72
    65
 73
     6
 40
0.625
 49
0.25
 49
-0.125
 49
0.0
 49
-0.125
 49
0.0
 49
-0.125
  0
LTYPE
  2
DIVISEX2
 70
     0
  3
________  .  .  ________  .  .  ________  .  . 
 72
    65
 73
     6
 40
2.5
 49
1.0
 49
-0.5
 49
0.0
 49
-0.5
 49
0.0
 49
-0.5
  0
LTYPE
  2
POINTILLE
 70
     0
  3
. . . . . . . . . . . . . . . . . . . . . . . .
 72
    65
 73
     2
 40
0.25
 49
0.0
 49
-0.25
  0
LTYPE
  2
POINTILLE2
 70
     0
  3
...............................................
 72
    65
 73
     2
 40
0.125
 49
0.0
 49
-0.125
  0
LTYPE
  2
POINTILLEX2
 70
     0
  3
.  .  .  .  .  .  .  .  .  .  .  .  .  .  .  . 
 72
    65
 73
     2
 40
0.5
 49
0.0
 49
-0.5
  0
LTYPE
  2
CACHE
 70
     0
  3
__ __ __ __ __ __ __ __ __ __ __ __ __ __ __ __
 72
    65
 73
     2
 40
0.375
 49
0.25
 49
-0.125
  0
LTYPE
  2
CACHE2
 70
     0
  3
_ _ _ _ _ _ _ _ _ _ _ _ _ _ _ _ _ _ _ _ _ _ _ _
 72
    65
 73
     2
 40
0.1875
 49
0.125
 49
-0.0625
  0
LTYPE
  2
CACHEX2
 70
     0
  3
____ ____ ____ ____ ____ ____ ____ ____ ____ __
 72
    65
 73
     2
 40
0.75
 49
0.5
 49
-0.25
  0
LTYPE
  2
FANTOME
 70
     0
  3
______  __  __  ______  __  __  ______  __  __ 
 72
    65
 73
     6
 40
2.5
 49
1.25
 49
-0.25
 49
0.25
 49
-0.25
 49
0.25
 49
-0.25
  0
LTYPE
  2
FANTOME2
 70
     0
  3
___ _ _ ___ _ _ ___ _ _ ___ _ _ ___ _ _ ___ _ _
 72
    65
 73
     6
 40
1.25
 49
0.625
 49
-0.125
 49
0.125
 49
-0.125
 49
0.125
 49
-0.125
  0
LTYPE
  2
FANTOMEX2
 70
     0
  3
____________    ____    ____    ____________   
 72
    65
 73
     6
 40
5.0
 49
2.5
 49
-0.5
 49
0.5
 49
-0.5
 49
0.5
 49
-0.5
  0
LTYPE
  2
0
 70
     0
  3
MEDUSA PEN 0
 72
    65
 73
     0
 40
0.0
  0
LTYPE
  2
AI9-LTYPE1
 70
     0
  3
Illustrator Dash Style No.1
 72
    65
 73
     2
 40
1.33491
 49
1.026935
 49
-0.307975
  0
ENDTAB
  0
TABLE
  2
LAYER
 70
    17
  0
LAYER
  2
0
 70
     0
 62
     7
  6
CONTINUOUS
  0
LAYER
  2
TEXTE_MOYEN
 70
     0
 62
   131
  6
CONTINUOUS
  0
LAYER
  2
ALPHA
 70
     0
 62
   254
  6
CONTINUOUS
  0
LAYER
  2
COTATION1
 70
     0
 62
    50
  6
CONTINUOUS
  0
LAYER
  2
AXE
 70
     0
 62
    80
  6
AXES2
  0
LAYER
  2
DEFPOINTS
 70
     0
 62
     7
  6
CONTINUOUS
  0
LAYER
  2
HACHURES1
 70
     0
 62
   130
  6
CONTINUOUS
  0
LAYER
  2
FMULT
 70
     0
 62
   210
  6
CONTINUOUS
  0
LAYER
  2
FDP_CARTOUCHE
 70
     0
 62
   136
  6
CONTINUOUS
  0
LAYER
  2
FDP_TEXTES
 70
     0
 62
   171
  6
CONTINUOUS
  0
LAYER
  2
FDP_LOGO_MG
 70
     0
 62
    30
  6
CONTINUOUS
  0
LAYER
  2
FDP_LOGO_SCH
 70
     0
 62
    90
  6
CONTINUOUS
  0
LAYER
  2
FDP_FDP
 70
     0
 62
   170
  6
CONTINUOUS
  0
LAYER
  2
POINTILLE_COURT2
 70
     0
 62
    41
  6
CACHE2
  0
LAYER
  2
POINTILLE_MOYEN2
 70
     0
 62
   141
  6
CACHE
  0
LAYER
  2
POINTILLE_LONG2
 70
     0
 62
   241
  6
CACHEX2
  0
LAYER
  2
ALPHA_FIN
 70
     0
 62
   255
  6
CONTINUOUS
  0
ENDTAB
  0
TABLE
  2
STYLE
 70
     5
  0
STYLE
  2
ROMANS
 70
     0
 40
0.0
 41
1.0
 50
0.0
 71
     0
 42
6.0
  3
romans
  4

  0
STYLE
  2
STANDARD
 70
     0
 40
0.2
 41
1.0
 50
0.0
 71
     0
 42
0.2
  3
txt
  4

  0
STYLE
  2
STD
 70
     0
 40
0.0
 41
1.0
 50
0.0
 71
     0
 42
0.0
  3
txt
  4

  0
STYLE
  2
INFOCAR
 70
     0
 40
0.0
 41
1.34
 50
0.0
 71
     0
 42
2.0
  3
ROMANS.SHX
  4

  0
STYLE
  2
CARTOUCHE
 70
     0
 40
0.0
 41
1.0
 50
0.0
 71
     0
 42
0.2
  3
ROMANS.SHX
  4

  0
ENDTAB
  0
TABLE
  2
VIEW
 70
     0
  0
ENDTAB
  0
TABLE
  2
UCS
 70
     0
  0
ENDTAB
  0
TABLE
  2
APPID
 70
     3
  0
APPID
  2
ACAD
 70
     0
  0
APPID
  2
AVE_RENDER
 70
     0
  0
APPID
  2
AVE_MATERIAL
 70
     0
  0
ENDTAB
  0
TABLE
  2
DIMSTYLE
 70
     2
  0
DIMSTYLE
  2
SC_DEFAUT
 70
     0
  3

  4

  5
OPEN30
  6

  7

 40
1.0
 41
2.0
 42
0.3
 43
0.1
 44
0.5
 45
0.0
 46
0.0
 47
0.0
 48
0.0
140
2.0
141
0.0
142
0.0
143
25.4
144
1.0
145
0.0
146
1.0
147
0.6
 71
     0
 72
     0
 73
     0
 74
     0
 75
     0
 76
     0
 77
     1
 78
    12
170
     0
171
     2
172
     0
173
     0
174
     0
175
     0
176
     0
177
     0
178
     0
  0
DIMSTYLE
  2
ROMANS
 70
     0
  3

  4

  5
OPEN30
  6

  7

 40
1.0
 41
2.0
 42
0.5
 43
0.38
 44
0.18
 45
0.0
 46
0.0
 47
0.0
 48
0.0
140
2.0
141
0.09
142
0.0
143
25.4
144
1.0
145
0.0
146
1.0
147
0.5
 71
     0
 72
     0
 73
     0
 74
     0
 75
     0
 76
     0
 77
     1
 78
    12
170
     0
171
     2
172
     0
173
     0
174
     0
175
     0
176
     0
177
     0
178
     0
  0
ENDTAB
  0
ENDSEC
  0
SECTION
  2
BLOCKS
  0
BLOCK
  8
0
  2
$MODEL_SPACE
 70
     0
 10
0.0
 20
0.0
 30
0.0
  3
$MODEL_SPACE
  1

  0
ENDBLK
  5
3643
  8
0
  0
BLOCK
 67
     1
  8
0
  2
$PAPER_SPACE
 70
     0
 10
0.0
 20
0.0
 30
0.0
  3
$PAPER_SPACE
  1

  0
ENDBLK
  5
3641
 67
     1
  8
0
  0
BLOCK
  8
0
  2
COTE
 70
     0
 10
0.0
 20
0.0
 30
0.0
  3
COTE
  1

  0
ENDBLK
  5
35
  8
0
  0
BLOCK
  8
0
  2
FOND
 70
     0
 10
0.0
 20
0.0
 30
0.0
  3
FOND
  1

  0
ENDBLK
  5
39
  8
0
  0
BLOCK
  8
0
  2
SCH_ISO
 70
     0
 10
0.0
 20
0.0
 30
0.0
  3
SCH_ISO
  1

  0
ENDBLK
  5
24AD
  8
0
  0
BLOCK
  8
0
  2
_OPEN30
 70
     0
 10
0.0
 20
0.0
 30
0.0
  3
_OPEN30
  1

  0
LINE
  5
27E1
  8
COTATION1
 62
     0
 10
-1.0
 20
0.267949
 30
0.0
 11
0.0
 21
0.0
 31
0.0
1001
ACAD
1000
RTLwPs
1070
   158
  0
LINE
  5
27E2
  8
COTATION1
 62
     0
 10
0.0
 20
0.0
 30
0.0
 11
-1.0
 21
-0.267949
 31
0.0
1001
ACAD
1000
RTLwPs
1070
   158
  0
LINE
  5
27E3
  8
COTATION1
 62
     0
 10
0.0
 20
0.0
 30
0.0
 11
-1.0
 21
0.0
 31
0.0
1001
ACAD
1000
RTLwPs
1070
   158
  0
ENDBLK
  5
27E5
  8
0
  0
BLOCK
  8
0
  2
*D4
 70
     1
 10
0.0
 20
0.0
 30
0.0
  3
*D4
  1

  0
LINE
  5
3421
  8
COTATION1
 62
     0
 10
631.897942
 20
-61.811111
 30
0.0
 11
618.077703
 21
-61.811111
 31
0.0
1001
ACAD
1000
RTLwPs
1070
   158
  0
LINE
  5
3422
  8
COTATION1
 62
     0
 10
632.682354
 20
-64.811073
 30
0.0
 11
618.077703
 21
-64.811073
 31
0.0
1001
ACAD
1000
RTLwPs
1070
   158
  0
LINE
  5
3423
  8
COTATION1
 62
     0
 10
618.577703
 20
-59.811111
 30
0.0
 11
618.577703
 21
-57.811111
 31
0.0
1001
ACAD
1000
RTLwPs
1070
   158
  0
LINE
  5
3424
  8
COTATION1
 62
     0
 10
618.577703
 20
-66.811073
 30
0.0
 11
618.577703
 21
-68.811073
 31
0.0
1001
ACAD
1000
RTLwPs
1070
   158
  0
INSERT
  5
3425
  8
COTATION1
 62
     0
  2
_OPEN30
 10
618.577703
 20
-61.811111
 30
0.0
 41
2.0
 42
2.0
 43
2.0
 50
270.0
1001
ACAD
1000
RTLwPs
1070
   158
  0
INSERT
  5
3426
  8
COTATION1
 62
     0
  2
_OPEN30
 10
618.577703
 20
-64.811073
 30
0.0
 41
2.0
 42
2.0
 43
2.0
 50
90.0
1001
ACAD
1000
RTLwPs
1070
   158
  0
TEXT
  5
3427
  8
COTATION1
 62
     0
 10
617.977703
 20
-64.263473
 30
0.0
 40
2.0
  1
3
 50
90.0
1001
ACAD
1000
MTEXTBEGIN
1070
    73
1070
     1
1070
    44
1040
1.0
1070
    74
1070
     0
1000
MTEXTEND
1000
MTEXTBEGIN
1070
    73
1070
     1
1070
    44
1040
1.0
1070
    74
1070
     0
1000
MTEXTEND
  0
POINT
  5
3428
  8
DEFPOINTS
 62
     0
 10
632.197942
 20
-61.811111
 30
0.0
  0
POINT
  5
3429
  8
DEFPOINTS
 62
     0
 10
632.982354
 20
-64.811073
 30
0.0
  0
POINT
  5
342A
  8
DEFPOINTS
 62
     0
 10
618.577703
 20
-64.811073
 30
0.0
  0
ENDBLK
  5
30A2
  8
0
  0
BLOCK
  8
0
  2
*D5
 70
     1
 10
0.0
 20
0.0
 30
0.0
  3
*D5
  1

  0
LINE
  5
33CA
  8
COTATION1
 62
     0
 10
634.852528
 20
-46.366036
 30
0.0
 11
634.852528
 21
-35.031377
 31
0.0
1001
ACAD
1000
RTLwPs
1070
   158
  0
LINE
  5
33CB
  8
COTATION1
 62
     0
 10
632.65248
 20
-46.498397
 30
0.0
 11
632.65248
 21
-35.031377
 31
0.0
1001
ACAD
1000
RTLwPs
1070
   158
  0
LINE
  5
33CC
  8
COTATION1
 62
     0
 10
636.852528
 20
-35.531377
 30
0.0
 11
638.852528
 21
-35.531377
 31
0.0
1001
ACAD
1000
RTLwPs
1070
   158
  0
LINE
  5
33CD
  8
COTATION1
 62
     0
 10
630.65248
 20
-35.531377
 30
0.0
 11
621.166765
 21
-35.531377
 31
0.0
1001
ACAD
1000
RTLwPs
1070
   158
  0
INSERT
  5
33CE
  8
COTATION1
 62
     0
  2
_OPEN30
 10
634.852528
 20
-35.531377
 30
0.0
 41
2.0
 42
2.0
 43
2.0
 50
180.0
1001
ACAD
1000
RTLwPs
1070
   158
  0
INSERT
  5
33CF
  8
COTATION1
 62
     0
  2
_OPEN30
 10
632.65248
 20
-35.531377
 30
0.0
 41
2.0
 42
2.0
 43
2.0
1001
ACAD
1000
RTLwPs
1070
   158
  0
TEXT
  5
33D0
  8
COTATION1
 62
     0
 10
621.481051
 20
-34.931377
 30
0.0
 40
2.0
  1
Ø2.2
1001
ACAD
1000
MTEXTBEGIN
1070
    73
1070
     1
1070
    44
1040
1.0
1070
    74
1070
     0
1000
MTEXTEND
1000
MTEXTBEGIN
1070
    73
1070
     1
1070
    44
1040
1.0
1070
    74
1070
     0
1000
MTEXTEND
  0
POINT
  5
33D1
  8
DEFPOINTS
 62
     0
 10
634.852528
 20
-46.666036
 30
0.0
  0
POINT
  5
33D2
  8
DEFPOINTS
 62
     0
 10
632.65248
 20
-46.798397
 30
0.0
  0
POINT
  5
33D3
  8
DEFPOINTS
 62
     0
 10
632.65248
 20
-35.531377
 30
0.0
  0
ENDBLK
  5
30B0
  8
0
  0
BLOCK
  8
0
  2
*D6
 70
     1
 10
0.0
 20
0.0
 30
0.0
  3
*D6
  1

  0
LINE
  5
340D
  8
COTATION1
 62
     0
 10
631.857186
 20
-46.811105
 30
0.0
 11
631.857186
 21
-39.98893
 31
0.0
1001
ACAD
1000
RTLwPs
1070
   158
  0
LINE
  5
340E
  8
COTATION1
 62
     0
 10
637.857175
 20
-46.811105
 30
0.0
 11
637.857175
 21
-39.98893
 31
0.0
1001
ACAD
1000
RTLwPs
1070
   158
  0
LINE
  5
340F
  8
COTATION1
 62
     0
 10
633.857186
 20
-40.48893
 30
0.0
 11
635.857175
 21
-40.48893
 31
0.0
1001
ACAD
1000
RTLwPs
1070
   158
  0
LINE
  5
3410
  8
COTATION1
 62
     0
 10
637.857175
 20
-40.48893
 30
0.0
 11
652.866748
 21
-40.48893
 31
0.0
1001
ACAD
1000
RTLwPs
1070
   158
  0
INSERT
  5
3411
  8
COTATION1
 62
     0
  2
_OPEN30
 10
631.857186
 20
-40.48893
 30
0.0
 41
2.0
 42
2.0
 43
2.0
 50
180.0
1001
ACAD
1000
RTLwPs
1070
   158
  0
INSERT
  5
3412
  8
COTATION1
 62
     0
  2
_OPEN30
 10
637.857175
 20
-40.48893
 30
0.0
 41
2.0
 42
2.0
 43
2.0
1001
ACAD
1000
RTLwPs
1070
   158
  0
TEXT
  5
3413
  8
COTATION1
 62
     0
 10
640.076272
 20
-39.88893
 30
0.0
 40
2.0
  1
M6x0.75
1001
ACAD
1000
MTEXTBEGIN
1070
    73
1070
     1
1070
    44
1040
1.0
1070
    74
1070
     0
1000
MTEXTEND
1000
MTEXTBEGIN
1070
    73
1070
     1
1070
    44
1040
1.0
1070
    74
1070
     0
1000
MTEXTEND
  0
POINT
  5
3414
  8
DEFPOINTS
 62
     0
 10
631.857186
 20
-47.111105
 30
0.0
  0
POINT
  5
3415
  8
DEFPOINTS
 62
     0
 10
637.857175
 20
-47.111105
 30
0.0
  0
POINT
  5
3416
  8
DEFPOINTS
 62
     0
 10
637.857175
 20
-40.48893
 30
0.0
  0
ENDBLK
  5
30BE
  8
0
  0
BLOCK
  8
0
  2
*D7
 70
     1
 10
0.0
 20
0.0
 30
0.0
  3
*D7
  1

  0
LINE
  5
342B
  8
COTATION1
 62
     0
 10
637.557225
 20
-46.811105
 30
0.0
 11
618.077703
 21
-46.811105
 31
0.0
1001
ACAD
1000
RTLwPs
1070
   158
  0
LINE
  5
342C
  8
COTATION1
 62
     0
 10
631.897942
 20
-61.811111
 30
0.0
 11
618.077703
 21
-61.811111
 31
0.0
1001
ACAD
1000
RTLwPs
1070
   158
  0
LINE
  5
342D
  8
COTATION1
 62
     0
 10
618.577703
 20
-48.811105
 30
0.0
 11
618.577703
 21
-59.811111
 31
0.0
1001
ACAD
1000
RTLwPs
1070
   158
  0
INSERT
  5
342E
  8
COTATION1
 62
     0
  2
_OPEN30
 10
618.577703
 20
-46.811105
 30
0.0
 41
2.0
 42
2.0
 43
2.0
 50
90.0
1001
ACAD
1000
RTLwPs
1070
   158
  0
INSERT
  5
342F
  8
COTATION1
 62
     0
  2
_OPEN30
 10
618.577703
 20
-61.811111
 30
0.0
 41
2.0
 42
2.0
 43
2.0
 50
270.0
1001
ACAD
1000
RTLwPs
1070
   158
  0
TEXT
  5
3430
  8
COTATION1
 62
     0
 10
617.977703
 20
-56.358727
 30
0.0
 40
2.0
  1
15
 50
90.0
1001
ACAD
1000
MTEXTBEGIN
1070
    73
1070
     1
1070
    44
1040
1.0
1070
    74
1070
     0
1000
MTEXTEND
1000
MTEXTBEGIN
1070
    73
1070
     1
1070
    44
1040
1.0
1070
    74
1070
     0
1000
MTEXTEND
  0
POINT
  5
3431
  8
DEFPOINTS
 62
     0
 10
637.857225
 20
-46.811105
 30
0.0
  0
POINT
  5
3432
  8
DEFPOINTS
 62
     0
 10
632.197942
 20
-61.811111
 30
0.0
  0
POINT
  5
3433
  8
DEFPOINTS
 62
     0
 10
618.577703
 20
-61.811111
 30
0.0
  0
ENDBLK
  5
30CC
  8
0
  0
ENDSEC
  0
SECTION
  2
ENTITIES
  0
INSERT
  5
32
  8
0
  2
COTE
 10
0.0
 20
0.0
 30
0.0
  0
INSERT
  5
36
  8
0
  2
FOND
 10
0.0
 20
0.0
 30
0.0
  0
INSERT
  5
24AE
  8
ALPHA
  2
SCH_ISO
 10
-66.27012
 20
-238.940658
 30
0.0
  0
LINE
  5
2FE7
  8
ALPHA
 10
637.874046
 20
-52.229983
 30
0.0
 11
637.841835
 21
-54.806102
 31
0.0
  0
LINE
  5
2FE8
  8
ALPHA
 10
631.850694
 20
-52.229983
 30
0.0
 11
631.857136
 21
-54.823281
 31
0.0
  0
POLYLINE
  5
2FE9
  8
ALPHA
 66
     1
 10
0.0
 20
0.0
 30
0.0
 70
     1
  0
VERTEX
  5
3649
  8
ALPHA
 10
641.141616
 20
-54.830439
 30
0.0
  0
VERTEX
  5
364A
  8
ALPHA
 10
641.141616
 20
-51.82091
 30
0.0
  0
VERTEX
  5
364B
  8
ALPHA
 10
640.119113
 20
-51.305543
 30
0.0
  0
VERTEX
  5
364C
  8
ALPHA
 10
629.585942
 20
-51.305543
 30
0.0
  0
VERTEX
  5
364D
  8
ALPHA
 10
628.519419
 20
-51.961562
 30
0.0
  0
VERTEX
  5
364E
  8
ALPHA
 10
628.519419
 20
-54.830439
 30
0.0
  0
SEQEND
  5
364F
  8
ALPHA
  0
POLYLINE
  5
2FFF
  8
ALPHA
 66
     1
 10
0.0
 20
0.0
 30
0.0
 70
   128
  0
VERTEX
  5
3650
  8
ALPHA
 10
631.850694
 20
-58.587607
 30
0.0
  0
VERTEX
  5
3651
  8
ALPHA
 10
631.911887
 20
-58.762354
 30
0.0
  0
VERTEX
  5
3652
  8
ALPHA
 10
632.08739
 20
-58.925123
 30
0.0
  0
VERTEX
  5
3653
  8
ALPHA
 10
632.732857
 20
-59.200769
 30
0.0
  0
VERTEX
  5
3654
  8
ALPHA
 10
633.690162
 20
-59.386627
 30
0.0
  0
VERTEX
  5
3655
  8
ALPHA
 10
634.86237
 20
-59.454784
 30
0.0
  0
VERTEX
  5
3656
  8
ALPHA
 10
636.034578
 20
-59.386627
 30
0.0
  0
VERTEX
  5
3657
  8
ALPHA
 10
636.991882
 20
-59.200769
 30
0.0
  0
VERTEX
  5
3658
  8
ALPHA
 10
637.637349
 20
-58.925123
 30
0.0
  0
VERTEX
  5
3659
  8
ALPHA
 10
637.812852
 20
-58.762354
 30
0.0
  0
VERTEX
  5
365A
  8
ALPHA
 10
637.874046
 20
-58.587607
 30
0.0
  0
SEQEND
  5
365B
  8
ALPHA
  0
POLYLINE
  5
3000
  8
ALPHA
 66
     1
 10
0.0
 20
0.0
 30
0.0
 70
     1
  0
VERTEX
  5
365C
  8
ALPHA
 10
641.141616
 20
-55.986435
 30
0.0
  0
VERTEX
  5
365D
  8
ALPHA
 10
641.141616
 20
-58.99668
 30
0.0
  0
VERTEX
  5
365E
  8
ALPHA
 10
640.119113
 20
-59.512762
 30
0.0
  0
VERTEX
  5
365F
  8
ALPHA
 10
629.585942
 20
-59.512762
 30
0.0
  0
VERTEX
  5
3660
  8
ALPHA
 10
628.519419
 20
-58.856743
 30
0.0
  0
VERTEX
  5
3661
  8
ALPHA
 10
628.519419
 20
-55.986435
 30
0.0
  0
SEQEND
  5
3662
  8
ALPHA
  0
POLYLINE
  5
3008
  8
ALPHA
 66
     1
 10
0.0
 20
0.0
 30
0.0
 70
     1
  0
VERTEX
  5
3663
  8
ALPHA
 10
628.106767
 20
-54.830439
 30
0.0
  0
VERTEX
  5
3664
  8
ALPHA
 10
641.484836
 20
-54.830439
 30
0.0
  0
VERTEX
  5
3665
  8
ALPHA
 10
641.484836
 20
-55.986435
 30
0.0
  0
VERTEX
  5
3666
  8
ALPHA
 10
628.106767
 20
-55.986435
 30
0.0
  0
SEQEND
  5
3667
  8
ALPHA
  0
LINE
  5
301E
  8
ALPHA
 10
631.850694
 20
-58.587607
 30
0.0
 11
631.857136
 21
-55.995025
 31
0.0
  0
POLYLINE
  5
301F
  8
ALPHA
 66
     1
 10
0.0
 20
0.0
 30
0.0
 70
   128
  0
VERTEX
  5
3668
  8
ALPHA
 10
628.565587
 20
-58.587607
 30
0.0
  0
VERTEX
  5
3669
  8
ALPHA
 10
628.694625
 20
-58.925123
 30
0.0
  0
VERTEX
  5
366A
  8
ALPHA
 10
629.046552
 20
-59.200769
 30
0.0
  0
VERTEX
  5
366B
  8
ALPHA
 10
629.56859
 20
-59.386627
 30
0.0
  0
VERTEX
  5
366C
  8
ALPHA
 10
630.207962
 20
-59.454784
 30
0.0
  0
VERTEX
  5
366D
  8
ALPHA
 10
630.84754
 20
-59.386627
 30
0.0
  0
VERTEX
  5
366E
  8
ALPHA
 10
631.369685
 20
-59.200769
 30
0.0
  0
VERTEX
  5
366F
  8
ALPHA
 10
631.721651
 20
-58.925123
 30
0.0
  0
VERTEX
  5
3670
  8
ALPHA
 10
631.850694
 20
-58.587607
 30
0.0
  0
SEQEND
  5
3671
  8
ALPHA
  0
LINE
  5
3020
  8
ALPHA
 10
637.874046
 20
-58.587607
 30
0.0
 11
637.841835
 21
-56.012204
 31
0.0
  0
POLYLINE
  5
3021
  8
ALPHA
 66
     1
 10
0.0
 20
0.0
 30
0.0
 70
   128
  0
VERTEX
  5
3672
  8
ALPHA
 10
637.874046
 20
-58.587607
 30
0.0
  0
VERTEX
  5
3673
  8
ALPHA
 10
638.003139
 20
-58.925123
 30
0.0
  0
VERTEX
  5
3674
  8
ALPHA
 10
638.355189
 20
-59.200769
 30
0.0
  0
VERTEX
  5
3675
  8
ALPHA
 10
638.87735
 20
-59.386627
 30
0.0
  0
VERTEX
  5
3676
  8
ALPHA
 10
639.516778
 20
-59.454784
 30
0.0
  0
VERTEX
  5
3677
  8
ALPHA
 10
640.156205
 20
-59.386627
 30
0.0
  0
VERTEX
  5
3678
  8
ALPHA
 10
640.678367
 20
-59.200769
 30
0.0
  0
VERTEX
  5
3679
  8
ALPHA
 10
641.030417
 20
-58.925123
 30
0.0
  0
VERTEX
  5
367A
  8
ALPHA
 10
641.15951
 20
-58.587607
 30
0.0
  0
SEQEND
  5
367B
  8
ALPHA
  0
POLYLINE
  5
3022
  8
ALPHA
 66
     1
 10
0.0
 20
0.0
 30
0.0
 70
   128
210
0.0
220
0.0
230
-1.0
  0
VERTEX
  5
367C
  8
ALPHA
 10
-631.850694
 20
-52.229983
 30
0.0
  0
VERTEX
  5
367D
  8
ALPHA
 10
-631.911887
 20
-52.055472
 30
0.0
  0
VERTEX
  5
367E
  8
ALPHA
 10
-632.08739
 20
-51.89288
 30
0.0
  0
VERTEX
  5
367F
  8
ALPHA
 10
-632.732857
 20
-51.617448
 30
0.0
  0
VERTEX
  5
3680
  8
ALPHA
 10
-633.690162
 20
-51.431667
 30
0.0
  0
VERTEX
  5
3681
  8
ALPHA
 10
-634.86237
 20
-51.363522
 30
0.0
  0
VERTEX
  5
3682
  8
ALPHA
 10
-636.034578
 20
-51.431667
 30
0.0
  0
VERTEX
  5
3683
  8
ALPHA
 10
-636.991882
 20
-51.617448
 30
0.0
  0
VERTEX
  5
3684
  8
ALPHA
 10
-637.637349
 20
-51.89288
 30
0.0
  0
VERTEX
  5
3685
  8
ALPHA
 10
-637.812852
 20
-52.055472
 30
0.0
  0
VERTEX
  5
3686
  8
ALPHA
 10
-637.874046
 20
-52.229983
 30
0.0
  0
SEQEND
  5
3687
  8
ALPHA
  0
POLYLINE
  5
3034
  8
ALPHA
 66
     1
 10
0.0
 20
0.0
 30
0.0
 70
   128
210
0.0
220
0.0
230
-1.0
  0
VERTEX
  5
3688
  8
ALPHA
 10
-628.565587
 20
-52.229983
 30
0.0
  0
VERTEX
  5
3689
  8
ALPHA
 10
-628.694625
 20
-51.89288
 30
0.0
  0
VERTEX
  5
368A
  8
ALPHA
 10
-629.046552
 20
-51.617448
 30
0.0
  0
VERTEX
  5
368B
  8
ALPHA
 10
-629.56859
 20
-51.431667
 30
0.0
  0
VERTEX
  5
368C
  8
ALPHA
 10
-630.207962
 20
-51.363522
 30
0.0
  0
VERTEX
  5
368D
  8
ALPHA
 10
-630.84754
 20
-51.431667
 30
0.0
  0
VERTEX
  5
368E
  8
ALPHA
 10
-631.369685
 20
-51.617448
 30
0.0
  0
VERTEX
  5
368F
  8
ALPHA
 10
-631.721651
 20
-51.89288
 30
0.0
  0
VERTEX
  5
3690
  8
ALPHA
 10
-631.850694
 20
-52.229983
 30
0.0
  0
SEQEND
  5
3691
  8
ALPHA
  0
POLYLINE
  5
303B
  8
ALPHA
 66
     1
 10
0.0
 20
0.0
 30
0.0
 70
   128
210
0.0
220
0.0
230
-1.0
  0
VERTEX
  5
3692
  8
ALPHA
 10
-637.874046
 20
-52.229983
 30
0.0
  0
VERTEX
  5
3693
  8
ALPHA
 10
-638.003139
 20
-51.89288
 30
0.0
  0
VERTEX
  5
3694
  8
ALPHA
 10
-638.355189
 20
-51.617448
 30
0.0
  0
VERTEX
  5
3695
  8
ALPHA
 10
-638.87735
 20
-51.431667
 30
0.0
  0
VERTEX
  5
3696
  8
ALPHA
 10
-639.516778
 20
-51.363522
 30
0.0
  0
VERTEX
  5
3697
  8
ALPHA
 10
-640.156205
 20
-51.431667
 30
0.0
  0
VERTEX
  5
3698
  8
ALPHA
 10
-640.678367
 20
-51.617448
 30
0.0
  0
VERTEX
  5
3699
  8
ALPHA
 10
-641.030417
 20
-51.89288
 30
0.0
  0
VERTEX
  5
369A
  8
ALPHA
 10
-641.15951
 20
-52.229983
 30
0.0
  0
SEQEND
  5
369B
  8
ALPHA
  0
DIMENSION
  5
3095
  8
COTATION1
  2
*D4
 10
618.577703
 20
-64.811073
 30
0.0
 11
618.577703
 21
-63.311092
 31
0.0
 70
   128
 13
632.197942
 23
-61.811111
 33
0.0
 14
632.982354
 24
-64.811073
 34
0.0
 50
90.0
  0
DIMENSION
  5
30A3
  8
COTATION1
  2
*D5
 10
632.65248
 20
-35.531377
 30
0.0
 11
624.909623
 21
-33.931377
 31
0.0
  1
Ø<>
 13
634.852528
 23
-46.666036
 33
0.0
 14
632.65248
 24
-46.798397
 34
0.0
  0
DIMENSION
  5
30B1
  8
COTATION1
  2
*D6
 10
637.857175
 20
-40.48893
 30
0.0
 11
646.361987
 21
-40.48893
 31
0.0
 70
   128
  1
M<>x0.75
 13
631.857186
 23
-47.111105
 33
0.0
 14
637.857175
 24
-47.111105
 34
0.0
1001
ACAD
1000
DSTYLE
1002
{
1070
   271
1070
     3
1002
}
  0
DIMENSION
  5
30BF
  8
COTATION1
  2
*D7
 10
618.577703
 20
-61.811111
 30
0.0
 11
618.577703
 21
-54.311108
 31
0.0
 70
   128
 13
637.857225
 23
-46.811105
 33
0.0
 14
632.197942
 24
-61.811111
 34
0.0
 50
90.0
  0
POLYLINE
  5
31D0
  8
ALPHA
 66
     1
 10
0.0
 20
0.0
 30
0.0
 70
     1
  0
VERTEX
  5
369C
  8
ALPHA
 10
632.936186
 20
-61.811111
 30
0.0
  0
VERTEX
  5
369D
  8
ALPHA
 10
636.76887
 20
-61.811111
 30
0.0
  0
VERTEX
  5
369E
  8
ALPHA
 10
636.76887
 20
-64.811073
 30
0.0
  0
VERTEX
  5
369F
  8
ALPHA
 10
632.936186
 20
-64.811073
 30
0.0
  0
SEQEND
  5
36A0
  8
ALPHA
  0
POLYLINE
  5
322B
  8
ALPHA
 66
     1
 10
0.0
 20
0.0
 30
0.0
 70
   128
  0
VERTEX
  5
36A1
  8
ALPHA
 10
643.192144
 20
-17.311744
 30
0.0
  0
VERTEX
  5
36A2
  8
ALPHA
 10
642.254878
 20
-17.279765
 30
0.0
  0
VERTEX
  5
36A3
  8
ALPHA
 10
641.392546
 20
-17.389653
 30
0.0
  0
VERTEX
  5
36A4
  8
ALPHA
 10
640.605008
 20
-17.632053
 30
0.0
  0
VERTEX
  5
36A5
  8
ALPHA
 10
639.892125
 20
-17.997609
 30
0.0
  0
VERTEX
  5
36A6
  8
ALPHA
 10
639.253761
 20
-18.476964
 30
0.0
  0
VERTEX
  5
36A7
  8
ALPHA
 10
638.689775
 20
-19.060764
 30
0.0
  0
VERTEX
  5
36A8
  8
ALPHA
 10
638.20003
 20
-19.739651
 30
0.0
  0
VERTEX
  5
36A9
  8
ALPHA
 10
637.784387
 20
-20.504271
 30
0.0
  0
VERTEX
  5
36AA
  8
ALPHA
 10
637.174854
 20
-22.253285
 30
0.0
  0
VERTEX
  5
36AB
  8
ALPHA
 10
636.860069
 20
-24.232959
 30
0.0
  0
VERTEX
  5
36AC
  8
ALPHA
 10
636.827297
 20
-24.755147
 30
0.0
  0
VERTEX
  5
36AD
  8
ALPHA
 10
636.817788
 20
-25.019527
 30
0.0
  0
VERTEX
  5
36AE
  8
ALPHA
 10
636.816436
 20
-25.088403
 30
0.0
  0
VERTEX
  5
36AF
  8
ALPHA
 10
636.816436
 20
-25.260578
 30
0.0
  0
VERTEX
  5
36B0
  8
ALPHA
 10
636.816436
 20
-25.610006
 30
0.0
  0
VERTEX
  5
36B1
  8
ALPHA
 10
636.816436
 20
-26.121138
 30
0.0
  0
VERTEX
  5
36B2
  8
ALPHA
 10
636.816436
 20
-26.778428
 30
0.0
  0
VERTEX
  5
36B3
  8
ALPHA
 10
636.816436
 20
-27.566325
 30
0.0
  0
VERTEX
  5
36B4
  8
ALPHA
 10
636.816436
 20
-28.469281
 30
0.0
  0
VERTEX
  5
36B5
  8
ALPHA
 10
636.816436
 20
-30.558178
 30
0.0
  0
VERTEX
  5
36B6
  8
ALPHA
 10
636.816436
 20
-32.920729
 30
0.0
  0
VERTEX
  5
36B7
  8
ALPHA
 10
636.816436
 20
-37.969242
 30
0.0
  0
VERTEX
  5
36B8
  8
ALPHA
 10
636.816436
 20
-40.406426
 30
0.0
  0
VERTEX
  5
36B9
  8
ALPHA
 10
636.816436
 20
-42.619712
 30
0.0
  0
VERTEX
  5
36BA
  8
ALPHA
 10
636.816436
 20
-43.603521
 30
0.0
  0
VERTEX
  5
36BB
  8
ALPHA
 10
636.816436
 20
-44.484709
 30
0.0
  0
VERTEX
  5
36BC
  8
ALPHA
 10
636.816436
 20
-45.247729
 30
0.0
  0
VERTEX
  5
36BD
  8
ALPHA
 10
636.816436
 20
-45.87703
 30
0.0
  0
VERTEX
  5
36BE
  8
ALPHA
 10
636.816436
 20
-46.357066
 30
0.0
  0
VERTEX
  5
36BF
  8
ALPHA
 10
636.816436
 20
-46.672287
 30
0.0
  0
VERTEX
  5
36C0
  8
ALPHA
 10
636.816436
 20
-46.807145
 30
0.0
  0
VERTEX
  5
36C1
  8
ALPHA
 10
636.810802
 20
-46.811105
 30
0.0
  0
VERTEX
  5
36C2
  8
ALPHA
 10
636.635196
 20
-46.811105
 30
0.0
  0
VERTEX
  5
36C3
  8
ALPHA
 10
635.834482
 20
-46.811105
 30
0.0
  0
VERTEX
  5
36C4
  8
ALPHA
 10
635.033767
 20
-46.811105
 30
0.0
  0
VERTEX
  5
36C5
  8
ALPHA
 10
634.858162
 20
-46.811105
 30
0.0
  0
VERTEX
  5
36C6
  8
ALPHA
 10
634.852528
 20
-46.807145
 30
0.0
  0
VERTEX
  5
36C7
  8
ALPHA
 10
634.852528
 20
-46.672287
 30
0.0
  0
VERTEX
  5
36C8
  8
ALPHA
 10
634.852528
 20
-46.357066
 30
0.0
  0
VERTEX
  5
36C9
  8
ALPHA
 10
634.852528
 20
-45.87703
 30
0.0
  0
VERTEX
  5
36CA
  8
ALPHA
 10
634.852528
 20
-45.247729
 30
0.0
  0
VERTEX
  5
36CB
  8
ALPHA
 10
634.852528
 20
-44.484709
 30
0.0
  0
VERTEX
  5
36CC
  8
ALPHA
 10
634.852528
 20
-43.603521
 30
0.0
  0
VERTEX
  5
36CD
  8
ALPHA
 10
634.852528
 20
-42.619712
 30
0.0
  0
VERTEX
  5
36CE
  8
ALPHA
 10
634.852528
 20
-40.406426
 30
0.0
  0
VERTEX
  5
36CF
  8
ALPHA
 10
634.852528
 20
-37.969242
 30
0.0
  0
VERTEX
  5
36D0
  8
ALPHA
 10
634.852528
 20
-32.920729
 30
0.0
  0
VERTEX
  5
36D1
  8
ALPHA
 10
634.852528
 20
-30.558178
 30
0.0
  0
VERTEX
  5
36D2
  8
ALPHA
 10
634.852528
 20
-28.469281
 30
0.0
  0
VERTEX
  5
36D3
  8
ALPHA
 10
634.852528
 20
-27.566325
 30
0.0
  0
VERTEX
  5
36D4
  8
ALPHA
 10
634.852528
 20
-26.778428
 30
0.0
  0
VERTEX
  5
36D5
  8
ALPHA
 10
634.852528
 20
-26.121138
 30
0.0
  0
VERTEX
  5
36D6
  8
ALPHA
 10
634.852528
 20
-25.610006
 30
0.0
  0
VERTEX
  5
36D7
  8
ALPHA
 10
634.852528
 20
-25.260578
 30
0.0
  0
VERTEX
  5
36D8
  8
ALPHA
 10
634.852528
 20
-25.088403
 30
0.0
  0
VERTEX
  5
36D9
  8
ALPHA
 10
634.852252
 20
-25.012398
 30
0.0
  0
VERTEX
  5
36DA
  8
ALPHA
 10
634.855283
 20
-24.711052
 30
0.0
  0
VERTEX
  5
36DB
  8
ALPHA
 10
634.883225
 20
-24.108721
 30
0.0
  0
VERTEX
  5
36DC
  8
ALPHA
 10
635.025103
 20
-22.913074
 30
0.0
  0
VERTEX
  5
36DD
  8
ALPHA
 10
635.278728
 20
-21.743863
 30
0.0
  0
VERTEX
  5
36DE
  8
ALPHA
 10
635.640603
 20
-20.618389
 30
0.0
  0
VERTEX
  5
36DF
  8
ALPHA
 10
636.107235
 20
-19.553951
 30
0.0
  0
VERTEX
  5
36E0
  8
ALPHA
 10
636.675128
 20
-18.56785
 30
0.0
  0
VERTEX
  5
36E1
  8
ALPHA
 10
637.340789
 20
-17.677386
 30
0.0
  0
VERTEX
  5
36E2
  8
ALPHA
 10
638.100721
 20
-16.899859
 30
0.0
  0
VERTEX
  5
36E3
  8
ALPHA
 10
638.95143
 20
-16.25257
 30
0.0
  0
VERTEX
  5
36E4
  8
ALPHA
 10
639.889422
 20
-15.752818
 30
0.0
  0
VERTEX
  5
36E5
  8
ALPHA
 10
640.911201
 20
-15.417904
 30
0.0
  0
VERTEX
  5
36E6
  8
ALPHA
 10
642.013273
 20
-15.265127
 30
0.0
  0
VERTEX
  5
36E7
  8
ALPHA
 10
643.192144
 20
-15.311789
 30
0.0
  0
SEQEND
  5
36E8
  8
ALPHA
  0
POLYLINE
  5
322C
  8
ALPHA
 66
     1
 10
0.0
 20
0.0
 30
0.0
 70
   128
210
0.0
220
0.0
230
-1.0
  0
VERTEX
  5
36E9
  8
ALPHA
 10
-626.254761
 20
-17.311744
 30
0.0
  0
VERTEX
  5
36EA
  8
ALPHA
 10
-627.010572
 20
-17.274512
 30
0.0
  0
VERTEX
  5
36EB
  8
ALPHA
 10
-627.718409
 20
-17.329273
 30
0.0
  0
VERTEX
  5
36EC
  8
ALPHA
 10
-628.990442
 20
-17.695611
 30
0.0
  0
VERTEX
  5
36ED
  8
ALPHA
 10
-630.071426
 20
-18.372438
 30
0.0
  0
VERTEX
  5
36EE
  8
ALPHA
 10
-630.961929
 20
-19.321432
 30
0.0
  0
VERTEX
  5
36EF
  8
ALPHA
 10
-631.662518
 20
-20.504271
 30
0.0
  0
VERTEX
  5
36F0
  8
ALPHA
 10
-632.17376
 20
-21.882635
 30
0.0
  0
VERTEX
  5
36F1
  8
ALPHA
 10
-632.496221
 20
-23.4182
 30
0.0
  0
VERTEX
  5
36F2
  8
ALPHA
 10
-632.630469
 20
-25.072647
 30
0.0
  0
SEQEND
  5
36F3
  8
ALPHA
  0
POLYLINE
  5
322D
  8
ALPHA
 66
     1
 10
0.0
 20
0.0
 30
0.0
 70
   128
  0
VERTEX
  5
36F4
  8
ALPHA
 10
632.65248
 20
-25.05994
 30
0.0
  0
VERTEX
  5
36F5
  8
ALPHA
 10
632.65248
 20
-25.1223
 30
0.0
  0
VERTEX
  5
36F6
  8
ALPHA
 10
632.65248
 20
-25.304073
 30
0.0
  0
VERTEX
  5
36F7
  8
ALPHA
 10
632.65248
 20
-25.597298
 30
0.0
  0
VERTEX
  5
36F8
  8
ALPHA
 10
632.65248
 20
-25.994014
 30
0.0
  0
VERTEX
  5
36F9
  8
ALPHA
 10
632.65248
 20
-27.066077
 30
0.0
  0
VERTEX
  5
36FA
  8
ALPHA
 10
632.65248
 20
-28.456574
 30
0.0
  0
VERTEX
  5
36FB
  8
ALPHA
 10
632.65248
 20
-30.101818
 30
0.0
  0
VERTEX
  5
36FC
  8
ALPHA
 10
632.65248
 20
-31.938123
 30
0.0
  0
VERTEX
  5
36FD
  8
ALPHA
 10
632.65248
 20
-35.929168
 30
0.0
  0
VERTEX
  5
36FE
  8
ALPHA
 10
632.65248
 20
-39.920213
 30
0.0
  0
VERTEX
  5
36FF
  8
ALPHA
 10
632.65248
 20
-41.756519
 30
0.0
  0
VERTEX
  5
3700
  8
ALPHA
 10
632.65248
 20
-43.401763
 30
0.0
  0
VERTEX
  5
3701
  8
ALPHA
 10
632.65248
 20
-44.79226
 30
0.0
  0
VERTEX
  5
3702
  8
ALPHA
 10
632.65248
 20
-45.864323
 30
0.0
  0
VERTEX
  5
3703
  8
ALPHA
 10
632.65248
 20
-46.261039
 30
0.0
  0
VERTEX
  5
3704
  8
ALPHA
 10
632.65248
 20
-46.554264
 30
0.0
  0
VERTEX
  5
3705
  8
ALPHA
 10
632.65248
 20
-46.736037
 30
0.0
  0
VERTEX
  5
3706
  8
ALPHA
 10
632.65248
 20
-46.798397
 30
0.0
  0
SEQEND
  5
3707
  8
ALPHA
  0
POLYLINE
  5
322E
  8
ALPHA
 66
     1
 10
0.0
 20
0.0
 30
0.0
 70
   128
  0
VERTEX
  5
3708
  8
ALPHA
 10
632.888806
 20
-46.811105
 30
0.0
  0
VERTEX
  5
3709
  8
ALPHA
 10
632.974745
 20
-46.811105
 30
0.0
  0
VERTEX
  5
370A
  8
ALPHA
 10
633.201313
 20
-46.811105
 30
0.0
  0
VERTEX
  5
370B
  8
ALPHA
 10
633.88883
 20
-46.811105
 30
0.0
  0
VERTEX
  5
370C
  8
ALPHA
 10
634.576346
 20
-46.811105
 30
0.0
  0
VERTEX
  5
370D
  8
ALPHA
 10
634.802914
 20
-46.811105
 30
0.0
  0
VERTEX
  5
370E
  8
ALPHA
 10
634.888854
 20
-46.811105
 30
0.0
  0
SEQEND
  5
370F
  8
ALPHA
  0
POLYLINE
  5
322F
  8
ALPHA
 66
     1
 10
0.0
 20
0.0
 30
0.0
 70
   128
  0
VERTEX
  5
3710
  8
ALPHA
 10
634.852528
 20
-46.798397
 30
0.0
  0
VERTEX
  5
3711
  8
ALPHA
 10
634.852528
 20
-46.736037
 30
0.0
  0
VERTEX
  5
3712
  8
ALPHA
 10
634.852528
 20
-46.554264
 30
0.0
  0
VERTEX
  5
3713
  8
ALPHA
 10
634.852528
 20
-46.261039
 30
0.0
  0
VERTEX
  5
3714
  8
ALPHA
 10
634.852528
 20
-45.864323
 30
0.0
  0
VERTEX
  5
3715
  8
ALPHA
 10
634.852528
 20
-44.79226
 30
0.0
  0
VERTEX
  5
3716
  8
ALPHA
 10
634.852528
 20
-43.401763
 30
0.0
  0
VERTEX
  5
3717
  8
ALPHA
 10
634.852528
 20
-41.756519
 30
0.0
  0
VERTEX
  5
3718
  8
ALPHA
 10
634.852528
 20
-39.920213
 30
0.0
  0
VERTEX
  5
3719
  8
ALPHA
 10
634.852528
 20
-35.929168
 30
0.0
  0
VERTEX
  5
371A
  8
ALPHA
 10
634.852528
 20
-31.938123
 30
0.0
  0
VERTEX
  5
371B
  8
ALPHA
 10
634.852528
 20
-30.101818
 30
0.0
  0
VERTEX
  5
371C
  8
ALPHA
 10
634.852528
 20
-28.456574
 30
0.0
  0
VERTEX
  5
371D
  8
ALPHA
 10
634.852528
 20
-27.066077
 30
0.0
  0
VERTEX
  5
371E
  8
ALPHA
 10
634.852528
 20
-25.994014
 30
0.0
  0
VERTEX
  5
371F
  8
ALPHA
 10
634.852528
 20
-25.597298
 30
0.0
  0
VERTEX
  5
3720
  8
ALPHA
 10
634.852528
 20
-25.304073
 30
0.0
  0
VERTEX
  5
3721
  8
ALPHA
 10
634.852528
 20
-25.1223
 30
0.0
  0
VERTEX
  5
3722
  8
ALPHA
 10
634.852528
 20
-25.05994
 30
0.0
  0
SEQEND
  5
3723
  8
ALPHA
  0
POLYLINE
  5
3230
  8
ALPHA
 66
     1
 10
0.0
 20
0.0
 30
0.0
 70
   128
  0
VERTEX
  5
3724
  8
ALPHA
 10
634.852528
 20
-25.078545
 30
0.0
  0
VERTEX
  5
3725
  8
ALPHA
 10
634.698185
 20
-23.154593
 30
0.0
  0
VERTEX
  5
3726
  8
ALPHA
 10
634.260754
 20
-21.289944
 30
0.0
  0
VERTEX
  5
3727
  8
ALPHA
 10
633.553867
 20
-19.555391
 30
0.0
  0
VERTEX
  5
3728
  8
ALPHA
 10
632.591158
 20
-18.021725
 30
0.0
  0
VERTEX
  5
3729
  8
ALPHA
 10
631.386259
 20
-16.75974
 30
0.0
  0
VERTEX
  5
372A
  8
ALPHA
 10
630.69725
 20
-16.25275
 30
0.0
  0
VERTEX
  5
372B
  8
ALPHA
 10
629.952805
 20
-15.840227
 30
0.0
  0
VERTEX
  5
372C
  8
ALPHA
 10
629.15463
 20
-15.531021
 30
0.0
  0
VERTEX
  5
372D
  8
ALPHA
 10
628.304428
 20
-15.33398
 30
0.0
  0
VERTEX
  5
372E
  8
ALPHA
 10
627.403904
 20
-15.257953
 30
0.0
  0
VERTEX
  5
372F
  8
ALPHA
 10
626.454761
 20
-15.311789
 30
0.0
  0
SEQEND
  5
3730
  8
ALPHA
  0
LINE
  5
32A8
  8
AXE
 10
652.002732
 20
-55.408437
 30
0.0
 11
623.800364
 21
-55.408437
 31
0.0
  0
LINE
  5
32A9
  8
AXE
 10
634.852528
 20
-13.065913
 30
0.0
 11
634.852528
 21
-79.704769
 31
0.0
  0
TEXT
  5
32AA
  8
AXE
 10
627.354327
 20
-79.704769
 30
0.0
 40
8.0
  1
Y
 72
     2
 11
633.830517
 21
-79.704769
 31
0.0
  0
TEXT
  5
32AB
  8
AXE
 10
646.153351
 20
-54.408437
 30
0.0
 40
8.0
  1
X
 72
     2
 11
652.629542
 21
-54.408437
 31
0.0
  0
LINE
  5
33F2
  8
ALPHA_FIN
 10
631.853293
 20
-61.511111
 30
0.0
 11
637.853282
 21
-61.511111
 31
0.0
  0
POLYLINE
  5
33F3
  8
ALPHA
 66
     1
 10
0.0
 20
0.0
 30
0.0
  0
VERTEX
  5
3731
  8
ALPHA
 10
632.151774
 20
-61.811111
 30
0.0
  0
VERTEX
  5
3732
  8
ALPHA
 10
637.553282
 20
-61.811111
 30
0.0
  0
SEQEND
  5
3733
  8
ALPHA
  0
LINE
  5
33F4
  8
ALPHA
 10
631.853293
 20
-61.511111
 30
0.0
 11
632.151774
 21
-61.811111
 31
0.0
  0
POLYLINE
  5
33F5
  8
ALPHA
 66
     1
 10
0.0
 20
0.0
 30
0.0
  0
VERTEX
  5
3734
  8
ALPHA
 10
631.853293
 20
-59.512762
 30
0.0
  0
VERTEX
  5
3735
  8
ALPHA
 10
631.853293
 20
-61.511111
 30
0.0
  0
SEQEND
  5
3736
  8
ALPHA
  0
POLYLINE
  5
33F6
  8
ALPHA_FIN
 66
     1
 10
0.0
 20
0.0
 30
0.0
  0
VERTEX
  5
3737
  8
ALPHA_FIN
 10
632.151774
 20
-59.512762
 30
0.0
  0
VERTEX
  5
3738
  8
ALPHA_FIN
 10
632.151774
 20
-61.811111
 30
0.0
  0
SEQEND
  5
3739
  8
ALPHA_FIN
  0
LINE
  5
33F7
  8
ALPHA_FIN
 10
637.553282
 20
-61.811111
 30
0.0
 11
637.553282
 21
-59.512762
 31
0.0
  0
LINE
  5
33F8
  8
ALPHA
 10
637.853282
 20
-61.511111
 30
0.0
 11
637.553282
 21
-61.811111
 31
0.0
  0
POLYLINE
  5
33F9
  8
ALPHA
 66
     1
 10
0.0
 20
0.0
 30
0.0
  0
VERTEX
  5
373A
  8
ALPHA
 10
637.853282
 20
-61.511111
 30
0.0
  0
VERTEX
  5
373B
  8
ALPHA
 10
637.853282
 20
-59.512762
 30
0.0
  0
SEQEND
  5
373C
  8
ALPHA
  0
LINE
  5
33FA
  8
ALPHA_FIN
 10
637.857175
 20
-47.111105
 30
0.0
 11
631.857186
 21
-47.111105
 31
0.0
  0
POLYLINE
  5
33FB
  8
ALPHA
 66
     1
 10
0.0
 20
0.0
 30
0.0
  0
VERTEX
  5
373D
  8
ALPHA
 10
637.557175
 20
-46.811105
 30
0.0
  0
VERTEX
  5
373E
  8
ALPHA
 10
632.157186
 20
-46.811105
 30
0.0
  0
SEQEND
  5
373F
  8
ALPHA
  0
LINE
  5
33FC
  8
ALPHA
 10
632.157186
 20
-46.811105
 30
0.0
 11
631.857186
 21
-47.111105
 31
0.0
  0
LINE
  5
33FD
  8
ALPHA_FIN
 10
632.157186
 20
-46.811105
 30
0.0
 11
632.157186
 21
-51.305543
 31
0.0
  0
POLYLINE
  5
33FE
  8
ALPHA
 66
     1
 10
0.0
 20
0.0
 30
0.0
  0
VERTEX
  5
3740
  8
ALPHA
 10
631.857186
 20
-47.111105
 30
0.0
  0
VERTEX
  5
3741
  8
ALPHA
 10
631.857186
 20
-51.305543
 30
0.0
  0
SEQEND
  5
3742
  8
ALPHA
  0
LINE
  5
33FF
  8
ALPHA
 10
637.557175
 20
-46.811105
 30
0.0
 11
637.857175
 21
-47.111105
 31
0.0
  0
POLYLINE
  5
3400
  8
ALPHA_FIN
 66
     1
 10
0.0
 20
0.0
 30
0.0
  0
VERTEX
  5
3743
  8
ALPHA_FIN
 10
637.557175
 20
-51.305543
 30
0.0
  0
VERTEX
  5
3744
  8
ALPHA_FIN
 10
637.557175
 20
-46.811105
 30
0.0
  0
SEQEND
  5
3745
  8
ALPHA_FIN
  0
POLYLINE
  5
3401
  8
ALPHA
 66
     1
 10
0.0
 20
0.0
 30
0.0
  0
VERTEX
  5
3746
  8
ALPHA
 10
637.857175
 20
-51.305543
 30
0.0
  0
VERTEX
  5
3747
  8
ALPHA
 10
637.857175
 20
-47.111105
 30
0.0
  0
SEQEND
  5
3748
  8
ALPHA
  0
ENDSEC
  0
EOF
